  0
SECTION
  2
HEADER
  9
$ACADVER
  1
AC1015
  9
$ACADMAINTVER
 70
     6
  9
$DWGCODEPAGE
  3
ANSI_932
  9
$INSBASE
 10
0.0
 20
0.0
 30
0.0
  9
$EXTMIN
 10
0.0
 20
0.0
 30
0.0
  9
$EXTMAX
 10
630.0000000000003
 20
891.0000000000003
 30
0.0
  9
$LIMMIN
 10
0.0
 20
0.0
  9
$LIMMAX
 10
12.0
 20
9.0
  9
$ORTHOMODE
 70
     0
  9
$REGENMODE
 70
     1
  9
$FILLMODE
 70
     1
  9
$QTEXTMODE
 70
     0
  9
$MIRRTEXT
 70
     1
  9
$LTSCALE
 40
1.0
  9
$ATTMODE
 70
     1
  9
$TEXTSIZE
 40
0.2
  9
$TRACEWID
 40
0.05
  9
$TEXTSTYLE
  7
Standard
  9
$CLAYER
  8
0
  9
$CELTYPE
  6
ByLayer
  9
$CECOLOR
 62
   256
  9
$CELTSCALE
 40
1.0
  9
$DISPSILH
 70
     0
  9
$DIMSCALE
 40
1.0
  9
$DIMASZ
 40
0.18
  9
$DIMEXO
 40
0.0625
  9
$DIMDLI
 40
0.38
  9
$DIMRND
 40
0.0
  9
$DIMDLE
 40
0.0
  9
$DIMEXE
 40
0.18
  9
$DIMTP
 40
0.0
  9
$DIMTM
 40
0.0
  9
$DIMTXT
 40
0.18
  9
$DIMCEN
 40
0.09
  9
$DIMTSZ
 40
0.0
  9
$DIMTOL
 70
     0
  9
$DIMLIM
 70
     0
  9
$DIMTIH
 70
     1
  9
$DIMTOH
 70
     1
  9
$DIMSE1
 70
     0
  9
$DIMSE2
 70
     0
  9
$DIMTAD
 70
     0
  9
$DIMZIN
 70
     0
  9
$DIMBLK
  1

  9
$DIMASO
 70
     1
  9
$DIMSHO
 70
     1
  9
$DIMPOST
  1

  9
$DIMAPOST
  1

  9
$DIMALT
 70
     0
  9
$DIMALTD
 70
     2
  9
$DIMALTF
 40
25.4
  9
$DIMLFAC
 40
1.0
  9
$DIMTOFL
 70
     0
  9
$DIMTVP
 40
0.0
  9
$DIMTIX
 70
     0
  9
$DIMSOXD
 70
     0
  9
$DIMSAH
 70
     0
  9
$DIMBLK1
  1

  9
$DIMBLK2
  1

  9
$DIMSTYLE
  2
Standard
  9
$DIMCLRD
 70
     0
  9
$DIMCLRE
 70
     0
  9
$DIMCLRT
 70
     0
  9
$DIMTFAC
 40
1.0
  9
$DIMGAP
 40
0.09
  9
$DIMJUST
 70
     0
  9
$DIMSD1
 70
     0
  9
$DIMSD2
 70
     0
  9
$DIMTOLJ
 70
     1
  9
$DIMTZIN
 70
     0
  9
$DIMALTZ
 70
     0
  9
$DIMALTTZ
 70
     0
  9
$DIMUPT
 70
     0
  9
$DIMDEC
 70
     4
  9
$DIMTDEC
 70
     4
  9
$DIMALTU
 70
     2
  9
$DIMALTTD
 70
     2
  9
$DIMTXSTY
  7
Standard
  9
$DIMAUNIT
 70
     0
  9
$DIMADEC
 70
     0
  9
$DIMALTRND
 40
0.0
  9
$DIMAZIN
 70
     0
  9
$DIMDSEP
 70
    46
  9
$DIMATFIT
 70
     3
  9
$DIMFRAC
 70
     0
  9
$DIMLDRBLK
  1

  9
$DIMLUNIT
 70
     2
  9
$DIMLWD
 70
    -2
  9
$DIMLWE
 70
    -2
  9
$DIMTMOVE
 70
     0
  9
$LUNITS
 70
     2
  9
$LUPREC
 70
     4
  9
$SKETCHINC
 40
0.1
  9
$FILLETRAD
 40
0.5
  9
$AUNITS
 70
     0
  9
$AUPREC
 70
     0
  9
$MENU
  1
.
  9
$ELEVATION
 40
0.0
  9
$PELEVATION
 40
0.0
  9
$THICKNESS
 40
0.0
  9
$LIMCHECK
 70
     0
  9
$CHAMFERA
 40
0.5
  9
$CHAMFERB
 40
0.5
  9
$CHAMFERC
 40
1.0
  9
$CHAMFERD
 40
0.0
  9
$SKPOLY
 70
     0
  9
$TDCREATE
 40
2456563.537019421
  9
$TDUCREATE
 40
2456563.162019421
  9
$TDUPDATE
 40
2456563.537020683
  9
$TDUUPDATE
 40
2456563.162020683
  9
$TDINDWG
 40
0.0000000116
  9
$TDUSRTIMER
 40
0.0000000116
  9
$USRTIMER
 70
     1
  9
$ANGBASE
 50
0.0
  9
$ANGDIR
 70
     0
  9
$PDMODE
 70
     0
  9
$PDSIZE
 40
0.0
  9
$PLINEWID
 40
0.0
  9
$SPLFRAME
 70
     0
  9
$SPLINETYPE
 70
     6
  9
$SPLINESEGS
 70
     8
  9
$HANDSEED
  5
2B9
  9
$SURFTAB1
 70
     6
  9
$SURFTAB2
 70
     6
  9
$SURFTYPE
 70
     6
  9
$SURFU
 70
     6
  9
$SURFV
 70
     6
  9
$UCSBASE
  2

  9
$UCSNAME
  2

  9
$UCSORG
 10
0.0
 20
0.0
 30
0.0
  9
$UCSXDIR
 10
1.0
 20
0.0
 30
0.0
  9
$UCSYDIR
 10
0.0
 20
1.0
 30
0.0
  9
$UCSORTHOREF
  2

  9
$UCSORTHOVIEW
 70
     0
  9
$UCSORGTOP
 10
0.0
 20
0.0
 30
0.0
  9
$UCSORGBOTTOM
 10
0.0
 20
0.0
 30
0.0
  9
$UCSORGLEFT
 10
0.0
 20
0.0
 30
0.0
  9
$UCSORGRIGHT
 10
0.0
 20
0.0
 30
0.0
  9
$UCSORGFRONT
 10
0.0
 20
0.0
 30
0.0
  9
$UCSORGBACK
 10
0.0
 20
0.0
 30
0.0
  9
$PUCSBASE
  2

  9
$PUCSNAME
  2

  9
$PUCSORG
 10
0.0
 20
0.0
 30
0.0
  9
$PUCSXDIR
 10
1.0
 20
0.0
 30
0.0
  9
$PUCSYDIR
 10
0.0
 20
1.0
 30
0.0
  9
$PUCSORTHOREF
  2

  9
$PUCSORTHOVIEW
 70
     0
  9
$PUCSORGTOP
 10
0.0
 20
0.0
 30
0.0
  9
$PUCSORGBOTTOM
 10
0.0
 20
0.0
 30
0.0
  9
$PUCSORGLEFT
 10
0.0
 20
0.0
 30
0.0
  9
$PUCSORGRIGHT
 10
0.0
 20
0.0
 30
0.0
  9
$PUCSORGFRONT
 10
0.0
 20
0.0
 30
0.0
  9
$PUCSORGBACK
 10
0.0
 20
0.0
 30
0.0
  9
$USERI1
 70
     0
  9
$USERI2
 70
     0
  9
$USERI3
 70
     0
  9
$USERI4
 70
     0
  9
$USERI5
 70
     0
  9
$USERR1
 40
18.1
  9
$USERR2
 40
0.0
  9
$USERR3
 40
0.0
  9
$USERR4
 40
0.0
  9
$USERR5
 40
0.0
  9
$WORLDVIEW
 70
     1
  9
$SHADEDGE
 70
     3
  9
$SHADEDIF
 70
    70
  9
$TILEMODE
 70
     1
  9
$MAXACTVP
 70
    64
  9
$PINSBASE
 10
0.0
 20
0.0
 30
0.0
  9
$PLIMCHECK
 70
     0
  9
$PEXTMIN
 10
1.00000000000000E+20
 20
1.00000000000000E+20
 30
1.00000000000000E+20
  9
$PEXTMAX
 10
-1.00000000000000E+20
 20
-1.00000000000000E+20
 30
-1.00000000000000E+20
  9
$PLIMMIN
 10
0.0
 20
0.0
  9
$PLIMMAX
 10
12.0
 20
9.0
  9
$UNITMODE
 70
     0
  9
$VISRETAIN
 70
     1
  9
$PLINEGEN
 70
     0
  9
$PSLTSCALE
 70
     1
  9
$TREEDEPTH
 70
  3020
  9
$CMLSTYLE
  2
Standard
  9
$CMLJUST
 70
     0
  9
$CMLSCALE
 40
1.0
  9
$PROXYGRAPHICS
 70
     1
  9
$MEASUREMENT
 70
     1
  9
$CELWEIGHT
370
    -1
  9
$ENDCAPS
280
     0
  9
$JOINSTYLE
280
     0
  9
$LWDISPLAY
290
     0
  9
$INSUNITS
 70
     4
  9
$HYPERLINKBASE
  1

  9
$STYLESHEET
  1

  9
$XEDIT
290
     1
  9
$CEPSNTYPE
380
     0
  9
$PSTYLEMODE
290
     1
  9
$FINGERPRINTGUID
  2
{D9D1B46E-F1F9-4586-8344-4B21424EEF04}
  9
$VERSIONGUID
  2
{FAEB1C32-E019-11D5-929B-00C0DF256EC4}
  9
$EXTNAMES
290
     1
  9
$PSVPSCALE
 40
0.0
  9
$OLESTARTUP
290
     0
  0
ENDSEC
  0
SECTION
  2
CLASSES
  0
CLASS
  1
ACDBDICTIONARYWDFLT
  2
AcDbDictionaryWithDefault
  3
ObjectDBX Classes
 90
        0
280
     0
281
     0
  0
CLASS
  1
VISUALSTYLE
  2
AcDbVisualStyle
  3
ObjectDBX Classes
 90
     4095
280
     0
281
     0
  0
CLASS
  1
MATERIAL
  2
AcDbMaterial
  3
ObjectDBX Classes
 90
     1153
280
     0
281
     0
  0
CLASS
  1
DICTIONARYVAR
  2
AcDbDictionaryVar
  3
ObjectDBX Classes
 90
        0
280
     0
281
     0
  0
CLASS
  1
ACDBPLACEHOLDER
  2
AcDbPlaceHolder
  3
ObjectDBX Classes
 90
        0
280
     0
281
     0
  0
CLASS
  1
LAYOUT
  2
AcDbLayout
  3
ObjectDBX Classes
 90
        0
280
     0
281
     0
  0
ENDSEC
  0
SECTION
  2
TABLES
  0
TABLE
  2
VPORT
  5
8
330
0
100
AcDbSymbolTable
 70
     1
  0
VPORT
  5
29
330
8
100
AcDbSymbolTableRecord
100
AcDbViewportTableRecord
  2
*Active
 70
     0
 10
0.0
 20
0.0
 11
1.0
 21
1.0
 12
315.0000000000002
 22
445.5000000000002
 13
0.0
 23
0.0
 14
0.5
 24
0.5
 15
0.5
 25
0.5
 16
0.0
 26
0.0
 36
1.0
 17
0.0
 27
0.0
 37
0.0
 40
980.1000000000005
 41
1.60267857142857
 42
50.0
 43
0.0
 44
0.0
 50
0.0
 51
0.0
 71
     0
 72
   100
 73
     1
 74
     3
 75
     0
 76
     0
 77
     0
 78
     0
281
     0
 65
     1
110
0.0
120
0.0
130
0.0
111
1.0
121
0.0
131
0.0
112
0.0
122
1.0
132
0.0
 79
     0
146
0.0
  0
ENDTAB
  0
TABLE
  2
LTYPE
  5
5
330
0
100
AcDbSymbolTable
 70
     8
  0
LTYPE
  5
14
330
5
100
AcDbSymbolTableRecord
100
AcDbLinetypeTableRecord
  2
ByBlock
 70
     0
  3

 72
    65
 73
     0
 40
0.0
  0
LTYPE
  5
15
330
5
100
AcDbSymbolTableRecord
100
AcDbLinetypeTableRecord
  2
ByLayer
 70
     0
  3

 72
    65
 73
     0
 40
0.0
  0
LTYPE
  5
16
330
5
100
AcDbSymbolTableRecord
100
AcDbLinetypeTableRecord
  2
Continuous
 70
     0
  3
Solid line
 72
    65
 73
     0
 40
0.0
  0
LTYPE
  5
3F
330
5
100
AcDbSymbolTableRecord
100
AcDbLinetypeTableRecord
  2
DASHED
 70
     0
  3
Dashed
 72
    65
 73
     2
 40
15.0
 49
7.0
 74
     0
 49
-8.0
 74
     0
  0
LTYPE
  5
40
330
5
100
AcDbSymbolTableRecord
100
AcDbLinetypeTableRecord
  2
DOTTED
 70
     0
  3
Dotted
 72
    65
 73
     2
 40
1.0
 49
0.0
 74
     0
 49
-1.0
 74
     0
  0
LTYPE
  5
41
330
5
100
AcDbSymbolTableRecord
100
AcDbLinetypeTableRecord
  2
DOT_CENTER
 70
     0
  3
Dot_Center
 72
    65
 73
     4
 40
14.0
 49
12.0
 74
     0
 49
-1.0
 74
     0
 49
0.0
 74
     0
 49
-1.0
 74
     0
  0
LTYPE
  5
42
330
5
100
AcDbSymbolTableRecord
100
AcDbLinetypeTableRecord
  2
LONG_DASHED
 70
     0
  3
Long_Dashed
 72
    65
 73
     2
 40
15.0
 49
10.0
 74
     0
 49
-5.0
 74
     0
  0
LTYPE
  5
43
330
5
100
AcDbSymbolTableRecord
100
AcDbLinetypeTableRecord
  2
DASH_CENTER
 70
     0
  3
Dash_Center
 72
    65
 73
     4
 40
14.0
 49
11.0
 74
     0
 49
-1.0
 74
     0
 49
1.0
 74
     0
 49
-1.0
 74
     0
  0
LTYPE
  5
44
330
5
100
AcDbSymbolTableRecord
100
AcDbLinetypeTableRecord
  2
PHANTOM
 70
     0
  3
Phantom
 72
    65
 73
     6
 40
13.0
 49
10.0
 74
     0
 49
-1.0
 74
     0
 49
0.0
 74
     0
 49
-1.0
 74
     0
 49
0.0
 74
     0
 49
-1.0
 74
     0
  0
LTYPE
  5
45
330
5
100
AcDbSymbolTableRecord
100
AcDbLinetypeTableRecord
  2
CENTER_DASH_DASH
 70
     0
  3
Center_Dash_Dash
 72
    65
 73
     6
 40
14.0
 49
9.0
 74
     0
 49
-1.0
 74
     0
 49
1.0
 74
     0
 49
-1.0
 74
     0
 49
1.0
 74
     0
 49
-1.0
 74
     0
  0
ENDTAB
  0
TABLE
  2
LAYER
  5
2
330
0
100
AcDbSymbolTable
 70
     2
  0
LAYER
  5
10
330
2
100
AcDbSymbolTableRecord
100
AcDbLayerTableRecord
  2
0
 70
     0
 62
     7
  6
Continuous
370
    -3
390
F
  0
LAYER
  5
46
330
2
100
AcDbSymbolTableRecord
100
AcDbLayerTableRecord
  2
1
 70
     0
 62
     7
  6
Continuous
370
    -3
390
F
  0
ENDTAB
  0
TABLE
  2
STYLE
  5
3
330
0
100
AcDbSymbolTable
 70
     3
  0
STYLE
  5
11
330
3
100
AcDbSymbolTableRecord
100
AcDbTextStyleTableRecord
  2
Standard
 70
     0
 40
0.0
 41
1.0
 50
0.0
 71
     0
 42
0.2
  3
txt
  4

  0
STYLE
  5
13A
330
3
100
AcDbSymbolTableRecord
100
AcDbTextStyleTableRecord
  2
CONVERTER_11
 70
     0
 40
0.0
 41
0.89
 50
0.0
 71
     0
 42
0.2
  3
MS Mincho.ttf
  4

1001
ACAD
1000
MS Mincho
1071
    32785
  0
STYLE
  5
232
330
3
100
AcDbSymbolTableRecord
100
AcDbTextStyleTableRecord
  2
CONVERTER_12
 70
     0
 40
0.0
 41
0.9
 50
0.0
 71
     0
 42
0.2
  3
txt.shx
  4

  0
ENDTAB
  0
TABLE
  2
VIEW
  5
6
330
0
100
AcDbSymbolTable
 70
     0
  0
ENDTAB
  0
TABLE
  2
UCS
  5
7
330
0
100
AcDbSymbolTable
 70
     0
  0
ENDTAB
  0
TABLE
  2
APPID
  5
9
330
0
100
AcDbSymbolTable
 70
     1
  0
APPID
  5
12
330
9
100
AcDbSymbolTableRecord
100
AcDbRegAppTableRecord
  2
ACAD
 70
     0
  0
ENDTAB
  0
TABLE
  2
DIMSTYLE
  5
A
330
0
100
AcDbSymbolTable
 70
     8
100
AcDbDimStyleTable
  0
DIMSTYLE
105
27
330
A
100
AcDbSymbolTableRecord
100
AcDbDimStyleTableRecord
  2
Standard
 70
     0
178
     0
340
11
  0
DIMSTYLE
105
245
102
{ACAD_REACTORS
330
246
102
}
330
A
100
AcDbSymbolTableRecord
100
AcDbDimStyleTableRecord
  2
ME10_DIM_10
 70
     0
 41
10.5
 42
0.0
 44
3.0
 73
     0
 74
     0
 77
     1
 78
     8
140
10.5
147
3.0
172
     1
173
     1
174
     1
175
     1
176
     2
177
     2
271
     2
178
     7
271
     2
340
232
  0
DIMSTYLE
105
250
102
{ACAD_REACTORS
330
251
102
}
330
A
100
AcDbSymbolTableRecord
100
AcDbDimStyleTableRecord
  2
ME10_DIM_11
 70
     0
 41
10.50000000000001
 42
0.0
 44
3.0
 73
     0
 74
     0
 77
     1
 78
     8
140
10.5
147
3.0
172
     1
173
     1
174
     1
175
     1
176
     2
177
     2
271
     2
178
     7
271
     2
340
232
  0
DIMSTYLE
105
25B
102
{ACAD_REACTORS
330
25C
102
}
330
A
100
AcDbSymbolTableRecord
100
AcDbDimStyleTableRecord
  2
ME10_DIM_12
 70
     0
 41
10.5
 42
0.0
 44
3.0
 73
     0
 74
     0
 77
     1
 78
     8
140
10.5
147
3.0
172
     1
173
     1
174
     1
175
     1
176
     2
177
     2
271
     2
178
     7
271
     2
340
232
  0
DIMSTYLE
105
268
102
{ACAD_REACTORS
330
269
102
}
330
A
100
AcDbSymbolTableRecord
100
AcDbDimStyleTableRecord
  2
ME10_DIM_13
 70
     0
 41
10.5
 42
0.0
 44
3.0
 73
     0
 74
     0
 77
     1
 78
     8
140
10.5
147
3.0
172
     1
173
     1
174
     1
175
     1
176
     2
177
     2
271
     2
178
     7
271
     2
340
232
  0
DIMSTYLE
105
275
102
{ACAD_REACTORS
330
276
102
}
330
A
100
AcDbSymbolTableRecord
100
AcDbDimStyleTableRecord
  2
ME10_DIM_14
 70
     0
 41
10.5
 42
0.0
 44
3.0
 73
     0
 74
     0
 77
     1
 78
     8
140
10.5
147
3.0
172
     1
173
     1
174
     1
175
     1
176
     2
177
     2
271
     2
178
     7
271
     2
340
232
  0
DIMSTYLE
105
281
102
{ACAD_REACTORS
330
282
102
}
330
A
100
AcDbSymbolTableRecord
100
AcDbDimStyleTableRecord
  2
ME10_DIM_15
 70
     0
 41
10.5
 42
0.0
 44
3.0
 73
     0
 74
     0
 77
     1
 78
     8
140
10.5
147
3.0
172
     1
173
     1
174
     1
175
     1
176
     2
177
     2
271
     2
178
     7
271
     2
340
13A
  0
DIMSTYLE
105
28C
102
{ACAD_REACTORS
330
28D
102
}
330
A
100
AcDbSymbolTableRecord
100
AcDbDimStyleTableRecord
  2
ME10_DIM_16
 70
     0
 41
10.5
 42
0.0
 44
3.0
 73
     0
 74
     0
 77
     1
 78
     8
140
10.5
147
3.0
172
     1
173
     1
174
     1
175
     1
176
     2
177
     2
271
     2
178
     7
271
     2
340
232
  0
ENDTAB
  0
TABLE
  2
BLOCK_RECORD
  5
1
330
0
100
AcDbSymbolTable
 70
    18
  0
BLOCK_RECORD
  5
1F
330
1
100
AcDbSymbolTableRecord
100
AcDbBlockTableRecord
  2
*Model_Space
340
22
  0
BLOCK_RECORD
  5
1B
330
1
100
AcDbSymbolTableRecord
100
AcDbBlockTableRecord
  2
*Paper_Space
340
1E
  0
BLOCK_RECORD
  5
23
330
1
100
AcDbSymbolTableRecord
100
AcDbBlockTableRecord
  2
*Paper_Space0
340
26
  0
BLOCK_RECORD
  5
47
330
1
100
AcDbSymbolTableRecord
100
AcDbBlockTableRecord
  2
32-12-M2
340
0
102
{BLKREFS
331
68
102
}
  0
BLOCK_RECORD
  5
4A
330
1
100
AcDbSymbolTableRecord
100
AcDbBlockTableRecord
  2
91-1
340
0
102
{BLKREFS
331
54
102
}
  0
BLOCK_RECORD
  5
4D
330
1
100
AcDbSymbolTableRecord
100
AcDbBlockTableRecord
  2
36-3-13
340
0
102
{BLKREFS
331
55
102
}
  0
BLOCK_RECORD
  5
50
330
1
100
AcDbSymbolTableRecord
100
AcDbBlockTableRecord
  2
37-1-13
340
0
102
{BLKREFS
331
56
102
}
  0
BLOCK_RECORD
  5
53
330
1
100
AcDbSymbolTableRecord
100
AcDbBlockTableRecord
  2
R10AK-13Z
340
0
102
{BLKREFS
331
69
102
}
  0
BLOCK_RECORD
  5
59
330
1
100
AcDbSymbolTableRecord
100
AcDbBlockTableRecord
  2
開示A4
340
0
102
{BLKREFS
331
6A
102
}
  0
BLOCK_RECORD
  5
5C
330
1
100
AcDbSymbolTableRecord
100
AcDbBlockTableRecord
  2
64-7-13-420-M11
340
0
102
{BLKREFS
331
6B
102
}
  0
BLOCK_RECORD
  5
5F
330
1
100
AcDbSymbolTableRecord
100
AcDbBlockTableRecord
  2
78-167
340
0
102
{BLKREFS
331
6C
102
}
  0
BLOCK_RECORD
  5
62
330
1
100
AcDbSymbolTableRecord
100
AcDbBlockTableRecord
  2
V21-2-0A-13-M1
340
0
102
{BLKREFS
331
6D
102
}
  0
BLOCK_RECORD
  5
65
330
1
100
AcDbSymbolTableRecord
100
AcDbBlockTableRecord
  2
V21-2-0A
340
0
102
{BLKREFS
331
6E
102
}
  0
BLOCK_RECORD
  5
23A
330
1
100
AcDbSymbolTableRecord
100
AcDbBlockTableRecord
  2
*D11
340
0
  0
BLOCK_RECORD
  5
247
330
1
100
AcDbSymbolTableRecord
100
AcDbBlockTableRecord
  2
*D12
340
0
  0
BLOCK_RECORD
  5
252
330
1
100
AcDbSymbolTableRecord
100
AcDbBlockTableRecord
  2
*D13
340
0
  0
BLOCK_RECORD
  5
25D
330
1
100
AcDbSymbolTableRecord
100
AcDbBlockTableRecord
  2
*D14
340
0
  0
BLOCK_RECORD
  5
26A
330
1
100
AcDbSymbolTableRecord
100
AcDbBlockTableRecord
  2
*D15
340
0
  0
BLOCK_RECORD
  5
277
330
1
100
AcDbSymbolTableRecord
100
AcDbBlockTableRecord
  2
*D16
340
0
  0
BLOCK_RECORD
  5
283
330
1
100
AcDbSymbolTableRecord
100
AcDbBlockTableRecord
  2
*D17
340
0
  0
ENDTAB
  0
ENDSEC
  0
SECTION
  2
BLOCKS
  0
BLOCK
  5
20
330
1F
100
AcDbEntity
  8
0
100
AcDbBlockBegin
  2
*Model_Space
 70
     0
 10
0.0
 20
0.0
 30
0.0
  3
*Model_Space
  1

  0
ENDBLK
  5
21
330
1F
100
AcDbEntity
  8
0
100
AcDbBlockEnd
  0
BLOCK
  5
1C
330
1B
100
AcDbEntity
 67
     1
  8
0
100
AcDbBlockBegin
  2
*Paper_Space
 70
     0
 10
0.0
 20
0.0
 30
0.0
  3
*Paper_Space
  1

  0
ENDBLK
  5
1D
330
1B
100
AcDbEntity
 67
     1
  8
0
100
AcDbBlockEnd
  0
BLOCK
  5
24
330
23
100
AcDbEntity
  8
0
100
AcDbBlockBegin
  2
*Paper_Space0
 70
     0
 10
0.0
 20
0.0
 30
0.0
  3
*Paper_Space0
  1

  0
ENDBLK
  5
25
330
23
100
AcDbEntity
  8
0
100
AcDbBlockEnd
  0
BLOCK
  5
48
330
47
100
AcDbEntity
  8
0
100
AcDbBlockBegin
  2
32-12-M2
 70
     0
 10
311.0356166437392
 20
697.2040673785477
 30
0.0
  3
32-12-M2
  1

  0
LINE
  5
6F
330
47
100
AcDbEntity
  8
1
  6
Continuous
 62
     7
100
AcDbLine
 10
384.1076951545867
 20
658.1614610364331
 30
0.0
 11
405.8923048454133
 21
658.1614610364331
 31
0.0
  0
LINE
  5
70
330
47
100
AcDbEntity
  8
1
  6
Continuous
 62
     7
100
AcDbLine
 10
388.3
 20
670.1614610364331
 30
0.0
 11
384.1076951545867
 21
670.1614610364331
 31
0.0
  0
LINE
  5
71
330
47
100
AcDbEntity
  8
1
  6
Continuous
 62
     7
100
AcDbLine
 10
405.8923048454133
 20
670.1614610364331
 30
0.0
 11
401.7000000000001
 21
670.1614610364331
 31
0.0
  0
LINE
  5
72
330
47
100
AcDbEntity
  8
1
  6
Continuous
 62
     7
100
AcDbLine
 10
401.7000000000001
 20
670.1614610364331
 30
0.0
 11
388.3
 21
670.1614610364331
 31
0.0
  0
LINE
  5
73
330
47
100
AcDbEntity
  8
1
  6
Continuous
 62
     7
100
AcDbLine
 10
236.5073593128805
 20
793.9798419615872
 30
0.0
 11
237.2153903091729
 21
793.5710600752832
 31
0.0
  0
LINE
  5
74
330
47
100
AcDbEntity
  8
1
  6
Continuous
 62
     7
100
AcDbLine
 10
237.2153903091729
 20
793.5710600752832
 30
0.0
 11
244.9926406871189
 21
789.0808624760207
 31
0.0
  0
LINE
  5
75
330
47
100
AcDbEntity
  8
1
  6
Continuous
 62
     7
100
AcDbLine
 10
246.4999999999998
 20
786.4700395608493
 30
0.0
 11
246.4999999999998
 21
776.6720805897169
 31
0.0
  0
LINE
  5
76
330
47
100
AcDbEntity
  8
1
  6
Continuous
 62
     7
100
AcDbLine
 10
244.9926406871189
 20
774.0612576745449
 30
0.0
 11
236.5073593128805
 21
769.1622781889787
 31
0.0
  0
LINE
  5
77
330
47
100
AcDbEntity
  8
1
  6
Continuous
 62
     7
100
AcDbLine
 10
233.4926406871189
 20
769.1622781889787
 30
0.0
 11
225.0073593128805
 21
774.0612576745449
 31
0.0
  0
LINE
  5
78
330
47
100
AcDbEntity
  8
1
  6
Continuous
 62
     7
100
AcDbLine
 10
223.4999999999998
 20
776.6720805897169
 30
0.0
 11
223.4999999999998
 21
786.4700395608493
 31
0.0
  0
LINE
  5
79
330
47
100
AcDbEntity
  8
1
  6
Continuous
 62
     7
100
AcDbLine
 10
225.0073593128805
 20
789.0808624760207
 30
0.0
 11
233.4926406871189
 21
793.9798419615872
 31
0.0
  0
LINE
  5
7A
330
47
100
AcDbEntity
  8
1
  6
Continuous
 62
     7
100
AcDbLine
 10
224.1076951545866
 20
670.1614610364331
 30
0.0
 11
245.8923048454132
 21
670.1614610364331
 31
0.0
  0
LINE
  5
7B
330
47
100
AcDbEntity
  8
1
  6
Continuous
 62
     7
100
AcDbLine
 10
246.5
 20
668.9572925597458
 30
0.0
 11
246.5
 21
659.3656295131204
 31
0.0
  0
LINE
  5
7C
330
47
100
AcDbEntity
  8
1
  6
Continuous
 62
     7
100
AcDbLine
 10
223.5
 20
668.9572925597458
 30
0.0
 11
223.5
 21
659.3656295131203
 31
0.0
  0
LINE
  5
7D
330
47
100
AcDbEntity
  8
1
  6
Continuous
 62
     7
100
AcDbLine
 10
245.8923048454132
 20
658.1614610364331
 30
0.0
 11
224.1076951545866
 21
658.1614610364331
 31
0.0
  0
ARC
  5
7E
330
47
100
AcDbEntity
  8
1
  6
Continuous
 62
     7
100
AcDbCircle
 10
395.5000000000001
 20
664.1614610364331
 30
0.0
 40
11.99999999999995
100
AcDbArc
 50
329.9999999999999
 51
9.59406822686048
  0
ARC
  5
7F
330
47
100
AcDbEntity
  8
1
  6
Continuous
 62
     7
100
AcDbCircle
 10
394.5000000000001
 20
664.1614610364331
 30
0.0
 40
12.00000000000015
100
AcDbArc
 50
150.0000000000004
 51
209.9999999999996
  0
ARC
  5
80
330
47
100
AcDbEntity
  8
1
  6
Continuous
 62
     7
100
AcDbCircle
 10
395.5000000000001
 20
664.1614610364331
 30
0.0
 40
11.99999999999998
100
AcDbArc
 50
9.59406822686048
 51
30.00000000000014
  0
ARC
  5
81
330
47
100
AcDbEntity
  8
1
  6
Continuous
 62
     7
100
AcDbCircle
 10
234.9999999999998
 20
781.571060075283
 30
0.0
 40
12.50000000000004
100
AcDbArc
 50
83.07391806563103
 51
90.0
  0
ARC
  5
82
330
47
100
AcDbEntity
  8
1
  6
Continuous
 62
     7
100
AcDbCircle
 10
234.9999999999998
 20
781.571060075283
 30
0.0
 40
12.5
100
AcDbArc
 50
90.0
 51
96.92608193436988
  0
ARC
  5
83
330
47
100
AcDbEntity
  8
1
  6
Continuous
 62
     7
100
AcDbCircle
 10
234.9999999999998
 20
781.571060075283
 30
0.0
 40
12.49999999999998
100
AcDbArc
 50
23.0739180656308
 51
36.92608193436904
  0
ARC
  5
84
330
47
100
AcDbEntity
  8
1
  6
Continuous
 62
     7
100
AcDbCircle
 10
234.9999999999998
 20
781.571060075283
 30
0.0
 40
12.49999999999997
100
AcDbArc
 50
323.0739180656298
 51
336.9260819343701
  0
ARC
  5
85
330
47
100
AcDbEntity
  8
1
  6
Continuous
 62
     7
100
AcDbCircle
 10
234.9999999999998
 20
781.571060075283
 30
0.0
 40
12.5
100
AcDbArc
 50
270.0
 51
276.926081934369
  0
ARC
  5
86
330
47
100
AcDbEntity
  8
1
  6
Continuous
 62
     7
100
AcDbCircle
 10
234.9999999999998
 20
781.571060075283
 30
0.0
 40
12.50000000000007
100
AcDbArc
 50
263.0739180656301
 51
270.0
  0
ARC
  5
87
330
47
100
AcDbEntity
  8
1
  6
Continuous
 62
     7
100
AcDbCircle
 10
234.9999999999998
 20
781.571060075283
 30
0.0
 40
12.49999999999989
100
AcDbArc
 50
203.0739180656298
 51
216.9260819343698
  0
ARC
  5
88
330
47
100
AcDbEntity
  8
1
  6
Continuous
 62
     7
100
AcDbCircle
 10
234.9999999999998
 20
781.571060075283
 30
0.0
 40
12.49999999999992
100
AcDbArc
 50
143.0739180656315
 51
156.9260819343692
  0
ARC
  5
89
330
47
100
AcDbEntity
  8
1
  6
Continuous
 62
     7
100
AcDbCircle
 10
235.5
 20
664.1614610364331
 30
0.0
 40
11.99999999999999
100
AcDbArc
 50
23.55646430910114
 51
30.00000000000014
  0
ARC
  5
8A
330
47
100
AcDbEntity
  8
1
  6
Continuous
 62
     7
100
AcDbCircle
 10
234.5
 20
664.1614610364331
 30
0.0
 40
12.00000000000004
100
AcDbArc
 50
203.5564643091016
 51
209.9999999999997
  0
ARC
  5
8B
330
47
100
AcDbEntity
  8
1
  6
Continuous
 62
     7
100
AcDbCircle
 10
235.5
 20
664.1614610364331
 30
0.0
 40
11.99999999999995
100
AcDbArc
 50
329.9999999999999
 51
336.4435356908989
  0
ARC
  5
8C
330
47
100
AcDbEntity
  8
1
  6
Continuous
 62
     7
100
AcDbCircle
 10
234.5
 20
664.1614610364331
 30
0.0
 40
12.00000000000012
100
AcDbArc
 50
150.0000000000003
 51
156.4435356908989
  0
ARC
  5
8D
330
47
100
AcDbEntity
  8
1
  6
Continuous
 62
     7
100
AcDbCircle
 10
234.9999999999998
 20
781.571060075283
 30
0.0
 40
5.750000000000035
100
AcDbArc
 50
74.87833468508903
 51
85.01145802444194
  0
ARC
  5
8E
330
47
100
AcDbEntity
  8
1
  6
Continuous
 62
     7
100
AcDbCircle
 10
234.9999999999998
 20
781.571060075283
 30
0.0
 40
5.749999999999983
100
AcDbArc
 50
85.01145802444194
 51
274.9885419755581
  0
ARC
  5
8F
330
47
100
AcDbEntity
  8
1
  6
Continuous
 62
     7
100
AcDbCircle
 10
234.9999999999998
 20
781.571060075283
 30
0.0
 40
5.749999999999816
100
AcDbArc
 50
285.1216653149116
 51
74.87833468508903
  0
ARC
  5
90
330
47
100
AcDbEntity
  8
1
  6
Continuous
 62
     7
100
AcDbCircle
 10
234.9999999999998
 20
781.571060075283
 30
0.0
 40
5.74999999999987
100
AcDbArc
 50
274.9885419755581
 51
285.1216653149116
  0
CIRCLE
  5
91
330
47
100
AcDbEntity
  8
1
  6
Continuous
 62
     7
100
AcDbCircle
 10
395.0000000000001
 20
664.2003125396433
 30
0.0
 40
4.83560691187779
  0
CIRCLE
  5
92
330
47
100
AcDbEntity
  8
1
  6
Continuous
 62
     7
100
AcDbCircle
 10
234.9999999999998
 20
781.571060075283
 30
0.0
 40
6.699999999999818
  0
CIRCLE
  5
93
330
47
100
AcDbEntity
  8
1
  6
Continuous
 62
     7
100
AcDbCircle
 10
234.9999999999998
 20
781.571060075283
 30
0.0
 40
10.89230484541349
  0
SPLINE
  5
94
330
47
100
AcDbEntity
  8
1
  6
Continuous
 62
     7
100
AcDbSpline
210
0.0
220
0.0
230
1.0
 70
    11
 71
     3
 72
    79
 73
    75
 74
    73
 42
0.000000001
 43
0.0000000001
 44
0.00000001
 40
0.0
 40
0.0
 40
0.0
 40
0.0
 40
0.3721269260570163
 40
0.7442241997297003
 40
1.120685945014133
 40
1.497095191274414
 40
1.88009563745678
 40
2.263031406812019
 40
2.653902197250556
 40
3.044706822193694
 40
3.443784211100159
 40
3.842802205856673
 40
4.249442255543098
 40
4.656034921659789
 40
5.068738053464887
 40
5.481408611065394
 40
5.898019637060253
 40
6.314614155791316
 40
6.732568579170178
 40
7.150523002539526
 40
7.567117521242612
 40
7.983728547189728
 40
8.396399104722953
 40
8.80910223643998
 40
9.215694902447304
 40
9.622334952000003
 40
10.02135294659934
 40
10.42043033532018
 40
10.81123496004988
 40
11.20210575023855
 40
11.58504151930478
 40
11.96804196513948
 40
12.34445121096123
 40
12.72091295559531
 40
13.09301022779958
 40
13.4651371625902
 40
13.83573641483316
 40
14.20633566707497
 40
14.57846260186229
 40
14.95055987406102
 40
15.32702161868743
 40
15.70343086449971
 40
16.08643131032309
 40
16.46936707937644
 40
16.8602378695507
 40
17.25104249426463
 40
17.65011988296839
 40
18.04913787755004
 40
18.45577792708405
 40
18.86237059307208
 40
19.27507372476888
 40
19.68774428228154
 40
20.104355308208
 40
20.52094982688932
 40
20.93890425023706
 40
21.35685867359366
 40
21.77345319230227
 40
22.19006421827441
 40
22.60273477585195
 40
23.01543790763359
 40
23.42203057372648
 40
23.8286706233878
 40
24.2276886181184
 40
24.62676600699711
 40
25.01757063190947
 40
25.40844142231186
 40
25.79137719162089
 40
26.17437763773581
 40
26.55078688387741
 40
26.92724862888879
 40
27.29934590156123
 40
27.67147283702682
 40
28.04207209076657
 40
28.41267133429875
 40
28.41267133429875
 40
28.41267133429875
 40
28.41267133429875
 10
240.3798558779105
 20
668.9389313290847
 30
0.0
 10
240.2567096173518
 20
668.9232173237327
 30
0.0
 10
240.0104269082137
 20
668.8917905707606
 30
0.0
 10
239.6478037252357
 20
668.798375015752
 30
0.0
 10
239.2940129882233
 20
668.6727287139912
 30
0.0
 10
238.9508427867868
 20
668.5113098738896
 30
0.0
 10
238.6223144564925
 20
668.3177243585034
 30
0.0
 10
238.3093066706081
 20
668.0916063295502
 30
0.0
 10
238.0158813875491
 20
667.8366367214248
 30
0.0
 10
237.7425603530668
 20
667.5527428791252
 30
0.0
 10
237.4929792891033
 20
667.2442755650368
 30
0.0
 10
237.2675685669166
 20
666.9113650458676
 30
0.0
 10
237.0692326792162
 20
666.5587755101677
 30
0.0
 10
236.8984526339304
 20
666.1870423637881
 30
0.0
 10
236.7572448544313
 20
665.8009619254863
 30
0.0
 10
236.6461428838863
 20
665.40171383983
 30
0.0
 10
236.5662739290977
 20
664.9937443415693
 30
0.0
 10
236.5180969489494
 20
664.5790655273258
 30
0.0
 10
236.5019817503565
 20
664.1614610460845
 30
0.0
 10
236.5180969486287
 20
663.743856564832
 30
0.0
 10
236.566273928457
 20
663.3291777506045
 30
0.0
 10
236.646142882912
 20
662.9212082522392
 30
0.0
 10
236.7572448531592
 20
662.5219601668908
 30
0.0
 10
236.8984526322015
 20
662.135879727341
 30
0.0
 10
237.0692326775869
 20
661.7641465854094
 30
0.0
 10
237.2675685632889
 20
661.4115570330825
 30
0.0
 10
237.492979291136
 20
661.0786465746305
 30
0.0
 10
237.7425603324641
 20
660.7701790360946
 30
0.0
 10
238.0158814479624
 20
660.4862860145598
 30
0.0
 10
238.3093064300835
 20
660.2313133765084
 30
0.0
 10
238.6223153153777
 20
660.0052064364075
 30
0.0
 10
238.9508395808491
 20
659.8115799441762
 30
0.0
 10
239.2940247017647
 20
659.6503115297529
 30
0.0
 10
239.6477601647089
 20
659.5241079604908
 30
0.0
 10
240.0105873638468
 20
659.4327492935452
 30
0.0
 10
240.3787522335408
 20
659.3780252258614
 30
0.0
 10
240.7499999994287
 20
659.3594444198337
 30
0.0
 10
241.1212477653166
 20
659.3780252258387
 30
0.0
 10
241.4894126350106
 20
659.4327492934998
 30
0.0
 10
241.8522398341487
 20
659.5241079604226
 30
0.0
 10
242.2059752970927
 20
659.6503115296623
 30
0.0
 10
242.5491604180083
 20
659.8115799440635
 30
0.0
 10
242.8776846834798
 20
660.0052064362733
 30
0.0
 10
243.1906935687739
 20
660.2313133763519
 30
0.0
 10
243.4841185508947
 20
660.4862860143816
 30
0.0
 10
243.7574396663929
 20
660.7701790358949
 30
0.0
 10
244.0070207077206
 20
661.0786465744095
 30
0.0
 10
244.2324314355674
 20
661.4115570328403
 30
0.0
 10
244.430767321269
 20
661.7641465851458
 30
0.0
 10
244.6015473666536
 20
662.1358797270568
 30
0.0
 10
244.742755145695
 20
662.5219601665851
 30
0.0
 10
244.8538571159418
 20
662.9212082519131
 30
0.0
 10
244.9337260703959
 20
663.3291777502562
 30
0.0
 10
244.9819030502238
 20
663.7438565644634
 30
0.0
 10
244.9980182484948
 20
664.161461045692
 30
0.0
 10
244.9819030499023
 20
664.5790655269176
 30
0.0
 10
244.9337260697514
 20
664.9937443411158
 30
0.0
 10
244.8538571149725
 20
665.4017138394365
 30
0.0
 10
244.7427551443937
 20
665.8009619247634
 30
0.0
 10
244.6015473650264
 20
666.1870423641731
 30
0.0
 10
244.4307673192682
 20
666.5587755063646
 30
0.0
 10
244.2324314333362
 20
666.9113650574326
 30
0.0
 10
244.0070207046992
 20
667.2442755201569
 30
0.0
 10
243.7574396645993
 20
667.5527430425232
 30
0.0
 10
243.484118542888
 20
667.8366361227615
 30
0.0
 10
243.1906935819078
 20
668.0916085436088
 30
0.0
 10
242.8776846174019
 20
668.3177162780669
 30
0.0
 10
242.5491606427047
 20
668.5113398342393
 30
0.0
 10
242.2059744523351
 20
668.6726190261587
 30
0.0
 10
241.8522429490902
 20
668.7987826681559
 30
0.0
 10
241.4894011321128
 20
668.8902887065992
 30
0.0
 10
241.1212906103972
 20
668.9444648239144
 30
0.0
 10
240.7498407940523
 20
668.9650827354051
 30
0.0
 10
240.5031841822801
 20
668.947648462552
 30
0.0
 10
240.3798558779105
 20
668.9389313290847
 30
0.0
 11
240.3798558779105
 21
668.9389313290847
 31
0.0
 11
240.0117852474178
 21
668.884136560084
 31
0.0
 11
239.6508959689757
 21
668.7934982192567
 31
0.0
 11
239.2963248415016
 21
668.6669962000107
 31
0.0
 11
238.955544920373
 21
668.5071432493722
 31
0.0
 11
238.625553920395
 21
668.3127331632853
 31
0.0
 11
238.3149837691157
 21
668.0887108775955
 31
0.0
 11
238.0198658025807
 21
667.8324193237588
 31
0.0
 11
237.748642976252
 21
667.5510540215338
 31
0.0
 11
237.4975210504903
 21
667.2408919015177
 31
0.0
 11
237.2736376569574
 21
666.9106017469446
 31
0.0
 11
237.0741666541577
 21
666.5562467709246
 31
0.0
 11
236.9042850027423
 21
666.1868447938834
 31
0.0
 11
236.7624340875302
 21
665.799285517315
 31
0.0
 11
236.6517008182735
 21
665.4017491891661
 31
0.0
 11
236.5716057629214
 21
664.9929099431229
 31
0.0
 11
236.5234812371282
 21
664.5791044053656
 31
0.0
 11
236.5073593128806
 21
664.1614610364331
 31
0.0
 11
236.5234812371283
 21
663.7438176675008
 31
0.0
 11
236.5716057629213
 21
663.3300121297433
 31
0.0
 11
236.6517008182735
 21
662.9211728837001
 31
0.0
 11
236.7624340875302
 21
662.5236365555514
 31
0.0
 11
236.9042850027423
 21
662.1360772789826
 31
0.0
 11
237.0741666541577
 21
661.7666753019414
 31
0.0
 11
237.2736376569574
 21
661.4123203259215
 31
0.0
 11
237.4975210504903
 21
661.0820301713486
 31
0.0
 11
237.7486429762519
 21
660.7718680513324
 31
0.0
 11
238.0198658025807
 21
660.4905027491073
 31
0.0
 11
238.3149837691156
 21
660.2342111952705
 31
0.0
 11
238.6255539203949
 21
660.0101889095808
 31
0.0
 11
238.955544920373
 21
659.815778823494
 31
0.0
 11
239.2963248415016
 21
659.6559258728557
 31
0.0
 11
239.6508959689757
 21
659.5294238536098
 31
0.0
 11
240.0117852474178
 21
659.4387855127825
 31
0.0
 11
240.3798558779105
 21
659.3839907437817
 31
0.0
 11
240.7499999999999
 21
659.3656295131206
 31
0.0
 11
241.1201441220892
 21
659.3839907437819
 31
0.0
 11
241.488214752582
 21
659.4387855127825
 31
0.0
 11
241.8491040310241
 21
659.5294238536097
 31
0.0
 11
242.2036751584981
 21
659.6559258728555
 31
0.0
 11
242.5444550796266
 21
659.8157788234939
 31
0.0
 11
242.8744460796047
 21
660.0101889095808
 31
0.0
 11
243.185016230884
 21
660.2342111952705
 31
0.0
 11
243.4801341974189
 21
660.4905027491075
 31
0.0
 11
243.7513570237476
 21
660.7718680513324
 31
0.0
 11
244.0024789495092
 21
661.0820301713485
 31
0.0
 11
244.2263623430422
 21
661.4123203259214
 31
0.0
 11
244.425833345842
 21
661.7666753019414
 31
0.0
 11
244.5957149972573
 21
662.1360772789826
 31
0.0
 11
244.7375659124694
 21
662.5236365555513
 31
0.0
 11
244.8482991817262
 21
662.9211728837
 31
0.0
 11
244.9283942370785
 21
663.3300121297435
 31
0.0
 11
244.9765187628716
 21
663.7438176675007
 31
0.0
 11
244.9926406871191
 21
664.1614610364331
 31
0.0
 11
244.9765187628716
 21
664.5791044053655
 31
0.0
 11
244.9283942370785
 21
664.9929099431226
 31
0.0
 11
244.8482991817262
 21
665.401749189166
 31
0.0
 11
244.7375659124694
 21
665.7992855173147
 31
0.0
 11
244.5957149972573
 21
666.1868447938834
 31
0.0
 11
244.4258333458421
 21
666.5562467709248
 31
0.0
 11
244.2263623430423
 21
666.9106017469446
 31
0.0
 11
244.0024789495094
 21
667.2408919015176
 31
0.0
 11
243.7513570237477
 21
667.5510540215339
 31
0.0
 11
243.480134197419
 21
667.8324193237588
 31
0.0
 11
243.1850162308839
 21
668.0887108775955
 31
0.0
 11
242.8744460796046
 21
668.3127331632852
 31
0.0
 11
242.5444550796266
 21
668.5071432493721
 31
0.0
 11
242.2036751584981
 21
668.6669962000105
 31
0.0
 11
241.8491040310241
 21
668.7934982192564
 31
0.0
 11
241.4882147525821
 21
668.8841365600839
 31
0.0
 11
241.1201441220893
 21
668.9389313290845
 31
0.0
 11
240.7499999999999
 21
668.9572925597458
 31
0.0
 11
240.3798558779105
 21
668.9389313290847
 31
0.0
  0
SPLINE
  5
95
330
47
100
AcDbEntity
  8
1
  6
Continuous
 62
     7
100
AcDbSpline
210
0.0
220
0.0
230
1.0
 70
    11
 71
     3
 72
    79
 73
    75
 74
    73
 42
0.000000001
 43
0.0000000001
 44
0.00000001
 40
0.0
 40
0.0
 40
0.0
 40
0.0
 40
0.3721269260570163
 40
0.74422419972959
 40
1.120685945013969
 40
1.497095191274276
 40
1.880095637456715
 40
2.263031406811931
 40
2.653902197250469
 40
3.044706822193626
 40
3.443784211100073
 40
3.842802205856604
 40
4.249442255543014
 40
4.65603492165967
 40
5.068738053464768
 40
5.48140861106529
 40
5.898019637060161
 40
6.31461415579123
 40
6.732568579170092
 40
7.150523002539439
 40
7.567117521242538
 40
7.983728547189648
 40
8.396399104722873
 40
8.809102236439928
 40
9.2156949024473
 40
9.622334951999985
 40
10.02135294659935
 40
10.42043033532016
 40
10.81123496004976
 40
11.20210575023848
 40
11.58504151930471
 40
11.96804196513941
 40
12.3444512109611
 40
12.72091295559516
 40
13.09301022779937
 40
13.46513716258999
 40
13.83573641483298
 40
14.20633566707482
 40
14.5784626018622
 40
14.95055987406087
 40
15.32702161868725
 40
15.7034308644995
 40
16.08643131032291
 40
16.4693670793763
 40
16.86023786955061
 40
17.25104249426456
 40
17.65011988296833
 40
18.04913787754997
 40
18.45577792708394
 40
18.86237059307198
 40
19.27507372476877
 40
19.68774428228143
 40
20.10435530820787
 40
20.5209498268892
 40
20.93890425023694
 40
21.35685867359355
 40
21.77345319230216
 40
22.19006421827431
 40
22.60273477585184
 40
23.01543790763348
 40
23.42203057372641
 40
23.8286706233877
 40
24.22768861811831
 40
24.62676600699702
 40
25.01757063190936
 40
25.40844142231173
 40
25.79137719162079
 40
26.17437763773573
 40
26.55078688387731
 40
26.92724862888871
 40
27.29934590156121
 40
27.67147283702679
 40
28.04207209076655
 40
28.41267133429873
 40
28.41267133429873
 40
28.41267133429873
 40
28.41267133429873
 10
229.6201441220892
 20
668.9389313290847
 30
0.0
 10
229.7432903826478
 20
668.9232173237327
 30
0.0
 10
229.989573091786
 20
668.8917905707606
 30
0.0
 10
230.3521962747639
 20
668.798375015752
 30
0.0
 10
230.7059870117763
 20
668.672728713991
 30
0.0
 10
231.0491572132127
 20
668.5113098738898
 30
0.0
 10
231.3776855435072
 20
668.3177243585033
 30
0.0
 10
231.6906933293915
 20
668.0916063295504
 30
0.0
 10
231.9841186124505
 20
667.8366367214247
 30
0.0
 10
232.2574396469329
 20
667.5527428791254
 30
0.0
 10
232.5070207108964
 20
667.2442755650366
 30
0.0
 10
232.732431433083
 20
666.9113650458679
 30
0.0
 10
232.9307673207835
 20
666.5587755101676
 30
0.0
 10
233.1015473660692
 20
666.1870423637881
 30
0.0
 10
233.2427551455683
 20
665.800961925486
 30
0.0
 10
233.3538571161133
 20
665.4017138398302
 30
0.0
 10
233.4337260709019
 20
664.993744341569
 30
0.0
 10
233.4819030510504
 20
664.5790655273258
 30
0.0
 10
233.4980182496432
 20
664.1614610460846
 30
0.0
 10
233.4819030513711
 20
663.7438565648318
 30
0.0
 10
233.4337260715427
 20
663.3291777506042
 30
0.0
 10
233.3538571170876
 20
662.9212082522392
 30
0.0
 10
233.2427551468404
 20
662.5219601668905
 30
0.0
 10
233.1015473677981
 20
662.1358797273411
 30
0.0
 10
232.9307673224126
 20
661.7641465854092
 30
0.0
 10
232.7324314367105
 20
661.4115570330827
 30
0.0
 10
232.5070207088635
 20
661.0786465746303
 30
0.0
 10
232.2574396675354
 20
660.7701790360946
 30
0.0
 10
231.9841185520372
 20
660.4862860145598
 30
0.0
 10
231.6906935699161
 20
660.2313133765086
 30
0.0
 10
231.3776846846219
 20
660.0052064364078
 30
0.0
 10
231.0491604191505
 20
659.8115799441758
 30
0.0
 10
230.7059752982349
 20
659.6503115297531
 30
0.0
 10
230.3522398352908
 20
659.5241079604906
 30
0.0
 10
229.9894126361529
 20
659.4327492935452
 30
0.0
 10
229.6212477664589
 20
659.3780252258616
 30
0.0
 10
229.250000000571
 20
659.3594444198336
 30
0.0
 10
228.878752234683
 20
659.3780252258389
 30
0.0
 10
228.5105873649891
 20
659.4327492934999
 30
0.0
 10
228.1477601658509
 20
659.5241079604226
 30
0.0
 10
227.7940247029069
 20
659.6503115296623
 30
0.0
 10
227.4508395819915
 20
659.8115799440636
 30
0.0
 10
227.1223153165199
 20
660.0052064362729
 30
0.0
 10
226.8093064312258
 20
660.2313133763517
 30
0.0
 10
226.5158814491048
 20
660.4862860143816
 30
0.0
 10
226.2425603336066
 20
660.7701790358949
 30
0.0
 10
225.992979292279
 20
661.0786465744095
 30
0.0
 10
225.7675685644321
 20
661.4115570328402
 30
0.0
 10
225.5692326787307
 20
661.7641465851459
 30
0.0
 10
225.398452633346
 20
662.1358797270567
 30
0.0
 10
225.2572448543045
 20
662.5219601665852
 30
0.0
 10
225.1461428840578
 20
662.9212082519127
 30
0.0
 10
225.0662739296038
 20
663.3291777502565
 30
0.0
 10
225.0180969497759
 20
663.7438565644632
 30
0.0
 10
225.0019817515047
 20
664.1614610456924
 30
0.0
 10
225.0180969500972
 20
664.5790655269174
 30
0.0
 10
225.0662739302483
 20
664.993744341116
 30
0.0
 10
225.1461428850272
 20
665.4017138394363
 30
0.0
 10
225.2572448556059
 20
665.8009619247634
 30
0.0
 10
225.3984526349732
 20
666.187042364173
 30
0.0
 10
225.5692326807315
 20
666.5587755063648
 30
0.0
 10
225.7675685666636
 20
666.9113650574325
 30
0.0
 10
225.9929792953005
 20
667.2442755201569
 30
0.0
 10
226.2425603354002
 20
667.5527430425228
 30
0.0
 10
226.5158814571117
 20
667.8366361227615
 30
0.0
 10
226.8093064180919
 20
668.0916085436088
 30
0.0
 10
227.1223153825977
 20
668.317716278067
 30
0.0
 10
227.4508393572949
 20
668.5113398342389
 30
0.0
 10
227.7940255476646
 20
668.6726190261589
 30
0.0
 10
228.1477570509095
 20
668.7987826681556
 30
0.0
 10
228.5105988678868
 20
668.8902887065993
 30
0.0
 10
228.8787093896025
 20
668.9444648239144
 30
0.0
 10
229.2501592059475
 20
668.9650827354052
 30
0.0
 10
229.4968158177195
 20
668.947648462552
 30
0.0
 10
229.6201441220892
 20
668.9389313290847
 30
0.0
 11
229.6201441220892
 21
668.9389313290847
 31
0.0
 11
229.9882147525819
 21
668.884136560084
 31
0.0
 11
230.3491040310239
 21
668.7934982192567
 31
0.0
 11
230.703675158498
 21
668.6669962000107
 31
0.0
 11
231.0444550796265
 21
668.5071432493722
 31
0.0
 11
231.3744460796047
 21
668.3127331632853
 31
0.0
 11
231.685016230884
 21
668.0887108775955
 31
0.0
 11
231.9801341974189
 21
667.8324193237588
 31
0.0
 11
232.2513570237477
 21
667.5510540215338
 31
0.0
 11
232.5024789495093
 21
667.2408919015177
 31
0.0
 11
232.7263623430423
 21
666.9106017469446
 31
0.0
 11
232.9258333458419
 21
666.5562467709246
 31
0.0
 11
233.0957149972573
 21
666.1868447938834
 31
0.0
 11
233.2375659124693
 21
665.799285517315
 31
0.0
 11
233.3482991817261
 21
665.4017491891661
 31
0.0
 11
233.4283942370783
 21
664.9929099431229
 31
0.0
 11
233.4765187628715
 21
664.5791044053656
 31
0.0
 11
233.4926406871191
 21
664.1614610364331
 31
0.0
 11
233.4765187628715
 21
663.7438176675008
 31
0.0
 11
233.4283942370783
 21
663.3300121297433
 31
0.0
 11
233.3482991817262
 21
662.9211728837001
 31
0.0
 11
233.2375659124694
 21
662.5236365555514
 31
0.0
 11
233.0957149972573
 21
662.1360772789826
 31
0.0
 11
232.9258333458418
 21
661.7666753019414
 31
0.0
 11
232.7263623430421
 21
661.4123203259215
 31
0.0
 11
232.5024789495092
 21
661.0820301713486
 31
0.0
 11
232.2513570237476
 21
660.7718680513324
 31
0.0
 11
231.9801341974189
 21
660.4905027491073
 31
0.0
 11
231.6850162308839
 21
660.2342111952705
 31
0.0
 11
231.3744460796047
 21
660.0101889095808
 31
0.0
 11
231.0444550796266
 21
659.815778823494
 31
0.0
 11
230.703675158498
 21
659.6559258728557
 31
0.0
 11
230.349104031024
 21
659.5294238536098
 31
0.0
 11
229.9882147525819
 21
659.4387855127825
 31
0.0
 11
229.6201441220892
 21
659.3839907437817
 31
0.0
 11
229.2499999999998
 21
659.3656295131206
 31
0.0
 11
228.8798558779104
 21
659.3839907437819
 31
0.0
 11
228.5117852474176
 21
659.4387855127825
 31
0.0
 11
228.1508959689756
 21
659.5294238536097
 31
0.0
 11
227.7963248415016
 21
659.6559258728555
 31
0.0
 11
227.4555449203731
 21
659.8157788234939
 31
0.0
 11
227.125553920395
 21
660.0101889095808
 31
0.0
 11
226.8149837691156
 21
660.2342111952705
 31
0.0
 11
226.5198658025806
 21
660.4905027491075
 31
0.0
 11
226.2486429762519
 21
660.7718680513324
 31
0.0
 11
225.9975210504903
 21
661.0820301713485
 31
0.0
 11
225.7736376569573
 21
661.4123203259214
 31
0.0
 11
225.5741666541576
 21
661.7666753019414
 31
0.0
 11
225.4042850027423
 21
662.1360772789826
 31
0.0
 11
225.2624340875302
 21
662.5236365555513
 31
0.0
 11
225.1517008182734
 21
662.9211728837
 31
0.0
 11
225.0716057629213
 21
663.3300121297435
 31
0.0
 11
225.023481237128
 21
663.7438176675007
 31
0.0
 11
225.0073593128804
 21
664.1614610364331
 31
0.0
 11
225.023481237128
 21
664.5791044053655
 31
0.0
 11
225.0716057629211
 21
664.9929099431226
 31
0.0
 11
225.1517008182734
 21
665.401749189166
 31
0.0
 11
225.2624340875302
 21
665.7992855173147
 31
0.0
 11
225.4042850027423
 21
666.1868447938834
 31
0.0
 11
225.5741666541576
 21
666.5562467709248
 31
0.0
 11
225.7736376569573
 21
666.9106017469446
 31
0.0
 11
225.9975210504903
 21
667.2408919015176
 31
0.0
 11
226.2486429762519
 21
667.5510540215339
 31
0.0
 11
226.5198658025807
 21
667.8324193237588
 31
0.0
 11
226.8149837691157
 21
668.0887108775955
 31
0.0
 11
227.125553920395
 21
668.3127331632852
 31
0.0
 11
227.4555449203731
 21
668.5071432493721
 31
0.0
 11
227.7963248415015
 21
668.6669962000105
 31
0.0
 11
228.1508959689755
 21
668.7934982192564
 31
0.0
 11
228.5117852474176
 21
668.8841365600839
 31
0.0
 11
228.8798558779104
 21
668.9389313290845
 31
0.0
 11
229.2499999999998
 21
668.9572925597458
 31
0.0
 11
229.6201441220892
 21
668.9389313290847
 31
0.0
  0
SPLINE
  5
96
330
47
100
AcDbEntity
  8
1
  6
Continuous
 62
     7
100
AcDbSpline
210
0.0
220
0.0
230
1.0
 70
     8
 71
     3
 72
     9
 73
     5
 74
     3
 42
0.000000001
 43
0.0000000001
 44
0.00000001
 40
0.0
 40
0.0
 40
0.0
 40
0.0
 40
0.1078614971770892
 40
0.2165605020571713
 40
0.2165605020571713
 40
0.2165605020571713
 40
0.2165605020571713
 10
385.0407078564664
 20
668.9572925597458
 30
0.0
 10
385.0047201532987
 20
668.9564867800233
 30
0.0
 10
384.932465316049
 20
668.9548689440501
 30
0.0
 10
384.8610439432902
 20
668.9438017668238
 30
0.0
 10
384.8251951535311
 20
668.9382467681181
 30
0.0
 11
385.0407078564664
 21
668.9572925597458
 31
0.0
 11
384.9329515049988
 21
668.9525311118384
 31
0.0
 11
384.8251951535311
 21
668.9382467681181
 31
0.0
  0
SPLINE
  5
97
330
47
100
AcDbEntity
  8
1
  6
Continuous
 62
     7
100
AcDbSpline
210
0.0
220
0.0
230
1.0
 70
     8
 71
     3
 72
    79
 73
    75
 74
    73
 42
0.000000001
 43
0.0000000001
 44
0.00000001
 40
0.0
 40
0.0
 40
0.0
 40
0.0
 40
0.225143997897315
 40
0.4498541119670021
 40
0.6980863404815218
 40
0.9458096944797636
 40
1.225753243154772
 40
1.505341879078653
 40
1.820037943857025
 40
2.134517090535192
 40
2.48253379955587
 40
2.830421091323573
 40
3.207135643539715
 40
3.583774045888374
 40
3.982383401391389
 40
4.380950213765589
 40
4.793229953046342
 40
5.205490578409905
 40
5.622408657994557
 40
6.039326737583461
 40
6.451587362959523
 40
6.863867102260024
 40
7.262433914658188
 40
7.6610432701874
 40
8.037681672559392
 40
8.41439622479143
 40
8.762283516560862
 40
9.110300225559802
 40
9.42477937218598
 40
9.739475436861568
 40
10.01906407262838
 40
10.2990076210432
 40
10.54673097466203
 40
10.79496320248243
 40
11.01967331435988
 40
11.2448173186368
 40
11.46116996423974
 40
11.67752260984221
 40
11.90266661411828
 40
12.12737672599457
 40
12.37560895381321
 40
12.62333230743043
 40
12.90327585584351
 40
13.18286449160867
 40
13.4975605562823
 40
13.81203970290692
 40
14.16005641190435
 40
14.50794370367224
 40
14.88465825590282
 40
15.26129665827379
 40
15.65990601380203
 40
16.05847282619944
 40
16.47075256549968
 40
16.88301319087579
 40
17.2999312704656
 40
17.71684935005226
 40
18.12910997541912
 40
18.54138971470467
 40
18.93995652708531
 40
19.33856588259681
 40
19.71520428495592
 40
20.09191883718429
 40
20.43980612896531
 40
20.78782283799987
 40
21.10230198469038
 40
21.41699804947744
 40
21.69658668540065
 40
21.97653023405296
 40
22.22425358797806
 40
22.47248581623328
 40
22.69719592870118
 40
22.92233993393387
 40
23.03103894133809
 40
23.13890043287178
 40
23.13890043287178
 40
23.13890043287178
 40
23.13890043287178
 10
384.8251951535311
 20
668.9382467681181
 30
0.0
 10
384.7517601006905
 20
668.9218970985135
 30
0.0
 10
384.6050315121084
 20
668.8892292773642
 30
0.0
 10
384.3921431708
 20
668.7917989068999
 30
0.0
 10
384.1880102849993
 20
668.6641804039393
 30
0.0
 10
383.9882112526491
 20
668.4988774710824
 30
0.0
 10
383.8010590738749
 20
668.3048404329405
 30
0.0
 10
383.6200243900736
 20
668.0759830262923
 30
0.0
 10
383.4536651446031
 20
667.8223890838485
 30
0.0
 10
383.2961802406416
 20
667.5369531559256
 30
0.0
 10
383.1547167667078
 20
667.231012058049
 30
0.0
 10
383.0251091014147
 20
666.8975735625648
 30
0.0
 10
382.9125282420433
 20
666.54796733328
 30
0.0
 10
382.8144546132464
 20
666.176544079708
 30
0.0
 10
382.7341643899537
 20
665.7934274801828
 30
0.0
 10
382.6704062220938
 20
665.3952017132323
 30
0.0
 10
382.6249477714158
 20
664.9898940025068
 30
0.0
 10
382.597277960096
 20
664.5768637338213
 30
0.0
 10
382.588171172078
 20
664.1614610464271
 30
0.0
 10
382.5972779602659
 20
663.7460583590157
 30
0.0
 10
382.6249477717611
 20
663.3330280903804
 30
0.0
 10
382.6704062225605
 20
662.9277203794687
 30
0.0
 10
382.7341643906777
 20
662.5294946131839
 30
0.0
 10
382.8144546136514
 20
662.1463780112315
 30
0.0
 10
382.9125282440627
 20
661.774954766238
 30
0.0
 10
383.0251090979877
 20
661.4253485061304
 30
0.0
 10
383.154716782299
 20
661.0919101173164
 30
0.0
 10
383.2961801886617
 20
660.7859686406085
 30
0.0
 10
383.4536653215068
 20
660.5005339974189
 30
0.0
 10
383.6200237615079
 20
660.2469355369799
 30
0.0
 10
383.8010611339842
 20
660.0180932163622
 30
0.0
 10
383.9882038994456
 20
659.8240033679779
 30
0.0
 10
384.1880342611946
 20
659.6588762085315
 30
0.0
 10
384.392056717089
 20
659.5306381574657
 30
0.0
 10
384.6053206093116
 20
659.4353147697115
 30
0.0
 10
384.8212607097389
 20
659.3793275986209
 30
0.0
 10
385.0407078563667
 20
659.3589168677127
 30
0.0
 10
385.2601550029949
 20
659.3793275986178
 30
0.0
 10
385.4760951034218
 20
659.435314769706
 30
0.0
 10
385.6893589956442
 20
659.5306381574578
 30
0.0
 10
385.8933814515384
 20
659.6588762085215
 30
0.0
 10
386.0932118132866
 20
659.8240033679654
 30
0.0
 10
386.2803545787477
 20
660.0180932163485
 30
0.0
 10
386.461391951223
 20
660.246935536964
 30
0.0
 10
386.627750391223
 20
660.500533997402
 30
0.0
 10
386.7852355240667
 20
660.7859686405906
 30
0.0
 10
386.9266989304277
 20
661.0919101172976
 30
0.0
 10
387.0563066147361
 20
661.4253485061109
 30
0.0
 10
387.1688874686571
 20
661.7749547662186
 30
0.0
 10
387.2669610990635
 20
662.1463780112123
 30
0.0
 10
387.3472513220312
 20
662.529494613165
 30
0.0
 10
387.4110094901397
 20
662.9277203794505
 30
0.0
 10
387.4564679409292
 20
663.3330280903629
 30
0.0
 10
387.4841377524113
 20
663.7460583590001
 30
0.0
 10
387.4932445405834
 20
664.1614610464096
 30
0.0
 10
387.4841377525485
 20
664.5768637338181
 30
0.0
 10
387.4564679411988
 20
664.9898940024591
 30
0.0
 10
387.4110094905242
 20
665.3952017133576
 30
0.0
 10
387.3472513225312
 20
665.7934274796925
 30
0.0
 10
387.2669610995852
 20
666.1765440814672
 30
0.0
 10
387.1688874694129
 20
666.5479673270943
 30
0.0
 10
387.0563066148221
 20
666.897573584936
 30
0.0
 10
386.9266989328203
 20
667.2310119816036
 30
0.0
 10
386.7852355180546
 20
667.5369534304351
 30
0.0
 10
386.6277504132761
 20
667.8223881681735
 30
0.0
 10
386.461391873866
 20
668.0759862961239
 30
0.0
 10
386.2803548323551
 20
668.3048297269423
 30
0.0
 10
386.0932109069674
 20
668.4989156889103
 30
0.0
 10
385.8933844042602
 20
668.6640557837904
 30
0.0
 10
385.6893483442216
 20
668.7922482411518
 30
0.0
 10
385.4761307148059
 20
668.8877266854645
 30
0.0
 10
385.2949447334228
 20
668.9341973621125
 30
0.0
 10
385.1488954626491
 20
668.9545433457855
 30
0.0
 10
385.0766772940009
 20
668.956378517211
 30
0.0
 10
385.0407078564664
 20
668.9572925597458
 30
0.0
 11
384.8251951535311
 21
668.9382467681181
 31
0.0
 11
384.607279872361
 21
668.8816538980191
 31
0.0
 11
384.401633730718
 21
668.7910763133086
 31
0.0
 11
384.191065355895
 21
668.6596221444968
 31
0.0
 11
383.9994934098227
 21
668.5025646727188
 31
0.0
 11
383.8044444339094
 21
668.3017555909321
 31
0.0
 11
383.6304536989217
 21
668.0829016912351
 31
0.0
 11
383.4570726020913
 21
667.8202753246896
 31
0.0
 11
383.3047425807835
 21
667.5451522644349
 31
0.0
 11
383.1580361878977
 21
667.2295688934582
 31
0.0
 11
383.0316993532495
 21
666.9054322371106
 31
0.0
 11
382.9157407178233
 21
666.5470086765965
 31
0.0
 11
382.8193873470773
 21
666.1829035900048
 31
0.0
 11
382.7372876824204
 21
665.7928406933192
 31
0.0
 11
382.6741755751732
 21
665.3993024285273
 31
0.0
 11
382.6280141258402
 21
664.9896151038218
 31
0.0
 11
382.6004522329358
 21
664.5782768424262
 31
0.0
 11
382.5912181136958
 21
664.1614610364331
 31
0.0
 11
382.6004522329358
 21
663.74464523044
 31
0.0
 11
382.6280141258402
 21
663.3333069690443
 31
0.0
 11
382.6741755751732
 21
662.9236196443387
 31
0.0
 11
382.7372876824205
 21
662.5300813795469
 31
0.0
 11
382.8193873470773
 21
662.1400184828614
 31
0.0
 11
382.9157407178233
 21
661.7759133962696
 31
0.0
 11
383.0316993532495
 21
661.4174898357556
 31
0.0
 11
383.1580361878978
 21
661.093353179408
 31
0.0
 11
383.3047425807833
 21
660.7777698084312
 31
0.0
 11
383.4570726020912
 21
660.5026467481764
 31
0.0
 11
383.6304536989217
 21
660.240020381631
 31
0.0
 11
383.8044444339095
 21
660.0211664819341
 31
0.0
 11
383.9994934098228
 21
659.8203574001475
 31
0.0
 11
384.1910653558949
 21
659.6632999283692
 31
0.0
 11
384.4016337307179
 21
659.5318457595573
 31
0.0
 11
384.6072798723611
 21
659.441268174847
 31
0.0
 11
384.8251951535311
 21
659.384675304748
 31
0.0
 11
385.0407078564791
 21
659.3656295131204
 31
0.0
 11
385.2562205594268
 21
659.384675304748
 31
0.0
 11
385.4741358405969
 21
659.4412681748471
 31
0.0
 11
385.67978198224
 21
659.5318457595574
 31
0.0
 11
385.8903503570629
 21
659.6632999283693
 31
0.0
 11
386.0819223031352
 21
659.8203574001475
 31
0.0
 11
386.2769712790486
 21
660.0211664819342
 31
0.0
 11
386.4509620140363
 21
660.2400203816312
 31
0.0
 11
386.6243431108668
 21
660.5026467481765
 31
0.0
 11
386.7766731321747
 21
660.7777698084312
 31
0.0
 11
386.9233795250605
 21
661.093353179408
 31
0.0
 11
387.0497163597087
 21
661.4174898357555
 31
0.0
 11
387.1656749951346
 21
661.7759133962695
 31
0.0
 11
387.2620283658806
 21
662.1400184828614
 31
0.0
 11
387.3441280305375
 21
662.5300813795469
 31
0.0
 11
387.4072401377847
 21
662.9236196443387
 31
0.0
 11
387.4534015871178
 21
663.3333069690444
 31
0.0
 11
387.4809634800222
 21
663.74464523044
 31
0.0
 11
387.4901975992623
 21
664.161461036433
 31
0.0
 11
387.4809634800222
 21
664.5782768424261
 31
0.0
 11
387.4534015871178
 21
664.9896151038218
 31
0.0
 11
387.4072401377848
 21
665.3993024285273
 31
0.0
 11
387.3441280305375
 21
665.7928406933191
 31
0.0
 11
387.2620283658806
 21
666.1829035900046
 31
0.0
 11
387.1656749951346
 21
666.5470086765964
 31
0.0
 11
387.0497163597086
 21
666.9054322371105
 31
0.0
 11
386.9233795250605
 21
667.2295688934582
 31
0.0
 11
386.7766731321747
 21
667.5451522644348
 31
0.0
 11
386.6243431108668
 21
667.8202753246895
 31
0.0
 11
386.4509620140362
 21
668.0829016912351
 31
0.0
 11
386.2769712790485
 21
668.3017555909319
 31
0.0
 11
386.0819223031352
 21
668.5025646727187
 31
0.0
 11
385.890350357063
 21
668.659622144497
 31
0.0
 11
385.67978198224
 21
668.7910763133088
 31
0.0
 11
385.4741358405969
 21
668.8816538980192
 31
0.0
 11
385.2562205594268
 21
668.9382467681181
 31
0.0
 11
385.1484642079466
 21
668.9525311118394
 31
0.0
 11
385.0407078564664
 21
668.9572925597458
 31
0.0
  0
SPLINE
  5
98
330
47
100
AcDbEntity
  8
1
  6
Continuous
 62
     7
100
AcDbSpline
210
0.0
220
0.0
230
1.0
 70
     8
 71
     3
 72
    79
 73
    75
 74
    73
 42
0.000000001
 43
0.0000000001
 44
0.00000001
 40
0.0
 40
0.0
 40
0.0
 40
0.0
 40
0.2251439978972049
 40
0.4498541119670481
 40
0.6980863404814714
 40
0.9458096944797132
 40
1.225753243154801
 40
1.505341879078611
 40
1.820037943857045
 40
2.134517090535267
 40
2.482533799555898
 40
2.830421091323601
 40
3.207135643539725
 40
3.583774045888384
 40
3.982383401391399
 40
4.380950213765607
 40
4.793229953046367
 40
5.205490578409925
 40
5.62240865799458
 40
6.039326737583487
 40
6.451587362959549
 40
6.863867102260044
 40
7.262433914658208
 40
7.661043270187455
 40
8.037681672559433
 40
8.41439622479147
 40
8.762283516560924
 40
9.11030022555989
 40
9.424779372186068
 40
9.739475436861529
 40
10.01906407262838
 40
10.29900762104316
 40
10.54673097466216
 40
10.79496320248246
 40
11.01967331435992
 40
11.24481731863684
 40
11.46116996423966
 40
11.67752260984225
 40
11.90266661411832
 40
12.12737672599455
 40
12.37560895381324
 40
12.6233323074305
 40
12.90327585584362
 40
13.18286449160868
 40
13.49756055628228
 40
13.81203970290696
 40
14.16005641190434
 40
14.50794370367225
 40
14.88465825590286
 40
15.2612966582738
 40
15.65990601380204
 40
16.05847282619946
 40
16.47075256549968
 40
16.88301319087579
 40
17.2999312704656
 40
17.71684935005226
 40
18.12910997541911
 40
18.54138971470465
 40
18.93995652708529
 40
19.33856588259679
 40
19.71520428495589
 40
20.09191883718428
 40
20.43980612896532
 40
20.78782283799983
 40
21.10230198469037
 40
21.41699804947737
 40
21.69658668540058
 40
21.97653023405289
 40
22.22425358797808
 40
22.4724858162333
 40
22.6971959287012
 40
22.92233993393378
 40
23.03103894133811
 40
23.1389004328718
 40
23.1389004328718
 40
23.1389004328718
 40
23.1389004328718
 10
405.1748048464688
 20
668.9382467681181
 30
0.0
 10
405.2482398993093
 20
668.9218970985135
 30
0.0
 10
405.3949684878915
 20
668.889229277364
 30
0.0
 10
405.6078568291998
 20
668.7917989068999
 30
0.0
 10
405.8119897150007
 20
668.6641804039392
 30
0.0
 10
406.0117887473508
 20
668.4988774710826
 30
0.0
 10
406.1989409261252
 20
668.3048404329405
 30
0.0
 10
406.3799756099262
 20
668.0759830262923
 30
0.0
 10
406.5463348553969
 20
667.8223890838484
 30
0.0
 10
406.7038197593585
 20
667.5369531559259
 30
0.0
 10
406.8452832332922
 20
667.231012058049
 30
0.0
 10
406.9748908985852
 20
666.8975735625645
 30
0.0
 10
407.0874717579566
 20
666.5479673332801
 30
0.0
 10
407.1855453867535
 20
666.1765440797082
 30
0.0
 10
407.2658356100463
 20
665.793427480183
 30
0.0
 10
407.3295937779063
 20
665.395201713232
 30
0.0
 10
407.3750522285843
 20
664.9898940025066
 30
0.0
 10
407.4027220399039
 20
664.5768637338211
 30
0.0
 10
407.4118288279222
 20
664.1614610464272
 30
0.0
 10
407.4027220397338
 20
663.7460583590157
 30
0.0
 10
407.3750522282389
 20
663.3330280903804
 30
0.0
 10
407.3295937774395
 20
662.9277203794687
 30
0.0
 10
407.2658356093224
 20
662.5294946131839
 30
0.0
 10
407.1855453863484
 20
662.1463780112317
 30
0.0
 10
407.0874717559373
 20
661.7749547662379
 30
0.0
 10
406.9748909020122
 20
661.4253485061306
 30
0.0
 10
406.8452832177009
 20
661.0919101173163
 30
0.0
 10
406.7038198113382
 20
660.7859686406084
 30
0.0
 10
406.5463346784929
 20
660.5005339974191
 30
0.0
 10
406.3799762384922
 20
660.2469355369797
 30
0.0
 10
406.1989388660157
 20
660.0180932163624
 30
0.0
 10
406.0117961005544
 20
659.8240033679779
 30
0.0
 10
405.8119657388053
 20
659.6588762085316
 30
0.0
 10
405.6079432829109
 20
659.5306381574655
 30
0.0
 10
405.3946793906885
 20
659.4353147697113
 30
0.0
 10
405.1787392902613
 20
659.3793275986208
 30
0.0
 10
404.9592921436331
 20
659.3589168677127
 30
0.0
 10
404.7398449970051
 20
659.3793275986178
 30
0.0
 10
404.5239048965781
 20
659.435314769706
 30
0.0
 10
404.3106410043557
 20
659.5306381574578
 30
0.0
 10
404.1066185484617
 20
659.6588762085215
 30
0.0
 10
403.906788186713
 20
659.8240033679656
 30
0.0
 10
403.7196454212523
 20
660.0180932163481
 30
0.0
 10
403.5386080487768
 20
660.2469355369642
 30
0.0
 10
403.3722496087771
 20
660.500533997402
 30
0.0
 10
403.214764475933
 20
660.7859686405903
 30
0.0
 10
403.0733010695726
 20
661.0919101172977
 30
0.0
 10
402.9436933852638
 20
661.425348506111
 30
0.0
 10
402.8311125313427
 20
661.7749547662186
 30
0.0
 10
402.7330389009366
 20
662.1463780112124
 30
0.0
 10
402.6527486779689
 20
662.529494613165
 30
0.0
 10
402.58899050986
 20
662.9277203794504
 30
0.0
 10
402.5435320590712
 20
663.333028090363
 30
0.0
 10
402.5158622475885
 20
663.7460583589999
 30
0.0
 10
402.5067554594169
 20
664.1614610464098
 30
0.0
 10
402.5158622474516
 20
664.5768637338177
 30
0.0
 10
402.5435320588014
 20
664.9898940024591
 30
0.0
 10
402.5889905094757
 20
665.3952017133574
 30
0.0
 10
402.652748677469
 20
665.7934274796926
 30
0.0
 10
402.7330389004146
 20
666.1765440814672
 30
0.0
 10
402.8311125305872
 20
666.5479673270943
 30
0.0
 10
402.9436933851779
 20
666.897573584936
 30
0.0
 10
403.0733010671797
 20
667.2310119816035
 30
0.0
 10
403.2147644819452
 20
667.5369534304352
 30
0.0
 10
403.372249586724
 20
667.8223881681731
 30
0.0
 10
403.5386081261338
 20
668.0759862961238
 30
0.0
 10
403.7196451676447
 20
668.3048297269423
 30
0.0
 10
403.9067890930326
 20
668.4989156889103
 30
0.0
 10
404.1066155957398
 20
668.6640557837904
 30
0.0
 10
404.3106516557782
 20
668.7922482411517
 30
0.0
 10
404.5238692851941
 20
668.8877266854648
 30
0.0
 10
404.7050552665772
 20
668.9341973621125
 30
0.0
 10
404.8511045373508
 20
668.9545433457854
 30
0.0
 10
404.9233227059991
 20
668.9563785172109
 30
0.0
 10
404.9592921435336
 20
668.9572925597458
 30
0.0
 11
405.1748048464688
 21
668.9382467681181
 31
0.0
 11
405.3927201276388
 21
668.8816538980191
 31
0.0
 11
405.598366269282
 21
668.7910763133086
 31
0.0
 11
405.8089346441049
 21
668.6596221444968
 31
0.0
 11
406.0005065901772
 21
668.5025646727188
 31
0.0
 11
406.1955555660906
 21
668.3017555909321
 31
0.0
 11
406.3695463010782
 21
668.0829016912351
 31
0.0
 11
406.5429273979087
 21
667.8202753246896
 31
0.0
 11
406.6952574192166
 21
667.5451522644349
 31
0.0
 11
406.8419638121023
 21
667.2295688934582
 31
0.0
 11
406.9683006467505
 21
666.9054322371106
 31
0.0
 11
407.0842592821767
 21
666.5470086765965
 31
0.0
 11
407.1806126529227
 21
666.1829035900048
 31
0.0
 11
407.2627123175795
 21
665.7928406933192
 31
0.0
 11
407.3258244248268
 21
665.3993024285273
 31
0.0
 11
407.3719858741599
 21
664.9896151038218
 31
0.0
 11
407.3995477670642
 21
664.5782768424262
 31
0.0
 11
407.4087818863043
 21
664.1614610364331
 31
0.0
 11
407.3995477670642
 21
663.74464523044
 31
0.0
 11
407.3719858741598
 21
663.3333069690443
 31
0.0
 11
407.3258244248269
 21
662.9236196443387
 31
0.0
 11
407.2627123175795
 21
662.5300813795469
 31
0.0
 11
407.1806126529226
 21
662.1400184828614
 31
0.0
 11
407.0842592821766
 21
661.7759133962696
 31
0.0
 11
406.9683006467504
 21
661.4174898357556
 31
0.0
 11
406.8419638121021
 21
661.093353179408
 31
0.0
 11
406.6952574192165
 21
660.7777698084312
 31
0.0
 11
406.5429273979087
 21
660.5026467481764
 31
0.0
 11
406.3695463010783
 21
660.240020381631
 31
0.0
 11
406.1955555660905
 21
660.0211664819341
 31
0.0
 11
406.0005065901773
 21
659.8203574001475
 31
0.0
 11
405.8089346441049
 21
659.6632999283692
 31
0.0
 11
405.598366269282
 21
659.5318457595573
 31
0.0
 11
405.3927201276389
 21
659.441268174847
 31
0.0
 11
405.1748048464688
 21
659.384675304748
 31
0.0
 11
404.959292143521
 21
659.3656295131204
 31
0.0
 11
404.7437794405731
 21
659.384675304748
 31
0.0
 11
404.5258641594031
 21
659.4412681748471
 31
0.0
 11
404.32021801776
 21
659.5318457595574
 31
0.0
 11
404.109649642937
 21
659.6632999283693
 31
0.0
 11
403.9180776968647
 21
659.8203574001475
 31
0.0
 11
403.7230287209513
 21
660.0211664819342
 31
0.0
 11
403.5490379859637
 21
660.2400203816312
 31
0.0
 11
403.3756568891333
 21
660.5026467481765
 31
0.0
 11
403.2233268678253
 21
660.7777698084312
 31
0.0
 11
403.0766204749396
 21
661.093353179408
 31
0.0
 11
402.9502836402913
 21
661.4174898357555
 31
0.0
 11
402.8343250048653
 21
661.7759133962695
 31
0.0
 11
402.7379716341194
 21
662.1400184828614
 31
0.0
 11
402.6558719694625
 21
662.5300813795469
 31
0.0
 11
402.5927598622152
 21
662.9236196443387
 31
0.0
 11
402.5465984128824
 21
663.3333069690444
 31
0.0
 11
402.5190365199779
 21
663.74464523044
 31
0.0
 11
402.5098024007379
 21
664.161461036433
 31
0.0
 11
402.519036519978
 21
664.5782768424261
 31
0.0
 11
402.5465984128824
 21
664.9896151038218
 31
0.0
 11
402.5927598622152
 21
665.3993024285273
 31
0.0
 11
402.6558719694625
 21
665.7928406933191
 31
0.0
 11
402.7379716341194
 21
666.1829035900046
 31
0.0
 11
402.8343250048654
 21
666.5470086765964
 31
0.0
 11
402.9502836402914
 21
666.9054322371105
 31
0.0
 11
403.0766204749396
 21
667.2295688934582
 31
0.0
 11
403.2233268678253
 21
667.5451522644348
 31
0.0
 11
403.3756568891332
 21
667.8202753246895
 31
0.0
 11
403.5490379859637
 21
668.0829016912351
 31
0.0
 11
403.7230287209514
 21
668.3017555909319
 31
0.0
 11
403.9180776968647
 21
668.5025646727187
 31
0.0
 11
404.109649642937
 21
668.659622144497
 31
0.0
 11
404.32021801776
 21
668.7910763133088
 31
0.0
 11
404.5258641594031
 21
668.8816538980192
 31
0.0
 11
404.7437794405731
 21
668.9382467681181
 31
0.0
 11
404.8515357920534
 21
668.9525311118394
 31
0.0
 11
404.9592921435336
 21
668.9572925597458
 31
0.0
  0
SPLINE
  5
99
330
47
100
AcDbEntity
  8
1
  6
Continuous
 62
     7
100
AcDbSpline
210
0.0
220
0.0
230
1.0
 70
     8
 71
     3
 72
     9
 73
     5
 74
     3
 42
0.000000001
 43
0.0000000001
 44
0.00000001
 40
0.0
 40
0.0
 40
0.0
 40
0.0
 40
0.1078614971770325
 40
0.2165605020571145
 40
0.2165605020571145
 40
0.2165605020571145
 40
0.2165605020571145
 10
404.9592921435336
 20
668.9572925597458
 30
0.0
 10
404.9952798467012
 20
668.9564867800233
 30
0.0
 10
405.067534683951
 20
668.9548689440502
 30
0.0
 10
405.1389560567097
 20
668.9438017668238
 30
0.0
 10
405.1748048464688
 20
668.9382467681181
 30
0.0
 11
404.9592921435336
 21
668.9572925597458
 31
0.0
 11
405.0670484950011
 21
668.9525311118384
 31
0.0
 11
405.1748048464688
 21
668.9382467681181
 31
0.0
  0
ENDBLK
  5
49
330
47
100
AcDbEntity
  8
0
100
AcDbBlockEnd
  0
BLOCK
  5
4B
330
4A
100
AcDbEntity
  8
0
100
AcDbBlockBegin
  2
91-1
 70
     0
 10
236.5
 20
776.0201592474896
 30
0.0
  3
91-1
  1

  0
LINE
  5
9A
330
4A
100
AcDbEntity
  8
1
  6
Continuous
 62
     7
100
AcDbLine
 10
236.5
 20
787.1219609030766
 30
0.0
 11
236.5
 21
776.0201592474896
 31
0.0
  0
ENDBLK
  5
4C
330
4A
100
AcDbEntity
  8
0
100
AcDbBlockEnd
  0
BLOCK
  5
4E
330
4D
100
AcDbEntity
  8
0
100
AcDbBlockBegin
  2
36-3-13
 70
     0
 10
846.303253331595
 20
657.0363856121386
 30
0.0
  3
36-3-13
  1

  0
LINE
  5
9B
330
4D
100
AcDbEntity
  8
1
  6
Continuous
 62
     7
100
AcDbLine
 10
237.9999999999998
 20
786.4764142928701
 30
0.0
 11
237.9999999999998
 21
776.6657058576958
 31
0.0
  0
LINE
  5
9C
330
4D
100
AcDbEntity
  8
1
  6
Continuous
 62
     7
100
AcDbLine
 10
276.5
 20
639.9114610364331
 30
0.0
 11
275.5
 21
640.9114610364331
 31
0.0
  0
LINE
  5
9D
330
4D
100
AcDbEntity
  8
1
  6
Continuous
 62
     7
100
AcDbLine
 10
276.5
 20
639.9114610364331
 30
0.0
 11
276.5
 21
637.0614610364331
 31
0.0
  0
LINE
  5
9E
330
4D
100
AcDbEntity
  8
1
  6
Continuous
 62
     7
100
AcDbLine
 10
275.5
 20
631.4114610364334
 30
0.0
 11
276.5
 21
632.4114610364334
 31
0.0
  0
LINE
  5
9F
330
4D
100
AcDbEntity
  8
1
  6
Continuous
 62
     7
100
AcDbLine
 10
274.0
 20
631.4114610364334
 30
0.0
 11
275.5
 21
631.4114610364334
 31
0.0
  0
LINE
  5
A0
330
4D
100
AcDbEntity
  8
1
  6
Continuous
 62
     7
100
AcDbLine
 10
276.5
 20
635.261461036433
 30
0.0
 11
276.5
 21
632.4114610364334
 31
0.0
  0
LINE
  5
A1
330
4D
100
AcDbEntity
  8
1
  6
Continuous
 62
     7
100
AcDbLine
 10
275.5
 20
640.9114610364331
 30
0.0
 11
274.0
 21
640.9114610364331
 31
0.0
  0
LINE
  5
A2
330
4D
100
AcDbEntity
  8
1
  6
Continuous
 62
     7
100
AcDbLine
 10
275.5
 20
635.261461036433
 30
0.0
 11
275.5
 21
631.4114610364334
 31
0.0
  0
LINE
  5
A3
330
4D
100
AcDbEntity
  8
1
  6
Continuous
 62
     7
100
AcDbLine
 10
276.5
 20
635.261461036433
 30
0.0
 11
274.0
 21
635.261461036433
 31
0.0
  0
LINE
  5
A4
330
4D
100
AcDbEntity
  8
1
  6
Continuous
 62
     7
100
AcDbLine
 10
275.5
 20
637.0614610364331
 30
0.0
 11
275.5
 21
640.9114610364331
 31
0.0
  0
LINE
  5
A5
330
4D
100
AcDbEntity
  8
1
  6
Continuous
 62
     7
100
AcDbLine
 10
274.0
 20
637.0614610364331
 30
0.0
 11
276.5
 21
637.0614610364331
 31
0.0
  0
LINE
  5
A6
330
4D
100
AcDbEntity
  8
1
  6
Continuous
 62
     7
100
AcDbLine
 10
276.5
 20
785.2114584051365
 30
0.0
 11
275.5
 21
786.2350176222596
 31
0.0
  0
LINE
  5
A7
330
4D
100
AcDbEntity
  8
1
  6
Continuous
 62
     7
100
AcDbLine
 10
276.5
 20
785.2114584051365
 30
0.0
 11
276.5
 21
782.3850176222596
 31
0.0
  0
LINE
  5
A8
330
4D
100
AcDbEntity
  8
1
  6
Continuous
 62
     7
100
AcDbLine
 10
275.5
 20
776.9071025283063
 30
0.0
 11
276.5
 21
777.9306617454295
 31
0.0
  0
LINE
  5
A9
330
4D
100
AcDbEntity
  8
1
  6
Continuous
 62
     7
100
AcDbLine
 10
273.9999013239128
 20
776.9071025283063
 30
0.0
 11
275.5
 21
776.9071025283063
 31
0.0
  0
LINE
  5
AA
330
4D
100
AcDbEntity
  8
1
  6
Continuous
 62
     7
100
AcDbLine
 10
276.5
 20
782.3850176222596
 30
0.0
 11
276.5
 21
777.9306617454295
 31
0.0
  0
LINE
  5
AB
330
4D
100
AcDbEntity
  8
1
  6
Continuous
 62
     7
100
AcDbLine
 10
275.5
 20
786.2350176222596
 30
0.0
 11
273.9999013239128
 21
786.2350176222594
 31
0.0
  0
LINE
  5
AC
330
4D
100
AcDbEntity
  8
1
  6
Continuous
 62
     7
100
AcDbLine
 10
275.5
 20
782.3850176222596
 30
0.0
 11
275.5
 21
776.9071025283063
 31
0.0
  0
LINE
  5
AD
330
4D
100
AcDbEntity
  8
1
  6
Continuous
 62
     7
100
AcDbLine
 10
275.5
 20
782.3850176222596
 30
0.0
 11
275.5
 21
786.2350176222596
 31
0.0
  0
LINE
  5
AE
330
4D
100
AcDbEntity
  8
1
  6
Continuous
 62
     7
100
AcDbLine
 10
399.6639575469766
 20
635.261461036433
 30
0.0
 11
390.3360424530234
 21
635.261461036433
 31
0.0
  0
LINE
  5
AF
330
4D
100
AcDbEntity
  8
1
  6
Continuous
 62
     7
100
AcDbLine
 10
390.3360424530234
 20
637.0614610364331
 30
0.0
 11
399.6639575469766
 21
637.0614610364331
 31
0.0
  0
ARC
  5
B0
330
4D
100
AcDbEntity
  8
1
  6
Continuous
 62
     7
100
AcDbCircle
 10
395.0000000000001
 20
636.1614610364331
 30
0.0
 40
4.75
100
AcDbArc
 50
180.0
 51
190.9220706121896
  0
ARC
  5
B1
330
4D
100
AcDbEntity
  8
1
  6
Continuous
 62
     7
100
AcDbCircle
 10
395.0000000000001
 20
636.1614610364331
 30
0.0
 40
3.750000000000039
100
AcDbArc
 50
193.8865403626303
 51
346.1134596373697
  0
ARC
  5
B2
330
4D
100
AcDbEntity
  8
1
  6
Continuous
 62
     7
100
AcDbCircle
 10
395.0000000000001
 20
636.1614610364331
 30
0.0
 40
4.74999999999988
100
AcDbArc
 50
349.0779293878099
 51
0.0
  0
ARC
  5
B3
330
4D
100
AcDbEntity
  8
1
  6
Continuous
 62
     7
100
AcDbCircle
 10
395.0000000000001
 20
636.1614610364331
 30
0.0
 40
4.750000000000103
100
AcDbArc
 50
190.9220706121896
 51
349.0779293878099
  0
ARC
  5
B4
330
4D
100
AcDbEntity
  8
1
  6
Continuous
 62
     7
100
AcDbCircle
 10
395.0000000000001
 20
636.1614610364331
 30
0.0
 40
4.750000000000082
100
AcDbArc
 50
169.0779293878118
 51
180.0
  0
ARC
  5
B5
330
4D
100
AcDbEntity
  8
1
  6
Continuous
 62
     7
100
AcDbCircle
 10
395.0000000000001
 20
636.1614610364331
 30
0.0
 40
3.750000000000012
100
AcDbArc
 50
13.88654036262859
 51
166.1134596373714
  0
ARC
  5
B6
330
4D
100
AcDbEntity
  8
1
  6
Continuous
 62
     7
100
AcDbCircle
 10
395.0000000000001
 20
636.1614610364331
 30
0.0
 40
4.75
100
AcDbArc
 50
0.0
 51
10.92207061218875
  0
ARC
  5
B7
330
4D
100
AcDbEntity
  8
1
  6
Continuous
 62
     7
100
AcDbCircle
 10
395.0000000000001
 20
636.1614610364331
 30
0.0
 40
4.749999999999859
100
AcDbArc
 50
10.92207061218875
 51
169.0779293878118
  0
ENDBLK
  5
4F
330
4D
100
AcDbEntity
  8
0
100
AcDbBlockEnd
  0
BLOCK
  5
51
330
50
100
AcDbEntity
  8
0
100
AcDbBlockBegin
  2
37-1-13
 70
     0
 10
117.5042941098554
 20
727.9626912532042
 30
0.0
  3
37-1-13
  1

  0
LINE
  5
B8
330
50
100
AcDbEntity
  8
1
  6
Continuous
 62
     7
100
AcDbLine
 10
388.5000000000001
 20
647.3849846296071
 30
0.0
 11
394.0621488653217
 21
650.5962927742735
 31
0.0
  0
LINE
  5
B9
330
50
100
AcDbEntity
  8
1
  6
Continuous
 62
     7
100
AcDbLine
 10
382.0000000000001
 20
636.1266543804094
 30
0.0
 11
382.0000000000001
 21
642.549270669742
 31
0.0
  0
LINE
  5
BA
330
50
100
AcDbEntity
  8
1
  6
Continuous
 62
     7
100
AcDbLine
 10
388.5000000000001
 20
624.8683241312117
 30
0.0
 11
382.9378511346782
 21
628.079632275878
 31
0.0
  0
LINE
  5
BB
330
50
100
AcDbEntity
  8
1
  6
Continuous
 62
     7
100
AcDbLine
 10
401.5000000000001
 20
624.8683241312117
 30
0.0
 11
395.9378511346782
 21
621.6570159865454
 31
0.0
  0
LINE
  5
BC
330
50
100
AcDbEntity
  8
1
  6
Continuous
 62
     7
100
AcDbLine
 10
408.0000000000001
 20
636.1266543804094
 30
0.0
 11
408.0000000000001
 21
629.7040380910769
 31
0.0
  0
LINE
  5
BD
330
50
100
AcDbEntity
  8
1
  6
Continuous
 62
     7
100
AcDbLine
 10
401.5000000000001
 20
647.3849846296071
 30
0.0
 11
407.0621488653217
 21
644.1736764849409
 31
0.0
  0
LINE
  5
BE
330
50
100
AcDbEntity
  8
1
  6
Continuous
 62
     7
100
AcDbLine
 10
382.9378511346782
 20
644.1736764849409
 30
0.0
 11
388.5000000000001
 21
647.3849846296071
 31
0.0
  0
LINE
  5
BF
330
50
100
AcDbEntity
  8
1
  6
Continuous
 62
     7
100
AcDbLine
 10
382.0000000000001
 20
629.7040380910769
 30
0.0
 11
382.0000000000001
 21
636.1266543804094
 31
0.0
  0
LINE
  5
C0
330
50
100
AcDbEntity
  8
1
  6
Continuous
 62
     7
100
AcDbLine
 10
394.0621488653217
 20
621.6570159865454
 30
0.0
 11
388.5000000000001
 21
624.8683241312117
 31
0.0
  0
LINE
  5
C1
330
50
100
AcDbEntity
  8
1
  6
Continuous
 62
     7
100
AcDbLine
 10
407.0621488653217
 20
628.079632275878
 30
0.0
 11
401.5000000000001
 21
624.8683241312117
 31
0.0
  0
LINE
  5
C2
330
50
100
AcDbEntity
  8
1
  6
Continuous
 62
     7
100
AcDbLine
 10
408.0000000000001
 20
642.549270669742
 30
0.0
 11
408.0000000000001
 21
636.1266543804094
 31
0.0
  0
LINE
  5
C3
330
50
100
AcDbEntity
  8
1
  6
Continuous
 62
     7
100
AcDbLine
 10
395.9378511346782
 20
650.5962927742735
 30
0.0
 11
401.5000000000001
 21
647.3849846296071
 31
0.0
  0
LINE
  5
C4
330
50
100
AcDbEntity
  8
1
  6
Continuous
 62
     7
100
AcDbLine
 10
273.9999013239128
 20
787.570922482778
 30
0.0
 11
273.9999013239128
 21
775.5709224827781
 31
0.0
  0
LINE
  5
C5
330
50
100
AcDbEntity
  8
1
  6
Continuous
 62
     7
100
AcDbLine
 10
267.0706155381847
 20
768.5709224827781
 30
0.0
 11
266.7626520851561
 21
768.5709224827781
 31
0.0
  0
LINE
  5
C6
330
50
100
AcDbEntity
  8
1
  6
Continuous
 62
     7
100
AcDbLine
 10
267.4999013239128
 20
781.5709224827781
 30
0.0
 11
267.4999013239128
 21
769.0709224827781
 31
0.0
  0
LINE
  5
C7
330
50
100
AcDbEntity
  8
1
  6
Continuous
 62
     7
100
AcDbLine
 10
266.7626520851561
 20
768.5709224827781
 30
0.0
 11
259.9999013239128
 21
768.5709224827781
 31
0.0
  0
LINE
  5
C8
330
50
100
AcDbEntity
  8
1
  6
Continuous
 62
     7
100
AcDbLine
 10
267.4999013239128
 20
794.0709224827779
 30
0.0
 11
267.4999013239128
 21
781.5709224827781
 31
0.0
  0
LINE
  5
C9
330
50
100
AcDbEntity
  8
1
  6
Continuous
 62
     7
100
AcDbLine
 10
266.7627627224216
 20
794.5709224827781
 30
0.0
 11
259.9999013239128
 21
794.5709224827781
 31
0.0
  0
LINE
  5
CA
330
50
100
AcDbEntity
  8
1
  6
Continuous
 62
     7
100
AcDbLine
 10
259.9999013239128
 20
768.5709224827781
 30
0.0
 11
259.9999013239128
 21
794.5709224827781
 31
0.0
  0
LINE
  5
CB
330
50
100
AcDbEntity
  8
1
  6
Continuous
 62
     7
100
AcDbLine
 10
274.0
 20
630.1614610364331
 30
0.0
 11
274.0
 21
642.1614610364331
 31
0.0
  0
LINE
  5
CC
330
50
100
AcDbEntity
  8
1
  6
Continuous
 62
     7
100
AcDbLine
 10
260.0
 20
649.2321752507045
 30
0.0
 11
260.0
 21
623.0907468221616
 31
0.0
  0
LINE
  5
CD
330
50
100
AcDbEntity
  8
0
  6
Continuous
 62
     7
100
AcDbLine
 10
267.0707142142712
 20
641.0068078153299
 30
0.0
 11
267.0707142142712
 21
644.8367438429771
 31
0.0
  0
LINE
  5
CE
330
50
100
AcDbEntity
  8
0
  6
Continuous
 62
     7
100
AcDbLine
 10
267.0707142142712
 20
627.4861782298891
 30
0.0
 11
267.0707142142712
 21
631.3161142575361
 31
0.0
  0
ARC
  5
CF
330
50
100
AcDbEntity
  8
1
  6
Continuous
 62
     7
100
AcDbCircle
 10
395.0000000000001
 20
636.1266543804094
 30
0.0
 40
14.50000000000001
100
AcDbArc
 50
266.2915552747289
 51
270.0
  0
ARC
  5
D0
330
50
100
AcDbEntity
  8
1
  6
Continuous
 62
     7
100
AcDbCircle
 10
395.0000000000001
 20
636.1266543804094
 30
0.0
 40
14.50000000000011
100
AcDbArc
 50
86.29155527472996
 51
90.0
  0
ARC
  5
D1
330
50
100
AcDbEntity
  8
1
  6
Continuous
 62
     7
100
AcDbCircle
 10
395.0000000000001
 20
636.1266543804094
 30
0.0
 40
14.5
100
AcDbArc
 50
90.0
 51
93.70844472527118
  0
ARC
  5
D2
330
50
100
AcDbEntity
  8
1
  6
Continuous
 62
     7
100
AcDbCircle
 10
395.0000000000001
 20
636.1266543804094
 30
0.0
 40
12.99999999999998
100
AcDbArc
 50
59.99999999999996
 51
120.0
  0
ARC
  5
D3
330
50
100
AcDbEntity
  8
1
  6
Continuous
 62
     7
100
AcDbCircle
 10
395.0000000000001
 20
636.1266543804094
 30
0.0
 40
14.50000000000016
100
AcDbArc
 50
146.2915552747294
 51
153.7084447252705
  0
ARC
  5
D4
330
50
100
AcDbEntity
  8
1
  6
Continuous
 62
     7
100
AcDbCircle
 10
395.0000000000001
 20
636.1266543804094
 30
0.0
 40
12.99999999999998
100
AcDbArc
 50
120.0
 51
180.0
  0
ARC
  5
D5
330
50
100
AcDbEntity
  8
1
  6
Continuous
 62
     7
100
AcDbCircle
 10
395.0000000000001
 20
636.1266543804094
 30
0.0
 40
14.49999999999997
100
AcDbArc
 50
206.2915552747291
 51
213.7084447252702
  0
ARC
  5
D6
330
50
100
AcDbEntity
  8
1
  6
Continuous
 62
     7
100
AcDbCircle
 10
395.0000000000001
 20
636.1266543804094
 30
0.0
 40
13.0
100
AcDbArc
 50
180.0
 51
239.9999999999999
  0
ARC
  5
D7
330
50
100
AcDbEntity
  8
1
  6
Continuous
 62
     7
100
AcDbCircle
 10
395.0000000000001
 20
636.1266543804094
 30
0.0
 40
14.5
100
AcDbArc
 50
270.0
 51
273.7084447252701
  0
ARC
  5
D8
330
50
100
AcDbEntity
  8
1
  6
Continuous
 62
     7
100
AcDbCircle
 10
395.0000000000001
 20
636.1266543804094
 30
0.0
 40
12.99999999999998
100
AcDbArc
 50
239.9999999999999
 51
300.0000000000001
  0
ARC
  5
D9
330
50
100
AcDbEntity
  8
1
  6
Continuous
 62
     7
100
AcDbCircle
 10
395.0000000000001
 20
636.1266543804094
 30
0.0
 40
14.49999999999986
100
AcDbArc
 50
326.2915552747291
 51
333.7084447252709
  0
ARC
  5
DA
330
50
100
AcDbEntity
  8
1
  6
Continuous
 62
     7
100
AcDbCircle
 10
395.0000000000001
 20
636.1266543804094
 30
0.0
 40
13.0
100
AcDbArc
 50
0.0
 51
59.99999999999996
  0
ARC
  5
DB
330
50
100
AcDbEntity
  8
1
  6
Continuous
 62
     7
100
AcDbCircle
 10
395.0000000000001
 20
636.1266543804094
 30
0.0
 40
12.99999999999998
100
AcDbArc
 50
300.0000000000001
 51
0.0
  0
ARC
  5
DC
330
50
100
AcDbEntity
  8
1
  6
Continuous
 62
     7
100
AcDbCircle
 10
395.0000000000001
 20
636.1266543804094
 30
0.0
 40
14.50000000000002
100
AcDbArc
 50
26.29155527472953
 51
33.70844472527119
  0
ARC
  5
DD
330
50
100
AcDbEntity
  8
1
  6
Continuous
 62
     7
100
AcDbCircle
 10
263.4999013239128
 20
772.0709224827781
 30
0.0
 40
5.000000000000341
100
AcDbArc
 50
315.5729959991981
 51
323.130102354156
  0
ARC
  5
DE
330
50
100
AcDbEntity
  8
1
  6
Continuous
 62
     7
100
AcDbCircle
 10
287.4063565290279
 20
755.6644672776633
 30
0.0
 40
23.99999999999995
100
AcDbArc
 50
123.9591925000981
 51
146.0408074999031
  0
ARC
  5
DF
330
50
100
AcDbEntity
  8
1
  6
Continuous
 62
     7
100
AcDbCircle
 10
263.4999013239128
 20
791.070922482778
 30
0.0
 40
4.999999999999932
100
AcDbArc
 50
36.86989764584298
 51
44.42700400080919
  0
ARC
  5
E0
330
50
100
AcDbEntity
  8
1
  6
Continuous
 62
     7
100
AcDbCircle
 10
287.4063565290279
 20
807.4773776878931
 30
0.0
 40
24.0000000000003
100
AcDbArc
 50
213.9591925000978
 51
236.0408074999024
  0
ARC
  5
E1
330
50
100
AcDbEntity
  8
1
  6
Continuous
 62
     7
100
AcDbCircle
 10
263.5
 20
626.6614610364331
 30
0.0
 40
5.000000000000098
100
AcDbArc
 50
225.5729959991954
 51
323.130102354156
  0
ARC
  5
E2
330
50
100
AcDbEntity
  8
1
  6
Continuous
 62
     7
100
AcDbCircle
 10
287.4064552051148
 20
610.2550058313182
 30
0.0
 40
23.99999999999999
100
AcDbArc
 50
123.9591925000972
 51
146.0408074999023
  0
ARC
  5
E3
330
50
100
AcDbEntity
  8
1
  6
Continuous
 62
     7
100
AcDbCircle
 10
287.4064552051148
 20
662.067916241548
 30
0.0
 40
23.99999999999994
100
AcDbArc
 50
213.9591925000977
 51
236.0408074999026
  0
ARC
  5
E4
330
50
100
AcDbEntity
  8
1
  6
Continuous
 62
     7
100
AcDbCircle
 10
263.5
 20
645.6614610364331
 30
0.0
 40
4.999999999999932
100
AcDbArc
 50
36.86989764584298
 51
134.4270040008064
  0
CIRCLE
  5
E5
330
50
100
AcDbEntity
  8
1
  6
Continuous
 62
     7
100
AcDbCircle
 10
395.0000000000001
 20
636.1266543804094
 30
0.0
 40
5.0
  0
CIRCLE
  5
E6
330
50
100
AcDbEntity
  8
1
  6
Continuous
 62
     7
100
AcDbCircle
 10
395.0000000000001
 20
636.1266543804094
 30
0.0
 40
6.0
  0
SPLINE
  5
E7
330
50
100
AcDbEntity
  8
1
  6
Continuous
 62
     7
100
AcDbSpline
210
0.0
220
0.0
230
1.0
 70
     8
 71
     3
 72
    43
 73
    39
 74
    37
 42
0.000000001
 43
0.0000000001
 44
0.00000001
 40
0.0
 40
0.0
 40
0.0
 40
0.0
 40
0.3142650602674049
 40
0.6282865472610549
 40
0.96119406429469
 40
1.293759061497611
 40
1.653345621771666
 40
2.012624921975549
 40
2.402527476373698
 40
2.792202148946008
 40
3.212046597197778
 40
3.631735863188406
 40
4.077938481292326
 40
4.524041243981721
 40
4.990653911143953
 40
5.457207554815239
 40
5.936678593900326
 40
6.416122267421581
 40
6.899971973530326
 40
7.383821678609232
 40
7.863265348149345
 40
8.342736381118678
 40
8.809290021025692
 40
9.2759026864365
 40
9.722005448250782
 40
10.16820806580438
 40
10.58789733141789
 40
11.00774177935416
 40
11.39741645165516
 40
11.78731900577028
 40
12.14659830567288
 40
12.50618486556068
 40
12.8387498622885
 40
13.17165737941165
 40
13.48567887230891
 40
13.79994393857083
 40
14.10737584061449
 40
14.41480773825925
 40
14.41480773825925
 40
14.41480773825925
 40
14.41480773825925
 10
263.1930843933261
 20
793.6113802319276
 30
0.0
 10
263.0898170166457
 20
793.5927876965865
 30
0.0
 10
262.8833623046996
 20
793.5556170218379
 30
0.0
 10
262.581290097338
 20
793.44467038279
 30
0.0
 10
262.2891078506395
 20
793.2976053506821
 30
0.0
 10
262.0042656100936
 20
793.1074504429423
 30
0.0
 10
261.7348366532865
 20
792.8823156877069
 30
0.0
 10
261.4760504644995
 20
792.6176793980133
 30
0.0
 10
261.2363835321898
 20
792.3226193301658
 30
0.0
 10
261.0110550773502
 20
791.9918531831977
 30
0.0
 10
260.8075006554987
 20
791.6357861139757
 30
0.0
 10
260.6220164644587
 20
791.2490530247742
 30
0.0
 10
260.4602535475932
 20
790.8423798376364
 30
0.0
 10
260.3198921043952
 20
790.4114036814694
 30
0.0
 10
260.2046541475684
 20
789.9660302436993
 30
0.0
 10
260.1134047857751
 20
789.5038173757803
 30
0.0
 10
260.048200123483
 20
789.0328989882614
 30
0.0
 10
260.0086113832338
 20
788.5533675463024
 30
0.0
 10
259.9955263663704
 20
788.0709224743707
 30
0.0
 10
260.0086113871769
 20
787.5884774038361
 30
0.0
 10
260.0482001318692
 20
787.1089459660348
 30
0.0
 10
260.113404794479
 20
786.6380275831617
 30
0.0
 10
260.2046541539173
 20
786.175814719279
 30
0.0
 10
260.3198921089044
 20
785.7304412812846
 30
0.0
 10
260.4602535523263
 20
785.2994651331276
 30
0.0
 10
260.6220164643348
 20
784.8927919202681
 30
0.0
 10
260.8075006699974
 20
784.5060589233299
 30
0.0
 10
261.0110550374603
 20
784.1499915234217
 30
0.0
 10
261.236383680035
 20
783.8192265272096
 30
0.0
 10
261.4760499392374
 20
783.5241623423586
 30
0.0
 10
261.7348384518724
 20
783.2595402757818
 30
0.0
 10
262.0042590930154
 20
783.0343546371678
 30
0.0
 10
262.2891301635965
 20
782.8443761564558
 30
0.0
 10
262.5812085138756
 20
782.6966753354834
 30
0.0
 10
262.8836477514476
 20
782.5879746909264
 30
0.0
 10
263.1897805290266
 20
782.5243916070841
 30
0.0
 10
263.5000057224761
 20
782.4994921329126
 30
0.0
 10
263.7042791479128
 20
782.5201405294038
 30
0.0
 10
263.8064158596445
 20
782.5304647336293
 30
0.0
 11
263.1930843933261
 21
793.6113802319276
 31
0.0
 11
262.8855351476897
 21
793.5467583068724
 31
0.0
 11
262.5896593861191
 21
793.4415583476814
 31
0.0
 11
262.2924064579884
 21
793.2916646807089
 31
0.0
 11
262.0152304491307
 21
793.1078905341567
 31
0.0
 11
261.7388679707708
 21
792.8778334229847
 31
0.0
 11
261.4871528953162
 21
792.6214720843234
 31
0.0
 11
261.2407390530595
 21
792.3193062029155
 31
0.0
 11
261.0208995176245
 21
791.997565734906
 31
0.0
 11
260.8119544699996
 21
791.6334073526093
 31
0.0
 11
260.6301065751784
 21
791.2551608421228
 31
0.0
 11
260.4647051683913
 21
790.8407466164851
 31
0.0
 11
260.3263144539603
 21
790.4166526597676
 31
0.0
 11
260.2090718196081
 21
789.9650094996792
 31
0.0
 11
260.1185769758873
 21
789.5073163907239
 31
0.0
 11
260.0525869145014
 21
789.032408206972
 31
0.0
 11
260.0131224094383
 21
788.5545915217256
 31
0.0
 11
259.9999013239128
 21
788.0709224827783
 31
0.0
 11
260.0131224094383
 21
787.5872534438311
 31
0.0
 11
260.0525869145014
 21
787.1094367585845
 31
0.0
 11
260.1185769758874
 21
786.6345285748328
 31
0.0
 11
260.2090718196081
 21
786.1768354658774
 31
0.0
 11
260.3263144539603
 21
785.725192305789
 31
0.0
 11
260.4647051683913
 21
785.3010983490716
 31
0.0
 11
260.6301065751784
 21
784.8866841234341
 31
0.0
 11
260.8119544699997
 21
784.5084376129475
 31
0.0
 11
261.0208995176245
 21
784.1442792306509
 31
0.0
 11
261.2407390530595
 21
783.822538762641
 31
0.0
 11
261.4871528953162
 21
783.520372881233
 31
0.0
 11
261.7388679707708
 21
783.2640115425719
 31
0.0
 11
262.0152304491307
 21
783.0339544314002
 31
0.0
 11
262.2924064579884
 21
782.8501802848483
 31
0.0
 11
262.5896593861191
 21
782.7002866178756
 31
0.0
 11
262.8855351476896
 21
782.5950866586842
 31
0.0
 11
263.1930843933262
 21
782.5304647336294
 31
0.0
 11
263.4997501264854
 21
782.5087736174569
 31
0.0
 11
263.8064158596445
 21
782.5304647336293
 31
0.0
  0
SPLINE
  5
E8
330
50
100
AcDbEntity
  8
1
  6
Continuous
 62
     7
100
AcDbSpline
210
0.0
220
0.0
230
1.0
 70
     8
 71
     3
 72
    43
 73
    39
 74
    37
 42
0.000000001
 43
0.0000000001
 44
0.00000001
 40
0.0
 40
0.0
 40
0.0
 40
0.0
 40
0.3142650602673904
 40
0.6282865472612083
 40
0.9611940642948433
 40
1.293759061497859
 40
1.653345621771857
 40
2.012624921975618
 40
2.402527476373839
 40
2.792202148946431
 40
3.212046597198172
 40
3.631735863188878
 40
4.077938481292586
 40
4.524041243981999
 40
4.990653911144121
 40
5.457207554815452
 40
5.9366785939005
 40
6.416122267421891
 40
6.899971973530641
 40
7.383821678609324
 40
7.863265348149234
 40
8.342736381118641
 40
8.809290021025934
 40
9.275902686436508
 40
9.722005448250751
 40
10.16820806580462
 40
10.58789733141819
 40
11.00774177935438
 40
11.39741645165527
 40
11.78731900577021
 40
12.14659830567293
 40
12.5061848655608
 40
12.83874986228881
 40
13.17165737941196
 40
13.48567887230935
 40
13.79994393857124
 40
14.10737584061481
 40
14.41480773825956
 40
14.41480773825956
 40
14.41480773825956
 40
14.41480773825956
 10
263.8064158596445
 20
782.5304647336293
 30
0.0
 10
263.909683236325
 20
782.5490572689703
 30
0.0
 10
264.1161379482712
 20
782.5862279437185
 30
0.0
 10
264.4182101556327
 20
782.6971745827666
 30
0.0
 10
264.7103924023312
 20
782.8442396148748
 30
0.0
 10
264.9952346428772
 20
783.0343945226148
 30
0.0
 10
265.2646635996845
 20
783.2595292778495
 30
0.0
 10
265.5234497884714
 20
783.5241655675433
 30
0.0
 10
265.7631167207813
 20
783.8192256353907
 30
0.0
 10
265.9884451756206
 20
784.149991782359
 30
0.0
 10
266.1919995974723
 20
784.5060588515812
 30
0.0
 10
266.3774837885122
 20
784.8927919407827
 30
0.0
 10
266.5392467053776
 20
785.2994651279204
 30
0.0
 10
266.6796081485758
 20
785.7304412840872
 30
0.0
 10
266.7948461054026
 20
786.1758147218574
 30
0.0
 10
266.8860954671957
 20
786.6380275897766
 30
0.0
 10
266.9513001294871
 20
787.1089459772953
 30
0.0
 10
266.9908888697368
 20
787.5884774192541
 30
0.0
 10
267.0039738866005
 20
788.0709224911863
 30
0.0
 10
266.9908888657938
 20
788.5533675617206
 30
0.0
 10
266.9513001211009
 20
789.0328989995216
 30
0.0
 10
266.8860954584916
 20
789.5038173823947
 30
0.0
 10
266.7948460990538
 20
789.966030246278
 30
0.0
 10
266.6796081440665
 20
790.4114036842719
 30
0.0
 10
266.5392467006442
 20
790.8423798324291
 30
0.0
 10
266.3774837886361
 20
791.2490530452885
 30
0.0
 10
266.1919995829737
 20
791.6357860422273
 30
0.0
 10
265.9884452155106
 20
791.9918534421352
 30
0.0
 10
265.7631165729358
 20
792.3226184383469
 30
0.0
 10
265.5234503137332
 20
792.6176826231979
 30
0.0
 10
265.2646618010987
 20
792.8823046897752
 30
0.0
 10
264.9952411599552
 20
793.107490328389
 30
0.0
 10
264.7103700893745
 20
793.2974688091012
 30
0.0
 10
264.418291739095
 20
793.4451696300735
 30
0.0
 10
264.1158525015229
 20
793.55387027463
 30
0.0
 10
263.8097197239439
 20
793.6174533584726
 30
0.0
 10
263.4994945304944
 20
793.6423528326441
 30
0.0
 10
263.2952211050579
 20
793.6217044361533
 30
0.0
 10
263.1930843933261
 20
793.6113802319276
 30
0.0
 11
263.8064158596445
 21
782.5304647336293
 31
0.0
 11
264.113965105281
 21
782.5950866586841
 31
0.0
 11
264.4098408668516
 21
782.7002866178755
 31
0.0
 11
264.7070937949823
 21
782.850180284848
 31
0.0
 11
264.9842698038401
 21
783.0339544314002
 31
0.0
 11
265.2606322822002
 21
783.2640115425719
 31
0.0
 11
265.5123473576547
 21
783.5203728812331
 31
0.0
 11
265.7587611999115
 21
783.822538762641
 31
0.0
 11
265.9786007353465
 21
784.1442792306509
 31
0.0
 11
266.1875457829714
 21
784.5084376129475
 31
0.0
 11
266.3693936777925
 21
784.8866841234342
 31
0.0
 11
266.5347950845796
 21
785.3010983490716
 31
0.0
 11
266.6731857990107
 21
785.7251923057892
 31
0.0
 11
266.7904284333629
 21
786.1768354658774
 31
0.0
 11
266.8809232770833
 21
786.6345285748329
 31
0.0
 11
266.946913338469
 21
787.1094367585847
 31
0.0
 11
266.9863778435324
 21
787.5872534438313
 31
0.0
 11
266.999598929058
 21
788.0709224827785
 31
0.0
 11
266.9863778435323
 21
788.5545915217256
 31
0.0
 11
266.946913338469
 21
789.0324082069719
 31
0.0
 11
266.8809232770832
 21
789.5073163907238
 31
0.0
 11
266.7904284333628
 21
789.9650094996795
 31
0.0
 11
266.6731857990106
 21
790.4166526597676
 31
0.0
 11
266.5347950845795
 21
790.8407466164849
 31
0.0
 11
266.3693936777924
 21
791.2551608421228
 31
0.0
 11
266.1875457829713
 21
791.6334073526094
 31
0.0
 11
265.9786007353464
 21
791.997565734906
 31
0.0
 11
265.7587611999112
 21
792.3193062029156
 31
0.0
 11
265.5123473576546
 21
792.6214720843234
 31
0.0
 11
265.2606322822
 21
792.8778334229847
 31
0.0
 11
264.9842698038401
 21
793.1078905341566
 31
0.0
 11
264.7070937949824
 21
793.2916646807088
 31
0.0
 11
264.4098408668516
 21
793.4415583476812
 31
0.0
 11
264.1139651052809
 21
793.5467583068723
 31
0.0
 11
263.8064158596443
 21
793.6113802319272
 31
0.0
 11
263.4997501264853
 21
793.6330713481
 31
0.0
 11
263.1930843933261
 21
793.6113802319276
 31
0.0
  0
SPLINE
  5
E9
330
50
100
AcDbEntity
  8
1
  6
Continuous
 62
     7
100
AcDbSpline
210
0.0
220
0.0
230
1.0
 70
     8
 71
     3
 72
    43
 73
    39
 74
    37
 42
0.000000001
 43
0.0000000001
 44
0.00000001
 40
0.0
 40
0.0
 40
0.0
 40
0.0
 40
0.3142650602674371
 40
0.6282865472611788
 40
0.9611940642948651
 40
1.293759061497818
 40
1.653345621771743
 40
2.012624921975585
 40
2.402527476373894
 40
2.792202148946393
 40
3.212046597198134
 40
3.631735863188839
 40
4.077938481292759
 40
4.524041243981955
 40
4.990653911144188
 40
5.457207554815406
 40
5.936678593900568
 40
6.416122267421845
 40
6.899971973530595
 40
7.383821678609392
 40
7.863265348149189
 40
8.342736381118707
 40
8.809290021025776
 40
9.27590268643646
 40
9.722005448250918
 40
10.16820806580447
 40
10.58789733141804
 40
11.00774177935424
 40
11.39741645165521
 40
11.78731900577016
 40
12.1465983056728
 40
12.50618486556081
 40
12.83874986228883
 40
13.17165737941197
 40
13.48567887230936
 40
13.79994393857125
 40
14.10737584061481
 40
14.41480773825957
 40
14.41480773825957
 40
14.41480773825957
 40
14.41480773825957
 10
263.8064158596445
 20
780.6116554169366
 30
0.0
 10
263.909683236325
 20
780.5930628815954
 30
0.0
 10
264.116137948271
 20
780.5558922068469
 30
0.0
 10
264.4182101556329
 20
780.4449455677994
 30
0.0
 10
264.7103924023312
 20
780.2978805356909
 30
0.0
 10
264.9952346428772
 20
780.1077256279514
 30
0.0
 10
265.2646635996846
 20
779.8825908727164
 30
0.0
 10
265.5234497884715
 20
779.6179545830227
 30
0.0
 10
265.7631167207813
 20
779.3228945151752
 30
0.0
 10
265.9884451756207
 20
778.9921283682066
 30
0.0
 10
266.1919995974723
 20
778.6360612989852
 30
0.0
 10
266.3774837885122
 20
778.2493282097829
 30
0.0
 10
266.5392467053776
 20
777.8426550226455
 30
0.0
 10
266.6796081485759
 20
777.4116788664785
 30
0.0
 10
266.7948461054026
 20
776.9663054287086
 30
0.0
 10
266.8860954671956
 20
776.5040925607892
 30
0.0
 10
266.9513001294871
 20
776.0331741732705
 30
0.0
 10
266.9908888697368
 20
775.5536427313116
 30
0.0
 10
267.0039738866005
 20
775.0711976593798
 30
0.0
 10
266.9908888657938
 20
774.5887525888452
 30
0.0
 10
266.951300121101
 20
774.1092211510443
 30
0.0
 10
266.8860954584916
 20
773.6383027681709
 30
0.0
 10
266.7948460990537
 20
773.176089904288
 30
0.0
 10
266.6796081440666
 20
772.730716466294
 30
0.0
 10
266.5392467006442
 20
772.2997403181367
 30
0.0
 10
266.3774837886361
 20
771.8930671052773
 30
0.0
 10
266.1919995829736
 20
771.5063341083389
 30
0.0
 10
265.9884452155105
 20
771.1502667084309
 30
0.0
 10
265.7631165729359
 20
770.8195017122189
 30
0.0
 10
265.5234503137333
 20
770.524437527368
 30
0.0
 10
265.2646618010984
 20
770.259815460791
 30
0.0
 10
264.9952411599554
 20
770.0346298221768
 30
0.0
 10
264.7103700893745
 20
769.8446513414646
 30
0.0
 10
264.418291739095
 20
769.6969505204922
 30
0.0
 10
264.1158525015228
 20
769.5882498759358
 30
0.0
 10
263.809719723944
 20
769.5246667920931
 30
0.0
 10
263.4994945304944
 20
769.4997673179219
 30
0.0
 10
263.2952211050579
 20
769.5204157144127
 30
0.0
 10
263.1930843933261
 20
769.5307399186383
 30
0.0
 11
263.8064158596445
 21
780.6116554169366
 31
0.0
 11
264.113965105281
 21
780.5470334918816
 31
0.0
 11
264.4098408668516
 21
780.4418335326905
 31
0.0
 11
264.7070937949823
 21
780.2919398657178
 31
0.0
 11
264.9842698038401
 21
780.1081657191658
 31
0.0
 11
265.2606322822002
 21
779.8781086079941
 31
0.0
 11
265.5123473576547
 21
779.6217472693328
 31
0.0
 11
265.7587611999115
 21
779.3195813879248
 31
0.0
 11
265.9786007353465
 21
778.997840919915
 31
0.0
 11
266.1875457829714
 21
778.6336825376184
 31
0.0
 11
266.3693936777925
 21
778.2554360271317
 31
0.0
 11
266.5347950845796
 21
777.8410218014941
 31
0.0
 11
266.6731857990107
 21
777.4169278447768
 31
0.0
 11
266.7904284333629
 21
776.9652846846884
 31
0.0
 11
266.8809232770833
 21
776.507591575733
 31
0.0
 11
266.946913338469
 21
776.0326833919811
 31
0.0
 11
266.9863778435324
 21
775.5548667067346
 31
0.0
 11
266.999598929058
 21
775.0711976677874
 31
0.0
 11
266.9863778435323
 21
774.5875286288402
 31
0.0
 11
266.946913338469
 21
774.109711943594
 31
0.0
 11
266.8809232770832
 21
773.634803759842
 31
0.0
 11
266.7904284333628
 21
773.1771106508866
 31
0.0
 11
266.6731857990106
 21
772.7254674907983
 31
0.0
 11
266.5347950845795
 21
772.3013735340808
 31
0.0
 11
266.3693936777924
 21
771.8869593084432
 31
0.0
 11
266.1875457829713
 21
771.5087127979566
 31
0.0
 11
265.9786007353464
 21
771.1445544156601
 31
0.0
 11
265.7587611999112
 21
770.8228139476503
 31
0.0
 11
265.5123473576546
 21
770.5206480662425
 31
0.0
 11
265.2606322822
 21
770.2642867275813
 31
0.0
 11
264.9842698038401
 21
770.0342296164092
 31
0.0
 11
264.7070937949824
 21
769.850455469857
 31
0.0
 11
264.4098408668516
 21
769.7005618028846
 31
0.0
 11
264.1139651052809
 21
769.5953618436935
 31
0.0
 11
263.8064158596443
 21
769.5307399186386
 31
0.0
 11
263.4997501264853
 21
769.5090488024659
 31
0.0
 11
263.1930843933261
 21
769.5307399186383
 31
0.0
  0
SPLINE
  5
EA
330
50
100
AcDbEntity
  8
1
  6
Continuous
 62
     7
100
AcDbSpline
210
0.0
220
0.0
230
1.0
 70
     8
 71
     3
 72
    43
 73
    39
 74
    37
 42
0.000000001
 43
0.0000000001
 44
0.00000001
 40
0.0
 40
0.0
 40
0.0
 40
0.0
 40
0.3142650602674049
 40
0.628286547261093
 40
0.9611940642946768
 40
1.293759061497598
 40
1.653345621771653
 40
2.012624921975536
 40
2.402527476373597
 40
2.792202148946189
 40
3.21204659719786
 40
3.631735863188386
 40
4.077938481292411
 40
4.524041243981697
 40
4.99065391114382
 40
5.457207554815217
 40
5.936678593900305
 40
6.416122267421559
 40
6.899971973530191
 40
7.383821678609211
 40
7.863265348149211
 40
8.342736381118657
 40
8.809290021025781
 40
9.27590268643659
 40
9.722005448250654
 40
10.16820806580436
 40
10.58789733141787
 40
11.00774177935404
 40
11.39741645165485
 40
11.78731900577006
 40
12.14659830567291
 40
12.50618486556063
 40
12.83874986228864
 40
13.17165737941168
 40
13.48567887230894
 40
13.79994393857086
 40
14.10737584061453
 40
14.41480773825931
 40
14.41480773825931
 40
14.41480773825931
 40
14.41480773825931
 10
263.1930843933261
 20
769.5307399186383
 30
0.0
 10
263.0898170166456
 20
769.5493324539797
 30
0.0
 10
262.8833623046996
 20
769.5865031287278
 30
0.0
 10
262.5812900973379
 20
769.6974497677759
 30
0.0
 10
262.2891078506395
 20
769.8445147998839
 30
0.0
 10
262.0042656100935
 20
770.0346697076236
 30
0.0
 10
261.7348366532865
 20
770.2598044628589
 30
0.0
 10
261.4760504644996
 20
770.5244407525527
 30
0.0
 10
261.2363835321896
 20
770.8195008203999
 30
0.0
 10
261.0110550773504
 20
771.1502669673685
 30
0.0
 10
260.8075006554988
 20
771.5063340365903
 30
0.0
 10
260.6220164644586
 20
771.8930671257921
 30
0.0
 10
260.4602535475933
 20
772.2997403129294
 30
0.0
 10
260.3198921043951
 20
772.7307164690966
 30
0.0
 10
260.2046541475684
 20
773.1760899068667
 30
0.0
 10
260.1134047857751
 20
773.6383027747855
 30
0.0
 10
260.0482001234831
 20
774.1092211623045
 30
0.0
 10
260.0086113832339
 20
774.5887526042633
 30
0.0
 10
259.9955263663704
 20
775.0711976761954
 30
0.0
 10
260.0086113871768
 20
775.5536427467298
 30
0.0
 10
260.0482001318692
 20
776.033174184531
 30
0.0
 10
260.113404794479
 20
776.5040925674043
 30
0.0
 10
260.2046541539172
 20
776.9663054312871
 30
0.0
 10
260.3198921089044
 20
777.4116788692812
 30
0.0
 10
260.4602535523264
 20
777.8426550174383
 30
0.0
 10
260.6220164643347
 20
778.2493282302979
 30
0.0
 10
260.8075006699974
 20
778.6360612272358
 30
0.0
 10
261.0110550374604
 20
778.9921286271442
 30
0.0
 10
261.236383680035
 20
779.3228936233559
 30
0.0
 10
261.4760499392376
 20
779.617957808207
 30
0.0
 10
261.7348384518721
 20
779.8825798747846
 30
0.0
 10
262.0042590930157
 20
780.1077655133981
 30
0.0
 10
262.2891301635963
 20
780.2977439941103
 30
0.0
 10
262.5812085138757
 20
780.4454448150825
 30
0.0
 10
262.8836477514476
 20
780.5541454596395
 30
0.0
 10
263.1897805290266
 20
780.6177285434821
 30
0.0
 10
263.5000057224761
 20
780.6426280176534
 30
0.0
 10
263.7042791479128
 20
780.6219796211625
 30
0.0
 10
263.8064158596445
 20
780.6116554169366
 30
0.0
 11
263.1930843933261
 21
769.5307399186383
 31
0.0
 11
262.8855351476897
 21
769.5953618436935
 31
0.0
 11
262.5896593861191
 21
769.7005618028846
 31
0.0
 11
262.2924064579884
 21
769.850455469857
 31
0.0
 11
262.0152304491307
 21
770.0342296164092
 31
0.0
 11
261.7388679707708
 21
770.2642867275812
 31
0.0
 11
261.4871528953162
 21
770.5206480662425
 31
0.0
 11
261.2407390530595
 21
770.8228139476503
 31
0.0
 11
261.0208995176245
 21
771.1445544156602
 31
0.0
 11
260.8119544699996
 21
771.5087127979567
 31
0.0
 11
260.6301065751784
 21
771.8869593084431
 31
0.0
 11
260.4647051683913
 21
772.3013735340809
 31
0.0
 11
260.3263144539603
 21
772.7254674907983
 31
0.0
 11
260.2090718196081
 21
773.1771106508866
 31
0.0
 11
260.1185769758873
 21
773.634803759842
 31
0.0
 11
260.0525869145014
 21
774.1097119435939
 31
0.0
 11
260.0131224094383
 21
774.5875286288403
 31
0.0
 11
259.9999013239128
 21
775.0711976677875
 31
0.0
 11
260.0131224094383
 21
775.5548667067349
 31
0.0
 11
260.0525869145014
 21
776.0326833919813
 31
0.0
 11
260.1185769758874
 21
776.5075915757332
 31
0.0
 11
260.2090718196081
 21
776.9652846846886
 31
0.0
 11
260.3263144539603
 21
777.416927844777
 31
0.0
 11
260.4647051683913
 21
777.8410218014942
 31
0.0
 11
260.6301065751784
 21
778.2554360271319
 31
0.0
 11
260.8119544699997
 21
778.6336825376184
 31
0.0
 11
261.0208995176245
 21
778.9978409199149
 31
0.0
 11
261.2407390530595
 21
779.3195813879246
 31
0.0
 11
261.4871528953162
 21
779.6217472693327
 31
0.0
 11
261.7388679707708
 21
779.8781086079941
 31
0.0
 11
262.0152304491307
 21
780.1081657191658
 31
0.0
 11
262.2924064579884
 21
780.291939865718
 31
0.0
 11
262.5896593861191
 21
780.4418335326905
 31
0.0
 11
262.8855351476896
 21
780.5470334918818
 31
0.0
 11
263.1930843933262
 21
780.6116554169366
 31
0.0
 11
263.4997501264854
 21
780.6333465331093
 31
0.0
 11
263.8064158596445
 21
780.6116554169366
 31
0.0
  0
SPLINE
  5
EB
330
50
100
AcDbEntity
  8
1
  6
Continuous
 62
     7
100
AcDbSpline
210
0.0
220
0.0
230
1.0
 70
    11
 71
     3
 72
    79
 73
    75
 74
    73
 42
0.000000001
 43
0.0000000001
 44
0.00000001
 40
0.0
 40
0.0
 40
0.0
 40
0.0
 40
0.3219191065761323
 40
0.6433817936226639
 40
0.9928750027371087
 40
1.341795136668536
 40
1.729749024779464
 40
2.117262753762354
 40
2.547908612129034
 40
2.978266912591359
 40
3.450266272796132
 40
3.922086448925731
 40
4.429962875077869
 40
4.937730794206522
 40
5.473111498178893
 40
6.008430496810056
 40
6.561033305605911
 40
7.11360811862651
 40
7.672061090161287
 40
8.230514061698162
 40
8.783088874725387
 40
9.335691683531188
 40
9.871010682173855
 40
10.406391386156
 40
10.91415930528942
 40
11.42203573143612
 40
11.89385590754514
 40
12.36585526770439
 40
12.79621356809183
 40
13.22685942633406
 40
13.61437315514061
 40
14.0023270429777
 40
14.35124717651849
 40
14.70074038494101
 40
15.02220306986399
 40
15.34412218308057
 40
15.65570035336863
 40
15.96727852365563
 40
16.28919763686907
 40
16.6106603217874
 40
16.96015353020354
 40
17.30907366373749
 40
17.69702755156666
 40
18.08454128036531
 40
18.51518713859915
 40
18.94554543897899
 40
19.41754479913033
 40
19.88936497523268
 40
20.39724140137289
 40
20.90500932050035
 40
21.44039002447721
 40
21.97570902311549
 40
22.5283118319179
 40
23.08088664494301
 40
23.63933961647916
 40
24.19779258801442
 40
24.75036740103747
 40
25.30297020983785
 40
25.83828920847551
 40
26.37366991245659
 40
26.88143783159584
 40
27.38931425776056
 40
27.86113443390331
 40
28.33313379412147
 40
28.76349209459518
 40
29.19413795296892
 40
29.58165168194903
 40
29.96960557003373
 40
30.31852570388527
 40
30.66801891273268
 40
30.98948159820542
 40
31.3114007122297
 40
31.62297888471734
 40
31.9345570487636
 40
31.9345570487636
 40
31.9345570487636
 40
31.9345570487636
 10
263.2248096086802
 20
642.5587552507973
 30
0.0
 10
263.1194906852323
 20
642.5370312343041
 30
0.0
 10
262.9090021581464
 20
642.4936140114798
 30
0.0
 10
262.6025090123602
 20
642.3640205566282
 30
0.0
 10
262.3075893012877
 20
642.1935054493142
 30
0.0
 10
262.0193902343566
 20
641.972726568004
 30
0.0
 10
261.748435303331
 20
641.7127690301298
 30
0.0
 10
261.4870646809257
 20
641.4065372170496
 30
0.0
 10
261.2462168732143
 20
641.0664865706764
 30
0.0
 10
261.0187949627107
 20
640.6842960466673
 30
0.0
 10
260.8141167362523
 20
640.2740637962476
 30
0.0
 10
260.6269487730342
 20
639.8274929642484
 30
0.0
 10
260.4641558565979
 20
639.3588283425994
 30
0.0
 10
260.3225290947272
 20
638.8613304665085
 30
0.0
 10
260.2064771730747
 20
638.3478682432996
 30
0.0
 10
260.1144065047919
 20
637.814428662737
 30
0.0
 10
260.0487154373832
 20
637.2713276849652
 30
0.0
 10
260.0087625026855
 20
636.7180119814784
 30
0.0
 10
259.9955955692961
 20
636.1614610464237
 30
0.0
 10
260.0087625027813
 20
635.6049101113485
 30
0.0
 10
260.0487154375823
 20
635.0515944079244
 30
0.0
 10
260.1144065050363
 20
634.5084934299285
 30
0.0
 10
260.2064771735204
 20
633.9750538501805
 30
0.0
 10
260.3225290947329
 20
633.4615916240102
 30
0.0
 10
260.4641558583479
 20
632.9640937584362
 30
0.0
 10
260.6269487685598
 20
632.4954290989074
 30
0.0
 10
260.8141167533422
 20
632.0488583987451
 30
0.0
 10
261.0187949026115
 20
631.6386256781661
 30
0.0
 10
261.246217076604
 20
631.256436762061
 30
0.0
 10
261.4870639513912
 20
630.9163804272891
 30
0.0
 10
261.7484377250415
 20
630.6101678348682
 30
0.0
 10
262.0193815365052
 20
630.3501424833723
 30
0.0
 10
262.3076181700783
 20
630.12959271732
 30
0.0
 10
262.602404352922
 20
629.9582632545234
 30
0.0
 10
262.909358315947
 20
629.8314802289128
 30
0.0
 10
263.2201095402618
 20
629.7568329711962
 30
0.0
 10
263.5353571068076
 20
629.7299974660632
 30
0.0
 10
263.8506046733529
 20
629.7568329711878
 30
0.0
 10
264.1613558976669
 20
629.8314802288962
 30
0.0
 10
264.4683098606899
 20
629.9582632544987
 30
0.0
 10
264.7630960435313
 20
630.1295927172878
 30
0.0
 10
265.0513326771009
 20
630.3501424833332
 30
0.0
 10
265.3222764885601
 20
630.6101678348231
 30
0.0
 10
265.5836502622051
 20
630.9163804272378
 30
0.0
 10
265.8244971369863
 20
631.2564367620041
 30
0.0
 10
266.0519193109709
 20
631.6386256781047
 30
0.0
 10
266.2565974602315
 20
632.0488583986797
 30
0.0
 10
266.4437654450039
 20
632.495429098839
 30
0.0
 10
266.6065583552038
 20
632.9640937583649
 30
0.0
 10
266.7481851188044
 20
633.4615916239374
 30
0.0
 10
266.8642370400003
 20
633.9750538501058
 30
0.0
 10
266.9563077084651
 20
634.5084934298529
 30
0.0
 10
267.0219987758971
 20
635.0515944078479
 30
0.0
 10
267.0619517106716
 20
635.6049101112729
 30
0.0
 10
267.0751186441261
 20
636.1614610463441
 30
0.0
 10
267.0619517107052
 20
636.7180119814143
 30
0.0
 10
267.021998775958
 20
637.2713276848438
 30
0.0
 10
266.9563077085454
 20
637.814428662824
 30
0.0
 10
266.864237040071
 20
638.3478682426291
 30
0.0
 10
266.7481851188862
 20
638.8613304685888
 30
0.0
 10
266.6065583551128
 20
639.3588283349038
 30
0.0
 10
266.4437654452666
 20
639.8274929917527
 30
0.0
 10
266.2565974588422
 20
640.2740637012176
 30
0.0
 10
266.0519193148556
 20
640.6842963885819
 30
0.0
 10
265.8244971220287
 20
641.066485418215
 30
0.0
 10
265.5836503128359
 20
641.4065413512476
 30
0.0
 10
265.3222763162853
 20
641.712755300964
 30
0.0
 10
265.0513332896381
 20
641.9727758634681
 30
0.0
 10
264.7630940026107
 20
642.1933418092899
 30
0.0
 10
264.468317248726
 20
642.3646137630354
 30
0.0
 10
264.161330742586
 20
642.4915952580152
 30
0.0
 10
263.8506976688301
 20
642.5655219303712
 30
0.0
 10
263.5350223592926
 20
642.5949661613522
 30
0.0
 10
263.3282138582707
 20
642.5708255507296
 30
0.0
 10
263.2248096086802
 20
642.5587552507973
 30
0.0
 11
263.2248096086802
 21
642.5587552507973
 31
0.0
 11
262.911827382508
 21
642.4834290161119
 31
0.0
 11
262.6141682969555
 21
642.3620316246474
 31
0.0
 11
262.3116008563009
 21
642.1871075077922
 31
0.0
 11
262.0337613456047
 21
641.9760376948352
 31
0.0
 11
261.7530407229601
 21
641.708261386765
 31
0.0
 11
261.5007795355749
 21
641.4140995547862
 31
0.0
 11
261.250964348168
 21
641.0633172470817
 31
0.0
 11
261.0303455369097
 21
640.6938099983613
 31
0.0
 11
260.8188145718694
 21
640.2718644487463
 31
0.0
 11
260.6360255869116
 21
639.8368903511573
 31
0.0
 11
260.4687487557781
 21
639.3573521086702
 31
0.0
 11
260.3294474615548
 21
638.8690659127465
 31
0.0
 11
260.2109711019673
 21
638.3469587873283
 31
0.0
 11
260.1197790503618
 21
637.8194642944411
 31
0.0
 11
260.0531429579133
 21
637.2708938837579
 31
0.0
 11
260.0133362399491
 21
636.7197547459791
 31
0.0
 11
260.0000000000001
 21
636.161461036433
 31
0.0
 11
260.0133362399491
 21
635.603167326887
 31
0.0
 11
260.0531429579134
 21
635.0520281891083
 31
0.0
 11
260.1197790503618
 21
634.5034577784252
 31
0.0
 11
260.2109711019674
 21
633.9759632855378
 31
0.0
 11
260.3294474615548
 21
633.4538561601196
 31
0.0
 11
260.4687487557781
 21
632.9655699641958
 31
0.0
 11
260.6360255869116
 21
632.4860317217087
 31
0.0
 11
260.8188145718693
 21
632.0510576241197
 31
0.0
 11
261.0303455369097
 21
631.6291120745049
 31
0.0
 11
261.250964348168
 21
631.2596048257845
 31
0.0
 11
261.5007795355749
 21
630.9088225180799
 31
0.0
 11
261.7530407229601
 21
630.6146606861009
 31
0.0
 11
262.0337613456047
 21
630.3468843780308
 31
0.0
 11
262.3116008563007
 21
630.1358145650738
 31
0.0
 11
262.6141682969555
 21
629.9608904482186
 31
0.0
 11
262.911827382508
 21
629.8394930567542
 31
0.0
 11
263.2248096086803
 21
629.7641668220688
 31
0.0
 11
263.5353571071356
 21
629.7388447471004
 31
0.0
 11
263.8459046055909
 21
629.7641668220688
 31
0.0
 11
264.1588868317632
 21
629.8394930567542
 31
0.0
 11
264.4565459173158
 21
629.9608904482186
 31
0.0
 11
264.7591133579705
 21
630.1358145650738
 31
0.0
 11
265.0369528686666
 21
630.3468843780308
 31
0.0
 11
265.3176734913112
 21
630.614660686101
 31
0.0
 11
265.5699346786963
 21
630.9088225180799
 31
0.0
 11
265.8197498661033
 21
631.2596048257843
 31
0.0
 11
266.0403686773615
 21
631.6291120745047
 31
0.0
 11
266.2518996424018
 21
632.0510576241195
 31
0.0
 11
266.4346886273596
 21
632.4860317217086
 31
0.0
 11
266.6019654584932
 21
632.9655699641959
 31
0.0
 11
266.7412667527163
 21
633.4538561601196
 31
0.0
 11
266.8597431123036
 21
633.9759632855378
 31
0.0
 11
266.9509351639094
 21
634.5034577784252
 31
0.0
 11
267.017571256358
 21
635.0520281891083
 31
0.0
 11
267.0573779743222
 21
635.6031673268872
 31
0.0
 11
267.0707142142712
 21
636.1614610364331
 31
0.0
 11
267.0573779743222
 21
636.7197547459791
 31
0.0
 11
267.0175712563579
 21
637.2708938837578
 31
0.0
 11
266.9509351639094
 21
637.8194642944411
 31
0.0
 11
266.8597431123037
 21
638.3469587873283
 31
0.0
 11
266.7412667527163
 21
638.8690659127465
 31
0.0
 11
266.6019654584932
 21
639.3573521086703
 31
0.0
 11
266.4346886273597
 21
639.8368903511575
 31
0.0
 11
266.251899642402
 21
640.2718644487466
 31
0.0
 11
266.0403686773615
 21
640.6938099983613
 31
0.0
 11
265.8197498661031
 21
641.0633172470816
 31
0.0
 11
265.5699346786963
 21
641.4140995547862
 31
0.0
 11
265.3176734913113
 21
641.7082613867652
 31
0.0
 11
265.0369528686667
 21
641.9760376948354
 31
0.0
 11
264.7591133579706
 21
642.1871075077923
 31
0.0
 11
264.4565459173158
 21
642.3620316246476
 31
0.0
 11
264.1588868317633
 21
642.4834290161118
 31
0.0
 11
263.8459046055909
 21
642.5587552507973
 31
0.0
 11
263.5353571071356
 21
642.5840773257655
 31
0.0
 11
263.2248096086802
 21
642.5587552507973
 31
0.0
  0
SPLINE
  5
EC
330
50
100
AcDbEntity
  8
1
  6
Continuous
 62
     7
100
AcDbSpline
210
0.0
220
0.0
230
1.0
 70
     8
 71
     3
 72
    79
 73
    75
 74
    73
 42
0.000000001
 43
0.0000000001
 44
0.00000001
 40
0.0
 40
0.0
 40
0.0
 40
0.0
 40
0.2813091293969856
 40
0.5626019526623951
 40
0.8464226449807319
 40
1.130214053452909
 40
1.417835704143651
 40
1.705420535405363
 40
1.997635971322369
 40
2.289812847535168
 40
2.586839028397158
 40
2.88382978537224
 40
3.185307038651147
 40
3.486755454675185
 40
3.79181297337748
 40
4.096850358938738
 40
4.404220792649485
 40
4.71158092498333
 40
5.019747225479281
 40
5.327913525965148
 40
5.635273658268916
 40
5.942644091928957
 40
6.24768147741881
 40
6.552738996027742
 40
6.854187411937027
 40
7.155664665076557
 40
7.452655421888833
 40
7.749681602560208
 40
8.041858478555293
 40
8.33407391422004
 40
8.621658745192056
 40
8.909280395538284
 40
9.193071803579288
 40
9.476892495267672
 40
9.758185317171202
 40
10.03949445550905
 40
10.31992039272959
 40
10.6003463299499
 40
10.8816554682864
 40
11.16294829018766
 40
11.44676898187281
 40
11.73056038990977
 40
12.01818204025107
 40
12.30576687121752
 40
12.59798230687615
 40
12.89015918286452
 40
13.18718536352859
 40
13.48417612033339
 40
13.78565337346489
 40
14.08710178936585
 40
14.39215930796619
 40
14.69719669344732
 40
15.00456712709831
 40
15.31192725939296
 40
15.62009355986956
 40
15.92825986035594
 40
16.23561999268039
 40
16.54299042638128
 40
16.84802781193244
 40
17.15308533062427
 40
17.45453374663744
 40
17.75601099990446
 40
18.05300175686665
 40
18.3500279377134
 40
18.64220481390787
 40
18.93442024980047
 40
19.22200508102712
 40
19.5096267316613
 40
19.79341814002697
 40
20.07723883209484
 40
20.35853165448683
 40
20.6398407936961
 40
20.7802573729169
 40
20.92034802491343
 40
20.92034802491343
 40
20.92034802491343
 40
20.92034802491343
 10
267.0571922292435
 20
625.1832305235788
 30
0.0
 10
267.0456208261325
 20
625.276357471574
 30
0.0
 10
267.0224786955705
 20
625.4626059700764
 30
0.0
 10
266.9537165571452
 20
625.736907553286
 30
0.0
 10
266.8611484307322
 20
626.004651482628
 30
0.0
 10
266.7422960951641
 20
626.2642641190854
 30
0.0
 10
266.5996341797239
 20
626.5129812163202
 30
0.0
 10
266.4330912789487
 20
626.7498251319653
 30
0.0
 10
266.2451335597576
 20
626.9720405515176
 30
0.0
 10
266.0359713480673
 20
627.1789036037396
 30
0.0
 10
265.8085187716878
 20
627.3679623388148
 30
0.0
 10
265.5631731874283
 20
627.5386022836715
 30
0.0
 10
265.3031446291739
 20
627.6888660127242
 30
0.0
 10
265.029121883196
 20
627.8181733650332
 30
0.0
 10
264.7443741978854
 20
627.9251641671581
 30
0.0
 10
264.450011348404
 20
628.009296506508
 30
0.0
 10
264.1491208684984
 20
628.0698154908844
 30
0.0
 10
263.8433345465996
 20
628.1062966290485
 30
0.0
 10
263.5353571166678
 20
628.1185154107508
 30
0.0
 10
263.2273796867266
 20
628.1062966293865
 30
0.0
 10
262.9215933648356
 20
628.0698154915601
 30
0.0
 10
262.6207028848495
 20
628.0092965075314
 30
0.0
 10
262.3263400355784
 20
627.9251641685053
 30
0.0
 10
262.0415923493664
 20
627.818173366815
 30
0.0
 10
261.7675696065558
 20
627.6888660145547
 30
0.0
 10
261.5075410363661
 20
627.5386022870148
 30
0.0
 10
261.262195495769
 20
627.3679623383144
 30
0.0
 10
261.0347427575134
 20
627.1789036192461
 30
0.0
 10
260.8255811401846
 20
626.972040510048
 30
0.0
 10
260.6376212214147
 20
626.7498253032352
 30
0.0
 10
260.4710864051751
 20
626.5129806076418
 30
0.0
 10
260.3283945479695
 20
626.2642664011645
 30
0.0
 10
260.2096525408188
 20
626.0046431153837
 30
0.0
 10
260.116674995693
 20
625.7369387079502
 30
0.0
 10
260.0494279178897
 20
625.4624908748053
 30
0.0
 10
260.009112571795
 20
625.183952052347
 30
0.0
 10
259.9954508928183
 20
624.9031307875259
 30
0.0
 10
260.0091125717833
 20
624.6223095227051
 30
0.0
 10
260.0494279178661
 20
624.3437707002461
 30
0.0
 10
260.1166749956581
 20
624.0693228671007
 30
0.0
 10
260.2096525407721
 20
623.8016184596668
 30
0.0
 10
260.3283945479114
 20
623.5419951738853
 30
0.0
 10
260.4710864051056
 20
623.2932809674065
 30
0.0
 10
260.6376212213341
 20
623.0564362718126
 30
0.0
 10
260.8255811400928
 20
622.834221064998
 30
0.0
 10
261.0347427574107
 20
622.6273579557985
 30
0.0
 10
261.2621954956556
 20
622.4382992367281
 30
0.0
 10
261.5075410362419
 20
622.2676592880262
 30
0.0
 10
261.7675696064213
 20
622.1173955604838
 30
0.0
 10
262.0415923492218
 20
621.988088208222
 30
0.0
 10
262.3263400354236
 20
621.881097406529
 30
0.0
 10
262.620702884685
 20
621.7969650674997
 30
0.0
 10
262.921593364661
 20
621.7364460834679
 30
0.0
 10
263.2273796865429
 20
621.6999649456377
 30
0.0
 10
263.5353571164734
 20
621.68774616427
 30
0.0
 10
263.8433345464003
 20
621.6999649459666
 30
0.0
 10
264.1491208682737
 20
621.7364460841277
 30
0.0
 10
264.4500113482308
 20
621.7969650684915
 30
0.0
 10
264.7443741974816
 20
621.8810974078546
 30
0.0
 10
265.0291218836095
 20
621.988088209893
 30
0.0
 10
265.3031446265351
 20
622.1173955624755
 30
0.0
 10
265.5631731960661
 20
622.2676592904587
 30
0.0
 10
265.8085187388143
 20
622.4382992391813
 30
0.0
 10
266.0359714687895
 20
622.6273579598619
 30
0.0
 10
266.2451331161736
 20
622.8342210648545
 30
0.0
 10
266.4330929233118
 20
623.0564362889997
 30
0.0
 10
266.5996281493923
 20
623.2932809226903
 30
0.0
 10
266.7423184881793
 20
623.5419953603073
 30
0.0
 10
266.8610660897307
 20
623.8016177963432
 30
0.0
 10
266.9540228737942
 20
624.0693253592184
 30
0.0
 10
267.0213467773964
 20
624.3437615180683
 30
0.0
 10
267.0547281667467
 20
624.5760770811854
 30
0.0
 10
267.0687522981538
 20
624.7629156454045
 30
0.0
 10
267.0700607472962
 20
624.8564286248956
 30
0.0
 10
267.0707142142712
 20
624.9031307872533
 30
0.0
 11
267.0571922292435
 21
625.1832305235788
 31
0.0
 11
267.0168369851036
 21
625.4616300309324
 31
0.0
 11
266.9500286425447
 21
625.734874055805
 31
0.0
 11
266.8568981413555
 21
626.0029801819696
 31
0.0
 11
266.7390075279789
 21
626.2611262000672
 31
0.0
 11
266.595900514522
 21
626.5106188784154
 31
0.0
 11
266.4306202239284
 21
626.7459642855152
 31
0.0
 11
266.2419474314254
 21
626.9691064785302
 31
0.0
 11
266.0343170181229
 21
627.1746714036153
 31
0.0
 11
265.8059379353931
 21
627.3645859808843
 31
0.0
 11
265.5621961285811
 21
627.5342722835749
 31
0.0
 11
265.3011999119323
 21
627.6851679731354
 31
0.0
 11
265.0286248520541
 21
627.8139079601334
 31
0.0
 11
264.7430768834773
 21
627.9212506234235
 31
0.0
 11
264.4498036146788
 21
628.0051469666626
 31
0.0
 11
264.1484726514988
 21
628.0657789233021
 31
0.0
 11
263.8432813929184
 21
628.1022281572884
 31
0.0
 11
263.5353571071356
 21
628.1144389319018
 31
0.0
 11
263.2274328213529
 21
628.1022281572884
 31
0.0
 11
262.9222415627725
 21
628.065778923302
 31
0.0
 11
262.6209105995924
 21
628.0051469666626
 31
0.0
 11
262.3276373307939
 21
627.9212506234235
 31
0.0
 11
262.0420893622172
 21
627.8139079601334
 31
0.0
 11
261.7695143023389
 21
627.6851679731353
 31
0.0
 11
261.5085180856901
 21
627.5342722835749
 31
0.0
 11
261.2647762788781
 21
627.3645859808842
 31
0.0
 11
261.0363971961482
 21
627.1746714036153
 31
0.0
 11
260.8287667828458
 21
626.9691064785301
 31
0.0
 11
260.6400939903428
 21
626.7459642855152
 31
0.0
 11
260.4748136997492
 21
626.5106188784155
 31
0.0
 11
260.3317066862924
 21
626.2611262000672
 31
0.0
 11
260.2138160729158
 21
626.0029801819696
 31
0.0
 11
260.1206855717267
 21
625.734874055805
 31
0.0
 11
260.0538772291678
 21
625.4616300309324
 31
0.0
 11
260.0135219850278
 21
625.1832305235788
 31
0.0
 11
259.9999999999999
 21
624.9031307872357
 31
0.0
 11
260.0135219850279
 21
624.6230310508922
 31
0.0
 11
260.0538772291677
 21
624.3446315435385
 31
0.0
 11
260.1206855717268
 21
624.0713875186659
 31
0.0
 11
260.2138160729159
 21
623.8032813925013
 31
0.0
 11
260.3317066862925
 21
623.5451353744037
 31
0.0
 11
260.4748136997492
 21
623.2956426960556
 31
0.0
 11
260.6400939903428
 21
623.0602972889558
 31
0.0
 11
260.8287667828458
 21
622.837155095941
 31
0.0
 11
261.0363971961482
 21
622.6315901708556
 31
0.0
 11
261.2647762788779
 21
622.4416755935866
 31
0.0
 11
261.50851808569
 21
622.2719892908959
 31
0.0
 11
261.7695143023388
 21
622.1210936013354
 31
0.0
 11
262.0420893622172
 21
621.9923536143375
 31
0.0
 11
262.3276373307939
 21
621.8850109510475
 31
0.0
 11
262.6209105995924
 21
621.8011146078084
 31
0.0
 11
262.9222415627725
 21
621.7404826511688
 31
0.0
 11
263.2274328213529
 21
621.7040334171825
 31
0.0
 11
263.5353571071356
 21
621.6918226425692
 31
0.0
 11
263.8432813929182
 21
621.7040334171825
 31
0.0
 11
264.1484726514987
 21
621.7404826511691
 31
0.0
 11
264.4498036146787
 21
621.8011146078086
 31
0.0
 11
264.7430768834773
 21
621.8850109510475
 31
0.0
 11
265.028624852054
 21
621.9923536143376
 31
0.0
 11
265.3011999119322
 21
622.1210936013355
 31
0.0
 11
265.5621961285811
 21
622.271989290896
 31
0.0
 11
265.8059379353931
 21
622.4416755935868
 31
0.0
 11
266.0343170181229
 21
622.6315901708556
 31
0.0
 11
266.2419474314254
 21
622.8371550959408
 31
0.0
 11
266.4306202239284
 21
623.0602972889558
 31
0.0
 11
266.595900514522
 21
623.2956426960556
 31
0.0
 11
266.7390075279789
 21
623.5451353744038
 31
0.0
 11
266.8568981413555
 21
623.8032813925014
 31
0.0
 11
266.9500286425447
 21
624.0713875186659
 31
0.0
 11
267.0168369851036
 21
624.3446315435386
 31
0.0
 11
267.0571922292434
 21
624.6230310508922
 31
0.0
 11
267.0673337180147
 21
624.7630809190728
 31
0.0
 11
267.0707142142712
 21
624.9031307872533
 31
0.0
  0
SPLINE
  5
ED
330
50
100
AcDbEntity
  8
1
  6
Continuous
 62
     7
100
AcDbSpline
210
0.0
220
0.0
230
1.0
 70
     8
 71
     3
 72
     9
 73
     5
 74
     3
 42
0.000000001
 43
0.0000000001
 44
0.00000001
 40
0.0
 40
0.0
 40
0.0
 40
0.0
 40
0.140090660858998
 40
0.2805072385813556
 40
0.2805072385813556
 40
0.2805072385813556
 40
0.2805072385813556
 10
267.0707142142712
 20
624.9031307872533
 30
0.0
 10
267.0701481842912
 20
624.9498411338952
 30
0.0
 10
267.0690147875021
 20
625.0433704967247
 30
0.0
 10
267.0611361400133
 20
625.1365744176484
 30
0.0
 10
267.0571922292435
 20
625.1832305235788
 30
0.0
 11
267.0707142142712
 21
624.9031307872533
 31
0.0
 11
267.0673337180139
 21
625.0431806554161
 31
0.0
 11
267.0571922292435
 21
625.1832305235788
 31
0.0
  0
SPLINE
  5
EE
330
50
100
AcDbEntity
  8
1
  6
Continuous
 62
     7
100
AcDbSpline
210
0.0
220
0.0
230
1.0
 70
     8
 71
     3
 72
    79
 73
    75
 74
    73
 42
0.000000001
 43
0.0000000001
 44
0.00000001
 40
0.0
 40
0.0
 40
0.0
 40
0.0
 40
0.2813091293968731
 40
0.5626019526625035
 40
0.8464226449807328
 40
1.13021405345291
 40
1.417835704143652
 40
1.70542053540527
 40
1.997635971322364
 40
2.289812847535243
 40
2.58683902839716
 40
2.883829785372242
 40
3.185307038651148
 40
3.486755454675187
 40
3.791812973377441
 40
4.096850358938731
 40
4.404220792649455
 40
4.711580924983327
 40
5.019747225479279
 40
5.327913525965145
 40
5.635273658268915
 40
5.942644091929
 40
6.247681477418853
 40
6.552738996027784
 40
6.854187411936972
 40
7.155664665076559
 40
7.45265542188877
 40
7.749681602560218
 40
8.041858478555223
 40
8.334073914220058
 40
8.621658745192166
 40
8.909280395538394
 40
9.193071803579398
 40
9.476892495267782
 40
9.758185317171312
 40
10.03949445550904
 40
10.31992039272981
 40
10.60034632994979
 40
10.88165546828628
 40
11.16294829018765
 40
11.4467689818728
 40
11.73056038990976
 40
12.01818204025106
 40
12.30576687121761
 40
12.59798230687633
 40
12.89015918286462
 40
13.18718536352862
 40
13.48417612033341
 40
13.78565337346491
 40
14.08710178936587
 40
14.39215930796613
 40
14.69719669344726
 40
15.00456712709825
 40
15.31192725939291
 40
15.62009355986951
 40
15.92825986035589
 40
16.23561999268032
 40
16.54299042638122
 40
16.84802781193247
 40
17.15308533062422
 40
17.45453374663739
 40
17.75601099990441
 40
18.0530017568666
 40
18.35002793771342
 40
18.64220481390773
 40
18.93442024980034
 40
19.22200508102707
 40
19.50962673166116
 40
19.79341814002672
 40
20.07723883209481
 40
20.35853165448669
 40
20.63984079369596
 40
20.78025737291676
 40
20.92034802491328
 40
20.92034802491328
 40
20.92034802491328
 40
20.92034802491328
 10
267.0571922292435
 20
647.1396915492874
 30
0.0
 10
267.0456208261326
 20
647.0465646012923
 30
0.0
 10
267.0224786955704
 20
646.8603161027896
 30
0.0
 10
266.9537165571451
 20
646.5860145195803
 30
0.0
 10
266.8611484307323
 20
646.318270590238
 30
0.0
 10
266.7422960951642
 20
646.0586579537807
 30
0.0
 10
266.5996341797239
 20
645.8099408565463
 30
0.0
 10
266.4330912789487
 20
645.5730969409007
 30
0.0
 10
266.2451335597576
 20
645.3508815213487
 30
0.0
 10
266.0359713480674
 20
645.1440184691266
 30
0.0
 10
265.8085187716877
 20
644.9549597340514
 30
0.0
 10
265.5631731874283
 20
644.7843197891948
 30
0.0
 10
265.3031446291737
 20
644.6340560601417
 30
0.0
 10
265.0291218831961
 20
644.5047487078331
 30
0.0
 10
264.7443741978854
 20
644.3977579057082
 30
0.0
 10
264.4500113484041
 20
644.3136255663582
 30
0.0
 10
264.1491208684982
 20
644.2531065819819
 30
0.0
 10
263.8433345465997
 20
644.2166254438176
 30
0.0
 10
263.5353571166677
 20
644.2044066621153
 30
0.0
 10
263.2273796867267
 20
644.2166254434794
 30
0.0
 10
262.9215933648355
 20
644.2531065813059
 30
0.0
 10
262.6207028848496
 20
644.3136255653346
 30
0.0
 10
262.3263400355784
 20
644.397757904361
 30
0.0
 10
262.0415923493664
 20
644.5047487060515
 30
0.0
 10
261.7675696065556
 20
644.634056058311
 30
0.0
 10
261.5075410363661
 20
644.7843197858516
 30
0.0
 10
261.262195495769
 20
644.9549597345515
 30
0.0
 10
261.0347427575135
 20
645.1440184536202
 30
0.0
 10
260.8255811401845
 20
645.3508815628181
 30
0.0
 10
260.6376212214147
 20
645.573096769631
 30
0.0
 10
260.4710864051751
 20
645.8099414652245
 30
0.0
 10
260.3283945479695
 20
646.058655671702
 30
0.0
 10
260.2096525408187
 20
646.3182789574828
 30
0.0
 10
260.1166749956931
 20
646.585983364916
 30
0.0
 10
260.0494279178895
 20
646.8604311980606
 30
0.0
 10
260.009112571795
 20
647.1389700205198
 30
0.0
 10
259.9954508928183
 20
647.4197912853401
 30
0.0
 10
260.0091125717832
 20
647.7006125501612
 30
0.0
 10
260.0494279178661
 20
647.97915137262
 30
0.0
 10
260.1166749956579
 20
648.2535992057655
 30
0.0
 10
260.2096525407722
 20
648.5213036131996
 30
0.0
 10
260.3283945479114
 20
648.7809268989809
 30
0.0
 10
260.4710864051057
 20
649.0296411054596
 30
0.0
 10
260.6376212213341
 20
649.2664858010539
 30
0.0
 10
260.8255811400927
 20
649.4887010078683
 30
0.0
 10
261.0347427574107
 20
649.6955641170678
 30
0.0
 10
261.2621954956556
 20
649.8846228361381
 30
0.0
 10
261.5075410362419
 20
650.05526278484
 30
0.0
 10
261.7675696064214
 20
650.2055265123824
 30
0.0
 10
262.0415923492217
 20
650.3348338646443
 30
0.0
 10
262.3263400354238
 20
650.441824666337
 30
0.0
 10
262.6207028846849
 20
650.5259570053661
 30
0.0
 10
262.9215933646611
 20
650.5864759893981
 30
0.0
 10
263.2273796865429
 20
650.6229571272282
 30
0.0
 10
263.5353571164733
 20
650.635175908596
 30
0.0
 10
263.8433345464003
 20
650.6229571268996
 30
0.0
 10
264.1491208682738
 20
650.5864759887386
 30
0.0
 10
264.4500113482309
 20
650.5259570043747
 30
0.0
 10
264.7443741974813
 20
650.441824665011
 30
0.0
 10
265.0291218836097
 20
650.3348338629733
 30
0.0
 10
265.3031446265351
 20
650.2055265103907
 30
0.0
 10
265.5631731960661
 20
650.0552627824075
 30
0.0
 10
265.8085187388143
 20
649.884622833685
 30
0.0
 10
266.0359714687894
 20
649.695564113004
 30
0.0
 10
266.2451331161737
 20
649.488701008012
 30
0.0
 10
266.4330929233118
 20
649.2664857838666
 30
0.0
 10
266.5996281493922
 20
649.0296411501758
 30
0.0
 10
266.7423184881793
 20
648.7809267125591
 30
0.0
 10
266.861066089731
 20
648.521304276523
 30
0.0
 10
266.9540228737941
 20
648.2535967136479
 30
0.0
 10
267.0213467773964
 20
647.979160554798
 30
0.0
 10
267.0547281667467
 20
647.7468449916806
 30
0.0
 10
267.0687522981538
 20
647.5600064274619
 30
0.0
 10
267.0700607472962
 20
647.4664934479708
 30
0.0
 10
267.0707142142712
 20
647.419791285613
 30
0.0
 11
267.0571922292435
 21
647.1396915492874
 31
0.0
 11
267.0168369851036
 21
646.8612920419339
 31
0.0
 11
266.9500286425447
 21
646.588048017061
 31
0.0
 11
266.8568981413555
 21
646.3199418908965
 31
0.0
 11
266.7390075279789
 21
646.0617958727989
 31
0.0
 11
266.595900514522
 21
645.8123031944508
 31
0.0
 11
266.4306202239284
 21
645.576957787351
 31
0.0
 11
266.2419474314254
 21
645.353815594336
 31
0.0
 11
266.0343170181229
 21
645.1482506692507
 31
0.0
 11
265.8059379353931
 21
644.9583360919819
 31
0.0
 11
265.5621961285811
 21
644.7886497892913
 31
0.0
 11
265.3011999119323
 21
644.6377540997307
 31
0.0
 11
265.0286248520541
 21
644.5090141127328
 31
0.0
 11
264.7430768834773
 21
644.4016714494428
 31
0.0
 11
264.4498036146788
 21
644.3177751062036
 31
0.0
 11
264.1484726514988
 21
644.2571431495642
 31
0.0
 11
263.8432813929184
 21
644.2206939155776
 31
0.0
 11
263.5353571071356
 21
644.2084831409643
 31
0.0
 11
263.2274328213529
 21
644.2206939155776
 31
0.0
 11
262.9222415627725
 21
644.2571431495641
 31
0.0
 11
262.6209105995924
 21
644.3177751062037
 31
0.0
 11
262.3276373307939
 21
644.4016714494428
 31
0.0
 11
262.0420893622172
 21
644.5090141127329
 31
0.0
 11
261.7695143023389
 21
644.6377540997307
 31
0.0
 11
261.5085180856901
 21
644.7886497892913
 31
0.0
 11
261.2647762788781
 21
644.9583360919819
 31
0.0
 11
261.0363971961482
 21
645.1482506692508
 31
0.0
 11
260.8287667828458
 21
645.353815594336
 31
0.0
 11
260.6400939903428
 21
645.5769577873509
 31
0.0
 11
260.4748136997492
 21
645.8123031944508
 31
0.0
 11
260.3317066862924
 21
646.061795872799
 31
0.0
 11
260.2138160729158
 21
646.3199418908966
 31
0.0
 11
260.1206855717267
 21
646.5880480170613
 31
0.0
 11
260.0538772291678
 21
646.8612920419339
 31
0.0
 11
260.0135219850278
 21
647.1396915492874
 31
0.0
 11
259.9999999999999
 21
647.4197912856307
 31
0.0
 11
260.0135219850279
 21
647.6998910219738
 31
0.0
 11
260.0538772291677
 21
647.9782905293275
 31
0.0
 11
260.1206855717268
 21
648.2515345542002
 31
0.0
 11
260.2138160729159
 21
648.5196406803649
 31
0.0
 11
260.3317066862925
 21
648.7777866984625
 31
0.0
 11
260.4748136997492
 21
649.0272793768106
 31
0.0
 11
260.6400939903428
 21
649.2626247839105
 31
0.0
 11
260.8287667828458
 21
649.4857669769254
 31
0.0
 11
261.0363971961482
 21
649.6913319020107
 31
0.0
 11
261.2647762788779
 21
649.8812464792795
 31
0.0
 11
261.50851808569
 21
650.0509327819702
 31
0.0
 11
261.7695143023388
 21
650.2018284715308
 31
0.0
 11
262.0420893622172
 21
650.3305684585287
 31
0.0
 11
262.3276373307939
 21
650.4379111218184
 31
0.0
 11
262.6209105995924
 21
650.5218074650576
 31
0.0
 11
262.9222415627725
 21
650.5824394216971
 31
0.0
 11
263.2274328213529
 21
650.6188886556836
 31
0.0
 11
263.5353571071356
 21
650.6310994302969
 31
0.0
 11
263.8432813929182
 21
650.6188886556837
 31
0.0
 11
264.1484726514987
 21
650.5824394216971
 31
0.0
 11
264.4498036146787
 21
650.5218074650577
 31
0.0
 11
264.7430768834773
 21
650.4379111218184
 31
0.0
 11
265.028624852054
 21
650.3305684585285
 31
0.0
 11
265.3011999119322
 21
650.2018284715307
 31
0.0
 11
265.5621961285811
 21
650.0509327819701
 31
0.0
 11
265.8059379353931
 21
649.8812464792794
 31
0.0
 11
266.0343170181229
 21
649.6913319020105
 31
0.0
 11
266.2419474314254
 21
649.4857669769254
 31
0.0
 11
266.4306202239284
 21
649.2626247839105
 31
0.0
 11
266.595900514522
 21
649.0272793768106
 31
0.0
 11
266.7390075279789
 21
648.7777866984625
 31
0.0
 11
266.8568981413555
 21
648.519640680365
 31
0.0
 11
266.9500286425447
 21
648.2515345542002
 31
0.0
 11
267.0168369851036
 21
647.9782905293276
 31
0.0
 11
267.0571922292434
 21
647.699891021974
 31
0.0
 11
267.0673337180147
 21
647.5598411537935
 31
0.0
 11
267.0707142142712
 21
647.419791285613
 31
0.0
  0
ENDBLK
  5
52
330
50
100
AcDbEntity
  8
0
100
AcDbBlockEnd
  0
BLOCK
  5
57
330
53
100
AcDbEntity
  8
0
100
AcDbBlockBegin
  2
R10AK-13Z
 70
     0
 10
235.0
 20
591.1614610364331
 30
0.0
  3
R10AK-13Z
  1

  0
INSERT
  5
54
330
53
100
AcDbEntity
  8
1
100
AcDbBlockReference
  2
91-1
 10
236.5
 20
776.0201592474896
 30
0.0
  0
INSERT
  5
55
330
53
100
AcDbEntity
  8
0
100
AcDbBlockReference
  2
36-3-13
 10
846.303253331595
 20
657.0363856121386
 30
0.0
  0
INSERT
  5
56
330
53
100
AcDbEntity
  8
0
100
AcDbBlockReference
  2
37-1-13
 10
117.5042941098554
 20
727.9626912532042
 30
0.0
  0
ENDBLK
  5
58
330
53
100
AcDbEntity
  8
0
100
AcDbBlockEnd
  0
BLOCK
  5
5A
330
59
100
AcDbEntity
  8
0
100
AcDbBlockBegin
  2
開示A4
 70
     0
 10
0.0
 20
0.0
 30
0.0
  3
開示A4
  1

  0
POINT
  5
EF
330
59
100
AcDbEntity
  8
1
 62
     4
100
AcDbPoint
 10
93.75
 20
17.0
 30
0.0
  0
POINT
  5
F0
330
59
100
AcDbEntity
  8
1
 62
     4
100
AcDbPoint
 10
85.25
 20
17.0
 30
0.0
  0
POINT
  5
F1
330
59
100
AcDbEntity
  8
1
 62
     4
100
AcDbPoint
 10
106.5
 20
19.0
 30
0.0
  0
POINT
  5
F2
330
59
100
AcDbEntity
  8
1
 62
     4
100
AcDbPoint
 10
106.5
 20
12.5
 30
0.0
  0
POINT
  5
F3
330
59
100
AcDbEntity
  8
1
 62
     4
100
AcDbPoint
 10
112.25
 20
12.5
 30
0.0
  0
POINT
  5
F4
330
59
100
AcDbEntity
  8
1
 62
     4
100
AcDbPoint
 10
100.75
 20
12.5
 30
0.0
  0
POINT
  5
F5
330
59
100
AcDbEntity
  8
1
 62
     4
100
AcDbPoint
 10
123.5
 20
19.0
 30
0.0
  0
POINT
  5
F6
330
59
100
AcDbEntity
  8
1
 62
     4
100
AcDbPoint
 10
123.5
 20
12.5
 30
0.0
  0
POINT
  5
F7
330
59
100
AcDbEntity
  8
1
 62
     4
100
AcDbPoint
 10
129.25
 20
12.5
 30
0.0
  0
POINT
  5
F8
330
59
100
AcDbEntity
  8
1
 62
     4
100
AcDbPoint
 10
117.75
 20
12.5
 30
0.0
  0
POINT
  5
F9
330
59
100
AcDbEntity
  8
1
 62
     4
100
AcDbPoint
 10
140.5
 20
19.0
 30
0.0
  0
POINT
  5
FA
330
59
100
AcDbEntity
  8
1
 62
     4
100
AcDbPoint
 10
140.5
 20
12.5
 30
0.0
  0
POINT
  5
FB
330
59
100
AcDbEntity
  8
1
 62
     4
100
AcDbPoint
 10
146.25
 20
12.5
 30
0.0
  0
POINT
  5
FC
330
59
100
AcDbEntity
  8
1
 62
     4
100
AcDbPoint
 10
134.75
 20
12.5
 30
0.0
  0
POINT
  5
FD
330
59
100
AcDbEntity
  8
1
 62
     4
100
AcDbPoint
 10
151.75
 20
12.5
 30
0.0
  0
POINT
  5
FE
330
59
100
AcDbEntity
  8
1
 62
     4
100
AcDbPoint
 10
163.25
 20
12.5
 30
0.0
  0
POINT
  5
FF
330
59
100
AcDbEntity
  8
1
 62
     4
100
AcDbPoint
 10
157.5
 20
12.5
 30
0.0
  0
POINT
  5
100
330
59
100
AcDbEntity
  8
1
 62
     4
100
AcDbPoint
 10
57.0
 20
14.25
 30
0.0
  0
POINT
  5
101
330
59
100
AcDbEntity
  8
1
 62
     4
100
AcDbPoint
 10
57.0
 20
22.75
 30
0.0
  0
POINT
  5
102
330
59
100
AcDbEntity
  8
1
 62
     4
100
AcDbPoint
 10
47.5
 20
282.0000000000003
 30
0.0
  0
POINT
  5
103
330
59
100
AcDbEntity
  8
1
 62
     4
100
AcDbPoint
 10
157.5
 20
19.0
 30
0.0
  0
POINT
  5
104
330
59
100
AcDbEntity
  8
1
 62
     4
100
AcDbPoint
 10
57.0
 20
16.25
 30
0.0
  0
POINT
  5
105
330
59
100
AcDbEntity
  8
1
 62
     4
100
AcDbPoint
 10
57.0
 20
24.75
 30
0.0
  0
POINT
  5
106
330
59
100
AcDbEntity
  8
1
 62
     4
100
AcDbPoint
 10
57.0
 20
20.75
 30
0.0
  0
POINT
  5
107
330
59
100
AcDbEntity
  8
1
 62
     4
100
AcDbPoint
 10
57.0
 20
12.25
 30
0.0
  0
POINT
  5
108
330
59
100
AcDbEntity
  8
1
 62
     4
100
AcDbPoint
 10
34.0
 20
34.0
 30
0.0
  0
LINE
  5
109
330
59
100
AcDbEntity
  8
1
  6
Continuous
 62
     7
100
AcDbLine
 10
105.0
 20
10.0
 30
0.0
 11
200.0
 21
10.0
 31
0.0
  0
LINE
  5
10A
330
59
100
AcDbEntity
  8
1
  6
Continuous
 62
     2
100
AcDbLine
 10
105.0
 20
10.0
 30
0.0
 11
105.0
 21
5.0
 31
0.0
  0
LINE
  5
10B
330
59
100
AcDbEntity
  8
1
  6
Continuous
 62
     7
100
AcDbLine
 10
200.0
 20
148.5
 30
0.0
 11
200.0
 21
287.0000000000003
 31
0.0
  0
LINE
  5
10C
330
59
100
AcDbEntity
  8
1
  6
Continuous
 62
     2
100
AcDbLine
 10
200.0
 20
148.5
 30
0.0
 11
205.0
 21
148.5
 31
0.0
  0
LINE
  5
10D
330
59
100
AcDbEntity
  8
1
  6
Continuous
 62
     7
100
AcDbLine
 10
25.0
 20
148.5
 30
0.0
 11
25.0
 21
287.0000000000003
 31
0.0
  0
LINE
  5
10E
330
59
100
AcDbEntity
  8
1
  6
Continuous
 62
     2
100
AcDbLine
 10
25.0
 20
148.5
 30
0.0
 11
20.0
 21
148.5
 31
0.0
  0
LINE
  5
10F
330
59
100
AcDbEntity
  8
1
  6
Continuous
 62
     7
100
AcDbLine
 10
105.0
 20
287.0000000000003
 30
0.0
 11
25.0
 21
287.0000000000003
 31
0.0
  0
LINE
  5
110
330
59
100
AcDbEntity
  8
1
  6
Continuous
 62
     2
100
AcDbLine
 10
105.0
 20
287.0000000000003
 30
0.0
 11
105.0
 21
292.0000000000003
 31
0.0
  0
LINE
  5
111
330
59
100
AcDbEntity
  8
1
  6
Continuous
 62
     2
100
AcDbLine
 10
166.0
 20
20.0
 30
0.0
 11
200.0
 21
20.0
 31
0.0
  0
LINE
  5
112
330
59
100
AcDbEntity
  8
1
  6
Continuous
 62
     2
100
AcDbLine
 10
98.0
 20
27.0
 30
0.0
 11
98.0
 21
10.0
 31
0.0
  0
LINE
  5
113
330
59
100
AcDbEntity
  8
1
  6
Continuous
 62
     2
100
AcDbLine
 10
115.0
 20
27.0
 30
0.0
 11
115.0
 21
10.0
 31
0.0
  0
LINE
  5
114
330
59
100
AcDbEntity
  8
1
  6
Continuous
 62
     2
100
AcDbLine
 10
149.0
 20
27.0
 30
0.0
 11
149.0
 21
10.0
 31
0.0
  0
LINE
  5
115
330
59
100
AcDbEntity
  8
1
  6
Continuous
 62
     2
100
AcDbLine
 10
132.0
 20
27.0
 30
0.0
 11
132.0
 21
10.0
 31
0.0
  0
LINE
  5
116
330
59
100
AcDbEntity
  8
1
  6
Continuous
 62
     2
100
AcDbLine
 10
166.0
 20
27.0
 30
0.0
 11
166.0
 21
10.0
 31
0.0
  0
LINE
  5
117
330
59
100
AcDbEntity
  8
1
  6
Continuous
 62
     2
100
AcDbLine
 10
55.0
 20
277.0000000000003
 30
0.0
 11
25.0
 21
277.0000000000003
 31
0.0
  0
LINE
  5
118
330
59
100
AcDbEntity
  8
1
  6
Continuous
 62
     7
100
AcDbLine
 10
25.0
 20
10.0
 30
0.0
 11
25.0
 21
148.5
 31
0.0
  0
LINE
  5
119
330
59
100
AcDbEntity
  8
1
  6
Continuous
 62
     2
100
AcDbLine
 10
40.0
 20
287.0000000000003
 30
0.0
 11
40.0
 21
277.0000000000003
 31
0.0
  0
LINE
  5
11A
330
59
100
AcDbEntity
  8
1
  6
Continuous
 62
     2
100
AcDbLine
 10
55.0
 20
287.0000000000003
 30
0.0
 11
55.0
 21
277.0000000000003
 31
0.0
  0
LINE
  5
11B
330
59
100
AcDbEntity
  8
1
  6
Continuous
 62
     2
100
AcDbLine
 10
33.0
 20
41.0
 30
0.0
 11
33.0
 21
27.0
 31
0.0
  0
LINE
  5
11C
330
59
100
AcDbEntity
  8
1
  6
Continuous
 62
     7
100
AcDbLine
 10
200.0
 20
27.0
 30
0.0
 11
25.0
 21
27.0
 31
0.0
  0
LINE
  5
11D
330
59
100
AcDbEntity
  8
1
  6
Continuous
 62
     7
100
AcDbLine
 10
25.0
 20
41.0
 30
0.0
 11
200.0
 21
41.0
 31
0.0
  0
LINE
  5
11E
330
59
100
AcDbEntity
  8
1
  6
PHANTOM
 62
     4
100
AcDbLine
 10
0.0
 20
0.0
 30
0.0
 11
210.0000000000001
 21
0.0
 31
0.0
  0
LINE
  5
11F
330
59
100
AcDbEntity
  8
1
  6
PHANTOM
 62
     4
100
AcDbLine
 10
210.0000000000001
 20
0.0
 30
0.0
 11
210.0000000000001
 21
297.0000000000001
 31
0.0
  0
LINE
  5
120
330
59
100
AcDbEntity
  8
1
  6
PHANTOM
 62
     4
100
AcDbLine
 10
210.0000000000001
 20
297.0000000000001
 30
0.0
 11
0.0
 21
297.0000000000001
 31
0.0
  0
LINE
  5
121
330
59
100
AcDbEntity
  8
1
  6
PHANTOM
 62
     4
100
AcDbLine
 10
0.0
 20
297.0000000000001
 30
0.0
 11
0.0
 21
0.0
 31
0.0
  0
LINE
  5
122
330
59
100
AcDbEntity
  8
1
  6
Continuous
 62
     7
100
AcDbLine
 10
25.0
 20
10.0
 30
0.0
 11
105.0
 21
10.0
 31
0.0
  0
LINE
  5
123
330
59
100
AcDbEntity
  8
1
  6
Continuous
 62
     7
100
AcDbLine
 10
200.0
 20
10.0
 30
0.0
 11
200.0
 21
148.5
 31
0.0
  0
LINE
  5
124
330
59
100
AcDbEntity
  8
1
  6
Continuous
 62
     7
100
AcDbLine
 10
200.0
 20
287.0000000000003
 30
0.0
 11
105.0
 21
287.0000000000003
 31
0.0
  0
LINE
  5
125
330
59
100
AcDbEntity
  8
1
  6
Continuous
 62
     2
100
AcDbLine
 10
25.0
 20
18.5
 30
0.0
 11
81.0
 21
18.5
 31
0.0
  0
LINE
  5
126
330
59
100
AcDbEntity
  8
1
  6
Continuous
 62
     2
100
AcDbLine
 10
33.0
 20
27.0
 30
0.0
 11
33.0
 21
10.0
 31
0.0
  0
LINE
  5
127
330
59
100
AcDbEntity
  8
1
  6
Continuous
 62
     7
100
AcDbLine
 10
191.0
 20
24.69999999999999
 30
0.0
 11
191.0
 21
22.30000000000001
 31
0.0
  0
LINE
  5
128
330
59
100
AcDbEntity
  8
1
  6
Continuous
 62
     7
100
AcDbLine
 10
191.0
 20
24.69999999999999
 30
0.0
 11
196.0
 21
25.5
 31
0.0
  0
LINE
  5
129
330
59
100
AcDbEntity
  8
1
  6
Continuous
 62
     7
100
AcDbLine
 10
196.0
 20
25.5
 30
0.0
 11
196.0
 21
21.5
 31
0.0
  0
LINE
  5
12A
330
59
100
AcDbEntity
  8
1
  6
Continuous
 62
     7
100
AcDbLine
 10
196.0
 20
21.5
 30
0.0
 11
191.0
 21
22.30000000000001
 31
0.0
  0
LINE
  5
12B
330
59
100
AcDbEntity
  8
1
  6
DOT_CENTER
 62
     2
100
AcDbLine
 10
184.0
 20
23.5
 30
0.0
 11
197.0
 21
23.5
 31
0.0
  0
LINE
  5
12C
330
59
100
AcDbEntity
  8
1
  6
DOT_CENTER
 62
     2
100
AcDbLine
 10
187.0
 20
26.5
 30
0.0
 11
187.0
 21
20.5
 31
0.0
  0
LINE
  5
12D
330
59
100
AcDbEntity
  8
1
  6
Continuous
 62
     2
100
AcDbLine
 10
81.0
 20
27.0
 30
0.0
 11
81.0
 21
10.0
 31
0.0
  0
CIRCLE
  5
12E
330
59
100
AcDbEntity
  8
1
  6
Continuous
 62
     7
100
AcDbCircle
 10
103.5
 20
12.5
 30
0.0
 40
0.2999999999999972
  0
CIRCLE
  5
12F
330
59
100
AcDbEntity
  8
1
  6
Continuous
 62
     7
100
AcDbCircle
 10
109.5
 20
12.5
 30
0.0
 40
0.2999999999999972
  0
CIRCLE
  5
130
330
59
100
AcDbEntity
  8
1
  6
Continuous
 62
     7
100
AcDbCircle
 10
120.5
 20
12.5
 30
0.0
 40
0.2999999999999972
  0
CIRCLE
  5
131
330
59
100
AcDbEntity
  8
1
  6
Continuous
 62
     7
100
AcDbCircle
 10
126.5
 20
12.5
 30
0.0
 40
0.2999999999999972
  0
CIRCLE
  5
132
330
59
100
AcDbEntity
  8
1
  6
Continuous
 62
     7
100
AcDbCircle
 10
137.5
 20
12.5
 30
0.0
 40
0.3000000000000114
  0
CIRCLE
  5
133
330
59
100
AcDbEntity
  8
1
  6
Continuous
 62
     7
100
AcDbCircle
 10
143.5
 20
12.5
 30
0.0
 40
0.3000000000000114
  0
CIRCLE
  5
134
330
59
100
AcDbEntity
  8
1
  6
Continuous
 62
     7
100
AcDbCircle
 10
160.5
 20
12.5
 30
0.0
 40
0.3000000000000114
  0
CIRCLE
  5
135
330
59
100
AcDbEntity
  8
1
  6
Continuous
 62
     7
100
AcDbCircle
 10
154.5
 20
12.5
 30
0.0
 40
0.3000000000000114
  0
CIRCLE
  5
136
330
59
100
AcDbEntity
  8
1
  6
Continuous
 62
     7
100
AcDbCircle
 10
187.0
 20
23.5
 30
0.0
 40
1.200000000000102
  0
CIRCLE
  5
137
330
59
100
AcDbEntity
  8
1
  6
Continuous
 62
     7
100
AcDbCircle
 10
187.0
 20
23.5
 30
0.0
 40
2.0
  0
CIRCLE
  5
138
330
59
100
AcDbEntity
  8
1
  6
DOT_CENTER
 62
     7
100
AcDbCircle
 10
89.5
 20
16.0
 30
0.0
 40
0.1000000000000227
  0
CIRCLE
  5
139
330
59
100
AcDbEntity
  8
1
  6
DOT_CENTER
 62
     7
100
AcDbCircle
 10
89.5
 20
18.0
 30
0.0
 40
0.1000000000000227
  0
MTEXT
  5
13B
330
59
100
AcDbEntity
  8
1
 62
     7
100
AcDbMText
 10
188.5
 20
15.0
 30
0.0
 40
3.0
 41
0.0
 71
     5
 72
     1
  1
三栄水栓製作所
  7
CONVERTER_11
 73
     1
 44
1.0
  0
MTEXT
  5
13C
330
59
100
AcDbEntity
  8
1
 62
     7
100
AcDbMText
 10
171.5
 20
15.0
 30
0.0
 40
2.5
 41
0.0
 71
     5
 72
     1
  1
株式会社
  7
CONVERTER_11
 73
     1
 44
1.0
  0
MTEXT
  5
13D
330
59
100
AcDbEntity
  8
1
 62
     2
100
AcDbMText
 10
32.5
 20
282.0000000000003
 30
0.0
 40
5.0
 41
0.0
 71
     5
 72
     1
  1
図番
  7
CONVERTER_11
 73
     1
 44
0.45454545454545
  0
MTEXT
  5
13E
330
59
100
AcDbEntity
  8
1
 62
     2
100
AcDbMText
 10
29.0
 20
34.0
 30
0.0
 40
3.5
 41
0.0
 71
     5
 72
     1
  1
備考
  7
CONVERTER_11
 73
     1
 44
0.45454545454545
  0
MTEXT
  5
13F
330
59
100
AcDbEntity
  8
1
 62
     2
100
AcDbMText
 10
29.0
 20
22.75
 30
0.0
 40
3.5
 41
0.0
 71
     5
 72
     1
  1
品名
  7
CONVERTER_11
 73
     1
 44
0.72727272727273
  0
MTEXT
  5
140
330
59
100
AcDbEntity
  8
1
 62
     2
100
AcDbMText
 10
29.0
 20
14.25
 30
0.0
 40
3.5
 41
0.0
 71
     5
 72
     1
  1
品番
  7
CONVERTER_11
 73
     1
 44
0.72727272727273
  0
MTEXT
  5
141
330
59
100
AcDbEntity
  8
1
 62
     2
100
AcDbMText
 10
101.5
 20
25.0
 30
0.0
 40
3.0
 41
0.0
 71
     5
 72
     1
  1
承認
  7
CONVERTER_11
 73
     1
 44
0.59090909090909
  0
MTEXT
  5
142
330
59
100
AcDbEntity
  8
1
 62
     2
100
AcDbMText
 10
175.0
 20
23.5
 30
0.0
 40
3.5
 41
0.0
 71
     5
 72
     1
  1
第三角法
  7
CONVERTER_11
 73
     1
 44
0.54545454545455
  0
MTEXT
  5
143
330
59
100
AcDbEntity
  8
1
 62
     2
100
AcDbMText
 10
118.5
 20
25.0
 30
0.0
 40
3.0
 41
0.0
 71
     5
 72
     1
  1
検図
  7
CONVERTER_11
 73
     1
 44
0.59090909090909
  0
MTEXT
  5
144
330
59
100
AcDbEntity
  8
1
 62
     2
100
AcDbMText
 10
152.5
 20
25.0
 30
0.0
 40
3.0
 41
0.0
 71
     5
 72
     1
  1
設計
  7
CONVERTER_11
 73
     1
 44
0.59090909090909
  0
MTEXT
  5
145
330
59
100
AcDbEntity
  8
1
 62
     2
100
AcDbMText
 10
135.5
 20
25.0
 30
0.0
 40
3.0
 41
0.0
 71
     5
 72
     1
  1
製図
  7
CONVERTER_11
 73
     1
 44
0.59090909090909
  0
MTEXT
  5
146
330
59
100
AcDbEntity
  8
1
 62
     2
100
AcDbMText
 10
89.5
 20
24.0
 30
0.0
 40
3.5
 41
0.0
 71
     5
 72
     1
  1
尺度
  7
CONVERTER_11
 73
     1
 44
0.54545454545455
  0
MTEXT
  5
147
330
59
100
AcDbEntity
  8
1
 62
   250
100
AcDbMText
 10
25.0
 20
5.0
 30
0.0
 40
3.5
 41
0.0
 71
     4
 72
     1
  1
備考欄の文字列 原点位置=4
  7
CONVERTER_11
 73
     1
 44
0.54545454545455
  0
ENDBLK
  5
5B
330
59
100
AcDbEntity
  8
0
100
AcDbBlockEnd
  0
BLOCK
  5
5D
330
5C
100
AcDbEntity
  8
0
100
AcDbBlockBegin
  2
64-7-13-420-M11
 70
     0
 10
103.5932952296898
 20
2829.233715385479
 30
0.0
  3
64-7-13-420-M11
  1

  0
LINE
  5
148
330
5C
100
AcDbEntity
  8
1
  6
Continuous
 62
     7
100
AcDbLine
 10
245.1377281761781
 20
601.1614610364331
 30
0.0
 11
245.2449513205695
 21
596.1614610364331
 31
0.0
  0
LINE
  5
149
330
5C
100
AcDbEntity
  8
1
  6
Continuous
 62
     2
100
AcDbLine
 10
243.9613254351665
 20
601.1614610364331
 30
0.0
 11
244.0825554289415
 21
596.1614610364331
 31
0.0
  0
LINE
  5
14A
330
5C
100
AcDbEntity
  8
1
  6
Continuous
 62
     7
100
AcDbLine
 10
405.1377281761782
 20
601.1614610364331
 30
0.0
 11
405.2449513205695
 21
596.1614610364331
 31
0.0
  0
LINE
  5
14B
330
5C
100
AcDbEntity
  8
1
  6
Continuous
 62
     2
100
AcDbLine
 10
403.9613254351664
 20
601.1614610364331
 30
0.0
 11
404.0825554289414
 21
596.1614610364331
 31
0.0
  0
LINE
  5
14C
330
5C
100
AcDbEntity
  8
1
  6
Continuous
 62
     7
100
AcDbLine
 10
224.7
 20
539.5416638733019
 30
0.0
 11
224.7
 21
537.5416638733019
 31
0.0
  0
LINE
  5
14D
330
5C
100
AcDbEntity
  8
1
  6
PHANTOM
 62
     4
100
AcDbLine
 10
395.0
 20
613.1614610364331
 30
0.0
 11
395.0
 21
187.1649181997245
 31
0.0
  0
LINE
  5
14E
330
5C
100
AcDbEntity
  8
1
  6
Continuous
 62
     7
100
AcDbLine
 10
405.2449513205695
 20
596.1614610364331
 30
0.0
 11
385.9174445710585
 21
596.1614610364331
 31
0.0
  0
LINE
  5
14F
330
5C
100
AcDbEntity
  8
1
  6
Continuous
 62
     7
100
AcDbLine
 10
405.2449513205695
 20
596.1614610364331
 30
0.0
 11
405.3000000000002
 21
594.0527851839609
 31
0.0
  0
LINE
  5
150
330
5C
100
AcDbEntity
  8
1
  6
Continuous
 62
     2
100
AcDbLine
 10
405.3000000000002
 20
594.0527851839609
 30
0.0
 11
404.0825554289414
 21
596.1614610364331
 31
0.0
  0
LINE
  5
151
330
5C
100
AcDbEntity
  8
1
  6
Continuous
 62
     2
100
AcDbLine
 10
385.9174445710585
 20
596.1614610364331
 30
0.0
 11
384.6999999999998
 21
594.0527851839609
 31
0.0
  0
LINE
  5
152
330
5C
100
AcDbEntity
  8
1
  6
Continuous
 62
     2
100
AcDbLine
 10
385.9174445710585
 20
596.1614610364331
 30
0.0
 11
386.0386745648335
 21
601.1614610364331
 31
0.0
  0
LINE
  5
153
330
5C
100
AcDbEntity
  8
1
  6
Continuous
 62
     7
100
AcDbLine
 10
384.6999999999998
 20
594.0527851839609
 30
0.0
 11
384.7550486794306
 21
596.1614610364331
 31
0.0
  0
LINE
  5
154
330
5C
100
AcDbEntity
  8
1
  6
Continuous
 62
     7
100
AcDbLine
 10
385.9174445710585
 20
596.1614610364331
 30
0.0
 11
384.7550486794306
 21
596.1614610364331
 31
0.0
  0
LINE
  5
155
330
5C
100
AcDbEntity
  8
1
  6
Continuous
 62
     7
100
AcDbLine
 10
384.7550486794306
 20
596.1614610364331
 30
0.0
 11
384.8622718238219
 21
601.1614610364331
 31
0.0
  0
LINE
  5
156
330
5C
100
AcDbEntity
  8
1
  6
Continuous
 62
     7
100
AcDbLine
 10
405.3000000000002
 20
594.0527851839609
 30
0.0
 11
405.3000000000002
 21
540.7066256559657
 31
0.0
  0
LINE
  5
157
330
5C
100
AcDbEntity
  8
1
  6
Continuous
 62
     2
100
AcDbLine
 10
404.0825554289414
 20
204.1614610364331
 30
0.0
 11
405.3000000000002
 21
206.2701368889054
 31
0.0
  0
LINE
  5
158
330
5C
100
AcDbEntity
  8
1
  6
Continuous
 62
     2
100
AcDbLine
 10
404.0825554289414
 20
204.1614610364331
 30
0.0
 11
403.7431114463714
 21
190.1614610364331
 31
0.0
  0
LINE
  5
159
330
5C
100
AcDbEntity
  8
1
  6
Continuous
 62
     7
100
AcDbLine
 10
405.3000000000002
 20
206.2701368889054
 30
0.0
 11
405.2449513205695
 21
204.1614610364331
 31
0.0
  0
LINE
  5
15A
330
5C
100
AcDbEntity
  8
1
  6
Continuous
 62
     7
100
AcDbLine
 10
404.9696087605344
 20
191.3217629657327
 30
0.0
 11
403.7448120021525
 21
190.1614610364331
 31
0.0
  0
LINE
  5
15B
330
5C
100
AcDbEntity
  8
1
  6
Continuous
 62
     7
100
AcDbLine
 10
384.7550486794304
 20
204.1614610364331
 30
0.0
 11
405.2449513205695
 21
204.1614610364331
 31
0.0
  0
LINE
  5
15C
330
5C
100
AcDbEntity
  8
1
  6
Continuous
 62
     7
100
AcDbLine
 10
405.2449513205695
 20
204.1614610364331
 30
0.0
 11
404.9696087605344
 21
191.3217629657327
 31
0.0
  0
LINE
  5
15D
330
5C
100
AcDbEntity
  8
1
  6
Continuous
 62
     7
100
AcDbLine
 10
403.7431114463714
 20
190.1614610364331
 30
0.0
 11
403.7448120021525
 21
190.1614610364331
 31
0.0
  0
LINE
  5
15E
330
5C
100
AcDbEntity
  8
1
  6
Continuous
 62
     7
100
AcDbLine
 10
384.6999999999998
 20
206.2701368889054
 30
0.0
 11
384.6999999999998
 21
208.8958318299619
 31
0.0
  0
LINE
  5
15F
330
5C
100
AcDbEntity
  8
1
  6
Continuous
 62
     7
100
AcDbLine
 10
386.2551879978475
 20
190.1614610364331
 30
0.0
 11
386.2568885536285
 21
190.1614610364331
 31
0.0
  0
LINE
  5
160
330
5C
100
AcDbEntity
  8
1
  6
Continuous
 62
     7
100
AcDbLine
 10
386.2568885536285
 20
190.1614610364331
 30
0.0
 11
403.7431114463714
 21
190.1614610364331
 31
0.0
  0
LINE
  5
161
330
5C
100
AcDbEntity
  8
1
  6
Continuous
 62
     7
100
AcDbLine
 10
385.0303912394656
 20
191.3217629657327
 30
0.0
 11
384.7550486794304
 21
204.1614610364331
 31
0.0
  0
LINE
  5
162
330
5C
100
AcDbEntity
  8
1
  6
Continuous
 62
     7
100
AcDbLine
 10
384.7550486794304
 20
204.1614610364331
 30
0.0
 11
385.9174445710585
 21
204.1614610364331
 31
0.0
  0
LINE
  5
163
330
5C
100
AcDbEntity
  8
1
  6
Continuous
 62
     7
100
AcDbLine
 10
386.2551879978475
 20
190.1614610364331
 30
0.0
 11
385.0303912394656
 21
191.3217629657327
 31
0.0
  0
LINE
  5
164
330
5C
100
AcDbEntity
  8
1
  6
Continuous
 62
     7
100
AcDbLine
 10
384.7550486794304
 20
204.1614610364331
 30
0.0
 11
384.6999999999998
 21
206.2701368889054
 31
0.0
  0
LINE
  5
165
330
5C
100
AcDbEntity
  8
1
  6
Continuous
 62
     2
100
AcDbLine
 10
386.2568885536285
 20
190.1614610364331
 30
0.0
 11
385.9174445710585
 21
204.1614610364331
 31
0.0
  0
LINE
  5
166
330
5C
100
AcDbEntity
  8
1
  6
Continuous
 62
     2
100
AcDbLine
 10
384.6999999999998
 20
206.2701368889054
 30
0.0
 11
385.9174445710585
 21
204.1614610364331
 31
0.0
  0
LINE
  5
167
330
5C
100
AcDbEntity
  8
1
  6
Continuous
 62
     7
100
AcDbLine
 10
405.3000000000002
 20
540.7066256559657
 30
0.0
 11
405.3000000000004
 21
224.8992889932531
 31
0.0
  0
LINE
  5
168
330
5C
100
AcDbEntity
  8
1
  6
Continuous
 62
     7
100
AcDbLine
 10
384.6999999999998
 20
539.5416638733019
 30
0.0
 11
384.6999999999998
 21
594.0527851839609
 31
0.0
  0
LINE
  5
169
330
5C
100
AcDbEntity
  8
1
  6
Continuous
 62
     7
100
AcDbLine
 10
385.0303912394656
 20
191.3217629657327
 30
0.0
 11
404.9696087605344
 21
191.3217629657327
 31
0.0
  0
LINE
  5
16A
330
5C
100
AcDbEntity
  8
1
  6
Continuous
 62
     7
100
AcDbLine
 10
405.3000000000002
 20
208.8958318299619
 30
0.0
 11
405.3000000000002
 21
206.2701368889054
 31
0.0
  0
LINE
  5
16B
330
5C
100
AcDbEntity
  8
1
  6
Continuous
 62
     7
100
AcDbLine
 10
384.7000000000001
 20
224.8992889932533
 30
0.0
 11
384.6999999999998
 21
539.5416638733019
 31
0.0
  0
LINE
  5
16C
330
5C
100
AcDbEntity
  8
1
  6
Continuous
 62
     7
100
AcDbLine
 10
224.7
 20
224.8992889932533
 30
0.0
 11
224.7
 21
537.5416638733019
 31
0.0
  0
LINE
  5
16D
330
5C
100
AcDbEntity
  8
1
  6
Continuous
 62
     7
100
AcDbLine
 10
245.3000000000002
 20
208.8958318299619
 30
0.0
 11
245.3000000000002
 21
206.2701368889054
 31
0.0
  0
LINE
  5
16E
330
5C
100
AcDbEntity
  8
1
  6
Continuous
 62
     7
100
AcDbLine
 10
225.0303912394657
 20
191.3217629657327
 30
0.0
 11
244.9696087605344
 21
191.3217629657327
 31
0.0
  0
LINE
  5
16F
330
5C
100
AcDbEntity
  8
1
  6
Continuous
 62
     7
100
AcDbLine
 10
224.7
 20
539.5416638733019
 30
0.0
 11
224.6999999999999
 21
594.0527851839609
 31
0.0
  0
LINE
  5
170
330
5C
100
AcDbEntity
  8
1
  6
Continuous
 62
     7
100
AcDbLine
 10
245.3000000000002
 20
542.7066256559657
 30
0.0
 11
245.3000000000002
 21
224.8992889932533
 31
0.0
  0
LINE
  5
171
330
5C
100
AcDbEntity
  8
1
  6
Continuous
 62
     2
100
AcDbLine
 10
224.6999999999999
 20
206.2701368889054
 30
0.0
 11
225.9174445710585
 21
204.1614610364331
 31
0.0
  0
LINE
  5
172
330
5C
100
AcDbEntity
  8
1
  6
Continuous
 62
     2
100
AcDbLine
 10
226.2568885536286
 20
190.1614610364331
 30
0.0
 11
225.9174445710585
 21
204.1614610364331
 31
0.0
  0
LINE
  5
173
330
5C
100
AcDbEntity
  8
1
  6
Continuous
 62
     7
100
AcDbLine
 10
224.7550486794304
 20
204.1614610364331
 30
0.0
 11
224.6999999999999
 21
206.2701368889054
 31
0.0
  0
LINE
  5
174
330
5C
100
AcDbEntity
  8
1
  6
Continuous
 62
     7
100
AcDbLine
 10
226.2551879978476
 20
190.1614610364331
 30
0.0
 11
225.0303912394657
 21
191.3217629657327
 31
0.0
  0
LINE
  5
175
330
5C
100
AcDbEntity
  8
1
  6
Continuous
 62
     7
100
AcDbLine
 10
224.7550486794304
 20
204.1614610364331
 30
0.0
 11
225.9174445710585
 21
204.1614610364331
 31
0.0
  0
LINE
  5
176
330
5C
100
AcDbEntity
  8
1
  6
Continuous
 62
     7
100
AcDbLine
 10
225.0303912394657
 20
191.3217629657327
 30
0.0
 11
224.7550486794304
 21
204.1614610364331
 31
0.0
  0
LINE
  5
177
330
5C
100
AcDbEntity
  8
1
  6
Continuous
 62
     7
100
AcDbLine
 10
226.2568885536286
 20
190.1614610364331
 30
0.0
 11
243.7431114463714
 21
190.1614610364331
 31
0.0
  0
LINE
  5
178
330
5C
100
AcDbEntity
  8
1
  6
Continuous
 62
     7
100
AcDbLine
 10
226.2551879978476
 20
190.1614610364331
 30
0.0
 11
226.2568885536286
 21
190.1614610364331
 31
0.0
  0
LINE
  5
179
330
5C
100
AcDbEntity
  8
1
  6
Continuous
 62
     7
100
AcDbLine
 10
224.6999999999999
 20
206.2701368889054
 30
0.0
 11
224.6999999999999
 21
208.8958318299619
 31
0.0
  0
LINE
  5
17A
330
5C
100
AcDbEntity
  8
1
  6
Continuous
 62
     7
100
AcDbLine
 10
243.7431114463714
 20
190.1614610364331
 30
0.0
 11
243.7448120021525
 21
190.1614610364331
 31
0.0
  0
LINE
  5
17B
330
5C
100
AcDbEntity
  8
1
  6
Continuous
 62
     7
100
AcDbLine
 10
245.2449513205695
 20
204.1614610364331
 30
0.0
 11
244.9696087605344
 21
191.3217629657327
 31
0.0
  0
LINE
  5
17C
330
5C
100
AcDbEntity
  8
1
  6
Continuous
 62
     7
100
AcDbLine
 10
224.7550486794304
 20
204.1614610364331
 30
0.0
 11
245.2449513205695
 21
204.1614610364331
 31
0.0
  0
LINE
  5
17D
330
5C
100
AcDbEntity
  8
1
  6
Continuous
 62
     7
100
AcDbLine
 10
244.9696087605344
 20
191.3217629657327
 30
0.0
 11
243.7448120021525
 21
190.1614610364331
 31
0.0
  0
LINE
  5
17E
330
5C
100
AcDbEntity
  8
1
  6
Continuous
 62
     7
100
AcDbLine
 10
245.3000000000002
 20
206.2701368889054
 30
0.0
 11
245.2449513205695
 21
204.1614610364331
 31
0.0
  0
LINE
  5
17F
330
5C
100
AcDbEntity
  8
1
  6
Continuous
 62
     2
100
AcDbLine
 10
244.0825554289415
 20
204.1614610364331
 30
0.0
 11
243.7431114463714
 21
190.1614610364331
 31
0.0
  0
LINE
  5
180
330
5C
100
AcDbEntity
  8
1
  6
Continuous
 62
     2
100
AcDbLine
 10
244.0825554289415
 20
204.1614610364331
 30
0.0
 11
245.3000000000002
 21
206.2701368889054
 31
0.0
  0
LINE
  5
181
330
5C
100
AcDbEntity
  8
1
  6
Continuous
 62
     7
100
AcDbLine
 10
245.3000000000002
 20
594.0527851839609
 30
0.0
 11
245.3000000000002
 21
542.7066256559657
 31
0.0
  0
LINE
  5
182
330
5C
100
AcDbEntity
  8
1
  6
Continuous
 62
     7
100
AcDbLine
 10
224.7550486794306
 20
596.1614610364331
 30
0.0
 11
224.8622718238219
 21
601.1614610364331
 31
0.0
  0
LINE
  5
183
330
5C
100
AcDbEntity
  8
1
  6
Continuous
 62
     7
100
AcDbLine
 10
225.9174445710585
 20
596.1614610364331
 30
0.0
 11
224.7550486794306
 21
596.1614610364331
 31
0.0
  0
LINE
  5
184
330
5C
100
AcDbEntity
  8
1
  6
Continuous
 62
     7
100
AcDbLine
 10
224.6999999999999
 20
594.0527851839609
 30
0.0
 11
224.7550486794306
 21
596.1614610364331
 31
0.0
  0
LINE
  5
185
330
5C
100
AcDbEntity
  8
1
  6
Continuous
 62
     2
100
AcDbLine
 10
225.9174445710585
 20
596.1614610364331
 30
0.0
 11
226.0386745648335
 21
601.1614610364331
 31
0.0
  0
LINE
  5
186
330
5C
100
AcDbEntity
  8
1
  6
Continuous
 62
     2
100
AcDbLine
 10
225.9174445710585
 20
596.1614610364331
 30
0.0
 11
224.6999999999999
 21
594.0527851839609
 31
0.0
  0
LINE
  5
187
330
5C
100
AcDbEntity
  8
1
  6
Continuous
 62
     2
100
AcDbLine
 10
245.3000000000002
 20
594.0527851839609
 30
0.0
 11
244.0825554289415
 21
596.1614610364331
 31
0.0
  0
LINE
  5
188
330
5C
100
AcDbEntity
  8
1
  6
Continuous
 62
     7
100
AcDbLine
 10
245.2449513205695
 20
596.1614610364331
 30
0.0
 11
245.3000000000002
 21
594.0527851839609
 31
0.0
  0
LINE
  5
189
330
5C
100
AcDbEntity
  8
1
  6
Continuous
 62
     7
100
AcDbLine
 10
245.2449513205695
 20
596.1614610364331
 30
0.0
 11
225.9174445710585
 21
596.1614610364331
 31
0.0
  0
LINE
  5
18A
330
5C
100
AcDbEntity
  8
1
  6
PHANTOM
 62
     4
100
AcDbLine
 10
235.0
 20
613.1614610364331
 30
0.0
 11
235.0
 21
187.1649181997245
 31
0.0
  0
ENDBLK
  5
5E
330
5C
100
AcDbEntity
  8
0
100
AcDbBlockEnd
  0
BLOCK
  5
60
330
5F
100
AcDbEntity
  8
0
100
AcDbBlockBegin
  2
78-167
 70
     0
 10
277.4056351212969
 20
2072.191566552457
 30
0.0
  3
78-167
  1

  0
LINE
  5
18B
330
5F
100
AcDbEntity
  8
1
  6
Continuous
 62
     7
100
AcDbLine
 10
365.0000000000001
 20
210.8958318299619
 30
0.0
 11
365.0000000000001
 21
208.8958318299619
 31
0.0
  0
LINE
  5
18C
330
5F
100
AcDbEntity
  8
1
  6
Continuous
 62
     7
100
AcDbLine
 10
425.0000000000001
 20
208.8958318299619
 30
0.0
 11
425.0000000000001
 21
210.8958318299619
 31
0.0
  0
LINE
  5
18D
330
5F
100
AcDbEntity
  8
1
  6
Continuous
 62
     7
100
AcDbLine
 10
407.2041684766874
 20
224.8958318299619
 30
0.0
 11
384.1048071289707
 21
224.8958318299619
 31
0.0
  0
LINE
  5
18E
330
5F
100
AcDbEntity
  8
1
  6
Continuous
 62
     7
100
AcDbLine
 10
425.0000000000001
 20
208.8958318299619
 30
0.0
 11
365.0000000000001
 21
208.8958318299619
 31
0.0
  0
LINE
  5
18F
330
5F
100
AcDbEntity
  8
1
  6
Continuous
 62
     7
100
AcDbLine
 10
384.1048071289707
 20
224.8958318299619
 30
0.0
 11
382.7958315233128
 21
224.8958318299619
 31
0.0
  0
LINE
  5
190
330
5F
100
AcDbEntity
  8
1
  6
Continuous
 62
     7
100
AcDbLine
 10
224.1048071289708
 20
224.8958318299619
 30
0.0
 11
222.7958315233128
 21
224.8958318299619
 31
0.0
  0
LINE
  5
191
330
5F
100
AcDbEntity
  8
1
  6
Continuous
 62
     7
100
AcDbLine
 10
265.0
 20
208.8958318299619
 30
0.0
 11
205.0000000000001
 21
208.8958318299619
 31
0.0
  0
LINE
  5
192
330
5F
100
AcDbEntity
  8
1
  6
Continuous
 62
     7
100
AcDbLine
 10
247.2041684766874
 20
224.8958318299619
 30
0.0
 11
224.1048071289708
 21
224.8958318299619
 31
0.0
  0
LINE
  5
193
330
5F
100
AcDbEntity
  8
1
  6
Continuous
 62
     7
100
AcDbLine
 10
265.0
 20
208.8958318299619
 30
0.0
 11
265.0
 21
210.8958318299619
 31
0.0
  0
LINE
  5
194
330
5F
100
AcDbEntity
  8
1
  6
Continuous
 62
     7
100
AcDbLine
 10
205.0000000000001
 20
210.8958318299619
 30
0.0
 11
205.0000000000001
 21
208.8958318299619
 31
0.0
  0
ARC
  5
195
330
5F
100
AcDbEntity
  8
1
  6
Continuous
 62
     7
100
AcDbCircle
 10
235.0
 20
781.5710600752827
 30
0.0
 40
29.99999999999971
100
AcDbArc
 50
25.67899703914962
 51
334.3204197995219
  0
ARC
  5
196
330
5F
100
AcDbEntity
  8
1
  6
Continuous
 62
     7
100
AcDbCircle
 10
382.7958315233128
 20
199.8958318299619
 30
0.0
 40
25.0
100
AcDbArc
 50
90.0
 51
113.556464309101
  0
ARC
  5
197
330
5F
100
AcDbEntity
  8
1
  6
Continuous
 62
     7
100
AcDbCircle
 10
378.0000000000001
 20
210.8958318299619
 30
0.0
 40
13.00000000000011
100
AcDbArc
 50
113.5564643091009
 51
180.0
  0
ARC
  5
198
330
5F
100
AcDbEntity
  8
1
  6
Continuous
 62
     7
100
AcDbCircle
 10
412.0000000000001
 20
210.8958318299619
 30
0.0
 40
13.0
100
AcDbArc
 50
0.0
 51
66.44353569089841
  0
ARC
  5
199
330
5F
100
AcDbEntity
  8
1
  6
Continuous
 62
     7
100
AcDbCircle
 10
407.2041684766874
 20
199.8958318299619
 30
0.0
 40
25.00000000000017
100
AcDbArc
 50
66.44353569089861
 51
90.0
  0
ARC
  5
19A
330
5F
100
AcDbEntity
  8
1
  6
Continuous
 62
     7
100
AcDbCircle
 10
247.2041684766874
 20
199.8958318299619
 30
0.0
 40
25.00000000000017
100
AcDbArc
 50
66.44353569089861
 51
90.0
  0
ARC
  5
19B
330
5F
100
AcDbEntity
  8
1
  6
Continuous
 62
     7
100
AcDbCircle
 10
252.0
 20
210.8958318299619
 30
0.0
 40
13.0
100
AcDbArc
 50
0.0
 51
66.44353569089795
  0
ARC
  5
19C
330
5F
100
AcDbEntity
  8
1
  6
Continuous
 62
     7
100
AcDbCircle
 10
218.0000000000001
 20
210.8958318299619
 30
0.0
 40
12.99999999999996
100
AcDbArc
 50
113.5564643091006
 51
180.0
  0
ARC
  5
19D
330
5F
100
AcDbEntity
  8
1
  6
Continuous
 62
     7
100
AcDbCircle
 10
222.7958315233128
 20
199.8958318299619
 30
0.0
 40
25.0
100
AcDbArc
 50
90.0
 51
113.5564643091009
  0
ENDBLK
  5
61
330
5F
100
AcDbEntity
  8
0
100
AcDbBlockEnd
  0
BLOCK
  5
63
330
62
100
AcDbEntity
  8
0
100
AcDbBlockBegin
  2
V21-2-0A-13-M1
 70
     0
 10
297.2691410709856
 20
2398.0
 30
0.0
  3
V21-2-0A-13-M1
  1

  0
LINE
  5
19E
330
62
100
AcDbEntity
  8
1
  6
Continuous
 62
     7
100
AcDbLine
 10
219.9888930010696
 20
781.5710600752827
 30
0.0
 11
227.4944465005347
 21
794.571060075283
 31
0.0
  0
LINE
  5
19F
330
62
100
AcDbEntity
  8
1
  6
Continuous
 62
     7
100
AcDbLine
 10
259.9999999999998
 20
793.571060075283
 30
0.0
 11
258.5
 21
793.571060075283
 31
0.0
  0
LINE
  5
1A0
330
62
100
AcDbEntity
  8
1
  6
Continuous
 62
     2
100
AcDbLine
 10
260.0
 20
770.3840600752828
 30
0.0
 11
258.5
 21
770.3840600752828
 31
0.0
  0
LINE
  5
1A1
330
62
100
AcDbEntity
  8
1
  6
PHANTOM
 62
     4
100
AcDbLine
 10
234.9999999999998
 20
797.571060075283
 30
0.0
 11
234.9999999999998
 21
765.571060075283
 31
0.0
  0
LINE
  5
1A2
330
62
100
AcDbEntity
  8
1
  6
PHANTOM
 62
     4
100
AcDbLine
 10
267.5
 20
781.571060075283
 30
0.0
 11
216.9888930010696
 21
781.571060075283
 31
0.0
  0
LINE
  5
1A3
330
62
100
AcDbEntity
  8
1
  6
Continuous
 62
     7
100
AcDbLine
 10
257.0918426934462
 20
793.571060075283
 30
0.0
 11
257.0918426934462
 21
769.571060075283
 31
0.0
  0
LINE
  5
1A4
330
62
100
AcDbEntity
  8
1
  6
Continuous
 62
     7
100
AcDbLine
 10
256.5918426934462
 20
794.071060075283
 30
0.0
 11
256.5918426934462
 21
769.071060075283
 31
0.0
  0
LINE
  5
1A5
330
62
100
AcDbEntity
  8
1
  6
Continuous
 62
     7
100
AcDbLine
 10
258.5
 20
770.3840600752828
 30
0.0
 11
258.5
 21
792.7580600752829
 31
0.0
  0
LINE
  5
1A6
330
62
100
AcDbEntity
  8
1
  6
Continuous
 62
     7
100
AcDbLine
 10
258.5
 20
769.571060075283
 30
0.0
 11
260.0
 21
769.571060075283
 31
0.0
  0
LINE
  5
1A7
330
62
100
AcDbEntity
  8
1
  6
Continuous
 62
     7
100
AcDbLine
 10
258.5
 20
770.3840600752828
 30
0.0
 11
258.5
 21
769.571060075283
 31
0.0
  0
LINE
  5
1A8
330
62
100
AcDbEntity
  8
1
  6
Continuous
 62
     7
100
AcDbLine
 10
257.0918426934462
 20
769.571060075283
 30
0.0
 11
258.5
 21
769.571060075283
 31
0.0
  0
LINE
  5
1A9
330
62
100
AcDbEntity
  8
1
  6
Continuous
 62
     2
100
AcDbLine
 10
257.0918426934462
 20
769.571060075283
 30
0.0
 11
258.5
 21
770.3840600752828
 31
0.0
  0
LINE
  5
1AA
330
62
100
AcDbEntity
  8
1
  6
Continuous
 62
     2
100
AcDbLine
 10
258.5
 20
792.7580600752829
 30
0.0
 11
257.0918426934462
 21
793.571060075283
 31
0.0
  0
LINE
  5
1AB
330
62
100
AcDbEntity
  8
1
  6
Continuous
 62
     7
100
AcDbLine
 10
258.5
 20
793.571060075283
 30
0.0
 11
257.0918426934462
 21
793.571060075283
 31
0.0
  0
LINE
  5
1AC
330
62
100
AcDbEntity
  8
1
  6
Continuous
 62
     7
100
AcDbLine
 10
258.5
 20
793.571060075283
 30
0.0
 11
258.5
 21
792.7580600752829
 31
0.0
  0
LINE
  5
1AD
330
62
100
AcDbEntity
  8
1
  6
Continuous
 62
     2
100
AcDbLine
 10
258.5
 20
792.7580600752829
 30
0.0
 11
259.9999999999998
 21
792.7580600752829
 31
0.0
  0
LINE
  5
1AE
330
62
100
AcDbEntity
  8
1
  6
Continuous
 62
     7
100
AcDbLine
 10
234.9999999999998
 20
768.571060075283
 30
0.0
 11
227.4944465005347
 21
768.571060075283
 31
0.0
  0
LINE
  5
1AF
330
62
100
AcDbEntity
  8
1
  6
Continuous
 62
     7
100
AcDbLine
 10
227.4944465005347
 20
768.571060075283
 30
0.0
 11
219.9888930010696
 21
781.5710600752827
 31
0.0
  0
LINE
  5
1B0
330
62
100
AcDbEntity
  8
1
  6
Continuous
 62
     7
100
AcDbLine
 10
227.4944465005347
 20
794.571060075283
 30
0.0
 11
234.9999999999998
 21
794.571060075283
 31
0.0
  0
LINE
  5
1B1
330
62
100
AcDbEntity
  8
1
  6
Continuous
 62
     7
100
AcDbLine
 10
242.5055534994649
 20
768.571060075283
 30
0.0
 11
234.9999999999998
 21
768.571060075283
 31
0.0
  0
LINE
  5
1B2
330
62
100
AcDbEntity
  8
1
  6
Continuous
 62
     7
100
AcDbLine
 10
242.5055534994649
 20
794.571060075283
 30
0.0
 11
242.7942286340597
 21
794.071060075283
 31
0.0
  0
LINE
  5
1B3
330
62
100
AcDbEntity
  8
1
  6
Continuous
 62
     7
100
AcDbLine
 10
234.9999999999998
 20
794.571060075283
 30
0.0
 11
242.5055534994649
 21
794.571060075283
 31
0.0
  0
LINE
  5
1B4
330
62
100
AcDbEntity
  8
1
  6
Continuous
 62
     7
100
AcDbLine
 10
257.0918426934462
 20
793.571060075283
 30
0.0
 11
256.5918426934462
 21
794.071060075283
 31
0.0
  0
LINE
  5
1B5
330
62
100
AcDbEntity
  8
1
  6
Continuous
 62
     7
100
AcDbLine
 10
256.5918426934462
 20
794.071060075283
 30
0.0
 11
234.9999999999998
 21
794.071060075283
 31
0.0
  0
LINE
  5
1B6
330
62
100
AcDbEntity
  8
1
  6
Continuous
 62
     7
100
AcDbLine
 10
257.0918426934462
 20
769.571060075283
 30
0.0
 11
256.5918426934462
 21
769.071060075283
 31
0.0
  0
LINE
  5
1B7
330
62
100
AcDbEntity
  8
1
  6
Continuous
 62
     7
100
AcDbLine
 10
256.5918426934462
 20
769.071060075283
 30
0.0
 11
234.9999999999998
 21
769.0710600752827
 31
0.0
  0
LINE
  5
1B8
330
62
100
AcDbEntity
  8
1
  6
Continuous
 62
     7
100
AcDbLine
 10
242.7942286340597
 20
769.071060075283
 30
0.0
 11
242.5055534994649
 21
768.571060075283
 31
0.0
  0
LINE
  5
1B9
330
62
100
AcDbEntity
  8
1
  6
Continuous
 62
     7
100
AcDbLine
 10
235.5
 20
775.8428404565883
 30
0.0
 11
235.5
 21
787.2992796939777
 31
0.0
  0
ARC
  5
1BA
330
62
100
AcDbEntity
  8
1
  6
Continuous
 62
     7
100
AcDbCircle
 10
234.9999999999998
 20
781.5710600752827
 30
0.0
 40
12.50000000000023
100
AcDbArc
 50
90.0
 51
210.5307023386921
  0
ARC
  5
1BB
330
62
100
AcDbEntity
  8
1
  6
Continuous
 62
     7
100
AcDbCircle
 10
234.9999999999998
 20
781.5710600752827
 30
0.0
 40
12.75000000000022
100
AcDbArc
 50
78.63512303296662
 51
150.1296398799226
  0
ARC
  5
1BC
330
62
100
AcDbEntity
  8
1
  6
Continuous
 62
     7
100
AcDbCircle
 10
234.9999999999998
 20
781.5710600752827
 30
0.0
 40
12.74999999999994
100
AcDbArc
 50
150.1296398799226
 51
270.0
  0
ARC
  5
1BD
330
62
100
AcDbEntity
  8
1
  6
Continuous
 62
     7
100
AcDbCircle
 10
234.9999999999998
 20
781.5710600752827
 30
0.0
 40
12.74999999999977
100
AcDbArc
 50
270.0
 51
281.3648769670322
  0
ARC
  5
1BE
330
62
100
AcDbEntity
  8
1
  6
Continuous
 62
     7
100
AcDbCircle
 10
234.9999999999998
 20
781.5710600752827
 30
0.0
 40
12.50000000000003
100
AcDbArc
 50
210.5307023386921
 51
270.0
  0
ENDBLK
  5
64
330
62
100
AcDbEntity
  8
0
100
AcDbBlockEnd
  0
BLOCK
  5
66
330
65
100
AcDbEntity
  8
0
100
AcDbBlockBegin
  2
V21-2-0A
 70
     0
 10
87.26914107098557
 20
2101.0
 30
0.0
  3
V21-2-0A
  1

  0
LINE
  5
1BF
330
65
100
AcDbEntity
  8
1
  6
Continuous
 62
     7
100
AcDbLine
 10
382.5
 20
628.7781851520597
 30
0.0
 11
382.5
 21
612.7436358472288
 31
0.0
  0
LINE
  5
1C0
330
65
100
AcDbEntity
  8
1
  6
Continuous
 62
     7
100
AcDbLine
 10
404.338
 20
657.1614610364331
 30
0.0
 11
385.6619999999999
 21
657.1614610364331
 31
0.0
  0
LINE
  5
1C1
330
65
100
AcDbEntity
  8
1
  6
Continuous
 62
     7
100
AcDbLine
 10
384.5
 20
658.1614610364331
 30
0.0
 11
384.5
 21
657.1614610364331
 31
0.0
  0
LINE
  5
1C2
330
65
100
AcDbEntity
  8
1
  6
Continuous
 62
     2
100
AcDbLine
 10
404.338
 20
658.1614610364331
 30
0.0
 11
404.338
 21
657.1614610364331
 31
0.0
  0
LINE
  5
1C3
330
65
100
AcDbEntity
  8
1
  6
Continuous
 62
     7
100
AcDbLine
 10
405.5
 20
658.1614610364331
 30
0.0
 11
405.5
 21
657.1614610364331
 31
0.0
  0
LINE
  5
1C4
330
65
100
AcDbEntity
  8
1
  6
Continuous
 62
     7
100
AcDbLine
 10
224.5
 20
658.1614610364331
 30
0.0
 11
224.5
 21
657.1614610364331
 31
0.0
  0
LINE
  5
1C5
330
65
100
AcDbEntity
  8
1
  6
Continuous
 62
     2
100
AcDbLine
 10
244.338
 20
658.1614610364331
 30
0.0
 11
244.338
 21
657.1614610364331
 31
0.0
  0
LINE
  5
1C6
330
65
100
AcDbEntity
  8
1
  6
Continuous
 62
     7
100
AcDbLine
 10
245.5
 20
658.1614610364331
 30
0.0
 11
245.5
 21
657.1614610364331
 31
0.0
  0
LINE
  5
1C7
330
65
100
AcDbEntity
  8
1
  6
Continuous
 62
     7
100
AcDbLine
 10
260.0
 20
648.1614610364331
 30
0.0
 11
258.5
 21
648.1614610364331
 31
0.0
  0
LINE
  5
1C8
330
65
100
AcDbEntity
  8
1
  6
Continuous
 62
     2
100
AcDbLine
 10
260.0
 20
624.9744610364331
 30
0.0
 11
258.5
 21
624.9744610364331
 31
0.0
  0
LINE
  5
1C9
330
65
100
AcDbEntity
  8
1
  6
PHANTOM
 62
     4
100
AcDbLine
 10
395.0
 20
595.1614610364331
 30
0.0
 11
395.0
 21
672.1614610364331
 31
0.0
  0
LINE
  5
1CA
330
65
100
AcDbEntity
  8
1
  6
Continuous
 62
     7
100
AcDbLine
 10
395.0
 20
603.4225680353634
 30
0.0
 11
395.0
 21
608.1614610364331
 31
0.0
  0
LINE
  5
1CB
330
65
100
AcDbEntity
  8
1
  6
Continuous
 62
     7
100
AcDbLine
 10
224.5
 20
655.1488179980381
 30
0.0
 11
224.5
 21
653.6614610364331
 31
0.0
  0
LINE
  5
1CC
330
65
100
AcDbEntity
  8
1
  6
Continuous
 62
     7
100
AcDbLine
 10
245.4775
 20
601.1614610364331
 30
0.0
 11
224.5225
 21
601.1614610364331
 31
0.0
  0
LINE
  5
1CD
330
65
100
AcDbEntity
  8
1
  6
Continuous
 62
     7
100
AcDbLine
 10
247.5
 20
618.6614610364331
 30
0.0
 11
247.5
 21
612.7436358472288
 31
0.0
  0
LINE
  5
1CE
330
65
100
AcDbEntity
  8
1
  6
Continuous
 62
     7
100
AcDbLine
 10
222.5
 20
636.1614610364331
 30
0.0
 11
222.5
 21
612.7436358472288
 31
0.0
  0
LINE
  5
1CF
330
65
100
AcDbEntity
  8
1
  6
Continuous
 62
     7
100
AcDbLine
 10
245.5
 20
655.1488179980381
 30
0.0
 11
245.5
 21
653.6614610364331
 31
0.0
  0
LINE
  5
1D0
330
65
100
AcDbEntity
  8
1
  6
Continuous
 62
     7
100
AcDbLine
 10
250.0111069989303
 20
608.1614610364331
 30
0.0
 11
250.0111069989303
 21
603.4225680353634
 31
0.0
  0
LINE
  5
1D1
330
65
100
AcDbEntity
  8
1
  6
Continuous
 62
     7
100
AcDbLine
 10
258.5
 20
624.1614610364331
 30
0.0
 11
260.0
 21
624.1614610364331
 31
0.0
  0
LINE
  5
1D2
330
65
100
AcDbEntity
  8
1
  6
Continuous
 62
     7
100
AcDbLine
 10
258.5
 20
624.9744610364331
 30
0.0
 11
258.5
 21
624.1614610364331
 31
0.0
  0
LINE
  5
1D3
330
65
100
AcDbEntity
  8
1
  6
Continuous
 62
     7
100
AcDbLine
 10
257.0918426934466
 20
624.1614610364331
 30
0.0
 11
258.5
 21
624.1614610364331
 31
0.0
  0
LINE
  5
1D4
330
65
100
AcDbEntity
  8
1
  6
Continuous
 62
     2
100
AcDbLine
 10
257.0918426934466
 20
624.1614610364331
 30
0.0
 11
258.5
 21
624.9744610364331
 31
0.0
  0
LINE
  5
1D5
330
65
100
AcDbEntity
  8
1
  6
Continuous
 62
     7
100
AcDbLine
 10
224.5
 20
657.1614610364331
 30
0.0
 11
225.662
 21
657.1614610364331
 31
0.0
  0
LINE
  5
1D6
330
65
100
AcDbEntity
  8
1
  6
Continuous
 62
     2
100
AcDbLine
 10
224.5
 20
655.1488179980381
 30
0.0
 11
225.662
 21
657.1614610364331
 31
0.0
  0
LINE
  5
1D7
330
65
100
AcDbEntity
  8
1
  6
Continuous
 62
     2
100
AcDbLine
 10
225.662
 20
657.1614610364331
 30
0.0
 11
225.662
 21
658.1614610364331
 31
0.0
  0
LINE
  5
1D8
330
65
100
AcDbEntity
  8
1
  6
Continuous
 62
     2
100
AcDbLine
 10
244.338
 20
657.1614610364331
 30
0.0
 11
245.5
 21
655.1488179980381
 31
0.0
  0
LINE
  5
1D9
330
65
100
AcDbEntity
  8
1
  6
Continuous
 62
     7
100
AcDbLine
 10
245.5
 20
657.1614610364331
 30
0.0
 11
245.5
 21
655.1488179980381
 31
0.0
  0
LINE
  5
1DA
330
65
100
AcDbEntity
  8
1
  6
Continuous
 62
     7
100
AcDbLine
 10
244.338
 20
657.1614610364331
 30
0.0
 11
245.5
 21
657.1614610364331
 31
0.0
  0
LINE
  5
1DB
330
65
100
AcDbEntity
  8
1
  6
Continuous
 62
     2
100
AcDbLine
 10
258.5
 20
647.348461036433
 30
0.0
 11
257.0918426934466
 21
648.1614610364331
 31
0.0
  0
LINE
  5
1DC
330
65
100
AcDbEntity
  8
1
  6
Continuous
 62
     7
100
AcDbLine
 10
258.5
 20
648.1614610364331
 30
0.0
 11
257.0918426934466
 21
648.1614610364331
 31
0.0
  0
LINE
  5
1DD
330
65
100
AcDbEntity
  8
1
  6
Continuous
 62
     7
100
AcDbLine
 10
258.5
 20
648.1614610364331
 30
0.0
 11
258.5
 21
647.348461036433
 31
0.0
  0
LINE
  5
1DE
330
65
100
AcDbEntity
  8
1
  6
Continuous
 62
     2
100
AcDbLine
 10
258.5
 20
647.348461036433
 30
0.0
 11
260.0
 21
647.348461036433
 31
0.0
  0
LINE
  5
1DF
330
65
100
AcDbEntity
  8
1
  6
Continuous
 62
     7
100
AcDbLine
 10
224.5
 20
657.1614610364331
 30
0.0
 11
224.5
 21
655.1488179980381
 31
0.0
  0
LINE
  5
1E0
330
65
100
AcDbEntity
  8
1
  6
Continuous
 62
     7
100
AcDbLine
 10
245.4775
 20
601.1614610364331
 30
0.0
 11
247.75
 21
601.1614610364331
 31
0.0
  0
LINE
  5
1E1
330
65
100
AcDbEntity
  8
1
  6
Continuous
 62
     7
100
AcDbLine
 10
250.0111069989303
 20
603.4225680353634
 30
0.0
 11
247.75
 21
601.1614610364331
 31
0.0
  0
LINE
  5
1E2
330
65
100
AcDbEntity
  8
1
  6
Continuous
 62
     7
100
AcDbLine
 10
247.75
 20
601.1614610364331
 30
0.0
 11
245.4775
 21
601.1614610364331
 31
0.0
  0
LINE
  5
1E3
330
65
100
AcDbEntity
  8
1
  6
Continuous
 62
     7
100
AcDbLine
 10
222.25
 20
601.1614610364331
 30
0.0
 11
219.9888930010698
 21
603.4225680353634
 31
0.0
  0
LINE
  5
1E4
330
65
100
AcDbEntity
  8
1
  6
Continuous
 62
     7
100
AcDbLine
 10
222.25
 20
601.1614610364331
 30
0.0
 11
224.5225
 21
601.1614610364331
 31
0.0
  0
LINE
  5
1E5
330
65
100
AcDbEntity
  8
1
  6
Continuous
 62
     7
100
AcDbLine
 10
250.0111069989303
 20
608.1614610364331
 30
0.0
 11
248.9644660940674
 21
609.208101941296
 31
0.0
  0
LINE
  5
1E6
330
65
100
AcDbEntity
  8
1
  6
Continuous
 62
     7
100
AcDbLine
 10
257.0918426934466
 20
648.1614610364331
 30
0.0
 11
256.5918426934466
 21
648.6614610364331
 31
0.0
  0
LINE
  5
1E7
330
65
100
AcDbEntity
  8
1
  6
Continuous
 62
     7
100
AcDbLine
 10
256.5918426934466
 20
648.6614610364331
 30
0.0
 11
250.5
 21
648.6614610364331
 31
0.0
  0
LINE
  5
1E8
330
65
100
AcDbEntity
  8
1
  6
Continuous
 62
     7
100
AcDbLine
 10
257.0918426934466
 20
624.1614610364331
 30
0.0
 11
256.5918426934466
 21
623.6614610364331
 31
0.0
  0
LINE
  5
1E9
330
65
100
AcDbEntity
  8
1
  6
Continuous
 62
     7
100
AcDbLine
 10
256.5918426934466
 20
623.6614610364331
 30
0.0
 11
252.5
 21
623.6614610364331
 31
0.0
  0
LINE
  5
1EA
330
65
100
AcDbEntity
  8
1
  6
Continuous
 62
     7
100
AcDbLine
 10
219.9888930010698
 20
603.4225680353634
 30
0.0
 11
219.9888930010698
 21
608.1614610364331
 31
0.0
  0
LINE
  5
1EB
330
65
100
AcDbEntity
  8
1
  6
Continuous
 62
     7
100
AcDbLine
 10
221.0355339059327
 20
609.208101941296
 30
0.0
 11
219.9888930010698
 21
608.1614610364331
 31
0.0
  0
LINE
  5
1EC
330
65
100
AcDbEntity
  8
1
  6
Continuous
 62
     7
100
AcDbLine
 10
219.9888930010698
 20
603.4225680353634
 30
0.0
 11
219.9888930010698
 21
608.1614610364331
 31
0.0
  0
LINE
  5
1ED
330
65
100
AcDbEntity
  8
1
  6
PHANTOM
 62
     4
100
AcDbLine
 10
267.5
 20
636.1614610364331
 30
0.0
 11
219.5
 21
636.1614610364331
 31
0.0
  0
LINE
  5
1EE
330
65
100
AcDbEntity
  8
1
  6
PHANTOM
 62
     4
100
AcDbLine
 10
235.0
 20
669.1614610364331
 30
0.0
 11
235.0
 21
598.1614610364331
 31
0.0
  0
LINE
  5
1EF
330
65
100
AcDbEntity
  8
1
  6
Continuous
 62
     7
100
AcDbLine
 10
244.338
 20
657.1614610364331
 30
0.0
 11
225.662
 21
657.1614610364331
 31
0.0
  0
LINE
  5
1F0
330
65
100
AcDbEntity
  8
1
  6
Continuous
 62
     7
100
AcDbLine
 10
258.5
 20
647.348461036433
 30
0.0
 11
258.5
 21
624.9744610364331
 31
0.0
  0
LINE
  5
1F1
330
65
100
AcDbEntity
  8
1
  6
Continuous
 62
     7
100
AcDbLine
 10
256.5918426934466
 20
648.6614610364331
 30
0.0
 11
256.5918426934466
 21
623.6614610364331
 31
0.0
  0
LINE
  5
1F2
330
65
100
AcDbEntity
  8
1
  6
Continuous
 62
     7
100
AcDbLine
 10
242.505553499465
 20
603.4225680353634
 30
0.0
 11
242.505553499465
 21
608.1614610364331
 31
0.0
  0
LINE
  5
1F3
330
65
100
AcDbEntity
  8
1
  6
Continuous
 62
     7
100
AcDbLine
 10
227.4944465005349
 20
603.4225680353634
 30
0.0
 11
227.4944465005349
 21
608.1614610364331
 31
0.0
  0
LINE
  5
1F4
330
65
100
AcDbEntity
  8
1
  6
Continuous
 62
     7
100
AcDbLine
 10
382.25
 20
601.1614610364331
 30
0.0
 11
384.5224999999999
 21
601.1614610364331
 31
0.0
  0
LINE
  5
1F5
330
65
100
AcDbEntity
  8
1
  6
Continuous
 62
     7
100
AcDbLine
 10
382.25
 20
601.1614610364331
 30
0.0
 11
382.0
 21
601.4114610364331
 31
0.0
  0
LINE
  5
1F6
330
65
100
AcDbEntity
  8
1
  6
Continuous
 62
     7
100
AcDbLine
 10
407.75
 20
601.1614610364331
 30
0.0
 11
405.4775
 21
601.1614610364331
 31
0.0
  0
LINE
  5
1F7
330
65
100
AcDbEntity
  8
1
  6
Continuous
 62
     7
100
AcDbLine
 10
405.4775
 20
601.1614610364331
 30
0.0
 11
407.75
 21
601.1614610364331
 31
0.0
  0
LINE
  5
1F8
330
65
100
AcDbEntity
  8
1
  6
Continuous
 62
     7
100
AcDbLine
 10
384.5
 20
657.1614610364331
 30
0.0
 11
384.5
 21
655.1488179980381
 31
0.0
  0
LINE
  5
1F9
330
65
100
AcDbEntity
  8
1
  6
Continuous
 62
     7
100
AcDbLine
 10
404.338
 20
657.1614610364331
 30
0.0
 11
405.5
 21
657.1614610364331
 31
0.0
  0
LINE
  5
1FA
330
65
100
AcDbEntity
  8
1
  6
Continuous
 62
     7
100
AcDbLine
 10
405.5
 20
657.1614610364331
 30
0.0
 11
405.5
 21
655.1488179980381
 31
0.0
  0
LINE
  5
1FB
330
65
100
AcDbEntity
  8
1
  6
Continuous
 62
     2
100
AcDbLine
 10
404.338
 20
657.1614610364331
 30
0.0
 11
405.5
 21
655.1488179980381
 31
0.0
  0
LINE
  5
1FC
330
65
100
AcDbEntity
  8
1
  6
Continuous
 62
     2
100
AcDbLine
 10
384.5
 20
655.1488179980381
 30
0.0
 11
385.6619999999999
 21
657.1614610364331
 31
0.0
  0
LINE
  5
1FD
330
65
100
AcDbEntity
  8
1
  6
Continuous
 62
     7
100
AcDbLine
 10
384.5
 20
657.1614610364331
 30
0.0
 11
385.6619999999999
 21
657.1614610364331
 31
0.0
  0
LINE
  5
1FE
330
65
100
AcDbEntity
  8
1
  6
Continuous
 62
     2
100
AcDbLine
 10
385.6619999999999
 20
657.1614610364331
 30
0.0
 11
385.6619999999999
 21
658.1614610364331
 31
0.0
  0
LINE
  5
1FF
330
65
100
AcDbEntity
  8
1
  6
Continuous
 62
     7
100
AcDbLine
 10
405.5
 20
655.1488179980381
 30
0.0
 11
405.5
 21
653.6614610364331
 31
0.0
  0
LINE
  5
200
330
65
100
AcDbEntity
  8
1
  6
Continuous
 62
     7
100
AcDbLine
 10
405.4775
 20
601.1614610364331
 30
0.0
 11
384.5224999999999
 21
601.1614610364331
 31
0.0
  0
LINE
  5
201
330
65
100
AcDbEntity
  8
1
  6
Continuous
 62
     7
100
AcDbLine
 10
384.5
 20
655.1488179980381
 30
0.0
 11
384.5
 21
653.6614610364331
 31
0.0
  0
LINE
  5
202
330
65
100
AcDbEntity
  8
1
  6
Continuous
 62
     7
100
AcDbLine
 10
407.5
 20
612.7436358472288
 30
0.0
 11
407.5
 21
628.7781851520599
 31
0.0
  0
LINE
  5
203
330
65
100
AcDbEntity
  8
1
  6
Continuous
 62
     7
100
AcDbLine
 10
408.0
 20
610.5641863754586
 30
0.0
 11
408.0
 21
601.4114610364331
 31
0.0
  0
LINE
  5
204
330
65
100
AcDbEntity
  8
1
  6
Continuous
 62
     7
100
AcDbLine
 10
408.0
 20
601.4114610364331
 30
0.0
 11
407.75
 21
601.1614610364331
 31
0.0
  0
LINE
  5
205
330
65
100
AcDbEntity
  8
1
  6
Continuous
 62
     7
100
AcDbLine
 10
382.0
 20
610.5641863754586
 30
0.0
 11
382.0
 21
603.4225680353634
 31
0.0
  0
LINE
  5
206
330
65
100
AcDbEntity
  8
1
  6
Continuous
 62
     7
100
AcDbLine
 10
382.0
 20
603.4225680353634
 30
0.0
 11
382.0
 21
601.4114610364331
 31
0.0
  0
LINE
  5
207
330
65
100
AcDbEntity
  8
1
  6
PHANTOM
 62
     4
100
AcDbLine
 10
410.5
 20
636.1614610364331
 30
0.0
 11
379.5
 21
636.1614610364331
 31
0.0
  0
ARC
  5
208
330
65
100
AcDbEntity
  8
1
  6
Continuous
 62
     7
100
AcDbCircle
 10
427.5
 20
636.1614610364331
 30
0.0
 40
44.99999999999997
100
AcDbArc
 50
166.9603964966862
 51
169.5088832575746
  0
ARC
  5
209
330
65
100
AcDbEntity
  8
1
  6
Continuous
 62
     7
100
AcDbCircle
 10
267.5
 20
636.1614610364331
 30
0.0
 40
44.99999999999997
100
AcDbArc
 50
166.9603964966862
 51
180.0
  0
ARC
  5
20A
330
65
100
AcDbEntity
  8
1
  6
Continuous
 62
     7
100
AcDbCircle
 10
191.9374999999996
 20
653.6614610364331
 30
0.0
 40
32.56250000000041
100
AcDbArc
 50
346.960396496686
 51
0.0
  0
ARC
  5
20B
330
65
100
AcDbEntity
  8
1
  6
Continuous
 62
     7
100
AcDbCircle
 10
351.9374999999996
 20
653.6614610364331
 30
0.0
 40
32.56250000000041
100
AcDbArc
 50
346.960396496686
 51
0.0
  0
ARC
  5
20C
330
65
100
AcDbEntity
  8
1
  6
Continuous
 62
     7
100
AcDbCircle
 10
362.5
 20
636.1614610364331
 30
0.0
 40
45.00000000000019
100
AcDbArc
 50
10.49111674242511
 51
13.03960350331371
  0
ARC
  5
20D
330
65
100
AcDbEntity
  8
1
  6
Continuous
 62
     7
100
AcDbCircle
 10
438.0625000000005
 20
653.6614610364331
 30
0.0
 40
32.56250000000051
100
AcDbArc
 50
180.0
 51
193.0396035033141
  0
SPLINE
  5
20E
330
65
100
AcDbEntity
  8
1
  6
Continuous
 62
     7
100
AcDbSpline
210
0.0
220
0.0
230
1.0
 70
     8
 71
     3
 72
    33
 73
    29
 74
    27
 42
0.000000001
 43
0.0000000001
 44
0.00000001
 40
0.0
 40
0.0
 40
0.0
 40
0.0
 40
0.413356897987592
 40
0.8267148958295449
 40
1.047477426098246
 40
1.268240269860794
 40
1.504227365470821
 40
1.740225678003743
 40
2.001195134575751
 40
2.262139226749313
 40
2.573023660009732
 40
2.884147970269543
 40
3.395079508021843
 40
3.905704149328272
 40
4.367715773750237
 40
4.829727398172265
 40
5.340352039478614
 40
5.851283577230968
 40
6.162407887490827
 40
6.473292320751242
 40
6.734236412924815
 40
6.995205869496759
 40
7.231204182029748
 40
7.467191277639706
 40
7.68795412140221
 40
7.908716651670868
 40
8.3220746495128
 40
8.735431547500493
 40
8.735431547500493
 40
8.735431547500493
 40
8.735431547500493
 10
250.0111069989303
 20
603.4225680353634
 30
0.0
 10
249.9128567978655
 20
603.3259515822735
 30
0.0
 10
249.7163561243777
 20
603.1327184292657
 30
0.0
 10
249.4573022604156
 20
602.8984414708501
 30
0.0
 10
249.2406194537486
 20
602.713348393775
 30
0.0
 10
249.0654844567803
 20
602.5707265139083
 30
0.0
 10
248.882687768391
 20
602.4295821118691
 30
0.0
 10
248.6849114853449
 20
602.2860737164389
 30
0.0
 10
248.4753954402507
 20
602.1447908270809
 30
0.0
 10
248.2390970301718
 20
601.998960023678
 30
0.0
 10
247.9812264786435
 20
601.8567379135235
 30
0.0
 10
247.6397606951765
 20
601.6949116179985
 30
0.0
 10
247.2215538895764
 20
601.5417475496617
 30
0.0
 10
246.7369697217424
 20
601.4344528903524
 30
0.0
 10
246.2583302491977
 20
601.4011371060894
 30
0.0
 10
245.779690776653
 20
601.4344528903528
 30
0.0
 10
245.2951066088189
 20
601.5417475496616
 30
0.0
 10
244.8768998032188
 20
601.6949116179983
 30
0.0
 10
244.5354340197518
 20
601.8567379135237
 30
0.0
 10
244.2775634682233
 20
601.9989600236781
 30
0.0
 10
244.0412650581447
 20
602.1447908270811
 30
0.0
 10
243.8317490130504
 20
602.2860737164388
 30
0.0
 10
243.6339727300044
 20
602.4295821118692
 30
0.0
 10
243.451176041615
 20
602.5707265139081
 30
0.0
 10
243.2760410446466
 20
602.7133483937753
 30
0.0
 10
243.0593582379801
 20
602.8984414708498
 30
0.0
 10
242.8003043740177
 20
603.1327184292659
 30
0.0
 10
242.6038037005298
 20
603.3259515822735
 30
0.0
 10
242.505553499465
 20
603.4225680353634
 30
0.0
 11
250.0111069989303
 21
603.4225680353634
 31
0.0
 11
249.714367410646
 21
603.1348015604488
 31
0.0
 11
249.4080132327944
 21
602.8572912856307
 31
0.0
 11
249.2400640631133
 21
602.7140112406657
 31
0.0
 11
249.0688463970399
 21
602.5746529107644
 31
0.0
 11
248.8819872179533
 21
602.4305225649022
 31
0.0
 11
248.6909094078025
 21
602.2920145358981
 31
0.0
 11
248.4744356069588
 21
602.1462608019799
 31
0.0
 11
248.2522770724477
 21
602.0093761610319
 31
0.0
 11
247.9798447803899
 21
601.859610419621
 31
0.0
 11
247.6985207680153
 21
601.7267377861656
 31
0.0
 11
247.2181801058361
 21
601.5526002394217
 31
0.0
 11
246.71921608377
 21
601.4440994112992
 31
0.0
 11
246.2583302491977
 21
601.4118660559352
 31
0.0
 11
245.7974444146253
 21
601.4440994112994
 31
0.0
 11
245.2984803925593
 21
601.5526002394217
 31
0.0
 11
244.81813973038
 21
601.7267377861656
 31
0.0
 11
244.5368157180054
 21
601.8596104196212
 31
0.0
 11
244.2643834259476
 21
602.0093761610319
 31
0.0
 11
244.0422248914365
 21
602.14626080198
 31
0.0
 11
243.8257510905928
 21
602.2920145358981
 31
0.0
 11
243.634673280442
 21
602.4305225649023
 31
0.0
 11
243.4478141013554
 21
602.5746529107644
 31
0.0
 11
243.276596435282
 21
602.7140112406657
 31
0.0
 11
243.108647265601
 21
602.8572912856307
 31
0.0
 11
242.8022930877494
 21
603.1348015604488
 31
0.0
 11
242.505553499465
 21
603.4225680353634
 31
0.0
  0
SPLINE
  5
20F
330
65
100
AcDbEntity
  8
1
  6
Continuous
 62
     7
100
AcDbSpline
210
0.0
220
0.0
230
1.0
 70
     8
 71
     3
 72
    33
 73
    29
 74
    27
 42
0.000000001
 43
0.0000000001
 44
0.00000001
 40
0.0
 40
0.0
 40
0.0
 40
0.0
 40
0.6660942065947185
 40
1.332190221276376
 40
1.699632942691271
 40
2.067077051446407
 40
2.470589211701776
 40
2.874107005745377
 40
3.334983197925943
 40
3.795855498283272
 40
4.367402400501774
 40
4.939051288057223
 40
5.929102488371941
 40
6.919199819071036
 40
7.84154605068162
 40
8.763892282292176
 40
9.753989612991383
 40
10.7440408133061
 40
11.31568970086155
 40
11.88723660308002
 40
12.34810890343727
 40
12.80898509561776
 40
13.21250288966149
 40
13.61601504991688
 40
13.9834591586719
 40
14.35090188008679
 40
15.0169978947685
 40
15.68309210136332
 40
15.68309210136332
 40
15.68309210136332
 40
15.68309210136332
 10
242.505553499465
 20
603.4225680353634
 30
0.0
 10
242.3062772213358
 20
603.3246301218691
 30
0.0
 10
241.9077241177443
 20
603.1287540422462
 30
0.0
 10
241.3912771874691
 20
602.8955585712758
 30
0.0
 10
240.9617818052107
 20
602.7121797224186
 30
0.0
 10
240.6102905014806
 20
602.5691267732873
 30
0.0
 10
240.2450146278411
 20
602.428205285469
 30
0.0
 10
239.847660698375
 20
602.2841370442928
 30
0.0
 10
239.4289664747787
 20
602.1431196214808
 30
0.0
 10
238.9532297855195
 20
601.9964952744865
 30
0.0
 10
238.4375634249624
 20
601.8546965823874
 30
0.0
 10
237.7454217211178
 20
601.6910633862454
 30
0.0
 10
236.9078060179001
 20
601.5389877707366
 30
0.0
 10
235.9451308997389
 20
601.4340460247074
 30
0.0
 10
235.0000000000001
 20
601.4006982585164
 30
0.0
 10
234.054869100261
 20
601.4340460247073
 30
0.0
 10
233.0921939820998
 20
601.5389877707368
 30
0.0
 10
232.2545782788823
 20
601.6910633862453
 30
0.0
 10
231.5624365750375
 20
601.8546965823873
 30
0.0
 10
231.0467702144805
 20
601.9964952744865
 30
0.0
 10
230.5710335252214
 20
602.1431196214807
 30
0.0
 10
230.152339301625
 20
602.2841370442927
 30
0.0
 10
229.754985372159
 20
602.4282052854693
 30
0.0
 10
229.3897094985194
 20
602.5691267732874
 30
0.0
 10
229.0382181947892
 20
602.7121797224183
 30
0.0
 10
228.6087228125309
 20
602.8955585712756
 30
0.0
 10
228.0922758822556
 20
603.1287540422466
 30
0.0
 10
227.6937227786642
 20
603.324630121869
 30
0.0
 10
227.4944465005349
 20
603.4225680353634
 30
0.0
 11
242.505553499465
 21
603.4225680353634
 31
0.0
 11
241.9061638049021
 21
603.1320280424843
 31
0.0
 11
241.2993659671934
 21
602.8572912856307
 31
0.0
 11
240.9613794931431
 21
602.7131410271286
 31
0.0
 11
240.6210322956844
 21
602.5746529107644
 31
0.0
 11
240.244535901991
 21
602.4294891096249
 31
0.0
 11
239.8651583172096
 21
602.2920145358983
 31
0.0
 11
239.4283546707821
 21
602.145013042118
 31
0.0
 11
238.9878936464999
 21
602.009376161032
 31
0.0
 11
238.4367445558074
 21
601.8580469122023
 31
0.0
 11
237.8803810376353
 21
601.7267377861657
 31
0.0
 11
236.9061251256323
 21
601.5505935325896
 31
0.0
 11
235.9217716691444
 21
601.4440994112994
 31
0.0
 11
235.0
 21
601.4115485015209
 31
0.0
 11
234.0782283308556
 21
601.4440994112994
 31
0.0
 11
233.0938748743676
 21
601.5505935325896
 31
0.0
 11
232.1196189623647
 21
601.7267377861657
 31
0.0
 11
231.5632554441925
 21
601.8580469122023
 31
0.0
 11
231.0121063535
 21
602.0093761610319
 31
0.0
 11
230.5716453292179
 21
602.1450130421179
 31
0.0
 11
230.1348416827905
 21
602.2920145358983
 31
0.0
 11
229.755464098009
 21
602.4294891096251
 31
0.0
 11
229.3789677043156
 21
602.5746529107645
 31
0.0
 11
229.0386205068569
 21
602.7131410271285
 31
0.0
 11
228.7006340328066
 21
602.8572912856307
 31
0.0
 11
228.093836195098
 21
603.1320280424843
 31
0.0
 11
227.4944465005349
 21
603.4225680353634
 31
0.0
  0
SPLINE
  5
210
330
65
100
AcDbEntity
  8
1
  6
Continuous
 62
     7
100
AcDbSpline
210
0.0
220
0.0
230
1.0
 70
     8
 71
     3
 72
    33
 73
    29
 74
    27
 42
0.000000001
 43
0.0000000001
 44
0.00000001
 40
0.0
 40
0.0
 40
0.0
 40
0.0
 40
0.4133568979875104
 40
0.8267148958294213
 40
1.047477426098079
 40
1.268240269860649
 40
1.504227365470699
 40
1.740225678003666
 40
2.001195134575721
 40
2.262139226749283
 40
2.573023660009727
 40
2.884147970269487
 40
3.395079508021787
 40
3.905704149328133
 40
4.367715773750125
 40
4.829727398172182
 40
5.340352039478642
 40
5.851283577230943
 40
6.162407887490724
 40
6.47329232075109
 40
6.734236412924735
 40
6.995205869496679
 40
7.231204182029645
 40
7.467191277639603
 40
7.687954121402173
 40
7.908716651670852
 40
8.322074649512848
 40
8.735431547500358
 40
8.735431547500358
 40
8.735431547500358
 40
8.735431547500358
 10
219.9888930010698
 20
603.4225680353634
 30
0.0
 10
220.0871432021345
 20
603.3259515822734
 30
0.0
 10
220.2836438756224
 20
603.1327184292659
 30
0.0
 10
220.5426977395845
 20
602.8984414708498
 30
0.0
 10
220.7593805462512
 20
602.7133483937753
 30
0.0
 10
220.9345155432197
 20
602.5707265139083
 30
0.0
 10
221.1173122316089
 20
602.4295821118689
 30
0.0
 10
221.3150885146552
 20
602.2860737164388
 30
0.0
 10
221.5246045597493
 20
602.1447908270808
 30
0.0
 10
221.7609029698282
 20
601.9989600236783
 30
0.0
 10
222.0187735213565
 20
601.8567379135235
 30
0.0
 10
222.3602393048236
 20
601.6949116179985
 30
0.0
 10
222.7784461104236
 20
601.5417475496619
 30
0.0
 10
223.2630302782576
 20
601.4344528903525
 30
0.0
 10
223.7416697508023
 20
601.4011371060894
 30
0.0
 10
224.2203092233471
 20
601.4344528903529
 30
0.0
 10
224.7048933911811
 20
601.5417475496617
 30
0.0
 10
225.1231001967813
 20
601.6949116179983
 30
0.0
 10
225.4645659802482
 20
601.8567379135237
 30
0.0
 10
225.7224365317766
 20
601.9989600236781
 30
0.0
 10
225.9587349418553
 20
602.144790827081
 30
0.0
 10
226.1682509869497
 20
602.2860737164389
 30
0.0
 10
226.3660272699955
 20
602.4295821118691
 30
0.0
 10
226.548823958385
 20
602.5707265139084
 30
0.0
 10
226.7239589553533
 20
602.7133483937752
 30
0.0
 10
226.9406417620201
 20
602.8984414708497
 30
0.0
 10
227.1996956259823
 20
603.1327184292657
 30
0.0
 10
227.3961962994702
 20
603.3259515822735
 30
0.0
 10
227.4944465005349
 20
603.4225680353634
 30
0.0
 11
219.9888930010698
 21
603.4225680353634
 31
0.0
 11
220.285632589354
 21
603.1348015604488
 31
0.0
 11
220.5919867672055
 21
602.8572912856307
 31
0.0
 11
220.7599359368866
 21
602.7140112406657
 31
0.0
 11
220.93115360296
 21
602.5746529107644
 31
0.0
 11
221.1180127820466
 21
602.4305225649022
 31
0.0
 11
221.3090905921975
 21
602.2920145358981
 31
0.0
 11
221.5255643930412
 21
602.1462608019799
 31
0.0
 11
221.7477229275524
 21
602.0093761610319
 31
0.0
 11
222.0201552196102
 21
601.859610419621
 31
0.0
 11
222.3014792319847
 21
601.7267377861656
 31
0.0
 11
222.7818198941639
 21
601.5526002394217
 31
0.0
 11
223.2807839162299
 21
601.4440994112992
 31
0.0
 11
223.7416697508023
 21
601.4118660559352
 31
0.0
 11
224.2025555853747
 21
601.4440994112994
 31
0.0
 11
224.7015196074408
 21
601.5526002394217
 31
0.0
 11
225.1818602696201
 21
601.7267377861656
 31
0.0
 11
225.4631842819946
 21
601.8596104196212
 31
0.0
 11
225.7356165740523
 21
602.0093761610319
 31
0.0
 11
225.9577751085635
 21
602.14626080198
 31
0.0
 11
226.1742489094072
 21
602.2920145358981
 31
0.0
 11
226.365326719558
 21
602.4305225649023
 31
0.0
 11
226.5521858986446
 21
602.5746529107644
 31
0.0
 11
226.723403564718
 21
602.7140112406657
 31
0.0
 11
226.8913527343991
 21
602.8572912856307
 31
0.0
 11
227.1977069122507
 21
603.1348015604488
 31
0.0
 11
227.4944465005349
 21
603.4225680353634
 31
0.0
  0
SPLINE
  5
211
330
65
100
AcDbEntity
  8
1
  6
Continuous
 62
     7
100
AcDbSpline
210
0.0
220
0.0
230
1.0
 70
     8
 71
     3
 72
    33
 73
    29
 74
    27
 42
0.000000001
 43
0.0000000001
 44
0.00000001
 40
0.0
 40
0.0
 40
0.0
 40
0.0
 40
0.413356897987592
 40
0.8267148958293924
 40
1.047477426097946
 40
1.268240269860637
 40
1.504227365470526
 40
1.740225678003648
 40
2.001195134575592
 40
2.262139226749214
 40
2.573023660009524
 40
2.884147970269383
 40
3.395079508021722
 40
3.905704149328102
 40
4.367715773750074
 40
4.829727398172095
 40
5.340352039478421
 40
5.851283577230852
 40
6.162407887490711
 40
6.473292320751071
 40
6.734236412924644
 40
6.995205869496651
 40
7.231204182029639
 40
7.467191277639667
 40
7.687954121402099
 40
7.908716651670757
 40
8.322074649512535
 40
8.735431547500228
 40
8.735431547500228
 40
8.735431547500228
 40
8.735431547500228
 10
250.0111069989303
 20
608.1614610364331
 30
0.0
 10
249.9128567978655
 20
608.258077489523
 30
0.0
 10
249.7163561243777
 20
608.4513106425306
 30
0.0
 10
249.4573022604155
 20
608.685587600947
 30
0.0
 10
249.2406194537485
 20
608.8706806780208
 30
0.0
 10
249.0654844567804
 20
609.0133025578881
 30
0.0
 10
248.8826877683908
 20
609.1544469599271
 30
0.0
 10
248.684911485345
 20
609.2979553553577
 30
0.0
 10
248.4753954402505
 20
609.4392382447154
 30
0.0
 10
248.239097030172
 20
609.5850690481183
 30
0.0
 10
247.9812264786434
 20
609.7272911582725
 30
0.0
 10
247.6397606951766
 20
609.889117453798
 30
0.0
 10
247.2215538895765
 20
610.0422815221345
 30
0.0
 10
246.7369697217424
 20
610.1495761814436
 30
0.0
 10
246.2583302491977
 20
610.182891965707
 30
0.0
 10
245.7796907766529
 20
610.1495761814436
 30
0.0
 10
245.2951066088189
 20
610.042281522135
 30
0.0
 10
244.8768998032187
 20
609.8891174537977
 30
0.0
 10
244.5354340197519
 20
609.7272911582728
 30
0.0
 10
244.2775634682232
 20
609.5850690481182
 30
0.0
 10
244.0412650581447
 20
609.4392382447154
 30
0.0
 10
243.8317490130504
 20
609.2979553553574
 30
0.0
 10
243.6339727300044
 20
609.1544469599271
 30
0.0
 10
243.4511760416151
 20
609.0133025578882
 30
0.0
 10
243.2760410446467
 20
608.870680678021
 30
0.0
 10
243.05935823798
 20
608.6855876009466
 30
0.0
 10
242.8003043740178
 20
608.4513106425306
 30
0.0
 10
242.6038037005297
 20
608.258077489523
 30
0.0
 10
242.505553499465
 20
608.1614610364331
 30
0.0
 11
250.0111069989303
 21
608.1614610364331
 31
0.0
 11
249.714367410646
 21
608.4492275113478
 31
0.0
 11
249.4080132327944
 21
608.7267377861656
 31
0.0
 11
249.2400640631133
 21
608.8700178311303
 31
0.0
 11
249.0688463970399
 21
609.0093761610319
 31
0.0
 11
248.8819872179533
 21
609.1535065068939
 31
0.0
 11
248.6909094078025
 21
609.2920145358983
 31
0.0
 11
248.4744356069588
 21
609.4377682698164
 31
0.0
 11
248.2522770724477
 21
609.5746529107645
 31
0.0
 11
247.9798447803899
 21
609.7244186521751
 31
0.0
 11
247.6985207680153
 21
609.8572912856307
 31
0.0
 11
247.2181801058361
 21
610.0314288323747
 31
0.0
 11
246.71921608377
 21
610.1399296604969
 31
0.0
 11
246.2583302491977
 21
610.1721630158611
 31
0.0
 11
245.7974444146253
 21
610.139929660497
 31
0.0
 11
245.2984803925593
 21
610.0314288323748
 31
0.0
 11
244.81813973038
 21
609.8572912856307
 31
0.0
 11
244.5368157180054
 21
609.7244186521751
 31
0.0
 11
244.2643834259476
 21
609.5746529107645
 31
0.0
 11
244.0422248914365
 21
609.4377682698164
 31
0.0
 11
243.8257510905928
 21
609.2920145358981
 31
0.0
 11
243.634673280442
 21
609.153506506894
 31
0.0
 11
243.4478141013554
 21
609.0093761610318
 31
0.0
 11
243.276596435282
 21
608.8700178311306
 31
0.0
 11
243.108647265601
 21
608.7267377861656
 31
0.0
 11
242.8022930877494
 21
608.4492275113478
 31
0.0
 11
242.505553499465
 21
608.1614610364331
 31
0.0
  0
SPLINE
  5
212
330
65
100
AcDbEntity
  8
1
  6
Continuous
 62
     7
100
AcDbSpline
210
0.0
220
0.0
230
1.0
 70
     8
 71
     3
 72
    33
 73
    29
 74
    27
 42
0.000000001
 43
0.0000000001
 44
0.00000001
 40
0.0
 40
0.0
 40
0.0
 40
0.0
 40
0.6660942065946689
 40
1.332190221276326
 40
1.699632942691221
 40
2.067077051446315
 40
2.470589211701643
 40
2.87410700574536
 40
3.334983197925926
 40
3.795855498283288
 40
4.36740240050179
 40
4.939051288057187
 40
5.929102488371864
 40
6.91919981907097
 40
7.841546050681554
 40
8.76389228229211
 40
9.753989612991342
 40
10.744040813306
 40
11.3156897008614
 40
11.88723660307993
 40
12.34810890343718
 40
12.80898509561763
 40
13.21250288966133
 40
13.61601504991679
 40
13.98345915867186
 40
14.3509018800867
 40
15.01699789476841
 40
15.68309210136318
 40
15.68309210136318
 40
15.68309210136318
 40
15.68309210136318
 10
242.505553499465
 20
608.1614610364331
 30
0.0
 10
242.3062772213359
 20
608.2593989499277
 30
0.0
 10
241.9077241177442
 20
608.4552750295497
 30
0.0
 10
241.3912771874691
 20
608.6884705005207
 30
0.0
 10
240.9617818052108
 20
608.8718493493777
 30
0.0
 10
240.6102905014806
 20
609.0149022985091
 30
0.0
 10
240.245014627841
 20
609.155823786327
 30
0.0
 10
239.8476606983752
 20
609.299892027504
 30
0.0
 10
239.4289664747786
 20
609.4409094503158
 30
0.0
 10
238.9532297855195
 20
609.5875337973102
 30
0.0
 10
238.4375634249624
 20
609.7293324894092
 30
0.0
 10
237.7454217211177
 20
609.892965685551
 30
0.0
 10
236.9078060179001
 20
610.0450413010594
 30
0.0
 10
235.9451308997389
 20
610.1499830470888
 30
0.0
 10
235.0
 20
610.18333081328
 30
0.0
 10
234.0548691002611
 20
610.149983047089
 30
0.0
 10
233.0921939820998
 20
610.0450413010593
 30
0.0
 10
232.2545782788823
 20
609.8929656855512
 30
0.0
 10
231.5624365750374
 20
609.7293324894092
 30
0.0
 10
231.0467702144805
 20
609.58753379731
 30
0.0
 10
230.5710335252213
 20
609.4409094503158
 30
0.0
 10
230.1523393016251
 20
609.2998920275037
 30
0.0
 10
229.7549853721589
 20
609.1558237863273
 30
0.0
 10
229.3897094985195
 20
609.0149022985091
 30
0.0
 10
229.0382181947893
 20
608.871849349378
 30
0.0
 10
228.608722812531
 20
608.6884705005207
 30
0.0
 10
228.0922758822557
 20
608.4552750295497
 30
0.0
 10
227.6937227786642
 20
608.2593989499277
 30
0.0
 10
227.4944465005349
 20
608.1614610364331
 30
0.0
 11
242.505553499465
 21
608.1614610364331
 31
0.0
 11
241.9061638049021
 21
608.4520010293121
 31
0.0
 11
241.2993659671934
 21
608.7267377861657
 31
0.0
 11
240.9613794931431
 21
608.8708880446678
 31
0.0
 11
240.6210322956844
 21
609.0093761610319
 31
0.0
 11
240.244535901991
 21
609.1545399621713
 31
0.0
 11
239.8651583172096
 21
609.2920145358983
 31
0.0
 11
239.4283546707821
 21
609.4390160296786
 31
0.0
 11
238.9878936464999
 21
609.5746529107646
 31
0.0
 11
238.4367445558074
 21
609.7259821595943
 31
0.0
 11
237.8803810376353
 21
609.8572912856307
 31
0.0
 11
236.9061251256323
 21
610.0334355392066
 31
0.0
 11
235.9217716691444
 21
610.1399296604969
 31
0.0
 11
235.0
 21
610.1724805702754
 31
0.0
 11
234.0782283308556
 21
610.1399296604969
 31
0.0
 11
233.0938748743676
 21
610.0334355392065
 31
0.0
 11
232.1196189623647
 21
609.8572912856307
 31
0.0
 11
231.5632554441925
 21
609.7259821595943
 31
0.0
 11
231.0121063535
 21
609.5746529107645
 31
0.0
 11
230.5716453292179
 21
609.4390160296786
 31
0.0
 11
230.1348416827905
 21
609.2920145358983
 31
0.0
 11
229.755464098009
 21
609.1545399621715
 31
0.0
 11
229.3789677043156
 21
609.0093761610319
 31
0.0
 11
229.0386205068569
 21
608.8708880446678
 31
0.0
 11
228.7006340328066
 21
608.7267377861657
 31
0.0
 11
228.093836195098
 21
608.4520010293121
 31
0.0
 11
227.4944465005349
 21
608.1614610364331
 31
0.0
  0
SPLINE
  5
213
330
65
100
AcDbEntity
  8
1
  6
Continuous
 62
     7
100
AcDbSpline
210
0.0
220
0.0
230
1.0
 70
     8
 71
     3
 72
    33
 73
    29
 74
    27
 42
0.000000001
 43
0.0000000001
 44
0.00000001
 40
0.0
 40
0.0
 40
0.0
 40
0.0
 40
0.4133568979875104
 40
0.8267148958292686
 40
1.047477426097779
 40
1.268240269860492
 40
1.504227365470403
 40
1.740225678003571
 40
2.001195134575562
 40
2.262139226749184
 40
2.573023660009519
 40
2.884147970269326
 40
3.395079508021665
 40
3.905704149327963
 40
4.367715773749963
 40
4.829727398172012
 40
5.340352039478448
 40
5.851283577230826
 40
6.162407887490608
 40
6.473292320750918
 40
6.734236412924564
 40
6.995205869496571
 40
7.231204182029536
 40
7.467191277639564
 40
7.687954121402062
 40
7.908716651670741
 40
8.322074649512585
 40
8.735431547500095
 40
8.735431547500095
 40
8.735431547500095
 40
8.735431547500095
 10
219.9888930010698
 20
608.1614610364331
 30
0.0
 10
220.0871432021344
 20
608.258077489523
 30
0.0
 10
220.2836438756223
 20
608.4513106425308
 30
0.0
 10
220.5426977395845
 20
608.6855876009466
 30
0.0
 10
220.7593805462513
 20
608.8706806780208
 30
0.0
 10
220.9345155432196
 20
609.0133025578883
 30
0.0
 10
221.1173122316091
 20
609.1544469599269
 30
0.0
 10
221.3150885146551
 20
609.2979553553578
 30
0.0
 10
221.5246045597494
 20
609.4392382447154
 30
0.0
 10
221.7609029698281
 20
609.5850690481183
 30
0.0
 10
222.0187735213565
 20
609.7272911582725
 30
0.0
 10
222.3602393048236
 20
609.889117453798
 30
0.0
 10
222.7784461104235
 20
610.0422815221348
 30
0.0
 10
223.2630302782576
 20
610.1495761814435
 30
0.0
 10
223.7416697508022
 20
610.1828919657069
 30
0.0
 10
224.2203092233472
 20
610.1495761814438
 30
0.0
 10
224.7048933911812
 20
610.042281522135
 30
0.0
 10
225.1231001967812
 20
609.8891174537978
 30
0.0
 10
225.4645659802482
 20
609.7272911582727
 30
0.0
 10
225.7224365317766
 20
609.5850690481182
 30
0.0
 10
225.9587349418553
 20
609.4392382447155
 30
0.0
 10
226.1682509869495
 20
609.2979553553575
 30
0.0
 10
226.3660272699957
 20
609.1544469599271
 30
0.0
 10
226.5488239583849
 20
609.013302557888
 30
0.0
 10
226.7239589553534
 20
608.870680678021
 30
0.0
 10
226.9406417620201
 20
608.6855876009469
 30
0.0
 10
227.1996956259825
 20
608.4513106425306
 30
0.0
 10
227.3961962994702
 20
608.2580774895231
 30
0.0
 10
227.4944465005349
 20
608.1614610364331
 30
0.0
 11
219.9888930010698
 21
608.1614610364331
 31
0.0
 11
220.285632589354
 21
608.4492275113478
 31
0.0
 11
220.5919867672055
 21
608.7267377861656
 31
0.0
 11
220.7599359368866
 21
608.8700178311303
 31
0.0
 11
220.93115360296
 21
609.0093761610319
 31
0.0
 11
221.1180127820466
 21
609.1535065068939
 31
0.0
 11
221.3090905921975
 21
609.2920145358983
 31
0.0
 11
221.5255643930412
 21
609.4377682698164
 31
0.0
 11
221.7477229275524
 21
609.5746529107645
 31
0.0
 11
222.0201552196102
 21
609.7244186521751
 31
0.0
 11
222.3014792319847
 21
609.8572912856307
 31
0.0
 11
222.7818198941639
 21
610.0314288323747
 31
0.0
 11
223.2807839162299
 21
610.1399296604969
 31
0.0
 11
223.7416697508023
 21
610.1721630158611
 31
0.0
 11
224.2025555853747
 21
610.139929660497
 31
0.0
 11
224.7015196074408
 21
610.0314288323748
 31
0.0
 11
225.1818602696201
 21
609.8572912856307
 31
0.0
 11
225.4631842819946
 21
609.7244186521751
 31
0.0
 11
225.7356165740523
 21
609.5746529107645
 31
0.0
 11
225.9577751085635
 21
609.4377682698164
 31
0.0
 11
226.1742489094072
 21
609.2920145358981
 31
0.0
 11
226.365326719558
 21
609.153506506894
 31
0.0
 11
226.5521858986446
 21
609.0093761610318
 31
0.0
 11
226.723403564718
 21
608.8700178311306
 31
0.0
 11
226.8913527343991
 21
608.7267377861656
 31
0.0
 11
227.1977069122507
 21
608.4492275113478
 31
0.0
 11
227.4944465005349
 21
608.1614610364331
 31
0.0
  0
SPLINE
  5
214
330
65
100
AcDbEntity
  8
1
  6
Continuous
 62
     7
100
AcDbSpline
210
0.0
220
0.0
230
1.0
 70
     8
 71
     3
 72
    33
 73
    29
 74
    27
 42
0.000000001
 43
0.0000000001
 44
0.00000001
 40
0.0
 40
0.0
 40
0.0
 40
0.0
 40
0.593924912934503
 40
1.187851597589269
 40
1.513819739508843
 40
1.839789279790131
 40
2.196317435514603
 40
2.552851932504557
 40
2.958199558378173
 40
3.363541509507836
 40
3.863542574906289
 40
4.363662703217987
 40
5.2241600485988
 40
6.084683374568902
 40
6.883623433991282
 40
7.682563493413719
 40
8.543086819383808
 40
9.403584164764755
 40
9.903704293076427
 40
10.4037053584749
 40
10.80904730960462
 40
11.21439493547822
 40
11.57092943246812
 40
11.92745758819244
 40
12.25342712847373
 40
12.57939527039341
 40
13.17332195504827
 40
13.76724686798278
 40
13.76724686798278
 40
13.76724686798278
 40
13.76724686798278
 10
395.0
 20
603.4225680353634
 30
0.0
 10
394.8278118051464
 20
603.3248444043503
 30
0.0
 10
394.4834348946335
 20
603.1293968635933
 30
0.0
 10
394.0359123546083
 20
602.8960094666595
 30
0.0
 10
393.6634251389902
 20
602.7123586311664
 30
0.0
 10
393.3591747927791
 20
602.5693658658896
 30
0.0
 10
393.0427832099524
 20
602.428406379316
 30
0.0
 10
392.6988757438431
 20
602.284412396167
 30
0.0
 10
392.3362159481336
 20
602.1433508170644
 30
0.0
 10
391.9245593808672
 20
601.9968238322838
 30
0.0
 10
391.4779301466995
 20
601.8549587454359
 30
0.0
 10
390.8794793306109
 20
601.6915362344467
 30
0.0
 10
390.1540964327058
 20
601.5393270124242
 30
0.0
 10
389.319701365202
 20
601.4340915198737
 30
0.0
 10
388.5
 20
601.4007317185113
 30
0.0
 10
387.6802986347982
 20
601.4340915198738
 30
0.0
 10
386.8459035672944
 20
601.5393270124241
 30
0.0
 10
386.1205206693891
 20
601.6915362344466
 30
0.0
 10
385.5220698533006
 20
601.8549587454362
 30
0.0
 10
385.0754406191331
 20
601.9968238322837
 30
0.0
 10
384.6637840518662
 20
602.1433508170643
 30
0.0
 10
384.301124256157
 20
602.2844123961671
 30
0.0
 10
383.9572167900478
 20
602.4284063793162
 30
0.0
 10
383.640825207221
 20
602.5693658658895
 30
0.0
 10
383.3365748610098
 20
602.7123586311662
 30
0.0
 10
382.9640876453919
 20
602.8960094666597
 30
0.0
 10
382.5165651053665
 20
603.129396863593
 30
0.0
 10
382.1721881948536
 20
603.3248444043503
 30
0.0
 10
382.0
 20
603.4225680353634
 30
0.0
 11
395.0
 21
603.4225680353634
 31
0.0
 11
394.4817400700644
 21
603.1324758970322
 31
0.0
 11
393.9554109553247
 21
602.8572912856307
 31
0.0
 11
393.6629826863197
 21
602.7132741436855
 31
0.0
 11
393.3679567635556
 21
602.5746529107644
 31
0.0
 11
393.0422520223982
 21
602.429639988731
 31
0.0
 11
392.7133506961367
 21
602.2920145358981
 31
0.0
 11
392.3355305100738
 21
602.1451860475739
 31
0.0
 11
391.9536172054596
 21
602.0093761610319
 31
0.0
 11
391.4770031054149
 21
601.8582468610531
 31
0.0
 11
390.9944831511712
 21
601.7267377861656
 31
0.0
 11
390.1521545954217
 21
601.5508449596172
 31
0.0
 11
389.2982776819681
 21
601.4440994112994
 31
0.0
 11
388.5000000000001
 21
601.4115730867802
 31
0.0
 11
387.7017223180321
 21
601.4440994112994
 31
0.0
 11
386.8478454045785
 21
601.550844959617
 31
0.0
 11
386.0055168488288
 21
601.7267377861656
 31
0.0
 11
385.5229968945852
 21
601.8582468610532
 31
0.0
 11
385.0463827945405
 21
602.0093761610319
 31
0.0
 11
384.6644694899262
 21
602.1451860475739
 31
0.0
 11
384.2866493038634
 21
602.2920145358983
 31
0.0
 11
383.9577479776019
 21
602.4296399887311
 31
0.0
 11
383.6320432364446
 21
602.5746529107644
 31
0.0
 11
383.3370173136805
 21
602.7132741436853
 31
0.0
 11
383.0445890446754
 21
602.8572912856307
 31
0.0
 11
382.5182599299355
 21
603.1324758970321
 31
0.0
 11
382.0
 21
603.4225680353634
 31
0.0
  0
SPLINE
  5
215
330
65
100
AcDbEntity
  8
1
  6
Continuous
 62
     7
100
AcDbSpline
210
0.0
220
0.0
230
1.0
 70
     8
 71
     3
 72
    33
 73
    29
 74
    27
 42
0.000000001
 43
0.0000000001
 44
0.00000001
 40
0.0
 40
0.0
 40
0.0
 40
0.0
 40
0.5939249129344475
 40
1.187851597589161
 40
1.513819739508735
 40
1.839789279789974
 40
2.196317435514493
 40
2.552851932504447
 40
2.958199558378063
 40
3.363541509507764
 40
3.863542574906115
 40
4.363662703217871
 40
5.224160048598731
 40
6.08468337456882
 40
6.883623433991199
 40
7.682563493413641
 40
8.543086819383715
 40
9.403584164764686
 40
9.903704293076327
 40
10.40370535847477
 40
10.80904730960452
 40
11.21439493547813
 40
11.57092943246798
 40
11.9274575881924
 40
12.25342712847369
 40
12.57939527039331
 40
13.17332195504828
 40
13.76724686798262
 40
13.76724686798262
 40
13.76724686798262
 40
13.76724686798262
 10
395.0
 20
608.1614610364331
 30
0.0
 10
394.8278118051463
 20
608.2591846674462
 30
0.0
 10
394.4834348946335
 20
608.4546322082032
 30
0.0
 10
394.0359123546083
 20
608.6880196051366
 30
0.0
 10
393.6634251389904
 20
608.87167044063
 30
0.0
 10
393.359174792779
 20
609.0146632059065
 30
0.0
 10
393.0427832099525
 20
609.1556226924804
 30
0.0
 10
392.6988757438431
 20
609.2996166756293
 30
0.0
 10
392.3362159481337
 20
609.4406782547319
 30
0.0
 10
391.9245593808671
 20
609.5872052395129
 30
0.0
 10
391.4779301466994
 20
609.7290703263599
 30
0.0
 10
390.879479330611
 20
609.8924928373498
 30
0.0
 10
390.154096432706
 20
610.0447020593723
 30
0.0
 10
389.319701365202
 20
610.1499375519227
 30
0.0
 10
388.4999999999999
 20
610.183297353285
 30
0.0
 10
387.6802986347984
 20
610.1499375519227
 30
0.0
 10
386.8459035672942
 20
610.0447020593724
 30
0.0
 10
386.1205206693892
 20
609.8924928373494
 30
0.0
 10
385.5220698533005
 20
609.7290703263602
 30
0.0
 10
385.0754406191329
 20
609.587205239513
 30
0.0
 10
384.6637840518662
 20
609.4406782547319
 30
0.0
 10
384.3011242561571
 20
609.2996166756293
 30
0.0
 10
383.9572167900477
 20
609.1556226924805
 30
0.0
 10
383.6408252072212
 20
609.0146632059067
 30
0.0
 10
383.3365748610098
 20
608.8716704406299
 30
0.0
 10
382.9640876453916
 20
608.6880196051367
 30
0.0
 10
382.5165651053667
 20
608.4546322082031
 30
0.0
 10
382.1721881948536
 20
608.2591846674461
 30
0.0
 10
382.0
 20
608.1614610364331
 30
0.0
 11
395.0
 21
608.1614610364331
 31
0.0
 11
394.4817400700644
 21
608.4515531747642
 31
0.0
 11
393.9554109553247
 21
608.7267377861656
 31
0.0
 11
393.6629826863197
 21
608.8707549281108
 31
0.0
 11
393.3679567635556
 21
609.0093761610318
 31
0.0
 11
393.0422520223982
 21
609.1543890830653
 31
0.0
 11
392.7133506961367
 21
609.2920145358981
 31
0.0
 11
392.3355305100738
 21
609.4388430242224
 31
0.0
 11
391.9536172054596
 21
609.5746529107645
 31
0.0
 11
391.4770031054149
 21
609.725782210743
 31
0.0
 11
390.9944831511712
 21
609.8572912856307
 31
0.0
 11
390.1521545954217
 21
610.0331841121794
 31
0.0
 11
389.2982776819681
 21
610.139929660497
 31
0.0
 11
388.5000000000001
 21
610.1724559850162
 31
0.0
 11
387.7017223180321
 21
610.1399296604969
 31
0.0
 11
386.8478454045785
 21
610.0331841121794
 31
0.0
 11
386.0055168488288
 21
609.8572912856307
 31
0.0
 11
385.5229968945852
 21
609.7257822107432
 31
0.0
 11
385.0463827945405
 21
609.5746529107646
 31
0.0
 11
384.6644694899262
 21
609.4388430242225
 31
0.0
 11
384.2866493038634
 21
609.2920145358981
 31
0.0
 11
383.9577479776019
 21
609.1543890830654
 31
0.0
 11
383.6320432364446
 21
609.0093761610319
 31
0.0
 11
383.3370173136805
 21
608.870754928111
 31
0.0
 11
383.0445890446754
 21
608.7267377861657
 31
0.0
 11
382.5182599299355
 21
608.4515531747641
 31
0.0
 11
382.0
 21
608.1614610364331
 31
0.0
  0
SPLINE
  5
216
330
65
100
AcDbEntity
  8
1
  6
Continuous
 62
     7
100
AcDbSpline
210
0.0
220
0.0
230
1.0
 70
     8
 71
     3
 72
    33
 73
    29
 74
    27
 42
0.000000001
 43
0.0000000001
 44
0.00000001
 40
0.0
 40
0.0
 40
0.0
 40
0.0
 40
0.5939249129344475
 40
1.187851597589262
 40
1.513819739508887
 40
1.839789279790075
 40
2.196317435514541
 40
2.552851932504494
 40
2.958199558378005
 40
3.363541509507706
 40
3.863542574906056
 40
4.363662703217978
 40
5.224160048598837
 40
6.084683374568813
 40
6.88362343399125
 40
7.682563493413691
 40
8.543086819383879
 40
9.403584164764737
 40
9.90370429307638
 40
10.40370535847466
 40
10.80904730960441
 40
11.21439493547807
 40
11.57092943246798
 40
11.92745758819244
 40
12.25342712847363
 40
12.57939527039336
 40
13.17332195504818
 40
13.76724686798262
 40
13.76724686798262
 40
13.76724686798262
 40
13.76724686798262
 10
395.0
 20
608.1614610364331
 30
0.0
 10
395.1721881948536
 20
608.2591846674462
 30
0.0
 10
395.5165651053667
 20
608.4546322082033
 30
0.0
 10
395.9640876453917
 20
608.6880196051366
 30
0.0
 10
396.3365748610099
 20
608.87167044063
 30
0.0
 10
396.640825207221
 20
609.0146632059065
 30
0.0
 10
396.9572167900474
 20
609.1556226924802
 30
0.0
 10
397.3011242561569
 20
609.2996166756293
 30
0.0
 10
397.6637840518663
 20
609.4406782547317
 30
0.0
 10
398.0754406191328
 20
609.5872052395127
 30
0.0
 10
398.5220698533005
 20
609.7290703263602
 30
0.0
 10
399.1205206693891
 20
609.8924928373494
 30
0.0
 10
399.8459035672943
 20
610.0447020593724
 30
0.0
 10
400.680298634798
 20
610.1499375519226
 30
0.0
 10
401.5
 20
610.1832973532851
 30
0.0
 10
402.3197013652018
 20
610.1499375519224
 30
0.0
 10
403.154096432706
 20
610.0447020593723
 30
0.0
 10
403.8794793306108
 20
609.8924928373497
 30
0.0
 10
404.4779301466994
 20
609.7290703263603
 30
0.0
 10
404.924559380867
 20
609.587205239513
 30
0.0
 10
405.3362159481335
 20
609.440678254732
 30
0.0
 10
405.698875743843
 20
609.2996166756293
 30
0.0
 10
406.0427832099524
 20
609.1556226924806
 30
0.0
 10
406.3591747927787
 20
609.0146632059066
 30
0.0
 10
406.6634251389901
 20
608.87167044063
 30
0.0
 10
407.0359123546083
 20
608.6880196051369
 30
0.0
 10
407.4834348946333
 20
608.4546322082031
 30
0.0
 10
407.8278118051464
 20
608.259184667446
 30
0.0
 10
408.0
 20
608.1614610364331
 30
0.0
 11
395.0
 21
608.1614610364331
 31
0.0
 11
395.5182599299356
 21
608.4515531747642
 31
0.0
 11
396.0445890446754
 21
608.7267377861656
 31
0.0
 11
396.3370173136805
 21
608.8707549281108
 31
0.0
 11
396.6320432364445
 21
609.0093761610318
 31
0.0
 11
396.9577479776019
 21
609.1543890830653
 31
0.0
 11
397.2866493038634
 21
609.2920145358981
 31
0.0
 11
397.6644694899261
 21
609.4388430242224
 31
0.0
 11
398.0463827945404
 21
609.5746529107645
 31
0.0
 11
398.522996894585
 21
609.725782210743
 31
0.0
 11
399.0055168488289
 21
609.8572912856307
 31
0.0
 11
399.8478454045784
 21
610.0331841121794
 31
0.0
 11
400.7017223180319
 21
610.139929660497
 31
0.0
 11
401.4999999999999
 21
610.1724559850162
 31
0.0
 11
402.298277681968
 21
610.1399296604969
 31
0.0
 11
403.1521545954217
 21
610.0331841121794
 31
0.0
 11
403.9944831511712
 21
609.8572912856307
 31
0.0
 11
404.4770031054148
 21
609.7257822107432
 31
0.0
 11
404.9536172054594
 21
609.5746529107646
 31
0.0
 11
405.3355305100737
 21
609.4388430242225
 31
0.0
 11
405.7133506961366
 21
609.2920145358981
 31
0.0
 11
406.0422520223981
 21
609.1543890830654
 31
0.0
 11
406.3679567635554
 21
609.0093761610319
 31
0.0
 11
406.6629826863194
 21
608.870754928111
 31
0.0
 11
406.9554109553247
 21
608.7267377861657
 31
0.0
 11
407.4817400700643
 21
608.4515531747641
 31
0.0
 11
408.0
 21
608.1614610364331
 31
0.0
  0
SPLINE
  5
217
330
65
100
AcDbEntity
  8
1
  6
Continuous
 62
     7
100
AcDbSpline
210
0.0
220
0.0
230
1.0
 70
     8
 71
     3
 72
    33
 73
    29
 74
    27
 42
0.000000001
 43
0.0000000001
 44
0.00000001
 40
0.0
 40
0.0
 40
0.0
 40
0.0
 40
0.593924912934503
 40
1.18785159758937
 40
1.513819739508995
 40
1.839789279790231
 40
2.196317435514652
 40
2.552851932504605
 40
2.958199558378115
 40
3.363541509507778
 40
3.863542574906232
 40
4.363662703218093
 40
5.224160048598907
 40
6.084683374568897
 40
6.883623433991334
 40
7.68256349341377
 40
8.543086819383971
 40
9.403584164764807
 40
9.903704293076478
 40
10.40370535847479
 40
10.8090473096045
 40
11.21439493547816
 40
11.57092943246811
 40
11.92745758819249
 40
12.25342712847368
 40
12.57939527039345
 40
13.17332195504817
 40
13.76724686798277
 40
13.76724686798277
 40
13.76724686798277
 40
13.76724686798277
 10
395.0
 20
603.4225680353634
 30
0.0
 10
395.1721881948536
 20
603.3248444043503
 30
0.0
 10
395.5165651053667
 20
603.1293968635933
 30
0.0
 10
395.9640876453918
 20
602.8960094666597
 30
0.0
 10
396.3365748610099
 20
602.7123586311664
 30
0.0
 10
396.640825207221
 20
602.5693658658897
 30
0.0
 10
396.9572167900476
 20
602.4284063793159
 30
0.0
 10
397.301124256157
 20
602.2844123961671
 30
0.0
 10
397.6637840518663
 20
602.1433508170644
 30
0.0
 10
398.0754406191329
 20
601.9968238322837
 30
0.0
 10
398.5220698533004
 20
601.8549587454359
 30
0.0
 10
399.1205206693893
 20
601.691536234447
 30
0.0
 10
399.8459035672942
 20
601.5393270124242
 30
0.0
 10
400.6802986347981
 20
601.4340915198738
 30
0.0
 10
401.4999999999999
 20
601.4007317185112
 30
0.0
 10
402.3197013652019
 20
601.4340915198737
 30
0.0
 10
403.1540964327058
 20
601.5393270124241
 30
0.0
 10
403.8794793306108
 20
601.6915362344469
 30
0.0
 10
404.4779301466994
 20
601.854958745436
 30
0.0
 10
404.9245593808669
 20
601.9968238322836
 30
0.0
 10
405.3362159481337
 20
602.1433508170645
 30
0.0
 10
405.6988757438428
 20
602.2844123961671
 30
0.0
 10
406.0427832099524
 20
602.4284063793161
 30
0.0
 10
406.3591747927791
 20
602.5693658658897
 30
0.0
 10
406.66342513899
 20
602.7123586311661
 30
0.0
 10
407.0359123546083
 20
602.8960094666597
 30
0.0
 10
407.4834348946334
 20
603.1293968635931
 30
0.0
 10
407.8278118051463
 20
603.32484440435
 30
0.0
 10
408.0
 20
603.4225680353634
 30
0.0
 11
395.0
 21
603.4225680353634
 31
0.0
 11
395.5182599299356
 21
603.1324758970322
 31
0.0
 11
396.0445890446754
 21
602.8572912856307
 31
0.0
 11
396.3370173136805
 21
602.7132741436855
 31
0.0
 11
396.6320432364445
 21
602.5746529107644
 31
0.0
 11
396.9577479776019
 21
602.429639988731
 31
0.0
 11
397.2866493038634
 21
602.2920145358981
 31
0.0
 11
397.6644694899261
 21
602.1451860475739
 31
0.0
 11
398.0463827945404
 21
602.0093761610319
 31
0.0
 11
398.522996894585
 21
601.8582468610531
 31
0.0
 11
399.0055168488289
 21
601.7267377861656
 31
0.0
 11
399.8478454045784
 21
601.5508449596172
 31
0.0
 11
400.7017223180319
 21
601.4440994112994
 31
0.0
 11
401.4999999999999
 21
601.4115730867802
 31
0.0
 11
402.298277681968
 21
601.4440994112994
 31
0.0
 11
403.1521545954217
 21
601.550844959617
 31
0.0
 11
403.9944831511712
 21
601.7267377861656
 31
0.0
 11
404.4770031054148
 21
601.8582468610532
 31
0.0
 11
404.9536172054594
 21
602.0093761610319
 31
0.0
 11
405.3355305100737
 21
602.1451860475739
 31
0.0
 11
405.7133506961366
 21
602.2920145358983
 31
0.0
 11
406.0422520223981
 21
602.4296399887311
 31
0.0
 11
406.3679567635554
 21
602.5746529107644
 31
0.0
 11
406.6629826863194
 21
602.7132741436853
 31
0.0
 11
406.9554109553247
 21
602.8572912856307
 31
0.0
 11
407.4817400700643
 21
603.1324758970321
 31
0.0
 11
408.0
 21
603.4225680353634
 31
0.0
  0
ARC
  5
218
330
65
100
AcDbEntity
  8
1
  6
Continuous
 62
     7
100
AcDbCircle
 10
252.5
 20
618.6614610364331
 30
0.0
 40
5.0
100
AcDbArc
 50
90.0
 51
180.0
  0
ARC
  5
219
330
65
100
AcDbEntity
  8
1
  6
Continuous
 62
     7
100
AcDbCircle
 10
252.5
 20
612.7436358472288
 30
0.0
 40
5.0
100
AcDbArc
 50
180.0
 51
225.0000000000014
  0
ARC
  5
21A
330
65
100
AcDbEntity
  8
1
  6
Continuous
 62
     7
100
AcDbCircle
 10
217.5
 20
612.7436358472288
 30
0.0
 40
5.0
100
AcDbArc
 50
314.9999999999995
 51
0.0
  0
ARC
  5
21B
330
65
100
AcDbEntity
  8
1
  6
Continuous
 62
     7
100
AcDbCircle
 10
250.5
 20
653.6614610364331
 30
0.0
 40
5.0
100
AcDbArc
 50
180.0
 51
270.0
  0
ARC
  5
21C
330
65
100
AcDbEntity
  8
1
  6
Continuous
 62
     7
100
AcDbCircle
 10
377.5
 20
612.7436358472288
 30
0.0
 40
4.999999999999952
100
AcDbArc
 50
334.158067236834
 51
0.0
  0
ARC
  5
21D
330
65
100
AcDbEntity
  8
1
  6
Continuous
 62
     7
100
AcDbCircle
 10
412.5
 20
612.7436358472288
 30
0.0
 40
5.0
100
AcDbArc
 50
180.0
 51
205.841932763166
  0
ENDBLK
  5
67
330
65
100
AcDbEntity
  8
0
100
AcDbBlockEnd
  0
BLOCK
  5
243
330
23A
100
AcDbEntity
  8
0
100
AcDbBlockBegin
  2
*D11
 70
     1
 10
0.0
 20
0.0
 30
0.0
  3
*D11
  1

  0
LINE
  5
23B
330
23A
100
AcDbEntity
  8
1
  6
Continuous
 62
     2
100
AcDbLine
 10
246.5
 20
700.1614610364331
 30
0.0
 11
267.5
 21
700.1614610364331
 31
0.0
  0
LINE
  5
23C
330
23A
100
AcDbEntity
  8
1
  6
Continuous
 62
     2
100
AcDbLine
 10
223.5
 20
700.1614610364331
 30
0.0
 11
246.5
 21
700.1614610364331
 31
0.0
  0
LINE
  5
23D
330
23A
100
AcDbEntity
  8
1
  6
Continuous
 62
     2
100
AcDbLine
 10
202.5
 20
700.1614610364331
 30
0.0
 11
223.5
 21
700.1614610364331
 31
0.0
  0
LINE
  5
23E
330
23A
100
AcDbEntity
  8
1
  6
Continuous
 62
     2
100
AcDbLine
 10
223.5
 20
668.9572925597458
 30
0.0
 11
223.5
 21
703.1614610364331
 31
0.0
  0
LINE
  5
23F
330
23A
100
AcDbEntity
  8
1
  6
Continuous
 62
     2
100
AcDbLine
 10
246.5
 20
668.9572925597458
 30
0.0
 11
246.5
 21
703.1614610364331
 31
0.0
  0
SOLID
  5
240
330
23A
100
AcDbEntity
  8
1
 62
     2
100
AcDbTrace
 10
213.0
 20
698.7791098117655
 30
0.0
 11
213.0
 21
701.5438122611008
 31
0.0
 12
223.5
 22
700.1614610364331
 32
0.0
 13
223.5
 23
700.1614610364331
 33
0.0
  0
SOLID
  5
241
330
23A
100
AcDbEntity
  8
1
 62
     2
100
AcDbTrace
 10
257.0
 20
701.5438122611008
 30
0.0
 11
257.0
 21
698.7791098117655
 31
0.0
 12
246.5
 22
700.1614610364331
 32
0.0
 13
246.5
 23
700.1614610364331
 33
0.0
  0
MTEXT
  5
242
330
23A
100
AcDbEntity
  8
1
 62
     7
100
AcDbMText
 10
227.1249999999998
 20
703.1614610364331
 30
0.0
 40
10.5
 41
0.0
 71
     7
 72
     1
  1
23
  7
CONVERTER_12
 11
0.9999999999970619
 21
2.424068405545306E-6
 31
0.0
 73
     1
 44
0.60024009603842
  0
ENDBLK
  5
244
330
23A
100
AcDbEntity
  8
0
100
AcDbBlockEnd
  0
BLOCK
  5
24E
330
247
100
AcDbEntity
  8
0
100
AcDbBlockBegin
  2
*D12
 70
     1
 10
0.0
 20
0.0
 30
0.0
  3
*D12
  1

  0
LINE
  5
248
330
247
100
AcDbEntity
  8
1
  6
Continuous
 62
     2
100
AcDbLine
 10
455.0000000000001
 20
636.1614610364331
 30
0.0
 11
455.0000000000001
 21
666.1614610364331
 31
0.0
  0
LINE
  5
249
330
247
100
AcDbEntity
  8
1
  6
Continuous
 62
     2
100
AcDbLine
 10
411.0000000000001
 20
636.1614610364331
 30
0.0
 11
458.0000000000001
 21
636.1614610364331
 31
0.0
  0
LINE
  5
24A
330
247
100
AcDbEntity
  8
1
  6
Continuous
 62
     2
100
AcDbLine
 10
407.3321595661993
 20
666.1614610364331
 30
0.0
 11
458.0000000000001
 21
666.1614610364331
 31
0.0
  0
SOLID
  5
24B
330
247
100
AcDbEntity
  8
1
 62
     2
100
AcDbTrace
 10
453.6176487753324
 20
646.6614610364331
 30
0.0
 11
456.3823512246678
 21
646.6614610364331
 31
0.0
 12
455.0000000000001
 22
636.1614610364331
 32
0.0
 13
455.0000000000001
 23
636.1614610364331
 33
0.0
  0
SOLID
  5
24C
330
247
100
AcDbEntity
  8
1
 62
     2
100
AcDbTrace
 10
456.3823512246678
 20
655.6614610364331
 30
0.0
 11
453.6176487753324
 21
655.6614610364331
 31
0.0
 12
455.0000000000001
 22
666.1614610364331
 32
0.0
 13
455.0000000000001
 23
666.1614610364331
 33
0.0
  0
MTEXT
  5
24D
330
247
100
AcDbEntity
  8
1
 62
     7
100
AcDbMText
 10
452.0000000000001
 20
643.2690577084212
 30
0.0
 40
10.5
 41
0.0
 71
     7
 72
     1
  1
30
  7
CONVERTER_12
 11
0.0
 21
1.0
 31
0.0
 73
     1
 44
0.60024009603842
  0
ENDBLK
  5
24F
330
247
100
AcDbEntity
  8
0
100
AcDbBlockEnd
  0
BLOCK
  5
259
330
252
100
AcDbEntity
  8
0
100
AcDbBlockBegin
  2
*D13
 70
     1
 10
0.0
 20
0.0
 30
0.0
  3
*D13
  1

  0
LINE
  5
253
330
252
100
AcDbEntity
  8
1
  6
Continuous
 62
     2
100
AcDbLine
 10
365.0000000000001
 20
160.1580038731417
 30
0.0
 11
425.0000000000001
 21
160.1580038731417
 31
0.0
  0
LINE
  5
254
330
252
100
AcDbEntity
  8
1
  6
Continuous
 62
     2
100
AcDbLine
 10
365.0000000000001
 20
208.8958318299619
 30
0.0
 11
365.0000000000001
 21
157.1580038731417
 31
0.0
  0
LINE
  5
255
330
252
100
AcDbEntity
  8
1
  6
Continuous
 62
     2
100
AcDbLine
 10
425.0000000000001
 20
208.8958318299619
 30
0.0
 11
425.0000000000001
 21
157.1580038731417
 31
0.0
  0
SOLID
  5
256
330
252
100
AcDbEntity
  8
1
 62
     2
100
AcDbTrace
 10
375.5000000000001
 20
161.5403550978093
 30
0.0
 11
375.5000000000001
 21
158.7756526484741
 31
0.0
 12
365.0000000000001
 22
160.1580038731417
 32
0.0
 13
365.0000000000001
 23
160.1580038731417
 33
0.0
  0
SOLID
  5
257
330
252
100
AcDbEntity
  8
1
 62
     2
100
AcDbTrace
 10
414.5000000000001
 20
158.7756526484741
 30
0.0
 11
414.5000000000001
 21
161.5403550978093
 31
0.0
 12
425.0000000000001
 22
160.1580038731417
 32
0.0
 13
425.0000000000001
 23
160.1580038731417
 33
0.0
  0
MTEXT
  5
258
330
252
100
AcDbEntity
  8
1
 62
     7
100
AcDbMText
 10
381.875
 20
163.1580038731417
 30
0.0
 40
10.5
 41
0.0
 71
     7
 72
     1
  1
{\Fgdt;n}60
  7
CONVERTER_12
 11
0.9999999999970619
 21
2.424068405545306E-6
 31
0.0
 73
     1
 44
0.60024009603842
  0
ENDBLK
  5
25A
330
252
100
AcDbEntity
  8
0
100
AcDbBlockEnd
  0
BLOCK
  5
266
330
25D
100
AcDbEntity
  8
0
100
AcDbBlockBegin
  2
*D14
 70
     1
 10
0.0
 20
0.0
 30
0.0
  3
*D14
  1

  0
LINE
  5
25E
330
25D
100
AcDbEntity
  8
1
  6
Continuous
 62
     2
100
AcDbLine
 10
335.0000000000001
 20
208.8958318299619
 30
0.0
 11
335.0000000000001
 21
187.8958318299619
 31
0.0
  0
LINE
  5
25F
330
25D
100
AcDbEntity
  8
1
  6
Continuous
 62
     2
100
AcDbLine
 10
335.0000000000001
 20
224.8958318299619
 30
0.0
 11
335.0000000000001
 21
208.8958318299619
 31
0.0
  0
LINE
  5
260
330
25D
100
AcDbEntity
  8
1
  6
Continuous
 62
     2
100
AcDbLine
 10
335.0000000000001
 20
245.8958318299619
 30
0.0
 11
335.0000000000001
 21
224.8958318299619
 31
0.0
  0
LINE
  5
261
330
25D
100
AcDbEntity
  8
1
  6
Continuous
 62
     2
100
AcDbLine
 10
382.7958315233128
 20
224.8958318299619
 30
0.0
 11
332.0000000000001
 21
224.8958318299619
 31
0.0
  0
LINE
  5
262
330
25D
100
AcDbEntity
  8
1
  6
Continuous
 62
     2
100
AcDbLine
 10
365.0000000000001
 20
208.8958318299619
 30
0.0
 11
332.0000000000001
 21
208.8958318299619
 31
0.0
  0
SOLID
  5
263
330
25D
100
AcDbEntity
  8
1
 62
     2
100
AcDbTrace
 10
333.6176487753324
 20
235.3958318299619
 30
0.0
 11
336.3823512246678
 21
235.3958318299619
 31
0.0
 12
335.0000000000001
 22
224.8958318299619
 32
0.0
 13
335.0000000000001
 23
224.8958318299619
 33
0.0
  0
SOLID
  5
264
330
25D
100
AcDbEntity
  8
1
 62
     2
100
AcDbTrace
 10
336.3823512246678
 20
198.3958318299619
 30
0.0
 11
333.6176487753324
 21
198.3958318299619
 31
0.0
 12
335.0000000000001
 22
208.8958318299619
 32
0.0
 13
335.0000000000001
 23
208.8958318299619
 33
0.0
  0
MTEXT
  5
265
330
25D
100
AcDbEntity
  8
1
 62
     7
100
AcDbMText
 10
332.0000000000001
 20
210.5958318299619
 30
0.0
 40
10.5
 41
0.0
 71
     7
 72
     1
  1
16
  7
CONVERTER_12
 11
0.0
 21
1.0
 31
0.0
 73
     1
 44
0.60024009603842
  0
ENDBLK
  5
267
330
25D
100
AcDbEntity
  8
0
100
AcDbBlockEnd
  0
BLOCK
  5
273
330
26A
100
AcDbEntity
  8
0
100
AcDbBlockBegin
  2
*D15
 70
     1
 10
0.0
 20
0.0
 30
0.0
  3
*D15
  1

  0
LINE
  5
26B
330
26A
100
AcDbEntity
  8
1
  6
Continuous
 62
     2
100
AcDbLine
 10
416.6170136668835
 20
586.4863555558759
 30
0.0
 11
437.6170136668835
 21
586.4863555558759
 31
0.0
  0
LINE
  5
26C
330
26A
100
AcDbEntity
  8
1
  6
Continuous
 62
     2
100
AcDbLine
 10
390.6170136668835
 20
586.4863555558759
 30
0.0
 11
416.6170136668835
 21
586.4863555558759
 31
0.0
  0
LINE
  5
26D
330
26A
100
AcDbEntity
  8
1
  6
Continuous
 62
     2
100
AcDbLine
 10
369.6170136668835
 20
586.4863555558759
 30
0.0
 11
390.6170136668835
 21
586.4863555558759
 31
0.0
  0
LINE
  5
26E
330
26A
100
AcDbEntity
  8
1
  6
Continuous
 62
     2
100
AcDbLine
 10
382.0
 20
601.4114610364333
 30
0.0
 11
392.1170136668835
 21
583.8882793445225
 31
0.0
  0
LINE
  5
26F
330
26A
100
AcDbEntity
  8
1
  6
Continuous
 62
     2
100
AcDbLine
 10
408.0
 20
601.4114610364333
 30
0.0
 11
418.1170136668835
 21
583.8882793445225
 31
0.0
  0
SOLID
  5
270
330
26A
100
AcDbEntity
  8
1
 62
     2
100
AcDbTrace
 10
380.1170136668835
 20
585.1040043312082
 30
0.0
 11
380.1170136668835
 21
587.8687067805436
 31
0.0
 12
390.6170136668835
 22
586.4863555558759
 32
0.0
 13
390.6170136668835
 23
586.4863555558759
 33
0.0
  0
SOLID
  5
271
330
26A
100
AcDbEntity
  8
1
 62
     2
100
AcDbTrace
 10
427.1170136668835
 20
587.8687067805436
 30
0.0
 11
427.1170136668835
 21
585.1040043312082
 31
0.0
 12
416.6170136668835
 22
586.4863555558759
 32
0.0
 13
416.6170136668835
 23
586.4863555558759
 33
0.0
  0
MTEXT
  5
272
330
26A
100
AcDbEntity
  8
1
 62
     7
100
AcDbMText
 10
419.6175402171966
 20
589.4863555558759
 30
0.0
 40
10.5
 41
0.0
 71
     7
 72
     1
  1
26
  7
CONVERTER_12
 11
0.9999999999970619
 21
2.424068405545306E-6
 31
0.0
 73
     1
 44
0.60024009603842
  0
ENDBLK
  5
274
330
26A
100
AcDbEntity
  8
0
100
AcDbBlockEnd
  0
BLOCK
  5
27F
330
277
100
AcDbEntity
  8
0
100
AcDbBlockBegin
  2
*D16
 70
     1
 10
0.0
 20
0.0
 30
0.0
  3
*D16
  1

  0
LINE
  5
278
330
277
100
AcDbEntity
  8
1
  6
Continuous
 62
     2
100
AcDbLine
 10
235.0
 20
579.329349874663
 30
0.0
 11
276.5
 21
579.329349874663
 31
0.0
  0
LINE
  5
279
330
277
100
AcDbEntity
  8
1
  6
Continuous
 62
     2
100
AcDbLine
 10
276.5
 20
579.329349874663
 30
0.0
 11
336.891246303247
 21
579.329349874663
 31
0.0
  0
LINE
  5
27A
330
277
100
AcDbEntity
  8
1
  6
Continuous
 62
     2
100
AcDbLine
 10
276.5
 20
632.4114610364334
 30
0.0
 11
276.5
 21
576.329349874663
 31
0.0
  0
LINE
  5
27B
330
277
100
AcDbEntity
  8
1
  6
Continuous
 62
     2
100
AcDbLine
 10
235.0
 20
601.1614610364331
 30
0.0
 11
235.0
 21
576.329349874663
 31
0.0
  0
SOLID
  5
27C
330
277
100
AcDbEntity
  8
1
 62
     2
100
AcDbTrace
 10
245.5
 20
580.7117010993306
 30
0.0
 11
245.5
 21
577.9469986499953
 31
0.0
 12
235.0
 22
579.329349874663
 32
0.0
 13
235.0
 23
579.329349874663
 33
0.0
  0
SOLID
  5
27D
330
277
100
AcDbEntity
  8
1
 62
     2
100
AcDbTrace
 10
266.0
 20
577.9469986499953
 30
0.0
 11
266.0
 21
580.7117010993306
 31
0.0
 12
276.5
 22
579.329349874663
 32
0.0
 13
276.5
 23
579.329349874663
 33
0.0
  0
MTEXT
  5
27E
330
277
100
AcDbEntity
  8
1
 62
     7
100
AcDbMText
 10
280.191246303247
 20
582.329349874663
 30
0.0
 40
10.5
 41
0.0
 71
     7
 72
     1
  1
42リフト5
  7
CONVERTER_11
 11
0.9999999999970619
 21
2.424068405545306E-6
 31
0.0
 73
     1
 44
0.45454545454545
  0
ENDBLK
  5
280
330
277
100
AcDbEntity
  8
0
100
AcDbBlockEnd
  0
BLOCK
  5
28A
330
283
100
AcDbEntity
  8
0
100
AcDbBlockBegin
  2
*D17
 70
     1
 10
0.0
 20
0.0
 30
0.0
  3
*D17
  1

  0
LINE
  5
284
330
283
100
AcDbEntity
  8
1
  6
Continuous
 62
     2
100
AcDbLine
 10
455.0000000000001
 20
636.1614610364333
 30
0.0
 11
455.0000000000001
 21
190.1614610364332
 31
0.0
  0
LINE
  5
285
330
283
100
AcDbEntity
  8
1
  6
Continuous
 62
     2
100
AcDbLine
 10
411.0000000000001
 20
636.1614610364333
 30
0.0
 11
458.0000000000001
 21
636.1614610364333
 31
0.0
  0
LINE
  5
286
330
283
100
AcDbEntity
  8
1
  6
Continuous
 62
     2
100
AcDbLine
 10
403.7431114463714
 20
190.1614610364331
 30
0.0
 11
458.0000000000001
 21
190.1614610364331
 31
0.0
  0
SOLID
  5
287
330
283
100
AcDbEntity
  8
1
 62
     2
100
AcDbTrace
 10
456.3823512246678
 20
625.6614610364333
 30
0.0
 11
453.6176487753324
 21
625.6614610364333
 31
0.0
 12
455.0000000000001
 22
636.1614610364333
 32
0.0
 13
455.0000000000001
 23
636.1614610364333
 33
0.0
  0
SOLID
  5
288
330
283
100
AcDbEntity
  8
1
 62
     2
100
AcDbTrace
 10
453.6176487753324
 20
200.6614610364332
 30
0.0
 11
456.3823512246678
 21
200.6614610364332
 31
0.0
 12
455.0000000000001
 22
190.1614610364332
 32
0.0
 13
455.0000000000001
 23
190.1614610364332
 33
0.0
  0
MTEXT
  5
289
330
283
100
AcDbEntity
  8
1
 62
     7
100
AcDbMText
 10
452.0000000000001
 20
400.5441354018497
 30
0.0
 40
10.5
 41
0.0
 71
     7
 72
     1
  1
446
  7
CONVERTER_12
 11
0.0
 21
1.0
 31
0.0
 73
     1
 44
0.60024009603842
  0
ENDBLK
  5
28B
330
283
100
AcDbEntity
  8
0
100
AcDbBlockEnd
  0
ENDSEC
  0
SECTION
  2
ENTITIES
  0
INSERT
  5
68
330
1F
100
AcDbEntity
  8
0
100
AcDbBlockReference
  2
32-12-M2
 10
311.0356166437392
 20
697.2040673785477
 30
0.0
  0
INSERT
  5
69
330
1F
100
AcDbEntity
  8
0
100
AcDbBlockReference
  2
R10AK-13Z
 10
235.0
 20
591.1614610364331
 30
0.0
  0
INSERT
  5
6A
330
1F
100
AcDbEntity
  8
1
100
AcDbBlockReference
  2
開示A4
 10
0.0
 20
0.0
 30
0.0
 41
3.0
 42
3.0
 43
3.0
  0
INSERT
  5
6B
330
1F
100
AcDbEntity
  8
1
100
AcDbBlockReference
  2
64-7-13-420-M11
 10
103.5932952296898
 20
2829.233715385479
 30
0.0
  0
INSERT
  5
6C
330
1F
100
AcDbEntity
  8
0
100
AcDbBlockReference
  2
78-167
 10
277.4056351212969
 20
2072.191566552457
 30
0.0
  0
INSERT
  5
6D
330
1F
100
AcDbEntity
  8
1
100
AcDbBlockReference
  2
V21-2-0A-13-M1
 10
297.2691410709856
 20
2398.0
 30
0.0
  0
INSERT
  5
6E
330
1F
100
AcDbEntity
  8
1
100
AcDbBlockReference
  2
V21-2-0A
 10
87.26914107098557
 20
2101.0
 30
0.0
  0
LINE
  5
21E
330
1F
100
AcDbEntity
  8
0
  6
DASH_CENTER
 62
     2
100
AcDbLine
 10
395.0
 20
679.1614610364331
 30
0.0
 11
395.0
 21
181.1614610364331
 31
0.0
  0
LINE
  5
21F
330
1F
100
AcDbEntity
  8
1
  6
DASH_CENTER
 62
     2
100
AcDbLine
 10
378.5
 20
636.1614610364331
 30
0.0
 11
411.0
 21
636.1614610364331
 31
0.0
  0
LINE
  5
220
330
1F
100
AcDbEntity
  8
1
  6
DASH_CENTER
 62
     2
100
AcDbLine
 10
234.9999999999998
 20
817.5710600752825
 30
0.0
 11
234.9999999999998
 21
745.571060075283
 31
0.0
  0
LINE
  5
221
330
1F
100
AcDbEntity
  8
1
  6
DASH_CENTER
 62
     2
100
AcDbLine
 10
199.0000000000001
 20
781.571060075283
 30
0.0
 11
282.5
 21
781.571060075283
 31
0.0
  0
LINE
  5
222
330
1F
100
AcDbEntity
  8
1
  6
DASH_CENTER
 62
     2
100
AcDbLine
 10
234.9999999999998
 20
679.1614610364331
 30
0.0
 11
235.0
 21
601.1614610364331
 31
0.0
  0
LINE
  5
223
330
1F
100
AcDbEntity
  8
1
  6
DASH_CENTER
 62
     2
100
AcDbLine
 10
216.5
 20
636.1614610364331
 30
0.0
 11
282.5
 21
636.1614610364331
 31
0.0
  0
LINE
  5
224
330
1F
100
AcDbEntity
  8
1
  6
DASH_CENTER
 62
     2
100
AcDbLine
 10
235.0
 20
601.1614610364331
 30
0.0
 11
235.0
 21
181.1614610364331
 31
0.0
  0
LINE
  5
225
330
1F
100
AcDbEntity
  8
0
  6
Continuous
 62
     7
100
AcDbLine
 10
266.1710422018799
 20
677.8614610364332
 30
0.0
 11
268.1710422018799
 21
679.8614610364332
 31
0.0
  0
LINE
  5
226
330
1F
100
AcDbEntity
  8
0
  6
Continuous
 62
     7
100
AcDbLine
 10
268.1710422018799
 20
679.8614610364332
 30
0.0
 11
270.1710422018799
 21
677.8614610364332
 31
0.0
  0
LINE
  5
227
330
1F
100
AcDbEntity
  8
0
  6
Continuous
 62
     7
100
AcDbLine
 10
270.1710422018799
 20
677.8614610364332
 30
0.0
 11
269.1710422018799
 21
677.8614610364332
 31
0.0
  0
LINE
  5
228
330
1F
100
AcDbEntity
  8
0
  6
Continuous
 62
     7
100
AcDbLine
 10
269.1710422018799
 20
677.8614610364332
 30
0.0
 11
269.1710422018799
 21
673.8614610364332
 31
0.0
  0
LINE
  5
229
330
1F
100
AcDbEntity
  8
0
  6
Continuous
 62
     7
100
AcDbLine
 10
269.1710422018799
 20
673.8614610364332
 30
0.0
 11
267.1710422018799
 21
673.8614610364332
 31
0.0
  0
LINE
  5
22A
330
1F
100
AcDbEntity
  8
0
  6
Continuous
 62
     7
100
AcDbLine
 10
267.1710422018799
 20
673.8614610364332
 30
0.0
 11
267.1710422018799
 21
677.8614610364332
 31
0.0
  0
LINE
  5
22B
330
1F
100
AcDbEntity
  8
0
  6
Continuous
 62
     7
100
AcDbLine
 10
267.1710422018799
 20
677.8614610364332
 30
0.0
 11
266.1710422018799
 21
677.8614610364332
 31
0.0
  0
SOLID
  5
22C
330
1F
100
AcDbEntity
  8
1
 62
     2
100
AcDbTrace
 10
251.5419901959364
 20
188.7593699090303
 30
0.0
 11
249.1476876409069
 21
187.3770186843627
 31
0.0
 12
245.0948389184217
 22
197.1614610364331
 32
0.0
 13
245.0948389184217
 23
197.1614610364331
 33
0.0
  0
LEADER
  5
22D
330
1F
100
AcDbEntity
  8
1
  6
Continuous
 62
     2
100
AcDbLeader
  3
Standard
 71
     0
 76
     3
 10
245.0948389184217
 20
197.1614610364331
 30
0.0
 10
266.4567988784379
 20
160.1614610364331
 30
0.0
 10
302.7901687177551
 20
160.1614610364331
 30
0.0
  0
CIRCLE
  5
22E
102
{ACAD_REACTORS
330
22F
102
}
330
1F
100
AcDbEntity
  8
1
 62
     2
100
AcDbCircle
 10
241.7361971115317
 20
636.1614610364331
 30
0.0
 40
2.625
  0
HATCH
  5
22F
330
1F
100
AcDbEntity
  8
1
 62
     2
100
AcDbHatch
 10
0.0
 20
0.0
 30
0.0
210
0.0
220
0.0
230
1.0
  2
SOLID
 70
     1
 71
     1
 91
        1
 92
        1
 93
        1
 72
     2
 10
241.7361971115317
 20
636.1614610364331
 40
2.625
 50
0.0
 51
360.0
 73
     1
 97
        1
330
22E
 75
     0
 76
     1
 98
        0
  0
LEADER
  5
230
330
1F
100
AcDbEntity
  8
1
  6
Continuous
 62
     2
100
AcDbLeader
  3
Standard
 71
     0
 76
     3
 10
241.7361971115317
 20
636.1614610364331
 30
0.0
 10
261.7702514524117
 20
670.8614610364332
 30
0.0
 10
274.5718329513483
 20
670.8614610364332
 30
0.0
  0
MTEXT
  5
231
330
1F
100
AcDbEntity
  8
1
 62
     7
100
AcDbMText
 10
102.0
 20
102.0
 30
0.0
 40
10.5
 41
0.0
 71
     4
 72
     1
  1
共用形
  7
CONVERTER_11
 73
     1
 44
0.54545454545455
  0
MTEXT
  5
233
330
1F
100
AcDbEntity
  8
0
 62
     7
100
AcDbMText
 10
284.1234837980965
 20
169.1614610364331
 30
0.0
 40
10.5
 41
0.0
 71
     5
 72
     1
  1
R1/2
  7
CONVERTER_12
 73
     1
 44
1.32052821128451
  0
MTEXT
  5
234
330
1F
100
AcDbEntity
  8
1
 62
     7
100
AcDbMText
 10
171.0
 20
42.75
 30
0.0
 40
10.5
 41
0.0
 71
     5
 72
     1
  1
V21JSD-X-13
  7
CONVERTER_12
 73
     1
 44
0.90036014405762
  0
MTEXT
  5
235
330
1F
100
AcDbEntity
  8
0
 62
     7
100
AcDbMText
 10
255.75
 20
51.00000000000001
 30
0.0
 40
10.5
 41
0.0
 71
     5
 72
     1
  1
1
  7
CONVERTER_12
 73
     1
 44
0.7202881152461
  0
MTEXT
  5
236
330
1F
100
AcDbEntity
  8
0
 62
     7
100
AcDbMText
 10
281.25
 20
51.00000000000001
 30
0.0
 40
10.5
 41
0.0
 71
     5
 72
     1
  1
3
  7
CONVERTER_12
 73
     1
 44
0.7202881152461
  0
MTEXT
  5
237
330
1F
100
AcDbEntity
  8
1
 62
     7
100
AcDbMText
 10
102.0
 20
114.0
 30
0.0
 40
10.5
 41
0.0
 71
     4
 72
     1
  1
JIS
  7
CONVERTER_12
 73
     1
 44
1.32052821128451
  0
MTEXT
  5
238
330
1F
100
AcDbEntity
  8
1
 62
     7
100
AcDbMText
 10
171.0
 20
68.25
 30
0.0
 40
10.5
 41
0.0
 71
     5
 72
     1
  1
D式ストレート形止水栓
  7
CONVERTER_11
 73
     1
 44
0.54545454545455
  0
MTEXT
  5
239
330
1F
100
AcDbEntity
  8
1
 62
     7
100
AcDbMText
 10
102.0
 20
90.0
 30
0.0
 40
10.5
 41
0.0
 71
     4
 72
     1
  1
ヘリューズナシ
  7
CONVERTER_11
 73
     1
 44
0.54545454545455
  0
DIMENSION
  5
246
330
1F
100
AcDbEntity
  8
1
100
AcDbDimension
  2
*D11
 10
223.5
 20
700.1614610364331
 30
0.0
 11
234.9999999999998
 21
708.4114610364331
 31
0.0
 70
    33
  1
<>
 71
     5
 42
-1.0
 53
0.00013888888889
  3
ME10_DIM_10
100
AcDbAlignedDimension
 13
246.5
 23
668.9572925597458
 33
0.0
 14
223.5
 24
668.9572925597458
 34
0.0
  0
DIMENSION
  5
251
330
1F
100
AcDbEntity
  8
1
100
AcDbDimension
  2
*D12
 10
455.0000000000001
 20
636.1614610364331
 30
0.0
 11
446.7500000000001
 21
651.1440577084212
 31
0.0
 70
    32
  1
<>
 71
     5
 42
-1.0
 53
90.0
  3
ME10_DIM_11
100
AcDbAlignedDimension
 13
407.3321595661993
 23
666.1614610364331
 33
0.0
 14
411.0
 24
636.1614610364331
 34
0.0
 50
90.0
100
AcDbRotatedDimension
  0
DIMENSION
  5
25C
330
1F
100
AcDbEntity
  8
1
100
AcDbDimension
  2
*D13
 10
365.0000000000001
 20
160.1580038731417
 30
0.0
 11
395.0
 21
168.4080038731417
 31
0.0
 70
    32
  1
60
 71
     5
 42
-1.0
 53
0.00013888888889
  3
ME10_DIM_12
100
AcDbAlignedDimension
 13
425.0000000000001
 23
208.8958318299619
 33
0.0
 14
365.0000000000001
 24
208.8958318299619
 34
0.0
100
AcDbRotatedDimension
  0
DIMENSION
  5
269
330
1F
100
AcDbEntity
  8
1
100
AcDbDimension
  2
*D14
 10
335.0000000000001
 20
224.8958318299619
 30
0.0
 11
326.7500000000001
 21
216.8958318299619
 31
0.0
 70
    32
  1
<>
 71
     5
 42
-1.0
 53
90.0
  3
ME10_DIM_13
100
AcDbAlignedDimension
 13
365.0000000000001
 23
208.8958318299619
 33
0.0
 14
382.7958315233128
 24
224.8958318299619
 34
0.0
 50
90.0
100
AcDbRotatedDimension
  0
DIMENSION
  5
276
330
1F
100
AcDbEntity
  8
1
100
AcDbDimension
  2
*D15
 10
390.6170136668835
 20
586.4863555558759
 30
0.0
 11
427.4925402171966
 21
594.7363555558759
 31
0.0
 70
    33
  1
<>
 71
     5
 42
-1.0
 52
120.0
 53
0.00013888888889
  3
ME10_DIM_14
100
AcDbAlignedDimension
 13
408.0
 23
601.4114610364331
 33
0.0
 14
382.0
 24
601.4114610364331
 34
0.0
  0
DIMENSION
  5
282
330
1F
100
AcDbEntity
  8
1
100
AcDbDimension
  2
*D16
 10
235.0
 20
579.329349874663
 30
0.0
 11
308.541246303247
 21
587.579349874663
 31
0.0
 70
    32
  1
42リフト5
 71
     5
 42
-1.0
 53
0.00013888888889
  3
ME10_DIM_15
100
AcDbAlignedDimension
 13
276.5
 23
632.4114610364334
 33
0.0
 14
235.0
 24
601.1614610364331
 34
0.0
100
AcDbRotatedDimension
  0
DIMENSION
  5
28D
330
1F
100
AcDbEntity
  8
1
100
AcDbDimension
  2
*D17
 10
455.0000000000001
 20
636.1614610364333
 30
0.0
 11
446.7500000000001
 21
413.1441354018497
 31
0.0
 70
    32
  1
<>
 71
     5
 42
-1.0
 53
90.0
  3
ME10_DIM_16
100
AcDbAlignedDimension
 13
403.7431114463714
 23
190.1614610364331
 33
0.0
 14
411.0
 24
636.1614610364331
 34
0.0
 50
90.0
100
AcDbRotatedDimension
  0
ENDSEC
  0
SECTION
  2
OBJECTS
  0
DICTIONARY
  5
C
330
0
100
AcDbDictionary
281
     1
  3
ACAD_GROUP
350
D
  3
ACAD_LAYOUT
350
1A
  3
ACAD_MATERIAL
350
3B
  3
ACAD_MLEADERSTYLE
350
290
  3
ACAD_MLINESTYLE
350
17
  3
ACAD_PLOTSETTINGS
350
19
  3
ACAD_PLOTSTYLENAME
350
E
  3
ACAD_VISUALSTYLE
350
2A
  3
AcDbVariableDictionary
350
28E
  0
DICTIONARY
  5
D
102
{ACAD_REACTORS
330
C
102
}
330
C
100
AcDbDictionary
281
     1
  0
DICTIONARY
  5
1A
102
{ACAD_REACTORS
330
C
102
}
330
C
100
AcDbDictionary
281
     1
  3
Layout1
350
1E
  3
Layout2
350
26
  3
Model
350
22
  0
DICTIONARY
  5
3B
102
{ACAD_REACTORS
330
C
102
}
330
C
100
AcDbDictionary
281
     1
  3
ByBlock
350
3D
  3
ByLayer
350
3C
  3
Global
350
3E
  0
DICTIONARY
  5
290
102
{ACAD_REACTORS
330
C
102
}
330
C
100
AcDbDictionary
281
     1
  0
DICTIONARY
  5
17
102
{ACAD_REACTORS
330
C
102
}
330
C
100
AcDbDictionary
281
     1
  3
Standard
350
18
  0
DICTIONARY
  5
19
102
{ACAD_REACTORS
330
C
102
}
330
C
100
AcDbDictionary
281
     1
  0
ACDBDICTIONARYWDFLT
  5
E
102
{ACAD_REACTORS
330
C
102
}
330
C
100
AcDbDictionary
281
     1
  3
Normal
350
F
100
AcDbDictionaryWithDefault
340
F
  0
DICTIONARY
  5
2A
102
{ACAD_REACTORS
330
C
102
}
330
C
100
AcDbDictionary
281
     1
  3
2dWireframe
350
2F
  3
3D Hidden
350
31
  3
3dWireframe
350
30
  3
Basic
350
32
  3
Brighten
350
36
  3
ColorChange
350
3A
  3
Conceptual
350
34
  3
Dim
350
35
  3
Facepattern
350
39
  3
Flat
350
2B
  3
FlatWithEdges
350
2C
  3
Gouraud
350
2D
  3
GouraudWithEdges
350
2E
  3
Linepattern
350
38
  3
Realistic
350
33
  3
Thicken
350
37
  0
DICTIONARY
  5
28E
102
{ACAD_REACTORS
330
C
102
}
330
C
100
AcDbDictionary
281
     1
  3
DIMASSOC
350
291
  3
HIDETEXT
350
292
  0
LAYOUT
  5
1E
102
{ACAD_REACTORS
330
1A
102
}
330
1A
100
AcDbPlotSettings
  1

  2
none_device
  4

  6

 40
0.0
 41
0.0
 42
0.0
 43
0.0
 44
0.0
 45
0.0
 46
0.0
 47
0.0
 48
0.0
 49
0.0
140
0.0
141
0.0
142
1.0
143
1.0
 70
   688
 72
     0
 73
     0
 74
     5
  7

 75
    16
147
1.0
148
0.0
149
0.0
100
AcDbLayout
  1
Layout1
 70
     1
 71
     1
 10
0.0
 20
0.0
 11
12.0
 21
9.0
 12
0.0
 22
0.0
 32
0.0
 14
1.00000000000000E+20
 24
1.00000000000000E+20
 34
1.00000000000000E+20
 15
-1.00000000000000E+20
 25
-1.00000000000000E+20
 35
-1.00000000000000E+20
146
0.0
 13
0.0
 23
0.0
 33
0.0
 16
1.0
 26
0.0
 36
0.0
 17
0.0
 27
1.0
 37
0.0
 76
     0
330
1B
  0
LAYOUT
  5
26
102
{ACAD_REACTORS
330
1A
102
}
330
1A
100
AcDbPlotSettings
  1

  2
none_device
  4

  6

 40
0.0
 41
0.0
 42
0.0
 43
0.0
 44
0.0
 45
0.0
 46
0.0
 47
0.0
 48
0.0
 49
0.0
140
0.0
141
0.0
142
1.0
143
1.0
 70
   688
 72
     0
 73
     0
 74
     5
  7

 75
    16
147
1.0
148
0.0
149
0.0
100
AcDbLayout
  1
Layout2
 70
     1
 71
     2
 10
0.0
 20
0.0
 11
0.0
 21
0.0
 12
0.0
 22
0.0
 32
0.0
 14
0.0
 24
0.0
 34
0.0
 15
0.0
 25
0.0
 35
0.0
146
0.0
 13
0.0
 23
0.0
 33
0.0
 16
1.0
 26
0.0
 36
0.0
 17
0.0
 27
1.0
 37
0.0
 76
     0
330
23
  0
LAYOUT
  5
22
102
{ACAD_REACTORS
330
1A
102
}
330
1A
100
AcDbPlotSettings
  1

  2
none_device
  4

  6

 40
0.0
 41
0.0
 42
0.0
 43
0.0
 44
0.0
 45
0.0
 46
0.0
 47
0.0
 48
0.0
 49
0.0
140
0.0
141
0.0
142
1.0
143
1.0
 70
  1712
 72
     0
 73
     0
 74
     0
  7

 75
     0
147
1.0
148
0.0
149
0.0
100
AcDbLayout
  1
Model
 70
     1
 71
     0
 10
0.0
 20
0.0
 11
12.0
 21
9.0
 12
0.0
 22
0.0
 32
0.0
 14
0.0
 24
0.0
 34
0.0
 15
630.0000000000003
 25
891.0000000000003
 35
0.0
146
0.0
 13
0.0
 23
0.0
 33
0.0
 16
1.0
 26
0.0
 36
0.0
 17
0.0
 27
1.0
 37
0.0
 76
     0
330
1F
331
29
  0
MATERIAL
  5
3D
102
{ACAD_REACTORS
330
3B
102
}
102
{ACAD_XDICTIONARY
360
2B5
102
}
330
3B
100
AcDbMaterial
  1
ByBlock
  0
MATERIAL
  5
3C
102
{ACAD_REACTORS
330
3B
102
}
102
{ACAD_XDICTIONARY
360
2B3
102
}
330
3B
100
AcDbMaterial
  1
ByLayer
  0
MATERIAL
  5
3E
102
{ACAD_REACTORS
330
3B
102
}
102
{ACAD_XDICTIONARY
360
2B7
102
}
330
3B
100
AcDbMaterial
  1
Global
  0
MLINESTYLE
  5
18
102
{ACAD_REACTORS
330
17
102
}
330
17
100
AcDbMlineStyle
  2
Standard
 70
     0
  3

 62
   256
 51
90.0
 52
90.0
 71
     2
 49
0.5
 62
   256
  6
BYLAYER
 49
-0.5
 62
   256
  6
BYLAYER
  0
ACDBPLACEHOLDER
  5
F
102
{ACAD_REACTORS
330
E
102
}
330
E
  0
VISUALSTYLE
  5
2F
102
{ACAD_REACTORS
330
2A
102
}
102
{ACAD_XDICTIONARY
360
29B
102
}
330
2A
100
AcDbVisualStyle
  2
2dWireframe
 70
     4
 71
     0
 72
     2
 73
     0
 90
        0
 40
-0.6
 41
-30.0
 62
     5
 63
     7
 74
     1
 91
        4
 64
     7
 65
   257
 75
     1
175
     1
 42
1.0
 92
        0
 66
   257
 43
1.0
 76
     1
 77
     6
 78
     2
 67
     7
 79
     5
170
     0
171
     0
290
     0
174
     0
 93
        1
 44
0.0
173
     0
291
     0
 45
0.0
1001
ACAD
1000
AcDbSavedByObjectVersion
1070
     0
  0
VISUALSTYLE
  5
31
102
{ACAD_REACTORS
330
2A
102
}
102
{ACAD_XDICTIONARY
360
29F
102
}
330
2A
100
AcDbVisualStyle
  2
3D Hidden
 70
     6
 71
     1
 72
     2
 73
     2
 90
        0
 40
-0.6
 41
-30.0
 62
     5
 63
     7
 74
     2
 91
        2
 64
     7
 65
   257
 75
     2
175
     1
 42
40.0
 92
        0
 66
   257
 43
1.0
 76
     1
 77
     6
 78
     2
 67
     7
 79
     3
170
     0
171
     0
290
     0
174
     0
 93
        1
 44
0.0
173
     0
291
     0
 45
0.0
1001
ACAD
1000
AcDbSavedByObjectVersion
1070
     0
  0
VISUALSTYLE
  5
30
102
{ACAD_REACTORS
330
2A
102
}
102
{ACAD_XDICTIONARY
360
29D
102
}
330
2A
100
AcDbVisualStyle
  2
3dWireframe
 70
     5
 71
     0
 72
     2
 73
     0
 90
        0
 40
-0.6
 41
-30.0
 62
     5
 63
     7
 74
     1
 91
        4
 64
     7
 65
   257
 75
     1
175
     1
 42
1.0
 92
        0
 66
   257
 43
1.0
 76
     1
 77
     6
 78
     2
 67
     7
 79
     5
170
     0
171
     0
290
     0
174
     0
 93
        1
 44
0.0
173
     0
291
     0
 45
0.0
1001
ACAD
1000
AcDbSavedByObjectVersion
1070
     0
  0
VISUALSTYLE
  5
32
102
{ACAD_REACTORS
330
2A
102
}
102
{ACAD_XDICTIONARY
360
2A1
102
}
330
2A
100
AcDbVisualStyle
  2
Basic
 70
     7
 71
     1
 72
     0
 73
     1
 90
        0
 40
-0.6
 41
-30.0
 62
     5
 63
     7
 74
     0
 91
        4
 64
     7
 65
   257
 75
     1
175
     1
 42
1.0
 92
        8
 66
     7
 43
1.0
 76
     1
 77
     6
 78
     2
 67
     7
 79
     5
170
     0
171
     0
290
     0
174
     0
 93
        1
 44
0.0
173
     0
291
     1
 45
0.0
1001
ACAD
1000
AcDbSavedByObjectVersion
1070
     0
  0
VISUALSTYLE
  5
36
102
{ACAD_REACTORS
330
2A
102
}
102
{ACAD_XDICTIONARY
360
2A9
102
}
330
2A
100
AcDbVisualStyle
  2
Brighten
 70
    12
 71
     2
 72
     2
 73
     0
 90
        0
 40
-0.6
 41
-30.0
 62
     5
 63
     7
 74
     1
 91
        4
 64
     7
 65
   257
 75
     1
175
     1
 42
1.0
 92
        8
 66
     7
 43
1.0
 76
     1
 77
     6
 78
     2
 67
     7
 79
     5
170
     0
171
     0
290
     0
174
     0
 93
        1
 44
50.0
173
     0
291
     1
 45
0.0
1001
ACAD
1000
AcDbSavedByObjectVersion
1070
     0
  0
VISUALSTYLE
  5
3A
102
{ACAD_REACTORS
330
2A
102
}
102
{ACAD_XDICTIONARY
360
2B1
102
}
330
2A
100
AcDbVisualStyle
  2
ColorChange
 70
    16
 71
     2
 72
     2
 73
     3
 90
        0
 40
-0.6
 41
-30.0
 62
     5
 63
     8
 74
     1
 91
        4
 64
     7
 65
   257
 75
     1
175
     1
 42
1.0
 92
        8
 66
     8
 43
1.0
 76
     1
 77
     6
 78
     2
 67
     7
 79
     5
170
     0
171
     0
290
     0
174
     0
 93
        1
 44
0.0
173
     0
291
     1
 45
0.0
1001
ACAD
1000
AcDbSavedByObjectVersion
1070
     0
  0
VISUALSTYLE
  5
34
102
{ACAD_REACTORS
330
2A
102
}
102
{ACAD_XDICTIONARY
360
2A5
102
}
330
2A
100
AcDbVisualStyle
  2
Conceptual
 70
     9
 71
     3
 72
     2
 73
     0
 90
        0
 40
-0.6
 41
-30.0
 62
     5
 63
     7
 74
     2
 91
        2
 64
     7
 65
   257
 75
     1
175
     1
 42
40.0
 92
        8
 66
     7
 43
1.0
 76
     1
 77
     6
 78
     2
 67
     7
 79
     3
170
     0
171
     0
290
     0
174
     0
 93
        1
 44
0.0
173
     0
291
     0
 45
0.0
1001
ACAD
1000
AcDbSavedByObjectVersion
1070
     0
  0
VISUALSTYLE
  5
35
102
{ACAD_REACTORS
330
2A
102
}
102
{ACAD_XDICTIONARY
360
2A7
102
}
330
2A
100
AcDbVisualStyle
  2
Dim
 70
    11
 71
     2
 72
     2
 73
     0
 90
        0
 40
-0.6
 41
-30.0
 62
     5
 63
     7
 74
     1
 91
        4
 64
     7
 65
   257
 75
     1
175
     1
 42
1.0
 92
        8
 66
     7
 43
1.0
 76
     1
 77
     6
 78
     2
 67
     7
 79
     5
170
     0
171
     0
290
     0
174
     0
 93
        1
 44
-50.0
173
     0
291
     1
 45
0.0
1001
ACAD
1000
AcDbSavedByObjectVersion
1070
     0
  0
VISUALSTYLE
  5
39
102
{ACAD_REACTORS
330
2A
102
}
102
{ACAD_XDICTIONARY
360
2AF
102
}
330
2A
100
AcDbVisualStyle
  2
Facepattern
 70
    15
 71
     2
 72
     2
 73
     0
 90
        0
 40
-0.6
 41
-30.0
 62
     5
 63
     7
 74
     1
 91
        4
 64
     7
 65
   257
 75
     1
175
     1
 42
1.0
 92
        8
 66
     7
 43
1.0
 76
     1
 77
     6
 78
     2
 67
     7
 79
     5
170
     0
171
     0
290
     0
174
     0
 93
        1
 44
0.0
173
     0
291
     1
 45
0.0
1001
ACAD
1000
AcDbSavedByObjectVersion
1070
     0
  0
VISUALSTYLE
  5
2B
102
{ACAD_REACTORS
330
2A
102
}
102
{ACAD_XDICTIONARY
360
293
102
}
330
2A
100
AcDbVisualStyle
  2
Flat
 70
     0
 71
     2
 72
     1
 73
     1
 90
        2
 40
-0.6
 41
30.0
 62
     5
 63
     7
 74
     0
 91
        4
 64
     7
 65
   257
 75
     1
175
     1
 42
1.0
 92
        8
 66
     7
 43
1.0
 76
     1
 77
     6
 78
     2
 67
     7
 79
     5
170
     0
171
     0
290
     0
174
     0
 93
       13
 44
0.0
173
     0
291
     1
 45
0.0
1001
ACAD
1000
AcDbSavedByObjectVersion
1070
     0
  0
VISUALSTYLE
  5
2C
102
{ACAD_REACTORS
330
2A
102
}
102
{ACAD_XDICTIONARY
360
295
102
}
330
2A
100
AcDbVisualStyle
  2
FlatWithEdges
 70
     1
 71
     2
 72
     1
 73
     1
 90
        2
 40
-0.6
 41
30.0
 62
     5
 63
     7
 74
     1
 91
        4
 64
     7
 65
   257
 75
     1
175
     1
 42
1.0
 92
        0
 66
   257
 43
1.0
 76
     1
 77
     6
 78
     2
 67
     7
 79
     5
170
     0
171
     0
290
     0
174
     0
 93
       13
 44
0.0
173
     0
291
     1
 45
0.0
1001
ACAD
1000
AcDbSavedByObjectVersion
1070
     0
  0
VISUALSTYLE
  5
2D
102
{ACAD_REACTORS
330
2A
102
}
102
{ACAD_XDICTIONARY
360
297
102
}
330
2A
100
AcDbVisualStyle
  2
Gouraud
 70
     2
 71
     2
 72
     2
 73
     1
 90
        2
 40
-0.6
 41
30.0
 62
     5
 63
     7
 74
     0
 91
        4
 64
     7
 65
   257
 75
     1
175
     1
 42
1.0
 92
        0
 66
     7
 43
1.0
 76
     1
 77
     6
 78
     2
 67
     7
 79
     5
170
     0
171
     0
290
     0
174
     0
 93
       13
 44
0.0
173
     0
291
     1
 45
0.0
1001
ACAD
1000
AcDbSavedByObjectVersion
1070
     0
  0
VISUALSTYLE
  5
2E
102
{ACAD_REACTORS
330
2A
102
}
102
{ACAD_XDICTIONARY
360
299
102
}
330
2A
100
AcDbVisualStyle
  2
GouraudWithEdges
 70
     3
 71
     2
 72
     2
 73
     1
 90
        2
 40
-0.6
 41
30.0
 62
     5
 63
     7
 74
     1
 91
        4
 64
     7
 65
   257
 75
     1
175
     1
 42
1.0
 92
        0
 66
   257
 43
1.0
 76
     1
 77
     6
 78
     2
 67
     7
 79
     5
170
     0
171
     0
290
     0
174
     0
 93
       13
 44
0.0
173
     0
291
     1
 45
0.0
1001
ACAD
1000
AcDbSavedByObjectVersion
1070
     0
  0
VISUALSTYLE
  5
38
102
{ACAD_REACTORS
330
2A
102
}
102
{ACAD_XDICTIONARY
360
2AD
102
}
330
2A
100
AcDbVisualStyle
  2
Linepattern
 70
    14
 71
     2
 72
     2
 73
     0
 90
        0
 40
-0.6
 41
-30.0
 62
     5
 63
     7
 74
     1
 91
        4
 64
     7
 65
   257
 75
     7
175
     7
 42
1.0
 92
        8
 66
     7
 43
1.0
 76
     1
 77
     6
 78
     2
 67
     7
 79
     5
170
     0
171
     0
290
     0
174
     0
 93
        1
 44
0.0
173
     0
291
     1
 45
0.0
1001
ACAD
1000
AcDbSavedByObjectVersion
1070
     0
  0
VISUALSTYLE
  5
33
102
{ACAD_REACTORS
330
2A
102
}
102
{ACAD_XDICTIONARY
360
2A3
102
}
330
2A
100
AcDbVisualStyle
  2
Realistic
 70
     8
 71
     2
 72
     2
 73
     0
 90
        0
 40
-0.6
 41
-30.0
 62
     5
 63
     7
 74
     1
 91
        0
 64
     7
 65
   257
 75
     1
175
     1
 42
1.0
 92
        8
 66
     8
 43
1.0
 76
     1
 77
     6
 78
     2
 67
     7
 79
     5
170
     0
171
     0
290
     0
174
     0
 93
       13
 44
0.0
173
     0
291
     0
 45
0.0
1001
ACAD
1000
AcDbSavedByObjectVersion
1070
     0
  0
VISUALSTYLE
  5
37
102
{ACAD_REACTORS
330
2A
102
}
102
{ACAD_XDICTIONARY
360
2AB
102
}
330
2A
100
AcDbVisualStyle
  2
Thicken
 70
    13
 71
     2
 72
     2
 73
     0
 90
        0
 40
-0.6
 41
-30.0
 62
     5
 63
     7
 74
     1
 91
        4
 64
     7
 65
   257
 75
     1
175
     1
 42
1.0
 92
       12
 66
     7
 43
1.0
 76
     1
 77
     6
 78
     2
 67
     7
 79
     5
170
     0
171
     0
290
     0
174
     0
 93
        1
 44
0.0
173
     0
291
     1
 45
0.0
1001
ACAD
1000
AcDbSavedByObjectVersion
1070
     0
  0
DICTIONARYVAR
  5
291
102
{ACAD_REACTORS
330
28E
102
}
330
28E
100
DictionaryVariables
280
     0
  1
2
  0
DICTIONARYVAR
  5
292
102
{ACAD_REACTORS
330
28E
102
}
330
28E
100
DictionaryVariables
280
     0
  1
1
  0
DICTIONARY
  5
2B5
330
3D
100
AcDbDictionary
280
     1
281
     1
  3
ACAD_XREC_ROUNDTRIP
360
2B6
  0
DICTIONARY
  5
2B3
330
3C
100
AcDbDictionary
280
     1
281
     1
  3
ACAD_XREC_ROUNDTRIP
360
2B4
  0
DICTIONARY
  5
2B7
330
3E
100
AcDbDictionary
280
     1
281
     1
  3
ACAD_XREC_ROUNDTRIP
360
2B8
  0
DICTIONARY
  5
29B
330
2F
100
AcDbDictionary
280
     1
281
     1
  3
ACAD_XREC_ROUNDTRIP
360
29C
  0
DICTIONARY
  5
29F
330
31
100
AcDbDictionary
280
     1
281
     1
  3
ACAD_XREC_ROUNDTRIP
360
2A0
  0
DICTIONARY
  5
29D
330
30
100
AcDbDictionary
280
     1
281
     1
  3
ACAD_XREC_ROUNDTRIP
360
29E
  0
DICTIONARY
  5
2A1
330
32
100
AcDbDictionary
280
     1
281
     1
  3
ACAD_XREC_ROUNDTRIP
360
2A2
  0
DICTIONARY
  5
2A9
330
36
100
AcDbDictionary
280
     1
281
     1
  3
ACAD_XREC_ROUNDTRIP
360
2AA
  0
DICTIONARY
  5
2B1
330
3A
100
AcDbDictionary
280
     1
281
     1
  3
ACAD_XREC_ROUNDTRIP
360
2B2
  0
DICTIONARY
  5
2A5
330
34
100
AcDbDictionary
280
     1
281
     1
  3
ACAD_XREC_ROUNDTRIP
360
2A6
  0
DICTIONARY
  5
2A7
330
35
100
AcDbDictionary
280
     1
281
     1
  3
ACAD_XREC_ROUNDTRIP
360
2A8
  0
DICTIONARY
  5
2AF
330
39
100
AcDbDictionary
280
     1
281
     1
  3
ACAD_XREC_ROUNDTRIP
360
2B0
  0
DICTIONARY
  5
293
330
2B
100
AcDbDictionary
280
     1
281
     1
  3
ACAD_XREC_ROUNDTRIP
360
294
  0
DICTIONARY
  5
295
330
2C
100
AcDbDictionary
280
     1
281
     1
  3
ACAD_XREC_ROUNDTRIP
360
296
  0
DICTIONARY
  5
297
330
2D
100
AcDbDictionary
280
     1
281
     1
  3
ACAD_XREC_ROUNDTRIP
360
298
  0
DICTIONARY
  5
299
330
2E
100
AcDbDictionary
280
     1
281
     1
  3
ACAD_XREC_ROUNDTRIP
360
29A
  0
DICTIONARY
  5
2AD
330
38
100
AcDbDictionary
280
     1
281
     1
  3
ACAD_XREC_ROUNDTRIP
360
2AE
  0
DICTIONARY
  5
2A3
330
33
100
AcDbDictionary
280
     1
281
     1
  3
ACAD_XREC_ROUNDTRIP
360
2A4
  0
DICTIONARY
  5
2AB
330
37
100
AcDbDictionary
280
     1
281
     1
  3
ACAD_XREC_ROUNDTRIP
360
2AC
  0
XRECORD
  5
2B6
102
{ACAD_REACTORS
330
2B5
102
}
330
2B5
100
AcDbXrecord
280
     1
102
MATERIAL
148
0.0
149
0.0
149
0.0
 93
        0
 94
      127
282
     0
 72
     1
 77
     1
171
     1
175
     1
179
     1
273
     0
  0
XRECORD
  5
2B4
102
{ACAD_REACTORS
330
2B3
102
}
330
2B3
100
AcDbXrecord
280
     1
102
MATERIAL
148
0.0
149
0.0
149
0.0
 93
        0
 94
      127
282
     0
 72
     1
 77
     1
171
     1
175
     1
179
     1
273
     0
  0
XRECORD
  5
2B8
102
{ACAD_REACTORS
330
2B7
102
}
330
2B7
100
AcDbXrecord
280
     1
102
MATERIAL
148
0.0
149
0.0
149
0.0
 93
        0
 94
      127
282
     0
 72
     1
 77
     1
171
     1
175
     1
179
     1
273
     0
  0
XRECORD
  5
29C
102
{ACAD_REACTORS
330
29B
102
}
330
29B
100
AcDbXrecord
280
     1
102
RTVSPropertyOp0
 70
     1
102
RTVSPropertyOp1
 70
     1
102
RTVSPropertyOp2
 70
     1
102
RTVSPropertyOp3
 70
     1
102
RTVSPropertyOp4
 70
     1
102
RTVSPropertyOp5
 70
     1
102
RTVSPropertyOp6
 70
     1
102
RTVSPropertyOp7
 70
     1
102
RTVSPropertyOp8
 70
     1
102
RTVSPropertyOp9
 70
     1
102
RTVSPropertyOp10
 70
     1
102
RTVSPropertyOp11
 70
     1
102
RTVSPropertyOp12
 70
     1
102
RTVSPropertyOp13
 70
     1
102
RTVSPropertyOp14
 70
     1
102
RTVSPropertyOp15
 70
     1
102
RTVSPropertyOp16
 70
     1
102
RTVSPropertyOp17
 70
     1
102
RTVSPropertyOp18
 70
     1
102
RTVSPropertyOp19
 70
     1
102
RTVSPropertyOp20
 70
     1
102
RTVSPropertyOp21
 70
     1
102
RTVSPropertyOp22
 70
     1
102
RTVSPropertyOp23
 70
     1
102
RTVSPropertyOp24
 70
     1
102
RTVSPropertyOp25
 70
     1
102
RTVSPropertyOp26
 70
     1
102
RTVSPropertyOp27
 70
     1
102
RTVSPropertyOp28
 70
     1
102
RTVSPropertyOp29
 70
     1
102
RTVSPropertyOp30
 70
     1
102
RTVSPropertyOp31
 70
     1
102
RTVSPropertyOp32
 70
     1
  0
XRECORD
  5
2A0
102
{ACAD_REACTORS
330
29F
102
}
330
29F
100
AcDbXrecord
280
     1
102
RTVSPropertyOp0
 70
     1
102
RTVSPropertyOp1
 70
     1
102
RTVSPropertyOp2
 70
     1
102
RTVSPropertyOp3
 70
     1
102
RTVSPropertyOp4
 70
     1
102
RTVSPropertyOp5
 70
     1
102
RTVSPropertyOp6
 70
     1
102
RTVSPropertyOp7
 70
     1
102
RTVSPropertyOp8
 70
     1
102
RTVSPropertyOp9
 70
     1
102
RTVSPropertyOp10
 70
     1
102
RTVSPropertyOp11
 70
     1
102
RTVSPropertyOp12
 70
     1
102
RTVSPropertyOp13
 70
     1
102
RTVSPropertyOp14
 70
     1
102
RTVSPropertyOp15
 70
     1
102
RTVSPropertyOp16
 70
     1
102
RTVSPropertyOp17
 70
     1
102
RTVSPropertyOp18
 70
     1
102
RTVSPropertyOp19
 70
     1
102
RTVSPropertyOp20
 70
     1
102
RTVSPropertyOp21
 70
     1
102
RTVSPropertyOp22
 70
     1
102
RTVSPropertyOp23
 70
     1
102
RTVSPropertyOp24
 70
     1
102
RTVSPropertyOp25
 70
     1
102
RTVSPropertyOp26
 70
     1
102
RTVSPropertyOp27
 70
     1
102
RTVSPropertyOp28
 70
     1
102
RTVSPropertyOp29
 70
     1
102
RTVSPropertyOp30
 70
     1
102
RTVSPropertyOp31
 70
     1
102
RTVSPropertyOp32
 70
     1
  0
XRECORD
  5
29E
102
{ACAD_REACTORS
330
29D
102
}
330
29D
100
AcDbXrecord
280
     1
102
RTVSPropertyOp0
 70
     1
102
RTVSPropertyOp1
 70
     1
102
RTVSPropertyOp2
 70
     1
102
RTVSPropertyOp3
 70
     1
102
RTVSPropertyOp4
 70
     1
102
RTVSPropertyOp5
 70
     1
102
RTVSPropertyOp6
 70
     1
102
RTVSPropertyOp7
 70
     1
102
RTVSPropertyOp8
 70
     1
102
RTVSPropertyOp9
 70
     1
102
RTVSPropertyOp10
 70
     1
102
RTVSPropertyOp11
 70
     1
102
RTVSPropertyOp12
 70
     1
102
RTVSPropertyOp13
 70
     1
102
RTVSPropertyOp14
 70
     1
102
RTVSPropertyOp15
 70
     1
102
RTVSPropertyOp16
 70
     1
102
RTVSPropertyOp17
 70
     1
102
RTVSPropertyOp18
 70
     1
102
RTVSPropertyOp19
 70
     1
102
RTVSPropertyOp20
 70
     1
102
RTVSPropertyOp21
 70
     1
102
RTVSPropertyOp22
 70
     1
102
RTVSPropertyOp23
 70
     1
102
RTVSPropertyOp24
 70
     1
102
RTVSPropertyOp25
 70
     1
102
RTVSPropertyOp26
 70
     1
102
RTVSPropertyOp27
 70
     1
102
RTVSPropertyOp28
 70
     1
102
RTVSPropertyOp29
 70
     1
102
RTVSPropertyOp30
 70
     1
102
RTVSPropertyOp31
 70
     1
102
RTVSPropertyOp32
 70
     1
  0
XRECORD
  5
2A2
102
{ACAD_REACTORS
330
2A1
102
}
330
2A1
100
AcDbXrecord
280
     1
102
RTVSPropertyOp0
 70
     1
102
RTVSPropertyOp1
 70
     1
102
RTVSPropertyOp2
 70
     1
102
RTVSPropertyOp3
 70
     1
102
RTVSPropertyOp4
 70
     1
102
RTVSPropertyOp5
 70
     1
102
RTVSPropertyOp6
 70
     1
102
RTVSPropertyOp7
 70
     1
102
RTVSPropertyOp8
 70
     1
102
RTVSPropertyOp9
 70
     1
102
RTVSPropertyOp10
 70
     1
102
RTVSPropertyOp11
 70
     1
102
RTVSPropertyOp12
 70
     1
102
RTVSPropertyOp13
 70
     1
102
RTVSPropertyOp14
 70
     1
102
RTVSPropertyOp15
 70
     1
102
RTVSPropertyOp16
 70
     1
102
RTVSPropertyOp17
 70
     1
102
RTVSPropertyOp18
 70
     1
102
RTVSPropertyOp19
 70
     1
102
RTVSPropertyOp20
 70
     1
102
RTVSPropertyOp21
 70
     1
102
RTVSPropertyOp22
 70
     1
102
RTVSPropertyOp23
 70
     1
102
RTVSPropertyOp24
 70
     1
102
RTVSPropertyOp25
 70
     1
102
RTVSPropertyOp26
 70
     1
102
RTVSPropertyOp27
 70
     1
102
RTVSPropertyOp28
 70
     1
102
RTVSPropertyOp29
 70
     1
102
RTVSPropertyOp30
 70
     1
102
RTVSPropertyOp31
 70
     1
102
RTVSPropertyOp32
 70
     1
  0
XRECORD
  5
2AA
102
{ACAD_REACTORS
330
2A9
102
}
330
2A9
100
AcDbXrecord
280
     1
102
RTVSPropertyOp0
 70
     1
102
RTVSPropertyOp1
 70
     1
102
RTVSPropertyOp2
 70
     1
102
RTVSPropertyOp3
 70
     1
102
RTVSPropertyOp4
 70
     1
102
RTVSPropertyOp5
 70
     1
102
RTVSPropertyOp6
 70
     1
102
RTVSPropertyOp7
 70
     1
102
RTVSPropertyOp8
 70
     1
102
RTVSPropertyOp9
 70
     1
102
RTVSPropertyOp10
 70
     1
102
RTVSPropertyOp11
 70
     1
102
RTVSPropertyOp12
 70
     1
102
RTVSPropertyOp13
 70
     1
102
RTVSPropertyOp14
 70
     1
102
RTVSPropertyOp15
 70
     1
102
RTVSPropertyOp16
 70
     1
102
RTVSPropertyOp17
 70
     1
102
RTVSPropertyOp18
 70
     1
102
RTVSPropertyOp19
 70
     1
102
RTVSPropertyOp20
 70
     1
102
RTVSPropertyOp21
 70
     1
102
RTVSPropertyOp22
 70
     1
102
RTVSPropertyOp23
 70
     1
102
RTVSPropertyOp24
 70
     1
102
RTVSPropertyOp25
 70
     1
102
RTVSPropertyOp26
 70
     1
102
RTVSPropertyOp27
 70
     1
102
RTVSPropertyOp28
 70
     1
102
RTVSPropertyOp29
 70
     1
102
RTVSPropertyOp30
 70
     1
102
RTVSPropertyOp31
 70
     1
102
RTVSPropertyOp32
 70
     1
  0
XRECORD
  5
2B2
102
{ACAD_REACTORS
330
2B1
102
}
330
2B1
100
AcDbXrecord
280
     1
102
RTVSPropertyOp0
 70
     1
102
RTVSPropertyOp1
 70
     1
102
RTVSPropertyOp2
 70
     1
102
RTVSPropertyOp3
 70
     1
102
RTVSPropertyOp4
 70
     1
102
RTVSPropertyOp5
 70
     1
102
RTVSPropertyOp6
 70
     1
102
RTVSPropertyOp7
 70
     1
102
RTVSPropertyOp8
 70
     1
102
RTVSPropertyOp9
 70
     1
102
RTVSPropertyOp10
 70
     1
102
RTVSPropertyOp11
 70
     1
102
RTVSPropertyOp12
 70
     1
102
RTVSPropertyOp13
 70
     1
102
RTVSPropertyOp14
 70
     1
102
RTVSPropertyOp15
 70
     1
102
RTVSPropertyOp16
 70
     1
102
RTVSPropertyOp17
 70
     1
102
RTVSPropertyOp18
 70
     1
102
RTVSPropertyOp19
 70
     1
102
RTVSPropertyOp20
 70
     1
102
RTVSPropertyOp21
 70
     1
102
RTVSPropertyOp22
 70
     1
102
RTVSPropertyOp23
 70
     1
102
RTVSPropertyOp24
 70
     1
102
RTVSPropertyOp25
 70
     1
102
RTVSPropertyOp26
 70
     1
102
RTVSPropertyOp27
 70
     1
102
RTVSPropertyOp28
 70
     1
102
RTVSPropertyOp29
 70
     1
102
RTVSPropertyOp30
 70
     1
102
RTVSPropertyOp31
 70
     1
102
RTVSPropertyOp32
 70
     1
  0
XRECORD
  5
2A6
102
{ACAD_REACTORS
330
2A5
102
}
330
2A5
100
AcDbXrecord
280
     1
102
RTVSPropertyOp0
 70
     1
102
RTVSPropertyOp1
 70
     1
102
RTVSPropertyOp2
 70
     1
102
RTVSPropertyOp3
 70
     1
102
RTVSPropertyOp4
 70
     1
102
RTVSPropertyOp5
 70
     1
102
RTVSPropertyOp6
 70
     1
102
RTVSPropertyOp7
 70
     1
102
RTVSPropertyOp8
 70
     1
102
RTVSPropertyOp9
 70
     1
102
RTVSPropertyOp10
 70
     1
102
RTVSPropertyOp11
 70
     1
102
RTVSPropertyOp12
 70
     1
102
RTVSPropertyOp13
 70
     1
102
RTVSPropertyOp14
 70
     1
102
RTVSPropertyOp15
 70
     1
102
RTVSPropertyOp16
 70
     1
102
RTVSPropertyOp17
 70
     1
102
RTVSPropertyOp18
 70
     1
102
RTVSPropertyOp19
 70
     1
102
RTVSPropertyOp20
 70
     1
102
RTVSPropertyOp21
 70
     1
102
RTVSPropertyOp22
 70
     1
102
RTVSPropertyOp23
 70
     1
102
RTVSPropertyOp24
 70
     1
102
RTVSPropertyOp25
 70
     1
102
RTVSPropertyOp26
 70
     1
102
RTVSPropertyOp27
 70
     1
102
RTVSPropertyOp28
 70
     1
102
RTVSPropertyOp29
 70
     1
102
RTVSPropertyOp30
 70
     1
102
RTVSPropertyOp31
 70
     1
102
RTVSPropertyOp32
 70
     1
  0
XRECORD
  5
2A8
102
{ACAD_REACTORS
330
2A7
102
}
330
2A7
100
AcDbXrecord
280
     1
102
RTVSPropertyOp0
 70
     1
102
RTVSPropertyOp1
 70
     1
102
RTVSPropertyOp2
 70
     1
102
RTVSPropertyOp3
 70
     1
102
RTVSPropertyOp4
 70
     1
102
RTVSPropertyOp5
 70
     1
102
RTVSPropertyOp6
 70
     1
102
RTVSPropertyOp7
 70
     1
102
RTVSPropertyOp8
 70
     1
102
RTVSPropertyOp9
 70
     1
102
RTVSPropertyOp10
 70
     1
102
RTVSPropertyOp11
 70
     1
102
RTVSPropertyOp12
 70
     1
102
RTVSPropertyOp13
 70
     1
102
RTVSPropertyOp14
 70
     1
102
RTVSPropertyOp15
 70
     1
102
RTVSPropertyOp16
 70
     1
102
RTVSPropertyOp17
 70
     1
102
RTVSPropertyOp18
 70
     1
102
RTVSPropertyOp19
 70
     1
102
RTVSPropertyOp20
 70
     1
102
RTVSPropertyOp21
 70
     1
102
RTVSPropertyOp22
 70
     1
102
RTVSPropertyOp23
 70
     1
102
RTVSPropertyOp24
 70
     1
102
RTVSPropertyOp25
 70
     1
102
RTVSPropertyOp26
 70
     1
102
RTVSPropertyOp27
 70
     1
102
RTVSPropertyOp28
 70
     1
102
RTVSPropertyOp29
 70
     1
102
RTVSPropertyOp30
 70
     1
102
RTVSPropertyOp31
 70
     1
102
RTVSPropertyOp32
 70
     1
  0
XRECORD
  5
2B0
102
{ACAD_REACTORS
330
2AF
102
}
330
2AF
100
AcDbXrecord
280
     1
102
RTVSPropertyOp0
 70
     1
102
RTVSPropertyOp1
 70
     1
102
RTVSPropertyOp2
 70
     1
102
RTVSPropertyOp3
 70
     1
102
RTVSPropertyOp4
 70
     1
102
RTVSPropertyOp5
 70
     1
102
RTVSPropertyOp6
 70
     1
102
RTVSPropertyOp7
 70
     1
102
RTVSPropertyOp8
 70
     1
102
RTVSPropertyOp9
 70
     1
102
RTVSPropertyOp10
 70
     1
102
RTVSPropertyOp11
 70
     1
102
RTVSPropertyOp12
 70
     1
102
RTVSPropertyOp13
 70
     1
102
RTVSPropertyOp14
 70
     1
102
RTVSPropertyOp15
 70
     1
102
RTVSPropertyOp16
 70
     1
102
RTVSPropertyOp17
 70
     1
102
RTVSPropertyOp18
 70
     1
102
RTVSPropertyOp19
 70
     1
102
RTVSPropertyOp20
 70
     1
102
RTVSPropertyOp21
 70
     1
102
RTVSPropertyOp22
 70
     1
102
RTVSPropertyOp23
 70
     1
102
RTVSPropertyOp24
 70
     1
102
RTVSPropertyOp25
 70
     1
102
RTVSPropertyOp26
 70
     1
102
RTVSPropertyOp27
 70
     1
102
RTVSPropertyOp28
 70
     1
102
RTVSPropertyOp29
 70
     1
102
RTVSPropertyOp30
 70
     1
102
RTVSPropertyOp31
 70
     1
102
RTVSPropertyOp32
 70
     1
  0
XRECORD
  5
294
102
{ACAD_REACTORS
330
293
102
}
330
293
100
AcDbXrecord
280
     1
102
RTVSPropertyOp0
 70
     1
102
RTVSPropertyOp1
 70
     1
102
RTVSPropertyOp2
 70
     1
102
RTVSPropertyOp3
 70
     1
102
RTVSPropertyOp4
 70
     1
102
RTVSPropertyOp5
 70
     1
102
RTVSPropertyOp6
 70
     1
102
RTVSPropertyOp7
 70
     1
102
RTVSPropertyOp8
 70
     1
102
RTVSPropertyOp9
 70
     1
102
RTVSPropertyOp10
 70
     1
102
RTVSPropertyOp11
 70
     1
102
RTVSPropertyOp12
 70
     1
102
RTVSPropertyOp13
 70
     1
102
RTVSPropertyOp14
 70
     1
102
RTVSPropertyOp15
 70
     1
102
RTVSPropertyOp16
 70
     1
102
RTVSPropertyOp17
 70
     1
102
RTVSPropertyOp18
 70
     1
102
RTVSPropertyOp19
 70
     1
102
RTVSPropertyOp20
 70
     1
102
RTVSPropertyOp21
 70
     1
102
RTVSPropertyOp22
 70
     1
102
RTVSPropertyOp23
 70
     1
102
RTVSPropertyOp24
 70
     1
102
RTVSPropertyOp25
 70
     1
102
RTVSPropertyOp26
 70
     1
102
RTVSPropertyOp27
 70
     1
102
RTVSPropertyOp28
 70
     1
102
RTVSPropertyOp29
 70
     1
102
RTVSPropertyOp30
 70
     1
102
RTVSPropertyOp31
 70
     1
102
RTVSPropertyOp32
 70
     1
  0
XRECORD
  5
296
102
{ACAD_REACTORS
330
295
102
}
330
295
100
AcDbXrecord
280
     1
102
RTVSPropertyOp0
 70
     1
102
RTVSPropertyOp1
 70
     1
102
RTVSPropertyOp2
 70
     1
102
RTVSPropertyOp3
 70
     1
102
RTVSPropertyOp4
 70
     1
102
RTVSPropertyOp5
 70
     1
102
RTVSPropertyOp6
 70
     1
102
RTVSPropertyOp7
 70
     1
102
RTVSPropertyOp8
 70
     1
102
RTVSPropertyOp9
 70
     1
102
RTVSPropertyOp10
 70
     1
102
RTVSPropertyOp11
 70
     1
102
RTVSPropertyOp12
 70
     1
102
RTVSPropertyOp13
 70
     1
102
RTVSPropertyOp14
 70
     1
102
RTVSPropertyOp15
 70
     1
102
RTVSPropertyOp16
 70
     1
102
RTVSPropertyOp17
 70
     1
102
RTVSPropertyOp18
 70
     1
102
RTVSPropertyOp19
 70
     1
102
RTVSPropertyOp20
 70
     1
102
RTVSPropertyOp21
 70
     1
102
RTVSPropertyOp22
 70
     1
102
RTVSPropertyOp23
 70
     1
102
RTVSPropertyOp24
 70
     1
102
RTVSPropertyOp25
 70
     1
102
RTVSPropertyOp26
 70
     1
102
RTVSPropertyOp27
 70
     1
102
RTVSPropertyOp28
 70
     1
102
RTVSPropertyOp29
 70
     1
102
RTVSPropertyOp30
 70
     1
102
RTVSPropertyOp31
 70
     1
102
RTVSPropertyOp32
 70
     1
  0
XRECORD
  5
298
102
{ACAD_REACTORS
330
297
102
}
330
297
100
AcDbXrecord
280
     1
102
RTVSPropertyOp0
 70
     1
102
RTVSPropertyOp1
 70
     1
102
RTVSPropertyOp2
 70
     1
102
RTVSPropertyOp3
 70
     1
102
RTVSPropertyOp4
 70
     1
102
RTVSPropertyOp5
 70
     1
102
RTVSPropertyOp6
 70
     1
102
RTVSPropertyOp7
 70
     1
102
RTVSPropertyOp8
 70
     1
102
RTVSPropertyOp9
 70
     1
102
RTVSPropertyOp10
 70
     1
102
RTVSPropertyOp11
 70
     1
102
RTVSPropertyOp12
 70
     1
102
RTVSPropertyOp13
 70
     1
102
RTVSPropertyOp14
 70
     1
102
RTVSPropertyOp15
 70
     1
102
RTVSPropertyOp16
 70
     1
102
RTVSPropertyOp17
 70
     1
102
RTVSPropertyOp18
 70
     1
102
RTVSPropertyOp19
 70
     1
102
RTVSPropertyOp20
 70
     1
102
RTVSPropertyOp21
 70
     1
102
RTVSPropertyOp22
 70
     1
102
RTVSPropertyOp23
 70
     1
102
RTVSPropertyOp24
 70
     1
102
RTVSPropertyOp25
 70
     1
102
RTVSPropertyOp26
 70
     1
102
RTVSPropertyOp27
 70
     1
102
RTVSPropertyOp28
 70
     1
102
RTVSPropertyOp29
 70
     1
102
RTVSPropertyOp30
 70
     1
102
RTVSPropertyOp31
 70
     1
102
RTVSPropertyOp32
 70
     1
  0
XRECORD
  5
29A
102
{ACAD_REACTORS
330
299
102
}
330
299
100
AcDbXrecord
280
     1
102
RTVSPropertyOp0
 70
     1
102
RTVSPropertyOp1
 70
     1
102
RTVSPropertyOp2
 70
     1
102
RTVSPropertyOp3
 70
     1
102
RTVSPropertyOp4
 70
     1
102
RTVSPropertyOp5
 70
     1
102
RTVSPropertyOp6
 70
     1
102
RTVSPropertyOp7
 70
     1
102
RTVSPropertyOp8
 70
     1
102
RTVSPropertyOp9
 70
     1
102
RTVSPropertyOp10
 70
     1
102
RTVSPropertyOp11
 70
     1
102
RTVSPropertyOp12
 70
     1
102
RTVSPropertyOp13
 70
     1
102
RTVSPropertyOp14
 70
     1
102
RTVSPropertyOp15
 70
     1
102
RTVSPropertyOp16
 70
     1
102
RTVSPropertyOp17
 70
     1
102
RTVSPropertyOp18
 70
     1
102
RTVSPropertyOp19
 70
     1
102
RTVSPropertyOp20
 70
     1
102
RTVSPropertyOp21
 70
     1
102
RTVSPropertyOp22
 70
     1
102
RTVSPropertyOp23
 70
     1
102
RTVSPropertyOp24
 70
     1
102
RTVSPropertyOp25
 70
     1
102
RTVSPropertyOp26
 70
     1
102
RTVSPropertyOp27
 70
     1
102
RTVSPropertyOp28
 70
     1
102
RTVSPropertyOp29
 70
     1
102
RTVSPropertyOp30
 70
     1
102
RTVSPropertyOp31
 70
     1
102
RTVSPropertyOp32
 70
     1
  0
XRECORD
  5
2AE
102
{ACAD_REACTORS
330
2AD
102
}
330
2AD
100
AcDbXrecord
280
     1
102
RTVSPropertyOp0
 70
     1
102
RTVSPropertyOp1
 70
     1
102
RTVSPropertyOp2
 70
     1
102
RTVSPropertyOp3
 70
     1
102
RTVSPropertyOp4
 70
     1
102
RTVSPropertyOp5
 70
     1
102
RTVSPropertyOp6
 70
     1
102
RTVSPropertyOp7
 70
     1
102
RTVSPropertyOp8
 70
     1
102
RTVSPropertyOp9
 70
     1
102
RTVSPropertyOp10
 70
     1
102
RTVSPropertyOp11
 70
     1
102
RTVSPropertyOp12
 70
     1
102
RTVSPropertyOp13
 70
     1
102
RTVSPropertyOp14
 70
     1
102
RTVSPropertyOp15
 70
     1
102
RTVSPropertyOp16
 70
     1
102
RTVSPropertyOp17
 70
     1
102
RTVSPropertyOp18
 70
     1
102
RTVSPropertyOp19
 70
     1
102
RTVSPropertyOp20
 70
     1
102
RTVSPropertyOp21
 70
     1
102
RTVSPropertyOp22
 70
     1
102
RTVSPropertyOp23
 70
     1
102
RTVSPropertyOp24
 70
     1
102
RTVSPropertyOp25
 70
     1
102
RTVSPropertyOp26
 70
     1
102
RTVSPropertyOp27
 70
     1
102
RTVSPropertyOp28
 70
     1
102
RTVSPropertyOp29
 70
     1
102
RTVSPropertyOp30
 70
     1
102
RTVSPropertyOp31
 70
     1
102
RTVSPropertyOp32
 70
     1
  0
XRECORD
  5
2A4
102
{ACAD_REACTORS
330
2A3
102
}
330
2A3
100
AcDbXrecord
280
     1
102
RTVSPropertyOp0
 70
     1
102
RTVSPropertyOp1
 70
     1
102
RTVSPropertyOp2
 70
     1
102
RTVSPropertyOp3
 70
     1
102
RTVSPropertyOp4
 70
     1
102
RTVSPropertyOp5
 70
     1
102
RTVSPropertyOp6
 70
     1
102
RTVSPropertyOp7
 70
     1
102
RTVSPropertyOp8
 70
     1
102
RTVSPropertyOp9
 70
     1
102
RTVSPropertyOp10
 70
     1
102
RTVSPropertyOp11
 70
     1
102
RTVSPropertyOp12
 70
     1
102
RTVSPropertyOp13
 70
     1
102
RTVSPropertyOp14
 70
     1
102
RTVSPropertyOp15
 70
     1
102
RTVSPropertyOp16
 70
     1
102
RTVSPropertyOp17
 70
     1
102
RTVSPropertyOp18
 70
     1
102
RTVSPropertyOp19
 70
     1
102
RTVSPropertyOp20
 70
     1
102
RTVSPropertyOp21
 70
     1
102
RTVSPropertyOp22
 70
     1
102
RTVSPropertyOp23
 70
     1
102
RTVSPropertyOp24
 70
     1
102
RTVSPropertyOp25
 70
     1
102
RTVSPropertyOp26
 70
     1
102
RTVSPropertyOp27
 70
     1
102
RTVSPropertyOp28
 70
     1
102
RTVSPropertyOp29
 70
     1
102
RTVSPropertyOp30
 70
     1
102
RTVSPropertyOp31
 70
     1
102
RTVSPropertyOp32
 70
     1
  0
XRECORD
  5
2AC
102
{ACAD_REACTORS
330
2AB
102
}
330
2AB
100
AcDbXrecord
280
     1
102
RTVSPropertyOp0
 70
     1
102
RTVSPropertyOp1
 70
     1
102
RTVSPropertyOp2
 70
     1
102
RTVSPropertyOp3
 70
     1
102
RTVSPropertyOp4
 70
     1
102
RTVSPropertyOp5
 70
     1
102
RTVSPropertyOp6
 70
     1
102
RTVSPropertyOp7
 70
     1
102
RTVSPropertyOp8
 70
     1
102
RTVSPropertyOp9
 70
     1
102
RTVSPropertyOp10
 70
     1
102
RTVSPropertyOp11
 70
     1
102
RTVSPropertyOp12
 70
     1
102
RTVSPropertyOp13
 70
     1
102
RTVSPropertyOp14
 70
     1
102
RTVSPropertyOp15
 70
     1
102
RTVSPropertyOp16
 70
     1
102
RTVSPropertyOp17
 70
     1
102
RTVSPropertyOp18
 70
     1
102
RTVSPropertyOp19
 70
     1
102
RTVSPropertyOp20
 70
     1
102
RTVSPropertyOp21
 70
     1
102
RTVSPropertyOp22
 70
     1
102
RTVSPropertyOp23
 70
     1
102
RTVSPropertyOp24
 70
     1
102
RTVSPropertyOp25
 70
     1
102
RTVSPropertyOp26
 70
     1
102
RTVSPropertyOp27
 70
     1
102
RTVSPropertyOp28
 70
     1
102
RTVSPropertyOp29
 70
     1
102
RTVSPropertyOp30
 70
     1
102
RTVSPropertyOp31
 70
     1
102
RTVSPropertyOp32
 70
     1
  0
ENDSEC
  0
EOF
