  0
SECTION
  2
HEADER
  9
$ACADVER
  1
AC1015
  9
$ACADMAINTVER
 70
     6
  9
$DWGCODEPAGE
  3
DOS932
  9
$INSBASE
 10
0.0
 20
0.0
 30
0.0
  9
$EXTMIN
 10
0.0
 20
0.0
 30
0.0
  9
$EXTMAX
 10
420.0
 20
594.0
 30
0.0
  9
$LIMMIN
 10
0.0
 20
0.0
  9
$LIMMAX
 10
12.0
 20
9.0
  9
$ORTHOMODE
 70
     0
  9
$REGENMODE
 70
     1
  9
$FILLMODE
 70
     1
  9
$QTEXTMODE
 70
     0
  9
$MIRRTEXT
 70
     1
  9
$LTSCALE
 40
1.0
  9
$ATTMODE
 70
     1
  9
$TEXTSIZE
 40
0.2
  9
$TRACEWID
 40
0.05
  9
$TEXTSTYLE
  7
Standard
  9
$CLAYER
  8
0
  9
$CELTYPE
  6
ByLayer
  9
$CECOLOR
 62
   256
  9
$CELTSCALE
 40
1.0
  9
$DISPSILH
 70
     0
  9
$DIMSCALE
 40
1.0
  9
$DIMASZ
 40
0.18
  9
$DIMEXO
 40
0.0625
  9
$DIMDLI
 40
0.38
  9
$DIMRND
 40
0.0
  9
$DIMDLE
 40
0.0
  9
$DIMEXE
 40
0.18
  9
$DIMTP
 40
0.0
  9
$DIMTM
 40
0.0
  9
$DIMTXT
 40
0.18
  9
$DIMCEN
 40
0.09
  9
$DIMTSZ
 40
0.0
  9
$DIMTOL
 70
     0
  9
$DIMLIM
 70
     0
  9
$DIMTIH
 70
     1
  9
$DIMTOH
 70
     1
  9
$DIMSE1
 70
     0
  9
$DIMSE2
 70
     0
  9
$DIMTAD
 70
     0
  9
$DIMZIN
 70
     0
  9
$DIMBLK
  1

  9
$DIMASO
 70
     1
  9
$DIMSHO
 70
     1
  9
$DIMPOST
  1

  9
$DIMAPOST
  1

  9
$DIMALT
 70
     0
  9
$DIMALTD
 70
     2
  9
$DIMALTF
 40
25.4
  9
$DIMLFAC
 40
1.0
  9
$DIMTOFL
 70
     0
  9
$DIMTVP
 40
0.0
  9
$DIMTIX
 70
     0
  9
$DIMSOXD
 70
     0
  9
$DIMSAH
 70
     0
  9
$DIMBLK1
  1

  9
$DIMBLK2
  1

  9
$DIMSTYLE
  2
Standard
  9
$DIMCLRD
 70
     0
  9
$DIMCLRE
 70
     0
  9
$DIMCLRT
 70
     0
  9
$DIMTFAC
 40
1.0
  9
$DIMGAP
 40
0.09
  9
$DIMJUST
 70
     0
  9
$DIMSD1
 70
     0
  9
$DIMSD2
 70
     0
  9
$DIMTOLJ
 70
     1
  9
$DIMTZIN
 70
     0
  9
$DIMALTZ
 70
     0
  9
$DIMALTTZ
 70
     0
  9
$DIMUPT
 70
     0
  9
$DIMDEC
 70
     4
  9
$DIMTDEC
 70
     4
  9
$DIMALTU
 70
     2
  9
$DIMALTTD
 70
     2
  9
$DIMTXSTY
  7
Standard
  9
$DIMAUNIT
 70
     0
  9
$DIMADEC
 70
     0
  9
$DIMALTRND
 40
0.0
  9
$DIMAZIN
 70
     0
  9
$DIMDSEP
 70
    46
  9
$DIMATFIT
 70
     3
  9
$DIMFRAC
 70
     0
  9
$DIMLDRBLK
  1

  9
$DIMLUNIT
 70
     2
  9
$DIMLWD
 70
    -2
  9
$DIMLWE
 70
    -2
  9
$DIMTMOVE
 70
     0
  9
$LUNITS
 70
     2
  9
$LUPREC
 70
     4
  9
$SKETCHINC
 40
0.1
  9
$FILLETRAD
 40
0.5
  9
$AUNITS
 70
     0
  9
$AUPREC
 70
     0
  9
$MENU
  1
.
  9
$ELEVATION
 40
0.0
  9
$PELEVATION
 40
0.0
  9
$THICKNESS
 40
0.0
  9
$LIMCHECK
 70
     0
  9
$CHAMFERA
 40
0.5
  9
$CHAMFERB
 40
0.5
  9
$CHAMFERC
 40
1.0
  9
$CHAMFERD
 40
0.0
  9
$SKPOLY
 70
     0
  9
$TDCREATE
 40
2456142.69255787
  9
$TDUCREATE
 40
2456142.31755787
  9
$TDUPDATE
 40
2456142.692557882
  9
$TDUUPDATE
 40
2456142.317557882
  9
$TDINDWG
 40
0.0000000116
  9
$TDUSRTIMER
 40
0.0000000116
  9
$USRTIMER
 70
     1
  9
$ANGBASE
 50
0.0
  9
$ANGDIR
 70
     0
  9
$PDMODE
 70
     0
  9
$PDSIZE
 40
0.0
  9
$PLINEWID
 40
0.0
  9
$SPLFRAME
 70
     0
  9
$SPLINETYPE
 70
     6
  9
$SPLINESEGS
 70
     8
  9
$HANDSEED
  5
332
  9
$SURFTAB1
 70
     6
  9
$SURFTAB2
 70
     6
  9
$SURFTYPE
 70
     6
  9
$SURFU
 70
     6
  9
$SURFV
 70
     6
  9
$UCSBASE
  2

  9
$UCSNAME
  2

  9
$UCSORG
 10
0.0
 20
0.0
 30
0.0
  9
$UCSXDIR
 10
1.0
 20
0.0
 30
0.0
  9
$UCSYDIR
 10
0.0
 20
1.0
 30
0.0
  9
$UCSORTHOREF
  2

  9
$UCSORTHOVIEW
 70
     0
  9
$UCSORGTOP
 10
0.0
 20
0.0
 30
0.0
  9
$UCSORGBOTTOM
 10
0.0
 20
0.0
 30
0.0
  9
$UCSORGLEFT
 10
0.0
 20
0.0
 30
0.0
  9
$UCSORGRIGHT
 10
0.0
 20
0.0
 30
0.0
  9
$UCSORGFRONT
 10
0.0
 20
0.0
 30
0.0
  9
$UCSORGBACK
 10
0.0
 20
0.0
 30
0.0
  9
$PUCSBASE
  2

  9
$PUCSNAME
  2

  9
$PUCSORG
 10
0.0
 20
0.0
 30
0.0
  9
$PUCSXDIR
 10
1.0
 20
0.0
 30
0.0
  9
$PUCSYDIR
 10
0.0
 20
1.0
 30
0.0
  9
$PUCSORTHOREF
  2

  9
$PUCSORTHOVIEW
 70
     0
  9
$PUCSORGTOP
 10
0.0
 20
0.0
 30
0.0
  9
$PUCSORGBOTTOM
 10
0.0
 20
0.0
 30
0.0
  9
$PUCSORGLEFT
 10
0.0
 20
0.0
 30
0.0
  9
$PUCSORGRIGHT
 10
0.0
 20
0.0
 30
0.0
  9
$PUCSORGFRONT
 10
0.0
 20
0.0
 30
0.0
  9
$PUCSORGBACK
 10
0.0
 20
0.0
 30
0.0
  9
$USERI1
 70
     0
  9
$USERI2
 70
     0
  9
$USERI3
 70
     0
  9
$USERI4
 70
     0
  9
$USERI5
 70
     0
  9
$USERR1
 40
13.2
  9
$USERR2
 40
0.0
  9
$USERR3
 40
0.0
  9
$USERR4
 40
0.0
  9
$USERR5
 40
0.0
  9
$WORLDVIEW
 70
     1
  9
$SHADEDGE
 70
     3
  9
$SHADEDIF
 70
    70
  9
$TILEMODE
 70
     1
  9
$MAXACTVP
 70
    64
  9
$PINSBASE
 10
0.0
 20
0.0
 30
0.0
  9
$PLIMCHECK
 70
     0
  9
$PEXTMIN
 10
1.00000000000000E+20
 20
1.00000000000000E+20
 30
1.00000000000000E+20
  9
$PEXTMAX
 10
-1.00000000000000E+20
 20
-1.00000000000000E+20
 30
-1.00000000000000E+20
  9
$PLIMMIN
 10
0.0
 20
0.0
  9
$PLIMMAX
 10
12.0
 20
9.0
  9
$UNITMODE
 70
     0
  9
$VISRETAIN
 70
     1
  9
$PLINEGEN
 70
     0
  9
$PSLTSCALE
 70
     1
  9
$TREEDEPTH
 70
  3020
  9
$CMLSTYLE
  2
Standard
  9
$CMLJUST
 70
     0
  9
$CMLSCALE
 40
1.0
  9
$PROXYGRAPHICS
 70
     1
  9
$MEASUREMENT
 70
     1
  9
$CELWEIGHT
370
    -1
  9
$ENDCAPS
280
     0
  9
$JOINSTYLE
280
     0
  9
$LWDISPLAY
290
     0
  9
$INSUNITS
 70
     1
  9
$HYPERLINKBASE
  1

  9
$STYLESHEET
  1

  9
$XEDIT
290
     1
  9
$CEPSNTYPE
380
     0
  9
$PSTYLEMODE
290
     0
  9
$FINGERPRINTGUID
  2
{FAEB1C30-E019-11D5-929B-00C0DF256EC4}
  9
$VERSIONGUID
  2
{FAEB1C32-E019-11D5-929B-00C0DF256EC4}
  9
$EXTNAMES
290
     1
  9
$PSVPSCALE
 40
0.0
  9
$OLESTARTUP
290
     0
  0
ENDSEC
  0
SECTION
  2
CLASSES
  0
CLASS
  1
ACDBDICTIONARYWDFLT
  2
AcDbDictionaryWithDefault
  3
ObjectDBX Classes
 90
        0
280
     0
281
     0
  0
CLASS
  1
TABLESTYLE
  2
AcDbTableStyle
  3
ObjectDBX Classes
 90
     2047
280
     0
281
     0
  0
CLASS
  1
DICTIONARYVAR
  2
AcDbDictionaryVar
  3
ObjectDBX Classes
 90
        0
280
     0
281
     0
  0
CLASS
  1

  2
exOdDbCircle
  3

 90
        0
280
     0
281
     1
  0
CLASS
  1

  2
exOdDbSpline
  3

 90
        0
280
     0
281
     1
  0
CLASS
  1
ACDBPLACEHOLDER
  2
AcDbPlaceHolder
  3
ObjectDBX Classes
 90
        0
280
     0
281
     0
  0
CLASS
  1
LAYOUT
  2
AcDbLayout
  3
ObjectDBX Classes
 90
        0
280
     0
281
     0
  0
ENDSEC
  0
SECTION
  2
TABLES
  0
TABLE
  2
VPORT
  5
8
330
0
100
AcDbSymbolTable
 70
     2
  0
VPORT
  5
29
330
8
100
AcDbSymbolTableRecord
100
AcDbViewportTableRecord
  2
*Active
 70
     0
 10
0.0
 20
0.0
 11
1.0
 21
1.0
 12
210.0
 22
297.0
 13
0.0
 23
0.0
 14
0.5
 24
0.5
 15
0.5
 25
0.5
 16
0.0
 26
0.0
 36
1.0
 17
0.0
 27
0.0
 37
0.0
 40
653.4000000000001
 41
1.60267857142857
 42
50.0
 43
0.0
 44
0.0
 50
0.0
 51
0.0
 71
     0
 72
   100
 73
     1
 74
     3
 75
     0
 76
     0
 77
     0
 78
     0
281
     0
 65
     1
110
0.0
120
0.0
130
0.0
111
1.0
121
0.0
131
0.0
112
0.0
122
1.0
132
0.0
 79
     0
146
0.0
  0
ENDTAB
  0
TABLE
  2
LTYPE
  5
5
330
0
100
AcDbSymbolTable
 70
     8
  0
LTYPE
  5
14
330
5
100
AcDbSymbolTableRecord
100
AcDbLinetypeTableRecord
  2
ByBlock
 70
     0
  3

 72
    65
 73
     0
 40
0.0
  0
LTYPE
  5
15
330
5
100
AcDbSymbolTableRecord
100
AcDbLinetypeTableRecord
  2
ByLayer
 70
     0
  3

 72
    65
 73
     0
 40
0.0
  0
LTYPE
  5
16
330
5
100
AcDbSymbolTableRecord
100
AcDbLinetypeTableRecord
  2
Continuous
 70
     0
  3
Solid line
 72
    65
 73
     0
 40
0.0
  0
LTYPE
  5
2E
330
5
100
AcDbSymbolTableRecord
100
AcDbLinetypeTableRecord
  2
DASHED
 70
     0
  3
Dashed
 72
    65
 73
     2
 40
15.0
 49
7.0
 74
     0
 49
-8.0
 74
     0
  0
LTYPE
  5
2F
330
5
100
AcDbSymbolTableRecord
100
AcDbLinetypeTableRecord
  2
DOTTED
 70
     0
  3
Dotted
 72
    65
 73
     2
 40
1.0
 49
0.0
 74
     0
 49
-1.0
 74
     0
  0
LTYPE
  5
30
330
5
100
AcDbSymbolTableRecord
100
AcDbLinetypeTableRecord
  2
DOT_CENTER
 70
     0
  3
Dot_Center
 72
    65
 73
     4
 40
14.0
 49
12.0
 74
     0
 49
-1.0
 74
     0
 49
0.0
 74
     0
 49
-1.0
 74
     0
  0
LTYPE
  5
31
330
5
100
AcDbSymbolTableRecord
100
AcDbLinetypeTableRecord
  2
LONG_DASHED
 70
     0
  3
Long_Dashed
 72
    65
 73
     2
 40
15.0
 49
10.0
 74
     0
 49
-5.0
 74
     0
  0
LTYPE
  5
32
330
5
100
AcDbSymbolTableRecord
100
AcDbLinetypeTableRecord
  2
DASH_CENTER
 70
     0
  3
Dash_Center
 72
    65
 73
     4
 40
14.0
 49
11.0
 74
     0
 49
-1.0
 74
     0
 49
1.0
 74
     0
 49
-1.0
 74
     0
  0
LTYPE
  5
33
330
5
100
AcDbSymbolTableRecord
100
AcDbLinetypeTableRecord
  2
PHANTOM
 70
     0
  3
Phantom
 72
    65
 73
     6
 40
13.0
 49
10.0
 74
     0
 49
-1.0
 74
     0
 49
0.0
 74
     0
 49
-1.0
 74
     0
 49
0.0
 74
     0
 49
-1.0
 74
     0
  0
LTYPE
  5
34
330
5
100
AcDbSymbolTableRecord
100
AcDbLinetypeTableRecord
  2
CENTER_DASH_DASH
 70
     0
  3
Center_Dash_Dash
 72
    65
 73
     6
 40
14.0
 49
9.0
 74
     0
 49
-1.0
 74
     0
 49
1.0
 74
     0
 49
-1.0
 74
     0
 49
1.0
 74
     0
 49
-1.0
 74
     0
  0
ENDTAB
  0
TABLE
  2
LAYER
  5
2
330
0
100
AcDbSymbolTable
 70
     2
  0
LAYER
  5
10
330
2
100
AcDbSymbolTableRecord
100
AcDbLayerTableRecord
  2
0
 70
     0
 62
     7
  6
Continuous
370
    -3
390
F
  0
LAYER
  5
35
330
2
100
AcDbSymbolTableRecord
100
AcDbLayerTableRecord
  2
1
 70
     0
 62
     7
  6
Continuous
370
    -3
390
F
  0
ENDTAB
  0
TABLE
  2
STYLE
  5
3
330
0
100
AcDbSymbolTable
 70
     3
  0
STYLE
  5
11
330
3
100
AcDbSymbolTableRecord
100
AcDbTextStyleTableRecord
  2
Standard
 70
     0
 40
0.0
 41
1.0
 50
0.0
 71
     0
 42
0.2
  3
txt
  4

  0
STYLE
  5
C8
330
3
100
AcDbSymbolTableRecord
100
AcDbTextStyleTableRecord
  2
CONVERTER_1
 70
     0
 40
0.0
 41
0.89
 50
0.0
 71
     0
 42
0.2
  3
msmincho.ttc
  4

1001
ACAD
1000
MS Mincho
1071
    32785
  0
STYLE
  5
2A7
330
3
100
AcDbSymbolTableRecord
100
AcDbTextStyleTableRecord
  2
CONVERTER_2
 70
     0
 40
0.0
 41
0.9
 50
0.0
 71
     0
 42
0.2
  3
txt.shx
  4

  0
ENDTAB
  0
TABLE
  2
VIEW
  5
6
330
0
100
AcDbSymbolTable
 70
     0
  0
ENDTAB
  0
TABLE
  2
UCS
  5
7
330
0
100
AcDbSymbolTable
 70
     0
  0
ENDTAB
  0
TABLE
  2
APPID
  5
9
330
0
100
AcDbSymbolTable
 70
     1
  0
APPID
  5
12
330
9
100
AcDbSymbolTableRecord
100
AcDbRegAppTableRecord
  2
ACAD
 70
     0
  0
ENDTAB
  0
TABLE
  2
DIMSTYLE
  5
A
330
0
100
AcDbSymbolTable
 70
    11
100
AcDbDimStyleTable
  0
DIMSTYLE
105
27
330
A
100
AcDbSymbolTableRecord
100
AcDbDimStyleTableRecord
  2
Standard
 70
     0
340
11
  0
DIMSTYLE
105
2C6
102
{ACAD_REACTORS
330
2C7
102
}
330
A
100
AcDbSymbolTableRecord
100
AcDbDimStyleTableRecord
  2
ME10_DIM_0
 70
     0
 41
7.0
 42
0.0
 44
2.0
 73
     0
 74
     0
 77
     1
 78
     8
140
7.0
147
0.625
172
     1
173
     1
176
     2
177
     2
178
     7
271
     2
340
C8
  0
DIMSTYLE
105
2D4
102
{ACAD_REACTORS
330
2D5
102
}
330
A
100
AcDbSymbolTableRecord
100
AcDbDimStyleTableRecord
  2
ME10_DIM_1
 70
     0
 41
6.0
 42
0.0
 44
2.0
 73
     0
 74
     0
 77
     1
 78
     8
140
7.0
147
0.625
172
     1
173
     1
176
     2
177
     2
178
     7
271
     2
340
2A7
343
2D1
  0
DIMSTYLE
105
2DF
102
{ACAD_REACTORS
330
2E0
102
}
330
A
100
AcDbSymbolTableRecord
100
AcDbDimStyleTableRecord
  2
ME10_DIM_2
 70
     0
 41
7.0
 42
0.0
 44
2.0
 73
     0
 74
     0
 77
     1
 78
     8
140
7.0
147
0.625
172
     1
173
     1
176
     2
177
     2
178
     7
271
     2
340
C8
  0
DIMSTYLE
105
2EA
102
{ACAD_REACTORS
330
2EB
102
}
330
A
100
AcDbSymbolTableRecord
100
AcDbDimStyleTableRecord
  2
ME10_DIM_3
 70
     0
 41
7.0
 42
0.0
 44
2.0
 73
     0
 74
     0
 77
     1
 78
     8
140
7.0
147
0.625
172
     1
173
     1
176
     2
177
     2
178
     7
271
     2
340
2A7
  0
DIMSTYLE
105
2F5
102
{ACAD_REACTORS
330
2F6
102
}
330
A
100
AcDbSymbolTableRecord
100
AcDbDimStyleTableRecord
  2
ME10_DIM_4
 70
     0
 41
7.0
 42
0.0
 44
2.0
 73
     0
 74
     0
 77
     1
 78
     8
140
7.0
147
0.625
172
     1
173
     1
176
     2
177
     2
178
     7
271
     2
340
2A7
  0
DIMSTYLE
105
300
102
{ACAD_REACTORS
330
301
102
}
330
A
100
AcDbSymbolTableRecord
100
AcDbDimStyleTableRecord
  2
ME10_DIM_5
 70
     0
 41
7.0
 42
0.0
 44
2.0
 73
     0
 74
     0
 77
     1
 78
     8
140
7.0
147
0.625
172
     1
173
     1
176
     2
177
     2
178
     7
271
     2
340
2A7
  0
DIMSTYLE
105
30B
102
{ACAD_REACTORS
330
30C
102
}
330
A
100
AcDbSymbolTableRecord
100
AcDbDimStyleTableRecord
  2
ME10_DIM_6
 70
     0
 41
7.0
 42
0.0
 44
2.0
 73
     0
 74
     0
 77
     1
 78
     8
140
7.0
147
0.625
172
     1
173
     1
176
     2
177
     2
178
     7
271
     2
340
2A7
  0
DIMSTYLE
105
316
102
{ACAD_REACTORS
330
317
102
}
330
A
100
AcDbSymbolTableRecord
100
AcDbDimStyleTableRecord
  2
ME10_DIM_7
 70
     0
 41
7.0
 42
0.0
 44
2.0
 73
     0
 74
     0
 77
     1
 78
     8
140
7.0
147
0.625
172
     1
173
     1
176
     2
177
     2
178
     7
271
     2
340
2A7
  0
DIMSTYLE
105
323
102
{ACAD_REACTORS
330
324
102
}
330
A
100
AcDbSymbolTableRecord
100
AcDbDimStyleTableRecord
  2
ME10_DIM_8
 70
     0
 41
7.0
 42
0.0
 44
2.0
 73
     0
 74
     0
 77
     1
 78
     8
140
7.0
147
0.625
172
     1
173
     1
176
     2
177
     2
178
     7
271
     2
340
2A7
  0
DIMSTYLE
105
330
102
{ACAD_REACTORS
330
331
102
}
330
A
100
AcDbSymbolTableRecord
100
AcDbDimStyleTableRecord
  2
ME10_DIM_9
 70
     0
 41
7.0
 42
0.0
 44
2.0
 73
     0
 74
     0
 77
     1
 78
     8
140
7.0
147
0.625
172
     1
173
     1
176
     2
177
     2
178
     7
271
     2
340
2A7
  0
ENDTAB
  0
TABLE
  2
BLOCK_RECORD
  5
1
330
0
100
AcDbSymbolTable
 70
    22
  0
BLOCK_RECORD
  5
1F
330
1
100
AcDbSymbolTableRecord
100
AcDbBlockTableRecord
  2
*Model_Space
340
22
  0
BLOCK_RECORD
  5
1B
330
1
100
AcDbSymbolTableRecord
100
AcDbBlockTableRecord
  2
*Paper_Space
340
1E
  0
BLOCK_RECORD
  5
23
330
1
100
AcDbSymbolTableRecord
100
AcDbBlockTableRecord
  2
*Paper_Space0
340
26
  0
BLOCK_RECORD
  5
36
330
1
100
AcDbSymbolTableRecord
100
AcDbBlockTableRecord
  2
36-45
340
0
102
{BLKREFS
331
54
102
}
  0
BLOCK_RECORD
  5
39
330
1
100
AcDbSymbolTableRecord
100
AcDbBlockTableRecord
  2
_J__A4
340
0
102
{BLKREFS
331
55
102
}
  0
BLOCK_RECORD
  5
3C
330
1
100
AcDbSymbolTableRecord
100
AcDbBlockTableRecord
  2
V2220L-0A-13-M1
340
0
102
{BLKREFS
331
56
102
}
  0
BLOCK_RECORD
  5
3F
330
1
100
AcDbSymbolTableRecord
100
AcDbBlockTableRecord
  2
78-167
340
0
102
{BLKREFS
331
57
102
}
  0
BLOCK_RECORD
  5
42
330
1
100
AcDbSymbolTableRecord
100
AcDbBlockTableRecord
  2
37-1-13__1
340
0
102
{BLKREFS
331
58
102
}
  0
BLOCK_RECORD
  5
45
330
1
100
AcDbSymbolTableRecord
100
AcDbBlockTableRecord
  2
51-1
340
0
102
{BLKREFS
331
59
102
}
  0
BLOCK_RECORD
  5
48
330
1
100
AcDbSymbolTableRecord
100
AcDbBlockTableRecord
  2
36-54-M11
340
0
102
{BLKREFS
331
5A
102
}
  0
BLOCK_RECORD
  5
4B
330
1
100
AcDbSymbolTableRecord
100
AcDbBlockTableRecord
  2
42-15
340
0
102
{BLKREFS
331
5B
102
}
  0
BLOCK_RECORD
  5
4E
330
1
100
AcDbSymbolTableRecord
100
AcDbBlockTableRecord
  2
37-1-13__2
340
0
102
{BLKREFS
331
5C
102
}
  0
BLOCK_RECORD
  5
51
330
1
100
AcDbSymbolTableRecord
100
AcDbBlockTableRecord
  2
64-7-75
340
0
102
{BLKREFS
331
5D
102
}
  0
BLOCK_RECORD
  5
2BD
330
1
100
AcDbSymbolTableRecord
100
AcDbBlockTableRecord
  2
*D011
340
0
  0
BLOCK_RECORD
  5
2C8
330
1
100
AcDbSymbolTableRecord
100
AcDbBlockTableRecord
  2
*D112
340
0
  0
BLOCK_RECORD
  5
2D1
330
1
100
AcDbSymbolTableRecord
100
AcDbBlockTableRecord
  2
_None
340
0
  0
BLOCK_RECORD
  5
2D6
330
1
100
AcDbSymbolTableRecord
100
AcDbBlockTableRecord
  2
*D214
340
0
  0
BLOCK_RECORD
  5
2E1
330
1
100
AcDbSymbolTableRecord
100
AcDbBlockTableRecord
  2
*D315
340
0
  0
BLOCK_RECORD
  5
2EC
330
1
100
AcDbSymbolTableRecord
100
AcDbBlockTableRecord
  2
*D416
340
0
  0
BLOCK_RECORD
  5
2F7
330
1
100
AcDbSymbolTableRecord
100
AcDbBlockTableRecord
  2
*D517
340
0
  0
BLOCK_RECORD
  5
302
330
1
100
AcDbSymbolTableRecord
100
AcDbBlockTableRecord
  2
*D618
340
0
  0
BLOCK_RECORD
  5
30D
330
1
100
AcDbSymbolTableRecord
100
AcDbBlockTableRecord
  2
*D719
340
0
  0
BLOCK_RECORD
  5
318
330
1
100
AcDbSymbolTableRecord
100
AcDbBlockTableRecord
  2
*D820
340
0
  0
BLOCK_RECORD
  5
325
330
1
100
AcDbSymbolTableRecord
100
AcDbBlockTableRecord
  2
*D921
340
0
  0
ENDTAB
  0
ENDSEC
  0
SECTION
  2
BLOCKS
  0
BLOCK
  5
20
330
1F
100
AcDbEntity
  8
0
100
AcDbBlockBegin
  2
*Model_Space
 70
     0
 71
     0
 10
0.0
 20
0.0
 30
0.0
  3
*Model_Space
  1

  0
ENDBLK
  5
21
330
1F
100
AcDbEntity
  8
0
100
AcDbBlockEnd
  0
BLOCK
  5
1C
330
1B
100
AcDbEntity
 67
     1
  8
0
100
AcDbBlockBegin
  2
*Paper_Space
 70
     0
 71
     0
 10
0.0
 20
0.0
 30
0.0
  3
*Paper_Space
  1

  0
ENDBLK
  5
1D
330
1B
100
AcDbEntity
 67
     1
  8
0
100
AcDbBlockEnd
  0
BLOCK
  5
24
330
23
100
AcDbEntity
  8
0
100
AcDbBlockBegin
  2
*Paper_Space0
 70
     0
 71
     0
 10
0.0
 20
0.0
 30
0.0
  3
*Paper_Space0
  1

  0
ENDBLK
  5
25
330
23
100
AcDbEntity
  8
0
100
AcDbBlockEnd
  0
BLOCK
  5
37
330
36
100
AcDbEntity
  8
0
100
AcDbBlockBegin
  2
36-45
 70
     0
 71
     0
 10
214.319230402957
 20
759.989468232401
 30
0.0
  3
36-45
  1

  0
LINE
  5
5E
330
36
100
AcDbEntity
  8
1
  6
Continuous
 62
     7
100
AcDbLine
 10
339.617146703226
 20
364.2147713623169
 30
0.0
 11
341.4171467032263
 21
364.2147713623169
 31
0.0
  0
LINE
  5
5F
330
36
100
AcDbEntity
  8
1
  6
Continuous
 62
     7
100
AcDbLine
 10
345.2671467032261
 20
362.2149687144911
 30
0.0
 11
341.4171467032263
 21
362.2149687144911
 31
0.0
  0
LINE
  5
60
330
36
100
AcDbEntity
  8
1
  6
Continuous
 62
     7
100
AcDbLine
 10
335.7671467032261
 20
362.2149687144911
 30
0.0
 11
339.617146703226
 21
362.2149687144911
 31
0.0
  0
LINE
  5
61
330
36
100
AcDbEntity
  8
1
  6
Continuous
 62
     7
100
AcDbLine
 10
335.7671467032261
 20
365.7149687144911
 30
0.0
 11
335.7671467032261
 21
362.2149687144911
 31
0.0
  0
LINE
  5
62
330
36
100
AcDbEntity
  8
1
  6
Continuous
 62
     7
100
AcDbLine
 10
339.617146703226
 20
364.2147713623169
 30
0.0
 11
339.617146703226
 21
361.2149687144911
 31
0.0
  0
LINE
  5
63
330
36
100
AcDbEntity
  8
1
  6
Continuous
 62
     7
100
AcDbLine
 10
345.2671467032261
 20
362.2149687144911
 30
0.0
 11
345.2671467032261
 21
365.7149687144911
 31
0.0
  0
LINE
  5
64
330
36
100
AcDbEntity
  8
1
  6
Continuous
 62
     7
100
AcDbLine
 10
344.2671467032261
 20
361.2149687144911
 30
0.0
 11
345.2671467032261
 21
362.2149687144911
 31
0.0
  0
LINE
  5
65
330
36
100
AcDbEntity
  8
1
  6
Continuous
 62
     7
100
AcDbLine
 10
344.2671467032261
 20
361.2149687144911
 30
0.0
 11
341.4171467032263
 21
361.2149687144911
 31
0.0
  0
LINE
  5
66
330
36
100
AcDbEntity
  8
1
  6
Continuous
 62
     7
100
AcDbLine
 10
341.4171467032263
 20
361.2149687144911
 30
0.0
 11
341.4171467032263
 21
364.2147713623169
 31
0.0
  0
LINE
  5
67
330
36
100
AcDbEntity
  8
1
  6
Continuous
 62
     7
100
AcDbLine
 10
335.7671467032261
 20
362.2149687144911
 30
0.0
 11
336.7671467032261
 21
361.2149687144911
 31
0.0
  0
LINE
  5
68
330
36
100
AcDbEntity
  8
1
  6
Continuous
 62
     7
100
AcDbLine
 10
339.617146703226
 20
361.2149687144911
 30
0.0
 11
336.7671467032261
 21
361.2149687144911
 31
0.0
  0
LINE
  5
69
330
36
100
AcDbEntity
  8
1
  6
Continuous
 62
     7
100
AcDbLine
 10
180.7671467032261
 20
362.2147713623169
 30
0.0
 11
181.7671467032261
 21
361.2147713623169
 31
0.0
  0
LINE
  5
6A
330
36
100
AcDbEntity
  8
1
  6
Continuous
 62
     7
100
AcDbLine
 10
189.2671467032261
 20
361.2147713623169
 30
0.0
 11
181.7671467032261
 21
361.2147713623169
 31
0.0
  0
LINE
  5
6B
330
36
100
AcDbEntity
  8
1
  6
Continuous
 62
     7
100
AcDbLine
 10
189.2671467032261
 20
361.2147713623169
 30
0.0
 11
190.2671467032261
 21
362.2147713623169
 31
0.0
  0
LINE
  5
6C
330
36
100
AcDbEntity
  8
1
  6
Continuous
 62
     7
100
AcDbLine
 10
190.2671467032261
 20
362.2147713623169
 30
0.0
 11
190.2671467032261
 21
365.7147713623169
 31
0.0
  0
LINE
  5
6D
330
36
100
AcDbEntity
  8
1
  6
Continuous
 62
     7
100
AcDbLine
 10
180.7671467032261
 20
365.7147713623169
 30
0.0
 11
180.7671467032261
 21
362.2147713623169
 31
0.0
  0
LINE
  5
6E
330
36
100
AcDbEntity
  8
1
  6
Continuous
 62
     7
100
AcDbLine
 10
190.2671467032261
 20
362.2147713623169
 30
0.0
 11
180.7671467032261
 21
362.2147713623169
 31
0.0
  0
LINE
  5
6F
330
36
100
AcDbEntity
  8
1
  6
Continuous
 62
     7
100
AcDbLine
 10
180.8531891562738
 20
246.697500231329
 30
0.0
 11
181.33384657058
 21
246.697500231329
 31
0.0
  0
LINE
  5
70
330
36
100
AcDbEntity
  8
1
  6
Continuous
 62
     7
100
AcDbLine
 10
180.8531891562738
 20
248.497500231329
 30
0.0
 11
181.33384657058
 21
248.497500231329
 31
0.0
  0
LINE
  5
71
330
36
100
AcDbEntity
  8
1
  6
Continuous
 62
     7
100
AcDbLine
 10
181.33384657058
 20
246.697500231329
 30
0.0
 11
189.7004468359208
 21
246.697500231329
 31
0.0
  0
LINE
  5
72
330
36
100
AcDbEntity
  8
1
  6
Continuous
 62
     7
100
AcDbLine
 10
189.7004468359208
 20
246.697500231329
 30
0.0
 11
190.181104250227
 21
246.697500231329
 31
0.0
  0
LINE
  5
73
330
36
100
AcDbEntity
  8
1
  6
Continuous
 62
     7
100
AcDbLine
 10
181.33384657058
 20
248.497500231329
 30
0.0
 11
189.7004468359208
 21
248.497500231329
 31
0.0
  0
LINE
  5
74
330
36
100
AcDbEntity
  8
1
  6
Continuous
 62
     7
100
AcDbLine
 10
189.7004468359208
 20
248.497500231329
 30
0.0
 11
190.181104250227
 21
248.497500231329
 31
0.0
  0
LINE
  5
75
330
36
100
AcDbEntity
  8
1
  6
DASH_CENTER
 62
     2
100
AcDbLine
 10
185.5171467032504
 20
235.097500231329
 30
0.0
 11
185.5171467032504
 21
260.097500231329
 31
0.0
  0
LINE
  5
76
330
36
100
AcDbEntity
  8
1
  6
DASH_CENTER
 62
     2
100
AcDbLine
 10
173.0171467032504
 20
247.597500231329
 30
0.0
 11
198.0171467032504
 21
247.597500231329
 31
0.0
  0
ARC
  5
77
330
36
100
AcDbEntity
  8
1
  6
Continuous
 62
     7
100
AcDbCircle
 10
185.5171467032504
 20
247.597500231329
 30
0.0
 40
4.749999999999966
100
AcDbArc
 50
9.08472028739114
 51
170.9152797126089
  0
ARC
  5
78
330
36
100
AcDbEntity
  8
1
  6
Continuous
 62
     7
100
AcDbCircle
 10
185.5171467032504
 20
247.597500231329
 30
0.0
 40
4.250000000000069
100
AcDbArc
 50
12.22578859315736
 51
167.7742114068427
  0
ARC
  5
79
330
36
100
AcDbEntity
  8
1
  6
Continuous
 62
     7
100
AcDbCircle
 10
185.5171467032504
 20
247.597500231329
 30
0.0
 40
4.250000000000069
100
AcDbArc
 50
-167.7742114068427
 51
-12.22578859315736
  0
ARC
  5
7A
330
36
100
AcDbEntity
  8
1
  6
Continuous
 62
     7
100
AcDbCircle
 10
185.5171467032504
 20
247.597500231329
 30
0.0
 40
4.749999999999966
100
AcDbArc
 50
-170.9152797126089
 51
-9.08472028739114
  0
ARC
  5
7B
330
36
100
AcDbEntity
  8
1
  6
Continuous
 62
     7
100
AcDbCircle
 10
185.5171467032504
 20
247.597500231329
 30
0.0
 40
4.749999999999966
100
AcDbArc
 50
170.9152797126089
 51
-170.9152797126089
  0
ARC
  5
7C
330
36
100
AcDbEntity
  8
1
  6
Continuous
 62
     7
100
AcDbCircle
 10
185.5171467032504
 20
247.597500231329
 30
0.0
 40
4.749999999999966
100
AcDbArc
 50
-9.08472028739114
 51
9.08472028739114
  0
ENDBLK
  5
38
330
36
100
AcDbEntity
  8
0
100
AcDbBlockEnd
  0
BLOCK
  5
3A
330
39
100
AcDbEntity
  8
0
100
AcDbBlockBegin
  2
_J__A4
 70
     0
 71
     0
 10
0.0
 20
0.0
 30
0.0
  3
_J__A4
  1

  0
POINT
  5
7D
330
39
100
AcDbEntity
  8
1
 62
     4
100
AcDbPoint
 10
34.0
 20
34.00000000000001
 30
0.0
  0
POINT
  5
7E
330
39
100
AcDbEntity
  8
1
 62
     4
100
AcDbPoint
 10
57.0
 20
12.25
 30
0.0
  0
POINT
  5
7F
330
39
100
AcDbEntity
  8
1
 62
     4
100
AcDbPoint
 10
57.0
 20
20.75000000000001
 30
0.0
  0
POINT
  5
80
330
39
100
AcDbEntity
  8
1
 62
     4
100
AcDbPoint
 10
57.0
 20
24.75000000000001
 30
0.0
  0
POINT
  5
81
330
39
100
AcDbEntity
  8
1
 62
     4
100
AcDbPoint
 10
57.0
 20
16.25
 30
0.0
  0
POINT
  5
82
330
39
100
AcDbEntity
  8
1
 62
     4
100
AcDbPoint
 10
157.5
 20
19.00000000000001
 30
0.0
  0
POINT
  5
83
330
39
100
AcDbEntity
  8
1
 62
     4
100
AcDbPoint
 10
47.5
 20
282.0000000000003
 30
0.0
  0
POINT
  5
84
330
39
100
AcDbEntity
  8
1
 62
     4
100
AcDbPoint
 10
57.0
 20
22.75000000000001
 30
0.0
  0
POINT
  5
85
330
39
100
AcDbEntity
  8
1
 62
     4
100
AcDbPoint
 10
57.0
 20
14.25
 30
0.0
  0
POINT
  5
86
330
39
100
AcDbEntity
  8
1
 62
     4
100
AcDbPoint
 10
157.5
 20
12.5
 30
0.0
  0
POINT
  5
87
330
39
100
AcDbEntity
  8
1
 62
     4
100
AcDbPoint
 10
163.25
 20
12.5
 30
0.0
  0
POINT
  5
88
330
39
100
AcDbEntity
  8
1
 62
     4
100
AcDbPoint
 10
151.75
 20
12.5
 30
0.0
  0
POINT
  5
89
330
39
100
AcDbEntity
  8
1
 62
     4
100
AcDbPoint
 10
134.75
 20
12.5
 30
0.0
  0
POINT
  5
8A
330
39
100
AcDbEntity
  8
1
 62
     4
100
AcDbPoint
 10
146.25
 20
12.5
 30
0.0
  0
POINT
  5
8B
330
39
100
AcDbEntity
  8
1
 62
     4
100
AcDbPoint
 10
140.5
 20
12.5
 30
0.0
  0
POINT
  5
8C
330
39
100
AcDbEntity
  8
1
 62
     4
100
AcDbPoint
 10
140.5
 20
19.00000000000001
 30
0.0
  0
POINT
  5
8D
330
39
100
AcDbEntity
  8
1
 62
     4
100
AcDbPoint
 10
117.75
 20
12.5
 30
0.0
  0
POINT
  5
8E
330
39
100
AcDbEntity
  8
1
 62
     4
100
AcDbPoint
 10
129.25
 20
12.5
 30
0.0
  0
POINT
  5
8F
330
39
100
AcDbEntity
  8
1
 62
     4
100
AcDbPoint
 10
123.5
 20
12.5
 30
0.0
  0
POINT
  5
90
330
39
100
AcDbEntity
  8
1
 62
     4
100
AcDbPoint
 10
123.5
 20
19.00000000000001
 30
0.0
  0
POINT
  5
91
330
39
100
AcDbEntity
  8
1
 62
     4
100
AcDbPoint
 10
100.75
 20
12.5
 30
0.0
  0
POINT
  5
92
330
39
100
AcDbEntity
  8
1
 62
     4
100
AcDbPoint
 10
112.25
 20
12.5
 30
0.0
  0
POINT
  5
93
330
39
100
AcDbEntity
  8
1
 62
     4
100
AcDbPoint
 10
106.5
 20
12.5
 30
0.0
  0
POINT
  5
94
330
39
100
AcDbEntity
  8
1
 62
     4
100
AcDbPoint
 10
106.5
 20
19.00000000000001
 30
0.0
  0
POINT
  5
95
330
39
100
AcDbEntity
  8
1
 62
     4
100
AcDbPoint
 10
85.25
 20
17.0
 30
0.0
  0
POINT
  5
96
330
39
100
AcDbEntity
  8
1
 62
     4
100
AcDbPoint
 10
93.75
 20
17.0
 30
0.0
  0
LINE
  5
97
330
39
100
AcDbEntity
  8
1
  6
Continuous
 62
     2
100
AcDbLine
 10
81.0
 20
27.00000000000001
 30
0.0
 11
81.0
 21
10.0
 31
0.0
  0
LINE
  5
98
330
39
100
AcDbEntity
  8
1
  6
DOT_CENTER
 62
     2
100
AcDbLine
 10
187.0
 20
26.50000000000001
 30
0.0
 11
187.0
 21
20.50000000000001
 31
0.0
  0
LINE
  5
99
330
39
100
AcDbEntity
  8
1
  6
DOT_CENTER
 62
     2
100
AcDbLine
 10
184.0
 20
23.50000000000001
 30
0.0
 11
197.0
 21
23.50000000000001
 31
0.0
  0
LINE
  5
9A
330
39
100
AcDbEntity
  8
1
  6
Continuous
 62
     7
100
AcDbLine
 10
196.0
 20
21.50000000000001
 30
0.0
 11
191.0
 21
22.30000000000001
 31
0.0
  0
LINE
  5
9B
330
39
100
AcDbEntity
  8
1
  6
Continuous
 62
     7
100
AcDbLine
 10
196.0
 20
25.50000000000001
 30
0.0
 11
196.0
 21
21.50000000000001
 31
0.0
  0
LINE
  5
9C
330
39
100
AcDbEntity
  8
1
  6
Continuous
 62
     7
100
AcDbLine
 10
191.0
 20
24.70000000000001
 30
0.0
 11
196.0
 21
25.50000000000001
 31
0.0
  0
LINE
  5
9D
330
39
100
AcDbEntity
  8
1
  6
Continuous
 62
     7
100
AcDbLine
 10
191.0
 20
24.70000000000001
 30
0.0
 11
191.0
 21
22.30000000000001
 31
0.0
  0
LINE
  5
9E
330
39
100
AcDbEntity
  8
1
  6
Continuous
 62
     2
100
AcDbLine
 10
33.0
 20
27.0
 30
0.0
 11
33.0
 21
10.0
 31
0.0
  0
LINE
  5
9F
330
39
100
AcDbEntity
  8
1
  6
Continuous
 62
     2
100
AcDbLine
 10
25.0
 20
18.50000000000001
 30
0.0
 11
81.0
 21
18.50000000000001
 31
0.0
  0
LINE
  5
A0
330
39
100
AcDbEntity
  8
1
  6
Continuous
 62
     7
100
AcDbLine
 10
200.0
 20
287.0000000000003
 30
0.0
 11
105.0
 21
287.0000000000003
 31
0.0
  0
LINE
  5
A1
330
39
100
AcDbEntity
  8
1
  6
Continuous
 62
     7
100
AcDbLine
 10
200.0
 20
10.0
 30
0.0
 11
200.0
 21
148.5
 31
0.0
  0
LINE
  5
A2
330
39
100
AcDbEntity
  8
1
  6
Continuous
 62
     7
100
AcDbLine
 10
25.0
 20
10.0
 30
0.0
 11
105.0
 21
10.0
 31
0.0
  0
LINE
  5
A3
330
39
100
AcDbEntity
  8
1
  6
PHANTOM
 62
     4
100
AcDbLine
 10
0.0
 20
297.0
 30
0.0
 11
0.0
 21
0.0
 31
0.0
  0
LINE
  5
A4
330
39
100
AcDbEntity
  8
1
  6
PHANTOM
 62
     4
100
AcDbLine
 10
210.0
 20
297.0
 30
0.0
 11
0.0
 21
297.0
 31
0.0
  0
LINE
  5
A5
330
39
100
AcDbEntity
  8
1
  6
PHANTOM
 62
     4
100
AcDbLine
 10
210.0
 20
0.0
 30
0.0
 11
210.0
 21
297.0
 31
0.0
  0
LINE
  5
A6
330
39
100
AcDbEntity
  8
1
  6
PHANTOM
 62
     4
100
AcDbLine
 10
0.0
 20
0.0
 30
0.0
 11
210.0
 21
0.0
 31
0.0
  0
LINE
  5
A7
330
39
100
AcDbEntity
  8
1
  6
Continuous
 62
     7
100
AcDbLine
 10
25.0
 20
41.0
 30
0.0
 11
200.0
 21
41.0
 31
0.0
  0
LINE
  5
A8
330
39
100
AcDbEntity
  8
1
  6
Continuous
 62
     7
100
AcDbLine
 10
200.0
 20
27.00000000000001
 30
0.0
 11
25.0
 21
27.00000000000001
 31
0.0
  0
LINE
  5
A9
330
39
100
AcDbEntity
  8
1
  6
Continuous
 62
     2
100
AcDbLine
 10
33.0
 20
41.00000000000001
 30
0.0
 11
33.0
 21
27.0
 31
0.0
  0
LINE
  5
AA
330
39
100
AcDbEntity
  8
1
  6
Continuous
 62
     2
100
AcDbLine
 10
55.0
 20
287.0000000000003
 30
0.0
 11
55.0
 21
277.0000000000003
 31
0.0
  0
LINE
  5
AB
330
39
100
AcDbEntity
  8
1
  6
Continuous
 62
     2
100
AcDbLine
 10
40.0
 20
287.0000000000003
 30
0.0
 11
40.0
 21
277.0000000000003
 31
0.0
  0
LINE
  5
AC
330
39
100
AcDbEntity
  8
1
  6
Continuous
 62
     7
100
AcDbLine
 10
25.0
 20
10.0
 30
0.0
 11
25.0
 21
148.5
 31
0.0
  0
LINE
  5
AD
330
39
100
AcDbEntity
  8
1
  6
Continuous
 62
     2
100
AcDbLine
 10
55.0
 20
277.0000000000003
 30
0.0
 11
25.0
 21
277.0000000000003
 31
0.0
  0
LINE
  5
AE
330
39
100
AcDbEntity
  8
1
  6
Continuous
 62
     2
100
AcDbLine
 10
166.0
 20
27.00000000000001
 30
0.0
 11
166.0
 21
10.0
 31
0.0
  0
LINE
  5
AF
330
39
100
AcDbEntity
  8
1
  6
Continuous
 62
     2
100
AcDbLine
 10
132.0
 20
27.00000000000001
 30
0.0
 11
132.0
 21
9.99999999999999
 31
0.0
  0
LINE
  5
B0
330
39
100
AcDbEntity
  8
1
  6
Continuous
 62
     2
100
AcDbLine
 10
149.0
 20
27.00000000000001
 30
0.0
 11
149.0
 21
10.0
 31
0.0
  0
LINE
  5
B1
330
39
100
AcDbEntity
  8
1
  6
Continuous
 62
     2
100
AcDbLine
 10
115.0
 20
27.00000000000001
 30
0.0
 11
115.0
 21
9.99999999999999
 31
0.0
  0
LINE
  5
B2
330
39
100
AcDbEntity
  8
1
  6
Continuous
 62
     2
100
AcDbLine
 10
98.0
 20
27.00000000000001
 30
0.0
 11
98.0
 21
9.99999999999999
 31
0.0
  0
LINE
  5
B3
330
39
100
AcDbEntity
  8
1
  6
Continuous
 62
     2
100
AcDbLine
 10
166.0
 20
20.00000000000001
 30
0.0
 11
200.0
 21
20.00000000000001
 31
0.0
  0
LINE
  5
B4
330
39
100
AcDbEntity
  8
1
  6
Continuous
 62
     2
100
AcDbLine
 10
105.0
 20
287.0000000000003
 30
0.0
 11
105.0
 21
292.0000000000003
 31
0.0
  0
LINE
  5
B5
330
39
100
AcDbEntity
  8
1
  6
Continuous
 62
     7
100
AcDbLine
 10
105.0
 20
287.0000000000003
 30
0.0
 11
25.0
 21
287.0000000000003
 31
0.0
  0
LINE
  5
B6
330
39
100
AcDbEntity
  8
1
  6
Continuous
 62
     2
100
AcDbLine
 10
25.0
 20
148.5
 30
0.0
 11
20.0
 21
148.5
 31
0.0
  0
LINE
  5
B7
330
39
100
AcDbEntity
  8
1
  6
Continuous
 62
     7
100
AcDbLine
 10
25.0
 20
148.5
 30
0.0
 11
25.0
 21
287.0000000000003
 31
0.0
  0
LINE
  5
B8
330
39
100
AcDbEntity
  8
1
  6
Continuous
 62
     2
100
AcDbLine
 10
200.0
 20
148.5
 30
0.0
 11
205.0
 21
148.5
 31
0.0
  0
LINE
  5
B9
330
39
100
AcDbEntity
  8
1
  6
Continuous
 62
     7
100
AcDbLine
 10
200.0
 20
148.5
 30
0.0
 11
200.0
 21
287.0000000000003
 31
0.0
  0
LINE
  5
BA
330
39
100
AcDbEntity
  8
1
  6
Continuous
 62
     2
100
AcDbLine
 10
105.0
 20
10.0
 30
0.0
 11
105.0
 21
5.0
 31
0.0
  0
LINE
  5
BB
330
39
100
AcDbEntity
  8
1
  6
Continuous
 62
     7
100
AcDbLine
 10
105.0
 20
10.0
 30
0.0
 11
200.0
 21
10.0
 31
0.0
  0
CIRCLE
  5
BC
330
39
100
AcDbEntity
  8
1
  6
DOT_CENTER
 62
     7
100
AcDbCircle
 10
89.5
 20
18.0
 30
0.0
 40
0.1000000000000227
  0
CIRCLE
  5
BD
330
39
100
AcDbEntity
  8
1
  6
DOT_CENTER
 62
     7
100
AcDbCircle
 10
89.5
 20
16.0
 30
0.0
 40
0.1000000000000227
  0
CIRCLE
  5
BE
330
39
100
AcDbEntity
  8
1
  6
Continuous
 62
     7
100
AcDbCircle
 10
187.0
 20
23.50000000000001
 30
0.0
 40
2.0
  0
CIRCLE
  5
BF
330
39
100
AcDbEntity
  8
1
  6
Continuous
 62
     7
100
AcDbCircle
 10
187.0
 20
23.50000000000001
 30
0.0
 40
1.200000000000102
  0
CIRCLE
  5
C0
330
39
100
AcDbEntity
  8
1
  6
Continuous
 62
     7
100
AcDbCircle
 10
154.5
 20
12.5
 30
0.0
 40
0.3000000000000114
  0
CIRCLE
  5
C1
330
39
100
AcDbEntity
  8
1
  6
Continuous
 62
     7
100
AcDbCircle
 10
160.5
 20
12.5
 30
0.0
 40
0.3000000000000114
  0
CIRCLE
  5
C2
330
39
100
AcDbEntity
  8
1
  6
Continuous
 62
     7
100
AcDbCircle
 10
143.5
 20
12.5
 30
0.0
 40
0.3000000000000114
  0
CIRCLE
  5
C3
330
39
100
AcDbEntity
  8
1
  6
Continuous
 62
     7
100
AcDbCircle
 10
137.5
 20
12.5
 30
0.0
 40
0.3000000000000114
  0
CIRCLE
  5
C4
330
39
100
AcDbEntity
  8
1
  6
Continuous
 62
     7
100
AcDbCircle
 10
126.5
 20
12.5
 30
0.0
 40
0.2999999999999972
  0
CIRCLE
  5
C5
330
39
100
AcDbEntity
  8
1
  6
Continuous
 62
     7
100
AcDbCircle
 10
120.5
 20
12.5
 30
0.0
 40
0.2999999999999972
  0
CIRCLE
  5
C6
330
39
100
AcDbEntity
  8
1
  6
Continuous
 62
     7
100
AcDbCircle
 10
109.5
 20
12.5
 30
0.0
 40
0.2999999999999972
  0
CIRCLE
  5
C7
330
39
100
AcDbEntity
  8
1
  6
Continuous
 62
     7
100
AcDbCircle
 10
103.5
 20
12.5
 30
0.0
 40
0.2999999999999972
  0
MTEXT
  5
C9
330
39
100
AcDbEntity
  8
1
 62
   250
100
AcDbMText
 10
25.0
 20
5.0
 30
0.0
 40
3.5
 41
0.0
 71
     4
 72
     1
  1
備考欄の文字列 原点位置=4
  7
CONVERTER_1
 73
     1
 44
0.7202881152461
  0
MTEXT
  5
CA
330
39
100
AcDbEntity
  8
1
 62
     2
100
AcDbMText
 10
89.5
 20
24.00000000000001
 30
0.0
 40
3.5
 41
0.0
 71
     5
 72
     1
  1
尺度
  7
CONVERTER_1
 73
     1
 44
0.7202881152461
  0
MTEXT
  5
CB
330
39
100
AcDbEntity
  8
1
 62
     2
100
AcDbMText
 10
135.5
 20
25.00000000000001
 30
0.0
 40
3.0
 41
0.0
 71
     5
 72
     1
  1
製図
  7
CONVERTER_1
 73
     1
 44
0.78031212484994
  0
MTEXT
  5
CC
330
39
100
AcDbEntity
  8
1
 62
     2
100
AcDbMText
 10
152.5
 20
25.00000000000001
 30
0.0
 40
3.0
 41
0.0
 71
     5
 72
     1
  1
設計
  7
CONVERTER_1
 73
     1
 44
0.78031212484994
  0
MTEXT
  5
CD
330
39
100
AcDbEntity
  8
1
 62
     2
100
AcDbMText
 10
118.5
 20
25.00000000000001
 30
0.0
 40
3.0
 41
0.0
 71
     5
 72
     1
  1
検図
  7
CONVERTER_1
 73
     1
 44
0.78031212484994
  0
MTEXT
  5
CE
330
39
100
AcDbEntity
  8
1
 62
     2
100
AcDbMText
 10
175.0
 20
23.50000000000001
 30
0.0
 40
3.5
 41
0.0
 71
     5
 72
     1
  1
第三角法
  7
CONVERTER_1
 73
     1
 44
0.7202881152461
  0
MTEXT
  5
CF
330
39
100
AcDbEntity
  8
1
 62
     2
100
AcDbMText
 10
101.5
 20
25.00000000000001
 30
0.0
 40
3.0
 41
0.0
 71
     5
 72
     1
  1
承認
  7
CONVERTER_1
 73
     1
 44
0.78031212484994
  0
MTEXT
  5
D0
330
39
100
AcDbEntity
  8
1
 62
     2
100
AcDbMText
 10
29.0
 20
14.25
 30
0.0
 40
3.5
 41
0.0
 71
     5
 72
     1
  1
品番
  7
CONVERTER_1
 73
     1
 44
0.96038415366146
  0
MTEXT
  5
D1
330
39
100
AcDbEntity
  8
1
 62
     2
100
AcDbMText
 10
29.0
 20
22.75
 30
0.0
 40
3.5
 41
0.0
 71
     5
 72
     1
  1
品名
  7
CONVERTER_1
 73
     1
 44
0.96038415366146
  0
MTEXT
  5
D2
330
39
100
AcDbEntity
  8
1
 62
     2
100
AcDbMText
 10
29.0
 20
34.00000000000001
 30
0.0
 40
3.5
 41
0.0
 71
     5
 72
     1
  1
備考
  7
CONVERTER_1
 73
     1
 44
0.60024009603842
  0
MTEXT
  5
D3
330
39
100
AcDbEntity
  8
1
 62
     2
100
AcDbMText
 10
32.5
 20
282.0000000000003
 30
0.0
 40
5.0
 41
0.0
 71
     5
 72
     1
  1
図番
  7
CONVERTER_1
 73
     1
 44
0.60024009603842
  0
MTEXT
  5
D4
330
39
100
AcDbEntity
  8
1
 62
     7
100
AcDbMText
 10
171.5
 20
15.0
 30
0.0
 40
2.5
 41
0.0
 71
     5
 72
     1
  1
株式会社
  7
CONVERTER_1
 73
     1
 44
1.32052821128451
  0
MTEXT
  5
D5
330
39
100
AcDbEntity
  8
1
 62
     7
100
AcDbMText
 10
188.5
 20
15.0
 30
0.0
 40
3.0
 41
0.0
 71
     5
 72
     1
  1
三栄水栓製作所
  7
CONVERTER_1
 73
     1
 44
1.32052821128451
  0
ENDBLK
  5
3B
330
39
100
AcDbEntity
  8
0
100
AcDbBlockEnd
  0
BLOCK
  5
3D
330
3C
100
AcDbEntity
  8
0
100
AcDbBlockBegin
  2
V2220L-0A-13-M1
 70
     0
 71
     0
 10
85.5171467032261
 20
273.71467268623
 30
0.0
  3
V2220L-0A-13-M1
  1

  0
LINE
  5
D6
330
3C
100
AcDbEntity
  8
1
  6
PHANTOM
 62
     4
100
AcDbLine
 10
185.5171467032504
 20
229.3975002313291
 30
0.0
 11
185.5171467032504
 21
283.0975002313292
 31
0.0
  0
LINE
  5
D7
330
3C
100
AcDbEntity
  8
1
  6
Continuous
 62
     7
100
AcDbLine
 10
164.8921618547708
 20
235.2975002313292
 30
0.0
 11
162.9597873903686
 21
235.2975002313291
 31
0.0
  0
LINE
  5
D8
330
3C
100
AcDbEntity
  8
1
  6
Continuous
 62
     7
100
AcDbLine
 10
162.9597873903686
 20
259.897500231329
 30
0.0
 11
164.7095696901661
 21
259.8975002313291
 31
0.0
  0
LINE
  5
D9
330
3C
100
AcDbEntity
  8
1
  6
Continuous
 62
     2
100
AcDbLine
 10
224.0171467032345
 20
238.2775002313293
 30
0.0
 11
208.0171467032345
 21
238.2775002313293
 31
0.0
  0
LINE
  5
DA
330
3C
100
AcDbEntity
  8
1
  6
Continuous
 62
     7
100
AcDbLine
 10
224.0171467032345
 20
238.2775002313293
 30
0.0
 11
222.8571467032343
 21
237.1175002313291
 31
0.0
  0
LINE
  5
DB
330
3C
100
AcDbEntity
  8
1
  6
Continuous
 62
     7
100
AcDbLine
 10
222.8571467032343
 20
237.1175002313291
 30
0.0
 11
208.0171467032345
 21
237.117500231329
 31
0.0
  0
LINE
  5
DC
330
3C
100
AcDbEntity
  8
1
  6
Continuous
 62
     7
100
AcDbLine
 10
224.0171467032345
 20
256.9175002313293
 30
0.0
 11
224.0171467032345
 21
238.2775002313293
 31
0.0
  0
LINE
  5
DD
330
3C
100
AcDbEntity
  8
1
  6
Continuous
 62
     2
100
AcDbLine
 10
208.0171467032345
 20
238.2775002313293
 30
0.0
 11
206.0079677664546
 21
237.117500231329
 31
0.0
  0
LINE
  5
DE
330
3C
100
AcDbEntity
  8
1
  6
Continuous
 62
     2
100
AcDbLine
 10
208.0171467032345
 20
256.9175002313288
 30
0.0
 11
224.0171467032345
 21
256.9175002313293
 31
0.0
  0
LINE
  5
DF
330
3C
100
AcDbEntity
  8
1
  6
Continuous
 62
     7
100
AcDbLine
 10
222.8571467032343
 20
258.077500231329
 30
0.0
 11
224.0171467032345
 21
256.9175002313293
 31
0.0
  0
LINE
  5
E0
330
3C
100
AcDbEntity
  8
1
  6
Continuous
 62
     7
100
AcDbLine
 10
206.0079677664546
 20
258.077500231329
 30
0.0
 11
222.8571467032343
 21
258.077500231329
 31
0.0
  0
LINE
  5
E1
330
3C
100
AcDbEntity
  8
1
  6
Continuous
 62
     7
100
AcDbLine
 10
208.0171467032345
 20
237.117500231329
 30
0.0
 11
208.0171467032345
 21
258.077500231329
 31
0.0
  0
LINE
  5
E2
330
3C
100
AcDbEntity
  8
1
  6
Continuous
 62
     2
100
AcDbLine
 10
206.0079677664546
 20
258.077500231329
 30
0.0
 11
208.0171467032345
 21
256.9175002313288
 31
0.0
  0
LINE
  5
E3
330
3C
100
AcDbEntity
  8
1
  6
Continuous
 62
     7
100
AcDbLine
 10
152.017146703249
 20
260.597500231329
 30
0.0
 11
152.017146703249
 21
247.597500231329
 31
0.0
  0
LINE
  5
E4
330
3C
100
AcDbEntity
  8
1
  6
Continuous
 62
     7
100
AcDbLine
 10
197.517146703249
 20
277.0975002313292
 30
0.0
 11
173.5171467032517
 21
277.0975002313292
 31
0.0
  0
LINE
  5
E5
330
3C
100
AcDbEntity
  8
1
  6
Continuous
 62
     2
100
AcDbLine
 10
197.517146703249
 20
275.6893429247779
 30
0.0
 11
196.7041467032505
 21
277.0975002313292
 31
0.0
  0
LINE
  5
E6
330
3C
100
AcDbEntity
  8
1
  6
Continuous
 62
     7
100
AcDbLine
 10
197.517146703249
 20
275.6893429247779
 30
0.0
 11
197.5171467032491
 21
278.597500231329
 31
0.0
  0
LINE
  5
E7
330
3C
100
AcDbEntity
  8
1
  6
Continuous
 62
     7
100
AcDbLine
 10
152.017146703249
 20
260.597500231329
 30
0.0
 11
161.0336513619427
 21
260.597500231329
 31
0.0
  0
LINE
  5
E8
330
3C
100
AcDbEntity
  8
1
  6
Continuous
 62
     7
100
AcDbLine
 10
205.3682490212114
 20
236.4777814860861
 30
0.0
 11
206.0079677664546
 21
237.117500231329
 31
0.0
  0
LINE
  5
E9
330
3C
100
AcDbEntity
  8
1
  6
Continuous
 62
     7
100
AcDbLine
 10
198.3557789338866
 20
267.0954440078014
 30
0.0
 11
197.9268641582131
 21
275.2796254698139
 31
0.0
  0
LINE
  5
EA
330
3C
100
AcDbEntity
  8
1
  6
Continuous
 62
     7
100
AcDbLine
 10
205.2790354421338
 20
258.8064325556499
 30
0.0
 11
206.0079677664546
 21
258.077500231329
 31
0.0
  0
LINE
  5
EB
330
3C
100
AcDbEntity
  8
1
  6
Continuous
 62
     7
100
AcDbLine
 10
197.517146703249
 20
275.6893429247779
 30
0.0
 11
197.9268641582131
 21
275.2796254698139
 31
0.0
  0
LINE
  5
EC
330
3C
100
AcDbEntity
  8
1
  6
Continuous
 62
     7
100
AcDbLine
 10
173.1074292482877
 20
275.2796254698139
 30
0.0
 11
172.6986059682027
 21
267.4788125813857
 31
0.0
  0
LINE
  5
ED
330
3C
100
AcDbEntity
  8
1
  6
Continuous
 62
     7
100
AcDbLine
 10
173.1074292482877
 20
275.2796254698139
 30
0.0
 11
173.5171467032517
 21
275.6893429247779
 31
0.0
  0
LINE
  5
EE
330
3C
100
AcDbEntity
  8
1
  6
Continuous
 62
     7
100
AcDbLine
 10
173.5171467032517
 20
278.597500231329
 30
0.0
 11
173.5171467032517
 21
277.0975002313292
 31
0.0
  0
LINE
  5
EF
330
3C
100
AcDbEntity
  8
1
  6
Continuous
 62
     2
100
AcDbLine
 10
196.7041467032505
 20
277.0975002313292
 30
0.0
 11
196.7041467032505
 21
278.597500231329
 31
0.0
  0
LINE
  5
F0
330
3C
100
AcDbEntity
  8
1
  6
Continuous
 62
     2
100
AcDbLine
 10
174.3301467032504
 20
278.597500231329
 30
0.0
 11
174.3301467032504
 21
277.0975002313292
 31
0.0
  0
LINE
  5
F1
330
3C
100
AcDbEntity
  8
1
  6
Continuous
 62
     2
100
AcDbLine
 10
174.3301467032504
 20
277.0975002313292
 30
0.0
 11
173.5171467032517
 21
275.6893429247779
 31
0.0
  0
LINE
  5
F2
330
3C
100
AcDbEntity
  8
1
  6
Continuous
 62
     7
100
AcDbLine
 10
173.5171467032517
 20
277.0975002313292
 30
0.0
 11
173.5171467032517
 21
275.6893429247779
 31
0.0
  0
LINE
  5
F3
330
3C
100
AcDbEntity
  8
1
  6
Continuous
 62
     7
100
AcDbLine
 10
208.0171467032345
 20
237.117500231329
 30
0.0
 11
206.0079677664546
 21
237.117500231329
 31
0.0
  0
LINE
  5
F4
330
3C
100
AcDbEntity
  8
1
  6
Continuous
 62
     7
100
AcDbLine
 10
328.5171467032278
 20
382.622829992781
 30
0.0
 11
328.5171467032278
 21
379.7148700384041
 31
0.0
  0
LINE
  5
F5
330
3C
100
AcDbEntity
  8
1
  6
Continuous
 62
     2
100
AcDbLine
 10
329.3301467032262
 20
381.2146726862298
 30
0.0
 11
329.3301467032262
 21
379.7148700384041
 31
0.0
  0
LINE
  5
F6
330
3C
100
AcDbEntity
  8
1
  6
Continuous
 62
     7
100
AcDbLine
 10
312.4253040097775
 20
425.7146726862289
 30
0.0
 11
309.5170480271401
 21
425.7146726862289
 31
0.0
  0
LINE
  5
F7
330
3C
100
AcDbEntity
  8
1
  6
Continuous
 62
     2
100
AcDbLine
 10
311.0171467032264
 20
424.9016726862298
 30
0.0
 11
309.5170480271401
 21
424.9016726862298
 31
0.0
  0
LINE
  5
F8
330
3C
100
AcDbEntity
  8
1
  6
Continuous
 62
     7
100
AcDbLine
 10
312.4253040097775
 20
401.714672686231
 30
0.0
 11
312.4253040097775
 21
425.7146726862289
 31
0.0
  0
LINE
  5
F9
330
3C
100
AcDbEntity
  8
1
  6
Continuous
 62
     7
100
AcDbLine
 10
312.8350214647415
 20
401.3049552312669
 30
0.0
 11
312.8350214647415
 21
426.1243901411926
 31
0.0
  0
LINE
  5
FA
330
3C
100
AcDbEntity
  8
1
  6
Continuous
 62
     7
100
AcDbLine
 10
328.5171467032278
 20
382.622829992781
 30
0.0
 11
352.5171467032249
 21
382.622829992781
 31
0.0
  0
LINE
  5
FB
330
3C
100
AcDbEntity
  8
1
  6
Continuous
 62
     7
100
AcDbLine
 10
328.1074292482637
 20
383.0325474477448
 30
0.0
 11
352.926864158189
 21
383.0325474477448
 31
0.0
  0
LINE
  5
FC
330
3C
100
AcDbEntity
  8
1
  6
Continuous
 62
     7
100
AcDbLine
 10
330.0371467032263
 20
446.5546726862136
 30
0.0
 11
350.9971467032264
 21
446.5546726862137
 31
0.0
  0
LINE
  5
FD
330
3C
100
AcDbEntity
  8
1
  6
Continuous
 62
     7
100
AcDbLine
 10
330.0371467032263
 20
430.2146726862295
 30
0.0
 11
352.3846978729648
 21
430.2146726862299
 31
0.0
  0
LINE
  5
FE
330
3C
100
AcDbEntity
  8
1
  6
Continuous
 62
     7
100
AcDbLine
 10
328.4792432546967
 20
430.2146726862299
 30
0.0
 11
330.0371467032263
 21
430.2146726862295
 31
0.0
  0
LINE
  5
FF
330
3C
100
AcDbEntity
  8
1
  6
PHANTOM
 62
     4
100
AcDbLine
 10
340.5171467032264
 20
453.7146726862139
 30
0.0
 11
340.5171467032262
 21
375.2146726862298
 31
0.0
  0
LINE
  5
100
330
3C
100
AcDbEntity
  8
1
  6
Continuous
 62
     7
100
AcDbLine
 10
311.0171467032264
 20
425.7146726862283
 30
0.0
 11
311.0171467032264
 21
401.714672686231
 31
0.0
  0
LINE
  5
101
330
3C
100
AcDbEntity
  8
1
  6
Continuous
 62
     2
100
AcDbLine
 10
311.0171467032264
 20
402.5276726862299
 30
0.0
 11
312.4253040097775
 21
401.714672686231
 31
0.0
  0
LINE
  5
102
330
3C
100
AcDbEntity
  8
1
  6
Continuous
 62
     2
100
AcDbLine
 10
309.5170480271401
 20
402.5276726862299
 30
0.0
 11
311.0171467032264
 21
402.5276726862299
 31
0.0
  0
LINE
  5
103
330
3C
100
AcDbEntity
  8
1
  6
Continuous
 62
     7
100
AcDbLine
 10
309.5170480271401
 20
401.714672686231
 30
0.0
 11
312.4253040097775
 21
401.714672686231
 31
0.0
  0
LINE
  5
104
330
3C
100
AcDbEntity
  8
1
  6
PHANTOM
 62
     4
100
AcDbLine
 10
358.7171467032262
 20
413.7146726862299
 30
0.0
 11
305.0171467032262
 21
413.7146726862299
 31
0.0
  0
LINE
  5
105
330
3C
100
AcDbEntity
  8
1
  6
Continuous
 62
     2
100
AcDbLine
 10
312.4253040097775
 20
425.7146726862289
 30
0.0
 11
311.0171467032264
 21
424.9016726862298
 31
0.0
  0
LINE
  5
106
330
3C
100
AcDbEntity
  8
1
  6
Continuous
 62
     7
100
AcDbLine
 10
328.5171467032278
 20
381.2146726862298
 30
0.0
 11
352.5171467032249
 21
381.2146726862298
 31
0.0
  0
LINE
  5
107
330
3C
100
AcDbEntity
  8
1
  6
Continuous
 62
     2
100
AcDbLine
 10
351.7041467032265
 20
381.2146726862298
 30
0.0
 11
352.5171467032249
 21
382.622829992781
 31
0.0
  0
LINE
  5
108
330
3C
100
AcDbEntity
  8
1
  6
Continuous
 62
     2
100
AcDbLine
 10
351.7041467032265
 20
379.7139924027395
 30
0.0
 11
351.7041467032265
 21
381.2146726862298
 31
0.0
  0
LINE
  5
109
330
3C
100
AcDbEntity
  8
1
  6
Continuous
 62
     7
100
AcDbLine
 10
352.5171467032249
 20
379.7148700384041
 30
0.0
 11
352.5171467032249
 21
382.622829992781
 31
0.0
  0
LINE
  5
10A
330
3C
100
AcDbEntity
  8
1
  6
Continuous
 62
     2
100
AcDbLine
 10
328.5171467032278
 20
382.622829992781
 30
0.0
 11
329.3301467032262
 21
381.2146726862298
 31
0.0
  0
LINE
  5
10B
330
3C
100
AcDbEntity
  8
1
  6
Continuous
 62
     2
100
AcDbLine
 10
349.8371467032262
 20
447.714672686214
 30
0.0
 11
349.8371467032262
 21
432.2238516230101
 31
0.0
  0
LINE
  5
10C
330
3C
100
AcDbEntity
  8
1
  6
Continuous
 62
     7
100
AcDbLine
 10
331.1971467032261
 20
447.714672686214
 30
0.0
 11
334.0171467032262
 21
447.714672686214
 31
0.0
  0
LINE
  5
10D
330
3C
100
AcDbEntity
  8
1
  6
Continuous
 62
     7
100
AcDbLine
 10
349.8371467032262
 20
447.714672686214
 30
0.0
 11
350.9971467032264
 21
446.5546726862137
 31
0.0
  0
LINE
  5
10E
330
3C
100
AcDbEntity
  8
1
  6
Continuous
 62
     7
100
AcDbLine
 10
350.9971467032264
 20
446.5546726862137
 30
0.0
 11
350.9971467032264
 21
430.2146726862299
 31
0.0
  0
LINE
  5
10F
330
3C
100
AcDbEntity
  8
1
  6
Continuous
 62
     7
100
AcDbLine
 10
334.0171467032262
 20
447.714672686214
 30
0.0
 11
347.0171467032264
 21
447.714672686214
 31
0.0
  0
LINE
  5
110
330
3C
100
AcDbEntity
  8
1
  6
Continuous
 62
     7
100
AcDbLine
 10
347.0171467032264
 20
447.714672686214
 30
0.0
 11
349.8371467032262
 21
447.714672686214
 31
0.0
  0
LINE
  5
111
330
3C
100
AcDbEntity
  8
1
  6
Continuous
 62
     2
100
AcDbLine
 10
349.8371467032262
 20
432.2238516230101
 30
0.0
 11
350.9971467032264
 21
430.2146726862299
 31
0.0
  0
LINE
  5
112
330
3C
100
AcDbEntity
  8
1
  6
Continuous
 62
     2
100
AcDbLine
 10
331.1971467032265
 20
432.2238516230096
 30
0.0
 11
331.1971467032261
 21
447.714672686214
 31
0.0
  0
LINE
  5
113
330
3C
100
AcDbEntity
  8
1
  6
Continuous
 62
     7
100
AcDbLine
 10
330.0371467032263
 20
446.5546726862136
 30
0.0
 11
331.1971467032261
 21
447.714672686214
 31
0.0
  0
LINE
  5
114
330
3C
100
AcDbEntity
  8
1
  6
Continuous
 62
     7
100
AcDbLine
 10
330.0371467032263
 20
430.2146726862295
 30
0.0
 11
330.0371467032263
 21
446.5546726862136
 31
0.0
  0
LINE
  5
115
330
3C
100
AcDbEntity
  8
1
  6
Continuous
 62
     7
100
AcDbLine
 10
350.9971467032264
 20
432.2238516230096
 30
0.0
 11
330.0371467032263
 21
432.2238516230096
 31
0.0
  0
LINE
  5
116
330
3C
100
AcDbEntity
  8
1
  6
Continuous
 62
     2
100
AcDbLine
 10
330.0371467032263
 20
430.2146726862295
 30
0.0
 11
331.1971467032265
 21
432.2238516230096
 31
0.0
  0
LINE
  5
117
330
3C
100
AcDbEntity
  8
1
  6
Continuous
 62
     7
100
AcDbLine
 10
321.9620023312916
 20
426.6027149399675
 30
0.0
 11
312.8350214647415
 21
426.1243901411926
 31
0.0
  0
LINE
  5
118
330
3C
100
AcDbEntity
  8
1
  6
Continuous
 62
     7
100
AcDbLine
 10
312.4253040097775
 20
425.7146726862289
 30
0.0
 11
312.8350214647415
 21
426.1243901411926
 31
0.0
  0
LINE
  5
119
330
3C
100
AcDbEntity
  8
1
  6
Continuous
 62
     7
100
AcDbLine
 10
312.8350214647415
 20
401.3049552312669
 30
0.0
 11
319.096707224194
 21
400.976794186046
 31
0.0
  0
LINE
  5
11A
330
3C
100
AcDbEntity
  8
1
  6
Continuous
 62
     7
100
AcDbLine
 10
327.6133494307989
 20
392.4601519794413
 30
0.0
 11
328.1074292482637
 21
383.0325474477448
 31
0.0
  0
LINE
  5
11B
330
3C
100
AcDbEntity
  8
1
  6
Continuous
 62
     7
100
AcDbLine
 10
328.5171467032278
 20
382.622829992781
 30
0.0
 11
328.1074292482637
 21
383.0325474477448
 31
0.0
  0
LINE
  5
11C
330
3C
100
AcDbEntity
  8
1
  6
Continuous
 62
     7
100
AcDbLine
 10
312.8350214647415
 20
401.3049552312669
 30
0.0
 11
312.4253040097775
 21
401.714672686231
 31
0.0
  0
LINE
  5
11D
330
3C
100
AcDbEntity
  8
1
  6
Continuous
 62
     7
100
AcDbLine
 10
352.926864158189
 20
383.0325474477448
 30
0.0
 11
353.39715374931
 21
392.0062074187424
 31
0.0
  0
LINE
  5
11E
330
3C
100
AcDbEntity
  8
1
  6
Continuous
 62
     7
100
AcDbLine
 10
352.926864158189
 20
383.0325474477448
 30
0.0
 11
352.5171467032249
 21
382.622829992781
 31
0.0
  0
LINE
  5
11F
330
3C
100
AcDbEntity
  8
1
  6
Continuous
 62
     7
100
AcDbLine
 10
205.3784580048628
 20
236.487990469737
 30
0.0
 11
205.3784580048628
 21
258.7070099929211
 31
0.0
  0
LINE
  5
120
330
3C
100
AcDbEntity
  8
1
  6
Continuous
 62
     7
100
AcDbLine
 10
206.0079677664546
 20
237.117500231329
 30
0.0
 11
206.0079677664546
 21
258.077500231329
 31
0.0
  0
LINE
  5
121
330
3C
100
AcDbEntity
  8
1
  6
Continuous
 62
     7
100
AcDbLine
 10
205.3784580048529
 20
402.6051629246379
 30
0.0
 11
205.3784580048529
 21
424.824182447822
 31
0.0
  0
LINE
  5
122
330
3C
100
AcDbEntity
  8
1
  6
Continuous
 62
     7
100
AcDbLine
 10
206.007967766445
 20
403.2346726862299
 30
0.0
 11
205.3784580048529
 21
402.6051629246379
 31
0.0
  0
LINE
  5
123
330
3C
100
AcDbEntity
  8
1
  6
Continuous
 62
     7
100
AcDbLine
 10
197.9268641581888
 20
383.0325474477451
 30
0.0
 11
198.0857583846293
 21
386.064429901346
 31
0.0
  0
LINE
  5
124
330
3C
100
AcDbEntity
  8
1
  6
Continuous
 62
     7
100
AcDbLine
 10
195.9971467032261
 20
446.5546726862137
 30
0.0
 11
195.9971467032261
 21
441.015051137843
 31
0.0
  0
LINE
  5
125
330
3C
100
AcDbEntity
  8
1
  6
Continuous
 62
     2
100
AcDbLine
 10
194.8371467032264
 20
447.714672686214
 30
0.0
 11
194.837146703226
 21
440.4532936298768
 31
0.0
  0
LINE
  5
126
330
3C
100
AcDbEntity
  8
1
  6
Continuous
 62
     7
100
AcDbLine
 10
173.6302932274958
 20
430.2146726862299
 30
0.0
 11
184.3748466541086
 21
430.2146726862299
 31
0.0
  0
LINE
  5
127
330
3C
100
AcDbEntity
  8
1
  6
Continuous
 62
     2
100
AcDbLine
 10
174.3301467032261
 20
381.2146726862299
 30
0.0
 11
174.3301467032261
 21
379.7147713623169
 31
0.0
  0
LINE
  5
128
330
3C
100
AcDbEntity
  8
1
  6
Continuous
 62
     7
100
AcDbLine
 10
173.5171467032275
 20
382.6228299927811
 30
0.0
 11
173.5171467032275
 21
379.7147713623169
 31
0.0
  0
LINE
  5
129
330
3C
100
AcDbEntity
  8
1
  6
Continuous
 62
     7
100
AcDbLine
 10
197.9268641581888
 20
383.0325474477451
 30
0.0
 11
173.1074292482635
 21
383.0325474477451
 31
0.0
  0
LINE
  5
12A
330
3C
100
AcDbEntity
  8
1
  6
Continuous
 62
     7
100
AcDbLine
 10
173.5171467032275
 20
382.6228299927811
 30
0.0
 11
197.5171467032247
 21
382.6228299927811
 31
0.0
  0
LINE
  5
12B
330
3C
100
AcDbEntity
  8
1
  6
Continuous
 62
     7
100
AcDbLine
 10
206.007967766445
 20
403.2346726862299
 30
0.0
 11
206.007967766445
 21
424.1946726862299
 31
0.0
  0
LINE
  5
12C
330
3C
100
AcDbEntity
  8
1
  6
Continuous
 62
     7
100
AcDbLine
 10
222.8571467032247
 20
403.2346726862299
 30
0.0
 11
222.8571467032247
 21
424.1946726862299
 31
0.0
  0
LINE
  5
12D
330
3C
100
AcDbEntity
  8
1
  6
Continuous
 62
     7
100
AcDbLine
 10
175.0371467032261
 20
446.5546726862137
 30
0.0
 11
195.9971467032261
 21
446.5546726862137
 31
0.0
  0
LINE
  5
12E
330
3C
100
AcDbEntity
  8
1
  6
Continuous
 62
     7
100
AcDbLine
 10
172.6514455578218
 20
391.7332345724382
 30
0.0
 11
173.1074292482635
 21
383.0325474477451
 31
0.0
  0
LINE
  5
12F
330
3C
100
AcDbEntity
  8
1
  6
Continuous
 62
     7
100
AcDbLine
 10
173.5171467032275
 20
382.6228299927811
 30
0.0
 11
173.1074292482635
 21
383.0325474477451
 31
0.0
  0
LINE
  5
130
330
3C
100
AcDbEntity
  8
1
  6
Continuous
 62
     7
100
AcDbLine
 10
197.9268641581888
 20
383.0325474477451
 30
0.0
 11
197.5171467032247
 21
382.6228299927811
 31
0.0
  0
LINE
  5
131
330
3C
100
AcDbEntity
  8
1
  6
Continuous
 62
     7
100
AcDbLine
 10
205.3784580048529
 20
424.824182447822
 30
0.0
 11
206.007967766445
 21
424.1946726862299
 31
0.0
  0
LINE
  5
132
330
3C
100
AcDbEntity
  8
1
  6
Continuous
 62
     7
100
AcDbLine
 10
162.9597873903443
 20
426.0146726862299
 30
0.0
 11
166.0171467032261
 21
426.0146726862299
 31
0.0
  0
LINE
  5
133
330
3C
100
AcDbEntity
  8
1
  6
Continuous
 62
     7
100
AcDbLine
 10
159.0060397042947
 20
428.7257796851602
 30
0.0
 11
153.1782598704265
 21
428.7257796851602
 31
0.0
  0
LINE
  5
134
330
3C
100
AcDbEntity
  8
1
  6
Continuous
 62
     7
100
AcDbLine
 10
152.67027285978
 20
427.8459203731354
 30
0.0
 11
153.1782598704265
 21
428.7257796851602
 31
0.0
  0
LINE
  5
135
330
3C
100
AcDbEntity
  8
1
  6
Continuous
 62
     7
100
AcDbLine
 10
160.2997350363146
 20
427.4320843531402
 30
0.0
 11
160.8384670467847
 21
426.8933523426701
 31
0.0
  0
LINE
  5
136
330
3C
100
AcDbEntity
  8
1
  6
Continuous
 62
     7
100
AcDbLine
 10
163.8806565429888
 20
401.4146726862297
 30
0.0
 11
162.9597873903444
 21
401.41467268623
 31
0.0
  0
LINE
  5
137
330
3C
100
AcDbEntity
  8
1
  6
Continuous
 62
     7
100
AcDbLine
 10
152.017146703225
 20
426.7146726862299
 30
0.0
 11
152.017146703225
 21
400.7146726862299
 31
0.0
  0
LINE
  5
138
330
3C
100
AcDbEntity
  8
1
  6
Continuous
 62
     7
100
AcDbLine
 10
153.1782598704265
 20
398.7035656872997
 30
0.0
 11
159.0060397042947
 21
398.7035656872997
 31
0.0
  0
LINE
  5
139
330
3C
100
AcDbEntity
  8
1
  6
Continuous
 62
     7
100
AcDbLine
 10
152.6702728597791
 20
399.583424999326
 30
0.0
 11
152.017146703225
 21
400.7146726862299
 31
0.0
  0
LINE
  5
13A
330
3C
100
AcDbEntity
  8
1
  6
Continuous
 62
     7
100
AcDbLine
 10
160.2997350363152
 20
399.9972610193201
 30
0.0
 11
159.0060397042947
 21
398.7035656872997
 31
0.0
  0
LINE
  5
13B
330
3C
100
AcDbEntity
  8
1
  6
PHANTOM
 62
     4
100
AcDbLine
 10
185.5171467032261
 20
375.2146726862299
 30
0.0
 11
185.5171467032261
 21
453.7146726862139
 31
0.0
  0
LINE
  5
13C
330
3C
100
AcDbEntity
  8
1
  6
Continuous
 62
     2
100
AcDbLine
 10
173.5171467032275
 20
382.6228299927811
 30
0.0
 11
174.3301467032261
 21
381.2146726862299
 31
0.0
  0
LINE
  5
13D
330
3C
100
AcDbEntity
  8
1
  6
Continuous
 62
     7
100
AcDbLine
 10
173.5171467032275
 20
381.2146726862299
 30
0.0
 11
197.5171467032247
 21
381.2146726862299
 31
0.0
  0
LINE
  5
13E
330
3C
100
AcDbEntity
  8
1
  6
Continuous
 62
     2
100
AcDbLine
 10
196.7041467032261
 20
381.2146726862299
 30
0.0
 11
197.5171467032247
 21
382.6228299927811
 31
0.0
  0
LINE
  5
13F
330
3C
100
AcDbEntity
  8
1
  6
Continuous
 62
     2
100
AcDbLine
 10
196.7041467032261
 20
379.7147713623169
 30
0.0
 11
196.7041467032261
 21
381.2146726862299
 31
0.0
  0
LINE
  5
140
330
3C
100
AcDbEntity
  8
1
  6
Continuous
 62
     7
100
AcDbLine
 10
197.5171467032247
 20
379.7147713623169
 30
0.0
 11
197.5171467032247
 21
382.6228299927811
 31
0.0
  0
LINE
  5
141
330
3C
100
AcDbEntity
  8
1
  6
Continuous
 62
     2
100
AcDbLine
 10
176.1971467032264
 20
432.2238516230097
 30
0.0
 11
176.1971467032264
 21
447.714672686214
 31
0.0
  0
LINE
  5
142
330
3C
100
AcDbEntity
  8
1
  6
Continuous
 62
     7
100
AcDbLine
 10
176.1971467032264
 20
447.714672686214
 30
0.0
 11
194.8371467032264
 21
447.714672686214
 31
0.0
  0
LINE
  5
143
330
3C
100
AcDbEntity
  8
1
  6
Continuous
 62
     7
100
AcDbLine
 10
175.0371467032261
 20
446.5546726862137
 30
0.0
 11
176.1971467032264
 21
447.714672686214
 31
0.0
  0
LINE
  5
144
330
3C
100
AcDbEntity
  8
1
  6
Continuous
 62
     7
100
AcDbLine
 10
175.0371467032261
 20
430.2146726862299
 30
0.0
 11
175.0371467032261
 21
446.5546726862137
 31
0.0
  0
LINE
  5
145
330
3C
100
AcDbEntity
  8
1
  6
Continuous
 62
     2
100
AcDbLine
 10
175.0371467032261
 20
430.2146726862299
 30
0.0
 11
176.1971467032264
 21
432.2238516230097
 31
0.0
  0
LINE
  5
146
330
3C
100
AcDbEntity
  8
1
  6
Continuous
 62
     7
100
AcDbLine
 10
194.8371467032264
 20
447.714672686214
 30
0.0
 11
195.9971467032261
 21
446.5546726862137
 31
0.0
  0
LINE
  5
147
330
3C
100
AcDbEntity
  8
1
  6
Continuous
 62
     7
100
AcDbLine
 10
186.3904091711579
 20
432.2238516230097
 30
0.0
 11
175.0371467032261
 21
432.2238516230097
 31
0.0
  0
LINE
  5
148
330
3C
100
AcDbEntity
  8
1
  6
Continuous
 62
     2
100
AcDbLine
 10
208.0171467032247
 20
423.0346726862296
 30
0.0
 11
224.0171467032247
 21
423.0346726862301
 31
0.0
  0
LINE
  5
149
330
3C
100
AcDbEntity
  8
1
  6
Continuous
 62
     7
100
AcDbLine
 10
224.0171467032247
 20
423.0346726862301
 30
0.0
 11
224.0171467032247
 21
404.3946726862302
 31
0.0
  0
LINE
  5
14A
330
3C
100
AcDbEntity
  8
1
  6
Continuous
 62
     7
100
AcDbLine
 10
222.8571467032247
 20
424.1946726862299
 30
0.0
 11
224.0171467032247
 21
423.0346726862301
 31
0.0
  0
LINE
  5
14B
330
3C
100
AcDbEntity
  8
1
  6
Continuous
 62
     7
100
AcDbLine
 10
206.007967766445
 20
424.1946726862299
 30
0.0
 11
222.8571467032247
 21
424.1946726862299
 31
0.0
  0
LINE
  5
14C
330
3C
100
AcDbEntity
  8
1
  6
Continuous
 62
     2
100
AcDbLine
 10
206.007967766445
 20
424.1946726862299
 30
0.0
 11
208.0171467032247
 21
423.0346726862296
 31
0.0
  0
LINE
  5
14D
330
3C
100
AcDbEntity
  8
1
  6
Continuous
 62
     2
100
AcDbLine
 10
224.0171467032247
 20
404.3946726862302
 30
0.0
 11
208.0171467032247
 21
404.3946726862302
 31
0.0
  0
LINE
  5
14E
330
3C
100
AcDbEntity
  8
1
  6
Continuous
 62
     7
100
AcDbLine
 10
224.0171467032247
 20
404.3946726862302
 30
0.0
 11
222.8571467032247
 21
403.2346726862299
 31
0.0
  0
LINE
  5
14F
330
3C
100
AcDbEntity
  8
1
  6
Continuous
 62
     7
100
AcDbLine
 10
222.8571467032247
 20
403.2346726862299
 30
0.0
 11
206.007967766445
 21
403.2346726862299
 31
0.0
  0
LINE
  5
150
330
3C
100
AcDbEntity
  8
1
  6
Continuous
 62
     7
100
AcDbLine
 10
208.0171467032247
 20
403.2346726862299
 30
0.0
 11
208.0171467032247
 21
424.1946726862299
 31
0.0
  0
LINE
  5
151
330
3C
100
AcDbEntity
  8
1
  6
Continuous
 62
     2
100
AcDbLine
 10
208.0171467032247
 20
404.3946726862302
 30
0.0
 11
206.007967766445
 21
403.2346726862299
 31
0.0
  0
LINE
  5
152
330
3C
100
AcDbEntity
  8
1
  6
Continuous
 62
     7
100
AcDbLine
 10
153.1782598704265
 20
421.2202261856948
 30
0.0
 11
159.0060397042947
 21
421.2202261856948
 31
0.0
  0
LINE
  5
153
330
3C
100
AcDbEntity
  8
1
  6
Continuous
 62
     7
100
AcDbLine
 10
159.0060397042947
 20
406.2091191867648
 30
0.0
 11
153.1782598704265
 21
406.2091191867648
 31
0.0
  0
LINE
  5
154
330
3C
100
AcDbEntity
  8
1
  6
Continuous
 62
     7
100
AcDbLine
 10
152.017146703225
 20
426.7146726862299
 30
0.0
 11
152.67027285978
 21
427.8459203731354
 31
0.0
  0
LINE
  5
155
330
3C
100
AcDbEntity
  8
1
  6
Continuous
 62
     7
100
AcDbLine
 10
159.0060397042947
 20
428.7257796851602
 30
0.0
 11
160.2997350363146
 21
427.4320843531402
 31
0.0
  0
LINE
  5
156
330
3C
100
AcDbEntity
  8
1
  6
Continuous
 62
     7
100
AcDbLine
 10
153.1782598704265
 20
398.7035656872997
 30
0.0
 11
152.6702728597791
 21
399.583424999326
 31
0.0
  0
LINE
  5
157
330
3C
100
AcDbEntity
  8
1
  6
Continuous
 62
     7
100
AcDbLine
 10
160.8384670467848
 20
400.5359930297897
 30
0.0
 11
160.2997350363152
 21
399.9972610193201
 31
0.0
  0
LINE
  5
158
330
3C
100
AcDbEntity
  8
1
  6
PHANTOM
 62
     4
100
AcDbLine
 10
232.0171467032247
 20
413.7146726862299
 30
0.0
 11
152.017146703225
 21
413.7146726862299
 31
0.0
  0
LINE
  5
159
330
3C
100
AcDbEntity
  8
1
  6
Continuous
 62
     7
100
AcDbLine
 10
153.017146703249
 20
247.597500231329
 30
0.0
 11
159.0060397043187
 21
247.597500231329
 31
0.0
  0
LINE
  5
15A
330
3C
100
AcDbEntity
  8
1
  6
Continuous
 62
     7
100
AcDbLine
 10
152.017146703249
 20
247.597500231329
 30
0.0
 11
152.017146703249
 21
241.097500231329
 31
0.0
  0
LINE
  5
15B
330
3C
100
AcDbEntity
  8
1
  6
Continuous
 62
     7
100
AcDbLine
 10
161.0336513619427
 20
234.597500231329
 30
0.0
 11
153.017146703249
 21
234.597500231329
 31
0.0
  0
LINE
  5
15C
330
3C
100
AcDbEntity
  8
1
  6
Continuous
 62
     7
100
AcDbLine
 10
152.017146703249
 20
241.097500231329
 30
0.0
 11
152.017146703249
 21
234.597500231329
 31
0.0
  0
LINE
  5
15D
330
3C
100
AcDbEntity
  8
1
  6
Continuous
 62
     7
100
AcDbLine
 10
153.017146703249
 20
234.597500231329
 30
0.0
 11
152.017146703249
 21
234.597500231329
 31
0.0
  0
LINE
  5
15E
330
3C
100
AcDbEntity
  8
1
  6
PHANTOM
 62
     4
100
AcDbLine
 10
162.5171467032504
 20
247.597500231329
 30
0.0
 11
232.0171467032345
 21
247.597500231329
 31
0.0
  0
LINE
  5
15F
330
3C
100
AcDbEntity
  8
1
  6
Continuous
 62
     7
100
AcDbLine
 10
173.1074292482877
 20
275.2796254698139
 30
0.0
 11
197.9268641582131
 21
275.2796254698139
 31
0.0
  0
LINE
  5
160
330
3C
100
AcDbEntity
  8
1
  6
Continuous
 62
     7
100
AcDbLine
 10
173.5171467032517
 20
275.6893429247779
 30
0.0
 11
197.517146703249
 21
275.6893429247779
 31
0.0
  0
LINE
  5
161
330
3C
100
AcDbEntity
  8
1
  6
Continuous
 62
     7
100
AcDbLine
 10
222.8571467032343
 20
258.077500231329
 30
0.0
 11
222.8571467032343
 21
237.1175002313291
 31
0.0
  0
ARC
  5
162
330
3C
100
AcDbEntity
  8
1
  6
Continuous
 62
     7
100
AcDbCircle
 10
185.5171467032504
 20
248.3975002313291
 30
0.0
 40
19.00000000000009
100
AcDbArc
 50
-121.9275009686229
 51
-54.4140302793055
  0
ARC
  5
163
330
3C
100
AcDbEntity
  8
1
  6
Continuous
 62
     7
100
AcDbCircle
 10
319.7171467032266
 20
413.7146726862299
 30
0.0
 40
39.00000000000003
100
AcDbArc
 50
-26.98200973602273
 51
0.0
  0
ARC
  5
164
330
3C
100
AcDbEntity
  8
1
  6
Continuous
 62
     7
100
AcDbCircle
 10
334.7171467032266
 20
413.7146726862299
 30
0.0
 40
23.9999999999996
100
AcDbArc
 50
0.0
 51
39.32810643370225
  0
ARC
  5
165
330
3C
100
AcDbEntity
  8
1
  6
Continuous
 62
     7
100
AcDbCircle
 10
146.1282965470078
 20
413.7146726862297
 30
0.0
 40
14.90535481491068
100
AcDbArc
 50
23.78282076419483
 51
30.23497665191074
  0
ARC
  5
166
330
3C
100
AcDbEntity
  8
1
  6
Continuous
 62
     7
100
AcDbCircle
 10
206.517146703226
 20
413.7146726862299
 30
0.0
 40
39.22245539130727
100
AcDbArc
 50
-154.5400405007752
 51
-153.1979276685787
  0
ARC
  5
167
330
3C
100
AcDbEntity
  8
1
  6
Continuous
 62
     7
100
AcDbCircle
 10
161.8886711994463
 20
391.1691814693915
 30
0.0
 40
10.77754460869274
100
AcDbArc
 50
2.99999999999893
 51
26.80207233142074
  0
ARC
  5
168
330
3C
100
AcDbEntity
  8
1
  6
Continuous
 62
     7
100
AcDbCircle
 10
158.6622858491254
 20
424.9730029354275
 30
0.0
 40
6.64513914589983
100
AcDbArc
 50
154.38424746797
 51
-145.6157525319584
  0
ARC
  5
169
330
3C
100
AcDbEntity
  8
1
  6
Continuous
 62
     7
100
AcDbCircle
 10
176.8560335360245
 20
413.7146726862299
 30
0.0
 40
24.83888683279942
100
AcDbArc
 50
162.4120462260075
 51
-162.412046226007
  0
ARC
  5
16A
330
3C
100
AcDbEntity
  8
1
  6
Continuous
 62
     7
100
AcDbCircle
 10
156.5469582865818
 20
424.9730029354275
 30
0.0
 40
4.486693075336778
100
AcDbArc
 50
-56.76438351492485
 51
33.23561648507285
  0
ARC
  5
16B
330
3C
100
AcDbEntity
  8
1
  6
Continuous
 62
     7
100
AcDbCircle
 10
146.1282965470078
 20
413.7146726862297
 30
0.0
 40
14.90535481491061
100
AcDbArc
 50
-30.23497665190999
 51
-23.78282076420068
  0
ARC
  5
16C
330
3C
100
AcDbEntity
  8
1
  6
Continuous
 62
     7
100
AcDbCircle
 10
156.5469582865818
 20
402.4563424370319
 30
0.0
 40
4.486693075336789
100
AcDbArc
 50
-33.23561648505815
 51
56.76438351492644
  0
ARC
  5
16D
330
3C
100
AcDbEntity
  8
1
  6
Continuous
 62
     7
100
AcDbCircle
 10
158.6622858491254
 20
402.4563424370319
 30
0.0
 40
6.645139145900575
100
AcDbArc
 50
145.6157525319568
 51
-154.3842474679893
  0
ARC
  5
16E
330
3C
100
AcDbEntity
  8
1
  6
Continuous
 62
     7
100
AcDbCircle
 10
149.6011837935576
 20
254.0975002313291
 30
0.0
 40
11.4324675683852
100
AcDbArc
 50
-34.64960450200774
 51
34.64960450200668
  0
ARC
  5
16F
330
3C
100
AcDbEntity
  8
1
  6
Continuous
 62
     7
100
AcDbCircle
 10
149.6011837935576
 20
241.097500231329
 30
0.0
 40
11.4324675683851
100
AcDbArc
 50
-34.64960450200704
 51
34.64960450200739
  0
ARC
  5
170
330
3C
100
AcDbEntity
  8
1
  6
Continuous
 62
     7
100
AcDbCircle
 10
173.642146703249
 20
241.097500231329
 30
0.0
 40
21.625
100
AcDbArc
 50
162.5076754748896
 51
-162.5076754748896
  0
ARC
  5
171
330
3C
100
AcDbEntity
  8
1
  6
Continuous
 62
     7
100
AcDbCircle
 10
173.642146703249
 20
254.097500231329
 30
0.0
 40
21.62499999999999
100
AcDbArc
 50
162.5076754748897
 51
-162.5076754748896
  0
CIRCLE
  5
172
330
3C
100
AcDbEntity
  8
1
  6
Continuous
 62
     7
100
AcDbCircle
 10
340.5171467032263
 20
413.7146726862299
 30
0.0
 40
6.5
  0
CIRCLE
  5
173
330
3C
100
AcDbEntity
  8
1
  6
Continuous
 62
     7
100
AcDbCircle
 10
340.5171467032263
 20
413.7146726862299
 30
0.0
 40
9.319999999999993
  0
CIRCLE
  5
174
330
3C
100
AcDbEntity
  8
1
  6
Continuous
 62
     7
100
AcDbCircle
 10
340.5171467032263
 20
413.7146726862299
 30
0.0
 40
10.47999999999996
  0
ARC
  5
175
330
3C
100
AcDbEntity
  8
1
  6
Continuous
 62
     7
100
AcDbCircle
 10
164.8921618547708
 20
215.2975002313292
 30
0.0
 40
20.00000000000001
100
AcDbArc
 50
58.07249903137707
 51
90.0
  0
ARC
  5
176
330
3C
100
AcDbEntity
  8
1
  6
Continuous
 62
     7
100
AcDbCircle
 10
162.9597873903686
 20
232.2975002313292
 30
0.0
 40
2.999999999999915
100
AcDbArc
 50
90.0
 51
129.9445051898183
  0
ARC
  5
177
330
3C
100
AcDbEntity
  8
1
  6
Continuous
 62
     7
100
AcDbCircle
 10
164.7095696901661
 20
267.8975002313291
 30
0.0
 40
8.0
100
AcDbArc
 50
-90.0
 51
-2.99999999999907
  0
ARC
  5
178
330
3C
100
AcDbEntity
  8
1
  6
Continuous
 62
     7
100
AcDbCircle
 10
162.9597873903686
 20
262.897500231329
 30
0.0
 40
3.00000000000006
100
AcDbArc
 50
-129.9445051898159
 51
-90.0
  0
ARC
  5
179
330
3C
100
AcDbEntity
  8
1
  6
Continuous
 62
     7
100
AcDbCircle
 10
207.3434447466777
 20
267.5664676139881
 30
0.0
 40
8.999999999999952
100
AcDbArc
 50
-176.9999999999988
 51
-103.2605025593181
  0
ARC
  5
17A
330
3C
100
AcDbEntity
  8
1
  6
Continuous
 62
     7
100
AcDbCircle
 10
208.2121766585588
 20
216.6810121639585
 30
0.0
 40
20.0
100
AcDbArc
 50
98.17496139588266
 51
125.5859697206953
  0
ARC
  5
17B
330
3C
100
AcDbEntity
  8
1
  6
Continuous
 62
     7
100
AcDbCircle
 10
318.6256836180075
 20
391.9891283732551
 30
0.0
 40
9.000000000000242
100
AcDbArc
 50
2.99999999999827
 51
86.99999999999976
  0
ARC
  5
17C
330
3C
100
AcDbEntity
  8
1
  6
Continuous
 62
     7
100
AcDbCircle
 10
321.5171467032264
 20
435.0910659853809
 30
0.0
 40
8.499999999999558
100
AcDbArc
 50
-86.99999999999847
 51
-35.00817651377181
  0
ARC
  5
17D
330
3C
100
AcDbEntity
  8
1
  6
Continuous
 62
     7
100
AcDbCircle
 10
363.3834490968561
 20
391.4828478563128
 30
0.0
 40
10.00000000000011
100
AcDbArc
 50
153.017990263978
 51
176.9999999999991
  0
ARC
  5
17E
330
3C
100
AcDbEntity
  8
1
  6
Continuous
 62
     7
100
AcDbCircle
 10
361.0171467032264
 20
435.2625264076565
 30
0.0
 40
10.00000000000023
100
AcDbArc
 50
-149.682894074583
 51
-140.6718935662978
  0
ARC
  5
17F
330
3C
100
AcDbEntity
  8
1
  6
Continuous
 62
     7
100
AcDbCircle
 10
207.0171467032261
 20
391.7279068667056
 30
0.0
 40
11.00000000000005
100
AcDbArc
 50
98.56733977211488
 51
118.7059821287585
  0
ARC
  5
180
330
3C
100
AcDbEntity
  8
1
  6
Continuous
 62
     7
100
AcDbCircle
 10
207.0171467032261
 20
435.7014385057543
 30
0.0
 40
11.00000000000015
100
AcDbArc
 50
-118.7059821287585
 51
-98.56733977211488
  0
ARC
  5
181
330
3C
100
AcDbEntity
  8
1
  6
Continuous
 62
     7
100
AcDbCircle
 10
163.8806565429888
 20
393.4146726862297
 30
0.0
 40
8.00000000000006
100
AcDbArc
 50
25.45995949922636
 51
90.0
  0
ARC
  5
182
330
3C
100
AcDbEntity
  8
1
  6
Continuous
 62
     7
100
AcDbCircle
 10
166.0171467032261
 20
435.0146726862299
 30
0.0
 40
9.0
100
AcDbArc
 50
-90.0
 51
-32.23095263550223
  0
ARC
  5
183
330
3C
100
AcDbEntity
  8
1
  6
Continuous
 62
     7
100
AcDbCircle
 10
162.9597873903443
 20
429.0146726862299
 30
0.0
 40
3.000000000000104
100
AcDbArc
 50
-134.999999999997
 51
-90.0
  0
ARC
  5
184
330
3C
100
AcDbEntity
  8
1
  6
Continuous
 62
     7
100
AcDbCircle
 10
162.9597873903444
 20
398.41467268623
 30
0.0
 40
3.0
100
AcDbArc
 50
90.0
 51
134.9999999999981
  0
ENDBLK
  5
3E
330
3C
100
AcDbEntity
  8
0
100
AcDbBlockEnd
  0
BLOCK
  5
40
330
3F
100
AcDbEntity
  8
0
100
AcDbBlockBegin
  2
78-167
 70
     0
 71
     0
 10
214.2475180508417
 20
-388.613078756079
 30
0.0
  3
78-167
  1

  0
LINE
  5
185
330
3F
100
AcDbEntity
  8
1
  6
Continuous
 62
     7
100
AcDbLine
 10
105.0171467032243
 20
443.7146726862299
 30
0.0
 11
105.0171467032243
 21
383.7146726862299
 31
0.0
  0
LINE
  5
186
330
3F
100
AcDbEntity
  8
1
  6
Continuous
 62
     7
100
AcDbLine
 10
121.0171467032243
 20
403.1146726862299
 30
0.0
 11
121.0171467032243
 21
424.31467268623
 31
0.0
  0
LINE
  5
187
330
3F
100
AcDbEntity
  8
1
  6
Continuous
 62
     7
100
AcDbLine
 10
121.0171467032243
 20
401.5105042095427
 30
0.0
 11
121.0171467032243
 21
403.1146726862299
 31
0.0
  0
LINE
  5
188
330
3F
100
AcDbEntity
  8
1
  6
Continuous
 62
     7
100
AcDbLine
 10
105.0171467032243
 20
383.7146726862299
 30
0.0
 11
107.0171467032243
 21
383.7146726862299
 31
0.0
  0
LINE
  5
189
330
3F
100
AcDbEntity
  8
1
  6
Continuous
 62
     7
100
AcDbLine
 10
121.0171467032243
 20
424.31467268623
 30
0.0
 11
121.0171467032243
 21
425.9188411629173
 31
0.0
  0
LINE
  5
18A
330
3F
100
AcDbEntity
  8
1
  6
Continuous
 62
     7
100
AcDbLine
 10
107.0171467032243
 20
443.7146726862299
 30
0.0
 11
105.0171467032243
 21
443.7146726862299
 31
0.0
  0
LINE
  5
18B
330
3F
100
AcDbEntity
  8
1
  6
Continuous
 62
     7
100
AcDbLine
 10
107.0171467032491
 20
277.597500231329
 30
0.0
 11
105.0171467032491
 21
277.597500231329
 31
0.0
  0
LINE
  5
18C
330
3F
100
AcDbEntity
  8
1
  6
Continuous
 62
     7
100
AcDbLine
 10
121.0171467032491
 20
258.1975002313291
 30
0.0
 11
121.0171467032491
 21
259.8016687080165
 31
0.0
  0
LINE
  5
18D
330
3F
100
AcDbEntity
  8
1
  6
Continuous
 62
     7
100
AcDbLine
 10
105.0171467032491
 20
217.597500231329
 30
0.0
 11
107.0171467032491
 21
217.597500231329
 31
0.0
  0
LINE
  5
18E
330
3F
100
AcDbEntity
  8
1
  6
Continuous
 62
     7
100
AcDbLine
 10
121.0171467032491
 20
235.3933317546418
 30
0.0
 11
121.0171467032491
 21
236.997500231329
 31
0.0
  0
LINE
  5
18F
330
3F
100
AcDbEntity
  8
1
  6
Continuous
 62
     7
100
AcDbLine
 10
121.0171467032491
 20
236.997500231329
 30
0.0
 11
121.0171467032491
 21
258.1975002313291
 31
0.0
  0
LINE
  5
190
330
3F
100
AcDbEntity
  8
1
  6
Continuous
 62
     7
100
AcDbLine
 10
105.0171467032491
 20
277.597500231329
 30
0.0
 11
105.0171467032491
 21
217.597500231329
 31
0.0
  0
ARC
  5
191
330
3F
100
AcDbEntity
  8
1
  6
Continuous
 62
     7
100
AcDbCircle
 10
107.0171467032243
 20
396.71467268623
 30
0.0
 40
13.00000000000011
100
AcDbArc
 50
-90.0
 51
-23.55646430910177
  0
ARC
  5
192
330
3F
100
AcDbEntity
  8
1
  6
Continuous
 62
     7
100
AcDbCircle
 10
96.0171467032243
 20
401.5105042095427
 30
0.0
 40
25.00000000000008
100
AcDbArc
 50
-23.55646430910147
 51
0.0
  0
ARC
  5
193
330
3F
100
AcDbEntity
  8
1
  6
Continuous
 62
     7
100
AcDbCircle
 10
96.0171467032243
 20
425.9188411629173
 30
0.0
 40
25.0
100
AcDbArc
 50
0.0
 51
23.55646430910099
  0
ARC
  5
194
330
3F
100
AcDbEntity
  8
1
  6
Continuous
 62
     7
100
AcDbCircle
 10
107.0171467032243
 20
430.71467268623
 30
0.0
 40
13.0
100
AcDbArc
 50
23.55646430910086
 51
90.0
  0
ARC
  5
195
330
3F
100
AcDbEntity
  8
1
  6
Continuous
 62
     7
100
AcDbCircle
 10
340.5171467032261
 20
413.7146726862299
 30
0.0
 40
30.0
100
AcDbArc
 50
0.0
 51
69.55345576833781
  0
ARC
  5
196
330
3F
100
AcDbEntity
  8
1
  6
Continuous
 62
     7
100
AcDbCircle
 10
340.5171467032261
 20
413.7146726862299
 30
0.0
 40
29.99999999999994
100
AcDbArc
 50
-65.18512412163966
 51
0.0
  0
ARC
  5
197
330
3F
100
AcDbEntity
  8
1
  6
Continuous
 62
     7
100
AcDbCircle
 10
340.5171467032261
 20
413.7146726862299
 30
0.0
 40
29.99999999999997
100
AcDbArc
 50
110.4465442316615
 51
155.5236336395443
  0
ARC
  5
198
330
3F
100
AcDbEntity
  8
1
  6
Continuous
 62
     7
100
AcDbCircle
 10
340.5171467032261
 20
413.7146726862299
 30
0.0
 40
30.0
100
AcDbArc
 50
-155.5236336395438
 51
-114.8148758783595
  0
ARC
  5
199
330
3F
100
AcDbEntity
  8
1
  6
Continuous
 62
     7
100
AcDbCircle
 10
107.0171467032491
 20
264.5975002313292
 30
0.0
 40
13.00000000000007
100
AcDbArc
 50
23.55646430910045
 51
90.0
  0
ARC
  5
19A
330
3F
100
AcDbEntity
  8
1
  6
Continuous
 62
     7
100
AcDbCircle
 10
96.0171467032491
 20
259.8016687080165
 30
0.0
 40
25.0
100
AcDbArc
 50
0.0
 51
23.55646430910078
  0
ARC
  5
19B
330
3F
100
AcDbEntity
  8
1
  6
Continuous
 62
     7
100
AcDbCircle
 10
96.0171467032491
 20
235.3933317546418
 30
0.0
 40
25.00000000000017
100
AcDbArc
 50
-23.55646430910138
 51
0.0
  0
ARC
  5
19C
330
3F
100
AcDbEntity
  8
1
  6
Continuous
 62
     7
100
AcDbCircle
 10
107.0171467032491
 20
230.5975002313291
 30
0.0
 40
13.00000000000009
100
AcDbArc
 50
-90.0
 51
-23.5564643091016
  0
ENDBLK
  5
41
330
3F
100
AcDbEntity
  8
0
100
AcDbBlockEnd
  0
BLOCK
  5
43
330
42
100
AcDbEntity
  8
0
100
AcDbBlockBegin
  2
37-1-13__1
 70
     0
 71
     0
 10
185.5171467032261
 20
377.289901978544
 30
0.0
  3
37-1-13__1
  1

  0
LINE
  5
19D
330
42
100
AcDbEntity
  8
1
  6
PHANTOM
 62
     4
100
AcDbLine
 10
185.5171467032506
 20
265.5964088018088
 30
0.0
 11
185.5171467032504
 21
229.8925145339383
 31
0.0
  0
LINE
  5
19E
330
42
100
AcDbEntity
  8
1
  6
Continuous
 62
     7
100
AcDbLine
 10
186.4549978379288
 20
262.0671386251931
 30
0.0
 11
192.0171467032506
 21
258.8558304805267
 31
0.0
  0
LINE
  5
19F
330
42
100
AcDbEntity
  8
1
  6
Continuous
 62
     7
100
AcDbLine
 10
198.5171467032506
 20
254.0201165206615
 30
0.0
 11
198.5171467032504
 21
247.5975002313291
 31
0.0
  0
LINE
  5
1A0
330
42
100
AcDbEntity
  8
1
  6
Continuous
 62
     7
100
AcDbLine
 10
197.5792955685723
 20
239.5504781267975
 30
0.0
 11
192.0171467032504
 21
236.3391699821316
 31
0.0
  0
LINE
  5
1A1
330
42
100
AcDbEntity
  8
1
  6
Continuous
 62
     7
100
AcDbLine
 10
184.5792955685723
 20
233.1278618374651
 30
0.0
 11
179.0171467032504
 21
236.3391699821316
 31
0.0
  0
LINE
  5
1A2
330
42
100
AcDbEntity
  8
1
  6
Continuous
 62
     7
100
AcDbLine
 10
172.5171467032504
 20
241.1748839419967
 30
0.0
 11
172.5171467032504
 21
247.5975002313291
 31
0.0
  0
LINE
  5
1A3
330
42
100
AcDbEntity
  8
1
  6
Continuous
 62
     7
100
AcDbLine
 10
173.4549978379288
 20
255.6445223358607
 30
0.0
 11
179.0171467032506
 21
258.8558304805267
 31
0.0
  0
LINE
  5
1A4
330
42
100
AcDbEntity
  8
1
  6
Continuous
 62
     7
100
AcDbLine
 10
192.0171467032506
 20
258.8558304805267
 30
0.0
 11
197.5792955685723
 21
255.6445223358607
 31
0.0
  0
LINE
  5
1A5
330
42
100
AcDbEntity
  8
1
  6
Continuous
 62
     7
100
AcDbLine
 10
198.5171467032504
 20
247.5975002313291
 30
0.0
 11
198.5171467032504
 21
241.1748839419967
 31
0.0
  0
LINE
  5
1A6
330
42
100
AcDbEntity
  8
1
  6
Continuous
 62
     7
100
AcDbLine
 10
192.0171467032504
 20
236.3391699821316
 30
0.0
 11
186.4549978379288
 21
233.1278618374651
 31
0.0
  0
LINE
  5
1A7
330
42
100
AcDbEntity
  8
1
  6
Continuous
 62
     7
100
AcDbLine
 10
179.0171467032504
 20
236.3391699821316
 30
0.0
 11
173.4549978379288
 21
239.5504781267975
 31
0.0
  0
LINE
  5
1A8
330
42
100
AcDbEntity
  8
1
  6
Continuous
 62
     7
100
AcDbLine
 10
172.5171467032504
 20
247.5975002313291
 30
0.0
 11
172.5171467032506
 21
254.0201165206615
 31
0.0
  0
LINE
  5
1A9
330
42
100
AcDbEntity
  8
1
  6
Continuous
 62
     7
100
AcDbLine
 10
179.0171467032506
 20
258.8558304805267
 30
0.0
 11
184.5792955685723
 21
262.0671386251931
 31
0.0
  0
LINE
  5
1AA
330
42
100
AcDbEntity
  8
1
  6
PHANTOM
 62
     4
100
AcDbLine
 10
201.0834567582957
 20
247.5975002313291
 30
0.0
 11
170.0204499602527
 21
247.5975002313291
 31
0.0
  0
LINE
  5
1AB
330
42
100
AcDbEntity
  8
1
  6
Continuous
 62
     7
100
AcDbLine
 10
195.5171467032262
 20
372.5425301038409
 30
0.0
 11
175.5171467032262
 21
372.5425301038409
 31
0.0
  0
LINE
  5
1AC
330
42
100
AcDbEntity
  8
1
  6
Continuous
 62
     7
100
AcDbLine
 10
172.5171467032262
 20
379.7147713623169
 30
0.0
 11
172.5171467032262
 21
372.5425301038409
 31
0.0
  0
LINE
  5
1AD
330
42
100
AcDbEntity
  8
1
  6
Continuous
 62
     7
100
AcDbLine
 10
198.517146703226
 20
372.5425301038409
 30
0.0
 11
198.517146703226
 21
379.7147713623169
 31
0.0
  0
LINE
  5
1AE
330
42
100
AcDbEntity
  8
1
  6
Continuous
 62
     7
100
AcDbLine
 10
198.517146703226
 20
379.7147713623169
 30
0.0
 11
172.5171467032262
 21
379.7147713623169
 31
0.0
  0
LINE
  5
1AF
330
42
100
AcDbEntity
  8
1
  6
Continuous
 62
     7
100
AcDbLine
 10
191.5171467032261
 20
365.7147713623169
 30
0.0
 11
179.517146703226
 21
365.7147713623169
 31
0.0
  0
LINE
  5
1B0
330
42
100
AcDbEntity
  8
0
  6
Continuous
 62
     7
100
AcDbLine
 10
331.8419530503886
 20
372.6441558241326
 30
0.0
 11
335.6718890780356
 21
372.6441558241326
 31
0.0
  0
LINE
  5
1B1
330
42
100
AcDbEntity
  8
0
  6
Continuous
 62
     7
100
AcDbLine
 10
345.3625826358294
 20
372.6441558241326
 30
0.0
 11
349.1925186634765
 21
372.6441558241326
 31
0.0
  0
LINE
  5
1B2
330
42
100
AcDbEntity
  8
1
  6
Continuous
 62
     7
100
AcDbLine
 10
353.5879500712038
 20
379.7148700384041
 30
0.0
 11
327.4465216426613
 21
379.7148700384041
 31
0.0
  0
LINE
  5
1B3
330
42
100
AcDbEntity
  8
1
  6
Continuous
 62
     7
100
AcDbLine
 10
334.5172358569325
 20
365.7148700384041
 30
0.0
 11
346.5172358569325
 21
365.7148700384041
 31
0.0
  0
ARC
  5
1B4
330
42
100
AcDbEntity
  8
1
  6
Continuous
 62
     7
100
AcDbCircle
 10
185.5171467032504
 20
247.597500231329
 30
0.0
 40
14.50000000000015
100
AcDbArc
 50
26.29155527472878
 51
33.70844472527122
  0
ARC
  5
1B5
330
42
100
AcDbEntity
  8
1
  6
Continuous
 62
     7
100
AcDbCircle
 10
185.5171467032504
 20
247.597500231329
 30
0.0
 40
12.99999999999974
100
AcDbArc
 50
-59.99999999999933
 51
0.00000000000038
  0
ARC
  5
1B6
330
42
100
AcDbEntity
  8
1
  6
Continuous
 62
     7
100
AcDbCircle
 10
185.5171467032504
 20
247.597500231329
 30
0.0
 40
13.0
100
AcDbArc
 50
0.00000000000038
 51
59.99999999999927
  0
ARC
  5
1B7
330
42
100
AcDbEntity
  8
1
  6
Continuous
 62
     7
100
AcDbCircle
 10
185.5171467032504
 20
247.597500231329
 30
0.0
 40
14.50000000000017
100
AcDbArc
 50
-33.70844472527066
 51
-26.29155527472842
  0
ARC
  5
1B8
330
42
100
AcDbEntity
  8
1
  6
Continuous
 62
     7
100
AcDbCircle
 10
185.5171467032504
 20
247.597500231329
 30
0.0
 40
12.99999999999974
100
AcDbArc
 50
-120.0000000000007
 51
-59.99999999999933
  0
ARC
  5
1B9
330
42
100
AcDbEntity
  8
1
  6
Continuous
 62
     7
100
AcDbCircle
 10
185.5171467032504
 20
247.597500231329
 30
0.0
 40
14.49999999999992
100
AcDbArc
 50
-90.0
 51
-86.29155527472879
  0
ARC
  5
1BA
330
42
100
AcDbEntity
  8
1
  6
Continuous
 62
     7
100
AcDbCircle
 10
185.5171467032504
 20
247.597500231329
 30
0.0
 40
13.0
100
AcDbArc
 50
179.9999999999996
 51
-120.0000000000007
  0
ARC
  5
1BB
330
42
100
AcDbEntity
  8
1
  6
Continuous
 62
     7
100
AcDbCircle
 10
185.5171467032504
 20
247.597500231329
 30
0.0
 40
14.49999999999988
100
AcDbArc
 50
-153.7084447252716
 51
-146.2915552747287
  0
ARC
  5
1BC
330
42
100
AcDbEntity
  8
1
  6
Continuous
 62
     7
100
AcDbCircle
 10
185.5171467032504
 20
247.597500231329
 30
0.0
 40
12.99999999999991
100
AcDbArc
 50
119.9999999999992
 51
179.9999999999996
  0
ARC
  5
1BD
330
42
100
AcDbEntity
  8
1
  6
Continuous
 62
     7
100
AcDbCircle
 10
185.5171467032504
 20
247.597500231329
 30
0.0
 40
14.50000000000003
100
AcDbArc
 50
146.2915552747282
 51
153.7084447252705
  0
ARC
  5
1BE
330
42
100
AcDbEntity
  8
1
  6
Continuous
 62
     7
100
AcDbCircle
 10
185.5171467032504
 20
247.597500231329
 30
0.0
 40
13.00000000000011
100
AcDbArc
 50
59.99999999999927
 51
119.9999999999992
  0
ARC
  5
1BF
330
42
100
AcDbEntity
  8
1
  6
Continuous
 62
     7
100
AcDbCircle
 10
185.5171467032504
 20
247.597500231329
 30
0.0
 40
14.5000000000002
100
AcDbArc
 50
89.9999999999992
 51
93.70844472527006
  0
ARC
  5
1C0
330
42
100
AcDbEntity
  8
1
  6
Continuous
 62
     7
100
AcDbCircle
 10
185.5171467032504
 20
247.597500231329
 30
0.0
 40
14.5000000000001
100
AcDbArc
 50
86.29155527472882
 51
89.9999999999992
  0
ARC
  5
1C1
330
42
100
AcDbEntity
  8
1
  6
Continuous
 62
     7
100
AcDbCircle
 10
185.5171467032504
 20
247.597500231329
 30
0.0
 40
14.49999999999991
100
AcDbArc
 50
-93.70844472527011
 51
-90.0
  0
ARC
  5
1C2
330
42
100
AcDbEntity
  8
1
  6
Continuous
 62
     7
100
AcDbCircle
 10
159.6106914981112
 20
352.308316157202
 30
0.0
 40
24.0
100
AcDbArc
 50
56.04080749990202
 51
57.46810848225154
  0
ARC
  5
1C3
330
42
100
AcDbEntity
  8
1
  6
Continuous
 62
     7
100
AcDbCircle
 10
211.423601908341
 20
352.308316157202
 30
0.0
 40
23.99999999999995
100
AcDbArc
 50
123.9591925000978
 51
146.0408074999025
  0
ARC
  5
1C4
330
42
100
AcDbEntity
  8
1
  6
Continuous
 62
     7
100
AcDbCircle
 10
159.6106914981112
 20
352.308316157202
 30
0.0
 40
23.99999999999988
100
AcDbArc
 50
33.95919250009769
 51
56.04080749990202
  0
ARC
  5
1C5
330
42
100
AcDbEntity
  8
1
  6
Continuous
 62
     7
100
AcDbCircle
 10
211.423601908341
 20
352.308316157202
 30
0.0
 40
23.9999999999999
100
AcDbArc
 50
122.5318915177485
 51
123.9591925000978
  0
ARC
  5
1C6
330
42
100
AcDbEntity
  8
1
  6
Continuous
 62
     7
100
AcDbCircle
 10
350.0172358569325
 20
376.2148700384041
 30
0.0
 40
4.999999999999966
100
AcDbArc
 50
-53.1301023541565
 51
44.42700400080643
  0
ARC
  5
1C7
330
42
100
AcDbEntity
  8
1
  6
Continuous
 62
     7
100
AcDbCircle
 10
366.4236910620475
 20
352.3084148332891
 30
0.0
 40
24.00000000000019
100
AcDbArc
 50
123.9591925000977
 51
146.0408074999025
  0
ARC
  5
1C8
330
42
100
AcDbEntity
  8
1
  6
Continuous
 62
     7
100
AcDbCircle
 10
314.6107806518176
 20
352.3084148332891
 30
0.0
 40
24.00000000000002
100
AcDbArc
 50
33.9591925000978
 51
56.04080749990254
  0
ARC
  5
1C9
330
42
100
AcDbEntity
  8
1
  6
Continuous
 62
     7
100
AcDbCircle
 10
331.0172358569325
 20
376.2148700384041
 30
0.0
 40
4.999999999999814
100
AcDbArc
 50
135.5729959991922
 51
-126.869897645843
  0
CIRCLE
  5
1CA
330
42
100
AcDbEntity
  8
1
  6
Continuous
 62
     7
100
AcDbCircle
 10
185.5171467032504
 20
247.597500231329
 30
0.0
 40
5.999999999999915
  0
CIRCLE
  5
1CB
330
42
100
AcDbEntity
  8
1
  6
Continuous
 62
     7
100
AcDbCircle
 10
185.5171467032504
 20
247.597500231329
 30
0.0
 40
4.999999999999915
  0
SPLINE
  5
1CC
330
42
100
AcDbEntity
  8
0
  6
Continuous
 62
     7
100
AcDbSpline
210
0.0
220
0.0
230
1.0
 70
    11
 71
     3
 72
    79
 73
    75
 74
    73
 42
0.0000000001
 43
0.0000000001
 44
0.00000001
 40
0.0
 40
0.0
 40
0.0
 40
0.0
 40
0.2804298739044552
 40
0.5608615624046416
 40
0.8430390484978185
 40
1.125221505535918
 40
1.410656636455649
 40
1.696098726142477
 40
1.985866401890196
 40
2.275641686413444
 40
2.570259902967716
 40
2.864885283322929
 40
3.164276389853168
 40
3.463673499687198
 40
3.767200501117198
 40
4.070731953704468
 40
4.377293191266113
 40
4.68385714543533
 40
4.992021213448401
 40
5.300186192772523
 40
5.608351172096588
 40
5.916515240109603
 40
6.223079194278975
 40
6.529640431840745
 40
6.833171884427888
 40
7.136698885857809
 40
7.436095995691888
 40
7.735487102222081
 40
8.030112482577286
 40
8.324730699131477
 40
8.614505983654833
 40
8.904273659402652
 40
9.189715749089537
 40
9.47515088000922
 40
9.757333337047301
 40
10.03951082314049
 40
10.31994251164069
 40
10.60037238554514
 40
10.88080225944959
 40
11.16123394794973
 40
11.44341143404291
 40
11.72559389108106
 40
12.01102902200082
 40
12.29647111168772
 40
12.58623878743542
 40
12.87601407195881
 40
13.17063228851304
 40
13.46525766886832
 40
13.76464877539856
 40
14.06404588523262
 40
14.36757288666249
 40
14.67110433924963
 40
14.9776655768114
 40
15.28422953098078
 40
15.59239359899379
 40
15.90055857831786
 40
16.20872355764204
 40
16.51688762565505
 40
16.82345157982426
 40
17.13001281738591
 40
17.43354426997317
 40
17.73707127140314
 40
18.03646838123711
 40
18.33585948776745
 40
18.63048486812274
 40
18.92510308467705
 40
19.2148783692003
 40
19.50464604494792
 40
19.79008813463475
 40
20.07552326555458
 40
20.3577057225927
 40
20.63988320868592
 40
20.92031489718604
 40
21.2007447710905
 40
21.2007447710905
 40
21.2007447710905
 40
21.2007447710905
 10
351.7755661061302
 20
372.6441558241326
 30
0.0
 10
351.8690779016856
 20
372.646764602525
 30
0.0
 10
352.0561020978892
 20
372.6519821761906
 30
0.0
 10
352.3346341714068
 20
372.6938837220016
 30
0.0
 10
352.6085872144214
 20
372.7604635005772
 30
0.0
 10
352.8765641576746
 20
372.853654433019
 30
0.0
 10
353.1355960736463
 20
372.9719300089622
 30
0.0
 10
353.3847943511292
 20
373.1148747530717
 30
0.0
 10
353.6210716008037
 20
373.280814448523
 30
0.0
 10
353.8438700797182
 20
373.4692007041317
 30
0.0
 10
354.0502845189538
 20
373.6776915904443
 30
0.0
 10
354.239905108957
 20
373.9057260202708
 30
0.0
 10
354.4102640743027
 20
374.150430884799
 30
0.0
 10
354.5609728922643
 20
374.4111189745032
 30
0.0
 10
354.6901646751104
 20
374.6846397506772
 30
0.0
 10
354.7974342748108
 20
374.9700176730325
 30
0.0
 10
354.8815699899706
 20
375.2641035901478
 30
0.0
 10
354.9422032969295
 20
375.5654862367339
 30
0.0
 10
354.9787310304811
 20
375.8712679441941
 30
0.0
 10
354.9909458669744
 20
376.1795129312684
 30
0.0
 10
354.978731030481
 20
376.4877579183415
 30
0.0
 10
354.9422032969296
 20
376.7935396258062
 30
0.0
 10
354.8815699899708
 20
377.0949222723754
 30
0.0
 10
354.7974342748107
 20
377.3890081895545
 30
0.0
 10
354.6901646751105
 20
377.6743861116729
 30
0.0
 10
354.5609728922644
 20
377.9479068887261
 30
0.0
 10
354.4102640743025
 20
378.2085949751912
 30
0.0
 10
354.2399051089571
 20
378.4532998517093
 30
0.0
 10
354.0502845189537
 20
378.6813342374713
 30
0.0
 10
353.8438700797182
 20
378.8898252867795
 30
0.0
 10
353.6210716008038
 20
379.0782109436573
 30
0.0
 10
353.3847943511291
 20
379.2441528547029
 30
0.0
 10
353.1355960736465
 20
379.3870894482107
 30
0.0
 10
352.8765641576745
 20
379.505395230892
 30
0.0
 10
352.6085872144214
 20
379.5984746575688
 30
0.0
 10
352.3346341714068
 20
379.6654687211359
 30
0.0
 10
352.0561020978893
 20
379.7058332318523
 30
0.0
 10
351.7755661061302
 20
379.7193884270612
 30
0.0
 10
351.4950301143711
 20
379.7058332318523
 30
0.0
 10
351.2164980408537
 20
379.6654687211361
 30
0.0
 10
350.942544997839
 20
379.5984746575689
 30
0.0
 10
350.6745680545859
 20
379.5053952308921
 30
0.0
 10
350.4155361386141
 20
379.3870894482107
 30
0.0
 10
350.1663378611311
 20
379.244152854703
 30
0.0
 10
349.9300606114567
 20
379.0782109436572
 30
0.0
 10
349.7072621325422
 20
378.8898252867795
 30
0.0
 10
349.5008476933067
 20
378.6813342374713
 30
0.0
 10
349.3112271033032
 20
378.4532998517094
 30
0.0
 10
349.1408681379577
 20
378.2085949751912
 30
0.0
 10
348.9901593199958
 20
377.947906888726
 30
0.0
 10
348.8609675371498
 20
377.6743861116727
 30
0.0
 10
348.7536979374495
 20
377.3890081895547
 30
0.0
 10
348.6695622222896
 20
377.0949222723754
 30
0.0
 10
348.6089289153307
 20
376.793539625806
 30
0.0
 10
348.5724011817793
 20
376.4877579183416
 30
0.0
 10
348.5601863452859
 20
376.1795129312685
 30
0.0
 10
348.5724011817793
 20
375.8712679441939
 30
0.0
 10
348.6089289153308
 20
375.5654862367342
 30
0.0
 10
348.6695622222896
 20
375.2641035901477
 30
0.0
 10
348.7536979374495
 20
374.9700176730327
 30
0.0
 10
348.8609675371499
 20
374.6846397506772
 30
0.0
 10
348.990159319996
 20
374.4111189745033
 30
0.0
 10
349.1408681379573
 20
374.1504308847988
 30
0.0
 10
349.3112271033033
 20
373.9057260202709
 30
0.0
 10
349.5008476933066
 20
373.6776915904441
 30
0.0
 10
349.7072621325421
 20
373.4692007041319
 30
0.0
 10
349.9300606114567
 20
373.280814448523
 30
0.0
 10
350.1663378611311
 20
373.1148747530717
 30
0.0
 10
350.4155361386141
 20
372.9719300089622
 30
0.0
 10
350.6745680545857
 20
372.853654433019
 30
0.0
 10
350.942544997839
 20
372.7604635005771
 30
0.0
 10
351.2164980408537
 20
372.6938837220017
 30
0.0
 10
351.4950301143712
 20
372.6519821761906
 30
0.0
 10
351.6820543105749
 20
372.6467646025251
 30
0.0
 10
351.7755661061302
 20
372.6441558241326
 30
0.0
 11
351.7755661061302
 21
372.6441558241326
 31
0.0
 11
352.0556712763386
 21
372.6576468508031
 31
0.0
 11
352.3332039133786
 21
372.6978658424943
 31
0.0
 11
352.6073240357987
 21
372.76481576514
 31
0.0
 11
352.8738981780318
 21
372.85736394585
 31
0.0
 11
353.133581368957
 21
372.9758453972003
 31
0.0
 11
353.3812201784633
 21
373.1178038650389
 31
0.0
 11
353.6184201469642
 21
373.2842414835372
 31
0.0
 11
353.8397551924072
 21
373.4712722649057
 31
0.0
 11
354.0471246434634
 21
373.6805515144606
 31
0.0
 11
354.2355708654945
 21
373.9070291869841
 31
0.0
 11
354.4067213741841
 21
374.1526763690251
 31
0.0
 11
354.556640538791
 21
374.4118343777004
 31
0.0
 11
354.6863529127874
 21
374.6862489192781
 31
0.0
 11
354.7932086727427
 21
374.9703495867784
 31
0.0
 11
354.8775887723182
 21
375.2650694387921
 31
0.0
 11
354.9380872643087
 21
375.5656046122123
 31
0.0
 11
354.9746682975969
 21
375.8715897765879
 31
0.0
 11
354.9868742507964
 21
376.1795129312683
 31
0.0
 11
354.9746682975969
 21
376.4874360859486
 31
0.0
 11
354.9380872643087
 21
376.7934212503241
 31
0.0
 11
354.8775887723183
 21
377.0939564237445
 31
0.0
 11
354.7932086727427
 21
377.3886762757583
 31
0.0
 11
354.6863529127875
 21
377.6727769432585
 31
0.0
 11
354.556640538791
 21
377.9471914848361
 31
0.0
 11
354.4067213741841
 21
378.2063494935114
 31
0.0
 11
354.2355708654945
 21
378.4519966755524
 31
0.0
 11
354.0471246434634
 21
378.6784743480758
 31
0.0
 11
353.8397551924072
 21
378.8877535976307
 31
0.0
 11
353.6184201469642
 21
379.0747843789993
 31
0.0
 11
353.3812201784633
 21
379.2412219974978
 31
0.0
 11
353.133581368957
 21
379.3831804653366
 31
0.0
 11
352.8738981780318
 21
379.5016619166867
 31
0.0
 11
352.6073240357987
 21
379.5942100973966
 31
0.0
 11
352.3332039133786
 21
379.6611600200424
 31
0.0
 11
352.0556712763386
 21
379.7013790117337
 31
0.0
 11
351.7755661061302
 21
379.7148700384041
 31
0.0
 11
351.4954609359219
 21
379.7013790117337
 31
0.0
 11
351.2179282988819
 21
379.6611600200424
 31
0.0
 11
350.9438081764618
 21
379.5942100973967
 31
0.0
 11
350.6772340342286
 21
379.5016619166867
 31
0.0
 11
350.4175508433033
 21
379.3831804653365
 31
0.0
 11
350.169912033797
 21
379.2412219974978
 31
0.0
 11
349.9327120652962
 21
379.0747843789994
 31
0.0
 11
349.7113770198532
 21
378.8877535976307
 31
0.0
 11
349.504007568797
 21
378.6784743480758
 31
0.0
 11
349.3155613467658
 21
378.4519966755524
 31
0.0
 11
349.1444108380762
 21
378.2063494935114
 31
0.0
 11
348.9944916734692
 21
377.9471914848361
 31
0.0
 11
348.8647792994728
 21
377.6727769432585
 31
0.0
 11
348.7579235395176
 21
377.3886762757583
 31
0.0
 11
348.673543439942
 21
377.0939564237445
 31
0.0
 11
348.6130449479516
 21
376.7934212503241
 31
0.0
 11
348.5764639146635
 21
376.4874360859486
 31
0.0
 11
348.5642579614639
 21
376.1795129312683
 31
0.0
 11
348.5764639146635
 21
375.8715897765878
 31
0.0
 11
348.6130449479516
 21
375.5656046122123
 31
0.0
 11
348.673543439942
 21
375.2650694387921
 31
0.0
 11
348.7579235395176
 21
374.9703495867784
 31
0.0
 11
348.8647792994728
 21
374.6862489192781
 31
0.0
 11
348.9944916734692
 21
374.4118343777004
 31
0.0
 11
349.144410838076
 21
374.1526763690251
 31
0.0
 11
349.3155613467658
 21
373.9070291869841
 31
0.0
 11
349.504007568797
 21
373.6805515144606
 31
0.0
 11
349.7113770198532
 21
373.4712722649057
 31
0.0
 11
349.9327120652962
 21
373.2842414835372
 31
0.0
 11
350.169912033797
 21
373.1178038650389
 31
0.0
 11
350.4175508433033
 21
372.9758453972003
 31
0.0
 11
350.6772340342286
 21
372.85736394585
 31
0.0
 11
350.9438081764617
 21
372.76481576514
 31
0.0
 11
351.2179282988819
 21
372.6978658424943
 31
0.0
 11
351.4954609359219
 21
372.6576468508031
 31
0.0
 11
351.7755661061302
 21
372.6441558241326
 31
0.0
  0
SPLINE
  5
1CD
330
42
100
AcDbEntity
  8
0
  6
Continuous
 62
     7
100
AcDbSpline
210
0.0
220
0.0
230
1.0
 70
    11
 71
     3
 72
    79
 73
    75
 74
    73
 42
0.0000000001
 43
0.0000000001
 44
0.00000001
 40
0.0
 40
0.0
 40
0.0
 40
0.0
 40
0.3116700534177642
 40
0.6234686074598685
 40
0.9551731643378895
 40
1.287058859521994
 40
1.653584847360809
 40
2.02020109344983
 40
2.428997907189182
 40
2.837843043328722
 40
3.289957832551791
 40
3.742100124812624
 40
4.233747147215341
 40
4.725411055863149
 40
5.249371789783614
 40
5.773342761685439
 40
6.320057953693438
 40
6.866778681134232
 40
7.425225176341304
 40
7.983673425730102
 40
8.542121675118846
 40
9.100568170325913
 40
9.647288897766712
 40
10.19400408977459
 40
10.71797506167648
 40
11.24193579559693
 40
11.73359970424461
 40
12.2252467266474
 40
12.67738901890819
 40
13.1295038081313
 40
13.53834894427094
 40
13.9471457580102
 40
14.31376200409915
 40
14.68028799193796
 40
15.01217368712211
 40
15.34387824400015
 40
15.65567679804224
 40
15.96734685146001
 40
16.27901690487789
 40
16.59081545891999
 40
16.92252001579792
 40
17.25440571098192
 40
17.62093169882079
 40
17.98754794490986
 40
18.39634475864921
 40
18.80518989478876
 40
19.25730468401189
 40
19.70944697627272
 40
20.20109399867543
 40
20.69275790732307
 40
21.21671864124362
 40
21.74068961314548
 40
22.28740480515339
 40
22.83412553259412
 40
23.39257202780124
 40
23.95102027718993
 40
24.50946852657873
 40
25.0679150217858
 40
25.61463574922658
 40
26.16135094123455
 40
26.6853219131364
 40
27.20928264705691
 40
27.70094655570455
 40
28.19259357810731
 40
28.64473587036812
 40
29.09685065959127
 40
29.50569579573091
 40
29.91449260947017
 40
30.28110885555931
 40
30.64763484339818
 40
30.97952053858214
 40
31.31122509546006
 40
31.62302364950216
 40
31.93469370292004
 40
31.93469370292004
 40
31.93469370292004
 40
31.93469370292004
 10
346.9398521462651
 20
376.1795129312683
 30
0.0
 10
346.9348968048041
 20
376.2834988135946
 30
0.0
 10
346.9249840788098
 20
376.4915134513135
 30
0.0
 10
346.8473711713066
 20
376.8022542306286
 30
0.0
 10
346.724791195507
 20
377.1043537545588
 30
0.0
 10
346.5521608175774
 20
377.4023561822275
 30
0.0
 10
346.3369100816955
 20
377.6857503282835
 30
0.0
 10
346.0736184920624
 20
377.9615657632468
 30
0.0
 10
345.7735201627353
 20
378.2190013126529
 30
0.0
 10
345.4283180327489
 20
378.4647202420508
 30
0.0
 10
345.052149822596
 20
378.6894053645951
 30
0.0
 10
344.6358407075311
 20
378.8980285157568
 30
0.0
 10
344.1944269234564
 20
379.0835974380004
 30
0.0
 10
343.719749906116
 20
379.2491208615446
 30
0.0
 10
343.2259863485178
 20
379.3900422146207
 30
0.0
 10
342.7073696099298
 20
379.507682481993
 30
0.0
 10
342.1758848011519
 20
379.5996097353373
 30
0.0
 10
341.6290520207822
 20
379.6659975851055
 30
0.0
 10
341.0757381834591
 20
379.7059995131206
 30
0.0
 10
340.5172358569315
 20
379.7193053080119
 30
0.0
 10
339.95873353041
 20
379.7059995131206
 30
0.0
 10
339.4054196930685
 20
379.6659975851055
 30
0.0
 10
338.8585869127653
 20
379.5996097353372
 30
0.0
 10
338.3271021037438
 20
379.5076824819929
 30
0.0
 10
337.8084853660288
 20
379.3900422146207
 30
0.0
 10
337.3147218052687
 20
379.2491208615444
 30
0.0
 10
336.8400447990336
 20
379.0835974380006
 30
0.0
 10
336.3986309751733
 20
378.8980285157566
 30
0.0
 10
335.9823219972236
 20
378.6894053645951
 30
0.0
 10
335.6061533006342
 20
378.4647202420508
 30
0.0
 10
335.2609528208822
 20
378.2190013126531
 30
0.0
 10
334.9608486748289
 20
377.9615657632467
 30
0.0
 10
334.697576666674
 20
377.6857503282835
 30
0.0
 10
334.4822568440892
 20
377.4023561822275
 30
0.0
 10
334.3098611465935
 20
377.1043537545589
 30
0.0
 10
334.186441723039
 20
376.8022542306284
 30
0.0
 10
334.1117828811093
 20
376.4915134513136
 30
0.0
 10
334.0860396795763
 20
376.1795129312681
 30
0.0
 10
334.1117828811092
 20
375.8675124112231
 30
0.0
 10
334.1864417230391
 20
375.5567716319078
 30
0.0
 10
334.3098611465934
 20
375.2546721079779
 30
0.0
 10
334.4822568440892
 20
374.9566696803092
 30
0.0
 10
334.697576666674
 20
374.6732755342531
 30
0.0
 10
334.9608486748289
 20
374.3974600992898
 30
0.0
 10
335.2609528208822
 20
374.1400245498835
 30
0.0
 10
335.6061533006342
 20
373.8943056204858
 30
0.0
 10
335.9823219972236
 20
373.6696204979412
 30
0.0
 10
336.3986309751733
 20
373.4609973467797
 30
0.0
 10
336.8400447990335
 20
373.2754284245361
 30
0.0
 10
337.3147218052689
 20
373.1099050009923
 30
0.0
 10
337.8084853660288
 20
372.9689836479158
 30
0.0
 10
338.3271021037438
 20
372.8513433805434
 30
0.0
 10
338.8585869127654
 20
372.7594161271992
 30
0.0
 10
339.4054196930684
 20
372.6930282774312
 30
0.0
 10
339.9587335304101
 20
372.6530263494163
 30
0.0
 10
340.5172358569314
 20
372.6397205545247
 30
0.0
 10
341.0757381834592
 20
372.6530263494162
 30
0.0
 10
341.6290520207821
 20
372.6930282774313
 30
0.0
 10
342.1758848011518
 20
372.7594161271992
 30
0.0
 10
342.7073696099298
 20
372.8513433805435
 30
0.0
 10
343.2259863485178
 20
372.9689836479158
 30
0.0
 10
343.7197499061159
 20
373.1099050009923
 30
0.0
 10
344.1944269234564
 20
373.2754284245362
 30
0.0
 10
344.635840707531
 20
373.4609973467797
 30
0.0
 10
345.0521498225961
 20
373.6696204979411
 30
0.0
 10
345.4283180327488
 20
373.8943056204859
 30
0.0
 10
345.7735201627354
 20
374.1400245498833
 30
0.0
 10
346.0736184920625
 20
374.39746009929
 30
0.0
 10
346.3369100816956
 20
374.673275534253
 30
0.0
 10
346.5521608175773
 20
374.9566696803094
 30
0.0
 10
346.7247911955071
 20
375.2546721079777
 30
0.0
 10
346.8473711713067
 20
375.556771631908
 30
0.0
 10
346.9249840788097
 20
375.867512411223
 30
0.0
 10
346.9348968048041
 20
376.0755270489418
 30
0.0
 10
346.9398521462651
 20
376.1795129312683
 30
0.0
 11
346.9398521462651
 21
376.1795129312683
 31
0.0
 11
346.9148034657486
 21
376.4901747824857
 31
0.0
 11
346.8422781732897
 21
376.7934212503241
 31
0.0
 11
346.7178649118953
 21
377.100909873598
 31
0.0
 11
346.5525209901578
 21
377.3886762757583
 31
0.0
 11
346.3317137965972
 21
377.6812262424872
 31
0.0
 11
346.0793847222543
 21
377.9471914848361
 31
0.0
 11
345.7697597207235
 21
378.2141131837489
 31
0.0
 11
345.437245375661
 21
378.4519966755524
 31
0.0
 11
345.0494986064105
 21
378.6845052250081
 31
0.0
 11
344.6456140294864
 21
378.8877535976307
 31
0.0
 11
344.1926090322759
 21
379.0788118796804
 31
0.0
 11
343.7285440015988
 21
379.2412219974978
 31
0.0
 11
343.2248071539419
 21
379.3853887030964
 31
0.0
 11
342.7139000007358
 21
379.5016619166867
 31
0.0
 11
342.1752215146308
 21
379.5950588640669
 31
0.0
 11
341.632511471429
 21
379.6611600200424
 31
0.0
 11
341.075524109629
 21
379.7015031335085
 31
0.0
 11
340.5172358569325
 21
379.7148700384041
 31
0.0
 11
339.958947604236
 21
379.7015031335085
 31
0.0
 11
339.401960242436
 21
379.6611600200424
 31
0.0
 11
338.8592501992342
 21
379.5950588640669
 31
0.0
 11
338.3205717131293
 21
379.5016619166867
 31
0.0
 11
337.8096645599232
 21
379.3853887030963
 31
0.0
 11
337.3059277122663
 21
379.2412219974978
 31
0.0
 11
336.8418626815893
 21
379.0788118796805
 31
0.0
 11
336.3888576843787
 21
378.8877535976307
 31
0.0
 11
335.9849731074547
 21
378.6845052250081
 31
0.0
 11
335.5972263382041
 21
378.4519966755524
 31
0.0
 11
335.2647119931415
 21
378.2141131837489
 31
0.0
 11
334.9550869916108
 21
377.9471914848361
 31
0.0
 11
334.7027579172681
 21
377.6812262424872
 31
0.0
 11
334.4819507237074
 21
377.3886762757583
 31
0.0
 11
334.31660680197
 21
377.1009098735979
 31
0.0
 11
334.1921935405754
 21
376.7934212503241
 31
0.0
 11
334.1196682481165
 21
376.4901747824857
 31
0.0
 11
334.0946195676
 21
376.1795129312683
 31
0.0
 11
334.1196682481165
 21
375.8688510800508
 31
0.0
 11
334.1921935405754
 21
375.5656046122123
 31
0.0
 11
334.31660680197
 21
375.2581159889386
 31
0.0
 11
334.4819507237074
 21
374.9703495867784
 31
0.0
 11
334.702757917268
 21
374.6777996200494
 31
0.0
 11
334.9550869916108
 21
374.4118343777004
 31
0.0
 11
335.2647119931416
 21
374.1449126787876
 31
0.0
 11
335.5972263382041
 21
373.9070291869841
 31
0.0
 11
335.9849731074546
 21
373.6745206375283
 31
0.0
 11
336.3888576843787
 21
373.4712722649057
 31
0.0
 11
336.8418626815893
 21
373.2802139828561
 31
0.0
 11
337.3059277122663
 21
373.1178038650389
 31
0.0
 11
337.8096645599233
 21
372.9736371594402
 31
0.0
 11
338.3205717131293
 21
372.8573639458497
 31
0.0
 11
338.8592501992343
 21
372.7639669984698
 31
0.0
 11
339.401960242436
 21
372.6978658424943
 31
0.0
 11
339.9589476042361
 21
372.6575227290282
 31
0.0
 11
340.5172358569325
 21
372.6441558241326
 31
0.0
 11
341.075524109629
 21
372.6575227290282
 31
0.0
 11
341.632511471429
 21
372.6978658424943
 31
0.0
 11
342.1752215146308
 21
372.7639669984697
 31
0.0
 11
342.7139000007358
 21
372.8573639458497
 31
0.0
 11
343.2248071539419
 21
372.9736371594402
 31
0.0
 11
343.7285440015988
 21
373.1178038650389
 31
0.0
 11
344.1926090322758
 21
373.2802139828561
 31
0.0
 11
344.6456140294864
 21
373.4712722649057
 31
0.0
 11
345.0494986064105
 21
373.6745206375282
 31
0.0
 11
345.437245375661
 21
373.9070291869841
 31
0.0
 11
345.7697597207236
 21
374.1449126787877
 31
0.0
 11
346.0793847222543
 21
374.4118343777004
 31
0.0
 11
346.3317137965972
 21
374.6777996200494
 31
0.0
 11
346.5525209901578
 21
374.9703495867784
 31
0.0
 11
346.7178649118953
 21
375.2581159889386
 31
0.0
 11
346.8422781732897
 21
375.5656046122123
 31
0.0
 11
346.9148034657486
 21
375.8688510800508
 31
0.0
 11
346.9398521462651
 21
376.1795129312683
 31
0.0
  0
SPLINE
  5
1CE
330
42
100
AcDbEntity
  8
0
  6
Continuous
 62
     7
100
AcDbSpline
210
0.0
220
0.0
230
1.0
 70
    11
 71
     3
 72
    79
 73
    75
 74
    73
 42
0.0000000001
 43
0.0000000001
 44
0.00000001
 40
0.0
 40
0.0
 40
0.0
 40
0.0
 40
0.2804298739043984
 40
0.5608615624046411
 40
0.8430390484979284
 40
1.125221505536028
 40
1.410656636455707
 40
1.696098726142486
 40
1.985866401890159
 40
2.275641686413449
 40
2.570259902967722
 40
2.864885283322971
 40
3.164276389853307
 40
3.46367349968728
 40
3.767200501117229
 40
4.070731953704511
 40
4.377293191266211
 40
4.683857145435372
 40
4.992021213448449
 40
5.300186192772569
 40
5.608351172096636
 40
5.916515240109643
 40
6.223079194279015
 40
6.529640431840785
 40
6.833171884427949
 40
7.136698885857797
 40
7.436095995691798
 40
7.735487102222103
 40
8.030112482577309
 40
8.324730699131541
 40
8.614505983654942
 40
8.904273659402712
 40
9.189715749089469
 40
9.475150880009176
 40
9.75733333704731
 40
10.03951082314056
 40
10.31994251164075
 40
10.6003723855452
 40
10.8808022594496
 40
11.16123394794974
 40
11.44341143404303
 40
11.72559389108113
 40
12.01102902200094
 40
12.29647111168779
 40
12.58623878743552
 40
12.87601407195879
 40
13.1706322885131
 40
13.46525766886834
 40
13.76464877539865
 40
14.06404588523268
 40
14.36757288666255
 40
14.67110433924969
 40
14.97766557681145
 40
15.28422953098083
 40
15.59239359899384
 40
15.90055857831791
 40
16.20872355764209
 40
16.5168876256551
 40
16.82345157982431
 40
17.13001281738597
 40
17.43354426997324
 40
17.73707127140319
 40
18.03646838123722
 40
18.33585948776752
 40
18.63048486812284
 40
18.92510308467715
 40
19.21487836920031
 40
19.50464604494794
 40
19.79008813463482
 40
20.0755232655546
 40
20.35770572259272
 40
20.63988320868599
 40
20.92031489718612
 40
21.20074477109052
 40
21.20074477109052
 40
21.20074477109052
 40
21.20074477109052
 10
329.2589056077349
 20
372.6441558241326
 30
0.0
 10
329.1653938121795
 20
372.6467646025251
 30
0.0
 10
328.9783696159759
 20
372.6519821761907
 30
0.0
 10
328.6998375424583
 20
372.6938837220017
 30
0.0
 10
328.4258844994436
 20
372.7604635005771
 30
0.0
 10
328.1579075561904
 20
372.853654433019
 30
0.0
 10
327.8988756402189
 20
372.9719300089623
 30
0.0
 10
327.6496773627359
 20
373.1148747530717
 30
0.0
 10
327.4134001130615
 20
373.280814448523
 30
0.0
 10
327.1906016341468
 20
373.4692007041319
 30
0.0
 10
326.9841871949115
 20
373.6776915904443
 30
0.0
 10
326.7945666049079
 20
373.9057260202708
 30
0.0
 10
326.6242076395622
 20
374.1504308847989
 30
0.0
 10
326.4734988216008
 20
374.4111189745034
 30
0.0
 10
326.3443070387546
 20
374.6846397506771
 30
0.0
 10
326.2370374390544
 20
374.9700176730326
 30
0.0
 10
326.1529017238946
 20
375.2641035901479
 30
0.0
 10
326.0922684169356
 20
375.5654862367341
 30
0.0
 10
326.055740683384
 20
375.8712679441941
 30
0.0
 10
326.0435258468907
 20
376.1795129312684
 30
0.0
 10
326.0557406833843
 20
376.4877579183415
 30
0.0
 10
326.0922684169356
 20
376.7935396258062
 30
0.0
 10
326.1529017238945
 20
377.0949222723754
 30
0.0
 10
326.2370374390543
 20
377.3890081895547
 30
0.0
 10
326.3443070387548
 20
377.6743861116728
 30
0.0
 10
326.4734988216006
 20
377.947906888726
 30
0.0
 10
326.6242076395623
 20
378.2085949751912
 30
0.0
 10
326.794566604908
 20
378.4532998517094
 30
0.0
 10
326.9841871949114
 20
378.6813342374713
 30
0.0
 10
327.1906016341468
 20
378.8898252867797
 30
0.0
 10
327.4134001130616
 20
379.078210943657
 30
0.0
 10
327.6496773627359
 20
379.2441528547031
 30
0.0
 10
327.8988756402186
 20
379.3870894482104
 30
0.0
 10
328.1579075561905
 20
379.5053952308923
 30
0.0
 10
328.4258844994437
 20
379.5984746575688
 30
0.0
 10
328.6998375424583
 20
379.665468721136
 30
0.0
 10
328.9783696159758
 20
379.7058332318522
 30
0.0
 10
329.258905607735
 20
379.7193884270614
 30
0.0
 10
329.5394415994939
 20
379.7058332318523
 30
0.0
 10
329.8179736730115
 20
379.6654687211359
 30
0.0
 10
330.0919267160261
 20
379.598474657569
 30
0.0
 10
330.3599036592792
 20
379.505395230892
 30
0.0
 10
330.6189355752511
 20
379.3870894482105
 30
0.0
 10
330.868133852734
 20
379.2441528547029
 30
0.0
 10
331.1044111024083
 20
379.0782109436571
 30
0.0
 10
331.3272095813228
 20
378.8898252867795
 30
0.0
 10
331.5336240205584
 20
378.6813342374714
 30
0.0
 10
331.7232446105618
 20
378.4532998517094
 30
0.0
 10
331.8936035759076
 20
378.2085949751912
 30
0.0
 10
332.0443123938692
 20
377.9479068887262
 30
0.0
 10
332.1735041767151
 20
377.6743861116728
 30
0.0
 10
332.2807737764157
 20
377.3890081895547
 30
0.0
 10
332.3649094915754
 20
377.0949222723752
 30
0.0
 10
332.4255427985344
 20
376.7935396258062
 30
0.0
 10
332.4620705320858
 20
376.4877579183414
 30
0.0
 10
332.4742853685792
 20
376.1795129312685
 30
0.0
 10
332.4620705320858
 20
375.8712679441939
 30
0.0
 10
332.4255427985344
 20
375.5654862367342
 30
0.0
 10
332.3649094915755
 20
375.2641035901477
 30
0.0
 10
332.2807737764156
 20
374.9700176730326
 30
0.0
 10
332.1735041767151
 20
374.6846397506772
 30
0.0
 10
332.0443123938693
 20
374.4111189745033
 30
0.0
 10
331.8936035759075
 20
374.1504308847989
 30
0.0
 10
331.7232446105619
 20
373.9057260202707
 30
0.0
 10
331.5336240205583
 20
373.6776915904442
 30
0.0
 10
331.327209581323
 20
373.4692007041319
 30
0.0
 10
331.1044111024083
 20
373.280814448523
 30
0.0
 10
330.8681338527341
 20
373.1148747530717
 30
0.0
 10
330.618935575251
 20
372.9719300089622
 30
0.0
 10
330.3599036592793
 20
372.8536544330191
 30
0.0
 10
330.091926716026
 20
372.7604635005769
 30
0.0
 10
329.8179736730115
 20
372.6938837220018
 30
0.0
 10
329.5394415994939
 20
372.6519821761907
 30
0.0
 10
329.3524174032903
 20
372.646764602525
 30
0.0
 10
329.2589056077349
 20
372.6441558241326
 30
0.0
 11
329.2589056077349
 21
372.6441558241326
 31
0.0
 11
328.9788004375266
 21
372.6576468508031
 31
0.0
 11
328.7012678004865
 21
372.6978658424943
 31
0.0
 11
328.4271476780663
 21
372.76481576514
 31
0.0
 11
328.1605735358332
 21
372.85736394585
 31
0.0
 11
327.900890344908
 21
372.9758453972003
 31
0.0
 11
327.6532515354018
 21
373.1178038650389
 31
0.0
 11
327.4160515669009
 21
373.2842414835372
 31
0.0
 11
327.1947165214579
 21
373.4712722649057
 31
0.0
 11
326.9873470704017
 21
373.6805515144606
 31
0.0
 11
326.7989008483706
 21
373.9070291869841
 31
0.0
 11
326.6277503396808
 21
374.1526763690251
 31
0.0
 11
326.477831175074
 21
374.4118343777004
 31
0.0
 11
326.3481188010776
 21
374.6862489192781
 31
0.0
 11
326.2412630411224
 21
374.9703495867784
 31
0.0
 11
326.1568829415469
 21
375.2650694387921
 31
0.0
 11
326.0963844495564
 21
375.5656046122123
 31
0.0
 11
326.0598034162682
 21
375.8715897765879
 31
0.0
 11
326.0475974630687
 21
376.1795129312683
 31
0.0
 11
326.0598034162683
 21
376.4874360859486
 31
0.0
 11
326.0963844495564
 21
376.7934212503241
 31
0.0
 11
326.1568829415468
 21
377.0939564237445
 31
0.0
 11
326.2412630411224
 21
377.3886762757583
 31
0.0
 11
326.3481188010777
 21
377.6727769432585
 31
0.0
 11
326.477831175074
 21
377.9471914848361
 31
0.0
 11
326.6277503396809
 21
378.2063494935114
 31
0.0
 11
326.7989008483706
 21
378.4519966755524
 31
0.0
 11
326.9873470704017
 21
378.6784743480758
 31
0.0
 11
327.1947165214579
 21
378.8877535976307
 31
0.0
 11
327.4160515669009
 21
379.0747843789993
 31
0.0
 11
327.6532515354018
 21
379.2412219974978
 31
0.0
 11
327.900890344908
 21
379.3831804653365
 31
0.0
 11
328.1605735358332
 21
379.5016619166867
 31
0.0
 11
328.4271476780664
 21
379.5942100973966
 31
0.0
 11
328.7012678004865
 21
379.6611600200424
 31
0.0
 11
328.9788004375266
 21
379.7013790117337
 31
0.0
 11
329.2589056077349
 21
379.7148700384041
 31
0.0
 11
329.5390107779432
 21
379.7013790117337
 31
0.0
 11
329.8165434149832
 21
379.6611600200424
 31
0.0
 11
330.0906635374034
 21
379.5942100973967
 31
0.0
 11
330.3572376796365
 21
379.5016619166867
 31
0.0
 11
330.6169208705618
 21
379.3831804653365
 31
0.0
 11
330.8645596800681
 21
379.2412219974978
 31
0.0
 11
331.1017596485689
 21
379.0747843789993
 31
0.0
 11
331.3230946940118
 21
378.8877535976307
 31
0.0
 11
331.5304641450681
 21
378.6784743480758
 31
0.0
 11
331.7189103670993
 21
378.4519966755524
 31
0.0
 11
331.890060875789
 21
378.2063494935114
 31
0.0
 11
332.0399800403959
 21
377.9471914848361
 31
0.0
 11
332.1696924143923
 21
377.6727769432585
 31
0.0
 11
332.2765481743475
 21
377.3886762757583
 31
0.0
 11
332.360928273923
 21
377.0939564237445
 31
0.0
 11
332.4214267659135
 21
376.7934212503241
 31
0.0
 11
332.4580077992017
 21
376.4874360859486
 31
0.0
 11
332.4702137524012
 21
376.1795129312683
 31
0.0
 11
332.4580077992017
 21
375.8715897765878
 31
0.0
 11
332.4214267659135
 21
375.5656046122123
 31
0.0
 11
332.3609282739231
 21
375.2650694387921
 31
0.0
 11
332.2765481743475
 21
374.9703495867784
 31
0.0
 11
332.1696924143922
 21
374.6862489192781
 31
0.0
 11
332.0399800403959
 21
374.4118343777004
 31
0.0
 11
331.890060875789
 21
374.1526763690251
 31
0.0
 11
331.7189103670993
 21
373.9070291869841
 31
0.0
 11
331.530464145068
 21
373.6805515144606
 31
0.0
 11
331.3230946940118
 21
373.4712722649057
 31
0.0
 11
331.1017596485689
 21
373.2842414835372
 31
0.0
 11
330.8645596800681
 21
373.1178038650389
 31
0.0
 11
330.6169208705618
 21
372.9758453972003
 31
0.0
 11
330.3572376796365
 21
372.85736394585
 31
0.0
 11
330.0906635374034
 21
372.76481576514
 31
0.0
 11
329.8165434149832
 21
372.6978658424943
 31
0.0
 11
329.5390107779432
 21
372.6576468508031
 31
0.0
 11
329.2589056077349
 21
372.6441558241326
 31
0.0
  0
SPLINE
  5
1CF
330
42
100
AcDbEntity
  8
1
  6
Continuous
 62
     7
100
AcDbSpline
210
0.0
220
0.0
230
1.0
 70
    11
 71
     3
 72
    79
 73
    75
 74
    73
 42
0.0000000001
 43
0.0000000001
 44
0.00000001
 40
0.0
 40
0.0
 40
0.0
 40
0.0
 40
0.3142773867009479
 40
0.6283112411574885
 40
0.9612293766542097
 40
1.293805038039588
 40
1.653399990663175
 40
2.012687710360595
 40
2.402596358667108
 40
2.792277135713519
 40
3.212125602383392
 40
3.631818889113169
 40
4.078023830870262
 40
4.524128916246206
 40
4.990742665932659
 40
5.457297388873212
 40
5.936768753151456
 40
6.416212753073498
 40
6.900062536488177
 40
7.383912319902797
 40
7.86335631982482
 40
8.34282768410309
 40
8.809382407043655
 40
9.275996156730026
 40
9.722101242105914
 40
10.16830618386298
 40
10.58799947059281
 40
11.00784793726271
 40
11.39752871430916
 40
11.78743736261557
 40
12.14672508231292
 40
12.5063200349365
 40
12.83889569632181
 40
13.17181383181865
 40
13.48584768627524
 40
13.80012507297623
 40
14.10756996787614
 40
14.41501486277593
 40
14.72929224947679
 40
15.04332610393337
 40
15.37624423943013
 40
15.70881990081546
 40
16.06841485343905
 40
16.42770257313651
 40
16.81761122144298
 40
17.20729199848942
 40
17.62714046515938
 40
18.04683375188918
 40
18.49303869364628
 40
18.93914377902215
 40
19.4057575287085
 40
19.87231225164901
 40
20.35178361592726
 40
20.83122761584937
 40
21.31507739926405
 40
21.79892718267874
 40
22.27837118260076
 40
22.75784254687903
 40
23.22439726981952
 40
23.69101101950595
 40
24.13711610488195
 40
24.58332104663913
 40
25.00301433336894
 40
25.42286280003879
 40
25.8125435770851
 40
26.20245222539164
 40
26.56173994508904
 40
26.92133489771264
 40
27.25391055909795
 40
27.58682869459469
 40
27.90086254905117
 40
28.21513993575217
 40
28.52258483065197
 40
28.83002972555188
 40
28.83002972555188
 40
28.83002972555188
 40
28.83002972555188
 10
186.4766888859358
 20
375.9080926023166
 30
0.0
 10
186.4952813585345
 20
375.8048210476163
 30
0.0
 10
186.532451896502
 20
375.5983579629154
 30
0.0
 10
186.6433981597147
 20
375.296273130424
 30
0.0
 10
186.7904630024978
 20
375.0040782373783
 30
0.0
 10
186.9806175547479
 20
374.7192238713803
 30
0.0
 10
187.205752283272
 20
374.4497829486251
 30
0.0
 10
187.4703883533825
 20
374.1909855918676
 30
0.0
 10
187.7654485790633
 20
373.9513079275421
 30
0.0
 10
188.0962146266246
 20
373.7259696858587
 30
0.0
 10
188.4522819485892
 20
373.5224061649279
 30
0.0
 10
188.8390150207721
 20
373.3369138972141
 30
0.0
 10
189.2456884784422
 20
373.1751437844943
 30
0.0
 10
189.6766646742008
 20
373.034776223827
 30
0.0
 10
190.1220383585506
 20
372.9195331654417
 30
0.0
 10
190.5842513084403
 20
372.8282798272236
 30
0.0
 10
191.0551699011388
 20
372.7630722854923
 30
0.0
 10
191.5347014654226
 20
372.7234818180608
 30
0.0
 10
192.0171467032238
 20
372.7103962150901
 30
0.0
 10
192.4995919410401
 20
372.7234818180594
 30
0.0
 10
192.9791235052787
 20
372.7630722854973
 30
0.0
 10
193.4500420981408
 20
372.8282798272053
 30
0.0
 10
193.9122550474367
 20
372.9195331655078
 30
0.0
 10
194.3576287339572
 20
373.0347762235853
 30
0.0
 10
194.7886049219548
 20
373.1751437853525
 30
0.0
 10
195.1952784077512
 20
373.3369138940858
 30
0.0
 10
195.5820113809032
 20
373.5224061758362
 30
0.0
 10
195.9380790590146
 20
373.7259696462866
 30
0.0
 10
196.2688438680756
 20
373.9513080635159
 30
0.0
 10
196.5639085254132
 20
374.1909850996954
 30
0.0
 10
196.8285292857599
 20
374.4497846264686
 30
0.0
 10
197.053718785543
 20
374.7192177859109
 30
0.0
 10
197.2436834277642
 20
375.0040990698755
 30
0.0
 10
197.3914326444649
 20
375.296196959333
 30
0.0
 10
197.4999612411389
 20
375.5986244733962
 30
0.0
 10
197.5641727685127
 20
375.9048591653399
 30
0.0
 10
197.5867738716505
 20
376.2147713623169
 30
0.0
 10
197.5641727685127
 20
376.5246835592938
 30
0.0
 10
197.4999612411391
 20
376.8309182512375
 30
0.0
 10
197.3914326444651
 20
377.1333457653006
 30
0.0
 10
197.2436834277644
 20
377.4254436547581
 30
0.0
 10
197.0537187855431
 20
377.7103249387226
 30
0.0
 10
196.8285292857599
 20
377.9797580981651
 30
0.0
 10
196.5639085254133
 20
378.2385576249382
 30
0.0
 10
196.2688438680758
 20
378.4782346611179
 30
0.0
 10
195.9380790590146
 20
378.7035730783473
 30
0.0
 10
195.5820113809033
 20
378.9071365487976
 30
0.0
 10
195.1952784077512
 20
379.0926288305481
 30
0.0
 10
194.7886049219547
 20
379.2543989392811
 30
0.0
 10
194.3576287339572
 20
379.3947665010484
 30
0.0
 10
193.9122550474367
 20
379.5100095591258
 30
0.0
 10
193.4500420981408
 20
379.6012628974283
 30
0.0
 10
192.979123505279
 20
379.6664704391365
 30
0.0
 10
192.4995919410395
 20
379.7060609065742
 30
0.0
 10
192.0171467032261
 20
379.7191465095435
 30
0.0
 10
191.5347014654138
 20
379.7060609065745
 30
0.0
 10
191.0551699011711
 20
379.6664704391361
 30
0.0
 10
190.5842513083209
 20
379.6012628974294
 30
0.0
 10
190.1220383589828
 20
379.5100095591213
 30
0.0
 10
189.6766646726163
 20
379.3947665010654
 30
0.0
 10
189.2456884840676
 20
379.2543989392202
 30
0.0
 10
188.8390150002682
 20
379.0926288307701
 30
0.0
 10
188.4522820200847
 20
378.9071365480231
 30
0.0
 10
188.0962143672608
 20
378.7035730811569
 30
0.0
 10
187.7654494702626
 20
378.4782346514634
 30
0.0
 10
187.4703851275859
 20
378.2385576598838
 30
0.0
 10
187.2057632802006
 20
377.9797579790334
 30
0.0
 10
186.9805776693387
 20
377.7103253708089
 30
0.0
 10
186.7905995429447
 20
377.4254421755892
 30
0.0
 10
186.6428989188131
 20
377.133351173673
 30
0.0
 10
186.5341986606756
 20
376.8308993282064
 30
0.0
 10
186.4706157027878
 20
376.5247537300959
 30
0.0
 10
186.4457163830312
 20
376.214515782454
 30
0.0
 10
186.466364718301
 20
376.0102336623625
 30
0.0
 10
186.4766888859358
 20
375.9080926023166
 30
0.0
 11
186.4766888859358
 21
375.9080926023166
 31
0.0
 11
186.5413106331685
 21
375.6005307295558
 31
0.0
 11
186.6465106006098
 21
375.3046418507597
 31
0.0
 11
186.7964037830827
 21
375.0073767858921
 31
0.0
 11
186.9801782135478
 21
374.7301881691469
 31
0.0
 11
187.2102347224894
 21
374.4538142690658
 31
0.0
 11
187.4665965655704
 21
374.2020876893459
 31
0.0
 11
187.7687618878284
 21
373.9556635183543
 31
0.0
 11
188.0905029325768
 21
373.7358140059062
 31
0.0
 11
188.4546608659867
 21
373.5268601007028
 31
0.0
 11
188.8329079119658
 21
373.3450040391209
 31
0.0
 11
189.2473218174779
 21
373.1795955599953
 31
0.0
 11
189.6714162106098
 21
373.0411986925725
 31
0.0
 11
190.1230591806375
 21
372.9239510102034
 31
0.0
 11
190.5807526050895
 21
372.8334521775505
 31
0.0
 11
191.0556607263112
 21
372.7674592570167
 31
0.0
 11
191.5334776009241
 21
372.7279930259279
 31
0.0
 11
192.0171467032263
 21
372.7147713623169
 31
0.0
 11
192.5008158055284
 21
372.7279930259278
 31
0.0
 11
192.9786326801414
 21
372.7674592570168
 31
0.0
 11
193.453540801363
 21
372.8334521775506
 31
0.0
 11
193.911234225815
 21
372.9239510102035
 31
0.0
 11
194.3628771958427
 21
373.0411986925725
 31
0.0
 11
194.7869715889745
 21
373.1795955599953
 31
0.0
 11
195.2013854944866
 21
373.3450040391209
 31
0.0
 11
195.5796325404658
 21
373.5268601007028
 31
0.0
 11
195.9437904738757
 21
373.7358140059062
 31
0.0
 11
196.2655315186241
 21
373.9556635183544
 31
0.0
 11
196.567696840882
 21
374.2020876893459
 31
0.0
 11
196.8240586839629
 21
374.4538142690658
 31
0.0
 11
197.0541151929046
 21
374.7301881691467
 31
0.0
 11
197.2378896233698
 21
375.0073767858918
 31
0.0
 11
197.3877828058427
 21
375.3046418507596
 31
0.0
 11
197.492982773284
 21
375.6005307295557
 31
0.0
 11
197.5576045205166
 21
375.9080926023166
 31
0.0
 11
197.5792955685479
 21
376.2147713623169
 31
0.0
 11
197.5576045205166
 21
376.5214501223171
 31
0.0
 11
197.492982773284
 21
376.8290119950779
 31
0.0
 11
197.3877828058429
 21
377.124900873874
 31
0.0
 11
197.23788962337
 21
377.4221659387417
 31
0.0
 11
197.0541151929047
 21
377.6993545554868
 31
0.0
 11
196.8240586839631
 21
377.9757284555677
 31
0.0
 11
196.5676968408821
 21
378.2274550352877
 31
0.0
 11
196.2655315186241
 21
378.4738792062794
 31
0.0
 11
195.9437904738757
 21
378.6937287187276
 31
0.0
 11
195.5796325404658
 21
378.902682623931
 31
0.0
 11
195.2013854944866
 21
379.0845386855128
 31
0.0
 11
194.7869715889745
 21
379.2499471646384
 31
0.0
 11
194.3628771958427
 21
379.3883440320611
 31
0.0
 11
193.911234225815
 21
379.5055917144301
 31
0.0
 11
193.4535408013631
 21
379.5960905470831
 31
0.0
 11
192.9786326801414
 21
379.662083467617
 31
0.0
 11
192.5008158055284
 21
379.7015496987058
 31
0.0
 11
192.0171467032263
 21
379.714771362317
 31
0.0
 11
191.5334776009241
 21
379.7015496987059
 31
0.0
 11
191.0556607263112
 21
379.662083467617
 31
0.0
 11
190.5807526050895
 21
379.596090547083
 31
0.0
 11
190.1230591806376
 21
379.5055917144301
 31
0.0
 11
189.6714162106098
 21
379.3883440320611
 31
0.0
 11
189.2473218174779
 21
379.2499471646384
 31
0.0
 11
188.8329079119657
 21
379.0845386855128
 31
0.0
 11
188.4546608659865
 21
378.902682623931
 31
0.0
 11
188.0905029325767
 21
378.6937287187276
 31
0.0
 11
187.7687618878284
 21
378.4738792062794
 31
0.0
 11
187.4665965655704
 21
378.2274550352877
 31
0.0
 11
187.2102347224894
 21
377.9757284555678
 31
0.0
 11
186.9801782135478
 21
377.6993545554868
 31
0.0
 11
186.7964037830826
 21
377.4221659387417
 31
0.0
 11
186.6465106006098
 21
377.124900873874
 31
0.0
 11
186.5413106331685
 21
376.829011995078
 31
0.0
 11
186.4766888859358
 21
376.5214501223171
 31
0.0
 11
186.4549978379044
 21
376.2147713623169
 31
0.0
 11
186.4766888859358
 21
375.9080926023166
 31
0.0
  0
SPLINE
  5
1D0
330
42
100
AcDbEntity
  8
1
  6
Continuous
 62
     7
100
AcDbSpline
210
0.0
220
0.0
230
1.0
 70
    11
 71
     3
 72
    79
 73
    75
 74
    73
 42
0.0000000001
 43
0.0000000001
 44
0.00000001
 40
0.0
 40
0.0
 40
0.0
 40
0.0
 40
0.3142773867009421
 40
0.6283112411574732
 40
0.9612293766542073
 40
1.293805038039664
 40
1.653399990663342
 40
2.01268771036066
 40
2.402596358667041
 40
2.792277135713476
 40
3.212125602383373
 40
3.631818889113253
 40
4.078023830870347
 40
4.524128916246236
 40
4.990742665932662
 40
5.457297388873188
 40
5.936768753151403
 40
6.416212753073445
 40
6.900062536488096
 40
7.383912319902802
 40
7.863356319824768
 40
8.342827684103012
 40
8.809382407043465
 40
9.275996156729946
 40
9.722101242105889
 40
10.16830618386304
 40
10.58799947059284
 40
11.00784793726272
 40
11.39752871430916
 40
11.78743736261555
 40
12.14672508231293
 40
12.5063200349365
 40
12.83889569632182
 40
13.17181383181863
 40
13.48584768627519
 40
13.80012507297618
 40
14.10756996787609
 40
14.41501486277589
 40
14.72929224947676
 40
15.04332610393333
 40
15.37624423943007
 40
15.70881990081534
 40
16.06841485343887
 40
16.42770257313637
 40
16.81761122144286
 40
17.20729199848931
 40
17.62714046515926
 40
18.04683375188904
 40
18.49303869364614
 40
18.93914377902206
 40
19.40575752870852
 40
19.87231225164901
 40
20.35178361592723
 40
20.83122761584925
 40
21.31507739926393
 40
21.79892718267859
 40
22.27837118260058
 40
22.75784254687882
 40
23.22439726981932
 40
23.69101101950574
 40
24.13711610488167
 40
24.58332104663887
 40
25.00301433336878
 40
25.42286280003868
 40
25.81254357708504
 40
26.20245222539154
 40
26.56173994508892
 40
26.9213348977125
 40
27.25391055909779
 40
27.58682869459452
 40
27.90086254905099
 40
28.21513993575199
 40
28.52258483065179
 40
28.83002972555169
 40
28.83002972555169
 40
28.83002972555169
 40
28.83002972555169
 10
184.5576045205164
 20
375.9080926023166
 30
0.0
 10
184.5390120479177
 20
375.8048210476163
 30
0.0
 10
184.5018415099503
 20
375.5983579629155
 30
0.0
 10
184.3908952467376
 20
375.2962731304239
 30
0.0
 10
184.2438304039544
 20
375.0040782373783
 30
0.0
 10
184.0536758517041
 20
374.7192238713803
 30
0.0
 10
183.82854112318
 20
374.4497829486251
 30
0.0
 10
183.5639050530695
 20
374.1909855918676
 30
0.0
 10
183.268844827389
 20
373.951307927542
 30
0.0
 10
182.9380787798276
 20
373.7259696858586
 30
0.0
 10
182.5820114578631
 20
373.5224061649279
 30
0.0
 10
182.1952783856801
 20
373.336913897214
 30
0.0
 10
181.78860492801
 20
373.1751437844941
 30
0.0
 10
181.3576287322514
 20
373.0347762238272
 30
0.0
 10
180.9122550479016
 20
372.9195331654417
 30
0.0
 10
180.4500420980119
 20
372.8282798272235
 30
0.0
 10
179.9791235053135
 20
372.7630722854923
 30
0.0
 10
179.4995919410297
 20
372.7234818180608
 30
0.0
 10
179.0171467032286
 20
372.7103962150902
 30
0.0
 10
178.5347014654122
 20
372.7234818180593
 30
0.0
 10
178.0551699011735
 20
372.7630722854973
 30
0.0
 10
177.5842513083116
 20
372.8282798272055
 30
0.0
 10
177.1220383590156
 20
372.9195331655078
 30
0.0
 10
176.6766646724951
 20
373.0347762235853
 30
0.0
 10
176.2456884844974
 20
373.1751437853525
 30
0.0
 10
175.839014998701
 20
373.3369138940857
 30
0.0
 10
175.452282025549
 20
373.5224061758362
 30
0.0
 10
175.0962143474376
 20
373.7259696462866
 30
0.0
 10
174.7654495383766
 20
373.9513080635159
 30
0.0
 10
174.470384881039
 20
374.1909850996954
 30
0.0
 10
174.2057641206924
 20
374.4497846264684
 30
0.0
 10
173.9805746209092
 20
374.7192177859109
 30
0.0
 10
173.7906099786881
 20
375.0040990698756
 30
0.0
 10
173.6428607619872
 20
375.296196959333
 30
0.0
 10
173.5343321653134
 20
375.5986244733962
 30
0.0
 10
173.4701206379396
 20
375.90485916534
 30
0.0
 10
173.4475195348018
 20
376.2147713623168
 30
0.0
 10
173.4701206379396
 20
376.5246835592936
 30
0.0
 10
173.5343321653134
 20
376.8309182512375
 30
0.0
 10
173.6428607619873
 20
377.1333457653007
 30
0.0
 10
173.790609978688
 20
377.4254436547579
 30
0.0
 10
173.9805746209091
 20
377.7103249387225
 30
0.0
 10
174.2057641206922
 20
377.9797580981652
 30
0.0
 10
174.4703848810389
 20
378.2385576249382
 30
0.0
 10
174.7654495383765
 20
378.478234661118
 30
0.0
 10
175.0962143474377
 20
378.7035730783472
 30
0.0
 10
175.452282025549
 20
378.9071365487977
 30
0.0
 10
175.839014998701
 20
379.0926288305479
 30
0.0
 10
176.2456884844974
 20
379.2543989392812
 30
0.0
 10
176.6766646724951
 20
379.3947665010484
 30
0.0
 10
177.1220383590156
 20
379.5100095591258
 30
0.0
 10
177.5842513083116
 20
379.6012628974283
 30
0.0
 10
178.0551699011734
 20
379.6664704391365
 30
0.0
 10
178.5347014654128
 20
379.7060609065743
 30
0.0
 10
179.0171467032262
 20
379.7191465095435
 30
0.0
 10
179.4995919410384
 20
379.7060609065745
 30
0.0
 10
179.9791235052811
 20
379.6664704391361
 30
0.0
 10
180.4500420981313
 20
379.6012628974295
 30
0.0
 10
180.9122550474694
 20
379.5100095591212
 30
0.0
 10
181.3576287338358
 20
379.3947665010655
 30
0.0
 10
181.7886049223844
 20
379.2543989392202
 30
0.0
 10
182.195278406184
 20
379.0926288307701
 30
0.0
 10
182.5820113863675
 20
378.9071365480231
 30
0.0
 10
182.9380790391914
 20
378.703573081157
 30
0.0
 10
183.2688439361897
 20
378.4782346514634
 30
0.0
 10
183.5639082788664
 20
378.2385576598839
 30
0.0
 10
183.8285301262516
 20
377.9797579790334
 30
0.0
 10
184.0537157371135
 20
377.7103253708088
 30
0.0
 10
184.2436938635075
 20
377.4254421755893
 30
0.0
 10
184.3913944876391
 20
377.133351173673
 30
0.0
 10
184.5000947457765
 20
376.8308993282063
 30
0.0
 10
184.5636777036644
 20
376.5247537300959
 30
0.0
 10
184.5885770234208
 20
376.2145157824539
 30
0.0
 10
184.5679286881513
 20
376.0102336623624
 30
0.0
 10
184.5576045205164
 20
375.9080926023166
 30
0.0
 11
184.5576045205164
 21
375.9080926023166
 31
0.0
 11
184.4929827732837
 21
375.6005307295558
 31
0.0
 11
184.3877828058425
 21
375.3046418507597
 31
0.0
 11
184.2378896233696
 21
375.0073767858921
 31
0.0
 11
184.0541151929043
 21
374.7301881691469
 31
0.0
 11
183.8240586839626
 21
374.4538142690658
 31
0.0
 11
183.5676968408817
 21
374.2020876893459
 31
0.0
 11
183.2655315186239
 21
373.9556635183543
 31
0.0
 11
182.9437904738754
 21
373.7358140059062
 31
0.0
 11
182.5796325404656
 21
373.5268601007028
 31
0.0
 11
182.2013854944863
 21
373.3450040391209
 31
0.0
 11
181.7869715889742
 21
373.1795955599953
 31
0.0
 11
181.3628771958424
 21
373.0411986925725
 31
0.0
 11
180.9112342258147
 21
372.9239510102034
 31
0.0
 11
180.4535408013627
 21
372.8334521775505
 31
0.0
 11
179.9786326801411
 21
372.7674592570167
 31
0.0
 11
179.5008158055281
 21
372.7279930259279
 31
0.0
 11
179.017146703226
 21
372.7147713623169
 31
0.0
 11
178.5334776009238
 21
372.7279930259278
 31
0.0
 11
178.0556607263109
 21
372.7674592570168
 31
0.0
 11
177.5807526050893
 21
372.8334521775506
 31
0.0
 11
177.1230591806374
 21
372.9239510102035
 31
0.0
 11
176.6714162106096
 21
373.0411986925725
 31
0.0
 11
176.2473218174777
 21
373.1795955599953
 31
0.0
 11
175.8329079119656
 21
373.3450040391209
 31
0.0
 11
175.4546608659864
 21
373.5268601007028
 31
0.0
 11
175.0905029325766
 21
373.7358140059062
 31
0.0
 11
174.7687618878281
 21
373.9556635183544
 31
0.0
 11
174.4665965655702
 21
374.2020876893459
 31
0.0
 11
174.2102347224893
 21
374.4538142690658
 31
0.0
 11
173.9801782135476
 21
374.7301881691467
 31
0.0
 11
173.7964037830824
 21
375.0073767858918
 31
0.0
 11
173.6465106006095
 21
375.3046418507596
 31
0.0
 11
173.5413106331684
 21
375.6005307295557
 31
0.0
 11
173.4766888859357
 21
375.9080926023166
 31
0.0
 11
173.4549978379044
 21
376.2147713623169
 31
0.0
 11
173.4766888859357
 21
376.5214501223171
 31
0.0
 11
173.5413106331684
 21
376.8290119950779
 31
0.0
 11
173.6465106006095
 21
377.124900873874
 31
0.0
 11
173.7964037830824
 21
377.4221659387417
 31
0.0
 11
173.9801782135475
 21
377.6993545554868
 31
0.0
 11
174.2102347224891
 21
377.9757284555677
 31
0.0
 11
174.4665965655701
 21
378.2274550352877
 31
0.0
 11
174.7687618878281
 21
378.4738792062794
 31
0.0
 11
175.0905029325765
 21
378.6937287187276
 31
0.0
 11
175.4546608659864
 21
378.902682623931
 31
0.0
 11
175.8329079119656
 21
379.0845386855128
 31
0.0
 11
176.2473218174777
 21
379.2499471646384
 31
0.0
 11
176.6714162106096
 21
379.3883440320611
 31
0.0
 11
177.1230591806374
 21
379.5055917144301
 31
0.0
 11
177.5807526050893
 21
379.5960905470831
 31
0.0
 11
178.0556607263109
 21
379.662083467617
 31
0.0
 11
178.5334776009238
 21
379.7015496987058
 31
0.0
 11
179.017146703226
 21
379.714771362317
 31
0.0
 11
179.5008158055281
 21
379.7015496987059
 31
0.0
 11
179.978632680141
 21
379.662083467617
 31
0.0
 11
180.4535408013626
 21
379.596090547083
 31
0.0
 11
180.9112342258146
 21
379.5055917144301
 31
0.0
 11
181.3628771958424
 21
379.3883440320611
 31
0.0
 11
181.7869715889742
 21
379.2499471646384
 31
0.0
 11
182.2013854944864
 21
379.0845386855128
 31
0.0
 11
182.5796325404658
 21
378.902682623931
 31
0.0
 11
182.9437904738756
 21
378.6937287187276
 31
0.0
 11
183.265531518624
 21
378.4738792062794
 31
0.0
 11
183.5676968408819
 21
378.2274550352877
 31
0.0
 11
183.8240586839628
 21
377.9757284555678
 31
0.0
 11
184.0541151929044
 21
377.6993545554868
 31
0.0
 11
184.2378896233696
 21
377.4221659387417
 31
0.0
 11
184.3877828058424
 21
377.124900873874
 31
0.0
 11
184.4929827732836
 21
376.829011995078
 31
0.0
 11
184.5576045205163
 21
376.5214501223171
 31
0.0
 11
184.5792955685477
 21
376.2147713623169
 31
0.0
 11
184.5576045205164
 21
375.9080926023166
 31
0.0
  0
ENDBLK
  5
44
330
42
100
AcDbEntity
  8
0
100
AcDbBlockEnd
  0
BLOCK
  5
46
330
45
100
AcDbEntity
  8
0
100
AcDbBlockBegin
  2
51-1
 70
     0
 71
     0
 10
161.2914115165323
 20
1385.219788549141
 30
0.0
  3
51-1
  1

  0
LINE
  5
1D1
330
45
100
AcDbEntity
  8
1
  6
Continuous
 62
     7
100
AcDbLine
 10
154.5171467032506
 20
300.4844091366982
 30
0.0
 11
154.5171467032506
 21
298.0975002313308
 31
0.0
  0
LINE
  5
1D2
330
45
100
AcDbEntity
  8
1
  6
Continuous
 62
     7
100
AcDbLine
 10
199.3094381067411
 20
297.5975002313308
 30
0.0
 11
199.3094381067411
 21
301.6756903682728
 31
0.0
  0
LINE
  5
1D3
330
45
100
AcDbEntity
  8
1
  6
Continuous
 62
     7
100
AcDbLine
 10
199.3094381067411
 20
297.5975002313308
 30
0.0
 11
203.5171467032504
 21
297.5975002313309
 31
0.0
  0
LINE
  5
1D4
330
45
100
AcDbEntity
  8
1
  6
Continuous
 62
     7
100
AcDbLine
 10
204.0171467032504
 20
300.0724496537407
 30
0.0
 11
204.0171467032504
 21
298.0975002313308
 31
0.0
  0
LINE
  5
1D5
330
45
100
AcDbEntity
  8
1
  6
Continuous
 62
     7
100
AcDbLine
 10
180.61714670325
 20
308.5975002313308
 30
0.0
 11
190.41714670325
 21
308.5975002313308
 31
0.0
  0
LINE
  5
1D6
330
45
100
AcDbEntity
  8
1
  6
Continuous
 62
     7
100
AcDbLine
 10
155.0171467032506
 20
297.5975002313309
 30
0.0
 11
199.3094381067411
 21
297.5975002313308
 31
0.0
  0
LINE
  5
1D7
330
45
100
AcDbEntity
  8
1
  6
Continuous
 62
     7
100
AcDbLine
 10
158.9642324326114
 20
419.5102276439633
 30
0.0
 11
171.2973819035317
 21
422.814885084829
 31
0.0
  0
LINE
  5
1D8
330
45
100
AcDbEntity
  8
1
  6
PHANTOM
 62
     4
100
AcDbLine
 10
201.0171467032264
 20
386.8678851689115
 30
0.0
 11
178.5328105504561
 21
425.8118977599676
 31
0.0
  0
LINE
  5
1D9
330
45
100
AcDbEntity
  8
1
  6
Continuous
 62
     7
100
AcDbLine
 10
158.9642324326114
 20
407.9191177284944
 30
0.0
 11
171.2973819035317
 21
404.6144602876291
 31
0.0
  0
LINE
  5
1DA
330
45
100
AcDbEntity
  8
1
  6
Continuous
 62
     7
100
AcDbLine
 10
193.7745060161075
 20
387.8213969044987
 30
0.0
 11
184.7460139860525
 21
396.8498889345535
 31
0.0
  0
LINE
  5
1DB
330
45
100
AcDbEntity
  8
1
  6
Continuous
 62
     7
100
AcDbLine
 10
204.016478335458
 20
392.8564469596125
 30
0.0
 11
200.5080442200958
 21
405.9501013331533
 31
0.0
  0
LINE
  5
1DC
330
45
100
AcDbEntity
  8
1
  6
Continuous
 62
     7
100
AcDbLine
 10
203.812701660961
 20
433.8123935102247
 30
0.0
 11
200.5080442200958
 21
421.4792440393048
 31
0.0
  0
LINE
  5
1DD
330
45
100
AcDbEntity
  8
1
  6
Continuous
 62
     7
100
AcDbLine
 10
193.7745060161075
 20
439.6079484679594
 30
0.0
 11
184.7460139860525
 21
430.5794564379043
 31
0.0
  0
LINE
  5
1DE
330
45
100
AcDbEntity
  8
1
  6
PHANTOM
 62
     4
100
AcDbLine
 10
201.0171467032267
 20
440.5614602035466
 30
0.0
 11
178.5328105504561
 21
401.6174476124904
 31
0.0
  0
LINE
  5
1DF
330
45
100
AcDbEntity
  8
1
  6
PHANTOM
 62
     4
100
AcDbLine
 10
154.5171467032266
 20
413.7146726862289
 30
0.0
 11
199.4858190087675
 21
413.7146726862289
 31
0.0
  0
LINE
  5
1E0
330
45
100
AcDbEntity
  8
1
  6
Continuous
 62
     7
100
AcDbLine
 10
291.5170480273002
 20
386.5640375916193
 30
0.0
 11
291.5170480273002
 21
440.8653077808411
 31
0.0
  0
LINE
  5
1E1
330
45
100
AcDbEntity
  8
1
  6
Continuous
 62
     7
100
AcDbLine
 10
291.0170480273002
 20
441.3653077808411
 30
0.0
 11
288.1539559001619
 21
441.3653077808411
 31
0.0
  0
LINE
  5
1E2
330
45
100
AcDbEntity
  8
1
  6
Continuous
 62
     7
100
AcDbLine
 10
288.1539559001619
 20
386.0640375916193
 30
0.0
 11
291.0170480273002
 21
386.0640375916193
 31
0.0
  0
ARC
  5
1E3
330
45
100
AcDbEntity
  8
1
  6
Continuous
 62
     7
100
AcDbCircle
 10
185.4171467032507
 20
160.0658341539103
 30
0.0
 40
148.6092050572049
100
AcDbArc
 50
99.59172272312941
 51
100.0532276375031
  0
ARC
  5
1E4
330
45
100
AcDbEntity
  8
1
  6
Continuous
 62
     7
100
AcDbCircle
 10
187.4660285158608
 20
287.0373354663406
 30
0.0
 40
21.76119949013527
100
AcDbArc
 50
68.44320528903171
 51
82.20588758494952
  0
ARC
  5
1E5
330
45
100
AcDbEntity
  8
1
  6
Continuous
 62
     7
100
AcDbCircle
 10
172.5131018447149
 20
229.9241669759493
 30
0.0
 40
80.64072525632011
100
AcDbArc
 50
70.02008322088797
 51
73.1921064852487
  0
ARC
  5
1E6
330
45
100
AcDbEntity
  8
1
  6
Continuous
 62
     7
100
AcDbCircle
 10
185.4171467032507
 20
160.0658341539103
 30
0.0
 40
148.6092050572048
100
AcDbArc
 50
91.85094579686918
 51
99.59172272312941
  0
ARC
  5
1E7
330
45
100
AcDbEntity
  8
1
  6
Continuous
 62
     7
100
AcDbCircle
 10
160.5171467032266
 20
413.7146726862289
 30
0.0
 40
6.0
100
AcDbArc
 50
180.0
 51
-105.0000000000005
  0
ARC
  5
1E8
330
45
100
AcDbEntity
  8
1
  6
Continuous
 62
     7
100
AcDbCircle
 10
198.0171467032263
 20
392.064037591618
 30
0.0
 40
5.999999999999647
100
AcDbArc
 50
-134.999999999997
 51
7.52424107893943
  0
ARC
  5
1E9
330
45
100
AcDbEntity
  8
1
  6
Continuous
 62
     7
100
AcDbCircle
 10
198.0171467032263
 20
435.3653077808398
 30
0.0
 40
6.00000000000029
100
AcDbArc
 50
-14.99999999999935
 51
134.999999999995
  0
ARC
  5
1EA
330
45
100
AcDbEntity
  8
1
  6
Continuous
 62
     7
100
AcDbCircle
 10
160.5171467032266
 20
413.7146726862289
 30
0.0
 40
6.000000000000004
100
AcDbArc
 50
105.0000000000006
 51
180.0
  0
ARC
  5
1EB
330
45
100
AcDbEntity
  8
1
  6
Continuous
 62
     7
100
AcDbCircle
 10
430.5170480272997
 20
413.71467268623
 30
0.0
 40
149.9999999999999
100
AcDbArc
 50
171.3526952746611
 51
-171.3526952746612
  0
ARC
  5
1EC
330
45
100
AcDbEntity
  8
1
  6
Continuous
 62
     7
100
AcDbCircle
 10
155.0171467032506
 20
298.0975002313301
 30
0.0
 40
0.5
100
AcDbArc
 50
179.9999999999218
 51
-90.0
  0
ARC
  5
1ED
330
45
100
AcDbEntity
  8
1
  6
Continuous
 62
     7
100
AcDbCircle
 10
160.5171467032506
 20
300.4844091366982
 30
0.0
 40
6.000000000000082
100
AcDbArc
 50
99.99784348756697
 51
180.0
  0
ARC
  5
1EE
330
45
100
AcDbEntity
  8
1
  6
Continuous
 62
     7
100
AcDbCircle
 10
193.3094381067413
 20
301.6756903682728
 30
0.0
 40
5.999999999999801
100
AcDbArc
 50
0.0
 51
68.98000123350894
  0
ARC
  5
1EF
330
45
100
AcDbEntity
  8
1
  6
Continuous
 62
     7
100
AcDbCircle
 10
203.5171467032504
 20
298.0975002313301
 30
0.0
 40
0.4999999999992042
100
AcDbArc
 50
-90.0
 51
0.00000000007817
  0
ARC
  5
1F0
330
45
100
AcDbEntity
  8
1
  6
Continuous
 62
     7
100
AcDbCircle
 10
198.0171467032504
 20
300.0724496537407
 30
0.0
 40
6.0
100
AcDbArc
 50
0.0
 51
70.02008322088665
  0
ARC
  5
1F1
330
45
100
AcDbEntity
  8
0
  6
Continuous
 62
     7
100
AcDbCircle
 10
163.5328105504561
 20
451.7926598735008
 30
0.0
 40
29.99999999999976
100
AcDbArc
 50
-74.99999999999997
 51
-45.00000000000011
  0
ARC
  5
1F2
330
45
100
AcDbEntity
  8
0
  6
Continuous
 62
     7
100
AcDbCircle
 10
229.4858190087678
 20
413.7146726862289
 30
0.0
 40
30.00000000000003
100
AcDbArc
 50
164.9999999999995
 51
-165.0000000000001
  0
ARC
  5
1F3
330
45
100
AcDbEntity
  8
0
  6
Continuous
 62
     7
100
AcDbCircle
 10
163.5328105504561
 20
375.6366854989571
 30
0.0
 40
29.99999999999998
100
AcDbArc
 50
45.00000000000004
 51
75.00000000000004
  0
ARC
  5
1F4
330
45
100
AcDbEntity
  8
1
  6
Continuous
 62
     7
100
AcDbCircle
 10
291.0170480273002
 20
440.8653077808411
 30
0.0
 40
0.5
100
AcDbArc
 50
0.0
 51
90.0
  0
ARC
  5
1F5
330
45
100
AcDbEntity
  8
1
  6
Continuous
 62
     7
100
AcDbCircle
 10
288.1539559001619
 20
435.3653077808411
 30
0.0
 40
6.0
100
AcDbArc
 50
90.0
 51
171.3526952746613
  0
ARC
  5
1F6
330
45
100
AcDbEntity
  8
1
  6
Continuous
 62
     7
100
AcDbCircle
 10
288.1539559001619
 20
392.0640375916193
 30
0.0
 40
6.000000000000124
100
AcDbArc
 50
-171.3526952746613
 51
-90.0
  0
ARC
  5
1F7
330
45
100
AcDbEntity
  8
1
  6
Continuous
 62
     7
100
AcDbCircle
 10
291.0170480273002
 20
386.5640375916193
 30
0.0
 40
0.5
100
AcDbArc
 50
-90.0
 51
0.0
  0
ENDBLK
  5
47
330
45
100
AcDbEntity
  8
0
100
AcDbBlockEnd
  0
BLOCK
  5
49
330
48
100
AcDbEntity
  8
0
100
AcDbBlockBegin
  2
36-54-M11
 70
     0
 71
     0
 10
85.51714670322622
 20
284.7146726862306
 30
0.0
  3
36-54-M11
  1

  0
LINE
  5
1F8
330
48
100
AcDbEntity
  8
1
  6
PHANTOM
 62
     4
100
AcDbLine
 10
185.5171467032261
 20
258.5975002313297
 30
0.0
 11
185.5171467032261
 21
307.09750023133
 31
0.0
  0
LINE
  5
1F9
330
48
100
AcDbEntity
  8
1
  6
Continuous
 62
     7
100
AcDbLine
 10
190.2671467032261
 20
297.5975002313308
 30
0.0
 11
190.2671467032261
 21
292.597500231329
 31
0.0
  0
LINE
  5
1FA
330
48
100
AcDbEntity
  8
1
  6
Continuous
 62
     7
100
AcDbLine
 10
180.7671467032261
 20
292.597500231329
 30
0.0
 11
180.7671467032261
 21
297.5975002313308
 31
0.0
  0
LINE
  5
1FB
330
48
100
AcDbEntity
  8
1
  6
Continuous
 62
     7
100
AcDbLine
 10
291.5170480273002
 20
418.4646726862302
 30
0.0
 11
295.5170480271401
 21
418.4646726862302
 31
0.0
  0
LINE
  5
1FC
330
48
100
AcDbEntity
  8
1
  6
Continuous
 62
     7
100
AcDbLine
 10
295.5170480271401
 20
408.96467268623
 30
0.0
 11
291.5170480273002
 21
408.96467268623
 31
0.0
  0
ENDBLK
  5
4A
330
48
100
AcDbEntity
  8
0
100
AcDbBlockEnd
  0
BLOCK
  5
4C
330
4B
100
AcDbEntity
  8
0
100
AcDbBlockBegin
  2
42-15
 70
     0
 71
     0
 10
85.51714670322622
 20
323.7146726862309
 30
0.0
  3
42-15
  1

  0
LINE
  5
1FD
330
4B
100
AcDbEntity
  8
1
  6
Continuous
 62
     2
100
AcDbLine
 10
184.0171467032503
 20
310.6838203895528
 30
0.0
 11
184.0171467032503
 21
309.5350940596997
 31
0.0
  0
LINE
  5
1FE
330
4B
100
AcDbEntity
  8
1
  6
Continuous
 62
     2
100
AcDbLine
 10
183.0171467032503
 20
310.9290433586169
 30
0.0
 11
183.0171467032503
 21
309.2110494220079
 31
0.0
  0
LINE
  5
1FF
330
4B
100
AcDbEntity
  8
1
  6
Continuous
 62
     2
100
AcDbLine
 10
182.0171467032503
 20
311.1217185485958
 30
0.0
 11
182.0171467032503
 21
308.8519729315928
 31
0.0
  0
LINE
  5
200
330
4B
100
AcDbEntity
  8
1
  6
Continuous
 62
     2
100
AcDbLine
 10
181.0171467032503
 20
311.253087996309
 30
0.0
 11
181.0171467032503
 21
308.7030875575178
 31
0.0
  0
LINE
  5
201
330
4B
100
AcDbEntity
  8
1
  6
Continuous
 62
     2
100
AcDbLine
 10
180.0171467032503
 20
311.397500231331
 30
0.0
 11
180.0171467032503
 21
308.5975002313308
 31
0.0
  0
LINE
  5
202
330
4B
100
AcDbEntity
  8
1
  6
Continuous
 62
     2
100
AcDbLine
 10
179.0171467032503
 20
311.397500231331
 30
0.0
 11
179.0171467032503
 21
308.5975002313308
 31
0.0
  0
LINE
  5
203
330
4B
100
AcDbEntity
  8
1
  6
Continuous
 62
     7
100
AcDbLine
 10
178.5171467032503
 20
308.5975002313308
 30
0.0
 11
178.5171467032503
 21
311.397500231331
 31
0.0
  0
LINE
  5
204
330
4B
100
AcDbEntity
  8
1
  6
Continuous
 62
     7
100
AcDbLine
 10
192.5171467032503
 20
311.397500231331
 30
0.0
 11
192.5171467032503
 21
308.5975002313308
 31
0.0
  0
LINE
  5
205
330
4B
100
AcDbEntity
  8
1
  6
Continuous
 62
     2
100
AcDbLine
 10
192.0171467032506
 20
308.5975002313308
 30
0.0
 11
192.0171467032506
 21
311.397500231331
 31
0.0
  0
LINE
  5
206
330
4B
100
AcDbEntity
  8
1
  6
Continuous
 62
     2
100
AcDbLine
 10
191.0171467032503
 20
308.5975002313308
 30
0.0
 11
191.0171467032503
 21
311.397500231331
 31
0.0
  0
LINE
  5
207
330
4B
100
AcDbEntity
  8
1
  6
Continuous
 62
     7
100
AcDbLine
 10
192.5171467032503
 20
311.397500231331
 30
0.0
 11
178.5171467032503
 21
311.397500231331
 31
0.0
  0
LINE
  5
208
330
4B
100
AcDbEntity
  8
1
  6
Continuous
 62
     7
100
AcDbLine
 10
178.5171467032503
 20
308.5975002313308
 30
0.0
 11
192.5171467032503
 21
308.5975002313308
 31
0.0
  0
LINE
  5
209
330
4B
100
AcDbEntity
  8
1
  6
Continuous
 62
     2
100
AcDbLine
 10
190.0171467032506
 20
308.7030875575178
 30
0.0
 11
190.0171467032506
 21
311.253087996309
 31
0.0
  0
LINE
  5
20A
330
4B
100
AcDbEntity
  8
1
  6
Continuous
 62
     2
100
AcDbLine
 10
189.0171467032506
 20
308.8519729315928
 30
0.0
 11
189.0171467032506
 21
311.1217185485958
 31
0.0
  0
LINE
  5
20B
330
4B
100
AcDbEntity
  8
1
  6
Continuous
 62
     2
100
AcDbLine
 10
188.0171467032506
 20
309.2110494220079
 30
0.0
 11
188.0171467032506
 21
310.9290433586169
 31
0.0
  0
LINE
  5
20C
330
4B
100
AcDbEntity
  8
1
  6
Continuous
 62
     2
100
AcDbLine
 10
187.0171467032503
 20
309.5350940596997
 30
0.0
 11
187.0171467032503
 21
310.6838203895528
 31
0.0
  0
LINE
  5
20D
330
4B
100
AcDbEntity
  8
1
  6
Continuous
 62
     7
100
AcDbLine
 10
280.5170480273001
 20
406.7146726862299
 30
0.0
 11
280.5170480273
 21
420.7146726862298
 31
0.0
  0
LINE
  5
20E
330
4B
100
AcDbEntity
  8
1
  6
Continuous
 62
     2
100
AcDbLine
 10
279.5794541989302
 20
415.2146726862299
 30
0.0
 11
278.2307278690781
 21
415.2146726862299
 31
0.0
  0
LINE
  5
20F
330
4B
100
AcDbEntity
  8
1
  6
Continuous
 62
     2
100
AcDbLine
 10
279.9034988366221
 20
416.2146726862299
 30
0.0
 11
277.9855049000142
 21
416.2146726862299
 31
0.0
  0
LINE
  5
210
330
4B
100
AcDbEntity
  8
1
  6
Continuous
 62
     2
100
AcDbLine
 10
280.2625753270382
 20
417.2146726862299
 30
0.0
 11
277.7928297100351
 21
417.2146726862299
 31
0.0
  0
LINE
  5
211
330
4B
100
AcDbEntity
  8
1
  6
Continuous
 62
     2
100
AcDbLine
 10
280.411460701112
 20
418.2146726862299
 30
0.0
 11
277.6614602623223
 21
418.2146726862299
 31
0.0
  0
LINE
  5
212
330
4B
100
AcDbEntity
  8
1
  6
Continuous
 62
     7
100
AcDbLine
 10
277.5170480273001
 20
420.7146726862298
 30
0.0
 11
277.5170480273001
 21
406.7146726862299
 31
0.0
  0
LINE
  5
213
330
4B
100
AcDbEntity
  8
1
  6
Continuous
 62
     2
100
AcDbLine
 10
280.5170480273
 20
419.2146726862298
 30
0.0
 11
277.5170480273001
 21
419.2146726862298
 31
0.0
  0
LINE
  5
214
330
4B
100
AcDbEntity
  8
1
  6
Continuous
 62
     2
100
AcDbLine
 10
280.5170480273
 20
420.2146726862298
 30
0.0
 11
277.5170480273001
 21
420.2146726862298
 31
0.0
  0
LINE
  5
215
330
4B
100
AcDbEntity
  8
1
  6
Continuous
 62
     7
100
AcDbLine
 10
277.5170480273001
 20
420.7146726862298
 30
0.0
 11
280.5170480273
 21
420.7146726862298
 31
0.0
  0
LINE
  5
216
330
4B
100
AcDbEntity
  8
1
  6
Continuous
 62
     7
100
AcDbLine
 10
277.1872823070959
 20
407.9646726862299
 30
0.0
 11
277.1872823070959
 21
419.4646726862298
 31
0.0
  0
LINE
  5
217
330
4B
100
AcDbEntity
  8
1
  6
Continuous
 62
     7
100
AcDbLine
 10
280.5170480273001
 20
406.7146726862299
 30
0.0
 11
277.5170480273001
 21
406.7146726862299
 31
0.0
  0
LINE
  5
218
330
4B
100
AcDbEntity
  8
1
  6
Continuous
 62
     2
100
AcDbLine
 10
277.5170480273001
 20
407.2146726862299
 30
0.0
 11
280.5170480273
 21
407.2146726862299
 31
0.0
  0
LINE
  5
219
330
4B
100
AcDbEntity
  8
1
  6
Continuous
 62
     2
100
AcDbLine
 10
277.5170480273001
 20
408.2146726862299
 30
0.0
 11
280.5170480273
 21
408.2146726862299
 31
0.0
  0
LINE
  5
21A
330
4B
100
AcDbEntity
  8
1
  6
Continuous
 62
     2
100
AcDbLine
 10
277.6614602623223
 20
409.2146726862299
 30
0.0
 11
280.411460701112
 21
409.2146726862299
 31
0.0
  0
LINE
  5
21B
330
4B
100
AcDbEntity
  8
1
  6
Continuous
 62
     2
100
AcDbLine
 10
277.7928297100351
 20
410.2146726862299
 30
0.0
 11
280.2625753270382
 21
410.2146726862299
 31
0.0
  0
LINE
  5
21C
330
4B
100
AcDbEntity
  8
1
  6
Continuous
 62
     2
100
AcDbLine
 10
277.9855049000142
 20
411.2146726862299
 30
0.0
 11
279.9034988366221
 21
411.2146726862299
 31
0.0
  0
LINE
  5
21D
330
4B
100
AcDbEntity
  8
1
  6
Continuous
 62
     2
100
AcDbLine
 10
278.2307278690781
 20
412.2146726862299
 30
0.0
 11
279.5794541989302
 21
412.2146726862299
 31
0.0
  0
ARC
  5
21E
330
4B
100
AcDbEntity
  8
1
  6
Continuous
 62
     7
100
AcDbCircle
 10
185.5171467032503
 20
287.3975002313308
 30
0.0
 40
25.00000000000016
100
AcDbArc
 50
73.73979529168815
 51
90.0
  0
ARC
  5
21F
330
4B
100
AcDbEntity
  8
1
  6
Continuous
 62
     7
100
AcDbCircle
 10
185.5171467032503
 20
287.3975002313308
 30
0.0
 40
25.0
100
AcDbArc
 50
90.0
 51
106.2602047083119
  0
ARC
  5
220
330
4B
100
AcDbEntity
  8
1
  6
Continuous
 62
     7
100
AcDbCircle
 10
301.5170480273001
 20
413.7146726862299
 30
0.0
 40
25.0
100
AcDbArc
 50
180.0
 51
-163.7397952916881
  0
ARC
  5
221
330
4B
100
AcDbEntity
  8
1
  6
Continuous
 62
     7
100
AcDbCircle
 10
301.5170480273001
 20
413.7146726862299
 30
0.0
 40
24.99999999999997
100
AcDbArc
 50
163.7397952916883
 51
180.0
  0
CIRCLE
  5
222
330
4B
100
AcDbEntity
  8
1
  6
Continuous
 62
     7
100
AcDbCircle
 10
185.5171467032263
 20
413.7146726862289
 30
0.0
 40
6.999999999999886
  0
ENDBLK
  5
4D
330
4B
100
AcDbEntity
  8
0
100
AcDbBlockEnd
  0
BLOCK
  5
4F
330
4E
100
AcDbEntity
  8
0
100
AcDbBlockBegin
  2
37-1-13__2
 70
     0
 71
     0
 10
85.51714670322622
 20
304.7146726862299
 30
0.0
  3
37-1-13__2
  1

  0
LINE
  5
223
330
4E
100
AcDbEntity
  8
1
  6
Continuous
 62
     7
100
AcDbLine
 10
179.094530413893
 20
426.7146726862289
 30
0.0
 11
179.9977599471299
 21
426.7146726862289
 31
0.0
  0
LINE
  5
224
330
4E
100
AcDbEntity
  8
1
  6
Continuous
 62
     7
100
AcDbLine
 10
199.9867850970902
 20
412.7768215515507
 30
0.0
 11
199.5351703304727
 21
411.9946018303212
 31
0.0
  0
LINE
  5
225
330
4E
100
AcDbEntity
  8
1
  6
Continuous
 62
     7
100
AcDbLine
 10
177.4701245986953
 20
401.6525238209071
 30
0.0
 11
177.0185098320769
 21
402.4347435421382
 31
0.0
  0
LINE
  5
226
330
4E
100
AcDbEntity
  8
1
  6
Continuous
 62
     7
100
AcDbLine
 10
199.535170330473
 20
415.4347435421367
 30
0.0
 11
199.9867850970902
 21
414.6525238209071
 31
0.0
  0
LINE
  5
227
330
4E
100
AcDbEntity
  8
1
  6
Continuous
 62
     7
100
AcDbLine
 10
179.9977599471299
 20
400.7146726862289
 30
0.0
 11
179.094530413893
 21
400.7146726862289
 31
0.0
  0
LINE
  5
228
330
4E
100
AcDbEntity
  8
1
  6
Continuous
 62
     7
100
AcDbLine
 10
177.0185098320771
 20
424.9946018303201
 30
0.0
 11
177.4701245986953
 21
425.7768215515507
 31
0.0
  0
LINE
  5
229
330
4E
100
AcDbEntity
  8
1
  6
Continuous
 62
     7
100
AcDbLine
 10
302.3448067686649
 20
403.7146726862297
 30
0.0
 11
302.3448067686649
 21
423.7146726862299
 31
0.0
  0
LINE
  5
22A
330
4E
100
AcDbEntity
  8
1
  6
Continuous
 62
     7
100
AcDbLine
 10
309.5170480271401
 20
426.7146726862297
 30
0.0
 11
302.3448067686649
 21
426.7146726862297
 31
0.0
  0
LINE
  5
22B
330
4E
100
AcDbEntity
  8
1
  6
Continuous
 62
     7
100
AcDbLine
 10
302.3448067686649
 20
400.7146726862299
 30
0.0
 11
309.5170480271401
 21
400.7146726862299
 31
0.0
  0
LINE
  5
22C
330
4E
100
AcDbEntity
  8
1
  6
Continuous
 62
     7
100
AcDbLine
 10
309.5170480271401
 20
400.7146726862299
 30
0.0
 11
309.5170480271401
 21
426.7146726862297
 31
0.0
  0
LINE
  5
22D
330
4E
100
AcDbEntity
  8
1
  6
Continuous
 62
     7
100
AcDbLine
 10
295.5170480271401
 20
407.7146726862299
 30
0.0
 11
295.5170480271401
 21
419.7146726862302
 31
0.0
  0
LINE
  5
22E
330
4E
100
AcDbEntity
  8
1
  6
Continuous
 62
     7
100
AcDbLine
 10
173.0171467032506
 20
286.0975002313292
 30
0.0
 11
185.5171467032512
 21
286.0975002313285
 31
0.0
  0
LINE
  5
22F
330
4E
100
AcDbEntity
  8
1
  6
DASH_CENTER
 62
     2
100
AcDbLine
 10
185.5171467032503
 20
278.597500231329
 30
0.0
 11
185.5171467032503
 21
278.5975989074159
 31
0.0
  0
LINE
  5
230
330
4E
100
AcDbEntity
  8
1
  6
DOT_CENTER
 62
     2
100
AcDbLine
 10
185.5171467032503
 20
278.5975989074159
 30
0.0
 11
185.5171467032503
 21
278.597500231329
 31
0.0
  0
LINE
  5
231
330
4E
100
AcDbEntity
  8
1
  6
Continuous
 62
     7
100
AcDbLine
 10
185.5171467032503
 20
278.597500231329
 30
0.0
 11
172.4464324889789
 21
278.597500231329
 31
0.0
  0
LINE
  5
232
330
4E
100
AcDbEntity
  8
1
  6
Continuous
 62
     7
100
AcDbLine
 10
185.5171467032506
 20
292.597500231329
 30
0.0
 11
179.5171467032503
 21
292.597500231329
 31
0.0
  0
LINE
  5
233
330
4E
100
AcDbEntity
  8
1
  6
Continuous
 62
     7
100
AcDbLine
 10
185.5171467032492
 20
286.0975002313285
 30
0.0
 11
198.0171467032499
 21
286.0975002313292
 31
0.0
  0
LINE
  5
234
330
4E
100
AcDbEntity
  8
1
  6
Continuous
 62
     7
100
AcDbLine
 10
198.5878609175215
 20
278.597500231329
 30
0.0
 11
185.5171467032503
 21
278.597500231329
 31
0.0
  0
LINE
  5
235
330
4E
100
AcDbEntity
  8
1
  6
Continuous
 62
     7
100
AcDbLine
 10
191.5171467032501
 20
292.597500231329
 30
0.0
 11
185.5171467032506
 21
292.597500231329
 31
0.0
  0
ARC
  5
236
330
4E
100
AcDbEntity
  8
1
  6
Continuous
 62
     7
100
AcDbCircle
 10
185.5171467032262
 20
413.7146726862289
 30
0.0
 40
14.50000000000027
100
AcDbArc
 50
116.2915552747315
 51
123.7084447252687
  0
ARC
  5
237
330
4E
100
AcDbEntity
  8
1
  6
Continuous
 62
     7
100
AcDbCircle
 10
185.5171467032262
 20
413.7146726862289
 30
0.0
 40
14.5
100
AcDbArc
 50
0.0
 51
3.70844472527052
  0
ARC
  5
238
330
4E
100
AcDbEntity
  8
1
  6
Continuous
 62
     7
100
AcDbCircle
 10
185.5171467032262
 20
413.7146726862289
 30
0.0
 40
14.49999999999973
100
AcDbArc
 50
-123.7084447252689
 51
-116.2915552747315
  0
ARC
  5
239
330
4E
100
AcDbEntity
  8
1
  6
Continuous
 62
     7
100
AcDbCircle
 10
185.5171467032262
 20
413.7146726862289
 30
0.0
 40
14.50000000000003
100
AcDbArc
 50
-3.7084447252703
 51
0.0
  0
ARC
  5
23A
330
4E
100
AcDbEntity
  8
1
  6
Continuous
 62
     7
100
AcDbCircle
 10
282.110592822026
 20
439.6211278913448
 30
0.0
 40
23.99999999999947
100
AcDbArc
 50
-33.95919250009901
 51
-32.53189151774873
  0
ARC
  5
23B
330
4E
100
AcDbEntity
  8
1
  6
Continuous
 62
     7
100
AcDbCircle
 10
282.110592822026
 20
387.808217481115
 30
0.0
 40
23.99999999999934
100
AcDbArc
 50
33.95919250009856
 51
56.04080749990408
  0
ARC
  5
23C
330
4E
100
AcDbEntity
  8
1
  6
Continuous
 62
     7
100
AcDbCircle
 10
282.110592822026
 20
439.6211278913448
 30
0.0
 40
23.99999999999932
100
AcDbArc
 50
-56.0408074999037
 51
-33.95919250009901
  0
ARC
  5
23D
330
4E
100
AcDbEntity
  8
1
  6
Continuous
 62
     7
100
AcDbCircle
 10
282.110592822026
 20
387.808217481115
 30
0.0
 40
23.9999999999999
100
AcDbArc
 50
32.53189151774827
 51
33.95919250009856
  0
ARC
  5
23E
330
4E
100
AcDbEntity
  8
1
  6
Continuous
 62
     7
100
AcDbCircle
 10
159.6106914981356
 20
306.0039554364439
 30
0.0
 40
23.99999999999986
100
AcDbArc
 50
-56.04080749990203
 51
-33.9591925000978
  0
ARC
  5
23F
330
4E
100
AcDbEntity
  8
1
  6
Continuous
 62
     7
100
AcDbCircle
 10
176.0171467032503
 20
282.097500231329
 30
0.0
 40
4.999999999999995
100
AcDbArc
 50
126.8698976458396
 51
-135.572995999194
  0
ARC
  5
240
330
4E
100
AcDbEntity
  8
1
  6
Continuous
 62
     7
100
AcDbCircle
 10
195.0171467032501
 20
282.097500231329
 30
0.0
 40
4.999999999999996
100
AcDbArc
 50
-44.42700400080575
 51
53.13010235415937
  0
ARC
  5
241
330
4E
100
AcDbEntity
  8
1
  6
Continuous
 62
     7
100
AcDbCircle
 10
211.4236019083648
 20
306.0039554364439
 30
0.0
 40
23.99999999999981
100
AcDbArc
 50
-146.0408074999022
 51
-123.9591925000978
  0
SPLINE
  5
242
330
4E
100
AcDbEntity
  8
1
  6
Continuous
 62
     7
100
AcDbSpline
210
0.0
220
0.0
230
1.0
 70
     8
 71
     3
 72
    29
 73
    25
 74
    23
 42
0.0000000001
 43
0.0000000001
 44
0.00000001
 40
0.0
 40
0.0
 40
0.0
 40
0.0
 40
0.6069077131758188
 40
1.21222262582245
 40
1.842666707826503
 40
2.474631900595165
 40
3.102420172365106
 40
3.72933389145606
 40
4.271042939832906
 40
4.812985328220977
 40
5.340107980728162
 40
5.866248927279901
 40
6.263874837343076
 40
6.661485236222283
 40
7.28096649756883
 40
7.90259673852788
 40
8.549168915178603
 40
9.195896772489054
 40
9.722415974179059
 40
10.24911841725685
 40
11.07897537273992
 40
11.90732207846621
 40
12.67331709994995
 40
13.44191271185772
 40
13.44191271185772
 40
13.44191271185772
 40
13.44191271185772
 10
185.5171467032503
 20
285.597500231329
 30
0.0
 10
185.7192065328077
 20
285.5876248578667
 30
0.0
 10
186.1227958954764
 20
285.5679000283916
 30
0.0
 10
186.7345014458149
 20
285.5041096743387
 30
0.0
 10
187.3439185077048
 20
285.3699263770213
 30
0.0
 10
187.9423246832101
 20
285.1694707563368
 30
0.0
 10
188.5168872151057
 20
284.9109096395189
 30
0.0
 10
189.0317850127773
 20
284.6019802497477
 30
0.0
 10
189.4808038867755
 20
284.2481633251727
 30
0.0
 10
189.8547454892666
 20
283.8601386570098
 30
0.0
 10
190.1617113907267
 20
283.423208253247
 30
0.0
 10
190.3690200482608
 20
282.982994286147
 30
0.0
 10
190.4849226365314
 20
282.556285165462
 30
0.0
 10
190.5356258414257
 20
282.0853697229599
 30
0.0
 10
190.4751695181478
 20
281.536395129916
 30
0.0
 10
190.262222286401
 20
280.938649063696
 30
0.0
 10
189.9149853490549
 20
280.3970468176973
 30
0.0
 10
189.4936276232223
 20
279.9564388495597
 30
0.0
 10
189.0462141329654
 20
279.6065649259227
 30
0.0
 10
188.5103777470428
 20
279.2776545429337
 30
0.0
 10
187.8454866971294
 20
278.9739159213066
 30
0.0
 10
187.0658256356554
 20
278.7491460559638
 30
0.0
 10
186.283420017346
 20
278.6447592505546
 30
0.0
 10
185.7728595479835
 20
278.6133367718054
 30
0.0
 10
185.5171467032503
 20
278.5975989074159
 30
0.0
 11
185.5171467032503
 21
285.597500231329
 31
0.0
 11
186.1230327250084
 21
285.5622993655667
 31
0.0
 11
186.7244755444897
 21
285.4939423734825
 31
0.0
 11
187.3403667562308
 21
285.3592658876582
 31
0.0
 11
187.9398282177795
 21
285.159200995713
 31
0.0
 11
188.5115269910996
 21
284.8998197574628
 31
0.0
 11
189.0480922081126
 21
284.5755998026848
 31
0.0
 11
189.4725247468917
 21
284.2389906627037
 31
0.0
 11
189.8472737221723
 21
283.847500231329
 31
0.0
 11
190.1488296081324
 21
283.4151550701105
 31
0.0
 11
190.3708499219661
 21
282.9381526844943
 31
0.0
 11
190.4746106391091
 21
282.5543036543646
 31
0.0
 11
190.5163687369297
 21
282.1588921085502
 31
0.0
 11
190.4517751253083
 21
281.5427876543404
 31
0.0
 11
190.244156955157
 21
280.9568534840637
 31
0.0
 11
189.898784354302
 21
280.4102518501496
 31
0.0
 11
189.4545102276991
 21
279.9402758700692
 31
0.0
 11
189.0406398089245
 21
279.6148012224979
 31
0.0
 11
188.5926009617003
 21
279.3378957243183
 31
0.0
 11
187.8378402550628
 21
278.992933636141
 31
0.0
 11
187.0416839446746
 21
278.7642561463947
 31
0.0
 11
186.2836748140752
 21
278.6539360173802
 31
0.0
 11
185.5171467032503
 21
278.5975989074159
 31
0.0
  0
SPLINE
  5
243
330
4E
100
AcDbEntity
  8
1
  6
Continuous
 62
     7
100
AcDbSpline
210
0.0
220
0.0
230
1.0
 70
    11
 71
     3
 72
    79
 73
    75
 74
    73
 42
0.0000000001
 43
0.0000000001
 44
0.00000001
 40
0.0
 40
0.0
 40
0.0
 40
0.0
 40
0.2803981145479259
 40
0.560797785903304
 40
0.8427454841468238
 40
1.124697473048632
 40
1.409536451638167
 40
1.694381500885937
 40
1.983071310125286
 40
2.271767843423092
 40
2.564776142200997
 40
2.857790854546616
 40
3.155055698552916
 40
3.452325978930982
 40
3.753284827389811
 40
4.054247742882808
 40
4.357919806975716
 40
4.661594368328902
 40
4.966700748943454
 40
5.271807969839518
 40
5.576915190735354
 40
5.882021571349851
 40
6.185696132703037
 40
6.489368196796
 40
6.79033111228904
 40
7.091289960748035
 40
7.388560241126066
 40
7.685825085132303
 40
7.978839797477923
 40
8.271848096255907
 40
8.560544629553625
 40
8.849234438792887
 40
9.13407948804066
 40
9.418918466630339
 40
9.700870455532066
 40
9.982818153775574
 40
10.26321782513097
 40
10.5436159396789
 40
10.82401405422684
 40
11.1044137255822
 40
11.38636142382557
 40
11.66831341272724
 40
11.95315239131688
 40
12.2379974405647
 40
12.52668724980399
 40
12.81538378310169
 40
13.10839208187969
 40
13.40140679422529
 40
13.69867163823161
 40
13.99594191860956
 40
14.29690076706849
 40
14.5978636825616
 40
14.9015357466546
 40
15.2052103080078
 40
15.51031668862233
 40
15.81542390951811
 40
16.12053113041417
 40
16.4256375110287
 40
16.7293120723819
 40
17.03298413647485
 40
17.33394705196787
 40
17.63490590042667
 40
17.93217618080472
 40
18.22944102481104
 40
18.52245573715666
 40
18.81546403593456
 40
19.10416056923229
 40
19.39285037847172
 40
19.67769542771946
 40
19.96253440630902
 40
20.24448639521069
 40
20.52643409345416
 40
20.80683376480946
 40
21.08723187935744
 40
21.08723187935744
 40
21.08723187935744
 40
21.08723187935744
 10
196.7754769524477
 20
285.597500231329
 30
0.0
 10
196.8689774955012
 20
285.5949188454398
 30
0.0
 10
197.0559791007357
 20
285.5897560593293
 30
0.0
 10
197.3344635139757
 20
285.5482837092804
 30
0.0
 10
197.6084057103781
 20
285.4823835488877
 30
0.0
 10
197.8763338757135
 20
285.3901514396536
 30
0.0
 10
198.1353796632738
 20
285.2730692502946
 30
0.0
 10
198.3845389574267
 20
285.1315929687154
 30
0.0
 10
198.6208489776045
 20
284.9673106227223
 30
0.0
 10
198.8436239715224
 20
284.7808504745058
 30
0.0
 10
199.0500800038207
 20
284.5744259995687
 30
0.0
 10
199.239692747461
 20
284.3487083051321
 30
0.0
 10
199.4100919233866
 20
284.1064175067834
 30
0.0
 10
199.5608047309944
 20
283.8483600139433
 30
0.0
 10
199.69002786752
 20
283.5775328104615
 30
0.0
 10
199.7973075407045
 20
283.2950159569648
 30
0.0
 10
199.8814620442596
 20
283.0038279863716
 30
0.0
 10
199.9421053180907
 20
282.7054492134568
 30
0.0
 10
199.978639080362
 20
282.4026882415767
 30
0.0
 10
199.9908581110988
 20
282.0975002313288
 30
0.0
 10
199.9786390803621
 20
281.7923122210825
 30
0.0
 10
199.9421053180907
 20
281.4895512491978
 30
0.0
 10
199.8814620442597
 20
281.1911724762999
 30
0.0
 10
199.7973075407045
 20
280.8999845056439
 30
0.0
 10
199.6900278675201
 20
280.617467652379
 30
0.0
 10
199.5608047309945
 20
280.3466404480373
 30
0.0
 10
199.4100919233866
 20
280.0885829583683
 30
0.0
 10
199.2396927474611
 20
279.8462921482726
 30
0.0
 10
199.0500800038205
 20
279.6205744970748
 30
0.0
 10
198.8436239715226
 20
279.4141498620481
 30
0.0
 10
198.6208489776045
 20
279.2276903028711
 30
0.0
 10
198.3845389574265
 20
279.0634057751601
 30
0.0
 10
198.1353796632739
 20
278.9219375320902
 30
0.0
 10
197.8763338757135
 20
278.8048255284883
 30
0.0
 10
197.608405710378
 20
278.7127036100154
 30
0.0
 10
197.3344635139757
 20
278.646393844448
 30
0.0
 10
197.0559791007357
 20
278.6064421793521
 30
0.0
 10
196.7754769524477
 20
278.5930292697291
 30
0.0
 10
196.4949748041597
 20
278.6064421793521
 30
0.0
 10
196.2164903909197
 20
278.646393844448
 30
0.0
 10
195.9425481945175
 20
278.7127036100154
 30
0.0
 10
195.6746200291821
 20
278.8048255284883
 30
0.0
 10
195.4155742416217
 20
278.92193753209
 30
0.0
 10
195.1664149474691
 20
279.0634057751602
 30
0.0
 10
194.9301049272912
 20
279.2276903028711
 30
0.0
 10
194.707329933373
 20
279.414149862048
 30
0.0
 10
194.5008739010751
 20
279.6205744970749
 30
0.0
 10
194.3112611574346
 20
279.8462921482727
 30
0.0
 10
194.140861981509
 20
280.0885829583683
 30
0.0
 10
193.9901491739011
 20
280.3466404480374
 30
0.0
 10
193.8609260373755
 20
280.6174676523789
 30
0.0
 10
193.7536463641912
 20
280.8999845056441
 30
0.0
 10
193.6694918606358
 20
281.1911724762998
 30
0.0
 10
193.6088485868047
 20
281.4895512491978
 30
0.0
 10
193.5723148245335
 20
281.7923122210825
 30
0.0
 10
193.5600957937969
 20
282.0975002313288
 30
0.0
 10
193.5723148245335
 20
282.4026882415767
 30
0.0
 10
193.6088485868046
 20
282.7054492134569
 30
0.0
 10
193.6694918606358
 20
283.0038279863717
 30
0.0
 10
193.7536463641911
 20
283.2950159569648
 30
0.0
 10
193.8609260373756
 20
283.5775328104615
 30
0.0
 10
193.9901491739012
 20
283.8483600139433
 30
0.0
 10
194.140861981509
 20
284.1064175067833
 30
0.0
 10
194.3112611574345
 20
284.3487083051321
 30
0.0
 10
194.500873901075
 20
284.5744259995688
 30
0.0
 10
194.7073299333731
 20
284.7808504745057
 30
0.0
 10
194.9301049272911
 20
284.9673106227223
 30
0.0
 10
195.166414947469
 20
285.1315929687154
 30
0.0
 10
195.4155742416218
 20
285.2730692502945
 30
0.0
 10
195.6746200291822
 20
285.3901514396536
 30
0.0
 10
195.9425481945174
 20
285.4823835488876
 30
0.0
 10
196.2164903909197
 20
285.5482837092805
 30
0.0
 10
196.4949748041598
 20
285.5897560593294
 30
0.0
 10
196.6819764093942
 20
285.5949188454399
 30
0.0
 10
196.7754769524477
 20
285.597500231329
 30
0.0
 11
196.7754769524477
 21
285.597500231329
 31
0.0
 11
197.0555569513173
 21
285.584147446031
 31
0.0
 11
197.333114759696
 21
285.5443273668719
 31
0.0
 11
197.6071661640749
 21
285.4780677841479
 31
0.0
 11
197.8738090243494
 21
285.3864244040797
 31
0.0
 11
198.1333974488854
 21
285.2691764037946
 31
0.0
 11
198.3811310247809
 21
285.1285891445746
 31
0.0
 11
198.6182315093899
 21
284.9638919492226
 31
0.0
 11
198.8396660387248
 21
284.7786557822454
 31
0.0
 11
199.0469494280345
 21
284.5715629053302
 31
0.0
 11
199.2354817118121
 21
284.3472568652319
 31
0.0
 11
199.4065702583856
 21
284.1041620345311
 31
0.0
 11
199.5565513851086
 21
283.847500231329
 31
0.0
 11
199.6862281649831
 21
283.5759120113579
 31
0.0
 11
199.7931195190604
 21
283.2945707329689
 31
0.0
 11
199.8774855803906
 21
283.0028532494235
 31
0.0
 11
199.9379981106263
 21
282.7052688531633
 31
0.0
 11
199.9745770591894
 21
282.4023631186291
 31
0.0
 11
199.9867850971141
 21
282.097500231329
 31
0.0
 11
199.9745770591894
 21
281.7926373440291
 31
0.0
 11
199.9379981106263
 21
281.4897316094949
 31
0.0
 11
199.8774855803906
 21
281.1921472132348
 31
0.0
 11
199.7931195190604
 21
280.9004297296893
 31
0.0
 11
199.6862281649831
 21
280.6190884513002
 31
0.0
 11
199.5565513851086
 21
280.347500231329
 31
0.0
 11
199.4065702583856
 21
280.0908384281269
 31
0.0
 11
199.2354817118121
 21
279.8477435974262
 31
0.0
 11
199.0469494280345
 21
279.6234375573279
 31
0.0
 11
198.8396660387248
 21
279.4163446804126
 31
0.0
 11
198.6182315093899
 21
279.2311085134356
 31
0.0
 11
198.3811310247809
 21
279.0664113180836
 31
0.0
 11
198.1333974488854
 21
278.9258240588636
 31
0.0
 11
197.8738090243494
 21
278.8085760585782
 31
0.0
 11
197.607166164075
 21
278.7169326785102
 31
0.0
 11
197.333114759696
 21
278.6506730957863
 31
0.0
 11
197.0555569513173
 21
278.6108530166272
 31
0.0
 11
196.7754769524477
 21
278.597500231329
 31
0.0
 11
196.4953969535781
 21
278.6108530166272
 31
0.0
 11
196.2178391451994
 21
278.6506730957863
 31
0.0
 11
195.9437877408206
 21
278.7169326785102
 31
0.0
 11
195.6771448805462
 21
278.8085760585782
 31
0.0
 11
195.4175564560102
 21
278.9258240588634
 31
0.0
 11
195.1698228801147
 21
279.0664113180836
 31
0.0
 11
194.9327223955057
 21
279.2311085134356
 31
0.0
 11
194.7112878661708
 21
279.4163446804126
 31
0.0
 11
194.5040044768611
 21
279.6234375573279
 31
0.0
 11
194.3154721930835
 21
279.8477435974262
 31
0.0
 11
194.1443836465099
 21
280.090838428127
 31
0.0
 11
193.994402519787
 21
280.347500231329
 31
0.0
 11
193.8647257399126
 21
280.6190884513002
 31
0.0
 11
193.7578343858352
 21
280.9004297296893
 31
0.0
 11
193.6734683245049
 21
281.1921472132348
 31
0.0
 11
193.6129557942691
 21
281.4897316094949
 31
0.0
 11
193.5763768457062
 21
281.7926373440292
 31
0.0
 11
193.5641688077815
 21
282.097500231329
 31
0.0
 11
193.5763768457062
 21
282.4023631186291
 31
0.0
 11
193.6129557942691
 21
282.7052688531633
 31
0.0
 11
193.6734683245049
 21
283.0028532494235
 31
0.0
 11
193.7578343858352
 21
283.2945707329689
 31
0.0
 11
193.8647257399126
 21
283.5759120113579
 31
0.0
 11
193.994402519787
 21
283.847500231329
 31
0.0
 11
194.1443836465099
 21
284.1041620345311
 31
0.0
 11
194.3154721930835
 21
284.3472568652319
 31
0.0
 11
194.5040044768611
 21
284.5715629053302
 31
0.0
 11
194.7112878661708
 21
284.7786557822454
 31
0.0
 11
194.9327223955057
 21
284.9638919492225
 31
0.0
 11
195.1698228801147
 21
285.1285891445746
 31
0.0
 11
195.4175564560102
 21
285.2691764037946
 31
0.0
 11
195.6771448805462
 21
285.3864244040797
 31
0.0
 11
195.9437877408205
 21
285.4780677841479
 31
0.0
 11
196.2178391451994
 21
285.5443273668719
 31
0.0
 11
196.495396953578
 21
285.584147446031
 31
0.0
 11
196.7754769524477
 21
285.597500231329
 31
0.0
  0
SPLINE
  5
244
330
4E
100
AcDbEntity
  8
1
  6
Continuous
 62
     7
100
AcDbSpline
210
0.0
220
0.0
230
1.0
 70
     8
 71
     3
 72
    29
 73
    25
 74
    23
 42
0.0000000001
 43
0.0000000001
 44
0.00000001
 40
0.0
 40
0.0
 40
0.0
 40
0.0
 40
0.6069077131758472
 40
1.212222625822619
 40
1.842666707826657
 40
2.474631900595247
 40
3.102420172365213
 40
3.72933389145624
 40
4.271042939833064
 40
4.812985328221135
 40
5.340107980728272
 40
5.866248927279998
 40
6.263874837343181
 40
6.661485236222396
 40
7.280966497568947
 40
7.902596738527978
 40
8.549168915178701
 40
9.195896772489171
 40
9.722415974179244
 40
10.24911841725697
 40
11.07897537274011
 40
11.9073220784664
 40
12.67331709995015
 40
13.441912711858
 40
13.441912711858
 40
13.441912711858
 40
13.441912711858
 10
185.5171467032503
 20
285.597500231329
 30
0.0
 10
185.3150868736929
 20
285.5876248578667
 30
0.0
 10
184.9114975110241
 20
285.5679000283917
 30
0.0
 10
184.2997919606856
 20
285.5041096743387
 30
0.0
 10
183.6903748987957
 20
285.3699263770213
 30
0.0
 10
183.0919687232904
 20
285.1694707563368
 30
0.0
 10
182.5174061913947
 20
284.9109096395189
 30
0.0
 10
182.0025083937231
 20
284.6019802497477
 30
0.0
 10
181.553489519725
 20
284.2481633251726
 30
0.0
 10
181.1795479172338
 20
283.8601386570098
 30
0.0
 10
180.8725820157738
 20
283.4232082532471
 30
0.0
 10
180.6652733582398
 20
282.9829942861468
 30
0.0
 10
180.5493707699691
 20
282.5562851654622
 30
0.0
 10
180.4986675650747
 20
282.0853697229599
 30
0.0
 10
180.5591238883527
 20
281.536395129916
 30
0.0
 10
180.7720711200993
 20
280.9386490636959
 30
0.0
 10
181.1193080574455
 20
280.3970468176973
 30
0.0
 10
181.5406657832781
 20
279.9564388495597
 30
0.0
 10
181.9880792735351
 20
279.6065649259228
 30
0.0
 10
182.5239156594577
 20
279.2776545429335
 30
0.0
 10
183.1888067093712
 20
278.9739159213066
 30
0.0
 10
183.9684677708451
 20
278.7491460559639
 30
0.0
 10
184.7508733891546
 20
278.6447592505544
 30
0.0
 10
185.261433858517
 20
278.6133367718053
 30
0.0
 10
185.5171467032503
 20
278.5975989074159
 30
0.0
 11
185.5171467032503
 21
285.597500231329
 31
0.0
 11
184.9112606814921
 21
285.5622993655667
 31
0.0
 11
184.3098178620107
 21
285.4939423734825
 31
0.0
 11
183.6939266502696
 21
285.3592658876581
 31
0.0
 11
183.094465188721
 21
285.159200995713
 31
0.0
 11
182.5227664154009
 21
284.8998197574628
 31
0.0
 11
181.9862011983878
 21
284.5755998026848
 31
0.0
 11
181.5617686596087
 21
284.2389906627037
 31
0.0
 11
181.1870196843281
 21
283.847500231329
 31
0.0
 11
180.8854637983681
 21
283.4151550701105
 31
0.0
 11
180.6634434845344
 21
282.9381526844943
 31
0.0
 11
180.5596827673914
 21
282.5543036543646
 31
0.0
 11
180.5179246695707
 21
282.1588921085502
 31
0.0
 11
180.5825182811921
 21
281.5427876543404
 31
0.0
 11
180.7901364513434
 21
280.9568534840637
 31
0.0
 11
181.1355090521984
 21
280.4102518501496
 31
0.0
 11
181.5797831788013
 21
279.9402758700692
 31
0.0
 11
181.993653597576
 21
279.6148012224979
 31
0.0
 11
182.4416924448001
 21
279.3378957243183
 31
0.0
 11
183.1964531514377
 21
278.992933636141
 31
0.0
 11
183.9926094618259
 21
278.7642561463947
 31
0.0
 11
184.7506185924253
 21
278.6539360173801
 31
0.0
 11
185.5171467032503
 21
278.5975989074159
 31
0.0
  0
SPLINE
  5
245
330
4E
100
AcDbEntity
  8
1
  6
Continuous
 62
     7
100
AcDbSpline
210
0.0
220
0.0
230
1.0
 70
    11
 71
     3
 72
    79
 73
    75
 74
    73
 42
0.0000000001
 43
0.0000000001
 44
0.00000001
 40
0.0
 40
0.0
 40
0.0
 40
0.0
 40
0.2803981145479259
 40
0.560797785903304
 40
0.8427454841469066
 40
1.124697473048715
 40
1.4095364516383
 40
1.694381500886016
 40
1.983071310125389
 40
2.271767843423173
 40
2.564776142201077
 40
2.857790854546697
 40
3.155055698552997
 40
3.452325978931063
 40
3.753284827389867
 40
4.054247742882884
 40
4.357919806975784
 40
4.661594368328976
 40
4.966700748943525
 40
5.27180796983959
 40
5.576915190735427
 40
5.88202157134992
 40
6.185696132703113
 40
6.489368196796067
 40
6.790331112289118
 40
7.0912899607481
 40
7.388560241126117
 40
7.685825085132372
 40
7.978839797477972
 40
8.271848096255978
 40
8.560544629553675
 40
8.84923443879296
 40
9.134079488040761
 40
9.418918466630416
 40
9.700870455532151
 40
9.982818153775726
 40
10.26321782513113
 40
10.54361593967906
 40
10.82401405422697
 40
11.10441372558228
 40
11.38636142382567
 40
11.66831341272729
 40
11.95315239131692
 40
12.23799744056477
 40
12.52668724980412
 40
12.81538378310176
 40
13.10839208187982
 40
13.40140679422542
 40
13.69867163823169
 40
13.99594191860969
 40
14.29690076706859
 40
14.59786368256168
 40
14.9015357466547
 40
15.20521030800791
 40
15.51031668862244
 40
15.81542390951822
 40
16.12053113041428
 40
16.42563751102881
 40
16.72931207238202
 40
17.03298413647499
 40
17.333947051968
 40
17.63490590042676
 40
17.93217618080481
 40
18.22944102481113
 40
18.52245573715675
 40
18.81546403593471
 40
19.10416056923246
 40
19.39285037847186
 40
19.67769542771958
 40
19.96253440630919
 40
20.24448639521086
 40
20.5264340934543
 40
20.8068337648096
 40
21.08723187935749
 40
21.08723187935749
 40
21.08723187935749
 40
21.08723187935749
 10
174.2588164540528
 20
285.597500231329
 30
0.0
 10
174.1653159109992
 20
285.5949188454397
 30
0.0
 10
173.9783143057648
 20
285.5897560593292
 30
0.0
 10
173.6998298925248
 20
285.5482837092804
 30
0.0
 10
173.4258876961224
 20
285.4823835488878
 30
0.0
 10
173.157959530787
 20
285.3901514396536
 30
0.0
 10
172.8989137432265
 20
285.2730692502946
 30
0.0
 10
172.6497544490738
 20
285.1315929687154
 30
0.0
 10
172.4134444288959
 20
284.9673106227223
 30
0.0
 10
172.1906694349779
 20
284.7808504745058
 30
0.0
 10
171.9842134026798
 20
284.5744259995688
 30
0.0
 10
171.7946006590393
 20
284.348708305132
 30
0.0
 10
171.6242014831138
 20
284.1064175067834
 30
0.0
 10
171.473488675506
 20
283.8483600139433
 30
0.0
 10
171.3442655389804
 20
283.5775328104614
 30
0.0
 10
171.2369858657959
 20
283.2950159569649
 30
0.0
 10
171.1528313622408
 20
283.0038279863716
 30
0.0
 10
171.0921880884097
 20
282.7054492134569
 30
0.0
 10
171.0556543261384
 20
282.4026882415767
 30
0.0
 10
171.0434352954016
 20
282.0975002313289
 30
0.0
 10
171.0556543261384
 20
281.7923122210825
 30
0.0
 10
171.0921880884097
 20
281.4895512491978
 30
0.0
 10
171.1528313622408
 20
281.1911724762998
 30
0.0
 10
171.2369858657959
 20
280.8999845056439
 30
0.0
 10
171.3442655389803
 20
280.6174676523789
 30
0.0
 10
171.4734886755059
 20
280.3466404480374
 30
0.0
 10
171.6242014831138
 20
280.0885829583683
 30
0.0
 10
171.7946006590394
 20
279.8462921482726
 30
0.0
 10
171.9842134026798
 20
279.6205744970748
 30
0.0
 10
172.1906694349778
 20
279.4141498620481
 30
0.0
 10
172.4134444288959
 20
279.2276903028711
 30
0.0
 10
172.6497544490738
 20
279.0634057751602
 30
0.0
 10
172.8989137432266
 20
278.9219375320901
 30
0.0
 10
173.1579595307868
 20
278.8048255284883
 30
0.0
 10
173.4258876961224
 20
278.7127036100156
 30
0.0
 10
173.6998298925248
 20
278.646393844448
 30
0.0
 10
173.9783143057649
 20
278.6064421793521
 30
0.0
 10
174.2588164540528
 20
278.5930292697291
 30
0.0
 10
174.5393186023407
 20
278.6064421793521
 30
0.0
 10
174.8178030155807
 20
278.646393844448
 30
0.0
 10
175.091745211983
 20
278.7127036100154
 30
0.0
 10
175.3596733773183
 20
278.8048255284882
 30
0.0
 10
175.6187191648787
 20
278.9219375320902
 30
0.0
 10
175.8678784590314
 20
279.0634057751601
 30
0.0
 10
176.1041884792094
 20
279.2276903028711
 30
0.0
 10
176.3269634731274
 20
279.4141498620482
 30
0.0
 10
176.5334195054255
 20
279.6205744970748
 30
0.0
 10
176.7230322490659
 20
279.8462921482726
 30
0.0
 10
176.8934314249915
 20
280.0885829583682
 30
0.0
 10
177.0441442325994
 20
280.3466404480373
 30
0.0
 10
177.1733673691248
 20
280.617467652379
 30
0.0
 10
177.2806470423093
 20
280.8999845056441
 30
0.0
 10
177.3648015458646
 20
281.1911724762998
 30
0.0
 10
177.4254448196959
 20
281.4895512491977
 30
0.0
 10
177.461978581967
 20
281.7923122210825
 30
0.0
 10
177.4741976127035
 20
282.0975002313288
 30
0.0
 10
177.461978581967
 20
282.4026882415767
 30
0.0
 10
177.4254448196959
 20
282.7054492134568
 30
0.0
 10
177.3648015458647
 20
283.0038279863718
 30
0.0
 10
177.2806470423093
 20
283.2950159569648
 30
0.0
 10
177.1733673691248
 20
283.5775328104614
 30
0.0
 10
177.0441442325993
 20
283.8483600139434
 30
0.0
 10
176.8934314249915
 20
284.1064175067834
 30
0.0
 10
176.7230322490659
 20
284.348708305132
 30
0.0
 10
176.5334195054255
 20
284.5744259995688
 30
0.0
 10
176.3269634731273
 20
284.7808504745058
 30
0.0
 10
176.1041884792093
 20
284.9673106227222
 30
0.0
 10
175.8678784590314
 20
285.1315929687153
 30
0.0
 10
175.6187191648786
 20
285.2730692502946
 30
0.0
 10
175.3596733773183
 20
285.3901514396536
 30
0.0
 10
175.0917452119829
 20
285.4823835488877
 30
0.0
 10
174.8178030155807
 20
285.5482837092804
 30
0.0
 10
174.5393186023407
 20
285.5897560593293
 30
0.0
 10
174.3523169971063
 20
285.5949188454399
 30
0.0
 10
174.2588164540528
 20
285.597500231329
 30
0.0
 11
174.2588164540528
 21
285.597500231329
 31
0.0
 11
173.9787364551832
 21
285.584147446031
 31
0.0
 11
173.7011786468045
 21
285.5443273668719
 31
0.0
 11
173.4271272424255
 21
285.4780677841479
 31
0.0
 11
173.160484382151
 21
285.3864244040797
 31
0.0
 11
172.900895957615
 21
285.2691764037946
 31
0.0
 11
172.6531623817195
 21
285.1285891445746
 31
0.0
 11
172.4160618971105
 21
284.9638919492226
 31
0.0
 11
172.1946273677756
 21
284.7786557822454
 31
0.0
 11
171.9873439784659
 21
284.5715629053302
 31
0.0
 11
171.7988116946883
 21
284.3472568652319
 31
0.0
 11
171.6277231481148
 21
284.1041620345311
 31
0.0
 11
171.4777420213918
 21
283.847500231329
 31
0.0
 11
171.3480652415174
 21
283.5759120113579
 31
0.0
 11
171.24117388744
 21
283.2945707329689
 31
0.0
 11
171.1568078261098
 21
283.0028532494235
 31
0.0
 11
171.0962952958741
 21
282.7052688531633
 31
0.0
 11
171.0597163473111
 21
282.4023631186291
 31
0.0
 11
171.0475083093863
 21
282.097500231329
 31
0.0
 11
171.0597163473111
 21
281.7926373440291
 31
0.0
 11
171.0962952958741
 21
281.4897316094949
 31
0.0
 11
171.1568078261098
 21
281.1921472132348
 31
0.0
 11
171.24117388744
 21
280.9004297296893
 31
0.0
 11
171.3480652415174
 21
280.6190884513002
 31
0.0
 11
171.4777420213918
 21
280.347500231329
 31
0.0
 11
171.6277231481148
 21
280.0908384281269
 31
0.0
 11
171.7988116946883
 21
279.8477435974262
 31
0.0
 11
171.9873439784659
 21
279.6234375573279
 31
0.0
 11
172.1946273677756
 21
279.4163446804126
 31
0.0
 11
172.4160618971105
 21
279.2311085134356
 31
0.0
 11
172.6531623817195
 21
279.0664113180836
 31
0.0
 11
172.900895957615
 21
278.9258240588635
 31
0.0
 11
173.160484382151
 21
278.8085760585782
 31
0.0
 11
173.4271272424255
 21
278.7169326785102
 31
0.0
 11
173.7011786468045
 21
278.6506730957863
 31
0.0
 11
173.9787364551832
 21
278.6108530166271
 31
0.0
 11
174.2588164540528
 21
278.597500231329
 31
0.0
 11
174.5388964529224
 21
278.6108530166272
 31
0.0
 11
174.816454261301
 21
278.6506730957863
 31
0.0
 11
175.0905056656798
 21
278.7169326785102
 31
0.0
 11
175.3571485259542
 21
278.8085760585782
 31
0.0
 11
175.6167369504902
 21
278.9258240588635
 31
0.0
 11
175.8644705263857
 21
279.0664113180836
 31
0.0
 11
176.1015710109948
 21
279.2311085134356
 31
0.0
 11
176.3230055403296
 21
279.4163446804126
 31
0.0
 11
176.5302889296394
 21
279.6234375573279
 31
0.0
 11
176.718821213417
 21
279.8477435974262
 31
0.0
 11
176.8899097599906
 21
280.0908384281269
 31
0.0
 11
177.0398908867135
 21
280.347500231329
 31
0.0
 11
177.1695676665879
 21
280.6190884513002
 31
0.0
 11
177.2764590206652
 21
280.9004297296893
 31
0.0
 11
177.3608250819956
 21
281.1921472132348
 31
0.0
 11
177.4213376122314
 21
281.4897316094949
 31
0.0
 11
177.4579165607943
 21
281.7926373440292
 31
0.0
 11
177.4701245987189
 21
282.097500231329
 31
0.0
 11
177.4579165607943
 21
282.4023631186291
 31
0.0
 11
177.4213376122314
 21
282.7052688531633
 31
0.0
 11
177.3608250819956
 21
283.0028532494235
 31
0.0
 11
177.2764590206652
 21
283.2945707329689
 31
0.0
 11
177.1695676665878
 21
283.5759120113579
 31
0.0
 11
177.0398908867135
 21
283.847500231329
 31
0.0
 11
176.8899097599906
 21
284.1041620345311
 31
0.0
 11
176.718821213417
 21
284.3472568652319
 31
0.0
 11
176.5302889296394
 21
284.5715629053302
 31
0.0
 11
176.3230055403296
 21
284.7786557822454
 31
0.0
 11
176.1015710109947
 21
284.9638919492225
 31
0.0
 11
175.8644705263857
 21
285.1285891445746
 31
0.0
 11
175.6167369504902
 21
285.2691764037945
 31
0.0
 11
175.3571485259542
 21
285.3864244040797
 31
0.0
 11
175.0905056656798
 21
285.4780677841479
 31
0.0
 11
174.816454261301
 21
285.5443273668719
 31
0.0
 11
174.5388964529224
 21
285.584147446031
 31
0.0
 11
174.2588164540528
 21
285.597500231329
 31
0.0
  0
SPLINE
  5
246
330
4E
100
AcDbEntity
  8
1
  6
Continuous
 62
     7
100
AcDbSpline
210
0.0
220
0.0
230
1.0
 70
    11
 71
     3
 72
    79
 73
    75
 74
    73
 42
0.0000000001
 43
0.0000000001
 44
0.00000001
 40
0.0
 40
0.0
 40
0.0
 40
0.0
 40
0.3142773867007196
 40
0.6283112411570114
 40
0.9612293766536439
 40
1.293805038039101
 40
1.653399990662874
 40
2.012687710360513
 40
2.402596358667107
 40
2.79227713571336
 40
3.212125602383098
 40
3.631818889112802
 40
4.078023830869896
 40
4.524128916245847
 40
4.990742665932427
 40
5.457297388872885
 40
5.936768753151161
 40
6.41621275307316
 40
6.90006253648775
 40
7.383912319902454
 40
7.863356319824449
 40
8.342827684102621
 40
8.809382407043103
 40
9.275996156729597
 40
9.722101242105603
 40
10.16830618386275
 40
10.58799947059245
 40
11.00784793726224
 40
11.39752871430854
 40
11.78743736261504
 40
12.1467250823126
 40
12.50632003493641
 40
12.83889569632186
 40
13.17181383181847
 40
13.4858476862748
 40
13.80012507297553
 40
14.10756996787526
 40
14.41501486277524
 40
14.72929224947644
 40
15.04332610393311
 40
15.37624423943
 40
15.70881990081531
 40
16.06841485343887
 40
16.42770257313627
 40
16.81761122144257
 40
17.20729199848893
 40
17.62714046515885
 40
18.04683375188865
 40
18.49303869364577
 40
18.93914377902172
 40
19.40575752870821
 40
19.87231225164868
 40
20.35178361592687
 40
20.8312276158489
 40
21.31507739926362
 40
21.79892718267828
 40
22.27837118260031
 40
22.75784254687856
 40
23.22439726981908
 40
23.69101101950563
 40
24.1371161048816
 40
24.58332104663877
 40
25.00301433336849
 40
25.42286280003816
 40
25.81254357708443
 40
26.2024522253909
 40
26.56173994508842
 40
26.9213348977122
 40
27.25391055909767
 40
27.58682869459427
 40
27.90086254905073
 40
28.21513993575184
 40
28.52258483065181
 40
28.83002972555155
 40
28.83002972555155
 40
28.83002972555155
 40
28.83002972555155
 10
305.7103692671401
 20
412.7551305035203
 30
0.0
 10
305.6070977124399
 20
412.7365380309216
 30
0.0
 10
305.4006346277392
 20
412.6993674929543
 30
0.0
 10
305.098549795248
 20
412.5884212297414
 30
0.0
 10
304.8063549022023
 20
412.4413563869582
 30
0.0
 10
304.5215005362044
 20
412.2512018347081
 30
0.0
 10
304.2520596134488
 20
412.0260671061839
 30
0.0
 10
303.9932622566913
 20
411.7614310360733
 30
0.0
 10
303.7535845923657
 20
411.4663708103925
 30
0.0
 10
303.5282463506823
 20
411.1356047628312
 30
0.0
 10
303.3246828297517
 20
410.7795374408667
 30
0.0
 10
303.1391905620382
 20
410.3928043686839
 30
0.0
 10
302.9774204493183
 20
409.9861309110137
 30
0.0
 10
302.837052888651
 20
409.5551547152551
 30
0.0
 10
302.7218098302653
 20
409.1097810309054
 30
0.0
 10
302.6305564920474
 20
408.6475680810156
 30
0.0
 10
302.5653489503162
 20
408.1766494883171
 30
0.0
 10
302.5257584828849
 20
407.6971179240334
 30
0.0
 10
302.5126728799144
 20
407.2146726862322
 30
0.0
 10
302.5257584828838
 20
406.7322274484159
 30
0.0
 10
302.5653489503211
 20
406.2526958841772
 30
0.0
 10
302.6305564920292
 20
405.7817772913153
 30
0.0
 10
302.7218098303315
 20
405.3195643420194
 30
0.0
 10
302.8370528884093
 20
404.8741906554989
 30
0.0
 10
302.9774204501766
 20
404.4432144675012
 30
0.0
 10
303.1391905589097
 20
404.0365409817047
 30
0.0
 10
303.3246828406602
 20
403.6498080085528
 30
0.0
 10
303.5282463111103
 20
403.2937403304413
 30
0.0
 10
303.7535847283393
 20
402.9629755213803
 30
0.0
 10
303.9932617645192
 20
402.6679108640427
 30
0.0
 10
304.2520612912922
 20
402.403290103696
 30
0.0
 10
304.5214944507353
 20
402.178100603913
 30
0.0
 10
304.8063757346997
 20
401.9881359616918
 30
0.0
 10
305.098473624157
 20
401.8403867449908
 30
0.0
 10
305.40090113822
 20
401.731858148317
 30
0.0
 10
305.7071358301635
 20
401.667646620943
 30
0.0
 10
306.0170480271404
 20
401.6450455178052
 30
0.0
 10
306.3269602241173
 20
401.6676466209433
 30
0.0
 10
306.6331949160612
 20
401.7318581483168
 30
0.0
 10
306.9356224301245
 20
401.840386744991
 30
0.0
 10
307.227720319582
 20
401.9881359616918
 30
0.0
 10
307.5126016035465
 20
402.1781006039129
 30
0.0
 10
307.7820347629892
 20
402.403290103696
 30
0.0
 10
308.040834289762
 20
402.6679108640428
 30
0.0
 10
308.2805113259419
 20
402.9629755213801
 30
0.0
 10
308.5058497431706
 20
403.2937403304413
 30
0.0
 10
308.7094132136211
 20
403.6498080085528
 30
0.0
 10
308.8949054953712
 20
404.0365409817048
 30
0.0
 10
309.0566756041046
 20
404.4432144675012
 30
0.0
 10
309.197043165872
 20
404.8741906554989
 30
0.0
 10
309.3122862239497
 20
405.3195643420194
 30
0.0
 10
309.4035395622518
 20
405.7817772913152
 30
0.0
 10
309.46874710396
 20
406.2526958841771
 30
0.0
 10
309.508337571398
 20
406.7322274484164
 30
0.0
 10
309.5214231743674
 20
407.2146726862299
 30
0.0
 10
309.5083375713982
 20
407.6971179240422
 30
0.0
 10
309.4687471039596
 20
408.1766494882847
 30
0.0
 10
309.4035395622531
 20
408.647568081135
 30
0.0
 10
309.3122862239451
 20
409.1097810304732
 30
0.0
 10
309.197043165889
 20
409.5551547168396
 30
0.0
 10
309.0566756040435
 20
409.9861309053882
 30
0.0
 10
308.8949054955933
 20
410.3928043891875
 30
0.0
 10
308.7094132128465
 20
410.7795373693713
 30
0.0
 10
308.5058497459805
 20
411.135605022195
 30
0.0
 10
308.2805113162873
 20
411.4663699191932
 30
0.0
 10
308.0408343247075
 20
411.7614342618699
 30
0.0
 10
307.7820346438572
 20
412.0260561092554
 30
0.0
 10
307.5126020356324
 20
412.2512417201172
 30
0.0
 10
307.2277188404127
 20
412.4412198465113
 30
0.0
 10
306.9356278384965
 20
412.5889204706429
 30
0.0
 10
306.63317599303
 20
412.6976207287805
 30
0.0
 10
306.3270303949192
 20
412.7612036866682
 30
0.0
 10
306.0167924472774
 20
412.7861030064247
 30
0.0
 10
305.8125103271858
 20
412.7654546711552
 30
0.0
 10
305.7103692671401
 20
412.7551305035203
 30
0.0
 11
305.7103692671401
 21
412.7551305035203
 31
0.0
 11
305.4028073943795
 21
412.6905087562876
 31
0.0
 11
305.1069185155837
 21
412.5853087888463
 31
0.0
 11
304.8096534507162
 21
412.4354156063734
 31
0.0
 11
304.5324648339709
 21
412.2516411759082
 31
0.0
 11
304.2560909338897
 21
412.0215846669665
 31
0.0
 11
304.0043643541696
 21
411.7652228238854
 31
0.0
 11
303.7579401831779
 21
411.4630575016274
 31
0.0
 11
303.5380906707298
 21
411.1413164568791
 31
0.0
 11
303.3291367655267
 21
410.7771585234693
 31
0.0
 11
303.1472807039449
 21
410.3989114774901
 31
0.0
 11
302.9818722248193
 21
409.984497571978
 31
0.0
 11
302.8434753573964
 21
409.5604031788462
 31
0.0
 11
302.7262276750271
 21
409.1087602088184
 31
0.0
 11
302.6357288423743
 21
408.6510667843664
 31
0.0
 11
302.5697359218407
 21
408.1761586631448
 31
0.0
 11
302.5302696907521
 21
407.6983417885318
 31
0.0
 11
302.5170480271412
 21
407.2146726862297
 31
0.0
 11
302.5302696907521
 21
406.7310035839275
 31
0.0
 11
302.5697359218406
 21
406.2531867093146
 31
0.0
 11
302.6357288423743
 21
405.778278588093
 31
0.0
 11
302.7262276750273
 21
405.3205851636411
 31
0.0
 11
302.8434753573964
 21
404.8689421936133
 31
0.0
 11
302.9818722248193
 21
404.4448478004815
 31
0.0
 11
303.1472807039449
 21
404.0304338949693
 31
0.0
 11
303.3291367655267
 21
403.6521868489901
 31
0.0
 11
303.5380906707298
 21
403.2880289155803
 31
0.0
 11
303.7579401831779
 21
402.9662878708319
 31
0.0
 11
304.0043643541696
 21
402.664122548574
 31
0.0
 11
304.2560909338897
 21
402.407760705493
 31
0.0
 11
304.5324648339709
 21
402.1777041965513
 31
0.0
 11
304.8096534507162
 21
401.9939297660861
 31
0.0
 11
305.1069185155836
 21
401.8440365836131
 31
0.0
 11
305.4028073943795
 21
401.7388366161719
 31
0.0
 11
305.7103692671401
 21
401.6742148689391
 31
0.0
 11
306.0170480271402
 21
401.6525238209078
 31
0.0
 11
306.3237267871406
 21
401.6742148689392
 31
0.0
 11
306.6312886599017
 21
401.7388366161719
 31
0.0
 11
306.9271775386979
 21
401.8440365836132
 31
0.0
 11
307.2244426035657
 21
401.9939297660861
 31
0.0
 11
307.5016312203108
 21
402.1777041965513
 31
0.0
 11
307.7780051203917
 21
402.4077607054929
 31
0.0
 11
308.0297317001116
 21
402.6641225485739
 31
0.0
 11
308.2761558711032
 21
402.9662878708317
 31
0.0
 11
308.4960053835512
 21
403.2880289155802
 31
0.0
 11
308.7049592887544
 21
403.6521868489901
 31
0.0
 11
308.8868153503361
 21
404.0304338949694
 31
0.0
 11
309.0522238294618
 21
404.4448478004815
 31
0.0
 11
309.1906206968847
 21
404.8689421936133
 31
0.0
 11
309.3078683792539
 21
405.3205851636411
 31
0.0
 11
309.3983672119068
 21
405.778278588093
 31
0.0
 11
309.4643601324406
 21
406.2531867093146
 31
0.0
 11
309.5038263635296
 21
406.7310035839275
 31
0.0
 11
309.5170480271409
 21
407.2146726862297
 31
0.0
 11
309.5038263635296
 21
407.6983417885319
 31
0.0
 11
309.4643601324406
 21
408.1761586631448
 31
0.0
 11
309.3983672119067
 21
408.6510667843664
 31
0.0
 11
309.3078683792539
 21
409.1087602088184
 31
0.0
 11
309.1906206968847
 21
409.5604031788463
 31
0.0
 11
309.0522238294618
 21
409.9844975719781
 31
0.0
 11
308.8868153503361
 21
410.3989114774902
 31
0.0
 11
308.7049592887544
 21
410.7771585234694
 31
0.0
 11
308.4960053835512
 21
411.1413164568791
 31
0.0
 11
308.2761558711032
 21
411.4630575016275
 31
0.0
 11
308.0297317001115
 21
411.7652228238854
 31
0.0
 11
307.7780051203916
 21
412.0215846669665
 31
0.0
 11
307.5016312203104
 21
412.2516411759082
 31
0.0
 11
307.2244426035651
 21
412.4354156063733
 31
0.0
 11
306.9271775386976
 21
412.5853087888462
 31
0.0
 11
306.6312886599016
 21
412.6905087562875
 31
0.0
 11
306.3237267871406
 21
412.7551305035202
 31
0.0
 11
306.0170480271402
 21
412.7768215515516
 31
0.0
 11
305.7103692671401
 21
412.7551305035203
 31
0.0
  0
SPLINE
  5
247
330
4E
100
AcDbEntity
  8
1
  6
Continuous
 62
     7
100
AcDbSpline
210
0.0
220
0.0
230
1.0
 70
    11
 71
     3
 72
    79
 73
    75
 74
    73
 42
0.0000000001
 43
0.0000000001
 44
0.00000001
 40
0.0
 40
0.0
 40
0.0
 40
0.0
 40
0.3142773867006962
 40
0.6283112411569309
 40
0.9612293766535635
 40
1.29380503803902
 40
1.653399990662757
 40
2.012687710360356
 40
2.402596358666862
 40
2.792277135713209
 40
3.212125602382997
 40
3.631818889112803
 40
4.078023830869949
 40
4.524128916245847
 40
4.990742665932261
 40
5.45729738887283
 40
5.936768753151164
 40
6.41621275307322
 40
6.900062536487924
 40
7.383912319902457
 40
7.863356319824509
 40
8.342827684102568
 40
8.809382407043104
 40
9.275996156729544
 40
9.72210124210555
 40
10.1683061838627
 40
10.5879994705925
 40
11.00784793726219
 40
11.39752871430854
 40
11.78743736261508
 40
12.1467250823126
 40
12.50632003493637
 40
12.8388956963218
 40
13.17181383181835
 40
13.48584768627466
 40
13.80012507297537
 40
14.10756996787511
 40
14.41501486277508
 40
14.72929224947628
 40
15.04332610393291
 40
15.37624423942972
 40
15.70881990081501
 40
16.06841485343856
 40
16.42770257313596
 40
16.81761122144252
 40
17.20729199848879
 40
17.62714046515846
 40
18.04683375188832
 40
18.49303869364548
 40
18.93914377902149
 40
19.40575752870793
 40
19.8723122516484
 40
20.35178361592659
 40
20.83122761584868
 40
21.31507739926339
 40
21.79892718267799
 40
22.27837118260008
 40
22.75784254687833
 40
23.22439726981878
 40
23.69101101950523
 40
24.13711610488119
 40
24.58332104663847
 40
25.00301433336825
 40
25.42286280003807
 40
25.81254357708433
 40
26.20245222539076
 40
26.5617399450882
 40
26.92133489771197
 40
27.25391055909747
 40
27.58682869459405
 40
27.90086254905043
 40
28.21513993575154
 40
28.52258483065151
 40
28.83002972555125
 40
28.83002972555125
 40
28.83002972555125
 40
28.83002972555125
 10
305.7103692671401
 20
414.6742148689397
 30
0.0
 10
305.6070977124399
 20
414.6928073415382
 30
0.0
 10
305.4006346277392
 20
414.7299778795057
 30
0.0
 10
305.098549795248
 20
414.8409241427183
 30
0.0
 10
304.8063549022024
 20
414.9879889855016
 30
0.0
 10
304.5215005362044
 20
415.1781435377516
 30
0.0
 10
304.2520596134489
 20
415.4032782662758
 30
0.0
 10
303.9932622566914
 20
415.6679143363863
 30
0.0
 10
303.7535845923655
 20
415.9629745620669
 30
0.0
 10
303.5282463506824
 20
416.2937406096285
 30
0.0
 10
303.3246828297516
 20
416.6498079315928
 30
0.0
 10
303.1391905620381
 20
417.036541003776
 30
0.0
 10
302.9774204493183
 20
417.4432144614459
 30
0.0
 10
302.837052888651
 20
417.8741906572047
 30
0.0
 10
302.7218098302653
 20
418.3195643415543
 30
0.0
 10
302.6305564920474
 20
418.781777291444
 30
0.0
 10
302.5653489503162
 20
419.2526958841424
 30
0.0
 10
302.525758482885
 20
419.7322274484267
 30
0.0
 10
302.5126728799144
 20
420.2146726862276
 30
0.0
 10
302.5257584828837
 20
420.6971179240439
 30
0.0
 10
302.5653489503211
 20
421.1766494882825
 30
0.0
 10
302.6305564920291
 20
421.6475680811445
 30
0.0
 10
302.7218098303315
 20
422.1097810304404
 30
0.0
 10
302.8370528884092
 20
422.5551547169608
 30
0.0
 10
302.9774204501766
 20
422.9861309049585
 30
0.0
 10
303.1391905589097
 20
423.392804390755
 30
0.0
 10
303.3246828406601
 20
423.7795373639069
 30
0.0
 10
303.5282463111103
 20
424.1356050420184
 30
0.0
 10
303.7535847283393
 20
424.4663698510794
 30
0.0
 10
303.9932617645192
 20
424.761434508417
 30
0.0
 10
304.2520612912923
 20
425.0260552687637
 30
0.0
 10
304.5214944507351
 20
425.2512447685468
 30
0.0
 10
304.8063757346998
 20
425.4412094107679
 30
0.0
 10
305.098473624157
 20
425.5889586274686
 30
0.0
 10
305.4009011382199
 20
425.6974872241426
 30
0.0
 10
305.7071358301635
 20
425.7616987515163
 30
0.0
 10
306.0170480271404
 20
425.7842998546543
 30
0.0
 10
306.3269602241172
 20
425.7616987515163
 30
0.0
 10
306.6331949160613
 20
425.6974872241426
 30
0.0
 10
306.9356224301245
 20
425.5889586274687
 30
0.0
 10
307.227720319582
 20
425.4412094107681
 30
0.0
 10
307.5126016035466
 20
425.2512447685469
 30
0.0
 10
307.7820347629892
 20
425.0260552687639
 30
0.0
 10
308.0408342897621
 20
424.761434508417
 30
0.0
 10
308.2805113259418
 20
424.4663698510794
 30
0.0
 10
308.5058497431707
 20
424.1356050420184
 30
0.0
 10
308.7094132136211
 20
423.779537363907
 30
0.0
 10
308.8949054953712
 20
423.392804390755
 30
0.0
 10
309.0566756041046
 20
422.9861309049586
 30
0.0
 10
309.1970431658717
 20
422.5551547169608
 30
0.0
 10
309.3122862239499
 20
422.1097810304405
 30
0.0
 10
309.4035395622518
 20
421.6475680811443
 30
0.0
 10
309.46874710396
 20
421.1766494882827
 30
0.0
 10
309.508337571398
 20
420.6971179240431
 30
0.0
 10
309.5214231743674
 20
420.2146726862299
 30
0.0
 10
309.5083375713981
 20
419.7322274484176
 30
0.0
 10
309.4687471039596
 20
419.2526958841748
 30
0.0
 10
309.4035395622531
 20
418.7817772913247
 30
0.0
 10
309.312286223945
 20
418.3195643419864
 30
0.0
 10
309.1970431658891
 20
417.8741906556203
 30
0.0
 10
309.0566756040434
 20
417.4432144670715
 30
0.0
 10
308.8949054955934
 20
417.0365409832722
 30
0.0
 10
308.7094132128465
 20
416.6498080030886
 30
0.0
 10
308.5058497459805
 20
416.2937403502645
 30
0.0
 10
308.2805113162873
 20
415.9629754532664
 30
0.0
 10
308.0408343247076
 20
415.6679111105895
 30
0.0
 10
307.7820346438572
 20
415.4032892632043
 30
0.0
 10
307.5126020356324
 20
415.1781036523424
 30
0.0
 10
307.2277188404126
 20
414.9881255259485
 30
0.0
 10
306.9356278384965
 20
414.8404249018167
 30
0.0
 10
306.6331759930299
 20
414.7317246436795
 30
0.0
 10
306.3270303949193
 20
414.6681416857917
 30
0.0
 10
306.0167924472774
 20
414.6432423660352
 30
0.0
 10
305.8125103271859
 20
414.6638907013049
 30
0.0
 10
305.7103692671401
 20
414.6742148689397
 30
0.0
 11
305.7103692671401
 21
414.6742148689397
 31
0.0
 11
305.4028073943795
 21
414.7388366161723
 31
0.0
 11
305.1069185155837
 21
414.8440365836134
 31
0.0
 11
304.8096534507162
 21
414.9939297660863
 31
0.0
 11
304.5324648339709
 21
415.1777041965515
 31
0.0
 11
304.2560909338897
 21
415.4077607054931
 31
0.0
 11
304.0043643541696
 21
415.6641225485741
 31
0.0
 11
303.7579401831779
 21
415.9662878708321
 31
0.0
 11
303.5380906707298
 21
416.2880289155805
 31
0.0
 11
303.3291367655267
 21
416.6521868489904
 31
0.0
 11
303.1472807039449
 21
417.0304338949696
 31
0.0
 11
302.9818722248193
 21
417.4448478004818
 31
0.0
 11
302.8434753573964
 21
417.8689421936135
 31
0.0
 11
302.7262276750271
 21
418.3205851636412
 31
0.0
 11
302.6357288423743
 21
418.7782785880933
 31
0.0
 11
302.5697359218407
 21
419.253186709315
 31
0.0
 11
302.5302696907521
 21
419.731003583928
 31
0.0
 11
302.5170480271412
 21
420.2146726862302
 31
0.0
 11
302.5302696907521
 21
420.6983417885322
 31
0.0
 11
302.5697359218406
 21
421.1761586631452
 31
0.0
 11
302.6357288423743
 21
421.6510667843667
 31
0.0
 11
302.7262276750273
 21
422.1087602088186
 31
0.0
 11
302.8434753573964
 21
422.5604031788464
 31
0.0
 11
302.9818722248193
 21
422.9844975719782
 31
0.0
 11
303.1472807039449
 21
423.3989114774904
 31
0.0
 11
303.3291367655267
 21
423.7771585234697
 31
0.0
 11
303.5380906707298
 21
424.1413164568794
 31
0.0
 11
303.7579401831779
 21
424.4630575016278
 31
0.0
 11
304.0043643541696
 21
424.7652228238858
 31
0.0
 11
304.2560909338897
 21
425.0215846669668
 31
0.0
 11
304.5324648339709
 21
425.2516411759084
 31
0.0
 11
304.8096534507162
 21
425.4354156063736
 31
0.0
 11
305.1069185155836
 21
425.5853087888464
 31
0.0
 11
305.4028073943795
 21
425.6905087562876
 31
0.0
 11
305.7103692671401
 21
425.7551305035203
 31
0.0
 11
306.0170480271402
 21
425.7768215515516
 31
0.0
 11
306.3237267871406
 21
425.7551305035203
 31
0.0
 11
306.6312886599017
 21
425.6905087562876
 31
0.0
 11
306.9271775386979
 21
425.5853087888464
 31
0.0
 11
307.2244426035657
 21
425.4354156063737
 31
0.0
 11
307.5016312203108
 21
425.2516411759085
 31
0.0
 11
307.7780051203917
 21
425.0215846669669
 31
0.0
 11
308.0297317001116
 21
424.7652228238859
 31
0.0
 11
308.2761558711032
 21
424.4630575016278
 31
0.0
 11
308.4960053835512
 21
424.1413164568794
 31
0.0
 11
308.7049592887544
 21
423.7771585234697
 31
0.0
 11
308.8868153503361
 21
423.3989114774904
 31
0.0
 11
309.0522238294618
 21
422.9844975719782
 31
0.0
 11
309.1906206968847
 21
422.5604031788464
 31
0.0
 11
309.3078683792539
 21
422.1087602088186
 31
0.0
 11
309.3983672119068
 21
421.6510667843667
 31
0.0
 11
309.4643601324406
 21
421.1761586631452
 31
0.0
 11
309.5038263635296
 21
420.6983417885322
 31
0.0
 11
309.5170480271408
 21
420.21467268623
 31
0.0
 11
309.5038263635296
 21
419.7310035839279
 31
0.0
 11
309.4643601324406
 21
419.2531867093149
 31
0.0
 11
309.3983672119067
 21
418.7782785880933
 31
0.0
 11
309.3078683792539
 21
418.3205851636413
 31
0.0
 11
309.1906206968847
 21
417.8689421936136
 31
0.0
 11
309.0522238294618
 21
417.4448478004818
 31
0.0
 11
308.8868153503361
 21
417.0304338949695
 31
0.0
 11
308.7049592887544
 21
416.6521868489903
 31
0.0
 11
308.4960053835512
 21
416.2880289155804
 31
0.0
 11
308.2761558711032
 21
415.9662878708321
 31
0.0
 11
308.0297317001115
 21
415.6641225485741
 31
0.0
 11
307.7780051203916
 21
415.4077607054932
 31
0.0
 11
307.5016312203104
 21
415.1777041965515
 31
0.0
 11
307.2244426035651
 21
414.9939297660863
 31
0.0
 11
306.9271775386976
 21
414.8440365836135
 31
0.0
 11
306.6312886599016
 21
414.7388366161724
 31
0.0
 11
306.3237267871406
 21
414.6742148689397
 31
0.0
 11
306.0170480271402
 21
414.6525238209083
 31
0.0
 11
305.7103692671401
 21
414.6742148689397
 31
0.0
  0
ENDBLK
  5
50
330
4E
100
AcDbEntity
  8
0
100
AcDbBlockEnd
  0
BLOCK
  5
52
330
51
100
AcDbEntity
  8
0
100
AcDbBlockBegin
  2
64-7-75
 70
     0
 71
     0
 10
60.017146703225
 20
273.71467268623
 30
0.0
  3
64-7-75
  1

  0
LINE
  5
248
330
51
100
AcDbEntity
  8
1
  6
Continuous
 62
     7
100
AcDbLine
 10
85.01714670324932
 20
238.4954880120408
 30
0.0
 11
85.01714670324932
 21
238.4937874562598
 31
0.0
  0
LINE
  5
249
330
51
100
AcDbEntity
  8
1
  6
Continuous
 62
     7
100
AcDbLine
 10
98.0171467032493
 20
236.9936481378427
 30
0.0
 11
86.17744863254902
 21
237.2689906978778
 31
0.0
  0
LINE
  5
24A
330
51
100
AcDbEntity
  8
1
  6
Continuous
 62
     7
100
AcDbLine
 10
86.17744863254902
 20
237.2689906978778
 30
0.0
 11
85.01714670324932
 21
238.4937874562598
 31
0.0
  0
LINE
  5
24B
330
51
100
AcDbEntity
  8
1
  6
Continuous
 62
     7
100
AcDbLine
 10
100.1258225557216
 20
236.9385994584122
 30
0.0
 11
98.0171467032493
 21
236.9936481378427
 31
0.0
  0
LINE
  5
24C
330
51
100
AcDbEntity
  8
1
  6
Continuous
 62
     2
100
AcDbLine
 10
98.0171467032493
 20
238.1560440294707
 30
0.0
 11
85.01714670324932
 21
238.4954880120408
 31
0.0
  0
LINE
  5
24D
330
51
100
AcDbEntity
  8
1
  6
PHANTOM
 62
     4
100
AcDbLine
 10
152.017146703249
 20
247.597500231329
 30
0.0
 11
85.01714670324932
 21
247.597500231329
 31
0.0
  0
LINE
  5
24E
330
51
100
AcDbEntity
  8
1
  6
Continuous
 62
     2
100
AcDbLine
 10
98.0171467032493
 20
238.1560440294707
 30
0.0
 11
100.1258225557216
 21
236.9385994584122
 31
0.0
  0
LINE
  5
24F
330
51
100
AcDbEntity
  8
1
  6
Continuous
 62
     7
100
AcDbLine
 10
100.1258225557216
 20
236.9385994584122
 30
0.0
 11
100.535092475079
 21
236.7023073602998
 31
0.0
  0
LINE
  5
250
330
51
100
AcDbEntity
  8
1
  6
Continuous
 62
     7
100
AcDbLine
 10
144.4992009314194
 20
236.7023073602998
 30
0.0
 11
144.908470850777
 21
236.9385994584122
 31
0.0
  0
LINE
  5
251
330
51
100
AcDbEntity
  8
1
  6
Continuous
 62
     7
100
AcDbLine
 10
100.535092475079
 20
236.7023073602998
 30
0.0
 11
105.0171467032493
 21
236.7023073602998
 31
0.0
  0
LINE
  5
252
330
51
100
AcDbEntity
  8
1
  6
Continuous
 62
     2
100
AcDbLine
 10
144.908470850777
 20
236.9385994584122
 30
0.0
 11
147.0171467032493
 21
238.1560440294707
 31
0.0
  0
LINE
  5
253
330
51
100
AcDbEntity
  8
1
  6
Continuous
 62
     7
100
AcDbLine
 10
147.0171467032493
 20
236.9936481378427
 30
0.0
 11
144.908470850777
 21
236.9385994584122
 31
0.0
  0
LINE
  5
254
330
51
100
AcDbEntity
  8
1
  6
Continuous
 62
     7
100
AcDbLine
 10
147.0171467032493
 20
236.9936481378427
 30
0.0
 11
147.0171467032493
 21
258.2013523248155
 31
0.0
  0
LINE
  5
255
330
51
100
AcDbEntity
  8
1
  6
Continuous
 62
     7
100
AcDbLine
 10
85.01714670324932
 20
256.7012130063984
 30
0.0
 11
85.01714670324932
 21
256.6995124506173
 31
0.0
  0
LINE
  5
256
330
51
100
AcDbEntity
  8
1
  6
Continuous
 62
     7
100
AcDbLine
 10
85.01714670324932
 20
256.6995124506173
 30
0.0
 11
85.01714670324932
 21
238.4954880120408
 31
0.0
  0
LINE
  5
257
330
51
100
AcDbEntity
  8
1
  6
Continuous
 62
     7
100
AcDbLine
 10
86.17744863254902
 20
257.9260097647803
 30
0.0
 11
98.0171467032493
 21
258.2013523248155
 31
0.0
  0
LINE
  5
258
330
51
100
AcDbEntity
  8
1
  6
Continuous
 62
     7
100
AcDbLine
 10
98.0171467032493
 20
258.2013523248155
 30
0.0
 11
98.0171467032493
 21
236.9936481378427
 31
0.0
  0
LINE
  5
259
330
51
100
AcDbEntity
  8
1
  6
Continuous
 62
     7
100
AcDbLine
 10
85.01714670324932
 20
256.7012130063984
 30
0.0
 11
86.17744863254902
 21
257.9260097647803
 31
0.0
  0
LINE
  5
25A
330
51
100
AcDbEntity
  8
1
  6
Continuous
 62
     7
100
AcDbLine
 10
98.0171467032493
 20
258.2013523248155
 30
0.0
 11
100.1258225557216
 21
258.2564010042459
 31
0.0
  0
LINE
  5
25B
330
51
100
AcDbEntity
  8
1
  6
Continuous
 62
     2
100
AcDbLine
 10
85.01714670324932
 20
256.6995124506173
 30
0.0
 11
98.0171467032493
 21
257.0389564331874
 31
0.0
  0
LINE
  5
25C
330
51
100
AcDbEntity
  8
1
  6
Continuous
 62
     2
100
AcDbLine
 10
100.1258225557216
 20
258.2564010042459
 30
0.0
 11
98.0171467032493
 21
257.0389564331874
 31
0.0
  0
LINE
  5
25D
330
51
100
AcDbEntity
  8
1
  6
Continuous
 62
     7
100
AcDbLine
 10
100.535092475079
 20
258.4926931023583
 30
0.0
 11
100.1258225557216
 21
258.2564010042459
 31
0.0
  0
LINE
  5
25E
330
51
100
AcDbEntity
  8
1
  6
Continuous
 62
     7
100
AcDbLine
 10
144.908470850777
 20
258.2564010042459
 30
0.0
 11
144.4992009314194
 21
258.4926931023583
 31
0.0
  0
LINE
  5
25F
330
51
100
AcDbEntity
  8
1
  6
Continuous
 62
     7
100
AcDbLine
 10
144.4992009314194
 20
258.4926931023583
 30
0.0
 11
121.0171467032489
 21
258.4926931023583
 31
0.0
  0
LINE
  5
260
330
51
100
AcDbEntity
  8
1
  6
Continuous
 62
     2
100
AcDbLine
 10
147.0171467032493
 20
257.0389564331874
 30
0.0
 11
144.908470850777
 21
258.2564010042459
 31
0.0
  0
LINE
  5
261
330
51
100
AcDbEntity
  8
1
  6
Continuous
 62
     2
100
AcDbLine
 10
147.0171467032493
 20
257.0389564331874
 30
0.0
 11
152.017146703249
 21
256.9084010552758
 31
0.0
  0
LINE
  5
262
330
51
100
AcDbEntity
  8
1
  6
Continuous
 62
     7
100
AcDbLine
 10
144.908470850777
 20
258.2564010042459
 30
0.0
 11
147.0171467032493
 21
258.2013523248155
 31
0.0
  0
LINE
  5
263
330
51
100
AcDbEntity
  8
1
  6
Continuous
 62
     7
100
AcDbLine
 10
147.0171467032493
 20
258.2013523248155
 30
0.0
 11
152.017146703249
 21
258.0850729406661
 31
0.0
  0
LINE
  5
264
330
51
100
AcDbEntity
  8
1
  6
Continuous
 62
     7
100
AcDbLine
 10
121.0171467032489
 20
236.7023073602998
 30
0.0
 11
144.4992009314194
 21
236.7023073602998
 31
0.0
  0
LINE
  5
265
330
51
100
AcDbEntity
  8
1
  6
Continuous
 62
     7
100
AcDbLine
 10
105.0171467032493
 20
258.4926931023583
 30
0.0
 11
100.535092475079
 21
258.4926931023583
 31
0.0
  0
LINE
  5
266
330
51
100
AcDbEntity
  8
1
  6
Continuous
 62
     7
100
AcDbLine
 10
152.017146703249
 20
237.1099275219921
 30
0.0
 11
147.0171467032493
 21
236.9936481378427
 31
0.0
  0
LINE
  5
267
330
51
100
AcDbEntity
  8
1
  6
Continuous
 62
     2
100
AcDbLine
 10
152.017146703249
 20
238.2865994073823
 30
0.0
 11
147.0171467032493
 21
238.1560440294707
 31
0.0
  0
LINE
  5
268
330
51
100
AcDbEntity
  8
0
  6
Continuous
 62
     7
100
AcDbLine
 10
152.0171467032247
 20
423.1561288880883
 30
0.0
 11
152.0171467032247
 21
423.0255735101769
 31
0.0
  0
LINE
  5
269
330
51
100
AcDbEntity
  8
1
  6
PHANTOM
 62
     4
100
AcDbLine
 10
85.01714670322471
 20
413.7146726862299
 30
0.0
 11
160.0171467032247
 21
413.7146726862299
 31
0.0
  0
LINE
  5
26A
330
51
100
AcDbEntity
  8
1
  6
Continuous
 62
     7
100
AcDbLine
 10
152.0171467032247
 20
403.2270999768927
 30
0.0
 11
147.0171467032247
 21
403.1108205927437
 31
0.0
  0
LINE
  5
26B
330
51
100
AcDbEntity
  8
1
  6
Continuous
 62
     7
100
AcDbLine
 10
147.0171467032247
 20
403.1108205927437
 30
0.0
 11
144.9084708507525
 21
403.055771913313
 31
0.0
  0
LINE
  5
26C
330
51
100
AcDbEntity
  8
1
  6
Continuous
 62
     2
100
AcDbLine
 10
152.0171467032247
 20
404.4037718622832
 30
0.0
 11
147.0171467032247
 21
404.2732164843715
 31
0.0
  0
LINE
  5
26D
330
51
100
AcDbEntity
  8
1
  6
Continuous
 62
     2
100
AcDbLine
 10
144.9084708507525
 20
403.055771913313
 30
0.0
 11
147.0171467032247
 21
404.2732164843715
 31
0.0
  0
LINE
  5
26E
330
51
100
AcDbEntity
  8
1
  6
Continuous
 62
     7
100
AcDbLine
 10
121.0171467032243
 20
402.8194798152006
 30
0.0
 11
144.4992009313947
 21
402.8194798152006
 31
0.0
  0
LINE
  5
26F
330
51
100
AcDbEntity
  8
1
  6
Continuous
 62
     7
100
AcDbLine
 10
144.4992009313947
 20
402.8194798152006
 30
0.0
 11
144.9084708507525
 21
403.055771913313
 31
0.0
  0
LINE
  5
270
330
51
100
AcDbEntity
  8
1
  6
Continuous
 62
     7
100
AcDbLine
 10
100.125822555697
 20
403.055771913313
 30
0.0
 11
100.5350924750545
 21
402.8194798152006
 31
0.0
  0
LINE
  5
271
330
51
100
AcDbEntity
  8
1
  6
Continuous
 62
     2
100
AcDbLine
 10
98.0171467032247
 20
404.2732164843715
 30
0.0
 11
100.125822555697
 21
403.055771913313
 31
0.0
  0
LINE
  5
272
330
51
100
AcDbEntity
  8
1
  6
Continuous
 62
     2
100
AcDbLine
 10
98.0171467032247
 20
404.2732164843715
 30
0.0
 11
85.01714670322471
 21
404.6126604669417
 31
0.0
  0
LINE
  5
273
330
51
100
AcDbEntity
  8
1
  6
Continuous
 62
     7
100
AcDbLine
 10
100.125822555697
 20
403.055771913313
 30
0.0
 11
98.0171467032247
 21
403.1108205927437
 31
0.0
  0
LINE
  5
274
330
51
100
AcDbEntity
  8
1
  6
Continuous
 62
     7
100
AcDbLine
 10
86.17744863252452
 20
403.3861631527786
 30
0.0
 11
85.01714670322471
 21
404.6109599111606
 31
0.0
  0
LINE
  5
275
330
51
100
AcDbEntity
  8
1
  6
Continuous
 62
     7
100
AcDbLine
 10
98.0171467032247
 20
403.1108205927437
 30
0.0
 11
86.17744863252452
 21
403.3861631527786
 31
0.0
  0
LINE
  5
276
330
51
100
AcDbEntity
  8
1
  6
Continuous
 62
     7
100
AcDbLine
 10
85.01714670322471
 20
422.8183854612992
 30
0.0
 11
85.01714670322471
 21
404.6109599111606
 31
0.0
  0
LINE
  5
277
330
51
100
AcDbEntity
  8
1
  6
Continuous
 62
     7
100
AcDbLine
 10
144.9084708507525
 20
424.3735734591468
 30
0.0
 11
147.0171467032247
 21
424.3185247797164
 31
0.0
  0
LINE
  5
278
330
51
100
AcDbEntity
  8
1
  6
Continuous
 62
     2
100
AcDbLine
 10
147.0171467032247
 20
423.1561288880883
 30
0.0
 11
144.9084708507525
 21
424.3735734591468
 31
0.0
  0
LINE
  5
279
330
51
100
AcDbEntity
  8
1
  6
Continuous
 62
     7
100
AcDbLine
 10
144.9084708507525
 20
424.3735734591468
 30
0.0
 11
144.4992009313947
 21
424.6098655572592
 31
0.0
  0
LINE
  5
27A
330
51
100
AcDbEntity
  8
1
  6
Continuous
 62
     7
100
AcDbLine
 10
100.5350924750545
 20
424.6098655572592
 30
0.0
 11
100.125822555697
 21
424.3735734591468
 31
0.0
  0
LINE
  5
27B
330
51
100
AcDbEntity
  8
1
  6
Continuous
 62
     2
100
AcDbLine
 10
100.125822555697
 20
424.3735734591468
 30
0.0
 11
98.0171467032247
 21
423.1561288880883
 31
0.0
  0
LINE
  5
27C
330
51
100
AcDbEntity
  8
1
  6
Continuous
 62
     2
100
AcDbLine
 10
85.01714670322471
 20
422.8166849055181
 30
0.0
 11
98.0171467032247
 21
423.1561288880883
 31
0.0
  0
LINE
  5
27D
330
51
100
AcDbEntity
  8
1
  6
Continuous
 62
     7
100
AcDbLine
 10
98.0171467032247
 20
424.3185247797164
 30
0.0
 11
100.125822555697
 21
424.3735734591468
 31
0.0
  0
LINE
  5
27E
330
51
100
AcDbEntity
  8
1
  6
Continuous
 62
     7
100
AcDbLine
 10
85.01714670322471
 20
422.8183854612992
 30
0.0
 11
86.17744863252452
 21
424.0431822196812
 31
0.0
  0
LINE
  5
27F
330
51
100
AcDbEntity
  8
1
  6
Continuous
 62
     7
100
AcDbLine
 10
86.17744863252452
 20
424.0431822196812
 30
0.0
 11
98.0171467032247
 21
424.3185247797164
 31
0.0
  0
LINE
  5
280
330
51
100
AcDbEntity
  8
1
  6
Continuous
 62
     7
100
AcDbLine
 10
86.17744863252452
 20
403.3861631527786
 30
0.0
 11
86.17744863252452
 21
424.0431822196812
 31
0.0
  0
LINE
  5
281
330
51
100
AcDbEntity
  8
1
  6
Continuous
 62
     7
100
AcDbLine
 10
98.0171467032247
 20
403.1108205927437
 30
0.0
 11
98.0171467032247
 21
424.3185247797164
 31
0.0
  0
LINE
  5
282
330
51
100
AcDbEntity
  8
1
  6
Continuous
 62
     7
100
AcDbLine
 10
147.0171467032247
 20
403.1108205927437
 30
0.0
 11
147.0171467032247
 21
424.3185247797164
 31
0.0
  0
LINE
  5
283
330
51
100
AcDbEntity
  8
1
  6
Continuous
 62
     2
100
AcDbLine
 10
147.0171467032247
 20
423.1561288880883
 30
0.0
 11
152.0171467032247
 21
423.0255735101769
 31
0.0
  0
LINE
  5
284
330
51
100
AcDbEntity
  8
1
  6
Continuous
 62
     7
100
AcDbLine
 10
147.0171467032247
 20
424.3185247797164
 30
0.0
 11
152.0171467032247
 21
424.2022453955672
 31
0.0
  0
LINE
  5
285
330
51
100
AcDbEntity
  8
1
  6
Continuous
 62
     7
100
AcDbLine
 10
105.0171467032247
 20
424.6098655572592
 30
0.0
 11
100.5350924750545
 21
424.6098655572592
 31
0.0
  0
LINE
  5
286
330
51
100
AcDbEntity
  8
1
  6
Continuous
 62
     7
100
AcDbLine
 10
144.4992009313947
 20
424.6098655572592
 30
0.0
 11
121.0171467032243
 21
424.6098655572592
 31
0.0
  0
LINE
  5
287
330
51
100
AcDbEntity
  8
1
  6
Continuous
 62
     7
100
AcDbLine
 10
100.5350924750545
 20
402.8194798152006
 30
0.0
 11
105.0171467032247
 21
402.8194798152006
 31
0.0
  0
LINE
  5
288
330
51
100
AcDbEntity
  8
1
  6
Continuous
 62
     7
100
AcDbLine
 10
86.17744863254902
 20
257.9260097647803
 30
0.0
 11
86.17744863254902
 21
237.2689906978778
 31
0.0
  0
ENDBLK
  5
53
330
51
100
AcDbEntity
  8
0
100
AcDbBlockEnd
  0
BLOCK
  5
2C4
330
2BD
100
AcDbEntity
  8
0
100
AcDbBlockBegin
  2
*D011
 70
     1
 71
     0
 10
0.0
 20
0.0
 30
0.0
  3
*D011
  1

  0
LINE
  5
2BE
330
2BD
100
AcDbEntity
  8
1
  6
Continuous
 62
     2
100
AcDbLine
 10
244.0171467032345
 20
247.597500231329
 30
0.0
 11
244.0171467032345
 21
312.3975002313308
 31
0.0
  0
LINE
  5
2BF
330
2BD
100
AcDbEntity
  8
1
  6
Continuous
 62
     2
100
AcDbLine
 10
230.0171467032345
 20
247.597500231329
 30
0.0
 11
246.0171467032345
 21
247.597500231329
 31
0.0
  0
LINE
  5
2C0
330
2BD
100
AcDbEntity
  8
1
  6
Continuous
 62
     2
100
AcDbLine
 10
185.5171467032503
 20
312.3975002313308
 30
0.0
 11
246.0171467032345
 21
312.3975002313308
 31
0.0
  0
SOLID
  5
2C1
330
2BD
100
AcDbEntity
  8
1
 62
     2
100
AcDbTrace
 10
243.0955792201227
 20
254.597500231329
 30
0.0
 11
244.9387141863463
 21
254.597500231329
 31
0.0
 12
244.0171467032345
 22
247.597500231329
 32
0.0
 13
244.0171467032345
 23
247.597500231329
 33
0.0
  0
SOLID
  5
2C2
330
2BD
100
AcDbEntity
  8
1
 62
     2
100
AcDbTrace
 10
244.9387141863463
 20
305.3975002313308
 30
0.0
 11
243.0955792201227
 21
305.3975002313308
 31
0.0
 12
244.0171467032345
 22
312.3975002313308
 32
0.0
 13
244.0171467032345
 23
312.3975002313308
 33
0.0
  0
MTEXT
  5
2C3
330
2BD
100
AcDbEntity
  8
1
 62
     7
100
AcDbMText
 10
242.0171467032345
 20
261.09750023133
 30
0.0
 40
7.0
 41
0.0
 71
     7
 72
     1
  1
65リフト4
  7
CONVERTER_1
 11
0.0
 21
1.0
 31
0.0
 73
     1
 44
0.60024009603842
  0
ENDBLK
  5
2C5
330
2BD
100
AcDbEntity
  8
0
100
AcDbBlockEnd
  0
BLOCK
  5
2CF
330
2C8
100
AcDbEntity
  8
0
100
AcDbBlockBegin
  2
*D112
 70
     1
 71
     0
 10
0.0
 20
0.0
 30
0.0
  3
*D112
  1

  0
LINE
  5
2C9
330
2C8
100
AcDbEntity
  8
1
  6
Continuous
 62
     2
100
AcDbLine
 10
244.0171467032345
 20
217.3975002313291
 30
0.0
 11
244.0171467032345
 21
229.3975002313291
 31
0.0
  0
LINE
  5
2CA
330
2C8
100
AcDbEntity
  8
1
  6
Continuous
 62
     2
100
AcDbLine
 10
244.0171467032345
 20
229.3975002313291
 30
0.0
 11
244.0171467032345
 21
247.597500231329
 31
0.0
  0
LINE
  5
2CB
330
2C8
100
AcDbEntity
  8
1
  6
Continuous
 62
     2
100
AcDbLine
 10
230.0171467032345
 20
247.597500231329
 30
0.0
 11
246.0171467032345
 21
247.597500231329
 31
0.0
  0
LINE
  5
2CC
330
2C8
100
AcDbEntity
  8
1
  6
Continuous
 62
     2
100
AcDbLine
 10
204.5171467032504
 20
229.3975002313291
 30
0.0
 11
246.0171467032345
 21
229.3975002313291
 31
0.0
  0
SOLID
  5
2CD
330
2C8
100
AcDbEntity
  8
1
 62
     2
100
AcDbTrace
 10
244.8070616887589
 20
223.3975002313291
 30
0.0
 11
243.2272317177101
 21
223.3975002313291
 31
0.0
 12
244.0171467032345
 22
229.3975002313291
 32
0.0
 13
244.0171467032345
 23
229.3975002313291
 33
0.0
  0
MTEXT
  5
2CE
330
2C8
100
AcDbEntity
  8
1
 62
     7
100
AcDbMText
 10
242.0171467032345
 20
234.2975002313291
 30
0.0
 40
7.0
 41
0.0
 71
     7
 72
     1
  1
19
  7
CONVERTER_2
 11
0.0
 21
1.0
 31
0.0
 73
     1
 44
0.60024009603842
  0
ENDBLK
  5
2D0
330
2C8
100
AcDbEntity
  8
0
100
AcDbBlockEnd
  0
BLOCK
  5
2D2
330
2D1
100
AcDbEntity
  8
0
100
AcDbBlockBegin
  2
_None
 70
     0
 71
     0
 10
0.0
 20
0.0
 30
0.0
  3
_None
  1

  0
ENDBLK
  5
2D3
330
2D1
100
AcDbEntity
  8
0
100
AcDbBlockEnd
  0
BLOCK
  5
2DD
330
2D6
100
AcDbEntity
  8
0
100
AcDbBlockBegin
  2
*D214
 70
     1
 71
     0
 10
0.0
 20
0.0
 30
0.0
  3
*D214
  1

  0
LINE
  5
2D7
330
2D6
100
AcDbEntity
  8
1
  6
Continuous
 62
     2
100
AcDbLine
 10
390.5171467032261
 20
361.2149687144911
 30
0.0
 11
390.5171467032261
 21
413.7146726862299
 31
0.0
  0
LINE
  5
2D8
330
2D6
100
AcDbEntity
  8
1
  6
Continuous
 62
     2
100
AcDbLine
 10
344.2671467032261
 20
361.2149687144911
 30
0.0
 11
392.5171467032261
 21
361.2149687144911
 31
0.0
  0
LINE
  5
2D9
330
2D6
100
AcDbEntity
  8
1
  6
Continuous
 62
     2
100
AcDbLine
 10
376.5171467032261
 20
413.7146726862299
 30
0.0
 11
392.5171467032261
 21
413.7146726862299
 31
0.0
  0
SOLID
  5
2DA
330
2D6
100
AcDbEntity
  8
1
 62
     2
100
AcDbTrace
 10
389.5955792201144
 20
368.2149687144911
 30
0.0
 11
391.4387141863379
 21
368.2149687144911
 31
0.0
 12
390.5171467032261
 22
361.2149687144911
 32
0.0
 13
390.5171467032261
 23
361.2149687144911
 33
0.0
  0
SOLID
  5
2DB
330
2D6
100
AcDbEntity
  8
1
 62
     2
100
AcDbTrace
 10
391.4387141863379
 20
406.7146726862299
 30
0.0
 11
389.5955792201144
 21
406.7146726862299
 31
0.0
 12
390.5171467032261
 22
413.7146726862299
 32
0.0
 13
390.5171467032261
 23
413.7146726862299
 33
0.0
  0
MTEXT
  5
2DC
330
2D6
100
AcDbEntity
  8
1
 62
     7
100
AcDbMText
 10
388.5171467032261
 20
368.5648207003605
 30
0.0
 40
7.0
 41
0.0
 71
     7
 72
     1
  1
53リフト4
  7
CONVERTER_1
 11
0.0
 21
1.0
 31
0.0
 73
     1
 44
0.60024009603842
  0
ENDBLK
  5
2DE
330
2D6
100
AcDbEntity
  8
0
100
AcDbBlockEnd
  0
BLOCK
  5
2E8
330
2E1
100
AcDbEntity
  8
0
100
AcDbBlockBegin
  2
*D315
 70
     1
 71
     0
 10
0.0
 20
0.0
 30
0.0
  3
*D315
  1

  0
LINE
  5
2E2
330
2E1
100
AcDbEntity
  8
1
  6
Continuous
 62
     2
100
AcDbLine
 10
390.5171467032261
 20
413.71467268623
 30
0.0
 11
390.5171467032261
 21
447.714672686214
 31
0.0
  0
LINE
  5
2E3
330
2E1
100
AcDbEntity
  8
1
  6
Continuous
 62
     2
100
AcDbLine
 10
349.8371467032262
 20
447.714672686214
 30
0.0
 11
392.5171467032261
 21
447.714672686214
 31
0.0
  0
LINE
  5
2E4
330
2E1
100
AcDbEntity
  8
1
  6
Continuous
 62
     2
100
AcDbLine
 10
376.5171467032261
 20
413.71467268623
 30
0.0
 11
392.5171467032261
 21
413.71467268623
 31
0.0
  0
SOLID
  5
2E5
330
2E1
100
AcDbEntity
  8
1
 62
     2
100
AcDbTrace
 10
389.5955792201144
 20
420.71467268623
 30
0.0
 11
391.4387141863379
 21
420.71467268623
 31
0.0
 12
390.5171467032261
 22
413.71467268623
 32
0.0
 13
390.5171467032261
 23
413.71467268623
 33
0.0
  0
SOLID
  5
2E6
330
2E1
100
AcDbEntity
  8
1
 62
     2
100
AcDbTrace
 10
391.4387141863379
 20
440.714672686214
 30
0.0
 11
389.5955792201144
 21
440.714672686214
 31
0.0
 12
390.5171467032261
 22
447.714672686214
 32
0.0
 13
390.5171467032261
 23
447.714672686214
 33
0.0
  0
MTEXT
  5
2E7
330
2E1
100
AcDbEntity
  8
1
 62
     7
100
AcDbMText
 10
388.5171467032261
 20
425.464672686222
 30
0.0
 40
7.0
 41
0.0
 71
     7
 72
     1
  1
34
  7
CONVERTER_2
 11
0.0
 21
1.0
 31
0.0
 73
     1
 44
0.60024009603842
  0
ENDBLK
  5
2E9
330
2E1
100
AcDbEntity
  8
0
100
AcDbBlockEnd
  0
BLOCK
  5
2F3
330
2EC
100
AcDbEntity
  8
0
100
AcDbBlockBegin
  2
*D416
 70
     1
 71
     0
 10
0.0
 20
0.0
 30
0.0
  3
*D416
  1

  0
LINE
  5
2ED
330
2EC
100
AcDbEntity
  8
1
  6
Continuous
 62
     2
100
AcDbLine
 10
85.01714670324935
 20
183.0975002313291
 30
0.0
 11
185.5171467032504
 21
183.0975002313291
 31
0.0
  0
LINE
  5
2EE
330
2EC
100
AcDbEntity
  8
1
  6
Continuous
 62
     2
100
AcDbLine
 10
185.5171467032504
 20
223.3975002313291
 30
0.0
 11
185.5171467032504
 21
181.0975002313291
 31
0.0
  0
LINE
  5
2EF
330
2EC
100
AcDbEntity
  8
1
  6
Continuous
 62
     2
100
AcDbLine
 10
85.01714670324935
 20
238.4954880120408
 30
0.0
 11
85.01714670324935
 21
181.0975002313291
 31
0.0
  0
SOLID
  5
2F0
330
2EC
100
AcDbEntity
  8
1
 62
     2
100
AcDbTrace
 10
92.01714670324935
 20
184.0190677144409
 30
0.0
 11
92.01714670324935
 21
182.1759327482173
 31
0.0
 12
85.01714670324935
 22
183.0975002313291
 32
0.0
 13
85.01714670324935
 23
183.0975002313291
 33
0.0
  0
SOLID
  5
2F1
330
2EC
100
AcDbEntity
  8
1
 62
     2
100
AcDbTrace
 10
178.5171467032504
 20
182.1759327482173
 30
0.0
 11
178.5171467032504
 21
184.0190677144409
 31
0.0
 12
185.5171467032504
 22
183.0975002313291
 32
0.0
 13
185.5171467032504
 23
183.0975002313291
 33
0.0
  0
MTEXT
  5
2F2
330
2EC
100
AcDbEntity
  8
1
 62
     7
100
AcDbMText
 10
127.9171467032499
 20
185.0975002313291
 30
0.0
 40
7.0
 41
0.0
 71
     7
 72
     1
  1
100
  7
CONVERTER_2
 11
0.9999999999970621
 21
2.424068405545307E-6
 31
0.0
 73
     1
 44
0.60024009603842
  0
ENDBLK
  5
2F4
330
2EC
100
AcDbEntity
  8
0
100
AcDbBlockEnd
  0
BLOCK
  5
2FE
330
2F7
100
AcDbEntity
  8
0
100
AcDbBlockBegin
  2
*D517
 70
     1
 71
     0
 10
0.0
 20
0.0
 30
0.0
  3
*D517
  1

  0
LINE
  5
2F8
330
2F7
100
AcDbEntity
  8
1
  6
Continuous
 62
     2
100
AcDbLine
 10
224.0171467032345
 20
199.0975002313291
 30
0.0
 11
185.5171467032504
 21
199.0975002313291
 31
0.0
  0
LINE
  5
2F9
330
2F7
100
AcDbEntity
  8
1
  6
Continuous
 62
     2
100
AcDbLine
 10
224.0171467032345
 20
238.2775002313293
 30
0.0
 11
224.0171467032345
 21
197.0975002313291
 31
0.0
  0
LINE
  5
2FA
330
2F7
100
AcDbEntity
  8
1
  6
Continuous
 62
     2
100
AcDbLine
 10
185.5171467032504
 20
229.3975002313291
 30
0.0
 11
185.5171467032504
 21
197.0975002313291
 31
0.0
  0
SOLID
  5
2FB
330
2F7
100
AcDbEntity
  8
1
 62
     2
100
AcDbTrace
 10
217.0171467032345
 20
198.1759327482173
 30
0.0
 11
217.0171467032345
 21
200.0190677144409
 31
0.0
 12
224.0171467032345
 22
199.0975002313291
 32
0.0
 13
224.0171467032345
 23
199.0975002313291
 33
0.0
  0
SOLID
  5
2FC
330
2F7
100
AcDbEntity
  8
1
 62
     2
100
AcDbTrace
 10
192.5171467032504
 20
200.0190677144409
 30
0.0
 11
192.5171467032504
 21
198.1759327482173
 31
0.0
 12
185.5171467032504
 22
199.0975002313291
 32
0.0
 13
185.5171467032504
 23
199.0975002313291
 33
0.0
  0
MTEXT
  5
2FD
330
2F7
100
AcDbEntity
  8
1
 62
     7
100
AcDbMText
 10
199.5171467032425
 20
201.0975002313291
 30
0.0
 40
7.0
 41
0.0
 71
     7
 72
     1
  1
39
  7
CONVERTER_2
 11
0.9999999999970621
 21
2.424068405545307E-6
 31
0.0
 73
     1
 44
0.60024009603842
  0
ENDBLK
  5
2FF
330
2F7
100
AcDbEntity
  8
0
100
AcDbBlockEnd
  0
BLOCK
  5
309
330
302
100
AcDbEntity
  8
0
100
AcDbBlockBegin
  2
*D618
 70
     1
 71
     0
 10
0.0
 20
0.0
 30
0.0
  3
*D618
  1

  0
LINE
  5
303
330
302
100
AcDbEntity
  8
1
  6
Continuous
 62
     2
100
AcDbLine
 10
152.017146703249
 20
199.0975002313291
 30
0.0
 11
185.5171467032504
 21
199.0975002313291
 31
0.0
  0
LINE
  5
304
330
302
100
AcDbEntity
  8
1
  6
Continuous
 62
     2
100
AcDbLine
 10
152.017146703249
 20
234.597500231329
 30
0.0
 11
152.017146703249
 21
197.0975002313291
 31
0.0
  0
LINE
  5
305
330
302
100
AcDbEntity
  8
1
  6
Continuous
 62
     2
100
AcDbLine
 10
185.5171467032504
 20
229.3975002313291
 30
0.0
 11
185.5171467032504
 21
197.0975002313291
 31
0.0
  0
SOLID
  5
306
330
302
100
AcDbEntity
  8
1
 62
     2
100
AcDbTrace
 10
159.017146703249
 20
200.0190677144409
 30
0.0
 11
159.017146703249
 21
198.1759327482173
 31
0.0
 12
152.017146703249
 22
199.0975002313291
 32
0.0
 13
152.017146703249
 23
199.0975002313291
 33
0.0
  0
SOLID
  5
307
330
302
100
AcDbEntity
  8
1
 62
     2
100
AcDbTrace
 10
178.5171467032504
 20
198.1759327482173
 30
0.0
 11
178.5171467032504
 21
200.0190677144409
 31
0.0
 12
185.5171467032504
 22
199.0975002313291
 32
0.0
 13
185.5171467032504
 23
199.0975002313291
 33
0.0
  0
MTEXT
  5
308
330
302
100
AcDbEntity
  8
1
 62
     7
100
AcDbMText
 10
163.5171467032497
 20
201.0975002313291
 30
0.0
 40
7.0
 41
0.0
 71
     7
 72
     1
  1
34
  7
CONVERTER_2
 11
0.9999999999970621
 21
2.424068405545307E-6
 31
0.0
 73
     1
 44
0.60024009603842
  0
ENDBLK
  5
30A
330
302
100
AcDbEntity
  8
0
100
AcDbBlockEnd
  0
BLOCK
  5
314
330
30D
100
AcDbEntity
  8
0
100
AcDbBlockBegin
  2
*D719
 70
     1
 71
     0
 10
0.0
 20
0.0
 30
0.0
  3
*D719
  1

  0
LINE
  5
30E
330
30D
100
AcDbEntity
  8
1
  6
Continuous
 62
     2
100
AcDbLine
 10
65.01714670322471
 20
443.7146726862299
 30
0.0
 11
65.01714670322471
 21
383.7146726862299
 31
0.0
  0
LINE
  5
30F
330
30D
100
AcDbEntity
  8
1
  6
Continuous
 62
     2
100
AcDbLine
 10
105.0171467032243
 20
383.7146726862299
 30
0.0
 11
63.01714670322471
 21
383.7146726862299
 31
0.0
  0
LINE
  5
310
330
30D
100
AcDbEntity
  8
1
  6
Continuous
 62
     2
100
AcDbLine
 10
105.0171467032243
 20
443.7146726862299
 30
0.0
 11
63.01714670322471
 21
443.7146726862299
 31
0.0
  0
SOLID
  5
311
330
30D
100
AcDbEntity
  8
1
 62
     2
100
AcDbTrace
 10
65.93871418633648
 20
436.7146726862299
 30
0.0
 11
64.09557922011294
 21
436.7146726862299
 31
0.0
 12
65.01714670322471
 22
443.7146726862299
 32
0.0
 13
65.01714670322471
 23
443.7146726862299
 33
0.0
  0
SOLID
  5
312
330
30D
100
AcDbEntity
  8
1
 62
     2
100
AcDbTrace
 10
64.09557922011294
 20
390.7146726862299
 30
0.0
 11
65.93871418633648
 21
390.7146726862299
 31
0.0
 12
65.01714670322471
 22
383.7146726862299
 32
0.0
 13
65.01714670322471
 23
383.7146726862299
 33
0.0
  0
MTEXT
  5
313
330
30D
100
AcDbEntity
  8
1
 62
     7
100
AcDbMText
 10
63.01714670322471
 20
404.9646726862299
 30
0.0
 40
7.0
 41
0.0
 71
     7
 72
     1
  1
{\Fgdt;n}60
  7
CONVERTER_2
 11
0.0
 21
1.0
 31
0.0
 73
     1
 44
0.60024009603842
  0
ENDBLK
  5
315
330
30D
100
AcDbEntity
  8
0
100
AcDbBlockEnd
  0
BLOCK
  5
321
330
318
100
AcDbEntity
  8
0
100
AcDbBlockBegin
  2
*D820
 70
     1
 71
     0
 10
0.0
 20
0.0
 30
0.0
  3
*D820
  1

  0
LINE
  5
319
330
318
100
AcDbEntity
  8
1
  6
Continuous
 62
     2
100
AcDbLine
 10
91.01714670322428
 20
457.714672686214
 30
0.0
 11
105.0171467032243
 21
457.714672686214
 31
0.0
  0
LINE
  5
31A
330
318
100
AcDbEntity
  8
1
  6
Continuous
 62
     2
100
AcDbLine
 10
105.0171467032243
 20
457.714672686214
 30
0.0
 11
121.0171467032243
 21
457.714672686214
 31
0.0
  0
LINE
  5
31B
330
318
100
AcDbEntity
  8
1
  6
Continuous
 62
     2
100
AcDbLine
 10
121.0171467032243
 20
457.714672686214
 30
0.0
 11
135.0171467032243
 21
457.714672686214
 31
0.0
  0
LINE
  5
31C
330
318
100
AcDbEntity
  8
1
  6
Continuous
 62
     2
100
AcDbLine
 10
121.0171467032243
 20
425.9188411629173
 30
0.0
 11
121.0171467032243
 21
459.714672686214
 31
0.0
  0
LINE
  5
31D
330
318
100
AcDbEntity
  8
1
  6
Continuous
 62
     2
100
AcDbLine
 10
105.0171467032243
 20
443.7146726862299
 30
0.0
 11
105.0171467032243
 21
459.714672686214
 31
0.0
  0
SOLID
  5
31E
330
318
100
AcDbEntity
  8
1
 62
     2
100
AcDbTrace
 10
98.01714670322428
 20
456.7931052031022
 30
0.0
 11
98.01714670322428
 21
458.6362401693257
 31
0.0
 12
105.0171467032243
 22
457.714672686214
 32
0.0
 13
105.0171467032243
 23
457.714672686214
 33
0.0
  0
SOLID
  5
31F
330
318
100
AcDbEntity
  8
1
 62
     2
100
AcDbTrace
 10
128.0171467032243
 20
458.6362401693257
 30
0.0
 11
128.0171467032243
 21
456.7931052031022
 31
0.0
 12
121.0171467032243
 22
457.714672686214
 32
0.0
 13
121.0171467032243
 23
457.714672686214
 33
0.0
  0
MTEXT
  5
320
330
318
100
AcDbEntity
  8
1
 62
     7
100
AcDbMText
 10
108.188771864123
 20
459.714672686214
 30
0.0
 40
7.0
 41
0.0
 71
     7
 72
     1
  1
16
  7
CONVERTER_2
 11
0.9999999999970621
 21
2.424068405545307E-6
 31
0.0
 73
     1
 44
0.60024009603842
  0
ENDBLK
  5
322
330
318
100
AcDbEntity
  8
0
100
AcDbBlockEnd
  0
BLOCK
  5
32E
330
325
100
AcDbEntity
  8
0
100
AcDbBlockBegin
  2
*D921
 70
     1
 71
     0
 10
0.0
 20
0.0
 30
0.0
  3
*D921
  1

  0
LINE
  5
326
330
325
100
AcDbEntity
  8
1
  6
Continuous
 62
     2
100
AcDbLine
 10
315.760472088525
 20
351.2149687144911
 30
0.0
 11
339.617146703226
 21
351.2149687144911
 31
0.0
  0
LINE
  5
327
330
325
100
AcDbEntity
  8
1
  6
Continuous
 62
     2
100
AcDbLine
 10
339.617146703226
 20
351.2149687144911
 30
0.0
 11
341.4171467032263
 21
351.2149687144911
 31
0.0
  0
LINE
  5
328
330
325
100
AcDbEntity
  8
1
  6
Continuous
 62
     2
100
AcDbLine
 10
341.4171467032263
 20
351.2149687144911
 30
0.0
 11
355.4171467032263
 21
351.2149687144911
 31
0.0
  0
LINE
  5
329
330
325
100
AcDbEntity
  8
1
  6
Continuous
 62
     2
100
AcDbLine
 10
341.4171467032263
 20
361.2149687144911
 30
0.0
 11
341.4171467032263
 21
349.2149687144911
 31
0.0
  0
LINE
  5
32A
330
325
100
AcDbEntity
  8
1
  6
Continuous
 62
     2
100
AcDbLine
 10
339.617146703226
 20
361.2149687144911
 30
0.0
 11
339.617146703226
 21
349.2149687144911
 31
0.0
  0
SOLID
  5
32B
330
325
100
AcDbEntity
  8
1
 62
     2
100
AcDbTrace
 10
332.617146703226
 20
350.2934012313793
 30
0.0
 11
332.617146703226
 21
352.1365361976028
 31
0.0
 12
339.617146703226
 22
351.2149687144911
 32
0.0
 13
339.617146703226
 23
351.2149687144911
 33
0.0
  0
SOLID
  5
32C
330
325
100
AcDbEntity
  8
1
 62
     2
100
AcDbTrace
 10
348.4171467032263
 20
352.1365361976028
 30
0.0
 11
348.4171467032263
 21
350.2934012313793
 31
0.0
 12
341.4171467032263
 22
351.2149687144911
 32
0.0
 13
341.4171467032263
 23
351.2149687144911
 33
0.0
  0
MTEXT
  5
32D
330
325
100
AcDbEntity
  8
1
 62
     7
100
AcDbMText
 10
315.760472088525
 20
353.9149687144911
 30
0.0
 40
7.0
 41
0.0
 71
     7
 72
     1
  1
1,8
  7
CONVERTER_2
 11
0.9999999999970621
 21
2.424068405545307E-6
 31
0.0
 73
     1
 44
0.60024009603842
  0
ENDBLK
  5
32F
330
325
100
AcDbEntity
  8
0
100
AcDbBlockEnd
  0
ENDSEC
  0
SECTION
  2
ENTITIES
  0
INSERT
  5
54
330
1F
100
AcDbEntity
  8
1
100
AcDbBlockReference
  2
36-45
 10
214.319230402957
 20
759.989468232401
 30
0.0
  0
INSERT
  5
55
330
1F
100
AcDbEntity
  8
1
100
AcDbBlockReference
  2
_J__A4
 10
0.0
 20
0.0
 30
0.0
 41
2.0
 42
2.0
 43
2.0
  0
INSERT
  5
56
330
1F
100
AcDbEntity
  8
1
100
AcDbBlockReference
  2
V2220L-0A-13-M1
 10
85.5171467032261
 20
273.71467268623
 30
0.0
  0
INSERT
  5
57
330
1F
100
AcDbEntity
  8
0
100
AcDbBlockReference
  2
78-167
 10
214.2475180508417
 20
-388.613078756079
 30
0.0
  0
INSERT
  5
58
330
1F
100
AcDbEntity
  8
0
100
AcDbBlockReference
  2
37-1-13__1
 10
185.5171467032261
 20
377.289901978544
 30
0.0
  0
INSERT
  5
59
330
1F
100
AcDbEntity
  8
1
100
AcDbBlockReference
  2
51-1
 10
161.2914115165323
 20
1385.219788549141
 30
0.0
  0
INSERT
  5
5A
330
1F
100
AcDbEntity
  8
1
100
AcDbBlockReference
  2
36-54-M11
 10
85.51714670322622
 20
284.7146726862306
 30
0.0
  0
INSERT
  5
5B
330
1F
100
AcDbEntity
  8
0
100
AcDbBlockReference
  2
42-15
 10
85.51714670322622
 20
323.7146726862309
 30
0.0
  0
INSERT
  5
5C
330
1F
100
AcDbEntity
  8
0
100
AcDbBlockReference
  2
37-1-13__2
 10
85.51714670322622
 20
304.7146726862299
 30
0.0
  0
INSERT
  5
5D
330
1F
100
AcDbEntity
  8
0
100
AcDbBlockReference
  2
64-7-75
 10
60.017146703225
 20
273.71467268623
 30
0.0
  0
LINE
  5
289
330
1F
100
AcDbEntity
  8
1
  6
DASH_CENTER
 62
     2
100
AcDbLine
 10
340.5171467032261
 20
453.714672686214
 30
0.0
 11
340.5171467032261
 21
355.2146726862299
 31
0.0
  0
LINE
  5
28A
330
1F
100
AcDbEntity
  8
1
  6
DASH_CENTER
 62
     2
100
AcDbLine
 10
376.5171467032261
 20
413.7146726862299
 30
0.0
 11
269.5170480273
 21
413.7146726862299
 31
0.0
  0
LINE
  5
28B
330
1F
100
AcDbEntity
  8
1
  6
DASH_CENTER
 62
     2
100
AcDbLine
 10
185.5171467032261
 20
355.2146726862298
 30
0.0
 11
185.5171467032261
 21
453.7146726862139
 31
0.0
  0
LINE
  5
28C
330
1F
100
AcDbEntity
  8
1
  6
DASH_CENTER
 62
     2
100
AcDbLine
 10
185.5171467032504
 20
223.3975002313291
 30
0.0
 11
185.5171467032504
 21
229.3975002313291
 31
0.0
  0
LINE
  5
28D
330
1F
100
AcDbEntity
  8
1
  6
DASH_CENTER
 62
     2
100
AcDbLine
 10
230.0171467032345
 20
247.597500231329
 30
0.0
 11
79.01714670324932
 21
247.597500231329
 31
0.0
  0
LINE
  5
28E
330
1F
100
AcDbEntity
  8
1
  6
DASH_CENTER
 62
     2
100
AcDbLine
 10
79.01714670324932
 20
413.7146726862299
 30
0.0
 11
230.0171467032345
 21
413.7146726862299
 31
0.0
  0
LINE
  5
28F
330
1F
100
AcDbEntity
  8
1
  6
DASH_CENTER
 62
     2
100
AcDbLine
 10
185.5171467032503
 20
313.39750023133
 30
0.0
 11
185.5171467032503
 21
318.3975002313308
 31
0.0
  0
LINE
  5
290
330
1F
100
AcDbEntity
  8
1
  6
Continuous
 62
     2
100
AcDbLine
 10
185.5171467032504
 20
229.3975002313291
 30
0.0
 11
204.5171467032504
 21
229.3975002313291
 31
0.0
  0
LINE
  5
291
330
1F
100
AcDbEntity
  8
1
  6
DASH_CENTER
 62
     2
100
AcDbLine
 10
185.5171467032504
 20
229.3975002313291
 30
0.0
 11
185.5171467032503
 21
313.39750023133
 31
0.0
  0
LINE
  5
292
330
1F
100
AcDbEntity
  8
1
  6
DASH_CENTER
 62
     2
100
AcDbLine
 10
175.5328105504561
 20
431.0080501826742
 30
0.0
 11
204.0171467032264
 21
381.6717327462045
 31
0.0
  0
LINE
  5
293
330
1F
100
AcDbEntity
  8
1
  6
DASH_CENTER
 62
     2
100
AcDbLine
 10
175.532810550456
 20
396.4212951897836
 30
0.0
 11
204.0171467032262
 21
445.757612626253
 31
0.0
  0
SPLINE
  5
294
330
1F
100
AcDbEntity
  8
1
  6
Continuous
 62
     7
100
AcDbSpline
210
0.0
220
0.0
230
1.0
 70
    11
 71
     3
 72
    79
 73
    75
 74
    73
 42
0.0000000001
 43
0.0000000001
 44
0.00000001
 40
0.0
 40
0.0
 40
0.0
 40
0.0
 40
0.2412068094785561
 40
0.4811338352635554
 40
0.766012753972102
 40
1.049767124189179
 40
1.391007393036191
 40
1.731748941522467
 40
2.132110806032865
 40
2.532213930800267
 40
2.98734794309992
 40
3.442348250959235
 40
3.943621096800673
 40
4.444820886940947
 40
4.980807704427232
 40
5.516755704927231
 40
6.07424377423416
 40
6.631714842663913
 40
7.196475089622162
 40
7.761235336580353
 40
8.318706405010049
 40
8.876194474317092
 40
9.412142474817141
 40
9.948129292303364
 40
10.44932908244358
 40
10.950601928285
 40
11.40560223614439
 40
11.86073624844405
 40
12.26083937321148
 40
12.6612012377219
 40
13.00194278620825
 40
13.34318305505517
 40
13.62693742527229
 40
13.91181634398087
 40
14.15174336976578
 40
14.3929501792443
 40
14.61620350139393
 40
14.83945682354343
 40
15.08066363302192
 40
15.32059065880694
 40
15.60546957751546
 40
15.88922394773269
 40
16.23046421657968
 40
16.57120576506587
 40
16.97156762957614
 40
17.3716707543435
 40
17.8268047666433
 40
18.28180507450278
 40
18.78307792034439
 40
19.28427771048465
 40
19.82026452797089
 40
20.35621252847084
 40
20.9137005977778
 40
21.47117166620748
 40
22.03593191316567
 40
22.60069216012403
 40
23.15816322855388
 40
23.71565129786083
 40
24.25159929836071
 40
24.78758611584685
 40
25.28878590598702
 40
25.79005875182856
 40
26.24505905968799
 40
26.70019307198771
 40
27.10029619675512
 40
27.50065806126549
 40
27.84139960975179
 40
28.18263987859876
 40
28.46639424881593
 40
28.75127316752452
 40
28.99120019330946
 40
29.23240700278805
 40
29.45566032493768
 40
29.67891364708714
 40
29.67891364708714
 40
29.67891364708714
 40
29.67891364708714
 10
191.9904016384709
 20
385.9930271418082
 30
0.0
 10
191.9673491458542
 20
385.9156617424173
 30
0.0
 10
191.9213664714469
 20
385.7613414253164
 30
0.0
 10
191.7857828250129
 20
385.5422202806404
 30
0.0
 10
191.6115014002538
 20
385.335887149071
 30
0.0
 10
191.3858921616903
 20
385.1319725245622
 30
0.0
 10
191.1239951391125
 20
384.9438534881707
 30
0.0
 10
190.8134513417094
 20
384.7594953811338
 30
0.0
 10
190.4716508189607
 20
384.5917007007274
 30
0.0
 10
190.0848295355351
 20
384.4313074691512
 30
0.0
 10
189.6719753628152
 20
384.2881010135764
 30
0.0
 10
189.22024780765
 20
384.1560568881433
 30
0.0
 10
188.7478736258766
 20
384.041801320975
 30
0.0
 10
188.2447542858506
 20
383.9418617595767
 30
0.0
 10
187.7266298111123
 20
383.8602539582643
 30
0.0
 10
187.1872768993435
 20
383.7952745417522
 30
0.0
 10
186.638806348284
 20
383.7490346899624
 30
0.0
 10
186.0795062006104
 20
383.7208265480693
 30
0.0
 10
185.5171467032312
 20
383.7115757698602
 30
0.0
 10
184.9547872058193
 20
383.7208265480647
 30
0.0
 10
184.3954870582433
 20
383.749034689981
 30
0.0
 10
183.847016506831
 20
383.7952745416833
 30
0.0
 10
183.3076635963283
 20
383.8602539585102
 30
0.0
 10
182.7895391170054
 20
383.9418617586821
 30
0.0
 10
182.286419793029
 20
384.0418013240726
 30
0.0
 10
181.8140455540268
 20
384.1560568770046
 30
0.0
 10
181.3623181937027
 20
384.2881010509066
 30
0.0
 10
180.949463337562
 20
384.4313073364731
 30
0.0
 10
180.5626443128857
 20
384.5917011299381
 30
0.0
 10
180.2208359999522
 20
384.75949387245
 30
0.0
 10
179.9103172005239
 20
384.9438581980089
 30
0.0
 10
179.6483351479488
 20
385.1319560822508
 30
0.0
 10
179.4229933037657
 20
385.3359372240602
 30
0.0
 10
179.2478019152827
 20
385.5420439921207
 30
0.0
 10
179.1151171780599
 20
385.7618862724231
 30
0.0
 10
179.0375973569513
 20
385.985276047538
 30
0.0
 10
179.0073166315502
 20
386.2146726862297
 30
0.0
 10
179.0375973569512
 20
386.4440693249213
 30
0.0
 10
179.1151171780599
 20
386.6674591000361
 30
0.0
 10
179.2478019152824
 20
386.8873013803386
 30
0.0
 10
179.4229933037655
 20
387.0934081483993
 30
0.0
 10
179.6483351479487
 20
387.2973892902084
 30
0.0
 10
179.9103172005237
 20
387.4854871744507
 30
0.0
 10
180.220835999952
 20
387.6698515000093
 30
0.0
 10
180.5626443128853
 20
387.8376442425213
 30
0.0
 10
180.9494633375617
 20
387.9980380359862
 30
0.0
 10
181.3623181937023
 20
388.1412443215526
 30
0.0
 10
181.8140455540267
 20
388.2732884954547
 30
0.0
 10
182.2864197930289
 20
388.3875440483871
 30
0.0
 10
182.7895391170055
 20
388.4874836137775
 30
0.0
 10
183.3076635963283
 20
388.5690914139497
 30
0.0
 10
183.847016506831
 20
388.6340708307764
 30
0.0
 10
184.3954870582427
 20
388.6803106824785
 30
0.0
 10
184.9547872058203
 20
388.7085188243955
 30
0.0
 10
185.5171467032259
 20
388.7177696025982
 30
0.0
 10
186.0795062006293
 20
388.7085188243959
 30
0.0
 10
186.6388063482139
 20
388.6803106824772
 30
0.0
 10
187.1872768996012
 20
388.6340708307812
 30
0.0
 10
187.7266298101914
 20
388.5690914139329
 30
0.0
 10
188.2447542891976
 20
388.4874836138395
 30
0.0
 10
188.7478736142817
 20
388.3875440481731
 30
0.0
 10
189.2202478493342
 20
388.2732884962238
 30
0.0
 10
189.6719752231059
 20
388.1412443189767
 30
0.0
 10
190.0848300320786
 20
387.9980380451437
 30
0.0
 10
190.4716492126478
 20
387.8376442128987
 30
0.0
 10
190.813456987924
 20
387.669851604135
 30
0.0
 10
191.123977512644
 20
387.4854868493907
 30
0.0
 10
191.3859536966819
 20
387.297390425012
 30
0.0
 10
191.6113139956918
 20
387.0934046923615
 30
0.0
 10
191.786442580975
 20
386.887313547289
 30
0.0
 10
191.9193273929578
 20
386.6674214961839
 30
0.0
 10
191.9961432038532
 20
386.4442068513714
 30
0.0
 10
192.0288702507115
 20
386.2142016632471
 30
0.0
 10
192.0032245092178
 20
386.0667519822877
 30
0.0
 10
191.9904016384709
 20
385.9930271418082
 30
0.0
 11
191.9904016384709
 21
385.9930271418082
 31
0.0
 11
191.9113975787265
 21
385.7651256642291
 31
0.0
 11
191.7895112185286
 21
385.5584648481566
 31
0.0
 11
191.606633226338
 21
385.3400349090528
 31
0.0
 11
191.3971532144235
 21
385.148633061555
 31
0.0
 11
191.1211742572775
 21
384.9479329462203
 31
0.0
 11
190.8285850517513
 21
384.7733008767874
 31
0.0
 11
190.4698574080908
 21
384.5955254560228
 31
0.0
 11
190.1004689838678
 21
384.4417896355427
 31
0.0
 11
189.6708052455071
 21
384.2916695466476
 31
0.0
 11
189.2341807179316
 21
384.1636683666862
 31
0.0
 11
188.7471172660361
 21
384.0451624182883
 31
0.0
 11
188.2555663068276
 21
383.9472906443297
 31
0.0
 11
187.7261746742499
 21
383.8634672115927
 31
0.0
 11
187.194087621511
 21
383.7992517341162
 31
0.0
 11
186.6385920215426
 21
383.7521604840232
 31
0.0
 11
186.0818285798048
 21
383.7240809170648
 31
0.0
 11
185.5171467032257
 21
383.7146726862297
 31
0.0
 11
184.9524648266467
 21
383.7240809170648
 31
0.0
 11
184.395701384909
 21
383.7521604840232
 31
0.0
 11
183.8402057849405
 21
383.7992517341162
 31
0.0
 11
183.3081187322015
 21
383.8634672115926
 31
0.0
 11
182.7787270996239
 21
383.9472906443294
 31
0.0
 11
182.2871761404153
 21
384.0451624182879
 31
0.0
 11
181.8001126885199
 21
384.1636683666857
 31
0.0
 11
181.3634881609443
 21
384.2916695466471
 31
0.0
 11
180.9338244225836
 21
384.4417896355424
 31
0.0
 11
180.5644359983606
 21
384.5955254560224
 31
0.0
 11
180.2057083547
 21
384.773300876787
 31
0.0
 11
179.9131191491738
 21
384.9479329462198
 31
0.0
 11
179.6371401920279
 21
385.1486330615545
 31
0.0
 11
179.4276601801134
 21
385.3400349090525
 31
0.0
 11
179.2447821879228
 21
385.5584648481563
 31
0.0
 11
179.1228958277249
 21
385.7651256642287
 31
0.0
 11
179.0438917679805
 21
385.9930271418077
 31
0.0
 11
179.0171467032257
 21
386.2146726862297
 31
0.0
 11
179.0438917679804
 21
386.4363182306515
 31
0.0
 11
179.1228958277247
 21
386.6642197082306
 31
0.0
 11
179.2447821879226
 21
386.8708805243031
 31
0.0
 11
179.4276601801132
 21
387.0893104634068
 31
0.0
 11
179.6371401920278
 21
387.2807123109049
 31
0.0
 11
179.9131191491737
 21
387.4814124262397
 31
0.0
 11
180.2057083546998
 21
387.6560444956724
 31
0.0
 11
180.5644359983602
 21
387.8338199164369
 31
0.0
 11
180.9338244225832
 21
387.9875557369169
 31
0.0
 11
181.363488160944
 21
388.1376758258122
 31
0.0
 11
181.8001126885197
 21
388.2656770057737
 31
0.0
 11
182.2871761404153
 21
388.3841829541717
 31
0.0
 11
182.7787270996238
 21
388.4820547281302
 31
0.0
 11
183.3081187322015
 21
388.5658781608672
 31
0.0
 11
183.8402057849404
 21
388.6300936383435
 31
0.0
 11
184.3957013849088
 21
388.6771848884365
 31
0.0
 11
184.9524648266465
 21
388.705264455395
 31
0.0
 11
185.5171467032255
 21
388.7146726862301
 31
0.0
 11
186.0818285798047
 21
388.705264455395
 31
0.0
 11
186.6385920215425
 21
388.6771848884365
 31
0.0
 11
187.194087621511
 21
388.6300936383436
 31
0.0
 11
187.7261746742498
 21
388.5658781608674
 31
0.0
 11
188.2555663068274
 21
388.4820547281304
 31
0.0
 11
188.7471172660358
 21
388.3841829541717
 31
0.0
 11
189.2341807179313
 21
388.2656770057739
 31
0.0
 11
189.670805245507
 21
388.1376758258126
 31
0.0
 11
190.1004689838678
 21
387.9875557369173
 31
0.0
 11
190.4698574080908
 21
387.8338199164374
 31
0.0
 11
190.8285850517513
 21
387.6560444956728
 31
0.0
 11
191.1211742572775
 21
387.48141242624
 31
0.0
 11
191.3971532144235
 21
387.2807123109053
 31
0.0
 11
191.606633226338
 21
387.0893104634073
 31
0.0
 11
191.7895112185286
 21
386.8708805243035
 31
0.0
 11
191.9113975787265
 21
386.664219708231
 31
0.0
 11
191.9904016384709
 21
386.4363182306519
 31
0.0
 11
192.0171467032257
 21
386.21467268623
 31
0.0
 11
191.9904016384709
 21
385.9930271418082
 31
0.0
  0
SPLINE
  5
295
330
1F
100
AcDbEntity
  8
1
  6
DASHED
 62
     7
100
AcDbSpline
210
0.0
220
0.0
230
1.0
 70
     8
 71
     3
 72
    13
 73
     9
 74
     7
 42
0.0000000001
 43
0.0000000001
 44
0.00000001
 40
0.0
 40
0.0
 40
0.0
 40
0.0
 40
0.5265044064789819
 40
1.053025907972351
 40
1.617786154930629
 40
2.182546401888796
 40
2.709067903405407
 40
3.235572309907414
 40
3.235572309907414
 40
3.235572309907414
 40
3.235572309907414
 10
199.5956557034466
 20
415.3299798030028
 30
0.0
 10
199.5801295785833
 20
415.1551506626838
 30
0.0
 10
199.5490768247405
 20
414.8054867055371
 30
0.0
 10
199.523480917032
 20
414.266694345615
 30
0.0
 10
199.5140183631667
 20
413.7146726862296
 30
0.0
 10
199.5234809170323
 20
413.1626510268367
 30
0.0
 10
199.549076824742
 20
412.6238586668991
 30
0.0
 10
199.580129578587
 20
412.2741947097372
 30
0.0
 10
199.5956557034514
 20
412.0993655694105
 30
0.0
 11
199.5956557034466
 21
415.3299798030028
 31
0.0
 11
199.5526752712114
 21
414.805232651999
 31
0.0
 11
199.526653610148
 21
414.2793545628088
 31
0.0
 11
199.5172453793129
 21
413.7146726862296
 31
0.0
 11
199.5266536101482
 21
413.1499908096506
 31
0.0
 11
199.5526752712131
 21
412.6241127204372
 31
0.0
 11
199.5956557034514
 21
412.0993655694105
 31
0.0
  0
SPLINE
  5
296
330
1F
100
AcDbEntity
  8
1
  6
Continuous
 62
     7
100
AcDbSpline
210
0.0
220
0.0
230
1.0
 70
     8
 71
     3
 72
    77
 73
    73
 74
    71
 42
0.0000000001
 43
0.0000000001
 44
0.00000001
 40
0.0
 40
0.0
 40
0.0
 40
0.0
 40
0.0309699076054717
 40
0.0619417636774069
 40
0.597889764177311
 40
1.133876581663451
 40
1.635076371803608
 40
2.13634921764515
 40
2.59134952550462
 40
3.046483537804301
 40
3.446586662571819
 40
3.846948527082217
 40
4.18769007556845
 40
4.528930344415466
 40
4.812684714632637
 40
5.097563633341165
 40
5.337490659126194
 40
5.578697468604731
 40
5.801950790754201
 40
6.025204112903699
 40
6.266410922382175
 40
6.50633794816712
 40
6.79121686687575
 40
7.074971237093005
 40
7.416211505939988
 40
7.756953054426279
 40
8.157314918936626
 40
8.557418043704132
 40
9.012552056003722
 40
9.467552363863037
 40
9.968825209704413
 40
10.47002499984474
 40
11.00601181733101
 40
11.54195981783103
 40
12.09944788713793
 40
12.65691895556771
 40
13.22167920252593
 40
13.78643944948409
 40
14.34391051791382
 40
14.90139858722072
 40
15.43734658772084
 40
15.97333340520713
 40
16.47453319534732
 40
16.97580604118887
 40
17.43080634904819
 40
17.88594036134792
 40
18.28604348611527
 40
18.68640535062565
 40
19.02714689911196
 40
19.36838716795901
 40
19.65214153817604
 40
19.93702045688462
 40
20.17694748266959
 40
20.41815429214814
 40
20.64140761429777
 40
20.86466093644728
 40
21.10586774592564
 40
21.3457947717106
 40
21.63067369041918
 40
21.91442806063636
 40
22.25566832948335
 40
22.59640987796953
 40
22.99677174247983
 40
23.39687486724722
 40
23.85200887954696
 40
24.30700918740652
 40
24.80828203324803
 40
25.3094818233884
 40
25.84546864087464
 40
26.38141664137454
 40
26.41238849743465
 40
26.44335840505127
 40
26.44335840505127
 40
26.44335840505127
 40
26.44335840505127
 10
199.595655703449
 20
415.3299798030275
 30
0.0
 10
199.5966700987651
 20
415.3402531523229
 30
0.0
 10
199.5986989532176
 20
415.3608004972596
 30
0.0
 10
199.6187403485817
 20
415.5590866788569
 30
0.0
 10
199.6628729551273
 20
415.9241547096623
 30
0.0
 10
199.7444229348334
 20
416.4422805419366
 30
0.0
 10
199.8443770253211
 20
416.9453995260377
 30
0.0
 10
199.9586288461715
 20
417.4177738523676
 30
0.0
 10
200.0906739308251
 20
417.869501191381
 30
0.0
 10
200.233879986163
 20
418.282356052909
 30
0.0
 10
200.3942738340764
 20
418.6691750763113
 30
0.0
 10
200.5620665630563
 20
419.0109833895613
 30
0.0
 10
200.746430891715
 20
419.3215021889172
 30
0.0
 10
200.9345287751983
 20
419.5834842415099
 30
0.0
 10
201.1385099171774
 20
419.8088260856892
 30
0.0
 10
201.3446166851967
 20
419.984017474173
 30
0.0
 10
201.5644589655087
 20
420.1167022113955
 30
0.0
 10
201.787848740621
 20
420.1942220325042
 30
0.0
 10
202.0172453793132
 20
420.2245027579056
 30
0.0
 10
202.2466420180046
 20
420.1942220325041
 30
0.0
 10
202.4700317931194
 20
420.1167022113956
 30
0.0
 10
202.6898740734219
 20
419.9840174741727
 30
0.0
 10
202.8959808414826
 20
419.80882608569
 30
0.0
 10
203.0999619832918
 20
419.5834842415067
 30
0.0
 10
203.2880598675339
 20
419.3215021889314
 30
0.0
 10
203.4724241930928
 20
419.0109833895034
 30
0.0
 10
203.6402169356048
 20
418.6691750765698
 30
0.0
 10
203.8006107290698
 20
418.2823560518937
 30
0.0
 10
203.9438170146362
 20
417.8695011957527
 30
0.0
 10
204.0758611885382
 20
417.4177738354289
 30
0.0
 10
204.1901167414702
 20
416.9453995964266
 30
0.0
 10
204.2900563068608
 20
416.4422802724501
 30
0.0
 10
204.371664107033
 20
415.9241557931273
 30
0.0
 10
204.4366435238599
 20
415.3848028826246
 30
0.0
 10
204.482883375562
 20
414.8363323312128
 30
0.0
 10
204.511091517479
 20
414.277032183635
 30
0.0
 10
204.5203422956815
 20
413.71467268623
 30
0.0
 10
204.511091517479
 20
413.1523131888248
 30
0.0
 10
204.482883375562
 20
412.5930130412471
 30
0.0
 10
204.43664352386
 20
412.0445424898352
 30
0.0
 10
204.3716641070331
 20
411.5051895793325
 30
0.0
 10
204.2900563068612
 20
410.9870651000098
 30
0.0
 10
204.1901167414706
 20
410.4839457760332
 30
0.0
 10
204.0758611885386
 20
410.0115715370311
 30
0.0
 10
203.9438170146366
 20
409.5598441767066
 30
0.0
 10
203.8006107290702
 20
409.1469893205662
 30
0.0
 10
203.6402169356052
 20
408.7601702958898
 30
0.0
 10
203.4724241930931
 20
408.4183619829564
 30
0.0
 10
203.2880598675343
 20
408.1078431835281
 30
0.0
 10
203.0999619832923
 20
407.8458611309529
 30
0.0
 10
202.895980841483
 20
407.6205192867698
 30
0.0
 10
202.6898740734224
 20
407.4453278982869
 30
0.0
 10
202.4700317931198
 20
407.3126431610644
 30
0.0
 10
202.246642018005
 20
407.2351233399554
 30
0.0
 10
202.0172453793136
 20
407.2048426145543
 30
0.0
 10
201.7878487406213
 20
407.2351233399554
 30
0.0
 10
201.564458965509
 20
407.3126431610641
 30
0.0
 10
201.3446166851971
 20
407.4453278982865
 30
0.0
 10
201.138509917178
 20
407.6205192867706
 30
0.0
 10
200.9345287751987
 20
407.8458611309496
 30
0.0
 10
200.7464308917155
 20
408.1078431835426
 30
0.0
 10
200.5620665630565
 20
408.418361982898
 30
0.0
 10
200.3942738340768
 20
408.7601702961482
 30
0.0
 10
200.2338799861633
 20
409.1469893195504
 30
0.0
 10
200.0906739308255
 20
409.5598441810782
 30
0.0
 10
199.9586288461718
 20
410.0115715200916
 30
0.0
 10
199.8443770253211
 20
410.4839458464218
 30
0.0
 10
199.7444229348339
 20
410.9870648305228
 30
0.0
 10
199.6628729551272
 20
411.5051906627972
 30
0.0
 10
199.6187403485833
 20
411.8702586935988
 30
0.0
 10
199.5986989532183
 20
412.0685448751959
 30
0.0
 10
199.5966700987657
 20
412.0890922201323
 30
0.0
 10
199.5956557034493
 20
412.0993655694314
 30
0.0
 11
199.595655703449
 21
415.3299798030275
 31
0.0
 11
199.5987107503964
 21
415.3607986587045
 31
0.0
 11
199.6018244271993
 21
415.3916136045151
 31
0.0
 11
199.6660399046757
 21
415.923700657254
 31
0.0
 11
199.7498633374127
 21
416.4530922898315
 31
0.0
 11
199.8477351113713
 21
416.9446432490399
 31
0.0
 11
199.9662410597692
 21
417.4317067009355
 31
0.0
 11
200.0942422397305
 21
417.8683312285112
 31
0.0
 11
200.2443623286257
 21
418.2979949668719
 31
0.0
 11
200.3980981491058
 21
418.667383391095
 31
0.0
 11
200.5758735698703
 21
419.0261110347556
 31
0.0
 11
200.7505056393031
 21
419.3187002402817
 31
0.0
 11
200.9512057546379
 21
419.5946791974277
 31
0.0
 11
201.1426076021359
 21
419.8041592093422
 31
0.0
 11
201.3610375412397
 21
419.9870372015327
 31
0.0
 11
201.5676983573122
 21
420.1089235617307
 31
0.0
 11
201.7955998348913
 21
420.1879276214751
 31
0.0
 11
202.0172453793131
 21
420.21467268623
 31
0.0
 11
202.2388909237349
 21
420.1879276214751
 31
0.0
 11
202.4667924013139
 21
420.1089235617306
 31
0.0
 11
202.6734532173863
 21
419.9870372015328
 31
0.0
 11
202.8918831564902
 21
419.8041592093422
 31
0.0
 11
203.0832850039882
 21
419.5946791974276
 31
0.0
 11
203.283985119323
 21
419.3187002402816
 31
0.0
 11
203.4586171887559
 21
419.0261110347554
 31
0.0
 11
203.6363926095205
 21
418.667383391095
 31
0.0
 11
203.7901284300006
 21
418.2979949668719
 31
0.0
 11
203.9402485188956
 21
417.8683312285112
 31
0.0
 11
204.068249698857
 21
417.4317067009357
 31
0.0
 11
204.1867556472549
 21
416.9446432490403
 31
0.0
 11
204.2846274212135
 21
416.4530922898317
 31
0.0
 11
204.3684508539506
 21
415.9237006572541
 31
0.0
 11
204.432666331427
 21
415.3916136045151
 31
0.0
 11
204.47975758152
 21
414.8361180045467
 31
0.0
 11
204.5078371484783
 21
414.279354562809
 31
0.0
 11
204.5172453793134
 21
413.7146726862299
 31
0.0
 11
204.5078371484784
 21
413.1499908096509
 31
0.0
 11
204.47975758152
 21
412.5932273679132
 31
0.0
 11
204.4326663314271
 21
412.0377317679448
 31
0.0
 11
204.3684508539507
 21
411.5056447152057
 31
0.0
 11
204.2846274212138
 21
410.976253082628
 31
0.0
 11
204.1867556472553
 21
410.4847021234195
 31
0.0
 11
204.0682496988575
 21
409.997638671524
 31
0.0
 11
203.9402485188961
 21
409.5610141439485
 31
0.0
 11
203.7901284300009
 21
409.1313504055877
 31
0.0
 11
203.6363926095208
 21
408.7619619813647
 31
0.0
 11
203.4586171887562
 21
408.4032343377043
 31
0.0
 11
203.2839851193234
 21
408.110645132178
 31
0.0
 11
203.0832850039886
 21
407.834666175032
 31
0.0
 11
202.8918831564907
 21
407.6251861631176
 31
0.0
 11
202.6734532173868
 21
407.4423081709271
 31
0.0
 11
202.4667924013143
 21
407.3204218107292
 31
0.0
 11
202.2388909237353
 21
407.2414177509847
 31
0.0
 11
202.0172453793134
 21
407.2146726862299
 31
0.0
 11
201.7955998348915
 21
407.2414177509846
 31
0.0
 11
201.5676983573126
 21
407.3204218107289
 31
0.0
 11
201.3610375412402
 21
407.4423081709268
 31
0.0
 11
201.1426076021364
 21
407.6251861631175
 31
0.0
 11
200.9512057546384
 21
407.8346661750319
 31
0.0
 11
200.7505056393035
 21
408.1106451321779
 31
0.0
 11
200.5758735698707
 21
408.4032343377039
 31
0.0
 11
200.3980981491062
 21
408.7619619813643
 31
0.0
 11
200.2443623286261
 21
409.1313504055873
 31
0.0
 11
200.0942422397309
 21
409.5610141439481
 31
0.0
 11
199.9662410597694
 21
409.9976386715239
 31
0.0
 11
199.8477351113715
 21
410.4847021234194
 31
0.0
 11
199.7498633374129
 21
410.976253082628
 31
0.0
 11
199.666039904676
 21
411.5056447152057
 31
0.0
 11
199.6018244271997
 21
412.0377317679445
 31
0.0
 11
199.598710750398
 21
412.0685467137433
 31
0.0
 11
199.5956557034493
 21
412.0993655694314
 31
0.0
  0
SPLINE
  5
297
330
1F
100
AcDbEntity
  8
1
  6
Continuous
 62
     7
100
AcDbSpline
210
0.0
220
0.0
230
1.0
 70
    11
 71
     3
 72
    79
 73
    75
 74
    73
 42
0.0000000001
 43
0.0000000001
 44
0.00000001
 40
0.0
 40
0.0
 40
0.0
 40
0.0
 40
0.2412068094785404
 40
0.481133835263671
 40
0.766012753972227
 40
1.049767124189459
 40
1.391007393036266
 40
1.731748941522643
 40
2.132110806033063
 40
2.532213930800461
 40
2.987347943100121
 40
3.442348250959481
 40
3.943621096800836
 40
4.444820886941185
 40
4.980807704427442
 40
5.516755704927416
 40
6.074243774234438
 40
6.63171484266414
 40
7.196475089622397
 40
7.761235336580555
 40
8.31870640501033
 40
8.876194474317238
 40
9.412142474817294
 40
9.948129292303584
 40
10.44932908244383
 40
10.9506019282853
 40
11.40560223614465
 40
11.86073624844432
 40
12.26083937321169
 40
12.661201237722
 40
13.00194278620821
 40
13.34318305505524
 40
13.62693742527249
 40
13.91181634398115
 40
14.15174336976616
 40
14.39295017924466
 40
14.61620350139423
 40
14.83945682354375
 40
15.08066363302226
 40
15.32059065880734
 40
15.60546957751604
 40
15.88922394773314
 40
16.23046421658007
 40
16.57120576506633
 40
16.97156762957659
 40
17.37167075434397
 40
17.82680476664368
 40
18.28180507450311
 40
18.78307792034459
 40
19.2842777104849
 40
19.82026452797111
 40
20.35621252847107
 40
20.91370059777794
 40
21.47117166620773
 40
22.03593191316602
 40
22.60069216012426
 40
23.15816322855397
 40
23.71565129786078
 40
24.25159929836068
 40
24.78758611584695
 40
25.28878590598734
 40
25.79005875182893
 40
26.24505905968836
 40
26.70019307198813
 40
27.10029619675548
 40
27.50065806126579
 40
27.84139960975197
 40
28.18263987859888
 40
28.46639424881604
 40
28.75127316752472
 40
28.9912001933097
 40
29.23240700278814
 40
29.45566032493759
 40
29.67891364708711
 40
29.67891364708711
 40
29.67891364708711
 40
29.67891364708711
 10
189.588568563499
 20
421.2098732961121
 30
0.0
 10
189.5330944085609
 20
421.2685200400341
 30
0.0
 10
189.4224404308351
 20
421.3855023627551
 30
0.0
 10
189.3004677762563
 20
421.6124818172428
 30
0.0
 10
189.2089187550543
 20
421.8665805242767
 30
0.0
 10
189.1451281293081
 20
422.1639211684555
 30
0.0
 10
189.1131607761465
 20
422.4847901613792
 30
0.0
 10
189.1087738707606
 20
422.8459080324362
 30
0.0
 10
189.1343596762832
 20
423.2258133083668
 30
0.0
 10
189.1888657048561
 20
423.6410069823261
 30
0.0
 10
189.271272362702
 20
424.0701524117471
 30
0.0
 10
189.3827825732391
 20
424.5273820128264
 30
0.0
 10
189.5200214404341
 20
424.993597837918
 30
0.0
 10
189.6850309114332
 20
425.4792817482149
 30
0.0
 10
189.873418719719
 20
425.9687946063172
 30
0.0
 10
190.0868213501809
 20
426.4683776377699
 30
0.0
 10
190.3210117393936
 20
426.9664869941099
 30
0.0
 10
190.5762328457576
 20
427.4649592012823
 30
0.0
 10
190.8494011855131
 20
427.9566022011763
 30
0.0
 10
191.138592343149
 20
428.4389944228925
 30
0.0
 10
191.4426713844301
 20
428.9092584880756
 30
0.0
 10
191.7569515463776
 20
429.3611279929751
 30
0.0
 10
192.0829018273241
 20
429.7957316066621
 30
0.0
 10
192.4126384950815
 20
430.203636667992
 30
0.0
 10
192.7507483595412
 20
430.5893810009955
 30
0.0
 10
193.085883690405
 20
430.9413413155985
 30
0.0
 10
193.4261009795879
 20
431.2665265982728
 30
0.0
 10
193.7565486889403
 20
431.552466248983
 30
0.0
 10
194.0888633010286
 20
431.8072644542873
 30
0.0
 10
194.4050802350813
 20
432.0193827652565
 30
0.0
 10
194.7200038242809
 20
432.1961177711343
 30
0.0
 10
195.0138923967203
 20
432.328951941879
 30
0.0
 10
195.3032161695116
 20
432.4221131325729
 30
0.0
 10
195.5693055607856
 20
432.470779941493
 30
0.0
 10
195.8260369289648
 20
432.4757671544711
 30
0.0
 10
196.0582580597143
 20
432.4312064012904
 30
0.0
 10
196.2720617390646
 20
432.3427319593874
 30
0.0
 10
196.4555846930137
 20
432.2018097625989
 30
0.0
 10
196.6102860026543
 20
432.0229807406645
 30
0.0
 10
196.7343326336109
 20
431.7981512473839
 30
0.0
 10
196.8252306364015
 20
431.5433776704028
 30
0.0
 10
196.88921256501
 20
431.2462353379001
 30
0.0
 10
196.9211190848742
 20
430.9253032829134
 30
0.0
 10
196.9255238746454
 20
430.5642039514766
 30
0.0
 10
196.8999324957647
 20
430.1842928979957
 30
0.0
 10
196.8454280831766
 20
429.7691008992263
 30
0.0
 10
196.7630209363886
 20
429.3399549629496
 30
0.0
 10
196.6515108652472
 20
428.8827255063731
 30
0.0
 10
196.5142719571089
 20
428.4165096388381
 30
0.0
 10
196.3492624975919
 20
427.9308257404439
 30
0.0
 10
196.1608746860264
 20
427.441312878942
 30
0.0
 10
195.9474720564702
 20
426.9417298484281
 30
0.0
 10
195.7132816670056
 20
426.4436204918268
 30
0.0
 10
195.4580605607104
 20
425.9451482847258
 30
0.0
 10
195.1848922209357
 20
425.4535052848116
 30
0.0
 10
194.8957010633063
 20
424.9711130631022
 30
0.0
 10
194.591622022019
 20
424.500848997913
 30
0.0
 10
194.2773418600891
 20
424.0489794930319
 30
0.0
 10
193.9513915790803
 20
423.6143758792803
 30
0.0
 10
193.6216549115492
 20
423.2064708181846
 30
0.0
 10
193.283545046297
 20
422.82072648436
 30
0.0
 10
192.9484097182589
 20
422.4687661726858
 30
0.0
 10
192.6081924194552
 20
422.1435808800388
 30
0.0
 10
192.2777447438482
 20
421.85764126431
 30
0.0
 10
191.9454300202291
 20
421.6028429433885
 30
0.0
 10
191.6292134708344
 20
421.3907250311703
 30
0.0
 10
191.3142886473034
 20
421.2139887457385
 30
0.0
 10
191.0204042734115
 20
421.0811589273647
 30
0.0
 10
190.7310672974215
 20
420.987984049743
 30
0.0
 10
190.4650228376521
 20
420.9393638184949
 30
0.0
 10
190.2081483293136
 20
420.9342282210933
 30
0.0
 10
189.9764308709614
 20
420.9793110998515
 30
0.0
 10
189.7608770116146
 20
421.0659712399441
 30
0.0
 10
189.6460047128709
 20
421.161905944056
 30
0.0
 10
189.588568563499
 20
421.2098732961121
 30
0.0
 11
189.588568563499
 21
421.2098732961121
 31
0.0
 11
189.4307021242277
 21
421.3922435576423
 31
0.0
 11
189.312671787641
 21
421.6011306499848
 31
0.0
 11
189.2149449075252
 21
421.8687226065669
 31
0.0
 11
189.1539260512179
 21
422.1458385422189
 31
0.0
 11
189.1181041313686
 21
422.4851933876845
 31
0.0
 11
189.1131629256875
 21
422.8258991072598
 31
0.0
 11
189.1385687169671
 21
423.2254540700918
 31
0.0
 11
189.1901238030713
 21
423.6222217395729
 31
0.0
 11
189.2749478616501
 21
424.0693814965258
 31
0.0
 11
189.3824078518769
 21
424.5115100193024
 31
0.0
 11
189.5233104160124
 21
424.9925723160976
 31
0.0
 11
189.6843264530551
 21
425.4672038210062
 31
0.0
 11
189.8764290471614
 21
425.9675821397378
 31
0.0
 11
190.0868603387202
 21
426.4604907831727
 31
0.0
 11
190.323825919828
 21
426.9651097094824
 31
0.0
 11
190.5778900223837
 21
427.4613207774048
 31
0.0
 11
190.8520831937653
 21
427.9550537429965
 31
0.0
 11
191.1425718989628
 21
428.4393784777531
 31
0.0
 11
191.4452712381448
 21
428.9075099787173
 31
0.0
 11
191.7638012570054
 21
429.3650376549339
 31
0.0
 11
192.0854570181857
 21
429.7937308208925
 31
0.0
 11
192.4227460566572
 21
430.2102857068871
 31
0.0
 11
192.753280978823
 21
430.5870454378371
 31
0.0
 11
193.0994418665829
 21
430.9496017862345
 31
0.0
 11
193.4286064039317
 21
431.2637291290496
 31
0.0
 11
193.7734460837136
 21
431.5607687971074
 31
0.0
 11
194.0912794218325
 21
431.8038006461084
 31
0.0
 11
194.4246012742133
 21
432.0255801881757
 31
0.0
 11
194.7221316854206
 21
432.191653838318
 31
0.0
 11
195.033932562416
 21
432.330308568449
 31
0.0
 11
195.3044314306378
 21
432.4160226566031
 31
0.0
 11
195.5850363029442
 21
432.4651846740813
 31
0.0
 11
195.8249529997288
 21
432.4674109503513
 31
0.0
 11
196.0618234987444
 21
432.4218797343026
 31
0.0
 11
196.2671467032268
 21
432.3342188675952
 31
0.0
 11
196.4457248429544
 21
432.2002341898807
 31
0.0
 11
196.6035912822256
 21
432.0178639283504
 31
0.0
 11
196.7216216188121
 21
431.8089768360078
 31
0.0
 11
196.8193484989277
 21
431.5413848794256
 31
0.0
 11
196.8803673552351
 21
431.2642689437736
 31
0.0
 11
196.9161892750845
 21
430.924914098308
 31
0.0
 11
196.9211304807656
 21
430.5842083787328
 31
0.0
 11
196.8957246894859
 21
430.1846534159009
 31
0.0
 11
196.8441696033818
 21
429.7878857464199
 31
0.0
 11
196.7593455448031
 21
429.3407259894669
 31
0.0
 11
196.6518855545763
 21
428.8985974666903
 31
0.0
 11
196.5109829904407
 21
428.4175351698949
 31
0.0
 11
196.3499669533979
 21
427.9429036649864
 31
0.0
 11
196.1578643592916
 21
427.4425253462548
 31
0.0
 11
195.9474330677329
 21
426.9496167028199
 31
0.0
 11
195.7104674866252
 21
426.4449977765104
 31
0.0
 11
195.4564033840695
 21
425.9487867085878
 31
0.0
 11
195.1822102126879
 21
425.455053742996
 31
0.0
 11
194.8917215074904
 21
424.9707290082395
 31
0.0
 11
194.5890221683083
 21
424.5025975072754
 31
0.0
 11
194.2704921494477
 21
424.0450698310589
 31
0.0
 11
193.9488363882676
 21
423.6163766651004
 31
0.0
 11
193.6115473497961
 21
423.1998217791057
 31
0.0
 11
193.2810124276302
 21
422.8230620481557
 31
0.0
 11
192.9348515398702
 21
422.4605056997582
 31
0.0
 11
192.6056870025213
 21
422.1463783569431
 31
0.0
 11
192.2608473227393
 21
421.8493386888852
 31
0.0
 11
191.9430139846205
 21
421.6063068398842
 31
0.0
 11
191.6096921322397
 21
421.3845272978168
 31
0.0
 11
191.3121617210323
 21
421.2184536476746
 31
0.0
 11
191.0003608440371
 21
421.0797989175437
 31
0.0
 11
190.7298619758153
 21
420.9940848293896
 31
0.0
 11
190.4492571035089
 21
420.9449228119113
 31
0.0
 11
190.2093404067244
 21
420.9426965356414
 31
0.0
 11
189.9724699077088
 21
420.98822775169
 31
0.0
 11
189.7671467032266
 21
421.0758886183976
 31
0.0
 11
189.588568563499
 21
421.2098732961121
 31
0.0
  0
SPLINE
  5
298
330
1F
100
AcDbEntity
  8
1
  6
Continuous
 62
     7
100
AcDbSpline
210
0.0
220
0.0
230
1.0
 70
    11
 71
     3
 72
    79
 73
    75
 74
    73
 42
0.0000000001
 43
0.0000000001
 44
0.00000001
 40
0.0
 40
0.0
 40
0.0
 40
0.0
 40
0.2412068094785912
 40
0.4811338352636394
 40
0.7660127539721606
 40
1.049767124189332
 40
1.391007393036377
 40
1.731748941522692
 40
2.132110806033065
 40
2.532213930800414
 40
2.987347943099979
 40
3.442348250959364
 40
3.94362109680076
 40
4.444820886941067
 40
4.980807704427354
 40
5.516755704927438
 40
6.074243774234557
 40
6.631714842664167
 40
7.196475089622386
 40
7.761235336580606
 40
8.31870640501039
 40
8.876194474317291
 40
9.412142474817319
 40
9.94812929230368
 40
10.44932908244389
 40
10.95060192828523
 40
11.40560223614447
 40
11.8607362484442
 40
12.26083937321167
 40
12.66120123772202
 40
13.0019427862083
 40
13.3431830550553
 40
13.62693742527243
 40
13.91181634398104
 40
14.15174336976597
 40
14.39295017924443
 40
14.61620350139401
 40
14.83945682354353
 40
15.0806636330221
 40
15.32059065880708
 40
15.60546957751564
 40
15.8892239477328
 40
16.2304642165798
 40
16.57120576506612
 40
16.97156762957652
 40
17.37167075434394
 40
17.82680476664363
 40
18.28180507450311
 40
18.78307792034461
 40
19.28427771048481
 40
19.82026452797089
 40
20.3562125284709
 40
20.9137005977778
 40
21.47117166620764
 40
22.03593191316585
 40
22.60069216012408
 40
23.15816322855386
 40
23.71565129786076
 40
24.25159929836065
 40
24.78758611584689
 40
25.28878590598728
 40
25.79005875182884
 40
26.24505905968823
 40
26.70019307198804
 40
27.10029619675546
 40
27.50065806126585
 40
27.841399609752
 40
28.18263987859891
 40
28.46639424881608
 40
28.75127316752469
 40
28.99120019330959
 40
29.23240700278813
 40
29.45566032493758
 40
29.67891364708704
 40
29.67891364708704
 40
29.67891364708704
 40
29.67891364708704
 10
334.043891767981
 20
426.9930271418079
 30
0.0
 10
334.0669442605978
 20
426.9156617424172
 30
0.0
 10
334.112926935005
 20
426.7613414253162
 30
0.0
 10
334.248510581439
 20
426.5422202806399
 30
0.0
 10
334.4227920061982
 20
426.335887149071
 30
0.0
 10
334.6484012447615
 20
426.1319725245616
 30
0.0
 10
334.9102982673393
 20
425.9438534881703
 30
0.0
 10
335.2208420647427
 20
425.7594953811335
 30
0.0
 10
335.5626425874913
 20
425.5917007007272
 30
0.0
 10
335.9494638709169
 20
425.4313074691509
 30
0.0
 10
336.3623180436367
 20
425.288101013576
 30
0.0
 10
336.8140455988019
 20
425.1560568881429
 30
0.0
 10
337.2864197805752
 20
425.0418013209743
 30
0.0
 10
337.7895391206013
 20
424.9418617595763
 30
0.0
 10
338.3076635953396
 20
424.860253958264
 30
0.0
 10
338.8470165071086
 20
424.7952745417518
 30
0.0
 10
339.395487058168
 20
424.7490346899625
 30
0.0
 10
339.9547872058417
 20
424.7208265480692
 30
0.0
 10
340.5171467032208
 20
424.7115757698603
 30
0.0
 10
341.0795062006328
 20
424.7208265480643
 30
0.0
 10
341.6388063482087
 20
424.7490346899811
 30
0.0
 10
342.1872768996211
 20
424.7952745416834
 30
0.0
 10
342.7266298101237
 20
424.8602539585103
 30
0.0
 10
343.2447542894468
 20
424.9418617586824
 30
0.0
 10
343.7478736134229
 20
425.0418013240728
 30
0.0
 10
344.2202478524251
 20
425.1560568770051
 30
0.0
 10
344.6719752127493
 20
425.2881010509069
 30
0.0
 10
345.0848300688898
 20
425.4313073364734
 30
0.0
 10
345.4716490935662
 20
425.5917011299383
 30
0.0
 10
345.8134574064997
 20
425.7594938724504
 30
0.0
 10
346.1239762059279
 20
425.9438581980091
 30
0.0
 10
346.385958258503
 20
426.1319560822514
 30
0.0
 10
346.6113001026862
 20
426.3359372240604
 30
0.0
 10
346.7864914911692
 20
426.5420439921212
 30
0.0
 10
346.9191762283919
 20
426.7618862724236
 30
0.0
 10
346.9966960495005
 20
426.9852760475385
 30
0.0
 10
347.0269767749018
 20
427.21467268623
 30
0.0
 10
346.9966960495005
 20
427.4440693249216
 30
0.0
 10
346.9191762283919
 20
427.6674591000364
 30
0.0
 10
346.7864914911692
 20
427.8873013803389
 30
0.0
 10
346.6113001026862
 20
428.0934081483995
 30
0.0
 10
346.3859582585029
 20
428.2973892902088
 30
0.0
 10
346.1239762059281
 20
428.4854871744509
 30
0.0
 10
345.8134574064995
 20
428.6698515000097
 30
0.0
 10
345.4716490935662
 20
428.8376442425216
 30
0.0
 10
345.0848300688897
 20
428.9980380359867
 30
0.0
 10
344.6719752127492
 20
429.1412443215533
 30
0.0
 10
344.2202478524248
 20
429.2732884954551
 30
0.0
 10
343.7478736134227
 20
429.3875440483873
 30
0.0
 10
343.2447542894462
 20
429.4874836137778
 30
0.0
 10
342.7266298101234
 20
429.5690914139498
 30
0.0
 10
342.1872768996207
 20
429.6340708307765
 30
0.0
 10
341.638806348209
 20
429.680310682479
 30
0.0
 10
341.0795062006312
 20
429.7085188243955
 30
0.0
 10
340.5171467032257
 20
429.717769602598
 30
0.0
 10
339.9547872058223
 20
429.7085188243958
 30
0.0
 10
339.3954870582379
 20
429.6803106824773
 30
0.0
 10
338.8470165068507
 20
429.6340708307811
 30
0.0
 10
338.3076635962605
 20
429.5690914139326
 30
0.0
 10
337.7895391172541
 20
429.4874836138395
 30
0.0
 10
337.2864197921698
 20
429.3875440481731
 30
0.0
 10
336.8140455571173
 20
429.2732884962236
 30
0.0
 10
336.3623181833458
 20
429.1412443189765
 30
0.0
 10
335.9494633743728
 20
428.9980380451433
 30
0.0
 10
335.5626441938036
 20
428.8376442128983
 30
0.0
 10
335.2208364185275
 20
428.6698516041345
 30
0.0
 10
334.9103158938077
 20
428.4854868493905
 30
0.0
 10
334.6483397097698
 20
428.2973904250115
 30
0.0
 10
334.42297941076
 20
428.0934046923608
 30
0.0
 10
334.2478508254769
 20
427.8873135472885
 30
0.0
 10
334.1149660134939
 20
427.6674214961835
 30
0.0
 10
334.0381502025986
 20
427.444206851371
 30
0.0
 10
334.0054231557404
 20
427.2142016632467
 30
0.0
 10
334.0310688972342
 20
427.0667519822876
 30
0.0
 10
334.043891767981
 20
426.9930271418079
 30
0.0
 11
334.043891767981
 21
426.9930271418079
 31
0.0
 11
334.1228958277254
 21
426.7651256642288
 31
0.0
 11
334.2447821879233
 21
426.5584648481563
 31
0.0
 11
334.4276601801139
 21
426.3400349090525
 31
0.0
 11
334.6371401920284
 21
426.1486330615545
 31
0.0
 11
334.9131191491744
 21
425.9479329462197
 31
0.0
 11
335.2057083547007
 21
425.773300876787
 31
0.0
 11
335.5644359983612
 21
425.5955254560224
 31
0.0
 11
335.9338244225841
 21
425.4417896355424
 31
0.0
 11
336.3634881609447
 21
425.2916695466472
 31
0.0
 11
336.8001126885203
 21
425.1636683666857
 31
0.0
 11
337.2871761404157
 21
425.0451624182878
 31
0.0
 11
337.7787270996243
 21
424.9472906443293
 31
0.0
 11
338.308118732202
 21
424.8634672115924
 31
0.0
 11
338.840205784941
 21
424.799251734116
 31
0.0
 11
339.3957013849096
 21
424.7521604840231
 31
0.0
 11
339.9524648266472
 21
424.7240809170647
 31
0.0
 11
340.5171467032263
 21
424.7146726862297
 31
0.0
 11
341.0818285798054
 21
424.7240809170648
 31
0.0
 11
341.6385920215431
 21
424.7521604840232
 31
0.0
 11
342.1940876215115
 21
424.7992517341162
 31
0.0
 11
342.7261746742504
 21
424.8634672115927
 31
0.0
 11
343.2555663068282
 21
424.9472906443297
 31
0.0
 11
343.7471172660367
 21
425.0451624182882
 31
0.0
 11
344.234180717932
 21
425.1636683666861
 31
0.0
 11
344.6708052455075
 21
425.2916695466475
 31
0.0
 11
345.1004689838683
 21
425.4417896355427
 31
0.0
 11
345.4698574080913
 21
425.5955254560228
 31
0.0
 11
345.8285850517518
 21
425.7733008767873
 31
0.0
 11
346.121174257278
 21
425.9479329462201
 31
0.0
 11
346.397153214424
 21
426.1486330615549
 31
0.0
 11
346.6066332263384
 21
426.3400349090529
 31
0.0
 11
346.789511218529
 21
426.5584648481568
 31
0.0
 11
346.911397578727
 21
426.7651256642291
 31
0.0
 11
346.9904016384713
 21
426.9930271418081
 31
0.0
 11
347.0171467032262
 21
427.21467268623
 31
0.0
 11
346.9904016384713
 21
427.4363182306519
 31
0.0
 11
346.911397578727
 21
427.664219708231
 31
0.0
 11
346.789511218529
 21
427.8708805243034
 31
0.0
 11
346.6066332263384
 21
428.0893104634072
 31
0.0
 11
346.397153214424
 21
428.2807123109052
 31
0.0
 11
346.121174257278
 21
428.48141242624
 31
0.0
 11
345.8285850517517
 21
428.6560444956728
 31
0.0
 11
345.4698574080912
 21
428.8338199164373
 31
0.0
 11
345.1004689838682
 21
428.9875557369174
 31
0.0
 11
344.6708052455074
 21
429.1376758258126
 31
0.0
 11
344.2341807179317
 21
429.265677005774
 31
0.0
 11
343.7471172660362
 21
429.3841829541719
 31
0.0
 11
343.2555663068278
 21
429.4820547281304
 31
0.0
 11
342.7261746742503
 21
429.5658781608674
 31
0.0
 11
342.1940876215113
 21
429.6300936383437
 31
0.0
 11
341.6385920215429
 21
429.6771848884367
 31
0.0
 11
341.0818285798051
 21
429.705264455395
 31
0.0
 11
340.5171467032261
 21
429.71467268623
 31
0.0
 11
339.952464826647
 21
429.7052644553949
 31
0.0
 11
339.3957013849092
 21
429.6771848884365
 31
0.0
 11
338.8402057849409
 21
429.6300936383435
 31
0.0
 11
338.308118732202
 21
429.5658781608672
 31
0.0
 11
337.7787270996244
 21
429.4820547281303
 31
0.0
 11
337.2871761404157
 21
429.3841829541717
 31
0.0
 11
336.8001126885201
 21
429.2656770057737
 31
0.0
 11
336.3634881609445
 21
429.1376758258123
 31
0.0
 11
335.9338244225837
 21
428.987555736917
 31
0.0
 11
335.5644359983606
 21
428.8338199164371
 31
0.0
 11
335.2057083547002
 21
428.6560444956724
 31
0.0
 11
334.9131191491741
 21
428.4814124262396
 31
0.0
 11
334.6371401920283
 21
428.2807123109049
 31
0.0
 11
334.4276601801138
 21
428.0893104634068
 31
0.0
 11
334.2447821879232
 21
427.870880524303
 31
0.0
 11
334.1228958277253
 21
427.6642197082306
 31
0.0
 11
334.0438917679809
 21
427.4363182306515
 31
0.0
 11
334.0171467032262
 21
427.2146726862297
 31
0.0
 11
334.043891767981
 21
426.9930271418079
 31
0.0
  0
SOLID
  5
299
330
1F
100
AcDbEntity
  8
1
 62
     2
100
AcDbTrace
 10
353.69904585155
 20
444.9076342542687
 30
0.0
 11
355.2952475549029
 21
443.9860667711569
 31
0.0
 12
350.9971467032264
 22
438.3846726862218
 32
0.0
 13
350.9971467032264
 23
438.3846726862218
 33
0.0
  0
LEADER
  5
29A
330
1F
100
AcDbEntity
  8
1
  6
Continuous
 62
     2
100
AcDbLeader
  3
Standard
 71
     0
 76
     3
 10
350.9971467032264
 20
438.3846726862218
 30
0.0
 10
366.4457289832806
 20
465.142402100184
 30
0.0
 10
392.7811869212351
 20
465.142402100184
 30
0.0
  0
SOLID
  5
29B
330
1F
100
AcDbEntity
  8
1
 62
     2
100
AcDbTrace
 10
214.730658086521
 20
231.5161061463939
 30
0.0
 11
213.134456383168
 21
230.5945386632821
 31
0.0
 12
210.4325572348445
 22
237.1175002313291
 32
0.0
 13
210.4325572348445
 23
237.1175002313291
 33
0.0
  0
LEADER
  5
29C
330
1F
100
AcDbEntity
  8
1
  6
Continuous
 62
     2
100
AcDbLeader
  3
Standard
 71
     0
 76
     3
 10
210.4325572348445
 20
237.1175002313291
 30
0.0
 10
230.8305980633232
 20
201.7870571415396
 30
0.0
 10
261.183536384666
 20
201.7870571415396
 30
0.0
  0
SOLID
  5
29D
330
1F
100
AcDbEntity
  8
1
 62
     2
100
AcDbTrace
 10
87.70973572255173
 20
263.6629946335575
 30
0.0
 11
89.30593742590469
 21
264.5845621166693
 31
0.0
 12
92.00783657422826
 22
258.0616005486223
 32
0.0
 13
92.00783657422826
 23
258.0616005486223
 33
0.0
  0
LEADER
  5
29E
330
1F
100
AcDbEntity
  8
1
  6
Continuous
 62
     2
100
AcDbLeader
  3
Standard
 71
     0
 76
     3
 10
92.00783657422826
 20
258.0616005486223
 30
0.0
 10
80.02974634628987
 20
278.8082614010559
 30
0.0
 10
58.33887679879882
 20
278.8082614010559
 30
0.0
  0
SOLID
  5
29F
330
1F
100
AcDbEntity
  8
1
 62
     2
100
AcDbTrace
 10
205.1104853459777
 20
426.6569497972412
 30
0.0
 11
206.7066870493306
 21
425.7353823141294
 31
0.0
 12
202.4085861976541
 22
420.1339882291943
 32
0.0
 13
202.4085861976541
 23
420.1339882291943
 33
0.0
  0
LEADER
  5
2A0
330
1F
100
AcDbEntity
  8
1
  6
Continuous
 62
     2
100
AcDbLeader
  3
Standard
 71
     0
 76
     3
 10
202.4085861976541
 20
420.1339882291943
 30
0.0
 10
217.5017568681718
 20
446.2761266778393
 30
0.0
 10
238.6926264156628
 20
446.2761266778393
 30
0.0
  0
SOLID
  5
2A1
330
1F
100
AcDbEntity
  8
1
 62
     2
100
AcDbTrace
 10
196.2885024901473
 20
380.3916330568727
 30
0.0
 11
194.6923007867944
 21
379.4700655737609
 31
0.0
 12
191.9904016384708
 22
385.9930271418078
 32
0.0
 13
191.9904016384708
 23
385.9930271418078
 33
0.0
  0
LEADER
  5
2A2
330
1F
100
AcDbEntity
  8
1
  6
Continuous
 62
     2
100
AcDbLeader
  3
Standard
 71
     0
 76
     3
 10
191.9904016384708
 20
385.9930271418078
 30
0.0
 10
207.0835723089884
 20
359.8508886931628
 30
0.0
 10
228.2744418564795
 20
359.8508886931628
 30
0.0
  0
SOLID
  5
2A3
330
1F
100
AcDbEntity
  8
1
 62
     2
100
AcDbTrace
 10
188.3382712201202
 20
436.10266219811
 30
0.0
 11
189.9111277925549
 21
437.0635309228921
 31
0.0
 12
192.7739607903642
 22
430.6095806711019
 32
0.0
 13
192.7739607903642
 23
430.6095806711019
 33
0.0
  0
LEADER
  5
2A4
330
1F
100
AcDbEntity
  8
1
  6
Continuous
 62
     2
100
AcDbLeader
  3
Standard
 71
     0
 76
     3
 10
192.7739607903642
 20
430.6095806711019
 30
0.0
 10
173.5377776290198
 20
462.097500231329
 30
0.0
 10
152.3469080815287
 20
462.097500231329
 30
0.0
  0
SOLID
  5
2A5
330
1F
100
AcDbEntity
  8
1
 62
     2
100
AcDbTrace
 10
330.1110438164412
 20
433.671117129479
 30
0.0
 11
331.7072455197941
 21
434.5926846125908
 31
0.0
 12
334.4091446681177
 22
428.0697230445439
 32
0.0
 13
334.4091446681177
 23
428.0697230445439
 33
0.0
  0
LEADER
  5
2A6
330
1F
100
AcDbEntity
  8
1
  6
Continuous
 62
     2
100
AcDbLeader
  3
Standard
 71
     0
 76
     3
 10
334.4091446681177
 20
428.0697230445439
 30
0.0
 10
321.4738226028011
 20
450.4743580739391
 30
0.0
 10
299.28295305531
 20
450.4743580739391
 30
0.0
  0
MTEXT
  5
2A8
330
1F
100
AcDbEntity
  8
1
 62
     7
100
AcDbMText
 10
187.5
 20
34.0
 30
0.0
 40
7.0
 41
0.0
 71
     5
 72
     1
  1
2
  7
CONVERTER_2
 73
     1
 44
0.7202881152461
  0
MTEXT
  5
2A9
330
1F
100
AcDbEntity
  8
1
 62
     7
100
AcDbMText
 10
170.5
 20
34.0
 30
0.0
 40
7.0
 41
0.0
 71
     5
 72
     1
  1
1
  7
CONVERTER_2
 73
     1
 44
0.7202881152461
  0
MTEXT
  5
2AA
330
1F
100
AcDbEntity
  8
1
 62
     7
100
AcDbMText
 10
68.0
 20
75.0
 30
0.0
 40
7.0
 41
0.0
 71
     4
 72
     1
  1
JIS
  7
CONVERTER_2
 73
     1
 44
0.7202881152461
  0
MTEXT
  5
2AB
330
1F
100
AcDbEntity
  8
1
 62
     7
100
AcDbMText
 10
246.0070672239946
 20
207.7870571415397
 30
0.0
 40
7.0
 41
0.0
 71
     5
 72
     1
  1
PJ1/2
  7
CONVERTER_2
 73
     1
 44
0.7202881152461
  0
MTEXT
  5
2AC
330
1F
100
AcDbEntity
  8
1
 62
     7
100
AcDbMText
 10
185.1414146571215
 20
386.2404584529979
 30
0.0
 40
4.0
 41
0.0
 71
     5
 72
     1
  1
B
  7
CONVERTER_2
 11
-1.0
 21
1.224606353822377E-16
 31
0.0
 73
     1
 44
0.7202881152461
  0
MTEXT
  5
2AD
330
1F
100
AcDbEntity
  8
1
 62
     7
100
AcDbMText
 10
202.0172453793133
 20
413.7146726862301
 30
0.0
 40
4.0
 41
0.0
 71
     5
 72
     1
  1
A
  7
CONVERTER_2
 11
6.123031769111886E-17
 21
-1.0
 31
0.0
 73
     1
 44
0.7202881152461
  0
MTEXT
  5
2AE
330
1F
100
AcDbEntity
  8
1
 62
     7
100
AcDbMText
 10
193.0171467032257
 20
426.7050537429949
 30
0.0
 40
4.0
 41
0.0
 71
     5
 72
     1
  1
A
  7
CONVERTER_2
 11
0.5000000000000002
 21
0.8660254037844385
 31
0.0
 73
     1
 44
0.7202881152461
  0
MTEXT
  5
2AF
330
1F
100
AcDbEntity
  8
1
 62
     7
100
AcDbMText
 10
219.1790070827339
 20
365.8508886931629
 30
0.0
 40
7.0
 41
0.0
 71
     5
 72
     1
  1
B
  7
CONVERTER_2
 73
     1
 44
0.7202881152461
  0
MTEXT
  5
2B0
330
1F
100
AcDbEntity
  8
1
 62
     7
100
AcDbMText
 10
219.1790070827339
 20
353.8508886931628
 30
0.0
 40
7.0
 41
0.0
 71
     5
 72
     1
  1
シール
  7
CONVERTER_1
 73
     1
 44
0.7202881152461
  0
MTEXT
  5
2B1
330
1F
100
AcDbEntity
  8
1
 62
     7
100
AcDbMText
 10
229.5971916419173
 20
452.2761266778395
 30
0.0
 40
7.0
 41
0.0
 71
     5
 72
     1
  1
A
  7
CONVERTER_2
 73
     1
 44
0.7202881152461
  0
MTEXT
  5
2B2
330
1F
100
AcDbEntity
  8
1
 62
     7
100
AcDbMText
 10
229.5971916419173
 20
440.2761266778393
 30
0.0
 40
7.0
 41
0.0
 71
     5
 72
     1
  1
シール
  7
CONVERTER_1
 73
     1
 44
0.7202881152461
  0
MTEXT
  5
2B3
330
1F
100
AcDbEntity
  8
1
 62
     7
100
AcDbMText
 10
161.4423428552743
 20
468.0975002313292
 30
0.0
 40
7.0
 41
0.0
 71
     5
 72
     1
  1
A
  7
CONVERTER_2
 73
     1
 44
0.7202881152461
  0
MTEXT
  5
2B4
330
1F
100
AcDbEntity
  8
1
 62
     7
100
AcDbMText
 10
161.4423428552742
 20
456.0975002313291
 30
0.0
 40
7.0
 41
0.0
 71
     5
 72
     1
  1
シール
  7
CONVERTER_1
 73
     1
 44
0.7202881152461
  0
MTEXT
  5
2B5
330
1F
100
AcDbEntity
  8
1
 62
     7
100
AcDbMText
 10
310.3783878290555
 20
444.4743580739391
 30
0.0
 40
7.0
 41
0.0
 71
     5
 72
     1
  1
シール
  7
CONVERTER_1
 73
     1
 44
0.7202881152461
  0
MTEXT
  5
2B6
330
1F
100
AcDbEntity
  8
1
 62
     7
100
AcDbMText
 10
310.3783878290554
 20
456.4743580739391
 30
0.0
 40
7.0
 41
0.0
 71
     5
 72
     1
  1
B
  7
CONVERTER_2
 73
     1
 44
0.7202881152461
  0
MTEXT
  5
2B7
330
1F
100
AcDbEntity
  8
1
 62
     7
100
AcDbMText
 10
114.0
 20
28.5
 30
0.0
 40
7.0
 41
0.0
 71
     5
 72
     1
  1
V2220LAD-X2-13
  7
CONVERTER_2
 73
     1
 44
0.90036014405762
  0
MTEXT
  5
2B8
330
1F
100
AcDbEntity
  8
1
 62
     7
100
AcDbMText
 10
114.0
 20
45.50000000000002
 30
0.0
 40
7.0
 41
0.0
 71
     5
 72
     1
  1
D式分岐止水栓本体
  7
CONVERTER_1
 73
     1
 44
0.7202881152461
  0
MTEXT
  5
2B9
330
1F
100
AcDbEntity
  8
1
 62
     7
100
AcDbMText
 10
379.6134579522578
 20
471.1424021001841
 30
0.0
 40
7.0
 41
0.0
 71
     5
 72
     1
  1
PJ1/2
  7
CONVERTER_2
 73
     1
 44
0.7202881152461
  0
MTEXT
  5
2BA
330
1F
100
AcDbEntity
  8
1
 62
     7
100
AcDbMText
 10
69.8190987690472
 20
284.8082614010559
 30
0.0
 40
7.0
 41
0.0
 71
     5
 72
     1
  1
R1/2
  7
CONVERTER_2
 73
     1
 44
0.7202881152461
  0
MTEXT
  5
2BB
330
1F
100
AcDbEntity
  8
1
 62
     7
100
AcDbMText
 10
68.0
 20
61.00000000000001
 30
0.0
 40
7.0
 41
0.0
 71
     4
 72
     1
  1
共用形
  7
CONVERTER_1
 73
     1
 44
0.7202881152461
  0
MTEXT
  5
2BC
330
1F
100
AcDbEntity
  8
1
 62
     7
100
AcDbMText
 10
340.5171467032263
 20
427.240458452998
 30
0.0
 40
4.0
 41
0.0
 71
     5
 72
     1
  1
B
  7
CONVERTER_2
 73
     1
 44
0.7202881152461
  0
DIMENSION
  5
2C7
330
1F
100
AcDbEntity
  8
1
100
AcDbDimension
  2
*D011
 10
244.0171467032345
 20
247.597500231329
 30
0.0
 11
238.5171467032345
 21
279.9975002313299
 31
0.0
  1
65リフト4
 71
     5
 42
0.0
 53
90.0
  3
ME10_DIM_0
100
AcDbAlignedDimension
 13
185.5171467032503
 23
312.3975002313308
 33
0.0
 14
230.0171467032345
 24
247.597500231329
 34
0.0
 50
90.0
100
AcDbRotatedDimension
  0
DIMENSION
  5
2D5
330
1F
100
AcDbEntity
  8
1
100
AcDbDimension
  2
*D112
 10
244.0171467032345
 20
229.3975002313291
 30
0.0
 11
238.5171467032345
 21
238.4975002313291
 31
0.0
  1
19
 71
     5
 42
0.0
 53
90.0
  3
ME10_DIM_1
100
AcDbAlignedDimension
 13
230.0171467032345
 23
247.597500231329
 33
0.0
 14
204.5171467032504
 24
229.3975002313291
 34
0.0
 50
90.0
100
AcDbRotatedDimension
  0
DIMENSION
  5
2E0
330
1F
100
AcDbEntity
  8
1
100
AcDbDimension
  2
*D214
 10
390.5171467032261
 20
361.2149687144911
 30
0.0
 11
385.0171467032261
 21
387.4648207003605
 31
0.0
  1
53リフト4
 71
     5
 42
0.0
 53
90.0
  3
ME10_DIM_2
100
AcDbAlignedDimension
 13
376.5171467032261
 23
413.7146726862299
 33
0.0
 14
344.2671467032261
 24
361.2149687144911
 34
0.0
 50
90.0
100
AcDbRotatedDimension
  0
DIMENSION
  5
2EB
330
1F
100
AcDbEntity
  8
1
100
AcDbDimension
  2
*D315
 10
390.5171467032261
 20
413.71467268623
 30
0.0
 11
385.0171467032261
 21
430.714672686222
 31
0.0
  1
<>
 71
     5
 42
0.0
 53
90.0
  3
ME10_DIM_3
100
AcDbAlignedDimension
 13
349.8371467032262
 23
447.714672686214
 33
0.0
 14
376.5171467032261
 24
413.7146726862299
 34
0.0
 50
90.0
100
AcDbRotatedDimension
  0
DIMENSION
  5
2F6
330
1F
100
AcDbEntity
  8
1
100
AcDbDimension
  2
*D416
 10
85.01714670324935
 20
183.0975002313291
 30
0.0
 11
135.2671467032499
 21
188.5975002313291
 31
0.0
  1
100
 71
     5
 42
0.0
 53
0.00013888888889
  3
ME10_DIM_4
100
AcDbAlignedDimension
 13
185.5171467032504
 23
223.3975002313291
 33
0.0
 14
85.01714670324932
 24
238.4954880120408
 34
0.0
100
AcDbRotatedDimension
  0
DIMENSION
  5
301
330
1F
100
AcDbEntity
  8
1
100
AcDbDimension
  2
*D517
 10
224.0171467032345
 20
199.0975002313291
 30
0.0
 11
204.7671467032425
 21
204.5975002313291
 31
0.0
  1
39
 71
     5
 42
0.0
 53
0.00013888888889
  3
ME10_DIM_5
100
AcDbAlignedDimension
 13
185.5171467032504
 23
229.3975002313291
 33
0.0
 14
224.0171467032345
 24
238.2775002313293
 34
0.0
100
AcDbRotatedDimension
  0
DIMENSION
  5
30C
330
1F
100
AcDbEntity
  8
1
100
AcDbDimension
  2
*D618
 10
152.017146703249
 20
199.0975002313291
 30
0.0
 11
168.7671467032497
 21
204.5975002313291
 31
0.0
  1
34
 71
     5
 42
0.0
 53
0.00013888888889
  3
ME10_DIM_6
100
AcDbAlignedDimension
 13
185.5171467032504
 23
229.3975002313291
 33
0.0
 14
152.017146703249
 24
234.597500231329
 34
0.0
100
AcDbRotatedDimension
  0
DIMENSION
  5
317
330
1F
100
AcDbEntity
  8
1
100
AcDbDimension
  2
*D719
 10
65.01714670322471
 20
443.7146726862299
 30
0.0
 11
59.51714670322471
 21
413.7146726862299
 31
0.0
  1
^N1^O60
 71
     5
 42
0.0
 53
90.0
  3
ME10_DIM_7
100
AcDbAlignedDimension
 13
105.0171467032243
 23
383.7146726862299
 33
0.0
 14
105.0171467032243
 24
443.7146726862299
 34
0.0
 50
90.0
100
AcDbRotatedDimension
  0
DIMENSION
  5
324
330
1F
100
AcDbEntity
  8
1
100
AcDbDimension
  2
*D820
 10
105.0171467032243
 20
457.714672686214
 30
0.0
 11
112.388771864123
 21
463.214672686214
 31
0.0
  1
<>
 71
     5
 42
0.0
 53
0.00013888888889
  3
ME10_DIM_8
100
AcDbAlignedDimension
 13
121.0171467032243
 23
425.9188411629173
 33
0.0
 14
105.0171467032243
 24
443.7146726862299
 34
0.0
100
AcDbRotatedDimension
  0
DIMENSION
  5
331
330
1F
100
AcDbEntity
  8
1
100
AcDbDimension
  2
*D921
 10
339.617146703226
 20
351.2149687144911
 30
0.0
 11
321.185472088525
 21
357.0649687144911
 31
0.0
  1
<>
 71
     5
 42
0.0
 53
0.00013888888889
  3
ME10_DIM_9
100
AcDbAlignedDimension
 13
341.4171467032263
 23
361.2149687144911
 33
0.0
 14
339.617146703226
 24
361.2149687144911
 34
0.0
100
AcDbRotatedDimension
  0
ENDSEC
  0
SECTION
  2
OBJECTS
  0
DICTIONARY
  5
C
330
0
100
AcDbDictionary
281
     1
  3
ACAD_GROUP
350
D
  3
ACAD_LAYOUT
350
1A
  3
ACAD_MLINESTYLE
350
17
  3
ACAD_PLOTSETTINGS
350
19
  3
ACAD_PLOTSTYLENAME
350
E
  3
ACAD_TABLESTYLE
350
2A
  3
AcDbVariableDictionary
350
2C
  0
DICTIONARY
  5
D
102
{ACAD_REACTORS
330
C
102
}
330
C
100
AcDbDictionary
281
     1
  0
DICTIONARY
  5
1A
102
{ACAD_REACTORS
330
C
102
}
330
C
100
AcDbDictionary
281
     1
  3
Layout1
350
1E
  3
Layout2
350
26
  3
Model
350
22
  0
DICTIONARY
  5
17
102
{ACAD_REACTORS
330
C
102
}
330
C
100
AcDbDictionary
281
     1
  3
Standard
350
18
  0
DICTIONARY
  5
19
102
{ACAD_REACTORS
330
C
102
}
330
C
100
AcDbDictionary
281
     1
  0
ACDBDICTIONARYWDFLT
  5
E
102
{ACAD_REACTORS
330
C
102
}
330
C
100
AcDbDictionary
281
     1
  3
Normal
350
F
100
AcDbDictionaryWithDefault
340
F
  0
DICTIONARY
  5
2A
102
{ACAD_REACTORS
330
C
102
}
330
C
100
AcDbDictionary
281
     1
  3
Standard
350
2B
  0
DICTIONARY
  5
2C
102
{ACAD_REACTORS
330
C
102
}
330
C
100
AcDbDictionary
281
     1
  3
CTABLESTYLE
350
2D
  0
LAYOUT
  5
1E
102
{ACAD_REACTORS
330
1A
102
}
330
1A
100
AcDbPlotSettings
  1

  2

  4

  6

 40
0.0
 41
0.0
 42
0.0
 43
0.0
 44
0.0
 45
0.0
 46
0.0
 47
0.0
 48
0.0
 49
0.0
140
0.0
141
0.0
142
1.0
143
1.0
 70
   688
 72
     0
 73
     0
 74
     5
  7

 75
    16
147
1.0
148
0.0
149
0.0
100
AcDbLayout
  1
Layout1
 70
     1
 71
     1
 10
0.0
 20
0.0
 11
12.0
 21
9.0
 12
0.0
 22
0.0
 32
0.0
 14
1.00000000000000E+20
 24
1.00000000000000E+20
 34
1.00000000000000E+20
 15
-1.00000000000000E+20
 25
-1.00000000000000E+20
 35
-1.00000000000000E+20
146
0.0
 13
0.0
 23
0.0
 33
0.0
 16
1.0
 26
0.0
 36
0.0
 17
0.0
 27
1.0
 37
0.0
 76
     0
330
1B
  0
LAYOUT
  5
26
102
{ACAD_REACTORS
330
1A
102
}
330
1A
100
AcDbPlotSettings
  1

  2

  4

  6

 40
0.0
 41
0.0
 42
0.0
 43
0.0
 44
0.0
 45
0.0
 46
0.0
 47
0.0
 48
0.0
 49
0.0
140
0.0
141
0.0
142
1.0
143
1.0
 70
   688
 72
     0
 73
     0
 74
     5
  7

 75
    16
147
1.0
148
0.0
149
0.0
100
AcDbLayout
  1
Layout2
 70
     1
 71
     2
 10
0.0
 20
0.0
 11
0.0
 21
0.0
 12
0.0
 22
0.0
 32
0.0
 14
0.0
 24
0.0
 34
0.0
 15
0.0
 25
0.0
 35
0.0
146
0.0
 13
0.0
 23
0.0
 33
0.0
 16
1.0
 26
0.0
 36
0.0
 17
0.0
 27
1.0
 37
0.0
 76
     0
330
23
  0
LAYOUT
  5
22
102
{ACAD_REACTORS
330
1A
102
}
330
1A
100
AcDbPlotSettings
  1

  2

  4

  6

 40
0.0
 41
0.0
 42
0.0
 43
0.0
 44
0.0
 45
0.0
 46
0.0
 47
0.0
 48
0.0
 49
0.0
140
0.0
141
0.0
142
1.0
143
1.0
 70
  1712
 72
     0
 73
     0
 74
     0
  7

 75
     0
147
1.0
148
0.0
149
0.0
100
AcDbLayout
  1
Model
 70
     1
 71
     0
 10
0.0
 20
0.0
 11
0.0
 21
0.0
 12
0.0
 22
0.0
 32
0.0
 14
0.0
 24
0.0
 34
0.0
 15
420.0
 25
594.0
 35
0.0
146
0.0
 13
0.0
 23
0.0
 33
0.0
 16
1.0
 26
0.0
 36
0.0
 17
0.0
 27
1.0
 37
0.0
 76
     0
330
1F
  0
MLINESTYLE
  5
18
102
{ACAD_REACTORS
330
17
102
}
330
17
100
AcDbMlineStyle
  2
Standard
 70
     0
  3

 62
   256
 51
90.0
 52
90.0
 71
     2
 49
0.5
 62
   256
  6
BYLAYER
 49
-0.5
 62
   256
  6
BYLAYER
  0
ACDBPLACEHOLDER
  5
F
102
{ACAD_REACTORS
330
E
102
}
330
E
  0
TABLESTYLE
  5
2B
102
{ACAD_REACTORS
330
2A
102
}
330
2A
100
AcDbTableStyle
  3
Standard
 70
     0
 71
     0
 40
0.06
 41
0.06
280
     0
281
     0
  7
Standard
140
0.18
170
     2
 62
     0
 63
     7
283
     0
274
    -2
284
     1
 64
     0
275
    -2
285
     1
 65
     0
276
    -2
286
     1
 66
     0
277
    -2
287
     1
 67
     0
278
    -2
288
     1
 68
     0
279
    -2
289
     1
 69
     0
  7
Standard
140
0.25
170
     5
 62
     0
 63
     7
283
     0
274
    -2
284
     1
 64
     0
275
    -2
285
     1
 65
     0
276
    -2
286
     1
 66
     0
277
    -2
287
     1
 67
     0
278
    -2
288
     1
 68
     0
279
    -2
289
     1
 69
     0
  7
Standard
140
0.18
170
     5
 62
     0
 63
     7
283
     0
274
    -2
284
     1
 64
     0
275
    -2
285
     1
 65
     0
276
    -2
286
     1
 66
     0
277
    -2
287
     1
 67
     0
278
    -2
288
     1
 68
     0
279
    -2
289
     1
 69
     0
  0
DICTIONARYVAR
  5
2D
102
{ACAD_REACTORS
330
2C
102
}
330
2C
100
DictionaryVariables
280
     0
  1
Standard
  0
ENDSEC
  0
EOF
