  0
SECTION
  2
HEADER
  9
$ACADVER
  1
AC1015
  9
$ACADMAINTVER
 70
     6
  9
$DWGCODEPAGE
  3
DOS932
  9
$INSBASE
 10
0.0
 20
0.0
 30
0.0
  9
$EXTMIN
 10
0.0
 20
0.0
 30
0.0
  9
$EXTMAX
 10
420.0
 20
594.0
 30
0.0
  9
$LIMMIN
 10
0.0
 20
0.0
  9
$LIMMAX
 10
12.0
 20
9.0
  9
$ORTHOMODE
 70
     0
  9
$REGENMODE
 70
     1
  9
$FILLMODE
 70
     1
  9
$QTEXTMODE
 70
     0
  9
$MIRRTEXT
 70
     1
  9
$LTSCALE
 40
1.0
  9
$ATTMODE
 70
     1
  9
$TEXTSIZE
 40
0.2
  9
$TRACEWID
 40
0.05
  9
$TEXTSTYLE
  7
Standard
  9
$CLAYER
  8
0
  9
$CELTYPE
  6
ByLayer
  9
$CECOLOR
 62
   256
  9
$CELTSCALE
 40
1.0
  9
$DISPSILH
 70
     0
  9
$DIMSCALE
 40
1.0
  9
$DIMASZ
 40
0.18
  9
$DIMEXO
 40
0.0625
  9
$DIMDLI
 40
0.38
  9
$DIMRND
 40
0.0
  9
$DIMDLE
 40
0.0
  9
$DIMEXE
 40
0.18
  9
$DIMTP
 40
0.0
  9
$DIMTM
 40
0.0
  9
$DIMTXT
 40
0.18
  9
$DIMCEN
 40
0.09
  9
$DIMTSZ
 40
0.0
  9
$DIMTOL
 70
     0
  9
$DIMLIM
 70
     0
  9
$DIMTIH
 70
     1
  9
$DIMTOH
 70
     1
  9
$DIMSE1
 70
     0
  9
$DIMSE2
 70
     0
  9
$DIMTAD
 70
     0
  9
$DIMZIN
 70
     0
  9
$DIMBLK
  1

  9
$DIMASO
 70
     1
  9
$DIMSHO
 70
     1
  9
$DIMPOST
  1

  9
$DIMAPOST
  1

  9
$DIMALT
 70
     0
  9
$DIMALTD
 70
     2
  9
$DIMALTF
 40
25.4
  9
$DIMLFAC
 40
1.0
  9
$DIMTOFL
 70
     0
  9
$DIMTVP
 40
0.0
  9
$DIMTIX
 70
     0
  9
$DIMSOXD
 70
     0
  9
$DIMSAH
 70
     0
  9
$DIMBLK1
  1

  9
$DIMBLK2
  1

  9
$DIMSTYLE
  2
Standard
  9
$DIMCLRD
 70
     0
  9
$DIMCLRE
 70
     0
  9
$DIMCLRT
 70
     0
  9
$DIMTFAC
 40
1.0
  9
$DIMGAP
 40
0.09
  9
$DIMJUST
 70
     0
  9
$DIMSD1
 70
     0
  9
$DIMSD2
 70
     0
  9
$DIMTOLJ
 70
     1
  9
$DIMTZIN
 70
     0
  9
$DIMALTZ
 70
     0
  9
$DIMALTTZ
 70
     0
  9
$DIMUPT
 70
     0
  9
$DIMDEC
 70
     4
  9
$DIMTDEC
 70
     4
  9
$DIMALTU
 70
     2
  9
$DIMALTTD
 70
     2
  9
$DIMTXSTY
  7
Standard
  9
$DIMAUNIT
 70
     0
  9
$DIMADEC
 70
     0
  9
$DIMALTRND
 40
0.0
  9
$DIMAZIN
 70
     0
  9
$DIMDSEP
 70
    46
  9
$DIMATFIT
 70
     3
  9
$DIMFRAC
 70
     0
  9
$DIMLDRBLK
  1

  9
$DIMLUNIT
 70
     2
  9
$DIMLWD
 70
    -2
  9
$DIMLWE
 70
    -2
  9
$DIMTMOVE
 70
     0
  9
$LUNITS
 70
     2
  9
$LUPREC
 70
     4
  9
$SKETCHINC
 40
0.1
  9
$FILLETRAD
 40
0.5
  9
$AUNITS
 70
     0
  9
$AUPREC
 70
     0
  9
$MENU
  1
.
  9
$ELEVATION
 40
0.0
  9
$PELEVATION
 40
0.0
  9
$THICKNESS
 40
0.0
  9
$LIMCHECK
 70
     0
  9
$CHAMFERA
 40
0.5
  9
$CHAMFERB
 40
0.5
  9
$CHAMFERC
 40
1.0
  9
$CHAMFERD
 40
0.0
  9
$SKPOLY
 70
     0
  9
$TDCREATE
 40
2456142.693248333
  9
$TDUCREATE
 40
2456142.318248333
  9
$TDUPDATE
 40
2456142.693248345
  9
$TDUUPDATE
 40
2456142.318248345
  9
$TDINDWG
 40
0.0000000116
  9
$TDUSRTIMER
 40
0.0000000116
  9
$USRTIMER
 70
     1
  9
$ANGBASE
 50
0.0
  9
$ANGDIR
 70
     0
  9
$PDMODE
 70
     0
  9
$PDSIZE
 40
0.0
  9
$PLINEWID
 40
0.0
  9
$SPLFRAME
 70
     0
  9
$SPLINETYPE
 70
     6
  9
$SPLINESEGS
 70
     8
  9
$HANDSEED
  5
2DA
  9
$SURFTAB1
 70
     6
  9
$SURFTAB2
 70
     6
  9
$SURFTYPE
 70
     6
  9
$SURFU
 70
     6
  9
$SURFV
 70
     6
  9
$UCSBASE
  2

  9
$UCSNAME
  2

  9
$UCSORG
 10
0.0
 20
0.0
 30
0.0
  9
$UCSXDIR
 10
1.0
 20
0.0
 30
0.0
  9
$UCSYDIR
 10
0.0
 20
1.0
 30
0.0
  9
$UCSORTHOREF
  2

  9
$UCSORTHOVIEW
 70
     0
  9
$UCSORGTOP
 10
0.0
 20
0.0
 30
0.0
  9
$UCSORGBOTTOM
 10
0.0
 20
0.0
 30
0.0
  9
$UCSORGLEFT
 10
0.0
 20
0.0
 30
0.0
  9
$UCSORGRIGHT
 10
0.0
 20
0.0
 30
0.0
  9
$UCSORGFRONT
 10
0.0
 20
0.0
 30
0.0
  9
$UCSORGBACK
 10
0.0
 20
0.0
 30
0.0
  9
$PUCSBASE
  2

  9
$PUCSNAME
  2

  9
$PUCSORG
 10
0.0
 20
0.0
 30
0.0
  9
$PUCSXDIR
 10
1.0
 20
0.0
 30
0.0
  9
$PUCSYDIR
 10
0.0
 20
1.0
 30
0.0
  9
$PUCSORTHOREF
  2

  9
$PUCSORTHOVIEW
 70
     0
  9
$PUCSORGTOP
 10
0.0
 20
0.0
 30
0.0
  9
$PUCSORGBOTTOM
 10
0.0
 20
0.0
 30
0.0
  9
$PUCSORGLEFT
 10
0.0
 20
0.0
 30
0.0
  9
$PUCSORGRIGHT
 10
0.0
 20
0.0
 30
0.0
  9
$PUCSORGFRONT
 10
0.0
 20
0.0
 30
0.0
  9
$PUCSORGBACK
 10
0.0
 20
0.0
 30
0.0
  9
$USERI1
 70
     0
  9
$USERI2
 70
     0
  9
$USERI3
 70
     0
  9
$USERI4
 70
     0
  9
$USERI5
 70
     0
  9
$USERR1
 40
13.2
  9
$USERR2
 40
0.0
  9
$USERR3
 40
0.0
  9
$USERR4
 40
0.0
  9
$USERR5
 40
0.0
  9
$WORLDVIEW
 70
     1
  9
$SHADEDGE
 70
     3
  9
$SHADEDIF
 70
    70
  9
$TILEMODE
 70
     1
  9
$MAXACTVP
 70
    64
  9
$PINSBASE
 10
0.0
 20
0.0
 30
0.0
  9
$PLIMCHECK
 70
     0
  9
$PEXTMIN
 10
1.00000000000000E+20
 20
1.00000000000000E+20
 30
1.00000000000000E+20
  9
$PEXTMAX
 10
-1.00000000000000E+20
 20
-1.00000000000000E+20
 30
-1.00000000000000E+20
  9
$PLIMMIN
 10
0.0
 20
0.0
  9
$PLIMMAX
 10
12.0
 20
9.0
  9
$UNITMODE
 70
     0
  9
$VISRETAIN
 70
     1
  9
$PLINEGEN
 70
     0
  9
$PSLTSCALE
 70
     1
  9
$TREEDEPTH
 70
  3020
  9
$CMLSTYLE
  2
Standard
  9
$CMLJUST
 70
     0
  9
$CMLSCALE
 40
1.0
  9
$PROXYGRAPHICS
 70
     1
  9
$MEASUREMENT
 70
     1
  9
$CELWEIGHT
370
    -1
  9
$ENDCAPS
280
     0
  9
$JOINSTYLE
280
     0
  9
$LWDISPLAY
290
     0
  9
$INSUNITS
 70
     1
  9
$HYPERLINKBASE
  1

  9
$STYLESHEET
  1

  9
$XEDIT
290
     1
  9
$CEPSNTYPE
380
     0
  9
$PSTYLEMODE
290
     0
  9
$FINGERPRINTGUID
  2
{FAEB1C30-E019-11D5-929B-00C0DF256EC4}
  9
$VERSIONGUID
  2
{FAEB1C32-E019-11D5-929B-00C0DF256EC4}
  9
$EXTNAMES
290
     1
  9
$PSVPSCALE
 40
0.0
  9
$OLESTARTUP
290
     0
  0
ENDSEC
  0
SECTION
  2
CLASSES
  0
CLASS
  1
ACDBDICTIONARYWDFLT
  2
AcDbDictionaryWithDefault
  3
ObjectDBX Classes
 90
        0
280
     0
281
     0
  0
CLASS
  1
TABLESTYLE
  2
AcDbTableStyle
  3
ObjectDBX Classes
 90
     2047
280
     0
281
     0
  0
CLASS
  1
DICTIONARYVAR
  2
AcDbDictionaryVar
  3
ObjectDBX Classes
 90
        0
280
     0
281
     0
  0
CLASS
  1

  2
exOdDbCircle
  3

 90
        0
280
     0
281
     1
  0
CLASS
  1

  2
exOdDbSpline
  3

 90
        0
280
     0
281
     1
  0
CLASS
  1
ACDBPLACEHOLDER
  2
AcDbPlaceHolder
  3
ObjectDBX Classes
 90
        0
280
     0
281
     0
  0
CLASS
  1
LAYOUT
  2
AcDbLayout
  3
ObjectDBX Classes
 90
        0
280
     0
281
     0
  0
ENDSEC
  0
SECTION
  2
TABLES
  0
TABLE
  2
VPORT
  5
8
330
0
100
AcDbSymbolTable
 70
     2
  0
VPORT
  5
29
330
8
100
AcDbSymbolTableRecord
100
AcDbViewportTableRecord
  2
*Active
 70
     0
 10
0.0
 20
0.0
 11
1.0
 21
1.0
 12
210.0
 22
297.0
 13
0.0
 23
0.0
 14
0.5
 24
0.5
 15
0.5
 25
0.5
 16
0.0
 26
0.0
 36
1.0
 17
0.0
 27
0.0
 37
0.0
 40
653.4000000000001
 41
1.60267857142857
 42
50.0
 43
0.0
 44
0.0
 50
0.0
 51
0.0
 71
     0
 72
   100
 73
     1
 74
     3
 75
     0
 76
     0
 77
     0
 78
     0
281
     0
 65
     1
110
0.0
120
0.0
130
0.0
111
1.0
121
0.0
131
0.0
112
0.0
122
1.0
132
0.0
 79
     0
146
0.0
  0
ENDTAB
  0
TABLE
  2
LTYPE
  5
5
330
0
100
AcDbSymbolTable
 70
     8
  0
LTYPE
  5
14
330
5
100
AcDbSymbolTableRecord
100
AcDbLinetypeTableRecord
  2
ByBlock
 70
     0
  3

 72
    65
 73
     0
 40
0.0
  0
LTYPE
  5
15
330
5
100
AcDbSymbolTableRecord
100
AcDbLinetypeTableRecord
  2
ByLayer
 70
     0
  3

 72
    65
 73
     0
 40
0.0
  0
LTYPE
  5
16
330
5
100
AcDbSymbolTableRecord
100
AcDbLinetypeTableRecord
  2
Continuous
 70
     0
  3
Solid line
 72
    65
 73
     0
 40
0.0
  0
LTYPE
  5
2E
330
5
100
AcDbSymbolTableRecord
100
AcDbLinetypeTableRecord
  2
DASHED
 70
     0
  3
Dashed
 72
    65
 73
     2
 40
15.0
 49
7.0
 74
     0
 49
-8.0
 74
     0
  0
LTYPE
  5
2F
330
5
100
AcDbSymbolTableRecord
100
AcDbLinetypeTableRecord
  2
DOTTED
 70
     0
  3
Dotted
 72
    65
 73
     2
 40
1.0
 49
0.0
 74
     0
 49
-1.0
 74
     0
  0
LTYPE
  5
30
330
5
100
AcDbSymbolTableRecord
100
AcDbLinetypeTableRecord
  2
DOT_CENTER
 70
     0
  3
Dot_Center
 72
    65
 73
     4
 40
14.0
 49
12.0
 74
     0
 49
-1.0
 74
     0
 49
0.0
 74
     0
 49
-1.0
 74
     0
  0
LTYPE
  5
31
330
5
100
AcDbSymbolTableRecord
100
AcDbLinetypeTableRecord
  2
LONG_DASHED
 70
     0
  3
Long_Dashed
 72
    65
 73
     2
 40
15.0
 49
10.0
 74
     0
 49
-5.0
 74
     0
  0
LTYPE
  5
32
330
5
100
AcDbSymbolTableRecord
100
AcDbLinetypeTableRecord
  2
DASH_CENTER
 70
     0
  3
Dash_Center
 72
    65
 73
     4
 40
14.0
 49
11.0
 74
     0
 49
-1.0
 74
     0
 49
1.0
 74
     0
 49
-1.0
 74
     0
  0
LTYPE
  5
33
330
5
100
AcDbSymbolTableRecord
100
AcDbLinetypeTableRecord
  2
PHANTOM
 70
     0
  3
Phantom
 72
    65
 73
     6
 40
13.0
 49
10.0
 74
     0
 49
-1.0
 74
     0
 49
0.0
 74
     0
 49
-1.0
 74
     0
 49
0.0
 74
     0
 49
-1.0
 74
     0
  0
LTYPE
  5
34
330
5
100
AcDbSymbolTableRecord
100
AcDbLinetypeTableRecord
  2
CENTER_DASH_DASH
 70
     0
  3
Center_Dash_Dash
 72
    65
 73
     6
 40
14.0
 49
9.0
 74
     0
 49
-1.0
 74
     0
 49
1.0
 74
     0
 49
-1.0
 74
     0
 49
1.0
 74
     0
 49
-1.0
 74
     0
  0
ENDTAB
  0
TABLE
  2
LAYER
  5
2
330
0
100
AcDbSymbolTable
 70
     2
  0
LAYER
  5
10
330
2
100
AcDbSymbolTableRecord
100
AcDbLayerTableRecord
  2
0
 70
     0
 62
     7
  6
Continuous
370
    -3
390
F
  0
LAYER
  5
35
330
2
100
AcDbSymbolTableRecord
100
AcDbLayerTableRecord
  2
1
 70
     0
 62
     7
  6
Continuous
370
    -3
390
F
  0
ENDTAB
  0
TABLE
  2
STYLE
  5
3
330
0
100
AcDbSymbolTable
 70
     3
  0
STYLE
  5
11
330
3
100
AcDbSymbolTableRecord
100
AcDbTextStyleTableRecord
  2
Standard
 70
     0
 40
0.0
 41
1.0
 50
0.0
 71
     0
 42
0.2
  3
txt
  4

  0
STYLE
  5
237
330
3
100
AcDbSymbolTableRecord
100
AcDbTextStyleTableRecord
  2
CONVERTER_1
 70
     0
 40
0.0
 41
0.89
 50
0.0
 71
     0
 42
0.2
  3
msmincho.ttc
  4

1001
ACAD
1000
MS Mincho
1071
    32785
  0
STYLE
  5
269
330
3
100
AcDbSymbolTableRecord
100
AcDbTextStyleTableRecord
  2
CONVERTER_2
 70
     0
 40
0.0
 41
0.9
 50
0.0
 71
     0
 42
0.2
  3
txt.shx
  4

  0
ENDTAB
  0
TABLE
  2
VIEW
  5
6
330
0
100
AcDbSymbolTable
 70
     0
  0
ENDTAB
  0
TABLE
  2
UCS
  5
7
330
0
100
AcDbSymbolTable
 70
     0
  0
ENDTAB
  0
TABLE
  2
APPID
  5
9
330
0
100
AcDbSymbolTable
 70
     1
  0
APPID
  5
12
330
9
100
AcDbSymbolTableRecord
100
AcDbRegAppTableRecord
  2
ACAD
 70
     0
  0
ENDTAB
  0
TABLE
  2
DIMSTYLE
  5
A
330
0
100
AcDbSymbolTable
 70
     8
100
AcDbDimStyleTable
  0
DIMSTYLE
105
27
330
A
100
AcDbSymbolTableRecord
100
AcDbDimStyleTableRecord
  2
Standard
 70
     0
340
11
  0
DIMSTYLE
105
291
102
{ACAD_REACTORS
330
292
102
}
330
A
100
AcDbSymbolTableRecord
100
AcDbDimStyleTableRecord
  2
ME10_DIM_0
 70
     0
 41
7.0
 42
0.0
 44
2.0
 73
     0
 74
     0
 77
     1
 78
     8
140
7.0
147
0.625
172
     1
173
     1
176
     2
177
     2
178
     7
271
     2
340
237
  0
DIMSTYLE
105
29C
102
{ACAD_REACTORS
330
29D
102
}
330
A
100
AcDbSymbolTableRecord
100
AcDbDimStyleTableRecord
  2
ME10_DIM_1
 70
     0
 41
7.0
 42
0.0
 44
2.0
 73
     0
 74
     0
 77
     1
 78
     8
140
7.0
147
0.625
172
     1
173
     1
176
     2
177
     2
178
     7
271
     2
340
269
  0
DIMSTYLE
105
2A7
102
{ACAD_REACTORS
330
2A8
102
}
330
A
100
AcDbSymbolTableRecord
100
AcDbDimStyleTableRecord
  2
ME10_DIM_2
 70
     0
 41
7.0
 42
0.0
 44
2.0
 73
     0
 74
     0
 77
     1
 78
     8
140
7.0
147
0.625
172
     1
173
     1
176
     2
177
     2
178
     7
271
     2
340
269
  0
DIMSTYLE
105
2B4
102
{ACAD_REACTORS
330
2B5
102
}
330
A
100
AcDbSymbolTableRecord
100
AcDbDimStyleTableRecord
  2
ME10_DIM_3
 70
     0
 41
7.0
 42
0.0
 44
2.0
 73
     0
 74
     0
 77
     1
 78
     8
140
7.0
147
0.625
172
     1
173
     1
176
     2
177
     2
178
     7
271
     2
340
269
  0
DIMSTYLE
105
2C2
102
{ACAD_REACTORS
330
2C3
102
}
330
A
100
AcDbSymbolTableRecord
100
AcDbDimStyleTableRecord
  2
ME10_DIM_4
 70
     0
 41
7.0
 42
0.0
 44
2.0
 73
     0
 74
     0
 77
     1
 78
     8
140
7.0
147
0.625
172
     1
173
     1
176
     2
177
     2
178
     7
271
     2
340
269
343
2BF
  0
DIMSTYLE
105
2CD
102
{ACAD_REACTORS
330
2CE
102
}
330
A
100
AcDbSymbolTableRecord
100
AcDbDimStyleTableRecord
  2
ME10_DIM_5
 70
     0
 41
7.0
 42
0.0
 44
2.0
 73
     0
 74
     0
 77
     1
 78
     8
140
7.0
147
0.625
172
     1
173
     1
176
     2
177
     2
178
     7
271
     2
340
237
  0
DIMSTYLE
105
2D8
102
{ACAD_REACTORS
330
2D9
102
}
330
A
100
AcDbSymbolTableRecord
100
AcDbDimStyleTableRecord
  2
ME10_DIM_6
 70
     0
 41
7.0
 42
0.0
 44
2.0
 73
     0
 74
     0
 77
     1
 78
     8
140
7.0
147
0.625
172
     1
173
     1
176
     2
177
     2
178
     7
271
     2
340
269
  0
ENDTAB
  0
TABLE
  2
BLOCK_RECORD
  5
1
330
0
100
AcDbSymbolTable
 70
    17
  0
BLOCK_RECORD
  5
1F
330
1
100
AcDbSymbolTableRecord
100
AcDbBlockTableRecord
  2
*Model_Space
340
22
  0
BLOCK_RECORD
  5
1B
330
1
100
AcDbSymbolTableRecord
100
AcDbBlockTableRecord
  2
*Paper_Space
340
1E
  0
BLOCK_RECORD
  5
23
330
1
100
AcDbSymbolTableRecord
100
AcDbBlockTableRecord
  2
*Paper_Space0
340
26
  0
BLOCK_RECORD
  5
36
330
1
100
AcDbSymbolTableRecord
100
AcDbBlockTableRecord
  2
36-45A-M11
340
0
102
{BLKREFS
331
4E
102
}
  0
BLOCK_RECORD
  5
39
330
1
100
AcDbSymbolTableRecord
100
AcDbBlockTableRecord
  2
37-1-13__1
340
0
102
{BLKREFS
331
4F
102
}
  0
BLOCK_RECORD
  5
3C
330
1
100
AcDbSymbolTableRecord
100
AcDbBlockTableRecord
  2
37-1-13__2
340
0
102
{BLKREFS
331
50
102
}
  0
BLOCK_RECORD
  5
3F
330
1
100
AcDbSymbolTableRecord
100
AcDbBlockTableRecord
  2
51-1
340
0
102
{BLKREFS
331
51
102
}
  0
BLOCK_RECORD
  5
42
330
1
100
AcDbSymbolTableRecord
100
AcDbBlockTableRecord
  2
36-54-M11
340
0
102
{BLKREFS
331
52
102
}
  0
BLOCK_RECORD
  5
45
330
1
100
AcDbSymbolTableRecord
100
AcDbBlockTableRecord
  2
42-_e__
340
0
102
{BLKREFS
331
53
102
}
  0
BLOCK_RECORD
  5
48
330
1
100
AcDbSymbolTableRecord
100
AcDbBlockTableRecord
  2
V2220L-0A-13-M1
340
0
102
{BLKREFS
331
54
102
}
  0
BLOCK_RECORD
  5
4B
330
1
100
AcDbSymbolTableRecord
100
AcDbBlockTableRecord
  2
_J__A4
340
0
102
{BLKREFS
331
55
102
}
  0
BLOCK_RECORD
  5
288
330
1
100
AcDbSymbolTableRecord
100
AcDbBlockTableRecord
  2
*D09
340
0
  0
BLOCK_RECORD
  5
293
330
1
100
AcDbSymbolTableRecord
100
AcDbBlockTableRecord
  2
*D110
340
0
  0
BLOCK_RECORD
  5
29E
330
1
100
AcDbSymbolTableRecord
100
AcDbBlockTableRecord
  2
*D211
340
0
  0
BLOCK_RECORD
  5
2A9
330
1
100
AcDbSymbolTableRecord
100
AcDbBlockTableRecord
  2
*D312
340
0
  0
BLOCK_RECORD
  5
2B6
330
1
100
AcDbSymbolTableRecord
100
AcDbBlockTableRecord
  2
*D413
340
0
  0
BLOCK_RECORD
  5
2BF
330
1
100
AcDbSymbolTableRecord
100
AcDbBlockTableRecord
  2
_None
340
0
  0
BLOCK_RECORD
  5
2C4
330
1
100
AcDbSymbolTableRecord
100
AcDbBlockTableRecord
  2
*D515
340
0
  0
BLOCK_RECORD
  5
2CF
330
1
100
AcDbSymbolTableRecord
100
AcDbBlockTableRecord
  2
*D616
340
0
  0
ENDTAB
  0
ENDSEC
  0
SECTION
  2
BLOCKS
  0
BLOCK
  5
20
330
1F
100
AcDbEntity
  8
0
100
AcDbBlockBegin
  2
*Model_Space
 70
     0
 71
     0
 10
0.0
 20
0.0
 30
0.0
  3
*Model_Space
  1

  0
ENDBLK
  5
21
330
1F
100
AcDbEntity
  8
0
100
AcDbBlockEnd
  0
BLOCK
  5
1C
330
1B
100
AcDbEntity
 67
     1
  8
0
100
AcDbBlockBegin
  2
*Paper_Space
 70
     0
 71
     0
 10
0.0
 20
0.0
 30
0.0
  3
*Paper_Space
  1

  0
ENDBLK
  5
1D
330
1B
100
AcDbEntity
 67
     1
  8
0
100
AcDbBlockEnd
  0
BLOCK
  5
24
330
23
100
AcDbEntity
  8
0
100
AcDbBlockBegin
  2
*Paper_Space0
 70
     0
 71
     0
 10
0.0
 20
0.0
 30
0.0
  3
*Paper_Space0
  1

  0
ENDBLK
  5
25
330
23
100
AcDbEntity
  8
0
100
AcDbBlockEnd
  0
BLOCK
  5
37
330
36
100
AcDbEntity
  8
0
100
AcDbBlockBegin
  2
36-45A-M11
 70
     0
 71
     0
 10
176.3224604966088
 20
229.7146726862305
 30
0.0
  3
36-45A-M11
  1

  0
LINE
  5
56
330
36
100
AcDbEntity
  8
1
  6
Continuous
 62
     7
100
AcDbLine
 10
321.4896162528175
 20
355.0711287809782
 30
0.0
 11
321.4896162528175
 21
364.3582165914816
 31
0.0
  0
LINE
  5
57
330
36
100
AcDbEntity
  8
1
  6
Continuous
 62
     7
100
AcDbLine
 10
323.2896162528177
 20
355.0711287809782
 30
0.0
 11
323.2896162528177
 21
364.3582165914816
 31
0.0
  0
LINE
  5
58
330
36
100
AcDbEntity
  8
1
  6
PHANTOM
 62
     4
100
AcDbLine
 10
333.3544795621704
 20
359.7146726862299
 30
0.0
 11
311.752062295983
 21
359.7146726862299
 31
0.0
  0
LINE
  5
59
330
36
100
AcDbEntity
  8
1
  6
PHANTOM
 62
     4
100
AcDbLine
 10
322.3896162528179
 20
349.4044280819132
 30
0.0
 11
322.3896162528179
 21
369.9654064991795
 31
0.0
  0
LINE
  5
5A
330
36
100
AcDbEntity
  8
1
  6
Continuous
 62
     7
100
AcDbLine
 10
213.8224604966083
 20
354.9646726862299
 30
0.0
 11
214.8224604966083
 21
355.9646726862299
 31
0.0
  0
LINE
  5
5B
330
36
100
AcDbEntity
  8
1
  6
Continuous
 62
     7
100
AcDbLine
 10
214.8224604966083
 20
363.4646726862299
 30
0.0
 11
214.8224604966083
 21
355.9646726862299
 31
0.0
  0
LINE
  5
5C
330
36
100
AcDbEntity
  8
1
  6
Continuous
 62
     7
100
AcDbLine
 10
214.8224604966083
 20
363.4646726862299
 30
0.0
 11
213.8224604966083
 21
364.4646726862299
 31
0.0
  0
LINE
  5
5D
330
36
100
AcDbEntity
  8
1
  6
Continuous
 62
     7
100
AcDbLine
 10
213.8224604966083
 20
364.4646726862299
 30
0.0
 11
210.3224604966083
 21
364.4646726862299
 31
0.0
  0
LINE
  5
5E
330
36
100
AcDbEntity
  8
1
  6
Continuous
 62
     7
100
AcDbLine
 10
210.3224604966083
 20
354.9646726862299
 30
0.0
 11
213.8224604966083
 21
354.9646726862299
 31
0.0
  0
LINE
  5
5F
330
36
100
AcDbEntity
  8
1
  6
Continuous
 62
     7
100
AcDbLine
 10
213.8224604966083
 20
364.4646726862299
 30
0.0
 11
213.8224604966083
 21
354.9646726862299
 31
0.0
  0
LINE
  5
60
330
36
100
AcDbEntity
  8
1
  6
Continuous
 62
     7
100
AcDbLine
 10
210.3246087756299
 20
234.4646726862303
 30
0.0
 11
213.8224604966326
 21
234.4646726862305
 31
0.0
  0
LINE
  5
61
330
36
100
AcDbEntity
  8
1
  6
Continuous
 62
     7
100
AcDbLine
 10
210.3246087756299
 20
234.4646726862303
 30
0.0
 11
210.3246087756299
 21
224.9646726862303
 31
0.0
  0
LINE
  5
62
330
36
100
AcDbEntity
  8
1
  6
Continuous
 62
     7
100
AcDbLine
 10
213.822460496584
 20
224.9646726862305
 30
0.0
 11
214.8224604966083
 21
225.9646726862548
 31
0.0
  0
LINE
  5
63
330
36
100
AcDbEntity
  8
1
  6
Continuous
 62
     7
100
AcDbLine
 10
211.8224604966083
 20
229.7146726862548
 30
0.0
 11
211.8224604966083
 21
228.8146726862547
 31
0.0
  0
LINE
  5
64
330
36
100
AcDbEntity
  8
1
  6
Continuous
 62
     7
100
AcDbLine
 10
211.8224604966083
 20
228.8146726862547
 30
0.0
 11
214.822460496609
 21
228.8146726862547
 31
0.0
  0
LINE
  5
65
330
36
100
AcDbEntity
  8
1
  6
Continuous
 62
     7
100
AcDbLine
 10
214.822460496609
 20
228.8146726862547
 30
0.0
 11
214.8224604966083
 21
225.9646726862548
 31
0.0
  0
LINE
  5
66
330
36
100
AcDbEntity
  8
1
  6
Continuous
 62
     7
100
AcDbLine
 10
214.8224604966083
 20
233.4646726862548
 30
0.0
 11
214.822460496609
 21
230.6146726862549
 31
0.0
  0
LINE
  5
67
330
36
100
AcDbEntity
  8
1
  6
Continuous
 62
     7
100
AcDbLine
 10
214.822460496609
 20
230.6146726862549
 30
0.0
 11
211.8224604966083
 21
230.6146726862549
 31
0.0
  0
LINE
  5
68
330
36
100
AcDbEntity
  8
1
  6
Continuous
 62
     7
100
AcDbLine
 10
211.8224604966083
 20
230.6146726862549
 30
0.0
 11
211.8224604966083
 21
229.7146726862548
 31
0.0
  0
LINE
  5
69
330
36
100
AcDbEntity
  8
1
  6
Continuous
 62
     7
100
AcDbLine
 10
214.8224604966083
 20
233.4646726862548
 30
0.0
 11
213.8224604966326
 21
234.4646726862305
 31
0.0
  0
LINE
  5
6A
330
36
100
AcDbEntity
  8
1
  6
Continuous
 62
     7
100
AcDbLine
 10
213.822460496584
 20
224.9646726862305
 30
0.0
 11
210.3246087756299
 21
224.9646726862303
 31
0.0
  0
LINE
  5
6B
330
36
100
AcDbEntity
  8
1
  6
PHANTOM
 62
     4
100
AcDbLine
 10
214.8224604966083
 20
229.7146726862305
 30
0.0
 11
176.3224604966088
 21
229.7146726862305
 31
0.0
  0
ARC
  5
6C
330
36
100
AcDbEntity
  8
1
  6
Continuous
 62
     7
100
AcDbCircle
 10
322.3896162528179
 20
359.71467268623
 30
0.0
 40
3.749999999999971
100
AcDbArc
 50
-76.11345963737395
 51
76.11345963737352
  0
ARC
  5
6D
330
36
100
AcDbEntity
  8
1
  6
Continuous
 62
     7
100
AcDbCircle
 10
322.3896162528179
 20
359.71467268623
 30
0.0
 40
3.750000000000039
100
AcDbArc
 50
103.8865403626303
 51
-179.9999999999983
  0
ARC
  5
6E
330
36
100
AcDbEntity
  8
1
  6
Continuous
 62
     7
100
AcDbCircle
 10
322.3896162528179
 20
359.71467268623
 30
0.0
 40
3.75
100
AcDbArc
 50
-179.9999999999983
 51
-103.8865403626303
  0
CIRCLE
  5
6F
330
36
100
AcDbEntity
  8
1
  6
Continuous
 62
     7
100
AcDbCircle
 10
322.3896162528179
 20
359.71467268623
 30
0.0
 40
4.75
  0
ENDBLK
  5
38
330
36
100
AcDbEntity
  8
0
100
AcDbBlockEnd
  0
BLOCK
  5
3A
330
39
100
AcDbEntity
  8
0
100
AcDbBlockBegin
  2
37-1-13__1
 70
     0
 71
     0
 10
162.3224604966083
 20
359.7146726862299
 30
0.0
  3
37-1-13__1
  1

  0
LINE
  5
70
330
39
100
AcDbEntity
  8
1
  6
Continuous
 62
     7
100
AcDbLine
 10
168.3224604966324
 20
274.71467268623
 30
0.0
 11
162.3224604966329
 21
274.71467268623
 31
0.0
  0
LINE
  5
71
330
39
100
AcDbEntity
  8
1
  6
Continuous
 62
     7
100
AcDbLine
 10
175.3931747109039
 20
260.71467268623
 30
0.0
 11
162.3224604966326
 21
260.71467268623
 31
0.0
  0
LINE
  5
72
330
39
100
AcDbEntity
  8
1
  6
Continuous
 62
     7
100
AcDbLine
 10
162.3224604966315
 20
268.2146726862295
 30
0.0
 11
174.8224604966322
 21
268.2146726862302
 31
0.0
  0
LINE
  5
73
330
39
100
AcDbEntity
  8
1
  6
Continuous
 62
     7
100
AcDbLine
 10
162.3224604966329
 20
274.71467268623
 30
0.0
 11
156.3224604966326
 21
274.71467268623
 31
0.0
  0
LINE
  5
74
330
39
100
AcDbEntity
  8
1
  6
DOT_CENTER
 62
     2
100
AcDbLine
 10
162.3224604966326
 20
260.71467268623
 30
0.0
 11
162.3224604966326
 21
258.2887680977988
 31
0.0
  0
LINE
  5
75
330
39
100
AcDbEntity
  8
1
  6
PHANTOM
 62
     4
100
AcDbLine
 10
162.3224604966326
 20
260.7147713623169
 30
0.0
 11
162.3224604966326
 21
276.755403250316
 31
0.0
  0
LINE
  5
76
330
39
100
AcDbEntity
  8
1
  6
Continuous
 62
     7
100
AcDbLine
 10
162.3224604966326
 20
260.71467268623
 30
0.0
 11
149.2517462823612
 21
260.71467268623
 31
0.0
  0
LINE
  5
77
330
39
100
AcDbEntity
  8
1
  6
Continuous
 62
     7
100
AcDbLine
 10
149.8224604966329
 20
268.2146726862302
 30
0.0
 11
162.3224604966335
 21
268.2146726862295
 31
0.0
  0
LINE
  5
78
330
39
100
AcDbEntity
  8
1
  6
Continuous
 62
     7
100
AcDbLine
 10
291.3896162528176
 20
346.71467268623
 30
0.0
 11
291.3896162528176
 21
372.7146726862299
 31
0.0
  0
LINE
  5
79
330
39
100
AcDbEntity
  8
1
  6
Continuous
 62
     7
100
AcDbLine
 10
291.3896162528176
 20
372.7146726862299
 30
0.0
 11
284.2173749943415
 21
372.7146726862299
 31
0.0
  0
LINE
  5
7A
330
39
100
AcDbEntity
  8
1
  6
Continuous
 62
     7
100
AcDbLine
 10
284.2173749943415
 20
346.71467268623
 30
0.0
 11
291.3896162528176
 21
346.71467268623
 31
0.0
  0
LINE
  5
7B
330
39
100
AcDbEntity
  8
1
  6
Continuous
 62
     7
100
AcDbLine
 10
284.2173749943415
 20
349.7146726862299
 30
0.0
 11
284.2173749943415
 21
369.71467268623
 31
0.0
  0
LINE
  5
7C
330
39
100
AcDbEntity
  8
1
  6
Continuous
 62
     7
100
AcDbLine
 10
277.3896162528176
 20
353.7146726862297
 30
0.0
 11
277.3896162528176
 21
365.7146726862299
 31
0.0
  0
LINE
  5
7D
330
39
100
AcDbEntity
  8
1
  6
Continuous
 62
     7
100
AcDbLine
 10
167.8418472527046
 20
372.7146726862301
 30
0.0
 11
168.7450767859414
 21
372.7146726862301
 31
0.0
  0
LINE
  5
7E
330
39
100
AcDbEntity
  8
1
  6
Continuous
 62
     7
100
AcDbLine
 10
148.3044368693618
 20
357.9946018303223
 30
0.0
 11
147.8528221027443
 21
358.7768215515519
 31
0.0
  0
LINE
  5
7F
330
39
100
AcDbEntity
  8
1
  6
Continuous
 62
     7
100
AcDbLine
 10
170.8210973677576
 20
348.4347435421391
 30
0.0
 11
170.3694826011392
 21
347.6525238209083
 31
0.0
  0
LINE
  5
80
330
39
100
AcDbEntity
  8
1
  6
Continuous
 62
     7
100
AcDbLine
 10
147.8528221027443
 20
360.6525238209083
 30
0.0
 11
148.3044368693616
 21
361.4347435421379
 31
0.0
  0
LINE
  5
81
330
39
100
AcDbEntity
  8
1
  6
Continuous
 62
     7
100
AcDbLine
 10
168.7450767859414
 20
346.7146726862301
 30
0.0
 11
167.8418472527046
 21
346.7146726862301
 31
0.0
  0
LINE
  5
82
330
39
100
AcDbEntity
  8
1
  6
Continuous
 62
     7
100
AcDbLine
 10
170.3694826011392
 20
371.7768215515519
 30
0.0
 11
170.8210973677574
 21
370.9946018303212
 31
0.0
  0
ARC
  5
83
330
39
100
AcDbEntity
  8
1
  6
Continuous
 62
     7
100
AcDbCircle
 10
188.2289157017472
 20
288.1211278913449
 30
0.0
 40
23.99999999999988
100
AcDbArc
 50
-146.0408074999025
 51
-123.959192500098
  0
ARC
  5
84
330
39
100
AcDbEntity
  8
1
  6
Continuous
 62
     7
100
AcDbCircle
 10
171.8224604966324
 20
264.21467268623
 30
0.0
 40
5.000000000000057
100
AcDbArc
 50
-44.42700400080507
 51
53.13010235415897
  0
ARC
  5
85
330
39
100
AcDbEntity
  8
1
  6
Continuous
 62
     7
100
AcDbCircle
 10
152.8224604966326
 20
264.21467268623
 30
0.0
 40
4.999999999999949
100
AcDbArc
 50
126.86989764584
 51
-135.572995999194
  0
ARC
  5
86
330
39
100
AcDbEntity
  8
1
  6
Continuous
 62
     7
100
AcDbCircle
 10
136.4160052915179
 20
288.1211278913449
 30
0.0
 40
23.99999999999986
100
AcDbArc
 50
-56.04080749990203
 51
-33.95919250009769
  0
ARC
  5
87
330
39
100
AcDbEntity
  8
1
  6
Continuous
 62
     7
100
AcDbCircle
 10
263.9831610477027
 20
385.6211278913448
 30
0.0
 40
23.99999999999981
100
AcDbArc
 50
-33.9591925000978
 51
-32.53189151774841
  0
ARC
  5
88
330
39
100
AcDbEntity
  8
1
  6
Continuous
 62
     7
100
AcDbCircle
 10
263.9831610477027
 20
333.808217481115
 30
0.0
 40
23.99999999999991
100
AcDbArc
 50
33.95919250009814
 51
56.04080749990231
  0
ARC
  5
89
330
39
100
AcDbEntity
  8
1
  6
Continuous
 62
     7
100
AcDbCircle
 10
263.9831610477027
 20
385.6211278913448
 30
0.0
 40
23.99999999999997
100
AcDbArc
 50
-56.04080749990262
 51
-33.9591925000978
  0
ARC
  5
8A
330
39
100
AcDbEntity
  8
1
  6
Continuous
 62
     7
100
AcDbCircle
 10
263.9831610477027
 20
333.808217481115
 30
0.0
 40
23.99999999999987
100
AcDbArc
 50
32.53189151774865
 51
33.95919250009814
  0
ARC
  5
8B
330
39
100
AcDbEntity
  8
1
  6
Continuous
 62
     7
100
AcDbCircle
 10
162.3224604966083
 20
359.7146726862301
 30
0.0
 40
14.49999999999978
100
AcDbArc
 50
56.29155527473127
 51
63.70844472526876
  0
ARC
  5
8C
330
39
100
AcDbEntity
  8
1
  6
Continuous
 62
     7
100
AcDbCircle
 10
162.3224604966083
 20
359.7146726862301
 30
0.0
 40
14.5
100
AcDbArc
 50
176.2915552747295
 51
180.0
  0
ARC
  5
8D
330
39
100
AcDbEntity
  8
1
  6
Continuous
 62
     7
100
AcDbCircle
 10
162.3224604966083
 20
359.7146726862301
 30
0.0
 40
14.50000000000023
100
AcDbArc
 50
-63.70844472526876
 51
-56.29155527473115
  0
ARC
  5
8E
330
39
100
AcDbEntity
  8
1
  6
Continuous
 62
     7
100
AcDbCircle
 10
162.3224604966083
 20
359.7146726862301
 30
0.0
 40
14.5
100
AcDbArc
 50
180.0
 51
-176.2915552747297
  0
SPLINE
  5
8F
330
39
100
AcDbEntity
  8
1
  6
Continuous
 62
     7
100
AcDbSpline
210
0.0
220
0.0
230
1.0
 70
     8
 71
     3
 72
     9
 73
     5
 74
     3
 42
0.0000000001
 43
0.0000000001
 44
0.00000001
 40
0.0
 40
0.0
 40
0.0
 40
0.0
 40
0.140077502900971
 40
0.2804742413252165
 40
0.2804742413252165
 40
0.2804742413252165
 40
0.2804742413252165
 10
151.0641302474513
 20
267.71467268623
 30
0.0
 10
151.1108359345789
 20
267.7141125737319
 30
0.0
 10
151.2043537507264
 20
267.7129910722435
 30
0.0
 10
151.2975527852461
 20
267.7051938539092
 30
0.0
 10
151.3442053420336
 20
267.7012908073487
 30
0.0
 11
151.0641302474513
 21
267.71467268623
 31
0.0
 11
151.2041677947424
 21
267.7113272165093
 31
0.0
 11
151.3442053420336
 21
267.7012908073487
 31
0.0
  0
SPLINE
  5
90
330
39
100
AcDbEntity
  8
1
  6
Continuous
 62
     7
100
AcDbSpline
210
0.0
220
0.0
230
1.0
 70
     8
 71
     3
 72
    79
 73
    75
 74
    73
 42
0.0000000001
 43
0.0000000001
 44
0.00000001
 40
0.0
 40
0.0
 40
0.0
 40
0.0
 40
0.2811775426108927
 40
0.5623408931992895
 40
0.8457466631368056
 40
1.12912683042287
 40
1.415908903032367
 40
1.702658539054636
 40
1.993527432940299
 40
2.284362055943408
 40
2.579517800564371
 40
2.874641782101834
 40
3.173769982296714
 40
3.472872122788081
 40
3.775199692337346
 40
4.077508957859621
 40
4.381905225139412
 40
4.6862920914054
 40
4.991400459518967
 40
5.296508827632649
 40
5.600895693898694
 40
5.905291961178379
 40
6.207601226700653
 40
6.509928796249865
 40
6.809030936741322
 40
7.10815913693628
 40
7.403283118473758
 40
7.698438863094667
 40
7.989273486097695
 40
8.280142379983285
 40
8.566892016005554
 40
8.853674088615213
 40
9.137054255901393
 40
9.420460025838818
 40
9.701623376427106
 40
9.982800919037986
 40
10.26319552186824
 40
10.54359012469847
 40
10.82476766730939
 40
11.10593101789781
 40
11.38933678783533
 40
11.67271695512144
 40
11.95949902773099
 40
12.2462486637533
 40
12.53711755763893
 40
12.82795218064196
 40
13.12310792526288
 40
13.41823190680041
 40
13.71736010699534
 40
14.01646224748675
 40
14.31878981703605
 40
14.62109908255833
 40
14.92549534983805
 40
15.22988221610399
 40
15.53499058421757
 40
15.84009895233125
 40
16.1444858185973
 40
16.44888208587708
 40
16.75119135139933
 40
17.05351892094852
 40
17.35262106143995
 40
17.6517492616348
 40
17.94687324317223
 40
18.24202898779318
 40
18.53286361079631
 40
18.8237325046819
 40
19.11048214070422
 40
19.39726421331379
 40
19.68064438059991
 40
19.96405015053736
 40
20.24521350112569
 40
20.52639104373662
 40
20.66678778217635
 40
20.80686528509276
 40
20.80686528509276
 40
20.80686528509276
 40
20.80686528509276
 10
151.3442053419843
 20
267.7012908073487
 30
0.0
 10
151.4373014170748
 20
267.6898396852589
 30
0.0
 10
151.6234888683685
 20
267.6669380190579
 30
0.0
 10
151.8977263216744
 20
267.5989007280086
 30
0.0
 10
152.1654529889814
 20
267.5072785990349
 30
0.0
 10
152.4250134771497
 20
267.3896676112503
 30
0.0
 10
152.6737477695167
 20
267.2484492880312
 30
0.0
 10
152.9105618743074
 20
267.0836273172865
 30
0.0
 10
153.1328202383742
 20
266.8975500201216
 30
0.0
 10
153.3396756255094
 20
266.6905251705105
 30
0.0
 10
153.5287894290227
 20
266.4653263727964
 30
0.0
 10
153.6994378131734
 20
266.2224614672668
 30
0.0
 10
153.8497551304232
 20
265.9649928362567
 30
0.0
 10
153.9790784657839
 20
265.6937149389852
 30
0.0
 10
154.0861113932224
 20
265.4117617850779
 30
0.0
 10
154.1702585308844
 20
265.1203246317083
 30
0.0
 10
154.2308030395923
 20
264.8223866882506
 30
0.0
 10
154.2672902363314
 20
264.5196210234503
 30
0.0
 10
154.2795172926824
 20
264.2146726862311
 30
0.0
 10
154.2672902363318
 20
263.9097243490061
 30
0.0
 10
154.2308030395911
 20
263.6069586842226
 30
0.0
 10
154.170258530889
 20
263.3090207407032
 30
0.0
 10
154.0861113932051
 20
263.0175835875625
 30
0.0
 10
153.9790784658479
 20
262.7356304328051
 30
0.0
 10
153.8497551301872
 20
262.4643525386738
 30
0.0
 10
153.6994378140497
 20
262.2068838960216
 30
0.0
 10
153.528789425801
 20
261.9640190333849
 30
0.0
 10
153.3396756374654
 20
261.7388200768079
 30
0.0
 10
153.1328201944772
 20
261.5317958118045
 30
0.0
 10
152.9105620372547
 20
261.3457163496206
 30
0.0
 10
152.6737471709216
 20
261.1809023498668
 30
0.0
 10
152.4250157012797
 20
261.0396544814527
 30
0.0
 10
152.1654447973934
 20
260.9221525139985
 30
0.0
 10
151.897756806123
 20
260.8301255666285
 30
0.0
 10
151.62337609524
 20
260.7635877390088
 30
0.0
 10
151.3448850837766
 20
260.7236849553962
 30
0.0
 10
151.0641302473866
 20
260.7101728340669
 30
0.0
 10
150.7833754109967
 20
260.7236849553962
 30
0.0
 10
150.5048843995332
 20
260.7635877390086
 30
0.0
 10
150.2305036886501
 20
260.8301255666287
 30
0.0
 10
149.9628156973797
 20
260.9221525139985
 30
0.0
 10
149.7032447934933
 20
261.0396544814527
 30
0.0
 10
149.4545133238515
 20
261.1809023498669
 30
0.0
 10
149.2176984575183
 20
261.3457163496204
 30
0.0
 10
148.9954403002958
 20
261.5317958118046
 30
0.0
 10
148.7885848573077
 20
261.7388200768079
 30
0.0
 10
148.5994710689721
 20
261.9640190333848
 30
0.0
 10
148.4288226807233
 20
262.2068838960216
 30
0.0
 10
148.2785053645858
 20
262.4643525386738
 30
0.0
 10
148.149182028925
 20
262.735630432805
 30
0.0
 10
148.0421491015678
 20
263.0175835875626
 30
0.0
 10
147.9580019638842
 20
263.3090207407033
 30
0.0
 10
147.8974574551822
 20
263.6069586842226
 30
0.0
 10
147.8609702584415
 20
263.9097243490064
 30
0.0
 10
147.8487432020906
 20
264.21467268623
 30
0.0
 10
147.8609702584415
 20
264.5196210234537
 30
0.0
 10
147.8974574551821
 20
264.8223866882383
 30
0.0
 10
147.9580019638845
 20
265.1203246317546
 30
0.0
 10
148.0421491015665
 20
265.4117617849068
 30
0.0
 10
148.1491820289301
 20
265.6937149396214
 30
0.0
 10
148.2785053645671
 20
265.9649928339111
 30
0.0
 10
148.4288226807929
 20
266.2224614759753
 30
0.0
 10
148.5994710687163
 20
266.4653263407778
 30
0.0
 10
148.7885848582567
 20
266.6905252893337
 30
0.0
 10
148.9954402968114
 20
266.8975495838545
 30
0.0
 10
149.2176984704525
 20
267.0836289367246
 30
0.0
 10
149.4545132763369
 20
267.248443338942
 30
0.0
 10
149.7032449700375
 20
267.3896897155881
 30
0.0
 10
149.9628150471581
 20
267.5071971875922
 30
0.0
 10
150.2305061084068
 20
267.5992036952595
 30
0.0
 10
150.5048754479677
 20
267.6658172323506
 30
0.0
 10
150.7371379575459
 20
267.6988562246926
 30
0.0
 10
150.9239308384299
 20
267.7127309664332
 30
0.0
 10
151.0174325856122
 20
267.7140259376095
 30
0.0
 10
151.064130247402
 20
267.71467268623
 30
0.0
 11
151.3442053419843
 21
267.7012908073487
 31
0.0
 11
151.622532095718
 21
267.6613529978849
 31
0.0
 11
151.8958061302669
 21
267.5952157787457
 31
0.0
 11
152.163810801096
 21
267.5030619570797
 31
0.0
 11
152.4220324391136
 21
267.386331905805
 31
0.0
 11
152.671419082464
 21
267.2447329676431
 31
0.0
 11
152.9068654603202
 21
267.081055367119
 31
0.0
 11
153.1299173091444
 21
266.8943668935424
 31
0.0
 11
153.3355853657397
 21
266.6887326832716
 31
0.0
 11
153.5254367704842
 21
266.4627385291452
 31
0.0
 11
153.6952097018555
 21
266.221335720023
 31
0.0
 11
153.8460713842888
 21
265.9630366047995
 31
0.0
 11
153.9748712512204
 21
265.6930871933815
 31
0.0
 11
154.0822034832341
 21
265.4104535943872
 31
0.0
 11
154.1661315047966
 21
265.1200280803268
 31
0.0
 11
154.2267661554923
 21
264.8217320416858
 31
0.0
 11
154.2632245064083
 21
264.5195364874437
 31
0.0
 11
154.2754383920528
 21
264.2146726862301
 31
0.0
 11
154.2632245064083
 21
263.9098088850165
 31
0.0
 11
154.2267661554923
 21
263.6076133307743
 31
0.0
 11
154.1661315047966
 21
263.3093172921334
 31
0.0
 11
154.0822034832341
 21
263.0188917780731
 31
0.0
 11
153.9748712512204
 21
262.7362581790787
 31
0.0
 11
153.8460713842888
 21
262.4663087676606
 31
0.0
 11
153.6952097018555
 21
262.2080096524371
 31
0.0
 11
153.5254367704841
 21
261.9666068433149
 31
0.0
 11
153.3355853657397
 21
261.7406126891885
 31
0.0
 11
153.1299173091445
 21
261.5349784789178
 31
0.0
 11
152.9068654603203
 21
261.3482900053413
 31
0.0
 11
152.6714190824641
 21
261.1846124048172
 31
0.0
 11
152.4220324391136
 21
261.043013466655
 31
0.0
 11
152.163810801096
 21
260.9262834153801
 31
0.0
 11
151.8958061302669
 21
260.8341295937144
 31
0.0
 11
151.622532095718
 21
260.7679923745754
 31
0.0
 11
151.3442053419844
 21
260.7280545651116
 31
0.0
 11
151.0641302473866
 21
260.7146726862301
 31
0.0
 11
150.7840551527889
 21
260.7280545651115
 31
0.0
 11
150.5057283990552
 21
260.7679923745753
 31
0.0
 11
150.2324543645062
 21
260.8341295937144
 31
0.0
 11
149.964449693677
 21
260.9262834153802
 31
0.0
 11
149.7062280556594
 21
261.043013466655
 31
0.0
 11
149.456841412309
 21
261.1846124048171
 31
0.0
 11
149.2213950344528
 21
261.3482900053411
 31
0.0
 11
148.9983431856286
 21
261.5349784789177
 31
0.0
 11
148.7926751290334
 21
261.7406126891885
 31
0.0
 11
148.602823724289
 21
261.9666068433149
 31
0.0
 11
148.4330507929175
 21
262.2080096524371
 31
0.0
 11
148.2821891104841
 21
262.4663087676606
 31
0.0
 11
148.1533892435525
 21
262.7362581790786
 31
0.0
 11
148.0460570115389
 21
263.0188917780731
 31
0.0
 11
147.9621289899766
 21
263.3093172921335
 31
0.0
 11
147.901494339281
 21
263.6076133307744
 31
0.0
 11
147.8650359883648
 21
263.9098088850165
 31
0.0
 11
147.8528221027202
 21
264.21467268623
 31
0.0
 11
147.8650359883648
 21
264.5195364874437
 31
0.0
 11
147.9014943392809
 21
264.8217320416859
 31
0.0
 11
147.9621289899765
 21
265.1200280803269
 31
0.0
 11
148.0460570115389
 21
265.4104535943872
 31
0.0
 11
148.1533892435526
 21
265.6930871933815
 31
0.0
 11
148.2821891104842
 21
265.9630366047996
 31
0.0
 11
148.4330507929175
 21
266.221335720023
 31
0.0
 11
148.6028237242889
 21
266.4627385291452
 31
0.0
 11
148.7926751290333
 21
266.6887326832716
 31
0.0
 11
148.9983431856286
 21
266.8943668935424
 31
0.0
 11
149.2213950344527
 21
267.081055367119
 31
0.0
 11
149.4568414123089
 21
267.2447329676431
 31
0.0
 11
149.7062280556595
 21
267.386331905805
 31
0.0
 11
149.9644496936771
 21
267.5030619570797
 31
0.0
 11
150.2324543645062
 21
267.5952157787456
 31
0.0
 11
150.505728399055
 21
267.6613529978848
 31
0.0
 11
150.7840551527888
 21
267.7012908073486
 31
0.0
 11
150.9240927000954
 21
267.7113272165101
 31
0.0
 11
151.064130247402
 21
267.71467268623
 31
0.0
  0
SPLINE
  5
91
330
39
100
AcDbEntity
  8
1
  6
Continuous
 62
     7
100
AcDbSpline
210
0.0
220
0.0
230
1.0
 70
     8
 71
     3
 72
     9
 73
     5
 74
     3
 42
0.0000000001
 43
0.0000000001
 44
0.00000001
 40
0.0
 40
0.0
 40
0.0
 40
0.0
 40
0.1400775029009995
 40
0.2804742413251883
 40
0.2804742413251883
 40
0.2804742413251883
 40
0.2804742413251883
 10
173.5807907458146
 20
267.71467268623
 30
0.0
 10
173.534085058687
 20
267.7141125737319
 30
0.0
 10
173.4405672425395
 20
267.7129910722435
 30
0.0
 10
173.3473682080198
 20
267.7051938539092
 30
0.0
 10
173.3007156512323
 20
267.7012908073487
 30
0.0
 11
173.5807907458146
 21
267.71467268623
 31
0.0
 11
173.4407531985234
 21
267.7113272165093
 31
0.0
 11
173.3007156512323
 21
267.7012908073487
 31
0.0
  0
SPLINE
  5
92
330
39
100
AcDbEntity
  8
1
  6
Continuous
 62
     7
100
AcDbSpline
210
0.0
220
0.0
230
1.0
 70
     8
 71
     3
 72
    79
 73
    75
 74
    73
 42
0.0000000001
 43
0.0000000001
 44
0.00000001
 40
0.0
 40
0.0
 40
0.0
 40
0.0
 40
0.2811775426108083
 40
0.5623408931991775
 40
0.8457466631367474
 40
1.129126830422812
 40
1.415908903032358
 40
1.702658539054627
 40
1.99352743294029
 40
2.284362055943399
 40
2.579517800564326
 40
2.874641782101804
 40
3.17376998229667
 40
3.472872122788037
 40
3.775199692337333
 40
4.0775089578596
 40
4.38190522513939
 40
4.686292091405371
 40
4.991400459518938
 40
5.296508827632619
 40
5.600895693898656
 40
5.905291961178341
 40
6.207601226700616
 40
6.509928796249827
 40
6.809030936741297
 40
7.108159136936227
 40
7.403283118473705
 40
7.698438863094632
 40
7.98927348609766
 40
8.280142379983293
 40
8.566892016005609
 40
8.853674088615218
 40
9.137054255901347
 40
9.420460025838825
 40
9.701623376427142
 40
9.982800919037967
 40
10.26319552186819
 40
10.54359012469842
 40
10.82476766730935
 40
11.10593101789776
 40
11.38933678783525
 40
11.67271695512144
 40
11.95949902773104
 40
12.24624866375328
 40
12.53711755763891
 40
12.82795218064191
 40
13.12310792526284
 40
13.41823190680037
 40
13.71736010699529
 40
14.01646224748671
 40
14.31878981703601
 40
14.6210990825583
 40
14.92549534983803
 40
15.22988221610397
 40
15.53499058421754
 40
15.84009895233123
 40
16.14448581859728
 40
16.44888208587706
 40
16.7511913513993
 40
17.05351892094851
 40
17.35262106143992
 40
17.65174926163478
 40
17.94687324317224
 40
18.24202898779319
 40
18.53286361079629
 40
18.82373250468189
 40
19.11048214070414
 40
19.39726421331374
 40
19.68064438059985
 40
19.96405015053733
 40
20.24521350112563
 40
20.5263910437366
 40
20.66678778217633
 40
20.80686528509274
 40
20.80686528509274
 40
20.80686528509274
 40
20.80686528509274
 10
173.3007156512323
 20
267.7012908073487
 30
0.0
 10
173.2076195761419
 20
267.6898396852589
 30
0.0
 10
173.0214321248482
 20
267.6669380190577
 30
0.0
 10
172.7471946715422
 20
267.5989007280087
 30
0.0
 10
172.4794680042352
 20
267.5072785990348
 30
0.0
 10
172.219907516067
 20
267.3896676112504
 30
0.0
 10
171.9711732236999
 20
267.2484492880311
 30
0.0
 10
171.7343591189091
 20
267.0836273172865
 30
0.0
 10
171.5121007548424
 20
266.8975500201216
 30
0.0
 10
171.3052453677072
 20
266.6905251705106
 30
0.0
 10
171.1161315641939
 20
266.4653263727963
 30
0.0
 10
170.9454831800432
 20
266.222461467267
 30
0.0
 10
170.7951658627935
 20
265.9649928362567
 30
0.0
 10
170.6658425274327
 20
265.6937149389853
 30
0.0
 10
170.5588095999942
 20
265.4117617850779
 30
0.0
 10
170.4746624623322
 20
265.1203246317082
 30
0.0
 10
170.4141179536243
 20
264.8223866882507
 30
0.0
 10
170.3776307568853
 20
264.5196210234503
 30
0.0
 10
170.3654037005343
 20
264.214672686231
 30
0.0
 10
170.3776307568849
 20
263.9097243490061
 30
0.0
 10
170.4141179536255
 20
263.6069586842226
 30
0.0
 10
170.4746624623276
 20
263.3090207407032
 30
0.0
 10
170.5588096000115
 20
263.0175835875626
 30
0.0
 10
170.6658425273687
 20
262.735630432805
 30
0.0
 10
170.7951658630295
 20
262.4643525386738
 30
0.0
 10
170.9454831791669
 20
262.2068838960217
 30
0.0
 10
171.1161315674156
 20
261.9640190333848
 30
0.0
 10
171.3052453557512
 20
261.7388200768079
 30
0.0
 10
171.5121007987394
 20
261.5317958118046
 30
0.0
 10
171.734358955962
 20
261.3457163496205
 30
0.0
 10
171.971173822295
 20
261.1809023498668
 30
0.0
 10
172.2199052919369
 20
261.0396544814527
 30
0.0
 10
172.4794761958233
 20
260.9221525139983
 30
0.0
 10
172.7471641870936
 20
260.8301255666287
 30
0.0
 10
173.0215448979767
 20
260.7635877390087
 30
0.0
 10
173.3000359094401
 20
260.7236849553962
 30
0.0
 10
173.58079074583
 20
260.7101728340669
 30
0.0
 10
173.8615455822199
 20
260.7236849553962
 30
0.0
 10
174.1400365936835
 20
260.7635877390086
 30
0.0
 10
174.4144173045665
 20
260.8301255666287
 30
0.0
 10
174.6821052958369
 20
260.9221525139985
 30
0.0
 10
174.9416761997234
 20
261.0396544814527
 30
0.0
 10
175.1904076693653
 20
261.1809023498668
 30
0.0
 10
175.4272225356983
 20
261.3457163496204
 30
0.0
 10
175.6494806929208
 20
261.5317958118045
 30
0.0
 10
175.8563361359089
 20
261.7388200768079
 30
0.0
 10
176.0454499242445
 20
261.9640190333848
 30
0.0
 10
176.2160983124933
 20
262.2068838960216
 30
0.0
 10
176.3664156286308
 20
262.4643525386738
 30
0.0
 10
176.4957389642916
 20
262.735630432805
 30
0.0
 10
176.6027718916488
 20
263.0175835875626
 30
0.0
 10
176.6869190293324
 20
263.3090207407032
 30
0.0
 10
176.7474635380345
 20
263.6069586842227
 30
0.0
 10
176.7839507347752
 20
263.9097243490063
 30
0.0
 10
176.796177791126
 20
264.2146726862301
 30
0.0
 10
176.7839507347752
 20
264.5196210234536
 30
0.0
 10
176.7474635380346
 20
264.8223866882383
 30
0.0
 10
176.6869190293321
 20
265.1203246317545
 30
0.0
 10
176.6027718916502
 20
265.4117617849068
 30
0.0
 10
176.4957389642864
 20
265.6937149396213
 30
0.0
 10
176.3664156286496
 20
265.9649928339111
 30
0.0
 10
176.2160983124238
 20
266.2224614759754
 30
0.0
 10
176.0454499245003
 20
266.4653263407778
 30
0.0
 10
175.8563361349599
 20
266.6905252893336
 30
0.0
 10
175.6494806964052
 20
266.8975495838545
 30
0.0
 10
175.427222522764
 20
267.0836289367245
 30
0.0
 10
175.1904077168798
 20
267.248443338942
 30
0.0
 10
174.9416760231791
 20
267.3896897155881
 30
0.0
 10
174.6821059460585
 20
267.5071971875922
 30
0.0
 10
174.4144148848098
 20
267.5992036952595
 30
0.0
 10
174.1400455452488
 20
267.6658172323507
 30
0.0
 10
173.9077830356707
 20
267.6988562246925
 30
0.0
 10
173.7209901547867
 20
267.7127309664333
 30
0.0
 10
173.6274884076044
 20
267.7140259376094
 30
0.0
 10
173.5807907458146
 20
267.71467268623
 30
0.0
 11
173.3007156512323
 21
267.7012908073487
 31
0.0
 11
173.0223888974987
 21
267.6613529978849
 31
0.0
 11
172.7491148629499
 21
267.5952157787457
 31
0.0
 11
172.4811101921207
 21
267.5030619570797
 31
0.0
 11
172.2228885541031
 21
267.386331905805
 31
0.0
 11
171.9735019107526
 21
267.2447329676431
 31
0.0
 11
171.7380555328964
 21
267.081055367119
 31
0.0
 11
171.5150036840722
 21
266.8943668935424
 31
0.0
 11
171.3093356274769
 21
266.6887326832716
 31
0.0
 11
171.1194842227325
 21
266.4627385291452
 31
0.0
 11
170.9497112913611
 21
266.221335720023
 31
0.0
 11
170.7988496089278
 21
265.9630366047995
 31
0.0
 11
170.6700497419963
 21
265.6930871933815
 31
0.0
 11
170.5627175099824
 21
265.4104535943872
 31
0.0
 11
170.47878948842
 21
265.1200280803268
 31
0.0
 11
170.4181548377243
 21
264.8217320416858
 31
0.0
 11
170.3816964868083
 21
264.5195364874437
 31
0.0
 11
170.3694826011639
 21
264.2146726862301
 31
0.0
 11
170.3816964868083
 21
263.9098088850165
 31
0.0
 11
170.4181548377243
 21
263.6076133307743
 31
0.0
 11
170.47878948842
 21
263.3093172921334
 31
0.0
 11
170.5627175099825
 21
263.0188917780731
 31
0.0
 11
170.6700497419962
 21
262.7362581790787
 31
0.0
 11
170.7988496089278
 21
262.4663087676606
 31
0.0
 11
170.9497112913611
 21
262.2080096524371
 31
0.0
 11
171.1194842227325
 21
261.9666068433149
 31
0.0
 11
171.3093356274769
 21
261.7406126891885
 31
0.0
 11
171.5150036840721
 21
261.5349784789178
 31
0.0
 11
171.7380555328964
 21
261.3482900053413
 31
0.0
 11
171.9735019107526
 21
261.1846124048172
 31
0.0
 11
172.2228885541031
 21
261.043013466655
 31
0.0
 11
172.4811101921206
 21
260.9262834153801
 31
0.0
 11
172.7491148629498
 21
260.8341295937144
 31
0.0
 11
173.0223888974987
 21
260.7679923745754
 31
0.0
 11
173.3007156512323
 21
260.7280545651116
 31
0.0
 11
173.58079074583
 21
260.7146726862301
 31
0.0
 11
173.8608658404277
 21
260.7280545651115
 31
0.0
 11
174.1391925941614
 21
260.7679923745753
 31
0.0
 11
174.4124666287104
 21
260.8341295937144
 31
0.0
 11
174.6804712995396
 21
260.9262834153802
 31
0.0
 11
174.9386929375572
 21
261.043013466655
 31
0.0
 11
175.1880795809077
 21
261.1846124048171
 31
0.0
 11
175.4235259587639
 21
261.3482900053411
 31
0.0
 11
175.6465778075881
 21
261.5349784789177
 31
0.0
 11
175.8522458641832
 21
261.7406126891885
 31
0.0
 11
176.0420972689276
 21
261.9666068433149
 31
0.0
 11
176.2118702002991
 21
262.2080096524371
 31
0.0
 11
176.3627318827325
 21
262.4663087676606
 31
0.0
 11
176.4915317496641
 21
262.7362581790786
 31
0.0
 11
176.5988639816777
 21
263.0188917780731
 31
0.0
 11
176.6827920032401
 21
263.3093172921335
 31
0.0
 11
176.7434266539357
 21
263.6076133307744
 31
0.0
 11
176.7798850048518
 21
263.9098088850165
 31
0.0
 11
176.7920988904964
 21
264.21467268623
 31
0.0
 11
176.7798850048518
 21
264.5195364874437
 31
0.0
 11
176.7434266539357
 21
264.8217320416859
 31
0.0
 11
176.6827920032401
 21
265.1200280803269
 31
0.0
 11
176.5988639816777
 21
265.4104535943872
 31
0.0
 11
176.491531749664
 21
265.6930871933815
 31
0.0
 11
176.3627318827325
 21
265.9630366047996
 31
0.0
 11
176.2118702002991
 21
266.221335720023
 31
0.0
 11
176.0420972689277
 21
266.4627385291452
 31
0.0
 11
175.8522458641832
 21
266.6887326832716
 31
0.0
 11
175.646577807588
 21
266.8943668935424
 31
0.0
 11
175.4235259587639
 21
267.081055367119
 31
0.0
 11
175.1880795809077
 21
267.2447329676431
 31
0.0
 11
174.9386929375572
 21
267.386331905805
 31
0.0
 11
174.6804712995395
 21
267.5030619570797
 31
0.0
 11
174.4124666287104
 21
267.5952157787456
 31
0.0
 11
174.1391925941616
 21
267.6613529978848
 31
0.0
 11
173.8608658404278
 21
267.7012908073486
 31
0.0
 11
173.7208282931212
 21
267.7113272165101
 31
0.0
 11
173.5807907458146
 21
267.71467268623
 31
0.0
  0
SPLINE
  5
93
330
39
100
AcDbEntity
  8
1
  6
Continuous
 62
     7
100
AcDbSpline
210
0.0
220
0.0
230
1.0
 70
    11
 71
     3
 72
    79
 73
    75
 74
    73
 42
0.0000000001
 43
0.0000000001
 44
0.00000001
 40
0.0
 40
0.0
 40
0.0
 40
0.0
 40
0.3114713439932728
 40
0.6228035292710721
 40
0.94724036395515
 40
1.271464858045233
 40
1.614803252700111
 40
1.957928915792486
 40
2.323150649725039
 40
2.688197477604988
 40
3.075390759585604
 40
3.462454984676633
 40
3.869243829725474
 40
4.275944688498928
 40
4.698050018426062
 40
5.120101305007573
 40
5.55191331312447
 40
5.983699714913124
 40
6.418825159681512
 40
6.853950604449841
 40
7.285737006238258
 40
7.717549014354801
 40
8.139600300936341
 40
8.561705630863518
 40
8.96840648963696
 40
9.375195334685758
 40
9.762259559776707
 40
10.14945284175743
 40
10.51449966963745
 40
10.87972140356999
 40
11.22284706666234
 40
11.56618546131708
 40
11.89040995540728
 40
12.21484679009137
 40
12.52617897536924
 40
12.83765031936248
 40
13.14443943074616
 40
13.45122854212984
 40
13.76269988612307
 40
14.07403207140087
 40
14.39846890608505
 40
14.72269340017516
 40
15.06603179483003
 40
15.40915745792238
 40
15.7743791918549
 40
16.13942601973489
 40
16.5266193017156
 40
16.9136835268066
 40
17.32047237185549
 40
17.72717323062889
 40
18.14927856055605
 40
18.57132984713754
 40
19.00314185525422
 40
19.43492825704275
 40
19.87005370181111
 40
20.30517914657953
 40
20.73696554836806
 40
21.16877755648478
 40
21.59082884306629
 40
22.01293417299349
 40
22.41963503176699
 40
22.82642387681583
 40
23.21348810190683
 40
23.60068138388753
 40
23.96572821176748
 40
24.33094994569994
 40
24.67407560879233
 40
25.01741400344713
 40
25.34163849753724
 40
25.66607533222129
 40
25.97740751749916
 40
26.28887886149234
 40
26.59566797287613
 40
26.90245708425992
 40
26.90245708425992
 40
26.90245708425992
 40
26.90245708425992
 10
167.3028870596805
 20
264.5208502746474
 30
0.0
 10
167.2863013461824
 20
264.6234808160087
 30
0.0
 10
167.2531373293271
 20
264.8286960456068
 30
0.0
 10
167.1542391685698
 20
265.1297692011326
 30
0.0
 10
167.0224569376227
 20
265.4219541480947
 30
0.0
 10
166.8523434943984
 20
265.7063228189889
 30
0.0
 10
166.6500747949891
 20
265.9764636216837
 30
0.0
 10
166.4127456057323
 20
266.2351850689888
 30
0.0
 10
166.1472184116948
 20
266.4757459638054
 30
0.0
 10
165.8501731483282
 20
266.7011936302591
 30
0.0
 10
165.5295626555414
 20
266.9055141100228
 30
0.0
 10
165.1820012511708
 20
267.0911651195014
 30
0.0
 10
164.8158256305425
 20
267.2534741353707
 30
0.0
 10
164.4283413909943
 20
267.39398695714
 30
0.0
 10
164.027407051824
 20
267.5095639055042
 30
0.0
 10
163.6117222841911
 20
267.6009191584143
 30
0.0
 10
163.187903922546
 20
267.6662982946448
 30
0.0
 10
162.7565432355858
 20
267.7059262521271
 30
0.0
 10
162.3224604966349
 20
267.7190627473925
 30
0.0
 10
161.8883777576724
 20
267.7059262521281
 30
0.0
 10
161.4570170707473
 20
267.6662982946416
 30
0.0
 10
161.0331987089749
 20
267.6009191584271
 30
0.0
 10
160.617513941807
 20
267.5095639054584
 30
0.0
 10
160.216579600931
 20
267.39398695731
 30
0.0
 10
159.8290953675265
 20
267.2534741347633
 30
0.0
 10
159.462919724513
 20
267.0911651217268
 30
0.0
 10
159.1153583998254
 20
266.9055141021653
 30
0.0
 10
158.7947476183157
 20
266.7011936589362
 30
0.0
 10
158.4977033739104
 20
266.4757458635443
 30
0.0
 10
158.23217249884
 20
266.2351854345214
 30
0.0
 10
157.9948562593981
 20
265.9764623485615
 30
0.0
 10
157.792540731289
 20
265.7063274715173
 30
0.0
 10
157.6225928498378
 20
265.4219378506244
 30
0.0
 10
157.4902081078608
 20
265.1298291447232
 30
0.0
 10
157.3934728012653
 20
264.8284823040897
 30
0.0
 10
157.3360075631086
 20
264.5231872009272
 30
0.0
 10
157.3160563092963
 20
264.2146726862304
 30
0.0
 10
157.3360075631085
 20
263.9061581715338
 30
0.0
 10
157.3934728012653
 20
263.600863068371
 30
0.0
 10
157.4902081078607
 20
263.2995162277377
 30
0.0
 10
157.6225928498376
 20
263.0074075218363
 30
0.0
 10
157.7925407312887
 20
262.7230179009436
 30
0.0
 10
157.9948562593978
 20
262.4528830238992
 30
0.0
 10
158.2321724988396
 20
262.1941599379392
 30
0.0
 10
158.49770337391
 20
261.9535995089163
 30
0.0
 10
158.7947476183152
 20
261.7281517135243
 30
0.0
 10
159.1153583998249
 20
261.5238312702952
 30
0.0
 10
159.4629197245125
 20
261.3381802507336
 30
0.0
 10
159.829095367526
 20
261.1758712376968
 30
0.0
 10
160.2165796009305
 20
261.0353584151503
 30
0.0
 10
160.6175139418065
 20
260.9197814670019
 30
0.0
 10
161.0331987089745
 20
260.8284262140332
 30
0.0
 10
161.4570170707467
 20
260.7630470778186
 30
0.0
 10
161.8883777576725
 20
260.723419120332
 30
0.0
 10
162.3224604966327
 20
260.7102826250677
 30
0.0
 10
162.7565432355922
 20
260.7234191203318
 30
0.0
 10
163.1879039225204
 20
260.7630470778186
 30
0.0
 10
163.6117222842837
 20
260.8284262140319
 30
0.0
 10
164.0274070514849
 20
260.9197814670051
 30
0.0
 10
164.4283413922393
 20
261.0353584151379
 30
0.0
 10
164.8158256260815
 20
261.17587123774
 30
0.0
 10
165.1820012675002
 20
261.3381802505749
 30
0.0
 10
165.5295625978651
 20
261.5238312708548
 30
0.0
 10
165.8501733588035
 20
261.7281517114808
 30
0.0
 10
166.147217675809
 20
261.9535995160594
 30
0.0
 10
166.4127482886085
 20
262.1941599118948
 30
0.0
 10
166.6500654507158
 20
262.4528831146077
 30
0.0
 10
166.8523776423116
 20
262.7230175694534
 30
0.0
 10
167.0223373199278
 20
263.0074086830194
 30
0.0
 10
167.154679133399
 20
263.2995119567964
 30
0.0
 10
167.2515685419001
 20
263.6008782973096
 30
0.0
 10
167.3084662909396
 20
263.9061015910444
 30
0.0
 10
167.3305056654102
 20
264.2148803341562
 30
0.0
 10
167.3120932615904
 20
264.4188602944837
 30
0.0
 10
167.3028870596805
 20
264.5208502746474
 30
0.0
 11
167.3028870596805
 21
264.5208502746474
 31
0.0
 11
167.2451611613264
 21
264.8269256228677
 31
0.0
 11
167.1505964898612
 21
265.1235487044048
 31
0.0
 11
167.0168762709068
 21
265.4191466792669
 31
0.0
 11
166.8511106249344
 21
265.697792104823
 31
0.0
 11
166.6456471375603
 21
265.9728666558092
 31
0.0
 11
166.4141241374661
 21
266.2261102561231
 31
0.0
 11
166.1438051963878
 21
266.4717005349027
 31
0.0
 11
165.8532988081361
 21
266.6927553356425
 31
0.0
 11
165.5270336343351
 21
266.9012491580343
 31
0.0
 11
165.1857821920403
 21
267.0839132417428
 31
0.0
 11
164.8140502740468
 21
267.2491177985837
 31
0.0
 11
164.4317899715093
 21
267.3879797790931
 31
0.0
 11
164.0262811726749
 21
267.5051784293449
 31
0.0
 11
163.6140941093892
 21
267.5958928899615
 31
0.0
 11
163.1873580977512
 21
267.661907939195
 31
0.0
 11
162.7573844401257
 21
267.7014319890597
 31
0.0
 11
162.3224604966329
 21
267.71467268623
 31
0.0
 11
161.8875365531401
 21
267.7014319890598
 31
0.0
 11
161.4575628955148
 21
267.6619079391952
 31
0.0
 11
161.0308268838772
 21
267.5958928899618
 31
0.0
 11
160.6186398205914
 21
267.5051784293452
 31
0.0
 11
160.2131310217571
 21
267.3879797790934
 31
0.0
 11
159.8308707192196
 21
267.2491177985841
 31
0.0
 11
159.459138801226
 21
267.0839132417434
 31
0.0
 11
159.1178873589312
 21
266.9012491580349
 31
0.0
 11
158.7916221851302
 21
266.6927553356431
 31
0.0
 11
158.5011157968784
 21
266.4717005349031
 31
0.0
 11
158.2307968558001
 21
266.2261102561237
 31
0.0
 11
157.9992738557058
 21
265.9728666558098
 31
0.0
 11
157.7938103683318
 21
265.6977921048238
 31
0.0
 11
157.6280447223593
 21
265.4191466792676
 31
0.0
 11
157.4943245034048
 21
265.1235487044054
 31
0.0
 11
157.3997598319396
 21
264.8269256228683
 31
0.0
 11
157.3420339335854
 21
264.5208502746481
 31
0.0
 11
157.3226730654659
 21
264.2146726862304
 31
0.0
 11
157.3420339335853
 21
263.9084950978128
 31
0.0
 11
157.3997598319396
 21
263.6024197495925
 31
0.0
 11
157.4943245034046
 21
263.3057966680555
 31
0.0
 11
157.6280447223591
 21
263.0101986931932
 31
0.0
 11
157.7938103683315
 21
262.7315532676371
 31
0.0
 11
157.9992738557055
 21
262.4564787166509
 31
0.0
 11
158.2307968557997
 21
262.2032351163369
 31
0.0
 11
158.501115796878
 21
261.9576448375574
 31
0.0
 11
158.7916221851297
 21
261.7365900368175
 31
0.0
 11
159.1178873589307
 21
261.5280962144256
 31
0.0
 11
159.4591388012254
 21
261.345432130717
 31
0.0
 11
159.8308707192191
 21
261.1802275738762
 31
0.0
 11
160.2131310217566
 21
261.0413655933669
 31
0.0
 11
160.6186398205909
 21
260.9241669431151
 31
0.0
 11
161.0308268838767
 21
260.8334524824986
 31
0.0
 11
161.4575628955144
 21
260.767437433265
 31
0.0
 11
161.8875365531398
 21
260.7279133834003
 31
0.0
 11
162.3224604966326
 21
260.71467268623
 31
0.0
 11
162.7573844401254
 21
260.7279133834002
 31
0.0
 11
163.1873580977508
 21
260.7674374332648
 31
0.0
 11
163.6140941093886
 21
260.8334524824983
 31
0.0
 11
164.0262811726744
 21
260.9241669431148
 31
0.0
 11
164.4317899715088
 21
261.0413655933667
 31
0.0
 11
164.8140502740463
 21
261.180227573876
 31
0.0
 11
165.1857821920399
 21
261.3454321307168
 31
0.0
 11
165.5270336343347
 21
261.5280962144253
 31
0.0
 11
165.8532988081357
 21
261.7365900368171
 31
0.0
 11
166.1438051963875
 21
261.957644837557
 31
0.0
 11
166.4141241374658
 21
262.2032351163364
 31
0.0
 11
166.64564713756
 21
262.4564787166503
 31
0.0
 11
166.8511106249341
 21
262.7315532676364
 31
0.0
 11
167.0168762709066
 21
263.0101986931925
 31
0.0
 11
167.1505964898611
 21
263.3057966680545
 31
0.0
 11
167.2451611613263
 21
263.6024197495917
 31
0.0
 11
167.3028870596805
 21
263.9084950978119
 31
0.0
 11
167.3222479277999
 21
264.2146726862296
 31
0.0
 11
167.3028870596805
 21
264.5208502746474
 31
0.0
  0
SPLINE
  5
94
330
39
100
AcDbEntity
  8
1
  6
Continuous
 62
     7
100
AcDbSpline
210
0.0
220
0.0
230
1.0
 70
    11
 71
     3
 72
    79
 73
    75
 74
    73
 42
0.0000000001
 43
0.0000000001
 44
0.00000001
 40
0.0
 40
0.0
 40
0.0
 40
0.0
 40
0.3142773867008981
 40
0.6283112411574732
 40
0.9612293766542831
 40
1.293805038039724
 40
1.653399990663351
 40
2.012687710360709
 40
2.402596358667178
 40
2.792277135713574
 40
3.212125602383398
 40
3.631818889113253
 40
4.078023830870399
 40
4.524128916246279
 40
4.990742665932829
 40
5.457297388873253
 40
5.936768753151545
 40
6.416212753073559
 40
6.900062536488267
 40
7.383912319902976
 40
7.863356319824876
 40
8.342827684103062
 40
8.809382407043543
 40
9.275996156730024
 40
9.722101242106065
 40
10.16830618386324
 40
10.58799947059302
 40
11.00784793726284
 40
11.39752871430929
 40
11.78743736261575
 40
12.14672508231315
 40
12.50632003493666
 40
12.83889569632207
 40
13.1718138318189
 40
13.4858476862755
 40
13.80012507297638
 40
14.10756996787612
 40
14.41501486277598
 40
14.72929224947685
 40
15.0433261039334
 40
15.37624423943008
 40
15.70881990081536
 40
16.068414853439
 40
16.42770257313647
 40
16.81761122144301
 40
17.20729199848941
 40
17.62714046515933
 40
18.04683375188914
 40
18.49303869364621
 40
18.93914377902218
 40
19.40575752870863
 40
19.87231225164917
 40
20.35178361592731
 40
20.83122761584938
 40
21.31507739926409
 40
21.79892718267881
 40
22.27837118260077
 40
22.75784254687893
 40
23.22439726981952
 40
23.69101101950596
 40
24.13711610488184
 40
24.58332104663904
 40
25.00301433336887
 40
25.42286280003864
 40
25.81254357708504
 40
26.20245222539161
 40
26.56173994508917
 40
26.92133489771273
 40
27.25391055909797
 40
27.58682869459468
 40
27.90086254905109
 40
28.21513993575213
 40
28.52258483065194
 40
28.83002972555174
 40
28.83002972555174
 40
28.83002972555174
 40
28.83002972555174
 10
287.5829374928175
 20
358.7551305035203
 30
0.0
 10
287.4796659381173
 20
358.7365380309216
 30
0.0
 10
287.2732028534165
 20
358.699367492954
 30
0.0
 10
286.9711180209248
 20
358.5884212297415
 30
0.0
 10
286.678923127879
 20
358.4413563869583
 30
0.0
 10
286.394068761881
 20
358.2512018347081
 30
0.0
 10
286.1246278391259
 20
358.0260671061837
 30
0.0
 10
285.8658304823683
 20
357.7614310360734
 30
0.0
 10
285.6261528180428
 20
357.4663708103927
 30
0.0
 10
285.4008145763594
 20
357.1356047628316
 30
0.0
 10
285.1972510554285
 20
356.7795374408669
 30
0.0
 10
285.0117587877148
 20
356.392804368684
 30
0.0
 10
284.849988674995
 20
355.9861309110138
 30
0.0
 10
284.7096211143278
 20
355.5551547152552
 30
0.0
 10
284.5943780559423
 20
355.1097810309054
 30
0.0
 10
284.5031247177242
 20
354.6475680810158
 30
0.0
 10
284.4379171759929
 20
354.1766494883173
 30
0.0
 10
284.3983267085615
 20
353.6971179240335
 30
0.0
 10
284.3852411055906
 20
353.2146726862322
 30
0.0
 10
284.3983267085603
 20
352.7322274484161
 30
0.0
 10
284.4379171759978
 20
352.2526958841772
 30
0.0
 10
284.5031247177061
 20
351.7817772913155
 30
0.0
 10
284.5943780560083
 20
351.3195643420196
 30
0.0
 10
284.709621114086
 20
350.8741906554989
 30
0.0
 10
284.8499886758533
 20
350.4432144675012
 30
0.0
 10
285.0117587845864
 20
350.0365409817048
 30
0.0
 10
285.197251066337
 20
349.6498080085528
 30
0.0
 10
285.4008145367873
 20
349.2937403304414
 30
0.0
 10
285.6261529540165
 20
348.9629755213804
 30
0.0
 10
285.8658299901964
 20
348.6679108640429
 30
0.0
 10
286.1246295169692
 20
348.403290103696
 30
0.0
 10
286.3940626764118
 20
348.1781006039129
 30
0.0
 10
286.6789439603765
 20
347.9881359616919
 30
0.0
 10
286.9710418498339
 20
347.8403867449912
 30
0.0
 10
287.273469363897
 20
347.7318581483171
 30
0.0
 10
287.5797040558408
 20
347.6676466209434
 30
0.0
 10
287.8896162528176
 20
347.6450455178055
 30
0.0
 10
288.1995284497944
 20
347.6676466209435
 30
0.0
 10
288.5057631417382
 20
347.7318581483171
 30
0.0
 10
288.8081906558014
 20
347.8403867449912
 30
0.0
 10
289.1002885452586
 20
347.9881359616918
 30
0.0
 10
289.3851698292231
 20
348.1781006039129
 30
0.0
 10
289.6546029886658
 20
348.4032901036961
 30
0.0
 10
289.9134025154389
 20
348.6679108640428
 30
0.0
 10
290.1530795516187
 20
348.9629755213803
 30
0.0
 10
290.3784179688481
 20
349.2937403304414
 30
0.0
 10
290.5819814392982
 20
349.6498080085527
 30
0.0
 10
290.7674737210488
 20
350.0365409817048
 30
0.0
 10
290.9292438297819
 20
350.4432144675012
 30
0.0
 10
291.0696113915492
 20
350.8741906554989
 30
0.0
 10
291.1848544496268
 20
351.3195643420196
 30
0.0
 10
291.2761077879289
 20
351.7817772913152
 30
0.0
 10
291.3413153296372
 20
352.2526958841771
 30
0.0
 10
291.380905797075
 20
352.7322274484167
 30
0.0
 10
291.3939914000442
 20
353.2146726862301
 30
0.0
 10
291.3809057970751
 20
353.6971179240422
 30
0.0
 10
291.3413153296368
 20
354.1766494882849
 30
0.0
 10
291.2761077879301
 20
354.6475680811353
 30
0.0
 10
291.1848544496218
 20
355.1097810304731
 30
0.0
 10
291.0696113915662
 20
355.5551547168398
 30
0.0
 10
290.929243829721
 20
355.9861309053884
 30
0.0
 10
290.7674737212707
 20
356.3928043891877
 30
0.0
 10
290.5819814385239
 20
356.7795373693714
 30
0.0
 10
290.3784179716577
 20
357.1356050221951
 30
0.0
 10
290.1530795419643
 20
357.4663699191933
 30
0.0
 10
289.9134025503844
 20
357.7614342618702
 30
0.0
 10
289.6546028695341
 20
358.0260561092554
 30
0.0
 10
289.3851702613094
 20
358.2512417201173
 30
0.0
 10
289.1002870660898
 20
358.4412198465113
 30
0.0
 10
288.8081960641737
 20
358.5889204706429
 30
0.0
 10
288.5057442187071
 20
358.6976207287804
 30
0.0
 10
288.1995986205966
 20
358.7612036866682
 30
0.0
 10
287.8893606729548
 20
358.7861030064248
 30
0.0
 10
287.6850785528632
 20
358.7654546711551
 30
0.0
 10
287.5829374928175
 20
358.7551305035203
 30
0.0
 11
287.5829374928175
 21
358.7551305035203
 31
0.0
 11
287.2753756200567
 21
358.6905087562875
 31
0.0
 11
286.9794867412605
 21
358.5853087888463
 31
0.0
 11
286.6822216763928
 21
358.4354156063735
 31
0.0
 11
286.4050330596476
 21
358.2516411759082
 31
0.0
 11
286.1286591595667
 21
358.0215846669664
 31
0.0
 11
285.8769325798467
 21
357.7652228238856
 31
0.0
 11
285.6305084088551
 21
357.4630575016276
 31
0.0
 11
285.4106588964069
 21
357.1413164568792
 31
0.0
 11
285.2017049912035
 21
356.7771585234694
 31
0.0
 11
285.0198489296217
 21
356.3989114774902
 31
0.0
 11
284.854440450496
 21
355.984497571978
 31
0.0
 11
284.7160435830732
 21
355.5604031788463
 31
0.0
 11
284.598795900704
 21
355.1087602088184
 31
0.0
 11
284.5082970680511
 21
354.6510667843666
 31
0.0
 11
284.4423041475174
 21
354.1761586631449
 31
0.0
 11
284.4028379164286
 21
353.6983417885319
 31
0.0
 11
284.3896162528175
 21
353.2146726862297
 31
0.0
 11
284.4028379164286
 21
352.7310035839275
 31
0.0
 11
284.4423041475174
 21
352.2531867093147
 31
0.0
 11
284.5082970680512
 21
351.7782785880931
 31
0.0
 11
284.5987959007041
 21
351.3205851636412
 31
0.0
 11
284.7160435830732
 21
350.8689421936134
 31
0.0
 11
284.854440450496
 21
350.4448478004815
 31
0.0
 11
285.0198489296216
 21
350.0304338949693
 31
0.0
 11
285.2017049912035
 21
349.6521868489901
 31
0.0
 11
285.4106588964069
 21
349.2880289155804
 31
0.0
 11
285.6305084088551
 21
348.9662878708319
 31
0.0
 11
285.8769325798468
 21
348.664122548574
 31
0.0
 11
286.1286591595667
 21
348.4077607054931
 31
0.0
 11
286.4050330596475
 21
348.1777041965514
 31
0.0
 11
286.6822216763927
 21
347.9939297660862
 31
0.0
 11
286.9794867412605
 21
347.8440365836134
 31
0.0
 11
287.2753756200567
 21
347.7388366161721
 31
0.0
 11
287.5829374928175
 21
347.6742148689394
 31
0.0
 11
287.8896162528176
 21
347.6525238209081
 31
0.0
 11
288.1962950128178
 21
347.6742148689395
 31
0.0
 11
288.5038568855786
 21
347.7388366161721
 31
0.0
 11
288.7997457643747
 21
347.8440365836134
 31
0.0
 11
289.0970108292423
 21
347.9939297660862
 31
0.0
 11
289.3741994459874
 21
348.1777041965514
 31
0.0
 11
289.6505733460684
 21
348.4077607054931
 31
0.0
 11
289.9022999257884
 21
348.664122548574
 31
0.0
 11
290.1487240967802
 21
348.9662878708319
 31
0.0
 11
290.3685736092284
 21
349.2880289155803
 31
0.0
 11
290.5775275144317
 21
349.6521868489902
 31
0.0
 11
290.7593835760136
 21
350.0304338949694
 31
0.0
 11
290.9247920551392
 21
350.4448478004815
 31
0.0
 11
291.063188922562
 21
350.8689421936134
 31
0.0
 11
291.180436604931
 21
351.3205851636412
 31
0.0
 11
291.2709354375839
 21
351.7782785880931
 31
0.0
 11
291.3369283581178
 21
352.2531867093147
 31
0.0
 11
291.3763945892066
 21
352.7310035839277
 31
0.0
 11
291.3896162528177
 21
353.2146726862299
 31
0.0
 11
291.3763945892066
 21
353.6983417885321
 31
0.0
 11
291.3369283581177
 21
354.1761586631449
 31
0.0
 11
291.2709354375837
 21
354.6510667843664
 31
0.0
 11
291.1804366049308
 21
355.1087602088185
 31
0.0
 11
291.0631889225618
 21
355.5604031788463
 31
0.0
 11
290.9247920551392
 21
355.9844975719781
 31
0.0
 11
290.7593835760135
 21
356.3989114774903
 31
0.0
 11
290.5775275144317
 21
356.7771585234696
 31
0.0
 11
290.3685736092284
 21
357.1413164568793
 31
0.0
 11
290.1487240967802
 21
357.4630575016277
 31
0.0
 11
289.9022999257884
 21
357.7652228238856
 31
0.0
 11
289.6505733460684
 21
358.0215846669667
 31
0.0
 11
289.3741994459874
 21
358.2516411759083
 31
0.0
 11
289.0970108292424
 21
358.4354156063735
 31
0.0
 11
288.7997457643747
 21
358.5853087888463
 31
0.0
 11
288.5038568855788
 21
358.6905087562875
 31
0.0
 11
288.1962950128178
 21
358.7551305035202
 31
0.0
 11
287.8896162528176
 21
358.7768215515516
 31
0.0
 11
287.5829374928175
 21
358.7551305035203
 31
0.0
  0
SPLINE
  5
95
330
39
100
AcDbEntity
  8
1
  6
Continuous
 62
     7
100
AcDbSpline
210
0.0
220
0.0
230
1.0
 70
    11
 71
     3
 72
    79
 73
    75
 74
    73
 42
0.0000000001
 43
0.0000000001
 44
0.00000001
 40
0.0
 40
0.0
 40
0.0
 40
0.0
 40
0.3142773867008981
 40
0.6283112411574732
 40
0.9612293766543343
 40
1.293805038039712
 40
1.653399990663267
 40
2.012687710360706
 40
2.402596358667219
 40
2.792277135713709
 40
3.212125602383533
 40
3.631818889113285
 40
4.078023830870379
 40
4.524128916246259
 40
4.990742665932644
 40
5.457297388873236
 40
5.936768753151529
 40
6.416212753073542
 40
6.90006253648825
 40
7.383912319902845
 40
7.863356319824916
 40
8.34282768410316
 40
8.809382407043696
 40
9.275996156730066
 40
9.722101242106001
 40
10.16830618386307
 40
10.58799947059295
 40
11.00784793726288
 40
11.39752871430937
 40
11.78743736261583
 40
12.14672508231315
 40
12.50632003493666
 40
12.83889569632206
 40
13.17181383181893
 40
13.4858476862755
 40
13.80012507297639
 40
14.10756996787613
 40
14.41501486277599
 40
14.72929224947687
 40
15.0433261039334
 40
15.3762442394301
 40
15.70881990081539
 40
16.06841485343895
 40
16.42770257313647
 40
16.81761122144305
 40
17.2072919984895
 40
17.62714046515932
 40
18.04683375188922
 40
18.49303869364629
 40
18.93914377902232
 40
19.40575752870866
 40
19.87231225164914
 40
20.35178361592734
 40
20.83122761584941
 40
21.31507739926412
 40
21.79892718267872
 40
22.2783711826008
 40
22.75784254687901
 40
23.22439726981949
 40
23.69101101950588
 40
24.13711610488181
 40
24.58332104663906
 40
25.00301433336884
 40
25.42286280003867
 40
25.81254357708502
 40
26.20245222539164
 40
26.56173994508908
 40
26.92133489771271
 40
27.25391055909791
 40
27.58682869459465
 40
27.90086254905106
 40
28.21513993575213
 40
28.52258483065193
 40
28.83002972555173
 40
28.83002972555173
 40
28.83002972555173
 40
28.83002972555173
 10
287.5829374928175
 20
360.6742148689395
 30
0.0
 10
287.4796659381173
 20
360.6928073415383
 30
0.0
 10
287.2732028534165
 20
360.7299778795058
 30
0.0
 10
286.9711180209248
 20
360.8409241427183
 30
0.0
 10
286.6789231278791
 20
360.9879889855015
 30
0.0
 10
286.3940687618809
 20
361.1781435377517
 30
0.0
 10
286.1246278391259
 20
361.403278266276
 30
0.0
 10
285.8658304823683
 20
361.6679143363864
 30
0.0
 10
285.6261528180428
 20
361.9629745620672
 30
0.0
 10
285.4008145763593
 20
362.2937406096284
 30
0.0
 10
285.1972510554286
 20
362.6498079315931
 30
0.0
 10
285.0117587877148
 20
363.0365410037759
 30
0.0
 10
284.8499886749951
 20
363.4432144614461
 30
0.0
 10
284.7096211143277
 20
363.8741906572045
 30
0.0
 10
284.5943780559423
 20
364.3195643415544
 30
0.0
 10
284.5031247177242
 20
364.7817772914439
 30
0.0
 10
284.437917175993
 20
365.2526958841426
 30
0.0
 10
284.3983267085615
 20
365.7322274484264
 30
0.0
 10
284.3852411055906
 20
366.2146726862274
 30
0.0
 10
284.3983267085603
 20
366.6971179240439
 30
0.0
 10
284.4379171759978
 20
367.1766494882825
 30
0.0
 10
284.503124717706
 20
367.6475680811446
 30
0.0
 10
284.5943780560083
 20
368.1097810304404
 30
0.0
 10
284.7096211140861
 20
368.5551547169609
 30
0.0
 10
284.8499886758534
 20
368.9861309049585
 30
0.0
 10
285.0117587845864
 20
369.3928043907549
 30
0.0
 10
285.197251066337
 20
369.7795373639069
 30
0.0
 10
285.4008145367873
 20
370.1356050420184
 30
0.0
 10
285.6261529540165
 20
370.4663698510797
 30
0.0
 10
285.8658299901964
 20
370.7614345084171
 30
0.0
 10
286.1246295169692
 20
371.0260552687636
 30
0.0
 10
286.3940626764118
 20
371.2512447685469
 30
0.0
 10
286.6789439603764
 20
371.4412094107679
 30
0.0
 10
286.9710418498339
 20
371.5889586274687
 30
0.0
 10
287.2734693638972
 20
371.6974872241427
 30
0.0
 10
287.5797040558408
 20
371.7616987515164
 30
0.0
 10
287.8896162528176
 20
371.7842998546545
 30
0.0
 10
288.1995284497944
 20
371.7616987515165
 30
0.0
 10
288.5057631417382
 20
371.6974872241428
 30
0.0
 10
288.8081906558013
 20
371.5889586274687
 30
0.0
 10
289.1002885452586
 20
371.441209410768
 30
0.0
 10
289.3851698292232
 20
371.251244768547
 30
0.0
 10
289.6546029886658
 20
371.0260552687638
 30
0.0
 10
289.9134025154389
 20
370.7614345084172
 30
0.0
 10
290.1530795516187
 20
370.4663698510794
 30
0.0
 10
290.378417968848
 20
370.1356050420185
 30
0.0
 10
290.5819814392984
 20
369.7795373639071
 30
0.0
 10
290.7674737210488
 20
369.392804390755
 30
0.0
 10
290.9292438297819
 20
368.9861309049585
 30
0.0
 10
291.0696113915491
 20
368.5551547169609
 30
0.0
 10
291.1848544496268
 20
368.1097810304404
 30
0.0
 10
291.276107787929
 20
367.6475680811446
 30
0.0
 10
291.3413153296372
 20
367.1766494882827
 30
0.0
 10
291.380905797075
 20
366.6971179240433
 30
0.0
 10
291.3939914000442
 20
366.21467268623
 30
0.0
 10
291.3809057970751
 20
365.7322274484175
 30
0.0
 10
291.3413153296369
 20
365.252695884175
 30
0.0
 10
291.2761077879301
 20
364.7817772913247
 30
0.0
 10
291.1848544496219
 20
364.3195643419867
 30
0.0
 10
291.0696113915661
 20
363.8741906556202
 30
0.0
 10
290.9292438297211
 20
363.4432144670717
 30
0.0
 10
290.7674737212708
 20
363.036540983272
 30
0.0
 10
290.5819814385238
 20
362.6498080030887
 30
0.0
 10
290.3784179716577
 20
362.2937403502647
 30
0.0
 10
290.1530795419642
 20
361.9629754532666
 30
0.0
 10
289.9134025503845
 20
361.6679111105897
 30
0.0
 10
289.654602869534
 20
361.4032892632046
 30
0.0
 10
289.3851702613096
 20
361.1781036523426
 30
0.0
 10
289.1002870660897
 20
360.9881255259486
 30
0.0
 10
288.8081960641738
 20
360.840424901817
 30
0.0
 10
288.505744218707
 20
360.7317246436795
 30
0.0
 10
288.1995986205967
 20
360.6681416857917
 30
0.0
 10
287.8893606729547
 20
360.643242366035
 30
0.0
 10
287.6850785528632
 20
360.6638907013047
 30
0.0
 10
287.5829374928175
 20
360.6742148689395
 30
0.0
 11
287.5829374928175
 21
360.6742148689395
 31
0.0
 11
287.2753756200567
 21
360.7388366161723
 31
0.0
 11
286.9794867412605
 21
360.8440365836135
 31
0.0
 11
286.6822216763928
 21
360.9939297660865
 31
0.0
 11
286.4050330596476
 21
361.1777041965516
 31
0.0
 11
286.1286591595667
 21
361.4077607054933
 31
0.0
 11
285.8769325798467
 21
361.6641225485743
 31
0.0
 11
285.6305084088551
 21
361.9662878708323
 31
0.0
 11
285.4106588964069
 21
362.2880289155808
 31
0.0
 11
285.2017049912035
 21
362.6521868489905
 31
0.0
 11
285.0198489296217
 21
363.0304338949697
 31
0.0
 11
284.854440450496
 21
363.4448478004818
 31
0.0
 11
284.7160435830732
 21
363.8689421936135
 31
0.0
 11
284.598795900704
 21
364.3205851636412
 31
0.0
 11
284.5082970680511
 21
364.7782785880933
 31
0.0
 11
284.4423041475174
 21
365.253186709315
 31
0.0
 11
284.4028379164286
 21
365.7310035839279
 31
0.0
 11
284.3896162528175
 21
366.2146726862301
 31
0.0
 11
284.4028379164286
 21
366.6983417885322
 31
0.0
 11
284.4423041475174
 21
367.1761586631452
 31
0.0
 11
284.5082970680512
 21
367.6510667843668
 31
0.0
 11
284.5987959007041
 21
368.1087602088188
 31
0.0
 11
284.7160435830732
 21
368.5604031788465
 31
0.0
 11
284.854440450496
 21
368.9844975719782
 31
0.0
 11
285.0198489296216
 21
369.3989114774903
 31
0.0
 11
285.2017049912035
 21
369.7771585234696
 31
0.0
 11
285.4106588964069
 21
370.1413164568795
 31
0.0
 11
285.6305084088551
 21
370.463057501628
 31
0.0
 11
285.8769325798468
 21
370.7652228238859
 31
0.0
 11
286.1286591595667
 21
371.0215846669668
 31
0.0
 11
286.4050330596475
 21
371.2516411759084
 31
0.0
 11
286.6822216763927
 21
371.4354156063736
 31
0.0
 11
286.9794867412605
 21
371.5853087888465
 31
0.0
 11
287.2753756200567
 21
371.6905087562877
 31
0.0
 11
287.5829374928175
 21
371.7551305035204
 31
0.0
 11
287.8896162528176
 21
371.7768215515518
 31
0.0
 11
288.1962950128178
 21
371.7551305035204
 31
0.0
 11
288.5038568855786
 21
371.6905087562877
 31
0.0
 11
288.7997457643747
 21
371.5853087888465
 31
0.0
 11
289.0970108292423
 21
371.4354156063737
 31
0.0
 11
289.3741994459874
 21
371.2516411759085
 31
0.0
 11
289.6505733460684
 21
371.0215846669669
 31
0.0
 11
289.9022999257884
 21
370.765222823886
 31
0.0
 11
290.1487240967802
 21
370.4630575016279
 31
0.0
 11
290.3685736092284
 21
370.1413164568795
 31
0.0
 11
290.5775275144317
 21
369.7771585234697
 31
0.0
 11
290.7593835760136
 21
369.3989114774904
 31
0.0
 11
290.9247920551392
 21
368.9844975719783
 31
0.0
 11
291.063188922562
 21
368.5604031788464
 31
0.0
 11
291.180436604931
 21
368.1087602088187
 31
0.0
 11
291.2709354375839
 21
367.6510667843668
 31
0.0
 11
291.3369283581178
 21
367.1761586631452
 31
0.0
 11
291.3763945892066
 21
366.6983417885322
 31
0.0
 11
291.3896162528177
 21
366.21467268623
 31
0.0
 11
291.3763945892066
 21
365.7310035839279
 31
0.0
 11
291.3369283581177
 21
365.253186709315
 31
0.0
 11
291.2709354375837
 21
364.7782785880934
 31
0.0
 11
291.1804366049308
 21
364.3205851636415
 31
0.0
 11
291.0631889225618
 21
363.8689421936137
 31
0.0
 11
290.9247920551392
 21
363.4448478004819
 31
0.0
 11
290.7593835760135
 21
363.0304338949696
 31
0.0
 11
290.5775275144317
 21
362.6521868489904
 31
0.0
 11
290.3685736092284
 21
362.2880289155806
 31
0.0
 11
290.1487240967802
 21
361.9662878708323
 31
0.0
 11
289.9022999257884
 21
361.6641225485743
 31
0.0
 11
289.6505733460684
 21
361.4077607054933
 31
0.0
 11
289.3741994459874
 21
361.1777041965516
 31
0.0
 11
289.0970108292424
 21
360.9939297660865
 31
0.0
 11
288.7997457643747
 21
360.8440365836136
 31
0.0
 11
288.5038568855788
 21
360.7388366161724
 31
0.0
 11
288.1962950128178
 21
360.6742148689397
 31
0.0
 11
287.8896162528176
 21
360.6525238209082
 31
0.0
 11
287.5829374928175
 21
360.6742148689395
 31
0.0
  0
ENDBLK
  5
3B
330
39
100
AcDbEntity
  8
0
100
AcDbBlockEnd
  0
BLOCK
  5
3D
330
3C
100
AcDbEntity
  8
0
100
AcDbBlockBegin
  2
37-1-13__2
 70
     0
 71
     0
 10
1012.026590067418
 20
529.0204979929567
 30
0.0
  3
37-1-13__2
  1

  0
LINE
  5
96
330
3C
100
AcDbEntity
  8
1
  6
Continuous
 62
     7
100
AcDbLine
 10
203.4946030789974
 20
369.71467268623
 30
0.0
 11
203.4946030789974
 21
349.7146726862299
 31
0.0
  0
LINE
  5
97
330
3C
100
AcDbEntity
  8
1
  6
Continuous
 62
     7
100
AcDbLine
 10
196.3223618205213
 20
346.71467268623
 30
0.0
 11
203.4946030789974
 21
346.71467268623
 31
0.0
  0
LINE
  5
98
330
3C
100
AcDbEntity
  8
1
  6
Continuous
 62
     7
100
AcDbLine
 10
203.4946030789974
 20
372.7146726862299
 30
0.0
 11
196.3223618205213
 21
372.7146726862299
 31
0.0
  0
LINE
  5
99
330
3C
100
AcDbEntity
  8
1
  6
Continuous
 62
     7
100
AcDbLine
 10
196.3223618205213
 20
372.7146726862299
 30
0.0
 11
196.3223618205213
 21
346.71467268623
 31
0.0
  0
LINE
  5
9A
330
3C
100
AcDbEntity
  8
1
  6
Continuous
 62
     7
100
AcDbLine
 10
210.3223618205213
 20
365.7146726862299
 30
0.0
 11
210.3223618205213
 21
353.7146726862297
 31
0.0
  0
LINE
  5
9B
330
3C
100
AcDbEntity
  8
1
  6
Continuous
 62
     7
100
AcDbLine
 10
203.8246087756302
 20
242.21467268623
 30
0.0
 11
203.8246087756295
 21
229.7146726862293
 31
0.0
  0
LINE
  5
9C
330
3C
100
AcDbEntity
  8
1
  6
Continuous
 62
     7
100
AcDbLine
 10
196.3246087756299
 20
229.7146726862302
 30
0.0
 11
196.3246087756299
 21
242.7853869005016
 31
0.0
  0
LINE
  5
9D
330
3C
100
AcDbEntity
  8
1
  6
PHANTOM
 62
     4
100
AcDbLine
 10
196.3247074517169
 20
229.7146726862302
 30
0.0
 11
212.365339339716
 21
229.7146726862302
 31
0.0
  0
LINE
  5
9E
330
3C
100
AcDbEntity
  8
1
  6
DOT_CENTER
 62
     2
100
AcDbLine
 10
196.3246087756299
 20
229.7146726862302
 30
0.0
 11
193.8987041871988
 21
229.7146726862302
 31
0.0
  0
LINE
  5
9F
330
3C
100
AcDbEntity
  8
1
  6
Continuous
 62
     7
100
AcDbLine
 10
210.3246087756299
 20
229.7146726862301
 30
0.0
 11
210.3246087756299
 21
235.7146726862302
 31
0.0
  0
LINE
  5
A0
330
3C
100
AcDbEntity
  8
1
  6
Continuous
 62
     7
100
AcDbLine
 10
203.8246087756295
 20
229.7146726862313
 30
0.0
 11
203.8246087756302
 21
217.2146726862306
 31
0.0
  0
LINE
  5
A1
330
3C
100
AcDbEntity
  8
1
  6
Continuous
 62
     7
100
AcDbLine
 10
196.3246087756299
 20
216.643958471959
 30
0.0
 11
196.3246087756299
 21
229.7146726862302
 31
0.0
  0
LINE
  5
A2
330
3C
100
AcDbEntity
  8
1
  6
Continuous
 62
     7
100
AcDbLine
 10
210.3246087756299
 20
223.7146726862304
 30
0.0
 11
210.3246087756299
 21
229.7146726862301
 31
0.0
  0
LINE
  5
A3
330
3C
100
AcDbEntity
  8
1
  6
PHANTOM
 62
     4
100
AcDbLine
 10
304.390707682338
 20
359.71467268623
 30
0.0
 11
340.0946019502085
 21
359.71467268623
 31
0.0
  0
LINE
  5
A4
330
3C
100
AcDbEntity
  8
1
  6
Continuous
 62
     7
100
AcDbLine
 10
307.9199778589539
 20
360.6525238209083
 30
0.0
 11
311.1312860036201
 21
366.21467268623
 31
0.0
  0
LINE
  5
A5
330
3C
100
AcDbEntity
  8
1
  6
Continuous
 62
     7
100
AcDbLine
 10
315.9669999634853
 20
372.71467268623
 30
0.0
 11
322.3896162528179
 21
372.71467268623
 31
0.0
  0
LINE
  5
A6
330
3C
100
AcDbEntity
  8
1
  6
Continuous
 62
     7
100
AcDbLine
 10
330.4366383573492
 20
371.7768215515518
 30
0.0
 11
333.6479465020154
 21
366.21467268623
 31
0.0
  0
LINE
  5
A7
330
3C
100
AcDbEntity
  8
1
  6
Continuous
 62
     7
100
AcDbLine
 10
336.8592546466819
 20
358.7768215515518
 30
0.0
 11
333.6479465020154
 21
353.21467268623
 31
0.0
  0
LINE
  5
A8
330
3C
100
AcDbEntity
  8
1
  6
Continuous
 62
     7
100
AcDbLine
 10
328.8122325421502
 20
346.71467268623
 30
0.0
 11
322.3896162528179
 21
346.71467268623
 31
0.0
  0
LINE
  5
A9
330
3C
100
AcDbEntity
  8
1
  6
Continuous
 62
     7
100
AcDbLine
 10
314.3425941482863
 20
347.6525238209083
 30
0.0
 11
311.1312860036201
 21
353.21467268623
 31
0.0
  0
LINE
  5
AA
330
3C
100
AcDbEntity
  8
1
  6
Continuous
 62
     7
100
AcDbLine
 10
311.1312860036201
 20
366.21467268623
 30
0.0
 11
314.3425941482863
 21
371.7768215515518
 31
0.0
  0
LINE
  5
AB
330
3C
100
AcDbEntity
  8
1
  6
Continuous
 62
     7
100
AcDbLine
 10
322.3896162528179
 20
372.71467268623
 30
0.0
 11
328.8122325421502
 21
372.71467268623
 31
0.0
  0
LINE
  5
AC
330
3C
100
AcDbEntity
  8
1
  6
Continuous
 62
     7
100
AcDbLine
 10
333.6479465020154
 20
366.21467268623
 30
0.0
 11
336.8592546466819
 21
360.6525238209083
 31
0.0
  0
LINE
  5
AD
330
3C
100
AcDbEntity
  8
1
  6
Continuous
 62
     7
100
AcDbLine
 10
333.6479465020154
 20
353.21467268623
 30
0.0
 11
330.4366383573492
 21
347.6525238209083
 31
0.0
  0
LINE
  5
AE
330
3C
100
AcDbEntity
  8
1
  6
Continuous
 62
     7
100
AcDbLine
 10
322.3896162528179
 20
346.71467268623
 30
0.0
 11
315.9669999634853
 21
346.71467268623
 31
0.0
  0
LINE
  5
AF
330
3C
100
AcDbEntity
  8
1
  6
Continuous
 62
     7
100
AcDbLine
 10
311.1312860036201
 20
353.21467268623
 30
0.0
 11
307.9199778589539
 21
358.7768215515518
 31
0.0
  0
LINE
  5
B0
330
3C
100
AcDbEntity
  8
1
  6
PHANTOM
 62
     4
100
AcDbLine
 10
322.3896162528179
 20
375.2809827412753
 30
0.0
 11
322.3896162528179
 21
344.2179759432322
 31
0.0
  0
ARC
  5
B1
330
3C
100
AcDbEntity
  8
1
  6
Continuous
 62
     7
100
AcDbCircle
 10
223.7288170256363
 20
333.808217481115
 30
0.0
 40
23.99999999999991
100
AcDbArc
 50
146.0408074999019
 51
147.4681084822515
  0
ARC
  5
B2
330
3C
100
AcDbEntity
  8
1
  6
Continuous
 62
     7
100
AcDbCircle
 10
223.7288170256363
 20
385.6211278913448
 30
0.0
 40
23.99999999999981
100
AcDbArc
 50
-146.0408074999022
 51
-123.9591925000976
  0
ARC
  5
B3
330
3C
100
AcDbEntity
  8
1
  6
Continuous
 62
     7
100
AcDbCircle
 10
223.7288170256363
 20
333.808217481115
 30
0.0
 40
23.99999999999984
100
AcDbArc
 50
123.9591925000979
 51
146.0408074999019
  0
ARC
  5
B4
330
3C
100
AcDbEntity
  8
1
  6
Continuous
 62
     7
100
AcDbCircle
 10
223.7288170256363
 20
385.6211278913448
 30
0.0
 40
23.99999999999988
100
AcDbArc
 50
-147.4681084822517
 51
-146.0408074999022
  0
ARC
  5
B5
330
3C
100
AcDbEntity
  8
1
  6
Continuous
 62
     7
100
AcDbCircle
 10
223.7310639807449
 20
255.6211278913449
 30
0.0
 40
23.99999999999981
100
AcDbArc
 50
-146.0408074999022
 51
-123.9591925000979
  0
ARC
  5
B6
330
3C
100
AcDbEntity
  8
1
  6
Continuous
 62
     7
100
AcDbCircle
 10
199.8246087756299
 20
239.2146726862302
 30
0.0
 40
5.000000000000108
100
AcDbArc
 50
36.86989764584024
 51
134.4270040008057
  0
ARC
  5
B7
330
3C
100
AcDbEntity
  8
1
  6
Continuous
 62
     7
100
AcDbCircle
 10
199.8246087756299
 20
220.2146726862304
 30
0.0
 40
4.999999999999975
100
AcDbArc
 50
-134.427004000806
 51
-36.86989764583998
  0
ARC
  5
B8
330
3C
100
AcDbEntity
  8
1
  6
Continuous
 62
     7
100
AcDbCircle
 10
223.7310639807449
 20
203.8082174811157
 30
0.0
 40
23.99999999999984
100
AcDbArc
 50
123.9591925000979
 51
146.0408074999022
  0
ARC
  5
B9
330
3C
100
AcDbEntity
  8
1
  6
Continuous
 62
     7
100
AcDbCircle
 10
322.3896162528179
 20
359.71467268623
 30
0.0
 40
14.50000000000002
100
AcDbArc
 50
116.2915552747295
 51
123.7084447252712
  0
ARC
  5
BA
330
3C
100
AcDbEntity
  8
1
  6
Continuous
 62
     7
100
AcDbCircle
 10
322.3896162528179
 20
359.71467268623
 30
0.0
 40
12.99999999999979
100
AcDbArc
 50
30.00000000000054
 51
90.0
  0
ARC
  5
BB
330
3C
100
AcDbEntity
  8
1
  6
Continuous
 62
     7
100
AcDbCircle
 10
322.3896162528179
 20
359.71467268623
 30
0.0
 40
13.0
100
AcDbArc
 50
90.0
 51
150.0000000000002
  0
ARC
  5
BC
330
3C
100
AcDbEntity
  8
1
  6
Continuous
 62
     7
100
AcDbCircle
 10
322.3896162528179
 20
359.71467268623
 30
0.0
 40
14.49999999999994
100
AcDbArc
 50
56.29155527472994
 51
63.70844472527169
  0
ARC
  5
BD
330
3C
100
AcDbEntity
  8
1
  6
Continuous
 62
     7
100
AcDbCircle
 10
322.3896162528179
 20
359.71467268623
 30
0.0
 40
12.99999999999979
100
AcDbArc
 50
-30.00000000000054
 51
30.00000000000054
  0
ARC
  5
BE
330
3C
100
AcDbEntity
  8
1
  6
Continuous
 62
     7
100
AcDbCircle
 10
322.3896162528179
 20
359.71467268623
 30
0.0
 40
14.5
100
AcDbArc
 50
0.0
 51
3.70844472527075
  0
ARC
  5
BF
330
3C
100
AcDbEntity
  8
1
  6
Continuous
 62
     7
100
AcDbCircle
 10
322.3896162528179
 20
359.71467268623
 30
0.0
 40
13.0
100
AcDbArc
 50
-90.0
 51
-30.00000000000054
  0
ARC
  5
C0
330
3C
100
AcDbEntity
  8
1
  6
Continuous
 62
     7
100
AcDbCircle
 10
322.3896162528179
 20
359.71467268623
 30
0.0
 40
14.49999999999987
100
AcDbArc
 50
-63.70844472527169
 51
-56.29155527472982
  0
ARC
  5
C1
330
3C
100
AcDbEntity
  8
1
  6
Continuous
 62
     7
100
AcDbCircle
 10
322.3896162528179
 20
359.71467268623
 30
0.0
 40
13.00000000000008
100
AcDbArc
 50
-150.0000000000002
 51
-90.0
  0
ARC
  5
C2
330
3C
100
AcDbEntity
  8
1
  6
Continuous
 62
     7
100
AcDbCircle
 10
322.3896162528179
 20
359.71467268623
 30
0.0
 40
14.50000000000008
100
AcDbArc
 50
-123.7084447252713
 51
-116.2915552747295
  0
ARC
  5
C3
330
3C
100
AcDbEntity
  8
1
  6
Continuous
 62
     7
100
AcDbCircle
 10
322.3896162528179
 20
359.71467268623
 30
0.0
 40
13.00000000000008
100
AcDbArc
 50
150.0000000000002
 51
-150.0000000000002
  0
ARC
  5
C4
330
3C
100
AcDbEntity
  8
1
  6
Continuous
 62
     7
100
AcDbCircle
 10
322.3896162528179
 20
359.71467268623
 30
0.0
 40
14.5
100
AcDbArc
 50
180.0
 51
-176.2915552747295
  0
ARC
  5
C5
330
3C
100
AcDbEntity
  8
1
  6
Continuous
 62
     7
100
AcDbCircle
 10
322.3896162528179
 20
359.71467268623
 30
0.0
 40
14.50000000000001
100
AcDbArc
 50
176.2915552747293
 51
180.0
  0
ARC
  5
C6
330
3C
100
AcDbEntity
  8
1
  6
Continuous
 62
     7
100
AcDbCircle
 10
322.3896162528179
 20
359.71467268623
 30
0.0
 40
14.5
100
AcDbArc
 50
-3.70844472527053
 51
0.0
  0
CIRCLE
  5
C7
330
3C
100
AcDbEntity
  8
1
  6
Continuous
 62
     7
100
AcDbCircle
 10
322.3896162528179
 20
359.71467268623
 30
0.0
 40
6.0
  0
CIRCLE
  5
C8
330
3C
100
AcDbEntity
  8
1
  6
Continuous
 62
     7
100
AcDbCircle
 10
322.3896162528179
 20
359.71467268623
 30
0.0
 40
5.0
  0
SPLINE
  5
C9
330
3C
100
AcDbEntity
  8
1
  6
Continuous
 62
     7
100
AcDbSpline
210
0.0
220
0.0
230
1.0
 70
    11
 71
     3
 72
    79
 73
    75
 74
    73
 42
0.0000000001
 43
0.0000000001
 44
0.00000001
 40
0.0
 40
0.0
 40
0.0
 40
0.0
 40
0.3142773867009816
 40
0.6283112411575835
 40
0.96122937665447
 40
1.293805038039824
 40
1.653399990663357
 40
2.012687710360776
 40
2.402596358667325
 40
2.792277135713783
 40
3.212125602383621
 40
3.631818889113362
 40
4.078023830870434
 40
4.524128916246314
 40
4.990742665932684
 40
5.457297388873287
 40
5.936768753151594
 40
6.416212753073605
 40
6.900062536488314
 40
7.383912319902911
 40
7.863356319824976
 40
8.342827684103227
 40
8.809382407043769
 40
9.275996156730139
 40
9.722101242106074
 40
10.16830618386316
 40
10.58799947059301
 40
11.00784793726293
 40
11.39752871430939
 40
11.78743736261582
 40
12.14672508231319
 40
12.50632003493673
 40
12.83889569632211
 40
13.17181383181898
 40
13.48584768627558
 40
13.80012507297652
 40
14.10756996787629
 40
14.41501486277606
 40
14.72929224947698
 40
15.04332610393347
 40
15.3762442394302
 40
15.70881990081553
 40
16.06841485343905
 40
16.42770257313655
 40
16.81761122144314
 40
17.20729199848958
 40
17.6271404651594
 40
18.0468337518893
 40
18.49303869364638
 40
18.9391437790224
 40
19.40575752870874
 40
19.87231225164921
 40
20.35178361592741
 40
20.83122761584948
 40
21.31507739926419
 40
21.79892718267879
 40
22.27837118260087
 40
22.75784254687907
 40
23.22439726981956
 40
23.69101101950596
 40
24.13711610488189
 40
24.5833210466391
 40
25.00301433336891
 40
25.42286280003873
 40
25.81254357708506
 40
26.20245222539167
 40
26.56173994508911
 40
26.9213348977127
 40
27.253910559098
 40
27.58682869459468
 40
27.90086254905115
 40
28.2151399357521
 40
28.52258483065197
 40
28.83002972555179
 40
28.83002972555179
 40
28.83002972555179
 40
28.83002972555179
 10
200.1290405805215
 20
360.6742148689395
 30
0.0
 10
200.2323121352217
 20
360.6928073415383
 30
0.0
 10
200.4387752199226
 20
360.7299778795058
 30
0.0
 10
200.7408600524142
 20
360.8409241427183
 30
0.0
 10
201.0330549454599
 20
360.9879889855015
 30
0.0
 10
201.317909311458
 20
361.1781435377517
 30
0.0
 10
201.5873502342132
 20
361.403278266276
 30
0.0
 10
201.8461475909706
 20
361.6679143363864
 30
0.0
 10
202.0858252552962
 20
361.9629745620671
 30
0.0
 10
202.3111634969795
 20
362.2937406096285
 30
0.0
 10
202.5147270179105
 20
362.6498079315931
 30
0.0
 10
202.7002192856241
 20
363.0365410037759
 30
0.0
 10
202.8619893983439
 20
363.443214461446
 30
0.0
 10
203.0023569590112
 20
363.8741906572047
 30
0.0
 10
203.1176000173966
 20
364.3195643415543
 30
0.0
 10
203.2088533556147
 20
364.781777291444
 30
0.0
 10
203.2740608973462
 20
365.2526958841426
 30
0.0
 10
203.3136513647774
 20
365.7322274484263
 30
0.0
 10
203.3267369677485
 20
366.2146726862275
 30
0.0
 10
203.3136513647787
 20
366.6971179240438
 30
0.0
 10
203.2740608973412
 20
367.1766494882825
 30
0.0
 10
203.2088533556329
 20
367.6475680811445
 30
0.0
 10
203.1176000173307
 20
368.1097810304406
 30
0.0
 10
203.0023569592528
 20
368.5551547169611
 30
0.0
 10
202.8619893974857
 20
368.9861309049585
 30
0.0
 10
202.7002192887525
 20
369.3928043907549
 30
0.0
 10
202.514727007002
 20
369.7795373639069
 30
0.0
 10
202.3111635365517
 20
370.1356050420184
 30
0.0
 10
202.0858251193226
 20
370.4663698510796
 30
0.0
 10
201.8461480831428
 20
370.7614345084172
 30
0.0
 10
201.5873485563697
 20
371.0260552687636
 30
0.0
 10
201.3179153969272
 20
371.2512447685469
 30
0.0
 10
201.0330341129625
 20
371.4412094107678
 30
0.0
 10
200.7409362235051
 20
371.5889586274689
 30
0.0
 10
200.4385087094419
 20
371.6974872241426
 30
0.0
 10
200.1322740174981
 20
371.7616987515164
 30
0.0
 10
199.8223618205213
 20
371.7842998546544
 30
0.0
 10
199.5124496235445
 20
371.7616987515164
 30
0.0
 10
199.2062149316009
 20
371.6974872241428
 30
0.0
 10
198.9037874175376
 20
371.5889586274687
 30
0.0
 10
198.6116895280803
 20
371.441209410768
 30
0.0
 10
198.3268082441157
 20
371.2512447685469
 30
0.0
 10
198.057375084673
 20
371.0260552687637
 30
0.0
 10
197.7985755579001
 20
370.7614345084172
 30
0.0
 10
197.5588985217202
 20
370.4663698510795
 30
0.0
 10
197.333560104491
 20
370.1356050420185
 30
0.0
 10
197.1299966340407
 20
369.7795373639072
 30
0.0
 10
196.9445043522902
 20
369.3928043907549
 30
0.0
 10
196.7827342435571
 20
368.9861309049586
 30
0.0
 10
196.6423666817899
 20
368.5551547169609
 30
0.0
 10
196.5271236237123
 20
368.1097810304404
 30
0.0
 10
196.4358702854101
 20
367.6475680811445
 30
0.0
 10
196.3706627437018
 20
367.1766494882827
 30
0.0
 10
196.331072276264
 20
366.6971179240433
 30
0.0
 10
196.3179866732947
 20
366.21467268623
 30
0.0
 10
196.3310722762639
 20
365.7322274484176
 30
0.0
 10
196.3706627437021
 20
365.2526958841749
 30
0.0
 10
196.4358702854088
 20
364.7817772913247
 30
0.0
 10
196.5271236237171
 20
364.3195643419867
 30
0.0
 10
196.6423666817728
 20
363.8741906556203
 30
0.0
 10
196.7827342436181
 20
363.4432144670715
 30
0.0
 10
196.944504352068
 20
363.0365409832721
 30
0.0
 10
197.1299966348152
 20
362.6498080030886
 30
0.0
 10
197.3335601016812
 20
362.2937403502648
 30
0.0
 10
197.5588985313748
 20
361.9629754532667
 30
0.0
 10
197.7985755229543
 20
361.6679111105896
 30
0.0
 10
198.057375203805
 20
361.4032892632047
 30
0.0
 10
198.3268078120293
 20
361.1781036523424
 30
0.0
 10
198.6116910072492
 20
360.9881255259488
 30
0.0
 10
198.9037820091651
 20
360.8404249018167
 30
0.0
 10
199.2062338546318
 20
360.7317246436796
 30
0.0
 10
199.5123794527423
 20
360.6681416857916
 30
0.0
 10
199.8226174003842
 20
360.643242366035
 30
0.0
 10
200.0268995204758
 20
360.6638907013048
 30
0.0
 10
200.1290405805215
 20
360.6742148689395
 30
0.0
 11
200.1290405805215
 21
360.6742148689395
 31
0.0
 11
200.4366024532824
 21
360.7388366161723
 31
0.0
 11
200.7324913320785
 21
360.8440365836135
 31
0.0
 11
201.0297563969463
 21
360.9939297660865
 31
0.0
 11
201.3069450136915
 21
361.1777041965516
 31
0.0
 11
201.5833189137723
 21
361.4077607054933
 31
0.0
 11
201.8350454934923
 21
361.6641225485743
 31
0.0
 11
202.081469664484
 21
361.9662878708323
 31
0.0
 11
202.3013191769321
 21
362.2880289155808
 31
0.0
 11
202.5102730821355
 21
362.6521868489905
 31
0.0
 11
202.6921291437173
 21
363.0304338949697
 31
0.0
 11
202.8575376228429
 21
363.4448478004818
 31
0.0
 11
202.9959344902657
 21
363.8689421936135
 31
0.0
 11
203.1131821726348
 21
364.3205851636412
 31
0.0
 11
203.2036810052878
 21
364.7782785880933
 31
0.0
 11
203.2696739258217
 21
365.253186709315
 31
0.0
 11
203.3091401569104
 21
365.7310035839279
 31
0.0
 11
203.3223618205215
 21
366.2146726862301
 31
0.0
 11
203.3091401569104
 21
366.6983417885322
 31
0.0
 11
203.2696739258217
 21
367.1761586631452
 31
0.0
 11
203.2036810052878
 21
367.6510667843668
 31
0.0
 11
203.1131821726349
 21
368.1087602088188
 31
0.0
 11
202.9959344902657
 21
368.5604031788465
 31
0.0
 11
202.8575376228429
 21
368.9844975719782
 31
0.0
 11
202.6921291437173
 21
369.3989114774903
 31
0.0
 11
202.5102730821354
 21
369.7771585234696
 31
0.0
 11
202.3013191769321
 21
370.1413164568795
 31
0.0
 11
202.081469664484
 21
370.463057501628
 31
0.0
 11
201.8350454934923
 21
370.7652228238859
 31
0.0
 11
201.5833189137723
 21
371.0215846669668
 31
0.0
 11
201.3069450136915
 21
371.2516411759084
 31
0.0
 11
201.0297563969463
 21
371.4354156063736
 31
0.0
 11
200.7324913320785
 21
371.5853087888465
 31
0.0
 11
200.4366024532823
 21
371.6905087562877
 31
0.0
 11
200.1290405805215
 21
371.7551305035204
 31
0.0
 11
199.8223618205213
 21
371.7768215515518
 31
0.0
 11
199.5156830605212
 21
371.7551305035204
 31
0.0
 11
199.2081211877603
 21
371.6905087562877
 31
0.0
 11
198.9122323089643
 21
371.5853087888465
 31
0.0
 11
198.6149672440966
 21
371.4354156063737
 31
0.0
 11
198.3377786273515
 21
371.2516411759085
 31
0.0
 11
198.0614047272706
 21
371.0215846669669
 31
0.0
 11
197.8096781475505
 21
370.765222823886
 31
0.0
 11
197.5632539765588
 21
370.4630575016279
 31
0.0
 11
197.3434044641106
 21
370.1413164568795
 31
0.0
 11
197.1344505589073
 21
369.7771585234697
 31
0.0
 11
196.9525944973254
 21
369.3989114774904
 31
0.0
 11
196.7871860181998
 21
368.9844975719783
 31
0.0
 11
196.6487891507771
 21
368.5604031788464
 31
0.0
 11
196.5315414684081
 21
368.1087602088187
 31
0.0
 11
196.4410426357551
 21
367.6510667843668
 31
0.0
 11
196.3750497152213
 21
367.1761586631452
 31
0.0
 11
196.3355834841324
 21
366.6983417885322
 31
0.0
 11
196.3223618205213
 21
366.21467268623
 31
0.0
 11
196.3355834841324
 21
365.7310035839279
 31
0.0
 11
196.3750497152213
 21
365.253186709315
 31
0.0
 11
196.4410426357552
 21
364.7782785880934
 31
0.0
 11
196.5315414684082
 21
364.3205851636415
 31
0.0
 11
196.6487891507772
 21
363.8689421936137
 31
0.0
 11
196.7871860181999
 21
363.4448478004819
 31
0.0
 11
196.9525944973254
 21
363.0304338949696
 31
0.0
 11
197.1344505589073
 21
362.6521868489904
 31
0.0
 11
197.3434044641106
 21
362.2880289155806
 31
0.0
 11
197.5632539765587
 21
361.9662878708323
 31
0.0
 11
197.8096781475505
 21
361.6641225485743
 31
0.0
 11
198.0614047272705
 21
361.4077607054933
 31
0.0
 11
198.3377786273514
 21
361.1777041965516
 31
0.0
 11
198.6149672440966
 21
360.9939297660865
 31
0.0
 11
198.9122323089642
 21
360.8440365836136
 31
0.0
 11
199.2081211877602
 21
360.7388366161724
 31
0.0
 11
199.515683060521
 21
360.6742148689397
 31
0.0
 11
199.8223618205213
 21
360.6525238209082
 31
0.0
 11
200.1290405805215
 21
360.6742148689395
 31
0.0
  0
SPLINE
  5
CA
330
3C
100
AcDbEntity
  8
1
  6
Continuous
 62
     7
100
AcDbSpline
210
0.0
220
0.0
230
1.0
 70
    11
 71
     3
 72
    79
 73
    75
 74
    73
 42
0.0000000001
 43
0.0000000001
 44
0.00000001
 40
0.0
 40
0.0
 40
0.0
 40
0.0
 40
0.3142773867009816
 40
0.6283112411575835
 40
0.9612293766544189
 40
1.293805038039836
 40
1.653399990663441
 40
2.012687710360779
 40
2.402596358667285
 40
2.792277135713649
 40
3.212125602383487
 40
3.631818889113329
 40
4.078023830870454
 40
4.524128916246334
 40
4.99074266593287
 40
5.457297388873306
 40
5.936768753151613
 40
6.416212753073624
 40
6.900062536488333
 40
7.383912319903043
 40
7.863356319824939
 40
8.342827684103133
 40
8.80938240704362
 40
9.2759961567301
 40
9.722101242106142
 40
10.16830618386333
 40
10.58799947059308
 40
11.00784793726291
 40
11.39752871430932
 40
11.78743736261574
 40
12.1467250823132
 40
12.50632003493674
 40
12.83889569632212
 40
13.17181383181896
 40
13.48584768627558
 40
13.80012507297652
 40
14.10756996787629
 40
14.41501486277606
 40
14.72929224947697
 40
15.04332610393348
 40
15.37624423943019
 40
15.70881990081552
 40
16.06841485343911
 40
16.42770257313657
 40
16.81761122144311
 40
17.20729199848951
 40
17.62714046515943
 40
18.04683375188922
 40
18.49303869364631
 40
18.93914377902227
 40
19.40575752870872
 40
19.87231225164925
 40
20.35178361592739
 40
20.83122761584946
 40
21.31507739926418
 40
21.79892718267889
 40
22.27837118260085
 40
22.75784254687899
 40
23.2243972698196
 40
23.69101101950605
 40
24.13711610488193
 40
24.58332104663909
 40
25.00301433336894
 40
25.42286280003872
 40
25.81254357708509
 40
26.20245222539165
 40
26.56173994508921
 40
26.92133489771273
 40
27.25391055909806
 40
27.58682869459472
 40
27.90086254905119
 40
28.21513993575212
 40
28.52258483065198
 40
28.83002972555181
 40
28.83002972555181
 40
28.83002972555181
 40
28.83002972555181
 10
200.1290405805215
 20
358.7551305035203
 30
0.0
 10
200.2323121352217
 20
358.7365380309215
 30
0.0
 10
200.4387752199226
 20
358.699367492954
 30
0.0
 10
200.7408600524142
 20
358.5884212297414
 30
0.0
 10
201.03305494546
 20
358.4413563869583
 30
0.0
 10
201.3179093114581
 20
358.2512018347082
 30
0.0
 10
201.5873502342131
 20
358.0260671061837
 30
0.0
 10
201.8461475909707
 20
357.7614310360734
 30
0.0
 10
202.0858252552962
 20
357.4663708103927
 30
0.0
 10
202.3111634969797
 20
357.1356047628315
 30
0.0
 10
202.5147270179104
 20
356.7795374408669
 30
0.0
 10
202.7002192856242
 20
356.3928043686839
 30
0.0
 10
202.8619893983438
 20
355.9861309110138
 30
0.0
 10
203.0023569590111
 20
355.5551547152551
 30
0.0
 10
203.1176000173965
 20
355.1097810309053
 30
0.0
 10
203.2088533556148
 20
354.6475680810159
 30
0.0
 10
203.2740608973462
 20
354.1766494883173
 30
0.0
 10
203.3136513647774
 20
353.6971179240335
 30
0.0
 10
203.3267369677485
 20
353.2146726862323
 30
0.0
 10
203.3136513647787
 20
352.7322274484159
 30
0.0
 10
203.2740608973412
 20
352.2526958841773
 30
0.0
 10
203.2088533556329
 20
351.7817772913154
 30
0.0
 10
203.1176000173306
 20
351.3195643420195
 30
0.0
 10
203.0023569592529
 20
350.8741906554989
 30
0.0
 10
202.8619893974856
 20
350.4432144675012
 30
0.0
 10
202.7002192887526
 20
350.0365409817048
 30
0.0
 10
202.514727007002
 20
349.6498080085528
 30
0.0
 10
202.3111635365518
 20
349.2937403304414
 30
0.0
 10
202.0858251193226
 20
348.9629755213804
 30
0.0
 10
201.8461480831427
 20
348.6679108640427
 30
0.0
 10
201.5873485563698
 20
348.4032901036961
 30
0.0
 10
201.3179153969272
 20
348.178100603913
 30
0.0
 10
201.0330341129626
 20
347.9881359616918
 30
0.0
 10
200.7409362235051
 20
347.8403867449912
 30
0.0
 10
200.4385087094419
 20
347.7318581483171
 30
0.0
 10
200.1322740174982
 20
347.6676466209434
 30
0.0
 10
199.8223618205213
 20
347.6450455178054
 30
0.0
 10
199.5124496235445
 20
347.6676466209434
 30
0.0
 10
199.2062149316008
 20
347.7318581483172
 30
0.0
 10
198.9037874175377
 20
347.8403867449911
 30
0.0
 10
198.6116895280804
 20
347.9881359616919
 30
0.0
 10
198.3268082441157
 20
348.1781006039129
 30
0.0
 10
198.0573750846731
 20
348.4032901036961
 30
0.0
 10
197.7985755579
 20
348.6679108640428
 30
0.0
 10
197.5588985217202
 20
348.9629755213803
 30
0.0
 10
197.3335601044909
 20
349.2937403304414
 30
0.0
 10
197.1299966340407
 20
349.6498080085528
 30
0.0
 10
196.9445043522902
 20
350.0365409817048
 30
0.0
 10
196.7827342435571
 20
350.4432144675012
 30
0.0
 10
196.6423666817899
 20
350.8741906554988
 30
0.0
 10
196.5271236237123
 20
351.3195643420195
 30
0.0
 10
196.43587028541
 20
351.7817772913153
 30
0.0
 10
196.3706627437018
 20
352.2526958841771
 30
0.0
 10
196.331072276264
 20
352.7322274484166
 30
0.0
 10
196.3179866732947
 20
353.21467268623
 30
0.0
 10
196.3310722762639
 20
353.6971179240424
 30
0.0
 10
196.3706627437022
 20
354.176649488285
 30
0.0
 10
196.4358702854088
 20
354.6475680811351
 30
0.0
 10
196.5271236237172
 20
355.1097810304732
 30
0.0
 10
196.6423666817728
 20
355.5551547168396
 30
0.0
 10
196.7827342436181
 20
355.9861309053883
 30
0.0
 10
196.944504352068
 20
356.3928043891879
 30
0.0
 10
197.1299966348152
 20
356.7795373693713
 30
0.0
 10
197.3335601016813
 20
357.1356050221952
 30
0.0
 10
197.5588985313747
 20
357.4663699191933
 30
0.0
 10
197.7985755229545
 20
357.7614342618703
 30
0.0
 10
198.0573752038049
 20
358.0260561092554
 30
0.0
 10
198.3268078120295
 20
358.2512417201175
 30
0.0
 10
198.6116910072491
 20
358.4412198465112
 30
0.0
 10
198.9037820091652
 20
358.5889204706432
 30
0.0
 10
199.2062338546318
 20
358.6976207287803
 30
0.0
 10
199.5123794527423
 20
358.7612036866682
 30
0.0
 10
199.8226174003842
 20
358.7861030064248
 30
0.0
 10
200.0268995204757
 20
358.7654546711551
 30
0.0
 10
200.1290405805215
 20
358.7551305035203
 30
0.0
 11
200.1290405805215
 21
358.7551305035203
 31
0.0
 11
200.4366024532824
 21
358.6905087562875
 31
0.0
 11
200.7324913320785
 21
358.5853087888463
 31
0.0
 11
201.0297563969463
 21
358.4354156063735
 31
0.0
 11
201.3069450136915
 21
358.2516411759082
 31
0.0
 11
201.5833189137723
 21
358.0215846669664
 31
0.0
 11
201.8350454934923
 21
357.7652228238856
 31
0.0
 11
202.081469664484
 21
357.4630575016276
 31
0.0
 11
202.3013191769321
 21
357.1413164568792
 31
0.0
 11
202.5102730821355
 21
356.7771585234694
 31
0.0
 11
202.6921291437173
 21
356.3989114774902
 31
0.0
 11
202.8575376228429
 21
355.984497571978
 31
0.0
 11
202.9959344902657
 21
355.5604031788463
 31
0.0
 11
203.1131821726348
 21
355.1087602088184
 31
0.0
 11
203.2036810052878
 21
354.6510667843666
 31
0.0
 11
203.2696739258217
 21
354.1761586631449
 31
0.0
 11
203.3091401569104
 21
353.6983417885319
 31
0.0
 11
203.3223618205215
 21
353.2146726862297
 31
0.0
 11
203.3091401569104
 21
352.7310035839275
 31
0.0
 11
203.2696739258217
 21
352.2531867093147
 31
0.0
 11
203.2036810052878
 21
351.7782785880931
 31
0.0
 11
203.1131821726349
 21
351.3205851636412
 31
0.0
 11
202.9959344902657
 21
350.8689421936134
 31
0.0
 11
202.8575376228429
 21
350.4448478004815
 31
0.0
 11
202.6921291437173
 21
350.0304338949693
 31
0.0
 11
202.5102730821354
 21
349.6521868489901
 31
0.0
 11
202.3013191769321
 21
349.2880289155804
 31
0.0
 11
202.081469664484
 21
348.9662878708319
 31
0.0
 11
201.8350454934923
 21
348.664122548574
 31
0.0
 11
201.5833189137723
 21
348.4077607054931
 31
0.0
 11
201.3069450136915
 21
348.1777041965514
 31
0.0
 11
201.0297563969463
 21
347.9939297660862
 31
0.0
 11
200.7324913320785
 21
347.8440365836134
 31
0.0
 11
200.4366024532823
 21
347.7388366161721
 31
0.0
 11
200.1290405805215
 21
347.6742148689394
 31
0.0
 11
199.8223618205213
 21
347.6525238209081
 31
0.0
 11
199.5156830605212
 21
347.6742148689395
 31
0.0
 11
199.2081211877603
 21
347.7388366161721
 31
0.0
 11
198.9122323089643
 21
347.8440365836134
 31
0.0
 11
198.6149672440966
 21
347.9939297660862
 31
0.0
 11
198.3377786273515
 21
348.1777041965514
 31
0.0
 11
198.0614047272706
 21
348.4077607054931
 31
0.0
 11
197.8096781475505
 21
348.664122548574
 31
0.0
 11
197.5632539765588
 21
348.9662878708319
 31
0.0
 11
197.3434044641106
 21
349.2880289155803
 31
0.0
 11
197.1344505589073
 21
349.6521868489902
 31
0.0
 11
196.9525944973254
 21
350.0304338949694
 31
0.0
 11
196.7871860181998
 21
350.4448478004815
 31
0.0
 11
196.6487891507771
 21
350.8689421936134
 31
0.0
 11
196.5315414684081
 21
351.3205851636412
 31
0.0
 11
196.4410426357551
 21
351.7782785880931
 31
0.0
 11
196.3750497152213
 21
352.2531867093147
 31
0.0
 11
196.3355834841324
 21
352.7310035839277
 31
0.0
 11
196.3223618205213
 21
353.2146726862299
 31
0.0
 11
196.3355834841324
 21
353.6983417885321
 31
0.0
 11
196.3750497152213
 21
354.1761586631449
 31
0.0
 11
196.4410426357552
 21
354.6510667843664
 31
0.0
 11
196.5315414684082
 21
355.1087602088185
 31
0.0
 11
196.6487891507772
 21
355.5604031788463
 31
0.0
 11
196.7871860181999
 21
355.9844975719781
 31
0.0
 11
196.9525944973254
 21
356.3989114774903
 31
0.0
 11
197.1344505589073
 21
356.7771585234696
 31
0.0
 11
197.3434044641106
 21
357.1413164568793
 31
0.0
 11
197.5632539765587
 21
357.4630575016277
 31
0.0
 11
197.8096781475505
 21
357.7652228238856
 31
0.0
 11
198.0614047272705
 21
358.0215846669667
 31
0.0
 11
198.3377786273514
 21
358.2516411759083
 31
0.0
 11
198.6149672440966
 21
358.4354156063735
 31
0.0
 11
198.9122323089642
 21
358.5853087888463
 31
0.0
 11
199.2081211877602
 21
358.6905087562875
 31
0.0
 11
199.515683060521
 21
358.7551305035202
 31
0.0
 11
199.8223618205213
 21
358.7768215515516
 31
0.0
 11
200.1290405805215
 21
358.7551305035203
 31
0.0
  0
SPLINE
  5
CB
330
3C
100
AcDbEntity
  8
1
  6
Continuous
 62
     7
100
AcDbSpline
210
0.0
220
0.0
230
1.0
 70
    11
 71
     3
 72
    79
 73
    75
 74
    73
 42
0.0000000001
 43
0.0000000001
 44
0.00000001
 40
0.0
 40
0.0
 40
0.0
 40
0.0
 40
0.2811775426108686
 40
0.5623408931992043
 40
0.8457466631366289
 40
1.129126830422731
 40
1.415908903032355
 40
1.702658539054633
 40
1.993527432940317
 40
2.284362055943426
 40
2.579517800564383
 40
2.874641782101861
 40
3.173769982296698
 40
3.472872122788156
 40
3.775199692337401
 40
4.077508957859664
 40
4.381905225139444
 40
4.686292091405449
 40
4.991400459519045
 40
5.296508827632668
 40
5.600895693898685
 40
5.905291961178397
 40
6.207601226700742
 40
6.509928796250009
 40
6.809030936741391
 40
7.108159136936251
 40
7.403283118473725
 40
7.698438863094696
 40
7.989273486097805
 40
8.280142379983376
 40
8.566892016005692
 40
8.853674088615284
 40
9.137054255901445
 40
9.420460025838958
 40
9.701623376427294
 40
9.982800919038127
 40
10.26319552186824
 40
10.54359012469853
 40
10.82476766730947
 40
11.10593101789781
 40
11.38933678783529
 40
11.67271695512141
 40
11.959499027731
 40
12.24624866375333
 40
12.53711755763894
 40
12.82795218064199
 40
13.12310792526295
 40
13.41823190680046
 40
13.71736010699539
 40
14.01646224748677
 40
14.31878981703602
 40
14.62109908255831
 40
14.92549534983801
 40
15.22988221610398
 40
15.53499058421763
 40
15.84009895233129
 40
16.14448581859734
 40
16.44888208587715
 40
16.75119135139944
 40
17.05351892094864
 40
17.35262106144001
 40
17.65174926163484
 40
17.94687324317231
 40
18.24202898779328
 40
18.53286361079643
 40
18.82373250468196
 40
19.11048214070421
 40
19.39726421331383
 40
19.6806443806
 40
19.96405015053753
 40
20.24521350112588
 40
20.52639104373675
 40
20.806785646567
 40
21.0871802493972
 40
21.0871802493972
 40
21.0871802493972
 40
21.0871802493972
 10
203.3112268967485
 20
240.6929278408298
 30
0.0
 10
203.2997757746586
 20
240.5998317657393
 30
0.0
 10
203.2768741084575
 20
240.4136443144457
 30
0.0
 10
203.2088368174086
 20
240.1394068611397
 30
0.0
 10
203.117214688435
 20
239.8716801938327
 30
0.0
 10
202.9996037006503
 20
239.6121197056644
 30
0.0
 10
202.8583853774312
 20
239.3633854132973
 30
0.0
 10
202.6935634066863
 20
239.1265713085066
 30
0.0
 10
202.5074861095216
 20
238.9043129444399
 30
0.0
 10
202.3004612599103
 20
238.6974575573046
 30
0.0
 10
202.0752624621964
 20
238.5083437537913
 30
0.0
 10
201.8323975566669
 20
238.3376953696404
 30
0.0
 10
201.5749289256567
 20
238.1873780523908
 30
0.0
 10
201.3036510283852
 20
238.0580547170301
 30
0.0
 10
201.0216978744778
 20
237.9510217895917
 30
0.0
 10
200.7302607211083
 20
237.8668746519298
 30
0.0
 10
200.4323227776506
 20
237.8063301432215
 30
0.0
 10
200.1295571128501
 20
237.7698429464826
 30
0.0
 10
199.824608775631
 20
237.7576158901317
 30
0.0
 10
199.519660438406
 20
237.7698429464823
 30
0.0
 10
199.2168947736226
 20
237.806330143223
 30
0.0
 10
198.9189568301031
 20
237.8668746519251
 30
0.0
 10
198.6275196769625
 20
237.9510217896091
 30
0.0
 10
198.3455665222048
 20
238.058054716966
 30
0.0
 10
198.0742886280736
 20
238.1873780526267
 30
0.0
 10
197.8168199854216
 20
238.3376953687642
 30
0.0
 10
197.5739551227848
 20
238.5083437570131
 30
0.0
 10
197.3487561662079
 20
238.6974575453487
 30
0.0
 10
197.1417319012043
 20
238.9043129883367
 30
0.0
 10
196.9556524390204
 20
239.1265711455593
 30
0.0
 10
196.7908384392666
 20
239.3633860118924
 30
0.0
 10
196.6495905708526
 20
239.6121174815343
 30
0.0
 10
196.5320886033985
 20
239.8716883854208
 30
0.0
 10
196.4400616560287
 20
240.1393763766911
 30
0.0
 10
196.3735238284087
 20
240.4137570875743
 30
0.0
 10
196.333621044796
 20
240.6922480990376
 30
0.0
 10
196.3201089234668
 20
240.9730029354275
 30
0.0
 10
196.3336210447961
 20
241.2537577718173
 30
0.0
 10
196.3735238284087
 20
241.5322487832809
 30
0.0
 10
196.4400616560287
 20
241.8066294941639
 30
0.0
 10
196.5320886033985
 20
242.0743174854343
 30
0.0
 10
196.6495905708526
 20
242.3338883893206
 30
0.0
 10
196.7908384392667
 20
242.5826198589626
 30
0.0
 10
196.9556524390203
 20
242.8194347252956
 30
0.0
 10
197.1417319012043
 20
243.0416928825185
 30
0.0
 10
197.3487561662078
 20
243.2485483255063
 30
0.0
 10
197.5739551227849
 20
243.4376621138419
 30
0.0
 10
197.8168199854216
 20
243.6083105020907
 30
0.0
 10
198.0742886280737
 20
243.7586278182283
 30
0.0
 10
198.3455665222049
 20
243.887951153889
 30
0.0
 10
198.6275196769624
 20
243.9949840812462
 30
0.0
 10
198.9189568301032
 20
244.0791312189299
 30
0.0
 10
199.2168947736225
 20
244.1396757276319
 30
0.0
 10
199.5196604384062
 20
244.1761629243727
 30
0.0
 10
199.82460877563
 20
244.1883899807234
 30
0.0
 10
200.1295571128535
 20
244.1761629243727
 30
0.0
 10
200.4323227776385
 20
244.1396757276319
 30
0.0
 10
200.7302607211535
 20
244.0791312189302
 30
0.0
 10
201.0216978743106
 20
243.9949840812449
 30
0.0
 10
201.3036510290072
 20
243.8879511538936
 30
0.0
 10
201.5749289233634
 20
243.7586278182112
 30
0.0
 10
201.8323975651808
 20
243.6083105021536
 30
0.0
 10
202.0752624308929
 20
243.437662113611
 30
0.0
 10
202.3004613760799
 20
243.2485483263635
 30
0.0
 10
202.5074856829973
 20
243.0416928793709
 30
0.0
 10
202.6935649899586
 20
242.8194347369784
 30
0.0
 10
202.8583795611994
 20
242.5826198160461
 30
0.0
 10
202.9996253113455
 20
242.3338885487816
 30
0.0
 10
203.1171350951041
 20
242.0743168981315
 30
0.0
 10
203.2091330186778
 20
241.8066316797722
 30
0.0
 10
203.2757783515928
 20
241.5322406979163
 30
0.0
 10
203.3152809375394
 20
241.2537879210285
 30
0.0
 10
203.3302827173568
 20
240.9728907638181
 30
0.0
 10
203.3175788369512
 20
240.7862488151592
 30
0.0
 10
203.3112268967485
 20
240.6929278408298
 30
0.0
 11
203.3112268967485
 21
240.6929278408298
 31
0.0
 11
203.2712890872847
 21
240.4146010870961
 31
0.0
 11
203.2051518681456
 21
240.1413270525473
 31
0.0
 11
203.1129980464798
 21
239.8733223817182
 31
0.0
 11
202.9962679952051
 21
239.6151007437005
 31
0.0
 11
202.8546690570431
 21
239.36571410035
 31
0.0
 11
202.6909914565189
 21
239.1302677224938
 31
0.0
 11
202.5043029829423
 21
238.9072158736696
 31
0.0
 11
202.2986687726715
 21
238.7015478170743
 31
0.0
 11
202.0726746185452
 21
238.5116964123298
 31
0.0
 11
201.831271809423
 21
238.3419234809584
 31
0.0
 11
201.5729726941995
 21
238.1910617985252
 31
0.0
 11
201.3030232827814
 21
238.0622619315936
 31
0.0
 11
201.020389683787
 21
237.95492969958
 31
0.0
 11
200.7299641697267
 21
237.8710016780174
 31
0.0
 11
200.4316681310858
 21
237.8103670273217
 31
0.0
 11
200.1294725768436
 21
237.7739086764057
 31
0.0
 11
199.82460877563
 21
237.7616947907613
 31
0.0
 11
199.5197449744164
 21
237.7739086764057
 31
0.0
 11
199.2175494201742
 21
237.8103670273218
 31
0.0
 11
198.9192533815333
 21
237.8710016780175
 31
0.0
 11
198.6288278674729
 21
237.95492969958
 31
0.0
 11
198.3461942684785
 21
238.0622619315936
 31
0.0
 11
198.0762448570604
 21
238.1910617985251
 31
0.0
 11
197.817945741837
 21
238.3419234809585
 31
0.0
 11
197.5765429327149
 21
238.5116964123299
 31
0.0
 11
197.3505487785884
 21
238.7015478170744
 31
0.0
 11
197.1449145683176
 21
238.9072158736695
 31
0.0
 11
196.9582260947411
 21
239.1302677224938
 31
0.0
 11
196.794548494217
 21
239.36571410035
 31
0.0
 11
196.6529495560549
 21
239.6151007437005
 31
0.0
 11
196.5362195047801
 21
239.8733223817181
 31
0.0
 11
196.4440656831144
 21
240.1413270525473
 31
0.0
 11
196.3779284639754
 21
240.4146010870962
 31
0.0
 11
196.3379906545114
 21
240.6929278408298
 31
0.0
 11
196.3246087756299
 21
240.9730029354274
 31
0.0
 11
196.3379906545115
 21
241.2530780300252
 31
0.0
 11
196.3779284639754
 21
241.5314047837589
 31
0.0
 11
196.4440656831144
 21
241.8046788183078
 31
0.0
 11
196.5362195047802
 21
242.072683489137
 31
0.0
 11
196.6529495560549
 21
242.3309051271546
 31
0.0
 11
196.794548494217
 21
242.580291770505
 31
0.0
 11
196.958226094741
 21
242.8157381483613
 31
0.0
 11
197.1449145683175
 21
243.0387899971856
 31
0.0
 11
197.3505487785884
 21
243.2444580537807
 31
0.0
 11
197.5765429327149
 21
243.434309458525
 31
0.0
 11
197.8179457418371
 21
243.6040823898965
 31
0.0
 11
198.0762448570605
 21
243.7549440723299
 31
0.0
 11
198.3461942684785
 21
243.8837439392615
 31
0.0
 11
198.6288278674729
 21
243.9910761712752
 31
0.0
 11
198.9192533815333
 21
244.0750041928375
 31
0.0
 11
199.2175494201742
 21
244.1356388435331
 31
0.0
 11
199.5197449744163
 21
244.1720971944493
 31
0.0
 11
199.82460877563
 21
244.1843110800938
 31
0.0
 11
200.1294725768436
 21
244.1720971944493
 31
0.0
 11
200.4316681310858
 21
244.1356388435332
 31
0.0
 11
200.7299641697268
 21
244.0750041928376
 31
0.0
 11
201.0203896837872
 21
243.9910761712751
 31
0.0
 11
201.3030232827815
 21
243.8837439392614
 31
0.0
 11
201.5729726941995
 21
243.7549440723298
 31
0.0
 11
201.8312718094229
 21
243.6040823898965
 31
0.0
 11
202.0726746185451
 21
243.4343094585251
 31
0.0
 11
202.2986687726715
 21
243.2444580537807
 31
0.0
 11
202.5043029829424
 21
243.0387899971854
 31
0.0
 11
202.690991456519
 21
242.8157381483613
 31
0.0
 11
202.8546690570431
 21
242.5802917705052
 31
0.0
 11
202.9962679952051
 21
242.3309051271547
 31
0.0
 11
203.1129980464798
 21
242.072683489137
 31
0.0
 11
203.2051518681456
 21
241.8046788183078
 31
0.0
 11
203.2712890872847
 21
241.5314047837589
 31
0.0
 11
203.3112268967485
 21
241.2530780300252
 31
0.0
 11
203.3246087756299
 21
240.9730029354275
 31
0.0
 11
203.3112268967485
 21
240.6929278408298
 31
0.0
  0
SPLINE
  5
CC
330
3C
100
AcDbEntity
  8
1
  6
Continuous
 62
     7
100
AcDbSpline
210
0.0
220
0.0
230
1.0
 70
    11
 71
     3
 72
    79
 73
    75
 74
    73
 42
0.0000000001
 43
0.0000000001
 44
0.00000001
 40
0.0
 40
0.0
 40
0.0
 40
0.0
 40
0.2811775426108404
 40
0.5623408931991485
 40
0.8457466631366268
 40
1.129126830422677
 40
1.415908903032227
 40
1.702658539054575
 40
1.993527432940238
 40
2.284362055943347
 40
2.579517800564303
 40
2.874641782101798
 40
3.173769982296678
 40
3.472872122788123
 40
3.775199692337378
 40
4.077508957859617
 40
4.381905225139374
 40
4.686292091405391
 40
4.991400459518987
 40
5.296508827632611
 40
5.60089569389862
 40
5.905291961178349
 40
6.207601226700678
 40
6.509928796249956
 40
6.809030936741314
 40
7.108159136936188
 40
7.403283118473679
 40
7.698438863094668
 40
7.989273486097757
 40
8.280142379983372
 40
8.566892016005665
 40
8.853674088615282
 40
9.137054255901365
 40
9.420460025838851
 40
9.701623376427188
 40
9.982800919038077
 40
10.26319552186827
 40
10.54359012469848
 40
10.82476766730937
 40
11.1059310178977
 40
11.38933678783516
 40
11.6727169551213
 40
11.95949902773096
 40
12.24624866375325
 40
12.53711755763884
 40
12.82795218064195
 40
13.12310792526294
 40
13.41823190680045
 40
13.71736010699534
 40
14.01646224748671
 40
14.31878981703595
 40
14.62109908255826
 40
14.92549534983795
 40
15.22988221610392
 40
15.53499058421757
 40
15.84009895233123
 40
16.14448581859728
 40
16.4488820858771
 40
16.75119135139936
 40
17.05351892094856
 40
17.35262106143991
 40
17.65174926163476
 40
17.94687324317225
 40
18.24202898779319
 40
18.53286361079632
 40
18.82373250468192
 40
19.1104821407042
 40
19.39726421331379
 40
19.68064438059997
 40
19.96405015053749
 40
20.24521350112581
 40
20.52639104373671
 40
20.80678564656691
 40
21.08718024939713
 40
21.08718024939713
 40
21.08718024939713
 40
21.08718024939713
 10
203.3112268967485
 20
218.7364175316305
 30
0.0
 10
203.2997757746587
 20
218.829513606721
 30
0.0
 10
203.2768741084575
 20
219.0157010580147
 30
0.0
 10
203.2088368174085
 20
219.2899385113205
 30
0.0
 10
203.117214688435
 20
219.5576651786276
 30
0.0
 10
202.9996037006503
 20
219.8172256667959
 30
0.0
 10
202.8583853774312
 20
220.0659599591629
 30
0.0
 10
202.6935634066864
 20
220.3027740639535
 30
0.0
 10
202.5074861095215
 20
220.5250324280204
 30
0.0
 10
202.3004612599104
 20
220.7318878151556
 30
0.0
 10
202.0752624621964
 20
220.921001618669
 30
0.0
 10
201.8323975566669
 20
221.0916500028198
 30
0.0
 10
201.5749289256567
 20
221.2419673200695
 30
0.0
 10
201.3036510283852
 20
221.3712906554301
 30
0.0
 10
201.0216978744778
 20
221.4783235828686
 30
0.0
 10
200.7302607211082
 20
221.5624707205306
 30
0.0
 10
200.4323227776505
 20
221.6230152292384
 30
0.0
 10
200.1295571128502
 20
221.6595024259776
 30
0.0
 10
199.8246087756309
 20
221.6717294823286
 30
0.0
 10
199.519660438406
 20
221.6595024259779
 30
0.0
 10
199.2168947736226
 20
221.6230152292375
 30
0.0
 10
198.9189568301031
 20
221.5624707205352
 30
0.0
 10
198.6275196769624
 20
221.4783235828512
 30
0.0
 10
198.3455665222049
 20
221.3712906554943
 30
0.0
 10
198.0742886280735
 20
221.2419673198335
 30
0.0
 10
197.8168199854216
 20
221.0916500036961
 30
0.0
 10
197.5739551227849
 20
220.9210016154472
 30
0.0
 10
197.3487561662079
 20
220.7318878271115
 30
0.0
 10
197.1417319012044
 20
220.5250323841236
 30
0.0
 10
196.9556524390204
 20
220.3027742269008
 30
0.0
 10
196.7908384392666
 20
220.0659593605679
 30
0.0
 10
196.6495905708527
 20
219.8172278909259
 30
0.0
 10
196.5320886033984
 20
219.5576569870395
 30
0.0
 10
196.4400616560287
 20
219.2899689957692
 30
0.0
 10
196.3735238284087
 20
219.0155882848862
 30
0.0
 10
196.3336210447961
 20
218.7370972734227
 30
0.0
 10
196.3201089234667
 20
218.4563424370328
 30
0.0
 10
196.3336210447961
 20
218.1755876006429
 30
0.0
 10
196.3735238284087
 20
217.8970965891795
 30
0.0
 10
196.4400616560287
 20
217.6227158782964
 30
0.0
 10
196.5320886033986
 20
217.3550278870261
 30
0.0
 10
196.6495905708526
 20
217.0954569831396
 30
0.0
 10
196.7908384392667
 20
216.8467255134977
 30
0.0
 10
196.9556524390203
 20
216.6099106471646
 30
0.0
 10
197.1417319012043
 20
216.3876524899419
 30
0.0
 10
197.3487561662078
 20
216.1807970469539
 30
0.0
 10
197.5739551227848
 20
215.9916832586183
 30
0.0
 10
197.8168199854217
 20
215.8210348703695
 30
0.0
 10
198.0742886280737
 20
215.6707175542319
 30
0.0
 10
198.3455665222049
 20
215.5413942185713
 30
0.0
 10
198.6275196769624
 20
215.4343612912141
 30
0.0
 10
198.9189568301031
 20
215.3502141535304
 30
0.0
 10
199.2168947736224
 20
215.2896696448284
 30
0.0
 10
199.5196604384062
 20
215.2531824480876
 30
0.0
 10
199.82460877563
 20
215.2409553917369
 30
0.0
 10
200.1295571128534
 20
215.2531824480876
 30
0.0
 10
200.4323227776386
 20
215.2896696448286
 30
0.0
 10
200.7302607211535
 20
215.3502141535301
 30
0.0
 10
201.0216978743106
 20
215.4343612912153
 30
0.0
 10
201.3036510290072
 20
215.5413942185668
 30
0.0
 10
201.5749289233634
 20
215.670717554249
 30
0.0
 10
201.8323975651807
 20
215.8210348703067
 30
0.0
 10
202.0752624308928
 20
215.9916832588493
 30
0.0
 10
202.30046137608
 20
216.1807970460968
 30
0.0
 10
202.5074856829973
 20
216.3876524930893
 30
0.0
 10
202.6935649899586
 20
216.6099106354819
 30
0.0
 10
202.8583795611994
 20
216.8467255564143
 30
0.0
 10
202.9996253113455
 20
217.0954568236787
 30
0.0
 10
203.1171350951041
 20
217.3550284743289
 30
0.0
 10
203.2091330186778
 20
217.6227136926882
 30
0.0
 10
203.2757783515928
 20
217.897104674544
 30
0.0
 10
203.3152809375393
 20
218.1755574514317
 30
0.0
 10
203.3302827173568
 20
218.4564546086423
 30
0.0
 10
203.3175788369512
 20
218.6430965573011
 30
0.0
 10
203.3112268967485
 20
218.7364175316305
 30
0.0
 11
203.3112268967485
 21
218.7364175316305
 31
0.0
 11
203.2712890872847
 21
219.0147442853642
 31
0.0
 11
203.2051518681456
 21
219.288018319913
 31
0.0
 11
203.1129980464798
 21
219.5560229907422
 31
0.0
 11
202.9962679952051
 21
219.8142446287597
 31
0.0
 11
202.8546690570431
 21
220.0636312721102
 31
0.0
 11
202.6909914565189
 21
220.2990776499664
 31
0.0
 11
202.5043029829423
 21
220.5221294987906
 31
0.0
 11
202.2986687726715
 21
220.7277975553859
 31
0.0
 11
202.0726746185452
 21
220.9176489601304
 31
0.0
 11
201.831271809423
 21
221.0874218915018
 31
0.0
 11
201.5729726941995
 21
221.2382835739352
 31
0.0
 11
201.3030232827814
 21
221.3670834408667
 31
0.0
 11
201.020389683787
 21
221.4744156728804
 31
0.0
 11
200.7299641697267
 21
221.5583436944428
 31
0.0
 11
200.4316681310858
 21
221.6189783451385
 31
0.0
 11
200.1294725768436
 21
221.6554366960545
 31
0.0
 11
199.82460877563
 21
221.667650581699
 31
0.0
 11
199.5197449744164
 21
221.6554366960546
 31
0.0
 11
199.2175494201742
 21
221.6189783451385
 31
0.0
 11
198.9192533815333
 21
221.5583436944428
 31
0.0
 11
198.6288278674729
 21
221.4744156728803
 31
0.0
 11
198.3461942684785
 21
221.3670834408667
 31
0.0
 11
198.0762448570604
 21
221.2382835739352
 31
0.0
 11
197.817945741837
 21
221.0874218915018
 31
0.0
 11
197.5765429327149
 21
220.9176489601303
 31
0.0
 11
197.3505487785884
 21
220.7277975553859
 31
0.0
 11
197.1449145683176
 21
220.5221294987907
 31
0.0
 11
196.9582260947411
 21
220.2990776499665
 31
0.0
 11
196.794548494217
 21
220.0636312721103
 31
0.0
 11
196.6529495560549
 21
219.8142446287598
 31
0.0
 11
196.5362195047801
 21
219.5560229907422
 31
0.0
 11
196.4440656831144
 21
219.288018319913
 31
0.0
 11
196.3779284639754
 21
219.0147442853642
 31
0.0
 11
196.3379906545114
 21
218.7364175316305
 31
0.0
 11
196.3246087756299
 21
218.4563424370328
 31
0.0
 11
196.3379906545115
 21
218.1762673424351
 31
0.0
 11
196.3779284639754
 21
217.8979405887014
 31
0.0
 11
196.4440656831144
 21
217.6246665541526
 31
0.0
 11
196.5362195047802
 21
217.3566618833234
 31
0.0
 11
196.6529495560549
 21
217.0984402453058
 31
0.0
 11
196.794548494217
 21
216.8490536019552
 31
0.0
 11
196.958226094741
 21
216.613607224099
 31
0.0
 11
197.1449145683175
 21
216.3905553752747
 31
0.0
 11
197.3505487785884
 21
216.1848873186796
 31
0.0
 11
197.5765429327149
 21
215.9950359139351
 31
0.0
 11
197.8179457418371
 21
215.8252629825637
 31
0.0
 11
198.0762448570605
 21
215.6744013001303
 31
0.0
 11
198.3461942684785
 21
215.5456014331988
 31
0.0
 11
198.6288278674729
 21
215.4382692011851
 31
0.0
 11
198.9192533815333
 21
215.3543411796227
 31
0.0
 11
199.2175494201742
 21
215.2937065289272
 31
0.0
 11
199.5197449744163
 21
215.257248178011
 31
0.0
 11
199.82460877563
 21
215.2450342923665
 31
0.0
 11
200.1294725768436
 21
215.257248178011
 31
0.0
 11
200.4316681310858
 21
215.2937065289272
 31
0.0
 11
200.7299641697268
 21
215.3543411796228
 31
0.0
 11
201.0203896837872
 21
215.4382692011851
 31
0.0
 11
201.3030232827815
 21
215.5456014331988
 31
0.0
 11
201.5729726941995
 21
215.6744013001304
 31
0.0
 11
201.8312718094229
 21
215.8252629825637
 31
0.0
 11
202.0726746185451
 21
215.9950359139352
 31
0.0
 11
202.2986687726715
 21
216.1848873186796
 31
0.0
 11
202.5043029829424
 21
216.3905553752748
 31
0.0
 11
202.690991456519
 21
216.613607224099
 31
0.0
 11
202.8546690570431
 21
216.8490536019551
 31
0.0
 11
202.9962679952051
 21
217.0984402453057
 31
0.0
 11
203.1129980464798
 21
217.3566618833234
 31
0.0
 11
203.2051518681456
 21
217.6246665541526
 31
0.0
 11
203.2712890872847
 21
217.8979405887014
 31
0.0
 11
203.3112268967485
 21
218.1762673424351
 31
0.0
 11
203.3246087756299
 21
218.4563424370328
 31
0.0
 11
203.3112268967485
 21
218.7364175316305
 31
0.0
  0
SPLINE
  5
CD
330
3C
100
AcDbEntity
  8
1
  6
Continuous
 62
     7
100
AcDbSpline
210
0.0
220
0.0
230
1.0
 70
    11
 71
     3
 72
    79
 73
    75
 74
    73
 42
0.0000000001
 43
0.0000000001
 44
0.00000001
 40
0.0
 40
0.0
 40
0.0
 40
0.0
 40
0.3114713439931942
 40
0.6228035292710292
 40
0.9472403639551705
 40
1.271464858045327
 40
1.614803252700199
 40
1.957928915792553
 40
2.323150649725068
 40
2.688197477605069
 40
3.075390759585675
 40
3.462454984676693
 40
3.869243829725519
 40
4.275944688498952
 40
4.698050018426078
 40
5.120101305007639
 40
5.551913313124391
 40
5.983699714913073
 40
6.418825159681404
 40
6.853950604449849
 40
7.285737006238273
 40
7.717549014354876
 40
8.139600300936321
 40
8.56170563086344
 40
8.968406489636845
 40
9.375195334685726
 40
9.762259559776769
 40
10.14945284175742
 40
10.51449966963742
 40
10.87972140356988
 40
11.22284706666223
 40
11.56618546131709
 40
11.89040995540726
 40
12.21484679009143
 40
12.52617897536924
 40
12.83765031936248
 40
13.14443943074616
 40
13.4512285421299
 40
13.76269988612313
 40
14.07403207140093
 40
14.39846890608509
 40
14.72269340017522
 40
15.06603179483003
 40
15.40915745792238
 40
15.77437919185488
 40
16.13942601973492
 40
16.52661930171557
 40
16.91368352680663
 40
17.32047237185548
 40
17.72717323062886
 40
18.14927856055594
 40
18.57132984713743
 40
19.00314185525419
 40
19.4349282570428
 40
19.87005370181113
 40
20.30517914657943
 40
20.73696554836794
 40
21.16877755648467
 40
21.59082884306621
 40
22.01293417299337
 40
22.4196350317668
 40
22.82642387681567
 40
23.2134881019067
 40
23.60068138388733
 40
23.9657282117673
 40
24.33094994569979
 40
24.67407560879213
 40
25.01741400344699
 40
25.34163849753718
 40
25.66607533222132
 40
25.97740751749911
 40
26.28887886149231
 40
26.59566797287604
 40
26.90245708425974
 40
26.90245708425974
 40
26.90245708425974
 40
26.90245708425974
 10
200.1307863640474
 20
224.7342461231825
 30
0.0
 10
200.2334169054087
 20
224.7508318366806
 30
0.0
 10
200.4386321350067
 20
224.7839958535358
 30
0.0
 10
200.7397052905325
 20
224.8828940142934
 30
0.0
 10
201.0318902374947
 20
225.0146762452404
 30
0.0
 10
201.316258908389
 20
225.1847896884647
 30
0.0
 10
201.5863997110837
 20
225.387058387874
 30
0.0
 10
201.8451211583888
 20
225.6243875771308
 30
0.0
 10
202.0856820532054
 20
225.8899147711683
 30
0.0
 10
202.3111297196592
 20
226.1869600345349
 30
0.0
 10
202.5154501994228
 20
226.5075705273216
 30
0.0
 10
202.7011012089016
 20
226.8551319316923
 30
0.0
 10
202.8634102247709
 20
227.2213075523206
 30
0.0
 10
203.0039230465401
 20
227.6087917918687
 30
0.0
 10
203.1194999949042
 20
228.0097261310391
 30
0.0
 10
203.2108552478142
 20
228.4254108986719
 30
0.0
 10
203.2762343840448
 20
228.8492292603171
 30
0.0
 10
203.315862341527
 20
229.2805899472772
 30
0.0
 10
203.3289988367925
 20
229.7146726862281
 30
0.0
 10
203.3158623415279
 20
230.1487554251907
 30
0.0
 10
203.2762343840414
 20
230.5801161121157
 30
0.0
 10
203.210855247827
 20
231.0039344738882
 30
0.0
 10
203.1194999948581
 20
231.419619241056
 30
0.0
 10
203.0039230467099
 20
231.820553581932
 30
0.0
 10
202.8634102241633
 20
232.2080378153365
 30
0.0
 10
202.7011012111266
 20
232.57421345835
 30
0.0
 10
202.5154501915648
 20
232.9217747830375
 30
0.0
 10
202.3111297483359
 20
233.2423855645473
 30
0.0
 10
202.0856819529441
 20
233.5394298089526
 30
0.0
 10
201.8451215239211
 20
233.8049606840229
 30
0.0
 10
201.5863984379613
 20
234.0422769234648
 30
0.0
 10
201.3162635609169
 20
234.2445924515739
 30
0.0
 10
201.0318739400241
 20
234.4145403330252
 30
0.0
 10
200.7397652341228
 20
234.5469250750022
 30
0.0
 10
200.4384183934895
 20
234.6436603815977
 30
0.0
 10
200.1331232903268
 20
234.7011256197545
 30
0.0
 10
199.8246087756301
 20
234.7210768735666
 30
0.0
 10
199.5160942609333
 20
234.7011256197544
 30
0.0
 10
199.2107991577707
 20
234.6436603815976
 30
0.0
 10
198.9094523171373
 20
234.5469250750023
 30
0.0
 10
198.6173436112361
 20
234.4145403330252
 30
0.0
 10
198.3329539903433
 20
234.2445924515741
 30
0.0
 10
198.0628191132989
 20
234.0422769234649
 30
0.0
 10
197.8040960273391
 20
233.8049606840232
 30
0.0
 10
197.5635355983162
 20
233.5394298089528
 30
0.0
 10
197.3380878029242
 20
233.2423855645475
 30
0.0
 10
197.1337673596952
 20
232.9217747830378
 30
0.0
 10
196.9481163401334
 20
232.5742134583502
 30
0.0
 10
196.7858073270967
 20
232.2080378153368
 30
0.0
 10
196.6452945045501
 20
231.8205535819323
 30
0.0
 10
196.5297175564018
 20
231.4196192410564
 30
0.0
 10
196.4383623034329
 20
231.0039344738884
 30
0.0
 10
196.3729831672185
 20
230.580116112116
 30
0.0
 10
196.3333552097318
 20
230.1487554251903
 30
0.0
 10
196.3202187144676
 20
229.71467268623
 30
0.0
 10
196.3333552097317
 20
229.2805899472706
 30
0.0
 10
196.3729831672187
 20
228.8492292603424
 30
0.0
 10
196.438362303432
 20
228.4254108985791
 30
0.0
 10
196.5297175564049
 20
228.009726131378
 30
0.0
 10
196.6452945045378
 20
227.6087917906236
 30
0.0
 10
196.7858073271399
 20
227.2213075567813
 30
0.0
 10
196.9481163399748
 20
226.8551319153627
 30
0.0
 10
197.1337673602547
 20
226.5075705849978
 30
0.0
 10
197.3380878008807
 20
226.1869598240593
 30
0.0
 10
197.5635356054594
 20
225.8899155070538
 30
0.0
 10
197.8040960012947
 20
225.6243848942546
 30
0.0
 10
198.0628192040077
 20
225.3870677321472
 30
0.0
 10
198.3329536588535
 20
225.1847555405514
 30
0.0
 10
198.6173447724196
 20
225.0147958629351
 30
0.0
 10
198.9094480461965
 20
224.8824540494641
 30
0.0
 10
199.2108143867098
 20
224.7855646409628
 30
0.0
 10
199.5160376804445
 20
224.7286668919233
 30
0.0
 10
199.8248164235563
 20
224.7066275174529
 30
0.0
 10
200.0287963838837
 20
224.7250399212726
 30
0.0
 10
200.1307863640474
 20
224.7342461231825
 30
0.0
 11
200.1307863640474
 21
224.7342461231825
 31
0.0
 11
200.4368617122676
 21
224.7919720215367
 31
0.0
 11
200.7334847938047
 21
224.8865366930018
 31
0.0
 11
201.0290827686669
 21
225.0202569119563
 31
0.0
 11
201.3077281942231
 21
225.1860225579287
 31
0.0
 11
201.5828027452093
 21
225.3914860453028
 31
0.0
 11
201.8360463455231
 21
225.623009045397
 31
0.0
 11
202.0816366243026
 21
225.8933279864753
 31
0.0
 11
202.3026914250426
 21
226.183834374727
 31
0.0
 11
202.5111852474344
 21
226.510099548528
 31
0.0
 11
202.693849331143
 21
226.8513509908227
 31
0.0
 11
202.8590538879839
 21
227.2230829088163
 31
0.0
 11
202.9979158684932
 21
227.6053432113538
 31
0.0
 11
203.1151145187449
 21
228.0108520101881
 31
0.0
 11
203.2058289793614
 21
228.4230390734739
 31
0.0
 11
203.2718440285949
 21
228.8497750851117
 31
0.0
 11
203.3113680784596
 21
229.2797487427373
 31
0.0
 11
203.3246087756299
 21
229.7146726862301
 31
0.0
 11
203.3113680784596
 21
230.1495966297229
 31
0.0
 11
203.2718440285949
 21
230.5795702873482
 31
0.0
 11
203.2058289793615
 21
231.0063062989859
 31
0.0
 11
203.115114518745
 21
231.4184933622716
 31
0.0
 11
202.9979158684933
 21
231.8240021611059
 31
0.0
 11
202.859053887984
 21
232.2062624636434
 31
0.0
 11
202.6938493311432
 21
232.577994381637
 31
0.0
 11
202.5111852474346
 21
232.9192458239318
 31
0.0
 11
202.3026914250428
 21
233.2455109977328
 31
0.0
 11
202.0816366243029
 21
233.5360173859846
 31
0.0
 11
201.8360463455234
 21
233.8063363270628
 31
0.0
 11
201.5828027452095
 21
234.037859327157
 31
0.0
 11
201.3077281942234
 21
234.2433228145312
 31
0.0
 11
201.0290827686673
 21
234.4090884605037
 31
0.0
 11
200.7334847938051
 21
234.5428086794582
 31
0.0
 11
200.436861712268
 21
234.6373733509234
 31
0.0
 11
200.1307863640478
 21
234.6950992492776
 31
0.0
 11
199.8246087756301
 21
234.7144601173971
 31
0.0
 11
199.5184311872124
 21
234.6950992492776
 31
0.0
 11
199.2123558389922
 21
234.6373733509234
 31
0.0
 11
198.9157327574551
 21
234.5428086794583
 31
0.0
 11
198.6201347825929
 21
234.4090884605037
 31
0.0
 11
198.3414893570368
 21
234.2433228145313
 31
0.0
 11
198.0664148060506
 21
234.0378593271573
 31
0.0
 11
197.8131712057368
 21
233.806336327063
 31
0.0
 11
197.5675809269573
 21
233.5360173859848
 31
0.0
 11
197.3465261262173
 21
233.245510997733
 31
0.0
 11
197.1380323038255
 21
232.919245823932
 31
0.0
 11
196.9553682201169
 21
232.5779943816372
 31
0.0
 11
196.790163663276
 21
232.2062624636437
 31
0.0
 11
196.6513016827667
 21
231.8240021611062
 31
0.0
 11
196.5341030325149
 21
231.4184933622719
 31
0.0
 11
196.4433885718984
 21
231.0063062989862
 31
0.0
 11
196.3773735226649
 21
230.5795702873484
 31
0.0
 11
196.3378494728001
 21
230.1495966297229
 31
0.0
 11
196.3246087756299
 21
229.7146726862301
 31
0.0
 11
196.3378494728001
 21
229.2797487427374
 31
0.0
 11
196.3773735226648
 21
228.849775085112
 31
0.0
 11
196.4433885718983
 21
228.4230390734743
 31
0.0
 11
196.5341030325147
 21
228.0108520101884
 31
0.0
 11
196.6513016827665
 21
227.6053432113541
 31
0.0
 11
196.7901636632759
 21
227.2230829088166
 31
0.0
 11
196.9553682201167
 21
226.8513509908229
 31
0.0
 11
197.1380323038252
 21
226.5100995485282
 31
0.0
 11
197.346526126217
 21
226.1838343747272
 31
0.0
 11
197.5675809269569
 21
225.8933279864754
 31
0.0
 11
197.8131712057364
 21
225.6230090453972
 31
0.0
 11
198.0664148060503
 21
225.391486045303
 31
0.0
 11
198.3414893570364
 21
225.1860225579289
 31
0.0
 11
198.6201347825926
 21
225.0202569119564
 31
0.0
 11
198.9157327574548
 21
224.8865366930019
 31
0.0
 11
199.2123558389918
 21
224.7919720215367
 31
0.0
 11
199.518431187212
 21
224.7342461231825
 31
0.0
 11
199.8246087756297
 21
224.7148852550631
 31
0.0
 11
200.1307863640474
 21
224.7342461231825
 31
0.0
  0
ENDBLK
  5
3E
330
3C
100
AcDbEntity
  8
0
100
AcDbBlockEnd
  0
BLOCK
  5
40
330
3F
100
AcDbEntity
  8
0
100
AcDbBlockBegin
  2
51-1
 70
     0
 71
     0
 10
86.54819568330254
 20
1341.219788549141
 30
0.0
  3
51-1
  1

  0
LINE
  5
CE
330
3F
100
AcDbEntity
  8
1
  6
Continuous
 62
     7
100
AcDbLine
 10
271.3896162528167
 20
387.3653077808406
 30
0.0
 11
268.0265241256784
 21
387.3653077808406
 31
0.0
  0
LINE
  5
CF
330
3F
100
AcDbEntity
  8
1
  6
Continuous
 62
     7
100
AcDbLine
 10
268.0265241256784
 20
332.0640375916188
 30
0.0
 11
271.3896162528167
 21
332.0640375916188
 31
0.0
  0
LINE
  5
D0
330
3F
100
AcDbEntity
  8
1
  6
Continuous
 62
     7
100
AcDbLine
 10
271.8896162528167
 20
332.5640375916188
 30
0.0
 11
271.8896162528167
 21
354.9646726862297
 31
0.0
  0
LINE
  5
D1
330
3F
100
AcDbEntity
  8
1
  6
Continuous
 62
     7
100
AcDbLine
 10
271.8896162528167
 20
364.4646726862297
 30
0.0
 11
271.8896162528167
 21
386.8653077808406
 31
0.0
  0
LINE
  5
D2
330
3F
100
AcDbEntity
  8
1
  6
Continuous
 62
     7
100
AcDbLine
 10
271.8896162528167
 20
354.9646726862297
 30
0.0
 11
271.8896162528167
 21
364.4646726862297
 31
0.0
  0
LINE
  5
D3
330
3F
100
AcDbEntity
  8
1
  6
PHANTOM
 62
     4
100
AcDbLine
 10
148.3537881910665
 20
359.7146726862301
 30
0.0
 11
193.3224604966079
 21
359.7146726862301
 31
0.0
  0
LINE
  5
D4
330
3F
100
AcDbEntity
  8
1
  6
PHANTOM
 62
     4
100
AcDbLine
 10
169.3067966493784
 20
347.6174476124915
 30
0.0
 11
146.8224604966079
 21
386.5614602035478
 31
0.0
  0
LINE
  5
D5
330
3F
100
AcDbEntity
  8
1
  6
Continuous
 62
     7
100
AcDbLine
 10
163.093593213782
 20
376.5794564379055
 30
0.0
 11
154.0651011837269
 21
385.6079484679605
 31
0.0
  0
LINE
  5
D6
330
3F
100
AcDbEntity
  8
1
  6
Continuous
 62
     7
100
AcDbLine
 10
147.3315629797387
 20
367.4792440393059
 30
0.0
 11
144.0269055388735
 21
379.8123935102259
 31
0.0
  0
LINE
  5
D7
330
3F
100
AcDbEntity
  8
1
  6
Continuous
 62
     7
100
AcDbLine
 10
147.3315629797387
 20
351.9501013331545
 30
0.0
 11
143.8231288643765
 21
338.8564469596137
 31
0.0
  0
LINE
  5
D8
330
3F
100
AcDbEntity
  8
1
  6
Continuous
 62
     7
100
AcDbLine
 10
163.093593213782
 20
342.8498889345547
 30
0.0
 11
154.0651011837269
 21
333.8213969044999
 31
0.0
  0
LINE
  5
D9
330
3F
100
AcDbEntity
  8
1
  6
Continuous
 62
     7
100
AcDbLine
 10
176.5422252963028
 20
350.6144602876303
 30
0.0
 11
188.8753747672231
 21
353.9191177284956
 31
0.0
  0
LINE
  5
DA
330
3F
100
AcDbEntity
  8
1
  6
PHANTOM
 62
     4
100
AcDbLine
 10
169.3067966493784
 20
371.8118977599689
 30
0.0
 11
146.8224604966081
 21
332.8678851689127
 31
0.0
  0
LINE
  5
DB
330
3F
100
AcDbEntity
  8
1
  6
Continuous
 62
     7
100
AcDbLine
 10
176.5422252963028
 20
368.8148850848301
 30
0.0
 11
188.8753747672231
 21
365.5102276439646
 31
0.0
  0
LINE
  5
DC
330
3F
100
AcDbEntity
  8
1
  6
Continuous
 62
     7
100
AcDbLine
 10
144.3224604966085
 20
280.2146726862312
 30
0.0
 11
167.0724604966081
 21
280.214672686231
 31
0.0
  0
LINE
  5
DD
330
3F
100
AcDbEntity
  8
1
  6
Continuous
 62
     7
100
AcDbLine
 10
157.422460496608
 20
291.714672686231
 30
0.0
 11
167.2224604966082
 21
291.714672686231
 31
0.0
  0
LINE
  5
DE
330
3F
100
AcDbEntity
  8
1
  6
Continuous
 62
     7
100
AcDbLine
 10
143.8224604966085
 20
280.714672686231
 30
0.0
 11
143.8224604966085
 21
283.1896221086408
 31
0.0
  0
LINE
  5
DF
330
3F
100
AcDbEntity
  8
1
  6
Continuous
 62
     7
100
AcDbLine
 10
167.0724604966081
 20
280.214672686231
 30
0.0
 11
192.8224604966083
 21
280.2146726862312
 31
0.0
  0
LINE
  5
E0
330
3F
100
AcDbEntity
  8
1
  6
Continuous
 62
     7
100
AcDbLine
 10
193.3224604966083
 20
280.714672686231
 30
0.0
 11
193.3224604966083
 21
283.6015815915984
 31
0.0
  0
ARC
  5
E1
330
3F
100
AcDbEntity
  8
1
  6
Continuous
 62
     7
100
AcDbCircle
 10
410.3896162528165
 20
359.7146726862299
 30
0.0
 40
149.9999999999998
100
AcDbArc
 50
171.3526952746612
 51
-171.3526952746611
  0
ARC
  5
E2
330
3F
100
AcDbEntity
  8
1
  6
Continuous
 62
     7
100
AcDbCircle
 10
187.3224604966079
 20
359.7146726862301
 30
0.0
 40
6.0
100
AcDbArc
 50
0.0
 51
74.99999999999965
  0
ARC
  5
E3
330
3F
100
AcDbEntity
  8
1
  6
Continuous
 62
     7
100
AcDbCircle
 10
149.8224604966081
 20
381.3653077808411
 30
0.0
 40
5.999999999999766
100
AcDbArc
 50
45.00000000000422
 51
-164.9999999999999
  0
ARC
  5
E4
330
3F
100
AcDbEntity
  8
1
  6
Continuous
 62
     7
100
AcDbCircle
 10
149.8224604966081
 20
338.0640375916191
 30
0.0
 40
6.000000000000139
100
AcDbArc
 50
172.4757589210599
 51
-45.00000000000269
  0
ARC
  5
E5
330
3F
100
AcDbEntity
  8
1
  6
Continuous
 62
     7
100
AcDbCircle
 10
187.3224604966079
 20
359.7146726862301
 30
0.0
 40
6.000000000000059
100
AcDbArc
 50
-74.9999999999995
 51
0.0
  0
ARC
  5
E6
330
3F
100
AcDbEntity
  8
1
  6
Continuous
 62
     7
100
AcDbCircle
 10
162.4224604966082
 20
143.1830066088106
 30
0.0
 40
148.6092050572048
100
AcDbArc
 50
80.40827727687046
 51
88.1490542031311
  0
ARC
  5
E7
330
3F
100
AcDbEntity
  8
1
  6
Continuous
 62
     7
100
AcDbCircle
 10
175.326505355144
 20
213.0413394308495
 30
0.0
 40
80.64072525632037
100
AcDbArc
 50
106.8078935147512
 51
109.9799167791118
  0
ARC
  5
E8
330
3F
100
AcDbEntity
  8
1
  6
Continuous
 62
     7
100
AcDbCircle
 10
160.3735786839984
 20
270.1545079212409
 30
0.0
 40
21.76119949013533
100
AcDbArc
 50
97.79411241505365
 51
111.5567947109685
  0
ARC
  5
E9
330
3F
100
AcDbEntity
  8
1
  6
Continuous
 62
     7
100
AcDbCircle
 10
162.4224604966082
 20
143.1830066088106
 30
0.0
 40
148.6092050572048
100
AcDbArc
 50
79.94677236249684
 51
80.40827727687046
  0
ARC
  5
EA
330
3F
100
AcDbEntity
  8
1
  6
Continuous
 62
     7
100
AcDbCircle
 10
271.3896162528167
 20
386.8653077808406
 30
0.0
 40
0.5
100
AcDbArc
 50
0.0
 51
90.0
  0
ARC
  5
EB
330
3F
100
AcDbEntity
  8
1
  6
Continuous
 62
     7
100
AcDbCircle
 10
268.0265241256784
 20
381.3653077808406
 30
0.0
 40
6.0
100
AcDbArc
 50
90.0
 51
171.3526952746603
  0
ARC
  5
EC
330
3F
100
AcDbEntity
  8
1
  6
Continuous
 62
     7
100
AcDbCircle
 10
268.0265241256784
 20
338.0640375916188
 30
0.0
 40
5.999999999999786
100
AcDbArc
 50
-171.3526952746608
 51
-90.0
  0
ARC
  5
ED
330
3F
100
AcDbEntity
  8
1
  6
Continuous
 62
     7
100
AcDbCircle
 10
271.3896162528167
 20
332.5640375916188
 30
0.0
 40
0.5
100
AcDbArc
 50
-90.0
 51
0.0
  0
ARC
  5
EE
330
3F
100
AcDbEntity
  8
0
  6
Continuous
 62
     7
100
AcDbCircle
 10
184.3067966493784
 20
321.6366854989583
 30
0.0
 40
29.99999999999999
100
AcDbArc
 50
105.0
 51
135.0
  0
ARC
  5
EF
330
3F
100
AcDbEntity
  8
0
  6
Continuous
 62
     7
100
AcDbCircle
 10
118.3537881910665
 20
359.7146726862301
 30
0.0
 40
30.00000000000012
100
AcDbArc
 50
-14.9999999999998
 51
15.00000000000032
  0
ARC
  5
F0
330
3F
100
AcDbEntity
  8
0
  6
Continuous
 62
     7
100
AcDbCircle
 10
184.3067966493784
 20
397.792659873502
 30
0.0
 40
30.00000000000004
100
AcDbArc
 50
-134.9999999999999
 51
-105.0000000000001
  0
ARC
  5
F1
330
3F
100
AcDbEntity
  8
1
  6
Continuous
 62
     7
100
AcDbCircle
 10
149.8224604966085
 20
283.1896221086408
 30
0.0
 40
5.999999999999718
100
AcDbArc
 50
109.9799167791098
 51
180.0
  0
ARC
  5
F2
330
3F
100
AcDbEntity
  8
1
  6
Continuous
 62
     7
100
AcDbCircle
 10
144.3224604966085
 20
280.714672686231
 30
0.0
 40
0.5
100
AcDbArc
 50
180.0
 51
-90.0
  0
ARC
  5
F3
330
3F
100
AcDbEntity
  8
1
  6
Continuous
 62
     7
100
AcDbCircle
 10
187.3224604966083
 20
283.6015815915984
 30
0.0
 40
6.0
100
AcDbArc
 50
0.0
 51
80.00215651243224
  0
ARC
  5
F4
330
3F
100
AcDbEntity
  8
1
  6
Continuous
 62
     7
100
AcDbCircle
 10
192.8224604966083
 20
280.714672686231
 30
0.0
 40
0.4999999999997726
100
AcDbArc
 50
-90.0
 51
0.0
  0
ENDBLK
  5
41
330
3F
100
AcDbEntity
  8
0
100
AcDbBlockEnd
  0
BLOCK
  5
43
330
42
100
AcDbEntity
  8
0
100
AcDbBlockBegin
  2
36-54-M11
 70
     0
 71
     0
 10
162.3224604966085
 20
240.7146726862307
 30
0.0
  3
36-54-M11
  1

  0
LINE
  5
F5
330
42
100
AcDbEntity
  8
1
  6
PHANTOM
 62
     4
100
AcDbLine
 10
311.389616252817
 20
359.7146726862055
 30
0.0
 11
262.889616252817
 21
359.7146726862055
 31
0.0
  0
LINE
  5
F6
330
42
100
AcDbEntity
  8
1
  6
Continuous
 62
     7
100
AcDbLine
 10
277.3896162528176
 20
354.9646726862299
 30
0.0
 11
271.8896162528167
 21
354.9646726862297
 31
0.0
  0
LINE
  5
F7
330
42
100
AcDbEntity
  8
1
  6
Continuous
 62
     7
100
AcDbLine
 10
271.8896162528167
 20
364.4646726862297
 30
0.0
 11
277.3896162528176
 21
364.4646726861812
 31
0.0
  0
LINE
  5
F8
330
42
100
AcDbEntity
  8
1
  6
PHANTOM
 62
     4
100
AcDbLine
 10
162.3224604966329
 20
289.214672686231
 30
0.0
 11
162.3224604966329
 21
240.7146726862307
 31
0.0
  0
LINE
  5
F9
330
42
100
AcDbEntity
  8
1
  6
Continuous
 62
     7
100
AcDbLine
 10
157.5724604966085
 20
274.71467268623
 30
0.0
 11
157.5724604966329
 21
280.214672686231
 31
0.0
  0
LINE
  5
FA
330
42
100
AcDbEntity
  8
1
  6
Continuous
 62
     7
100
AcDbLine
 10
167.0724604966329
 20
280.214672686231
 30
0.0
 11
167.0724604966083
 21
274.71467268623
 31
0.0
  0
ENDBLK
  5
44
330
42
100
AcDbEntity
  8
0
100
AcDbBlockEnd
  0
BLOCK
  5
46
330
45
100
AcDbEntity
  8
0
100
AcDbBlockBegin
  2
42-_e__
 70
     0
 71
     0
 10
162.3224604966085
 20
279.714672686231
 30
0.0
  3
42-_e__
  1

  0
LINE
  5
FB
330
45
100
AcDbEntity
  8
1
  6
Continuous
 62
     2
100
AcDbLine
 10
259.4520224244477
 20
361.2146726862299
 30
0.0
 11
258.3032960945948
 21
361.2146726862299
 31
0.0
  0
LINE
  5
FC
330
45
100
AcDbEntity
  8
1
  6
Continuous
 62
     2
100
AcDbLine
 10
259.7760670621397
 20
362.2146726862299
 30
0.0
 11
258.0580731255307
 21
362.2146726862299
 31
0.0
  0
LINE
  5
FD
330
45
100
AcDbEntity
  8
1
  6
Continuous
 62
     2
100
AcDbLine
 10
260.1351435525546
 20
363.2146726862299
 30
0.0
 11
257.8653979355518
 21
363.2146726862299
 31
0.0
  0
LINE
  5
FE
330
45
100
AcDbEntity
  8
1
  6
Continuous
 62
     2
100
AcDbLine
 10
260.2840289266296
 20
364.2146726862299
 30
0.0
 11
257.7340284878387
 21
364.2146726862299
 31
0.0
  0
LINE
  5
FF
330
45
100
AcDbEntity
  8
1
  6
Continuous
 62
     7
100
AcDbLine
 10
260.3896162528167
 20
352.7146726862299
 30
0.0
 11
260.3896162528167
 21
366.7146726862299
 31
0.0
  0
LINE
  5
100
330
45
100
AcDbEntity
  8
1
  6
Continuous
 62
     7
100
AcDbLine
 10
257.5896162528165
 20
366.7146726862299
 30
0.0
 11
257.5896162528165
 21
352.7146726862299
 31
0.0
  0
LINE
  5
101
330
45
100
AcDbEntity
  8
1
  6
Continuous
 62
     2
100
AcDbLine
 10
260.3896162528167
 20
365.2146726862299
 30
0.0
 11
257.5896162528165
 21
365.2146726862299
 31
0.0
  0
LINE
  5
102
330
45
100
AcDbEntity
  8
1
  6
Continuous
 62
     2
100
AcDbLine
 10
260.3896162528167
 20
366.2146726862299
 30
0.0
 11
257.5896162528165
 21
366.2146726862299
 31
0.0
  0
LINE
  5
103
330
45
100
AcDbEntity
  8
1
  6
Continuous
 62
     7
100
AcDbLine
 10
257.5896162528165
 20
366.7146726862299
 30
0.0
 11
260.3896162528167
 21
366.7146726862299
 31
0.0
  0
LINE
  5
104
330
45
100
AcDbEntity
  8
1
  6
Continuous
 62
     7
100
AcDbLine
 10
260.3896162528167
 20
352.7146726862299
 30
0.0
 11
257.5896162528165
 21
352.7146726862299
 31
0.0
  0
LINE
  5
105
330
45
100
AcDbEntity
  8
1
  6
Continuous
 62
     2
100
AcDbLine
 10
257.5896162528165
 20
353.2146726862299
 30
0.0
 11
260.3896162528167
 21
353.2146726862299
 31
0.0
  0
LINE
  5
106
330
45
100
AcDbEntity
  8
1
  6
Continuous
 62
     2
100
AcDbLine
 10
257.5896162528165
 20
354.2146726862299
 30
0.0
 11
260.3896162528167
 21
354.2146726862299
 31
0.0
  0
LINE
  5
107
330
45
100
AcDbEntity
  8
1
  6
Continuous
 62
     2
100
AcDbLine
 10
257.7340284878387
 20
355.2146726862299
 30
0.0
 11
260.2840289266296
 21
355.2146726862299
 31
0.0
  0
LINE
  5
108
330
45
100
AcDbEntity
  8
1
  6
Continuous
 62
     2
100
AcDbLine
 10
257.8653979355518
 20
356.2146726862299
 30
0.0
 11
260.1351435525546
 21
356.2146726862299
 31
0.0
  0
LINE
  5
109
330
45
100
AcDbEntity
  8
1
  6
Continuous
 62
     2
100
AcDbLine
 10
258.0580731255307
 20
357.2146726862299
 30
0.0
 11
259.7760670621397
 21
357.2146726862299
 31
0.0
  0
LINE
  5
10A
330
45
100
AcDbEntity
  8
1
  6
Continuous
 62
     2
100
AcDbLine
 10
258.3032960945948
 20
358.2146726862299
 30
0.0
 11
259.4520224244477
 21
358.2146726862299
 31
0.0
  0
LINE
  5
10B
330
45
100
AcDbEntity
  8
1
  6
Continuous
 62
     2
100
AcDbLine
 10
160.8224604966083
 20
293.8009928444531
 30
0.0
 11
160.8224604966085
 21
292.6522665146
 31
0.0
  0
LINE
  5
10C
330
45
100
AcDbEntity
  8
1
  6
Continuous
 62
     2
100
AcDbLine
 10
159.8224604966085
 20
294.0462158135171
 30
0.0
 11
159.8224604966083
 21
292.3282218769081
 31
0.0
  0
LINE
  5
10D
330
45
100
AcDbEntity
  8
1
  6
Continuous
 62
     2
100
AcDbLine
 10
158.8224604966085
 20
294.238891003496
 30
0.0
 11
158.8224604966083
 21
291.9691453864931
 31
0.0
  0
LINE
  5
10E
330
45
100
AcDbEntity
  8
1
  6
Continuous
 62
     2
100
AcDbLine
 10
157.8224604966085
 20
294.3702604512091
 30
0.0
 11
157.8224604966085
 21
291.8202600124181
 31
0.0
  0
LINE
  5
10F
330
45
100
AcDbEntity
  8
1
  6
Continuous
 62
     7
100
AcDbLine
 10
155.3224604966083
 20
291.714672686231
 30
0.0
 11
169.3224604966083
 21
291.714672686231
 31
0.0
  0
LINE
  5
110
330
45
100
AcDbEntity
  8
1
  6
Continuous
 62
     7
100
AcDbLine
 10
169.3224604966083
 20
294.5146726862312
 30
0.0
 11
155.3224604966083
 21
294.5146726862312
 31
0.0
  0
LINE
  5
111
330
45
100
AcDbEntity
  8
1
  6
Continuous
 62
     2
100
AcDbLine
 10
156.8224604966085
 20
294.5146726862312
 30
0.0
 11
156.8224604966085
 21
291.714672686231
 31
0.0
  0
LINE
  5
112
330
45
100
AcDbEntity
  8
1
  6
Continuous
 62
     2
100
AcDbLine
 10
155.8224604966085
 20
294.5146726862312
 30
0.0
 11
155.8224604966085
 21
291.714672686231
 31
0.0
  0
LINE
  5
113
330
45
100
AcDbEntity
  8
1
  6
Continuous
 62
     7
100
AcDbLine
 10
155.3224604966083
 20
291.714672686231
 30
0.0
 11
155.3224604966083
 21
294.5146726862312
 31
0.0
  0
LINE
  5
114
330
45
100
AcDbEntity
  8
1
  6
Continuous
 62
     7
100
AcDbLine
 10
169.3224604966083
 20
294.5146726862312
 30
0.0
 11
169.3224604966083
 21
291.714672686231
 31
0.0
  0
LINE
  5
115
330
45
100
AcDbEntity
  8
1
  6
Continuous
 62
     2
100
AcDbLine
 10
168.8224604966083
 20
291.714672686231
 30
0.0
 11
168.8224604966083
 21
294.5146726862312
 31
0.0
  0
LINE
  5
116
330
45
100
AcDbEntity
  8
1
  6
Continuous
 62
     2
100
AcDbLine
 10
167.8224604966083
 20
291.714672686231
 30
0.0
 11
167.8224604966083
 21
294.5146726862312
 31
0.0
  0
LINE
  5
117
330
45
100
AcDbEntity
  8
1
  6
Continuous
 62
     2
100
AcDbLine
 10
166.8224604966083
 20
291.8202600124181
 30
0.0
 11
166.8224604966083
 21
294.3702604512091
 31
0.0
  0
LINE
  5
118
330
45
100
AcDbEntity
  8
1
  6
Continuous
 62
     2
100
AcDbLine
 10
165.8224604966085
 20
291.9691453864931
 30
0.0
 11
165.8224604966083
 21
294.238891003496
 31
0.0
  0
LINE
  5
119
330
45
100
AcDbEntity
  8
1
  6
Continuous
 62
     2
100
AcDbLine
 10
164.8224604966083
 20
292.3282218769081
 30
0.0
 11
164.8224604966085
 21
294.0462158135171
 31
0.0
  0
LINE
  5
11A
330
45
100
AcDbEntity
  8
1
  6
Continuous
 62
     2
100
AcDbLine
 10
163.8224604966083
 20
292.6522665146
 30
0.0
 11
163.8224604966085
 21
293.8009928444531
 31
0.0
  0
ARC
  5
11B
330
45
100
AcDbEntity
  8
1
  6
Continuous
 62
     7
100
AcDbCircle
 10
281.5896162528168
 20
359.7146726862299
 30
0.0
 40
25.0
100
AcDbArc
 50
180.0
 51
-163.7397952916883
  0
ARC
  5
11C
330
45
100
AcDbEntity
  8
1
  6
Continuous
 62
     7
100
AcDbCircle
 10
281.5896162528168
 20
359.7146726862299
 30
0.0
 40
25.00000000000033
100
AcDbArc
 50
163.7397952916883
 51
180.0
  0
ARC
  5
11D
330
45
100
AcDbEntity
  8
1
  6
Continuous
 62
     7
100
AcDbCircle
 10
162.3224604966083
 20
270.5146726862311
 30
0.0
 40
25.00000000000011
100
AcDbArc
 50
73.73979529168813
 51
90.0
  0
ARC
  5
11E
330
45
100
AcDbEntity
  8
1
  6
Continuous
 62
     7
100
AcDbCircle
 10
162.3224604966083
 20
270.5146726862311
 30
0.0
 40
25.0
100
AcDbArc
 50
90.0
 51
106.2602047083119
  0
CIRCLE
  5
11F
330
45
100
AcDbEntity
  8
1
  6
Continuous
 62
     7
100
AcDbCircle
 10
162.3224604966083
 20
359.7146726862301
 30
0.0
 40
7.0
  0
ENDBLK
  5
47
330
45
100
AcDbEntity
  8
0
100
AcDbBlockEnd
  0
BLOCK
  5
49
330
48
100
AcDbEntity
  8
0
100
AcDbBlockBegin
  2
V2220L-0A-13-M1
 70
     0
 71
     0
 10
162.3224604966083
 20
359.7146726862299
 30
0.0
  3
V2220L-0A-13-M1
  1

  0
LINE
  5
120
330
48
100
AcDbEntity
  8
1
  6
Continuous
 62
     7
100
AcDbLine
 10
145.8224604966085
 20
217.8471215164914
 30
0.0
 11
145.8224604966088
 21
218.1946726862299
 31
0.0
  0
LINE
  5
121
330
48
100
AcDbEntity
  8
1
  6
Continuous
 62
     7
100
AcDbLine
 10
145.8224604966088
 20
240.1946726862299
 30
0.0
 11
145.8224604966085
 21
241.7525761347597
 31
0.0
  0
LINE
  5
122
330
48
100
AcDbEntity
  8
1
  6
PHANTOM
 62
     4
100
AcDbLine
 10
200.8224604966085
 20
229.71467268623
 30
0.0
 11
128.3224604966242
 21
229.7146726862299
 31
0.0
  0
LINE
  5
123
330
48
100
AcDbEntity
  8
1
  6
Continuous
 62
     7
100
AcDbLine
 10
174.3224604966069
 20
259.2146726862299
 30
0.0
 11
173.5094604966084
 21
259.2146726862299
 31
0.0
  0
LINE
  5
124
330
48
100
AcDbEntity
  8
1
  6
Continuous
 62
     7
100
AcDbLine
 10
174.3224604966074
 20
257.8065153796787
 30
0.0
 11
174.3224604966083
 21
260.71467268623
 31
0.0
  0
LINE
  5
125
330
48
100
AcDbEntity
  8
1
  6
PHANTOM
 62
     4
100
AcDbLine
 10
162.3224604966083
 20
265.21467268623
 30
0.0
 11
162.3224604966083
 21
211.5146726862299
 31
0.0
  0
LINE
  5
126
330
48
100
AcDbEntity
  8
1
  6
Continuous
 62
     7
100
AcDbLine
 10
151.1354604966084
 20
259.2146726862299
 30
0.0
 11
150.3224604966101
 21
259.2146726862299
 31
0.0
  0
LINE
  5
127
330
48
100
AcDbEntity
  8
1
  6
Continuous
 62
     7
100
AcDbLine
 10
194.8224604966085
 20
217.7146726862314
 30
0.0
 11
194.8224604966085
 21
218.5276726862298
 31
0.0
  0
LINE
  5
128
330
48
100
AcDbEntity
  8
1
  6
Continuous
 62
     7
100
AcDbLine
 10
193.4143031900574
 20
217.7146726862314
 30
0.0
 11
196.3246087756302
 21
217.7146726862305
 31
0.0
  0
LINE
  5
129
330
48
100
AcDbEntity
  8
1
  6
Continuous
 62
     2
100
AcDbLine
 10
143.8132815598281
 20
220.3946726862302
 30
0.0
 11
128.3224604966242
 21
220.3946726862302
 31
0.0
  0
LINE
  5
12A
330
48
100
AcDbEntity
  8
1
  6
Continuous
 62
     7
100
AcDbLine
 10
129.4824604966245
 20
219.2346726862299
 30
0.0
 11
128.3224604966242
 21
220.3946726862302
 31
0.0
  0
LINE
  5
12B
330
48
100
AcDbEntity
  8
1
  6
Continuous
 62
     7
100
AcDbLine
 10
145.8224604966085
 20
219.2346726862299
 30
0.0
 11
129.4824604966245
 21
219.2346726862299
 31
0.0
  0
LINE
  5
12C
330
48
100
AcDbEntity
  8
1
  6
Continuous
 62
     7
100
AcDbLine
 10
128.3224604966242
 20
220.3946726862302
 30
0.0
 11
128.3224604966242
 21
239.0346726862302
 31
0.0
  0
LINE
  5
12D
330
48
100
AcDbEntity
  8
1
  6
Continuous
 62
     7
100
AcDbLine
 10
143.8132815598281
 20
220.3946726862302
 30
0.0
 11
143.8132815598281
 21
219.2346726862299
 31
0.0
  0
LINE
  5
12E
330
48
100
AcDbEntity
  8
1
  6
Continuous
 62
     2
100
AcDbLine
 10
145.8224604966085
 20
219.2346726862299
 30
0.0
 11
143.8132815598281
 21
220.3946726862302
 31
0.0
  0
LINE
  5
12F
330
48
100
AcDbEntity
  8
1
  6
Continuous
 62
     2
100
AcDbLine
 10
128.3224604966242
 20
239.0346726862302
 30
0.0
 11
143.8132815598287
 21
239.0346726862297
 31
0.0
  0
LINE
  5
130
330
48
100
AcDbEntity
  8
1
  6
Continuous
 62
     7
100
AcDbLine
 10
128.3224604966242
 20
239.0346726862302
 30
0.0
 11
129.4824604966245
 21
240.1946726862299
 31
0.0
  0
LINE
  5
131
330
48
100
AcDbEntity
  8
1
  6
Continuous
 62
     7
100
AcDbLine
 10
129.4824604966245
 20
240.1946726862299
 30
0.0
 11
145.8224604966088
 21
240.1946726862299
 31
0.0
  0
LINE
  5
132
330
48
100
AcDbEntity
  8
1
  6
Continuous
 62
     7
100
AcDbLine
 10
143.8132815598287
 20
240.1946726862299
 30
0.0
 11
143.8132815598287
 21
239.0346726862297
 31
0.0
  0
LINE
  5
133
330
48
100
AcDbEntity
  8
1
  6
Continuous
 62
     2
100
AcDbLine
 10
143.8132815598287
 20
239.0346726862297
 30
0.0
 11
145.8224604966088
 21
240.1946726862299
 31
0.0
  0
LINE
  5
134
330
48
100
AcDbEntity
  8
1
  6
Continuous
 62
     7
100
AcDbLine
 10
149.9127430416454
 20
257.3967979247148
 30
0.0
 11
149.4344182428708
 21
248.2698170581648
 31
0.0
  0
LINE
  5
135
330
48
100
AcDbEntity
  8
1
  6
Continuous
 62
     7
100
AcDbLine
 10
149.9127430416454
 20
257.3967979247148
 30
0.0
 11
150.3224604966097
 21
257.8065153796787
 31
0.0
  0
LINE
  5
136
330
48
100
AcDbEntity
  8
1
  6
Continuous
 62
     7
100
AcDbLine
 10
175.0603389967923
 20
251.1351121652622
 30
0.0
 11
174.7321779515714
 21
257.3967979247148
 31
0.0
  0
LINE
  5
137
330
48
100
AcDbEntity
  8
1
  6
Continuous
 62
     7
100
AcDbLine
 10
193.0045857350935
 20
242.1243901411927
 30
0.0
 11
183.5769812033971
 21
242.6184699586575
 31
0.0
  0
LINE
  5
138
330
48
100
AcDbEntity
  8
1
  6
Continuous
 62
     7
100
AcDbLine
 10
193.0045857350935
 20
242.1243901411927
 30
0.0
 11
193.4143031900574
 21
241.7146726862286
 31
0.0
  0
LINE
  5
139
330
48
100
AcDbEntity
  8
1
  6
Continuous
 62
     7
100
AcDbLine
 10
174.3224604966074
 20
257.8065153796787
 30
0.0
 11
174.7321779515714
 21
257.3967979247148
 31
0.0
  0
LINE
  5
13A
330
48
100
AcDbEntity
  8
1
  6
Continuous
 62
     7
100
AcDbLine
 10
184.0309257640959
 20
216.8346656401461
 30
0.0
 11
193.0045857350935
 21
217.3049552312673
 31
0.0
  0
LINE
  5
13B
330
48
100
AcDbEntity
  8
1
  6
Continuous
 62
     7
100
AcDbLine
 10
193.4143031900574
 20
217.7146726862314
 30
0.0
 11
193.0045857350935
 21
217.3049552312673
 31
0.0
  0
LINE
  5
13C
330
48
100
AcDbEntity
  8
1
  6
Continuous
 62
     7
100
AcDbLine
 10
151.1354604966084
 20
259.2146726862299
 30
0.0
 11
173.5094604966084
 21
259.2146726862299
 31
0.0
  0
LINE
  5
13D
330
48
100
AcDbEntity
  8
1
  6
Continuous
 62
     7
100
AcDbLine
 10
174.3224604966074
 20
257.8065153796787
 30
0.0
 11
150.3224604966097
 21
257.8065153796787
 31
0.0
  0
LINE
  5
13E
330
48
100
AcDbEntity
  8
1
  6
Continuous
 62
     7
100
AcDbLine
 10
150.3224604966085
 20
260.71467268623
 30
0.0
 11
150.3224604966097
 21
257.8065153796787
 31
0.0
  0
LINE
  5
13F
330
48
100
AcDbEntity
  8
1
  6
Continuous
 62
     7
100
AcDbLine
 10
194.8224604966085
 20
240.90167268623
 30
0.0
 11
194.8224604966085
 21
241.7146726862286
 31
0.0
  0
LINE
  5
140
330
48
100
AcDbEntity
  8
1
  6
Continuous
 62
     7
100
AcDbLine
 10
193.4143031900574
 20
241.7146726862286
 30
0.0
 11
193.4143031900574
 21
217.7146726862314
 31
0.0
  0
LINE
  5
141
330
48
100
AcDbEntity
  8
1
  6
Continuous
 62
     7
100
AcDbLine
 10
194.8224604966085
 20
240.90167268623
 30
0.0
 11
194.8224604966085
 21
218.5276726862298
 31
0.0
  0
LINE
  5
142
330
48
100
AcDbEntity
  8
1
  6
Continuous
 62
     7
100
AcDbLine
 10
196.3246087756302
 20
241.7146726862303
 30
0.0
 11
196.3246087756302
 21
217.7146726862305
 31
0.0
  0
LINE
  5
143
330
48
100
AcDbEntity
  8
1
  6
Continuous
 62
     7
100
AcDbLine
 10
196.3246087756302
 20
241.7146726862303
 30
0.0
 11
193.4143031900574
 21
241.7146726862286
 31
0.0
  0
LINE
  5
144
330
48
100
AcDbEntity
  8
1
  6
Continuous
 62
     7
100
AcDbLine
 10
143.8132815598287
 20
239.0346726862297
 30
0.0
 11
143.8132815598281
 21
220.3946726862302
 31
0.0
  0
LINE
  5
145
330
48
100
AcDbEntity
  8
1
  6
Continuous
 62
     7
100
AcDbLine
 10
145.8224604966088
 20
240.1946726862299
 30
0.0
 11
145.8224604966088
 21
218.1946726862299
 31
0.0
  0
LINE
  5
146
330
48
100
AcDbEntity
  8
1
  6
Continuous
 62
     7
100
AcDbLine
 10
145.8224604966088
 20
218.1946726862299
 30
0.0
 11
145.8224604966085
 21
219.2346726862299
 31
0.0
  0
LINE
  5
147
330
48
100
AcDbEntity
  8
1
  6
Continuous
 62
     7
100
AcDbLine
 10
170.8224604966082
 20
227.5070325102799
 30
0.0
 11
170.8224604966082
 21
231.92231286218
 31
0.0
  0
LINE
  5
148
330
48
100
AcDbEntity
  8
1
  6
Continuous
 62
     7
100
AcDbLine
 10
167.9794683653371
 20
234.918201466443
 30
0.0
 11
162.3224604966082
 21
235.21467268623
 31
0.0
  0
LINE
  5
149
330
48
100
AcDbEntity
  8
1
  6
Continuous
 62
     7
100
AcDbLine
 10
162.3224604966082
 20
235.21467268623
 30
0.0
 11
157.1654526278795
 21
234.9444053560849
 31
0.0
  0
LINE
  5
14A
330
48
100
AcDbEntity
  8
1
  6
Continuous
 62
     7
100
AcDbLine
 10
162.3224604966082
 20
224.21467268623
 30
0.0
 11
167.9794683653371
 21
224.511143906017
 31
0.0
  0
LINE
  5
14B
330
48
100
AcDbEntity
  8
1
  6
Continuous
 62
     7
100
AcDbLine
 10
154.3224604966082
 20
231.948516751821
 30
0.0
 11
154.3224604966082
 21
231.71467268623
 31
0.0
  0
LINE
  5
14C
330
48
100
AcDbEntity
  8
1
  6
Continuous
 62
     7
100
AcDbLine
 10
154.8169069971433
 20
242.71467268623
 30
0.0
 11
169.8280139960734
 21
242.71467268623
 31
0.0
  0
LINE
  5
14D
330
48
100
AcDbEntity
  8
1
  6
Continuous
 62
     7
100
AcDbLine
 10
169.8280139960734
 20
242.71467268623
 30
0.0
 11
177.3335674955383
 21
229.71467268623
 31
0.0
  0
LINE
  5
14E
330
48
100
AcDbEntity
  8
1
  6
Continuous
 62
     7
100
AcDbLine
 10
177.3335674955383
 20
229.71467268623
 30
0.0
 11
169.8280139960734
 21
216.71467268623
 31
0.0
  0
LINE
  5
14F
330
48
100
AcDbEntity
  8
1
  6
Continuous
 62
     7
100
AcDbLine
 10
169.8280139960734
 20
216.71467268623
 30
0.0
 11
154.8169069971433
 21
216.71467268623
 31
0.0
  0
LINE
  5
150
330
48
100
AcDbEntity
  8
1
  6
Continuous
 62
     7
100
AcDbLine
 10
154.8169069971433
 20
216.71467268623
 30
0.0
 11
147.3113534976784
 21
229.71467268623
 31
0.0
  0
LINE
  5
151
330
48
100
AcDbEntity
  8
1
  6
Continuous
 62
     7
100
AcDbLine
 10
147.3113534976784
 20
229.71467268623
 30
0.0
 11
154.8169069971433
 21
242.71467268623
 31
0.0
  0
LINE
  5
152
330
48
100
AcDbEntity
  8
1
  6
Continuous
 62
     7
100
AcDbLine
 10
129.4824604966245
 20
240.1946726862299
 30
0.0
 11
129.4824604966245
 21
219.2346726862299
 31
0.0
  0
LINE
  5
153
330
48
100
AcDbEntity
  8
1
  6
Continuous
 62
     7
100
AcDbLine
 10
294.7074910143331
 20
347.3049552312673
 30
0.0
 11
294.297773559369
 21
347.7146726862314
 31
0.0
  0
LINE
  5
154
330
48
100
AcDbEntity
  8
1
  6
Continuous
 62
     7
100
AcDbLine
 10
294.7074910143331
 20
347.3049552312673
 30
0.0
 11
302.5083039027613
 21
346.8961319511823
 31
0.0
  0
LINE
  5
155
330
48
100
AcDbEntity
  8
1
  6
Continuous
 62
     7
100
AcDbLine
 10
294.297773559369
 20
371.7146726862286
 30
0.0
 11
294.7074910143331
 21
372.1243901411926
 31
0.0
  0
LINE
  5
156
330
48
100
AcDbEntity
  8
1
  6
Continuous
 62
     7
100
AcDbLine
 10
311.1806839284968
 20
379.4765614251134
 30
0.0
 11
311.9096162528181
 21
380.2054937494341
 31
0.0
  0
LINE
  5
157
330
48
100
AcDbEntity
  8
1
  6
Continuous
 62
     7
100
AcDbLine
 10
302.8916724763453
 20
372.5533049168662
 30
0.0
 11
294.7074910143331
 21
372.1243901411926
 31
0.0
  0
LINE
  5
158
330
48
100
AcDbEntity
  8
1
  6
Continuous
 62
     7
100
AcDbLine
 10
333.5093349980609
 20
379.5657750041911
 30
0.0
 11
332.8696162528179
 21
380.2054937494341
 31
0.0
  0
LINE
  5
159
330
48
100
AcDbEntity
  8
1
  6
Continuous
 62
     7
100
AcDbLine
 10
309.3896162528181
 20
326.2146726862286
 30
0.0
 11
309.3896162528181
 21
335.2311773449223
 31
0.0
  0
LINE
  5
15A
330
48
100
AcDbEntity
  8
1
  6
Continuous
 62
     7
100
AcDbLine
 10
335.3896162528179
 20
335.2311773449223
 30
0.0
 11
335.3896162528179
 21
326.2146726862286
 31
0.0
  0
LINE
  5
15B
330
48
100
AcDbEntity
  8
1
  6
Continuous
 62
     7
100
AcDbLine
 10
291.3896162528176
 20
347.7146726862314
 30
0.0
 11
294.297773559369
 21
347.7146726862314
 31
0.0
  0
LINE
  5
15C
330
48
100
AcDbEntity
  8
1
  6
Continuous
 62
     7
100
AcDbLine
 10
332.8696162528179
 20
326.2146726862286
 30
0.0
 11
335.3896162528179
 21
326.2146726862286
 31
0.0
  0
LINE
  5
15D
330
48
100
AcDbEntity
  8
1
  6
Continuous
 62
     7
100
AcDbLine
 10
309.3896162528181
 20
326.2146726862286
 30
0.0
 11
311.9096162528181
 21
326.2146726862286
 31
0.0
  0
LINE
  5
15E
330
48
100
AcDbEntity
  8
1
  6
Continuous
 62
     2
100
AcDbLine
 10
311.9096162528181
 20
380.2054937494341
 30
0.0
 11
313.0696162528182
 21
382.214672686214
 31
0.0
  0
LINE
  5
15F
330
48
100
AcDbEntity
  8
1
  6
Continuous
 62
     7
100
AcDbLine
 10
313.0696162528182
 20
382.214672686214
 30
0.0
 11
311.9096162528178
 21
382.214672686214
 31
0.0
  0
LINE
  5
160
330
48
100
AcDbEntity
  8
1
  6
Continuous
 62
     7
100
AcDbLine
 10
311.9096162528181
 20
380.2054937494341
 30
0.0
 11
311.9096162528181
 21
397.0546726862139
 31
0.0
  0
LINE
  5
161
330
48
100
AcDbEntity
  8
1
  6
Continuous
 62
     7
100
AcDbLine
 10
311.9096162528181
 20
397.0546726862139
 30
0.0
 11
313.0696162528182
 21
398.214672686214
 31
0.0
  0
LINE
  5
162
330
48
100
AcDbEntity
  8
1
  6
Continuous
 62
     2
100
AcDbLine
 10
313.0696162528182
 20
382.214672686214
 30
0.0
 11
313.0696162528182
 21
398.214672686214
 31
0.0
  0
LINE
  5
163
330
48
100
AcDbEntity
  8
1
  6
Continuous
 62
     2
100
AcDbLine
 10
331.7096162528176
 20
382.214672686214
 30
0.0
 11
332.8696162528179
 21
380.2054937494341
 31
0.0
  0
LINE
  5
164
330
48
100
AcDbEntity
  8
1
  6
Continuous
 62
     7
100
AcDbLine
 10
332.8696162528179
 20
382.214672686214
 30
0.0
 11
331.7096162528176
 21
382.214672686214
 31
0.0
  0
LINE
  5
165
330
48
100
AcDbEntity
  8
1
  6
Continuous
 62
     7
100
AcDbLine
 10
332.8696162528179
 20
397.0546726862139
 30
0.0
 11
332.8696162528179
 21
380.2054937494341
 31
0.0
  0
LINE
  5
166
330
48
100
AcDbEntity
  8
1
  6
Continuous
 62
     7
100
AcDbLine
 10
331.7096162528183
 20
398.214672686214
 30
0.0
 11
332.8696162528179
 21
397.0546726862139
 31
0.0
  0
LINE
  5
167
330
48
100
AcDbEntity
  8
1
  6
Continuous
 62
     7
100
AcDbLine
 10
313.0696162528182
 20
398.214672686214
 30
0.0
 11
331.7096162528183
 21
398.214672686214
 31
0.0
  0
LINE
  5
168
330
48
100
AcDbEntity
  8
1
  6
Continuous
 62
     2
100
AcDbLine
 10
331.7096162528183
 20
398.214672686214
 30
0.0
 11
331.7096162528176
 21
382.214672686214
 31
0.0
  0
LINE
  5
169
330
48
100
AcDbEntity
  8
1
  6
Continuous
 62
     7
100
AcDbLine
 10
310.0896162528181
 20
337.1573133733482
 30
0.0
 11
310.0896162528177
 21
338.9070956731457
 31
0.0
  0
LINE
  5
16A
330
48
100
AcDbEntity
  8
1
  6
Continuous
 62
     7
100
AcDbLine
 10
334.6896162528176
 20
339.0896878377504
 30
0.0
 11
334.689616252818
 21
337.1573133733482
 31
0.0
  0
LINE
  5
16B
330
48
100
AcDbEntity
  8
1
  6
PHANTOM
 62
     4
100
AcDbLine
 10
340.5896162528179
 20
359.7146726862299
 30
0.0
 11
286.8896162528176
 21
359.7146726862299
 31
0.0
  0
LINE
  5
16C
330
48
100
AcDbEntity
  8
1
  6
PHANTOM
 62
     4
100
AcDbLine
 10
322.3896162528179
 20
326.2146726862286
 30
0.0
 11
322.3896162528179
 21
404.2146726862281
 31
0.0
  0
LINE
  5
16D
330
48
100
AcDbEntity
  8
1
  6
Continuous
 62
     7
100
AcDbLine
 10
294.297773559369
 20
371.7146726862286
 30
0.0
 11
291.3896162528176
 21
371.7146726862286
 31
0.0
  0
LINE
  5
16E
330
48
100
AcDbEntity
  8
1
  6
Continuous
 62
     7
100
AcDbLine
 10
291.3896162528176
 20
347.7146726862314
 30
0.0
 11
291.3896162528176
 21
371.7146726862286
 31
0.0
  0
LINE
  5
16F
330
48
100
AcDbEntity
  8
1
  6
Continuous
 62
     7
100
AcDbLine
 10
311.9096162528181
 20
380.2054937494341
 30
0.0
 11
332.8696162528179
 21
380.2054937494341
 31
0.0
  0
LINE
  5
170
330
48
100
AcDbEntity
  8
1
  6
Continuous
 62
     7
100
AcDbLine
 10
311.1806839284968
 20
379.5657750041911
 30
0.0
 11
333.5093349980609
 21
379.5657750041911
 31
0.0
  0
LINE
  5
171
330
48
100
AcDbEntity
  8
1
  6
Continuous
 62
     7
100
AcDbLine
 10
313.0696162528182
 20
382.214672686214
 30
0.0
 11
331.7096162528176
 21
382.214672686214
 31
0.0
  0
LINE
  5
172
330
48
100
AcDbEntity
  8
1
  6
Continuous
 62
     7
100
AcDbLine
 10
333.789616252818
 20
326.2146726862288
 30
0.0
 11
335.3896162528179
 21
326.2146726862286
 31
0.0
  0
LINE
  5
173
330
48
100
AcDbEntity
  8
1
  6
Continuous
 62
     7
100
AcDbLine
 10
309.3896162528181
 20
326.2146726862286
 30
0.0
 11
310.9896162528178
 21
326.2146726862288
 31
0.0
  0
LINE
  5
174
330
48
100
AcDbEntity
  8
1
  6
Continuous
 62
     7
100
AcDbLine
 10
309.3896162528181
 20
326.2146726862286
 30
0.0
 11
309.3896162528181
 21
335.2311773449223
 31
0.0
  0
LINE
  5
175
330
48
100
AcDbEntity
  8
1
  6
Continuous
 62
     7
100
AcDbLine
 10
335.3896162528179
 20
335.2311773449223
 30
0.0
 11
335.3896162528179
 21
326.2146726862286
 31
0.0
  0
LINE
  5
176
330
48
100
AcDbEntity
  8
1
  6
Continuous
 62
     7
100
AcDbLine
 10
310.9896162528178
 20
326.2146726862288
 30
0.0
 11
311.4896162528185
 21
326.7146726862288
 31
0.0
  0
LINE
  5
177
330
48
100
AcDbEntity
  8
1
  6
Continuous
 62
     7
100
AcDbLine
 10
309.3896162528181
 20
326.2146726862286
 30
0.0
 11
311.6571162528178
 21
326.2146726862285
 31
0.0
  0
LINE
  5
178
330
48
100
AcDbEntity
  8
1
  6
Continuous
 62
     7
100
AcDbLine
 10
335.3896162528179
 20
326.2146726862286
 30
0.0
 11
333.1221162528177
 21
326.2146726862285
 31
0.0
  0
LINE
  5
179
330
48
100
AcDbEntity
  8
1
  6
Continuous
 62
     7
100
AcDbLine
 10
311.6571162528178
 20
326.2146726862285
 30
0.0
 11
322.3896162528179
 21
326.2146726862286
 31
0.0
  0
LINE
  5
17A
330
48
100
AcDbEntity
  8
1
  6
Continuous
 62
     7
100
AcDbLine
 10
333.1221162528177
 20
326.2146726862285
 30
0.0
 11
322.3896162528179
 21
326.2146726862286
 31
0.0
  0
LINE
  5
17B
330
48
100
AcDbEntity
  8
1
  6
Continuous
 62
     7
100
AcDbLine
 10
322.3896162528179
 20
327.3757858534299
 30
0.0
 11
322.3896162528179
 21
335.0535595190273
 31
0.0
  0
LINE
  5
17C
330
48
100
AcDbEntity
  8
1
  6
PHANTOM
 62
     4
100
AcDbLine
 10
322.3896162528179
 20
327.3757858534299
 30
0.0
 11
322.3896162528179
 21
335.0535595190273
 31
0.0
  0
LINE
  5
17D
330
48
100
AcDbEntity
  8
1
  6
PHANTOM
 62
     4
100
AcDbLine
 10
322.3896162528179
 20
323.2146726862285
 30
0.0
 11
322.3896162528179
 21
327.3757858534299
 31
0.0
  0
LINE
  5
17E
330
48
100
AcDbEntity
  8
1
  6
Continuous
 62
     7
100
AcDbLine
 10
309.3896162528179
 20
327.3757858534299
 30
0.0
 11
309.3896162528179
 21
335.0535595190273
 31
0.0
  0
LINE
  5
17F
330
48
100
AcDbEntity
  8
1
  6
Continuous
 62
     7
100
AcDbLine
 10
309.3896162528181
 20
326.2146726862286
 30
0.0
 11
309.3896162528179
 21
327.3757858534299
 31
0.0
  0
LINE
  5
180
330
48
100
AcDbEntity
  8
1
  6
Continuous
 62
     7
100
AcDbLine
 10
294.7074910143326
 20
361.6417048017299
 30
0.0
 11
294.7074910143331
 21
372.1243901411926
 31
0.0
  0
LINE
  5
181
330
48
100
AcDbEntity
  8
1
  6
Continuous
 62
     7
100
AcDbLine
 10
294.297773559369
 20
371.7146726862286
 30
0.0
 11
294.297773559369
 21
347.7146726862314
 31
0.0
  0
LINE
  5
182
330
48
100
AcDbEntity
  8
1
  6
Continuous
 62
     7
100
AcDbLine
 10
292.8896162528176
 20
371.7146726862286
 30
0.0
 11
292.8896162528176
 21
347.7146726862314
 31
0.0
  0
LINE
  5
183
330
48
100
AcDbEntity
  8
1
  6
Continuous
 62
     2
100
AcDbLine
 10
294.297773559369
 20
371.7146726862286
 30
0.0
 11
292.8896162528176
 21
370.9016726862299
 31
0.0
  0
LINE
  5
184
330
48
100
AcDbEntity
  8
1
  6
Continuous
 62
     2
100
AcDbLine
 10
292.8896162528176
 20
370.9016726862299
 30
0.0
 11
291.3896162528176
 21
370.9016726862299
 31
0.0
  0
LINE
  5
185
330
48
100
AcDbEntity
  8
1
  6
Continuous
 62
     7
100
AcDbLine
 10
294.7074910143331
 20
347.3049552312673
 30
0.0
 11
294.7074910143326
 21
361.6417048017299
 31
0.0
  0
LINE
  5
186
330
48
100
AcDbEntity
  8
1
  6
Continuous
 62
     2
100
AcDbLine
 10
292.8896162528176
 20
348.52767268623
 30
0.0
 11
294.297773559369
 21
347.7146726862314
 31
0.0
  0
LINE
  5
187
330
48
100
AcDbEntity
  8
1
  6
Continuous
 62
     2
100
AcDbLine
 10
291.3896162528176
 20
348.52767268623
 30
0.0
 11
292.8896162528176
 21
348.52767268623
 31
0.0
  0
LINE
  5
188
330
48
100
AcDbEntity
  8
1
  6
Continuous
 62
     7
100
AcDbLine
 10
311.9096162528181
 20
397.0546726862139
 30
0.0
 11
332.8696162528179
 21
397.0546726862139
 31
0.0
  0
LINE
  5
189
330
48
100
AcDbEntity
  8
1
  6
Continuous
 62
     2
100
AcDbLine
 10
194.8224604966083
 20
348.52767268623
 30
0.0
 11
196.3224604966083
 21
348.52767268623
 31
0.0
  0
LINE
  5
18A
330
48
100
AcDbEntity
  8
1
  6
Continuous
 62
     7
100
AcDbLine
 10
193.4143031900574
 20
347.7146726862314
 30
0.0
 11
196.3224604966083
 21
347.7146726862314
 31
0.0
  0
LINE
  5
18B
330
48
100
AcDbEntity
  8
1
  6
Continuous
 62
     7
100
AcDbLine
 10
193.0045857350933
 20
357.7876405707299
 30
0.0
 11
193.0045857350933
 21
347.3049552312673
 31
0.0
  0
LINE
  5
18C
330
48
100
AcDbEntity
  8
1
  6
Continuous
 62
     7
100
AcDbLine
 10
193.4143031900574
 20
347.7146726862314
 30
0.0
 11
193.4143031900574
 21
371.7146726862286
 31
0.0
  0
LINE
  5
18D
330
48
100
AcDbEntity
  8
1
  6
Continuous
 62
     7
100
AcDbLine
 10
172.8024604966083
 20
397.0546726862284
 30
0.0
 11
151.8424604966085
 21
397.0546726862285
 31
0.0
  0
LINE
  5
18E
330
48
100
AcDbEntity
  8
1
  6
Continuous
 62
     7
100
AcDbLine
 10
129.4824604966245
 20
349.2346726862299
 30
0.0
 11
129.4824604966245
 21
370.1946726862299
 31
0.0
  0
LINE
  5
18F
330
48
100
AcDbEntity
  8
1
  6
Continuous
 62
     7
100
AcDbLine
 10
184.3038986104002
 20
346.8489715408256
 30
0.0
 11
193.0045857350933
 21
347.3049552312673
 31
0.0
  0
LINE
  5
190
330
48
100
AcDbEntity
  8
1
  6
Continuous
 62
     7
100
AcDbLine
 10
193.4143031900574
 20
347.7146726862314
 30
0.0
 11
193.0045857350933
 21
347.3049552312673
 31
0.0
  0
LINE
  5
191
330
48
100
AcDbEntity
  8
1
  6
Continuous
 62
     7
100
AcDbLine
 10
193.0045857350933
 20
372.1243901411925
 30
0.0
 11
193.4143031900574
 21
371.7146726862286
 31
0.0
  0
LINE
  5
192
330
48
100
AcDbEntity
  8
1
  6
Continuous
 62
     7
100
AcDbLine
 10
172.8024604966083
 20
380.2054937494487
 30
0.0
 11
173.7337744483687
 21
379.274179797689
 31
0.0
  0
LINE
  5
193
330
48
100
AcDbEntity
  8
1
  6
Continuous
 62
     7
100
AcDbLine
 10
193.0045857350933
 20
372.1243901411925
 30
0.0
 11
184.3038986104002
 21
372.5803738316342
 31
0.0
  0
LINE
  5
194
330
48
100
AcDbEntity
  8
1
  6
Continuous
 62
     7
100
AcDbLine
 10
147.3113534976781
 20
332.614786116423
 30
0.0
 11
147.3113534976781
 21
327.3757858534303
 31
0.0
  0
LINE
  5
195
330
48
100
AcDbEntity
  8
1
  6
Continuous
 62
     7
100
AcDbLine
 10
148.1912128097029
 20
326.8677988427838
 30
0.0
 11
147.3113534976781
 21
327.3757858534303
 31
0.0
  0
LINE
  5
196
330
48
100
AcDbEntity
  8
1
  6
Continuous
 62
     7
100
AcDbLine
 10
174.6224604966087
 20
338.0781825259926
 30
0.0
 11
174.6224604966083
 21
337.1573133733482
 31
0.0
  0
LINE
  5
197
330
48
100
AcDbEntity
  8
1
  6
Continuous
 62
     7
100
AcDbLine
 10
149.3224604966083
 20
326.2146726862289
 30
0.0
 11
175.3224604966083
 21
326.2146726862289
 31
0.0
  0
LINE
  5
198
330
48
100
AcDbEntity
  8
1
  6
Continuous
 62
     7
100
AcDbLine
 10
177.3335674955386
 20
327.3757858534303
 30
0.0
 11
177.3335674955386
 21
333.2035656872985
 31
0.0
  0
LINE
  5
199
330
48
100
AcDbEntity
  8
1
  6
Continuous
 62
     7
100
AcDbLine
 10
176.4537081835124
 20
326.8677988427828
 30
0.0
 11
175.3224604966083
 21
326.2146726862289
 31
0.0
  0
LINE
  5
19A
330
48
100
AcDbEntity
  8
1
  6
Continuous
 62
     7
100
AcDbLine
 10
176.0398721635181
 20
334.4972610193191
 30
0.0
 11
177.3335674955386
 21
333.2035656872985
 31
0.0
  0
LINE
  5
19B
330
48
100
AcDbEntity
  8
1
  6
PHANTOM
 62
     4
100
AcDbLine
 10
200.8224604966083
 20
359.7146726862299
 30
0.0
 11
128.3224604966242
 21
359.7146726862299
 31
0.0
  0
LINE
  5
19C
330
48
100
AcDbEntity
  8
1
  6
Continuous
 62
     2
100
AcDbLine
 10
193.4143031900574
 20
347.7146726862314
 30
0.0
 11
194.8224604966083
 21
348.52767268623
 31
0.0
  0
LINE
  5
19D
330
48
100
AcDbEntity
  8
1
  6
Continuous
 62
     7
100
AcDbLine
 10
194.8224604966083
 20
347.7146726862314
 30
0.0
 11
194.8224604966083
 21
371.7146726862286
 31
0.0
  0
LINE
  5
19E
330
48
100
AcDbEntity
  8
1
  6
Continuous
 62
     2
100
AcDbLine
 10
194.8224604966083
 20
370.9016726862299
 30
0.0
 11
193.4143031900574
 21
371.7146726862286
 31
0.0
  0
LINE
  5
19F
330
48
100
AcDbEntity
  8
1
  6
Continuous
 62
     2
100
AcDbLine
 10
196.3224604966083
 20
370.9016726862299
 30
0.0
 11
194.8224604966083
 21
370.9016726862299
 31
0.0
  0
LINE
  5
1A0
330
48
100
AcDbEntity
  8
1
  6
Continuous
 62
     7
100
AcDbLine
 10
196.3224604966083
 20
371.7146726862284
 30
0.0
 11
193.4143031900574
 21
371.7146726862286
 31
0.0
  0
LINE
  5
1A1
330
48
100
AcDbEntity
  8
1
  6
Continuous
 62
     2
100
AcDbLine
 10
143.8132815598285
 20
350.3946726862303
 30
0.0
 11
128.3224604966242
 21
350.3946726862303
 31
0.0
  0
LINE
  5
1A2
330
48
100
AcDbEntity
  8
1
  6
Continuous
 62
     7
100
AcDbLine
 10
128.3224604966242
 20
350.3946726862303
 30
0.0
 11
128.3224604966242
 21
369.0346726862302
 31
0.0
  0
LINE
  5
1A3
330
48
100
AcDbEntity
  8
1
  6
Continuous
 62
     7
100
AcDbLine
 10
129.4824604966245
 20
349.2346726862299
 30
0.0
 11
128.3224604966242
 21
350.3946726862303
 31
0.0
  0
LINE
  5
1A4
330
48
100
AcDbEntity
  8
1
  6
Continuous
 62
     7
100
AcDbLine
 10
145.8224604966083
 20
349.2346726862299
 30
0.0
 11
129.4824604966245
 21
349.2346726862299
 31
0.0
  0
LINE
  5
1A5
330
48
100
AcDbEntity
  8
1
  6
Continuous
 62
     2
100
AcDbLine
 10
145.8224604966083
 20
349.2346726862299
 30
0.0
 11
143.8132815598285
 21
350.3946726862303
 31
0.0
  0
LINE
  5
1A6
330
48
100
AcDbEntity
  8
1
  6
Continuous
 62
     2
100
AcDbLine
 10
128.3224604966242
 20
369.0346726862302
 30
0.0
 11
143.8132815598285
 21
369.0346726862296
 31
0.0
  0
LINE
  5
1A7
330
48
100
AcDbEntity
  8
1
  6
Continuous
 62
     7
100
AcDbLine
 10
128.3224604966242
 20
369.0346726862302
 30
0.0
 11
129.4824604966245
 21
370.1946726862299
 31
0.0
  0
LINE
  5
1A8
330
48
100
AcDbEntity
  8
1
  6
Continuous
 62
     7
100
AcDbLine
 10
129.4824604966245
 20
370.1946726862299
 30
0.0
 11
145.8224604966083
 21
370.1946726862299
 31
0.0
  0
LINE
  5
1A9
330
48
100
AcDbEntity
  8
1
  6
Continuous
 62
     7
100
AcDbLine
 10
143.8132815598285
 20
370.1946726862299
 30
0.0
 11
143.8132815598285
 21
349.2346726862299
 31
0.0
  0
LINE
  5
1AA
330
48
100
AcDbEntity
  8
1
  6
Continuous
 62
     2
100
AcDbLine
 10
143.8132815598285
 20
369.0346726862296
 30
0.0
 11
145.8224604966083
 21
370.1946726862299
 31
0.0
  0
LINE
  5
1AB
330
48
100
AcDbEntity
  8
1
  6
Continuous
 62
     2
100
AcDbLine
 10
153.0024604966086
 20
386.4532936298776
 30
0.0
 11
153.0024604966088
 21
398.2146726862286
 31
0.0
  0
LINE
  5
1AC
330
48
100
AcDbEntity
  8
1
  6
Continuous
 62
     7
100
AcDbLine
 10
153.0024604966088
 20
398.2146726862286
 30
0.0
 11
171.6424604966087
 21
398.2146726862285
 31
0.0
  0
LINE
  5
1AD
330
48
100
AcDbEntity
  8
1
  6
Continuous
 62
     7
100
AcDbLine
 10
151.8424604966085
 20
397.0546726862285
 30
0.0
 11
153.0024604966088
 21
398.2146726862286
 31
0.0
  0
LINE
  5
1AE
330
48
100
AcDbEntity
  8
1
  6
Continuous
 62
     7
100
AcDbLine
 10
151.8424604966085
 20
387.0150511378439
 30
0.0
 11
151.8424604966085
 21
397.0546726862285
 31
0.0
  0
LINE
  5
1AF
330
48
100
AcDbEntity
  8
1
  6
Continuous
 62
     2
100
AcDbLine
 10
171.6424604966087
 20
398.2146726862285
 30
0.0
 11
171.642460496608
 21
382.2146726862285
 31
0.0
  0
LINE
  5
1B0
330
48
100
AcDbEntity
  8
1
  6
Continuous
 62
     7
100
AcDbLine
 10
171.6424604966087
 20
398.2146726862285
 30
0.0
 11
172.8024604966083
 21
397.0546726862284
 31
0.0
  0
LINE
  5
1B1
330
48
100
AcDbEntity
  8
1
  6
Continuous
 62
     7
100
AcDbLine
 10
172.8024604966083
 20
397.0546726862284
 30
0.0
 11
172.8024604966083
 21
380.2054937494487
 31
0.0
  0
LINE
  5
1B2
330
48
100
AcDbEntity
  8
1
  6
Continuous
 62
     2
100
AcDbLine
 10
171.642460496608
 20
382.2146726862285
 30
0.0
 11
172.8024604966083
 21
380.2054937494487
 31
0.0
  0
LINE
  5
1B3
330
48
100
AcDbEntity
  8
1
  6
Continuous
 62
     7
100
AcDbLine
 10
154.8169069971434
 20
327.3757858534303
 30
0.0
 11
154.8169069971434
 21
333.2035656872985
 31
0.0
  0
LINE
  5
1B4
330
48
100
AcDbEntity
  8
1
  6
Continuous
 62
     7
100
AcDbLine
 10
169.8280139960734
 20
333.2035656872985
 30
0.0
 11
169.8280139960734
 21
327.3757858534303
 31
0.0
  0
LINE
  5
1B5
330
48
100
AcDbEntity
  8
1
  6
Continuous
 62
     7
100
AcDbLine
 10
149.3224604966083
 20
326.2146726862289
 30
0.0
 11
148.1912128097029
 21
326.8677988427838
 31
0.0
  0
LINE
  5
1B6
330
48
100
AcDbEntity
  8
1
  6
Continuous
 62
     7
100
AcDbLine
 10
177.3335674955386
 20
327.3757858534303
 30
0.0
 11
176.4537081835124
 21
326.8677988427828
 31
0.0
  0
LINE
  5
1B7
330
48
100
AcDbEntity
  8
1
  6
Continuous
 62
     7
100
AcDbLine
 10
175.5011401530487
 20
335.0359930297888
 30
0.0
 11
176.0398721635181
 21
334.4972610193191
 31
0.0
  0
LINE
  5
1B8
330
48
100
AcDbEntity
  8
1
  6
PHANTOM
 62
     4
100
AcDbLine
 10
162.3224604966083
 20
404.2146726862285
 30
0.0
 11
162.3224604966083
 21
326.2146726862289
 31
0.0
  0
LINE
  5
1B9
330
48
100
AcDbEntity
  8
1
  6
Continuous
 62
     7
100
AcDbLine
 10
145.8224604966083
 20
347.8278192104996
 30
0.0
 11
145.8224604966083
 21
371.6807647339944
 31
0.0
  0
LINE
  5
1BA
330
48
100
AcDbEntity
  8
1
  6
Continuous
 62
     7
100
AcDbLine
 10
193.0045857350933
 20
372.1243901411925
 30
0.0
 11
193.0045857350933
 21
361.6417048017299
 31
0.0
  0
LINE
  5
1BB
330
48
100
AcDbEntity
  8
1
  6
Continuous
 62
     7
100
AcDbLine
 10
173.7337744483687
 20
379.274179797689
 30
0.0
 11
160.2177398955921
 21
379.4553097560954
 31
0.0
  0
LINE
  5
1BC
330
48
100
AcDbEntity
  8
1
  6
Continuous
 62
     7
100
AcDbLine
 10
172.8024604966083
 20
380.2054937494487
 30
0.0
 11
159.4675559022387
 21
380.2054937494487
 31
0.0
  0
LINE
  5
1BD
330
48
100
AcDbEntity
  8
1
  6
Continuous
 62
     7
100
AcDbLine
 10
172.8024604966083
 20
382.2146726862286
 30
0.0
 11
157.4583769654589
 21
382.2146726862286
 31
0.0
  0
ARC
  5
1BE
330
48
100
AcDbEntity
  8
1
  6
Continuous
 62
     7
100
AcDbCircle
 10
162.3224604966083
 20
250.5146726862297
 30
0.0
 40
38.9999999999998
100
AcDbArc
 50
-90.0
 51
-63.0179902639773
  0
ARC
  5
1BF
330
48
100
AcDbEntity
  8
1
  6
Continuous
 62
     7
100
AcDbCircle
 10
162.3224604966083
 20
235.5146726862297
 30
0.0
 40
23.99999999999959
100
AcDbArc
 50
-129.3281064337019
 51
-90.0
  0
ARC
  5
1C0
330
48
100
AcDbEntity
  8
1
  6
Continuous
 62
     7
100
AcDbCircle
 10
165.5135399650761
 20
259.0688978508479
 30
0.0
 40
34.99999999999983
100
AcDbArc
 50
-99.42486545468395
 51
-95.23113272727574
  0
ARC
  5
1C1
330
48
100
AcDbEntity
  8
1
  6
Continuous
 62
     7
100
AcDbCircle
 10
162.3224604966082
 20
231.71467268623
 30
0.0
 40
8.0
100
AcDbArc
 50
180.0
 51
-141.1594922733267
  0
ARC
  5
1C2
330
48
100
AcDbEntity
  8
1
  6
Continuous
 62
     7
100
AcDbCircle
 10
321.5896162528177
 20
359.7146726862299
 30
0.0
 40
19.00000000000023
100
AcDbArc
 50
-31.9275009686223
 51
35.58596972069424
  0
ARC
  5
1C3
330
48
100
AcDbEntity
  8
1
  6
Continuous
 62
     7
100
AcDbCircle
 10
315.8896162528179
 20
317.8757858534279
 30
0.0
 40
18.36643427850276
100
AcDbArc
 50
69.27356040498091
 51
110.7264395950191
  0
ARC
  5
1C4
330
48
100
AcDbEntity
  8
1
  6
Continuous
 62
     7
100
AcDbCircle
 10
315.8896162528179
 20
344.5535595190275
 30
0.0
 40
18.36643427850106
100
AcDbArc
 50
-110.7264395950211
 51
-69.27356040497891
  0
ARC
  5
1C5
330
48
100
AcDbEntity
  8
1
  6
Continuous
 62
     7
100
AcDbCircle
 10
328.8896162528179
 20
317.8757858534279
 30
0.0
 40
18.36643427850276
100
AcDbArc
 50
69.27356040498091
 51
110.7264395950191
  0
ARC
  5
1C6
330
48
100
AcDbEntity
  8
1
  6
Continuous
 62
     7
100
AcDbCircle
 10
328.8896162528179
 20
344.5535595190275
 30
0.0
 40
18.36643427850106
100
AcDbArc
 50
-110.7264395950211
 51
-69.27356040497891
  0
ARC
  5
1C7
330
48
100
AcDbEntity
  8
1
  6
Continuous
 62
     7
100
AcDbCircle
 10
162.3224604966083
 20
338.71467268623
 30
0.0
 40
39.22245539130747
100
AcDbArc
 50
63.19792766857842
 51
66.35028666227775
  0
ARC
  5
1C8
330
48
100
AcDbEntity
  8
1
  6
Continuous
 62
     7
100
AcDbCircle
 10
184.8679517134467
 20
383.3431481900097
 30
0.0
 40
10.77754460869252
100
AcDbArc
 50
-116.8020723314198
 51
-92.99999999999773
  0
ARC
  5
1C9
330
48
100
AcDbEntity
  8
1
  6
Continuous
 62
     7
100
AcDbCircle
 10
162.3224604966083
 20
380.7146726862299
 30
0.0
 40
39.22245539130735
100
AcDbArc
 50
-64.54004050077494
 51
-63.19792766857849
  0
ARC
  5
1CA
330
48
100
AcDbEntity
  8
1
  6
Continuous
 62
     7
100
AcDbCircle
 10
184.8679517134467
 20
336.0861971824501
 30
0.0
 40
10.77754460869267
100
AcDbArc
 50
92.99999999999774
 51
116.8020723314198
  0
ARC
  5
1CB
330
48
100
AcDbEntity
  8
1
  6
Continuous
 62
     7
100
AcDbCircle
 10
151.0641302474107
 20
332.8598118321293
 30
0.0
 40
6.645139145899846
100
AcDbArc
 50
-115.6157525320286
 51
-55.61575253195892
  0
ARC
  5
1CC
330
48
100
AcDbEntity
  8
1
  6
Continuous
 62
     7
100
AcDbCircle
 10
162.3224604966083
 20
351.0535595190285
 30
0.0
 40
24.83888683279963
100
AcDbArc
 50
-107.5879537739923
 51
-72.41204622600722
  0
ARC
  5
1CD
330
48
100
AcDbEntity
  8
1
  6
Continuous
 62
     7
100
AcDbCircle
 10
151.0641302474107
 20
330.7444842695857
 30
0.0
 40
4.486693075336756
100
AcDbArc
 50
33.23561648507405
 51
45.68575968347444
  0
ARC
  5
1CE
330
48
100
AcDbEntity
  8
1
  6
Continuous
 62
     7
100
AcDbCircle
 10
162.3224604966083
 20
320.3258225300116
 30
0.0
 40
14.90535481491076
100
AcDbArc
 50
59.76502334808947
 51
120.2349766519099
  0
ARC
  5
1CF
330
48
100
AcDbEntity
  8
1
  6
Continuous
 62
     7
100
AcDbCircle
 10
173.5807907458061
 20
330.7444842695857
 30
0.0
 40
4.486693075336913
100
AcDbArc
 50
56.76438351493943
 51
146.764383514926
  0
ARC
  5
1D0
330
48
100
AcDbEntity
  8
1
  6
Continuous
 62
     7
100
AcDbCircle
 10
173.5807907458061
 20
332.8598118321293
 30
0.0
 40
6.64513914590058
100
AcDbArc
 50
-124.3842474680411
 51
-64.38424746798698
  0
CIRCLE
  5
1D1
330
48
100
AcDbEntity
  8
1
  6
Continuous
 62
     7
100
AcDbCircle
 10
162.3224604966083
 20
229.71467268623
 30
0.0
 40
8.886377015541598
  0
CIRCLE
  5
1D2
330
48
100
AcDbEntity
  8
1
  6
Continuous
 62
     7
100
AcDbCircle
 10
162.3224604966083
 20
229.71467268623
 30
0.0
 40
13.0
  0
CIRCLE
  5
1D3
330
48
100
AcDbEntity
  8
1
  6
Continuous
 62
     2
100
AcDbCircle
 10
162.3224604966083
 20
229.71467268623
 30
0.0
 40
10.48000000000002
  0
CIRCLE
  5
1D4
330
48
100
AcDbEntity
  8
1
  6
Continuous
 62
     7
100
AcDbCircle
 10
162.3224604966083
 20
229.71467268623
 30
0.0
 40
9.282580645161914
  0
ARC
  5
1D5
330
48
100
AcDbEntity
  8
1
  6
Continuous
 62
     7
100
AcDbCircle
 10
184.0480048095833
 20
251.6061357714488
 30
0.0
 40
8.999999999999835
100
AcDbArc
 50
-176.9999999999992
 51
-92.99999999999795
  0
ARC
  5
1D6
330
48
100
AcDbEntity
  8
1
  6
Continuous
 62
     7
100
AcDbCircle
 10
140.9460671974575
 20
248.7146726862299
 30
0.0
 40
8.499999999999895
100
AcDbArc
 50
-54.99182348622776
 51
-3.00000000000081
  0
ARC
  5
1D7
330
48
100
AcDbEntity
  8
1
  6
Continuous
 62
     7
100
AcDbCircle
 10
184.5542853265256
 20
206.8483702926003
 30
0.0
 40
10.00000000000009
100
AcDbArc
 50
93.00000000000134
 51
116.9820097360233
  0
ARC
  5
1D8
330
48
100
AcDbEntity
  8
1
  6
Continuous
 62
     7
100
AcDbCircle
 10
140.7746067751818
 20
209.2146726862299
 30
0.0
 40
10.00000000000014
100
AcDbArc
 50
50.67189356629729
 51
59.68289407458217
  0
ARC
  5
1D9
330
48
100
AcDbEntity
  8
1
  6
Continuous
 62
     7
100
AcDbCircle
 10
167.8224604966082
 20
231.92231286218
 30
0.0
 40
3.000000000000018
100
AcDbArc
 50
33.38014097057882
 51
86.99999999999749
  0
ARC
  5
1DA
330
48
100
AcDbEntity
  8
1
  6
Continuous
 62
     7
100
AcDbCircle
 10
167.8224604966082
 20
227.5070325102799
 30
0.0
 40
3.00000000000009
100
AcDbArc
 50
-10.35983789003336
 51
0.0
  0
ARC
  5
1DB
330
48
100
AcDbEntity
  8
1
  6
Continuous
 62
     7
100
AcDbCircle
 10
167.8224604966082
 20
227.5070325102799
 30
0.0
 40
2.9999999999992
100
AcDbArc
 50
-86.99999999999741
 51
-33.38014097057746
  0
ARC
  5
1DC
330
48
100
AcDbEntity
  8
1
  6
Continuous
 62
     7
100
AcDbCircle
 10
167.8224604966082
 20
231.92231286218
 30
0.0
 40
3.0
100
AcDbArc
 50
0.0
 51
10.35983789003283
  0
ARC
  5
1DD
330
48
100
AcDbEntity
  8
1
  6
Continuous
 62
     7
100
AcDbCircle
 10
160.7646709654872
 20
230.460363403507
 30
0.0
 40
6.000000000000358
100
AcDbArc
 50
-141.1594922733251
 51
-99.42486545468125
  0
ARC
  5
1DE
330
48
100
AcDbEntity
  8
1
  6
Continuous
 62
     7
100
AcDbCircle
 10
157.3224604966082
 20
231.948516751821
 30
0.0
 40
3.000000000000182
100
AcDbArc
 50
92.99999999999727
 51
180.0
  0
ARC
  5
1DF
330
48
100
AcDbEntity
  8
1
  6
Continuous
 62
     7
100
AcDbCircle
 10
353.3061043201885
 20
382.4097026415384
 30
0.0
 40
20.00000000000001
100
AcDbArc
 50
-171.8250386041177
 51
-144.4140302793047
  0
ARC
  5
1E0
330
48
100
AcDbEntity
  8
1
  6
Continuous
 62
     7
100
AcDbCircle
 10
302.4206488701586
 20
381.5409707296572
 30
0.0
 40
8.99999999999987
100
AcDbArc
 50
-86.99999999999834
 51
-13.26050255931729
  0
ARC
  5
1E1
330
48
100
AcDbEntity
  8
1
  6
Continuous
 62
     7
100
AcDbCircle
 10
307.0896162528181
 20
337.1573133733482
 30
0.0
 40
3.00000000000006
100
AcDbArc
 50
-39.9445051898159
 51
0.0
  0
ARC
  5
1E2
330
48
100
AcDbEntity
  8
1
  6
Continuous
 62
     7
100
AcDbCircle
 10
302.0896162528177
 20
338.9070956731457
 30
0.0
 40
8.0
100
AcDbArc
 50
0.0
 51
86.9999999999993
  0
ARC
  5
1E3
330
48
100
AcDbEntity
  8
1
  6
Continuous
 62
     7
100
AcDbCircle
 10
337.689616252818
 20
337.1573133733482
 30
0.0
 40
3.0
100
AcDbArc
 50
180.0
 51
-140.0554948101848
  0
ARC
  5
1E4
330
48
100
AcDbEntity
  8
1
  6
Continuous
 62
     7
100
AcDbCircle
 10
354.6896162528176
 20
339.0896878377504
 30
0.0
 40
19.99999999999982
100
AcDbArc
 50
148.0724990313767
 51
180.0
  0
ARC
  5
1E5
330
48
100
AcDbEntity
  8
1
  6
Continuous
 62
     7
100
AcDbCircle
 10
307.0896162528181
 20
337.1573133733482
 30
0.0
 40
3.00000000000006
100
AcDbArc
 50
-39.9445051898159
 51
0.0
  0
ARC
  5
1E6
330
48
100
AcDbEntity
  8
1
  6
Continuous
 62
     7
100
AcDbCircle
 10
337.689616252818
 20
337.1573133733482
 30
0.0
 40
3.0
100
AcDbArc
 50
180.0
 51
-140.0554948101848
  0
ARC
  5
1E7
330
48
100
AcDbEntity
  8
1
  6
Continuous
 62
     7
100
AcDbCircle
 10
181.2654639308723
 20
381.971150976464
 30
0.0
 40
7.999999999999897
100
AcDbArc
 50
-160.2984092359902
 51
-113.6497133377251
  0
ARC
  5
1E8
330
48
100
AcDbEntity
  8
1
  6
Continuous
 62
     7
100
AcDbCircle
 10
182.6224604966087
 20
338.0781825259926
 30
0.0
 40
8.000000000000187
100
AcDbArc
 50
115.4599594992264
 51
180.0
  0
ARC
  5
1E9
330
48
100
AcDbEntity
  8
1
  6
Continuous
 62
     7
100
AcDbCircle
 10
140.3356946770841
 20
381.2146726862299
 30
0.0
 40
10.99999999999993
100
AcDbArc
 50
-60.07956506922547
 51
-58.07400286571075
  0
ARC
  5
1EA
330
48
100
AcDbEntity
  8
1
  6
Continuous
 62
     7
100
AcDbCircle
 10
177.6224604966083
 20
337.1573133733482
 30
0.0
 40
3.0
100
AcDbArc
 50
180.0
 51
-135.0000000000031
  0
ARC
  5
1EB
330
48
100
AcDbEntity
  8
1
  6
Continuous
 62
     7
100
AcDbCircle
 10
141.0224604966084
 20
340.2146726862299
 30
0.0
 40
9.000000000000192
100
AcDbArc
 50
55.14497231498984
 51
57.76904736449848
  0
ENDBLK
  5
4A
330
48
100
AcDbEntity
  8
0
100
AcDbBlockEnd
  0
BLOCK
  5
4C
330
4B
100
AcDbEntity
  8
0
100
AcDbBlockBegin
  2
_J__A4
 70
     0
 71
     0
 10
0.0
 20
0.0
 30
0.0
  3
_J__A4
  1

  0
POINT
  5
1EC
330
4B
100
AcDbEntity
  8
1
 62
     4
100
AcDbPoint
 10
34.0
 20
34.00000000000001
 30
0.0
  0
POINT
  5
1ED
330
4B
100
AcDbEntity
  8
1
 62
     4
100
AcDbPoint
 10
57.0
 20
12.25
 30
0.0
  0
POINT
  5
1EE
330
4B
100
AcDbEntity
  8
1
 62
     4
100
AcDbPoint
 10
57.0
 20
20.75000000000001
 30
0.0
  0
POINT
  5
1EF
330
4B
100
AcDbEntity
  8
1
 62
     4
100
AcDbPoint
 10
57.0
 20
24.75000000000001
 30
0.0
  0
POINT
  5
1F0
330
4B
100
AcDbEntity
  8
1
 62
     4
100
AcDbPoint
 10
57.0
 20
16.25
 30
0.0
  0
POINT
  5
1F1
330
4B
100
AcDbEntity
  8
1
 62
     4
100
AcDbPoint
 10
157.5
 20
19.00000000000001
 30
0.0
  0
POINT
  5
1F2
330
4B
100
AcDbEntity
  8
1
 62
     4
100
AcDbPoint
 10
47.5
 20
282.0000000000003
 30
0.0
  0
POINT
  5
1F3
330
4B
100
AcDbEntity
  8
1
 62
     4
100
AcDbPoint
 10
57.0
 20
22.75000000000001
 30
0.0
  0
POINT
  5
1F4
330
4B
100
AcDbEntity
  8
1
 62
     4
100
AcDbPoint
 10
57.0
 20
14.25
 30
0.0
  0
POINT
  5
1F5
330
4B
100
AcDbEntity
  8
1
 62
     4
100
AcDbPoint
 10
157.5
 20
12.5
 30
0.0
  0
POINT
  5
1F6
330
4B
100
AcDbEntity
  8
1
 62
     4
100
AcDbPoint
 10
163.25
 20
12.5
 30
0.0
  0
POINT
  5
1F7
330
4B
100
AcDbEntity
  8
1
 62
     4
100
AcDbPoint
 10
151.75
 20
12.5
 30
0.0
  0
POINT
  5
1F8
330
4B
100
AcDbEntity
  8
1
 62
     4
100
AcDbPoint
 10
134.75
 20
12.5
 30
0.0
  0
POINT
  5
1F9
330
4B
100
AcDbEntity
  8
1
 62
     4
100
AcDbPoint
 10
146.25
 20
12.5
 30
0.0
  0
POINT
  5
1FA
330
4B
100
AcDbEntity
  8
1
 62
     4
100
AcDbPoint
 10
140.5
 20
12.5
 30
0.0
  0
POINT
  5
1FB
330
4B
100
AcDbEntity
  8
1
 62
     4
100
AcDbPoint
 10
140.5
 20
19.00000000000001
 30
0.0
  0
POINT
  5
1FC
330
4B
100
AcDbEntity
  8
1
 62
     4
100
AcDbPoint
 10
117.75
 20
12.5
 30
0.0
  0
POINT
  5
1FD
330
4B
100
AcDbEntity
  8
1
 62
     4
100
AcDbPoint
 10
129.25
 20
12.5
 30
0.0
  0
POINT
  5
1FE
330
4B
100
AcDbEntity
  8
1
 62
     4
100
AcDbPoint
 10
123.5
 20
12.5
 30
0.0
  0
POINT
  5
1FF
330
4B
100
AcDbEntity
  8
1
 62
     4
100
AcDbPoint
 10
123.5
 20
19.00000000000001
 30
0.0
  0
POINT
  5
200
330
4B
100
AcDbEntity
  8
1
 62
     4
100
AcDbPoint
 10
100.75
 20
12.5
 30
0.0
  0
POINT
  5
201
330
4B
100
AcDbEntity
  8
1
 62
     4
100
AcDbPoint
 10
112.25
 20
12.5
 30
0.0
  0
POINT
  5
202
330
4B
100
AcDbEntity
  8
1
 62
     4
100
AcDbPoint
 10
106.5
 20
12.5
 30
0.0
  0
POINT
  5
203
330
4B
100
AcDbEntity
  8
1
 62
     4
100
AcDbPoint
 10
106.5
 20
19.00000000000001
 30
0.0
  0
POINT
  5
204
330
4B
100
AcDbEntity
  8
1
 62
     4
100
AcDbPoint
 10
85.25
 20
17.0
 30
0.0
  0
POINT
  5
205
330
4B
100
AcDbEntity
  8
1
 62
     4
100
AcDbPoint
 10
93.75
 20
17.0
 30
0.0
  0
LINE
  5
206
330
4B
100
AcDbEntity
  8
1
  6
Continuous
 62
     2
100
AcDbLine
 10
81.0
 20
27.00000000000001
 30
0.0
 11
81.0
 21
10.0
 31
0.0
  0
LINE
  5
207
330
4B
100
AcDbEntity
  8
1
  6
DOT_CENTER
 62
     2
100
AcDbLine
 10
187.0
 20
26.50000000000001
 30
0.0
 11
187.0
 21
20.50000000000001
 31
0.0
  0
LINE
  5
208
330
4B
100
AcDbEntity
  8
1
  6
DOT_CENTER
 62
     2
100
AcDbLine
 10
184.0
 20
23.50000000000001
 30
0.0
 11
197.0
 21
23.50000000000001
 31
0.0
  0
LINE
  5
209
330
4B
100
AcDbEntity
  8
1
  6
Continuous
 62
     7
100
AcDbLine
 10
196.0
 20
21.50000000000001
 30
0.0
 11
191.0
 21
22.30000000000001
 31
0.0
  0
LINE
  5
20A
330
4B
100
AcDbEntity
  8
1
  6
Continuous
 62
     7
100
AcDbLine
 10
196.0
 20
25.50000000000001
 30
0.0
 11
196.0
 21
21.50000000000001
 31
0.0
  0
LINE
  5
20B
330
4B
100
AcDbEntity
  8
1
  6
Continuous
 62
     7
100
AcDbLine
 10
191.0
 20
24.70000000000001
 30
0.0
 11
196.0
 21
25.50000000000001
 31
0.0
  0
LINE
  5
20C
330
4B
100
AcDbEntity
  8
1
  6
Continuous
 62
     7
100
AcDbLine
 10
191.0
 20
24.70000000000001
 30
0.0
 11
191.0
 21
22.30000000000001
 31
0.0
  0
LINE
  5
20D
330
4B
100
AcDbEntity
  8
1
  6
Continuous
 62
     2
100
AcDbLine
 10
33.0
 20
27.0
 30
0.0
 11
33.0
 21
10.0
 31
0.0
  0
LINE
  5
20E
330
4B
100
AcDbEntity
  8
1
  6
Continuous
 62
     2
100
AcDbLine
 10
25.0
 20
18.50000000000001
 30
0.0
 11
81.0
 21
18.50000000000001
 31
0.0
  0
LINE
  5
20F
330
4B
100
AcDbEntity
  8
1
  6
Continuous
 62
     7
100
AcDbLine
 10
200.0
 20
287.0000000000003
 30
0.0
 11
105.0
 21
287.0000000000003
 31
0.0
  0
LINE
  5
210
330
4B
100
AcDbEntity
  8
1
  6
Continuous
 62
     7
100
AcDbLine
 10
200.0
 20
10.0
 30
0.0
 11
200.0
 21
148.5
 31
0.0
  0
LINE
  5
211
330
4B
100
AcDbEntity
  8
1
  6
Continuous
 62
     7
100
AcDbLine
 10
25.0
 20
10.0
 30
0.0
 11
105.0
 21
10.0
 31
0.0
  0
LINE
  5
212
330
4B
100
AcDbEntity
  8
1
  6
PHANTOM
 62
     4
100
AcDbLine
 10
0.0
 20
297.0
 30
0.0
 11
0.0
 21
0.0
 31
0.0
  0
LINE
  5
213
330
4B
100
AcDbEntity
  8
1
  6
PHANTOM
 62
     4
100
AcDbLine
 10
210.0
 20
297.0
 30
0.0
 11
0.0
 21
297.0
 31
0.0
  0
LINE
  5
214
330
4B
100
AcDbEntity
  8
1
  6
PHANTOM
 62
     4
100
AcDbLine
 10
210.0
 20
0.0
 30
0.0
 11
210.0
 21
297.0
 31
0.0
  0
LINE
  5
215
330
4B
100
AcDbEntity
  8
1
  6
PHANTOM
 62
     4
100
AcDbLine
 10
0.0
 20
0.0
 30
0.0
 11
210.0
 21
0.0
 31
0.0
  0
LINE
  5
216
330
4B
100
AcDbEntity
  8
1
  6
Continuous
 62
     7
100
AcDbLine
 10
25.0
 20
41.0
 30
0.0
 11
200.0
 21
41.0
 31
0.0
  0
LINE
  5
217
330
4B
100
AcDbEntity
  8
1
  6
Continuous
 62
     7
100
AcDbLine
 10
200.0
 20
27.00000000000001
 30
0.0
 11
25.0
 21
27.00000000000001
 31
0.0
  0
LINE
  5
218
330
4B
100
AcDbEntity
  8
1
  6
Continuous
 62
     2
100
AcDbLine
 10
33.0
 20
41.00000000000001
 30
0.0
 11
33.0
 21
27.0
 31
0.0
  0
LINE
  5
219
330
4B
100
AcDbEntity
  8
1
  6
Continuous
 62
     2
100
AcDbLine
 10
55.0
 20
287.0000000000003
 30
0.0
 11
55.0
 21
277.0000000000003
 31
0.0
  0
LINE
  5
21A
330
4B
100
AcDbEntity
  8
1
  6
Continuous
 62
     2
100
AcDbLine
 10
40.0
 20
287.0000000000003
 30
0.0
 11
40.0
 21
277.0000000000003
 31
0.0
  0
LINE
  5
21B
330
4B
100
AcDbEntity
  8
1
  6
Continuous
 62
     7
100
AcDbLine
 10
25.0
 20
10.0
 30
0.0
 11
25.0
 21
148.5
 31
0.0
  0
LINE
  5
21C
330
4B
100
AcDbEntity
  8
1
  6
Continuous
 62
     2
100
AcDbLine
 10
55.0
 20
277.0000000000003
 30
0.0
 11
25.0
 21
277.0000000000003
 31
0.0
  0
LINE
  5
21D
330
4B
100
AcDbEntity
  8
1
  6
Continuous
 62
     2
100
AcDbLine
 10
166.0
 20
27.00000000000001
 30
0.0
 11
166.0
 21
10.0
 31
0.0
  0
LINE
  5
21E
330
4B
100
AcDbEntity
  8
1
  6
Continuous
 62
     2
100
AcDbLine
 10
132.0
 20
27.00000000000001
 30
0.0
 11
132.0
 21
9.99999999999999
 31
0.0
  0
LINE
  5
21F
330
4B
100
AcDbEntity
  8
1
  6
Continuous
 62
     2
100
AcDbLine
 10
149.0
 20
27.00000000000001
 30
0.0
 11
149.0
 21
10.0
 31
0.0
  0
LINE
  5
220
330
4B
100
AcDbEntity
  8
1
  6
Continuous
 62
     2
100
AcDbLine
 10
115.0
 20
27.00000000000001
 30
0.0
 11
115.0
 21
9.99999999999999
 31
0.0
  0
LINE
  5
221
330
4B
100
AcDbEntity
  8
1
  6
Continuous
 62
     2
100
AcDbLine
 10
98.0
 20
27.00000000000001
 30
0.0
 11
98.0
 21
9.99999999999999
 31
0.0
  0
LINE
  5
222
330
4B
100
AcDbEntity
  8
1
  6
Continuous
 62
     2
100
AcDbLine
 10
166.0
 20
20.00000000000001
 30
0.0
 11
200.0
 21
20.00000000000001
 31
0.0
  0
LINE
  5
223
330
4B
100
AcDbEntity
  8
1
  6
Continuous
 62
     2
100
AcDbLine
 10
105.0
 20
287.0000000000003
 30
0.0
 11
105.0
 21
292.0000000000003
 31
0.0
  0
LINE
  5
224
330
4B
100
AcDbEntity
  8
1
  6
Continuous
 62
     7
100
AcDbLine
 10
105.0
 20
287.0000000000003
 30
0.0
 11
25.0
 21
287.0000000000003
 31
0.0
  0
LINE
  5
225
330
4B
100
AcDbEntity
  8
1
  6
Continuous
 62
     2
100
AcDbLine
 10
25.0
 20
148.5
 30
0.0
 11
20.0
 21
148.5
 31
0.0
  0
LINE
  5
226
330
4B
100
AcDbEntity
  8
1
  6
Continuous
 62
     7
100
AcDbLine
 10
25.0
 20
148.5
 30
0.0
 11
25.0
 21
287.0000000000003
 31
0.0
  0
LINE
  5
227
330
4B
100
AcDbEntity
  8
1
  6
Continuous
 62
     2
100
AcDbLine
 10
200.0
 20
148.5
 30
0.0
 11
205.0
 21
148.5
 31
0.0
  0
LINE
  5
228
330
4B
100
AcDbEntity
  8
1
  6
Continuous
 62
     7
100
AcDbLine
 10
200.0
 20
148.5
 30
0.0
 11
200.0
 21
287.0000000000003
 31
0.0
  0
LINE
  5
229
330
4B
100
AcDbEntity
  8
1
  6
Continuous
 62
     2
100
AcDbLine
 10
105.0
 20
10.0
 30
0.0
 11
105.0
 21
5.0
 31
0.0
  0
LINE
  5
22A
330
4B
100
AcDbEntity
  8
1
  6
Continuous
 62
     7
100
AcDbLine
 10
105.0
 20
10.0
 30
0.0
 11
200.0
 21
10.0
 31
0.0
  0
CIRCLE
  5
22B
330
4B
100
AcDbEntity
  8
1
  6
DOT_CENTER
 62
     7
100
AcDbCircle
 10
89.5
 20
18.0
 30
0.0
 40
0.1000000000000227
  0
CIRCLE
  5
22C
330
4B
100
AcDbEntity
  8
1
  6
DOT_CENTER
 62
     7
100
AcDbCircle
 10
89.5
 20
16.0
 30
0.0
 40
0.1000000000000227
  0
CIRCLE
  5
22D
330
4B
100
AcDbEntity
  8
1
  6
Continuous
 62
     7
100
AcDbCircle
 10
187.0
 20
23.50000000000001
 30
0.0
 40
2.0
  0
CIRCLE
  5
22E
330
4B
100
AcDbEntity
  8
1
  6
Continuous
 62
     7
100
AcDbCircle
 10
187.0
 20
23.50000000000001
 30
0.0
 40
1.200000000000102
  0
CIRCLE
  5
22F
330
4B
100
AcDbEntity
  8
1
  6
Continuous
 62
     7
100
AcDbCircle
 10
154.5
 20
12.5
 30
0.0
 40
0.3000000000000114
  0
CIRCLE
  5
230
330
4B
100
AcDbEntity
  8
1
  6
Continuous
 62
     7
100
AcDbCircle
 10
160.5
 20
12.5
 30
0.0
 40
0.3000000000000114
  0
CIRCLE
  5
231
330
4B
100
AcDbEntity
  8
1
  6
Continuous
 62
     7
100
AcDbCircle
 10
143.5
 20
12.5
 30
0.0
 40
0.3000000000000114
  0
CIRCLE
  5
232
330
4B
100
AcDbEntity
  8
1
  6
Continuous
 62
     7
100
AcDbCircle
 10
137.5
 20
12.5
 30
0.0
 40
0.3000000000000114
  0
CIRCLE
  5
233
330
4B
100
AcDbEntity
  8
1
  6
Continuous
 62
     7
100
AcDbCircle
 10
126.5
 20
12.5
 30
0.0
 40
0.2999999999999972
  0
CIRCLE
  5
234
330
4B
100
AcDbEntity
  8
1
  6
Continuous
 62
     7
100
AcDbCircle
 10
120.5
 20
12.5
 30
0.0
 40
0.2999999999999972
  0
CIRCLE
  5
235
330
4B
100
AcDbEntity
  8
1
  6
Continuous
 62
     7
100
AcDbCircle
 10
109.5
 20
12.5
 30
0.0
 40
0.2999999999999972
  0
CIRCLE
  5
236
330
4B
100
AcDbEntity
  8
1
  6
Continuous
 62
     7
100
AcDbCircle
 10
103.5
 20
12.5
 30
0.0
 40
0.2999999999999972
  0
MTEXT
  5
238
330
4B
100
AcDbEntity
  8
1
 62
   250
100
AcDbMText
 10
25.0
 20
5.0
 30
0.0
 40
3.5
 41
0.0
 71
     4
 72
     1
  1
備考欄の文字列 原点位置=4
  7
CONVERTER_1
 73
     1
 44
0.7202881152461
  0
MTEXT
  5
239
330
4B
100
AcDbEntity
  8
1
 62
     2
100
AcDbMText
 10
89.5
 20
24.00000000000001
 30
0.0
 40
3.5
 41
0.0
 71
     5
 72
     1
  1
尺度
  7
CONVERTER_1
 73
     1
 44
0.7202881152461
  0
MTEXT
  5
23A
330
4B
100
AcDbEntity
  8
1
 62
     2
100
AcDbMText
 10
135.5
 20
25.00000000000001
 30
0.0
 40
3.0
 41
0.0
 71
     5
 72
     1
  1
製図
  7
CONVERTER_1
 73
     1
 44
0.78031212484994
  0
MTEXT
  5
23B
330
4B
100
AcDbEntity
  8
1
 62
     2
100
AcDbMText
 10
152.5
 20
25.00000000000001
 30
0.0
 40
3.0
 41
0.0
 71
     5
 72
     1
  1
設計
  7
CONVERTER_1
 73
     1
 44
0.78031212484994
  0
MTEXT
  5
23C
330
4B
100
AcDbEntity
  8
1
 62
     2
100
AcDbMText
 10
118.5
 20
25.00000000000001
 30
0.0
 40
3.0
 41
0.0
 71
     5
 72
     1
  1
検図
  7
CONVERTER_1
 73
     1
 44
0.78031212484994
  0
MTEXT
  5
23D
330
4B
100
AcDbEntity
  8
1
 62
     2
100
AcDbMText
 10
175.0
 20
23.50000000000001
 30
0.0
 40
3.5
 41
0.0
 71
     5
 72
     1
  1
第三角法
  7
CONVERTER_1
 73
     1
 44
0.7202881152461
  0
MTEXT
  5
23E
330
4B
100
AcDbEntity
  8
1
 62
     2
100
AcDbMText
 10
101.5
 20
25.00000000000001
 30
0.0
 40
3.0
 41
0.0
 71
     5
 72
     1
  1
承認
  7
CONVERTER_1
 73
     1
 44
0.78031212484994
  0
MTEXT
  5
23F
330
4B
100
AcDbEntity
  8
1
 62
     2
100
AcDbMText
 10
29.0
 20
14.25
 30
0.0
 40
3.5
 41
0.0
 71
     5
 72
     1
  1
品番
  7
CONVERTER_1
 73
     1
 44
0.96038415366146
  0
MTEXT
  5
240
330
4B
100
AcDbEntity
  8
1
 62
     2
100
AcDbMText
 10
29.0
 20
22.75
 30
0.0
 40
3.5
 41
0.0
 71
     5
 72
     1
  1
品名
  7
CONVERTER_1
 73
     1
 44
0.96038415366146
  0
MTEXT
  5
241
330
4B
100
AcDbEntity
  8
1
 62
     2
100
AcDbMText
 10
29.0
 20
34.00000000000001
 30
0.0
 40
3.5
 41
0.0
 71
     5
 72
     1
  1
備考
  7
CONVERTER_1
 73
     1
 44
0.60024009603842
  0
MTEXT
  5
242
330
4B
100
AcDbEntity
  8
1
 62
     2
100
AcDbMText
 10
32.5
 20
282.0000000000003
 30
0.0
 40
5.0
 41
0.0
 71
     5
 72
     1
  1
図番
  7
CONVERTER_1
 73
     1
 44
0.60024009603842
  0
MTEXT
  5
243
330
4B
100
AcDbEntity
  8
1
 62
     7
100
AcDbMText
 10
171.5
 20
15.0
 30
0.0
 40
2.5
 41
0.0
 71
     5
 72
     1
  1
株式会社
  7
CONVERTER_1
 73
     1
 44
1.32052821128451
  0
MTEXT
  5
244
330
4B
100
AcDbEntity
  8
1
 62
     7
100
AcDbMText
 10
188.5
 20
15.0
 30
0.0
 40
3.0
 41
0.0
 71
     5
 72
     1
  1
三栄水栓製作所
  7
CONVERTER_1
 73
     1
 44
1.32052821128451
  0
ENDBLK
  5
4D
330
4B
100
AcDbEntity
  8
0
100
AcDbBlockEnd
  0
BLOCK
  5
28F
330
288
100
AcDbEntity
  8
0
100
AcDbBlockBegin
  2
*D09
 70
     1
 71
     0
 10
0.0
 20
0.0
 30
0.0
  3
*D09
  1

  0
LINE
  5
289
330
288
100
AcDbEntity
  8
1
  6
Continuous
 62
     2
100
AcDbLine
 10
250.8224604966083
 20
295.5146726862311
 30
0.0
 11
250.8224604966083
 21
233.4646726862548
 31
0.0
  0
LINE
  5
28A
330
288
100
AcDbEntity
  8
1
  6
Continuous
 62
     2
100
AcDbLine
 10
162.3224604966083
 20
295.5146726862311
 30
0.0
 11
252.8224604966083
 21
295.5146726862311
 31
0.0
  0
LINE
  5
28B
330
288
100
AcDbEntity
  8
1
  6
Continuous
 62
     2
100
AcDbLine
 10
214.8224604966083
 20
233.4646726862548
 30
0.0
 11
252.8224604966083
 21
233.4646726862548
 31
0.0
  0
SOLID
  5
28C
330
288
100
AcDbEntity
  8
1
 62
     2
100
AcDbTrace
 10
251.7440279797201
 20
288.5146726862311
 30
0.0
 11
249.9008930134965
 21
288.5146726862311
 31
0.0
 12
250.8224604966083
 22
295.5146726862311
 32
0.0
 13
250.8224604966083
 23
295.5146726862311
 33
0.0
  0
SOLID
  5
28D
330
288
100
AcDbEntity
  8
1
 62
     2
100
AcDbTrace
 10
249.9008930134965
 20
240.4646726862548
 30
0.0
 11
251.7440279797201
 21
240.4646726862548
 31
0.0
 12
250.8224604966083
 22
233.4646726862548
 32
0.0
 13
250.8224604966083
 23
233.4646726862548
 33
0.0
  0
MTEXT
  5
28E
330
288
100
AcDbEntity
  8
1
 62
     7
100
AcDbMText
 10
248.8224604966083
 20
243.7146726862308
 30
0.0
 40
7.0
 41
0.0
 71
     7
 72
     1
  1
65リフト4
  7
CONVERTER_1
 11
0.0
 21
1.0
 31
0.0
 73
     1
 44
0.60024009603842
  0
ENDBLK
  5
290
330
288
100
AcDbEntity
  8
0
100
AcDbBlockEnd
  0
BLOCK
  5
29A
330
293
100
AcDbEntity
  8
0
100
AcDbBlockBegin
  2
*D110
 70
     1
 71
     0
 10
0.0
 20
0.0
 30
0.0
  3
*D110
  1

  0
LINE
  5
294
330
293
100
AcDbEntity
  8
1
  6
Continuous
 62
     2
100
AcDbLine
 10
360.5896162528179
 20
326.2146726862286
 30
0.0
 11
360.5896162528179
 21
359.71467268623
 31
0.0
  0
LINE
  5
295
330
293
100
AcDbEntity
  8
1
  6
Continuous
 62
     2
100
AcDbLine
 10
343.3896162528176
 20
359.71467268623
 30
0.0
 11
362.5896162528179
 21
359.71467268623
 31
0.0
  0
LINE
  5
296
330
293
100
AcDbEntity
  8
1
  6
Continuous
 62
     2
100
AcDbLine
 10
322.3896162528179
 20
326.2146726862286
 30
0.0
 11
362.5896162528179
 21
326.2146726862286
 31
0.0
  0
SOLID
  5
297
330
293
100
AcDbEntity
  8
1
 62
     2
100
AcDbTrace
 10
359.6680487697062
 20
333.2146726862286
 30
0.0
 11
361.5111837359297
 21
333.2146726862286
 31
0.0
 12
360.5896162528179
 22
326.2146726862286
 32
0.0
 13
360.5896162528179
 23
326.2146726862286
 33
0.0
  0
SOLID
  5
298
330
293
100
AcDbEntity
  8
1
 62
     2
100
AcDbTrace
 10
361.5111837359297
 20
352.71467268623
 30
0.0
 11
359.6680487697062
 21
352.71467268623
 31
0.0
 12
360.5896162528179
 22
359.71467268623
 32
0.0
 13
360.5896162528179
 23
359.71467268623
 33
0.0
  0
MTEXT
  5
299
330
293
100
AcDbEntity
  8
1
 62
     7
100
AcDbMText
 10
358.5896162528179
 20
337.7146726862293
 30
0.0
 40
7.0
 41
0.0
 71
     7
 72
     1
  1
34
  7
CONVERTER_2
 11
0.0
 21
1.0
 31
0.0
 73
     1
 44
0.60024009603842
  0
ENDBLK
  5
29B
330
293
100
AcDbEntity
  8
0
100
AcDbBlockEnd
  0
BLOCK
  5
2A5
330
29E
100
AcDbEntity
  8
0
100
AcDbBlockBegin
  2
*D211
 70
     1
 71
     0
 10
0.0
 20
0.0
 30
0.0
  3
*D211
  1

  0
LINE
  5
29F
330
29E
100
AcDbEntity
  8
1
  6
Continuous
 62
     2
100
AcDbLine
 10
360.5896162528179
 20
359.7146726862301
 30
0.0
 11
360.5896162528179
 21
398.214672686214
 31
0.0
  0
LINE
  5
2A0
330
29E
100
AcDbEntity
  8
1
  6
Continuous
 62
     2
100
AcDbLine
 10
343.3896162528176
 20
359.7146726862301
 30
0.0
 11
362.5896162528179
 21
359.7146726862301
 31
0.0
  0
LINE
  5
2A1
330
29E
100
AcDbEntity
  8
1
  6
Continuous
 62
     2
100
AcDbLine
 10
331.7096162528182
 20
398.214672686214
 30
0.0
 11
362.5896162528179
 21
398.214672686214
 31
0.0
  0
SOLID
  5
2A2
330
29E
100
AcDbEntity
  8
1
 62
     2
100
AcDbTrace
 10
359.6680487697062
 20
366.7146726862301
 30
0.0
 11
361.5111837359297
 21
366.7146726862301
 31
0.0
 12
360.5896162528179
 22
359.7146726862301
 32
0.0
 13
360.5896162528179
 23
359.7146726862301
 33
0.0
  0
SOLID
  5
2A3
330
29E
100
AcDbEntity
  8
1
 62
     2
100
AcDbTrace
 10
361.5111837359297
 20
391.214672686214
 30
0.0
 11
359.6680487697062
 21
391.214672686214
 31
0.0
 12
360.5896162528179
 22
398.214672686214
 32
0.0
 13
360.5896162528179
 23
398.214672686214
 33
0.0
  0
MTEXT
  5
2A4
330
29E
100
AcDbEntity
  8
1
 62
     7
100
AcDbMText
 10
358.5896162528179
 20
373.714672686222
 30
0.0
 40
7.0
 41
0.0
 71
     7
 72
     1
  1
39
  7
CONVERTER_2
 11
0.0
 21
1.0
 31
0.0
 73
     1
 44
0.60024009603842
  0
ENDBLK
  5
2A6
330
29E
100
AcDbEntity
  8
0
100
AcDbBlockEnd
  0
BLOCK
  5
2B2
330
2A9
100
AcDbEntity
  8
0
100
AcDbBlockBegin
  2
*D312
 70
     1
 71
     0
 10
0.0
 20
0.0
 30
0.0
  3
*D312
  1

  0
LINE
  5
2AA
330
2A9
100
AcDbEntity
  8
1
  6
Continuous
 62
     2
100
AcDbLine
 10
234.8224604966083
 20
230.6146726862549
 30
0.0
 11
234.8224604966083
 21
246.974288741307
 31
0.0
  0
LINE
  5
2AB
330
2A9
100
AcDbEntity
  8
1
  6
Continuous
 62
     2
100
AcDbLine
 10
234.8224604966083
 20
228.8146726862547
 30
0.0
 11
234.8224604966083
 21
230.6146726862549
 31
0.0
  0
LINE
  5
2AC
330
2A9
100
AcDbEntity
  8
1
  6
Continuous
 62
     2
100
AcDbLine
 10
234.8224604966083
 20
214.8146726862547
 30
0.0
 11
234.8224604966083
 21
228.8146726862547
 31
0.0
  0
LINE
  5
2AD
330
2A9
100
AcDbEntity
  8
1
  6
Continuous
 62
     2
100
AcDbLine
 10
214.822460496609
 20
228.8146726862547
 30
0.0
 11
236.8224604966083
 21
228.8146726862547
 31
0.0
  0
LINE
  5
2AE
330
2A9
100
AcDbEntity
  8
1
  6
Continuous
 62
     2
100
AcDbLine
 10
214.822460496609
 20
230.6146726862549
 30
0.0
 11
236.8224604966083
 21
230.6146726862549
 31
0.0
  0
SOLID
  5
2AF
330
2A9
100
AcDbEntity
  8
1
 62
     2
100
AcDbTrace
 10
235.7440279797201
 20
221.8146726862547
 30
0.0
 11
233.9008930134965
 21
221.8146726862547
 31
0.0
 12
234.8224604966083
 22
228.8146726862547
 32
0.0
 13
234.8224604966083
 23
228.8146726862547
 33
0.0
  0
SOLID
  5
2B0
330
2A9
100
AcDbEntity
  8
1
 62
     2
100
AcDbTrace
 10
233.9008930134965
 20
237.6146726862549
 30
0.0
 11
235.7440279797201
 21
237.6146726862549
 31
0.0
 12
234.8224604966083
 22
230.6146726862549
 32
0.0
 13
234.8224604966083
 23
230.6146726862549
 33
0.0
  0
MTEXT
  5
2B1
330
2A9
100
AcDbEntity
  8
1
 62
     7
100
AcDbMText
 10
232.1224604966083
 20
236.124288741307
 30
0.0
 40
7.0
 41
0.0
 71
     7
 72
     1
  1
1,8
  7
CONVERTER_2
 11
0.0
 21
1.0
 31
0.0
 73
     1
 44
0.60024009603842
  0
ENDBLK
  5
2B3
330
2A9
100
AcDbEntity
  8
0
100
AcDbBlockEnd
  0
BLOCK
  5
2BD
330
2B6
100
AcDbEntity
  8
0
100
AcDbBlockBegin
  2
*D413
 70
     1
 71
     0
 10
0.0
 20
0.0
 30
0.0
  3
*D413
  1

  0
LINE
  5
2B7
330
2B6
100
AcDbEntity
  8
1
  6
Continuous
 62
     2
100
AcDbLine
 10
250.8224604966083
 20
193.450470206873
 30
0.0
 11
250.8224604966083
 21
211.5146726862299
 31
0.0
  0
LINE
  5
2B8
330
2B6
100
AcDbEntity
  8
1
  6
Continuous
 62
     2
100
AcDbLine
 10
250.8224604966083
 20
211.5146726862299
 30
0.0
 11
250.8224604966083
 21
229.7146726862301
 31
0.0
  0
LINE
  5
2B9
330
2B6
100
AcDbEntity
  8
1
  6
Continuous
 62
     2
100
AcDbLine
 10
217.8224604966083
 20
229.7146726862301
 30
0.0
 11
252.8224604966083
 21
229.7146726862301
 31
0.0
  0
LINE
  5
2BA
330
2B6
100
AcDbEntity
  8
1
  6
Continuous
 62
     2
100
AcDbLine
 10
162.3224604966083
 20
211.5146726862299
 30
0.0
 11
252.8224604966083
 21
211.5146726862299
 31
0.0
  0
SOLID
  5
2BB
330
2B6
100
AcDbEntity
  8
1
 62
     2
100
AcDbTrace
 10
251.7440279797201
 20
204.5146726862299
 30
0.0
 11
249.9008930134965
 21
204.5146726862299
 31
0.0
 12
250.8224604966083
 22
211.5146726862299
 32
0.0
 13
250.8224604966083
 23
211.5146726862299
 33
0.0
  0
MTEXT
  5
2BC
330
2B6
100
AcDbEntity
  8
1
 62
     7
100
AcDbMText
 10
248.8224604966083
 20
193.450470206873
 30
0.0
 40
7.0
 41
0.0
 71
     7
 72
     1
  1
18
  7
CONVERTER_2
 11
0.0
 21
1.0
 31
0.0
 73
     1
 44
0.60024009603842
  0
ENDBLK
  5
2BE
330
2B6
100
AcDbEntity
  8
0
100
AcDbBlockEnd
  0
BLOCK
  5
2C0
330
2BF
100
AcDbEntity
  8
0
100
AcDbBlockBegin
  2
_None
 70
     0
 71
     0
 10
0.0
 20
0.0
 30
0.0
  3
_None
  1

  0
ENDBLK
  5
2C1
330
2BF
100
AcDbEntity
  8
0
100
AcDbBlockEnd
  0
BLOCK
  5
2CB
330
2C4
100
AcDbEntity
  8
0
100
AcDbBlockBegin
  2
*D515
 70
     1
 71
     0
 10
0.0
 20
0.0
 30
0.0
  3
*D515
  1

  0
LINE
  5
2C5
330
2C4
100
AcDbEntity
  8
1
  6
Continuous
 62
     2
100
AcDbLine
 10
162.3224604966083
 20
191.5146726862299
 30
0.0
 11
214.822460496609
 21
191.5146726862299
 31
0.0
  0
LINE
  5
2C6
330
2C4
100
AcDbEntity
  8
1
  6
Continuous
 62
     2
100
AcDbLine
 10
162.3224604966083
 20
211.5146726862299
 30
0.0
 11
162.3224604966083
 21
189.5146726862299
 31
0.0
  0
LINE
  5
2C7
330
2C4
100
AcDbEntity
  8
1
  6
Continuous
 62
     2
100
AcDbLine
 10
214.822460496609
 20
228.8146726862547
 30
0.0
 11
214.822460496609
 21
189.5146726862299
 31
0.0
  0
SOLID
  5
2C8
330
2C4
100
AcDbEntity
  8
1
 62
     2
100
AcDbTrace
 10
169.3224604966083
 20
192.4362401693417
 30
0.0
 11
169.3224604966083
 21
190.5931052031181
 31
0.0
 12
162.3224604966083
 22
191.5146726862299
 32
0.0
 13
162.3224604966083
 23
191.5146726862299
 33
0.0
  0
SOLID
  5
2C9
330
2C4
100
AcDbEntity
  8
1
 62
     2
100
AcDbTrace
 10
207.822460496609
 20
190.5931052031181
 30
0.0
 11
207.822460496609
 21
192.4362401693417
 31
0.0
 12
214.822460496609
 22
191.5146726862299
 32
0.0
 13
214.822460496609
 23
191.5146726862299
 33
0.0
  0
MTEXT
  5
2CA
330
2C4
100
AcDbEntity
  8
1
 62
     7
100
AcDbMText
 10
169.6724604966083
 20
193.5146726862299
 30
0.0
 40
7.0
 41
0.0
 71
     7
 72
     1
  1
53リフト4
  7
CONVERTER_1
 11
0.9999999999970621
 21
2.424068405545307E-6
 31
0.0
 73
     1
 44
0.60024009603842
  0
ENDBLK
  5
2CC
330
2C4
100
AcDbEntity
  8
0
100
AcDbBlockEnd
  0
BLOCK
  5
2D6
330
2CF
100
AcDbEntity
  8
0
100
AcDbBlockBegin
  2
*D616
 70
     1
 71
     0
 10
0.0
 20
0.0
 30
0.0
  3
*D616
  1

  0
LINE
  5
2D0
330
2CF
100
AcDbEntity
  8
1
  6
Continuous
 62
     2
100
AcDbLine
 10
128.3224604966243
 20
191.5146726862299
 30
0.0
 11
162.3224604966083
 21
191.5146726862299
 31
0.0
  0
LINE
  5
2D1
330
2CF
100
AcDbEntity
  8
1
  6
Continuous
 62
     2
100
AcDbLine
 10
128.3224604966243
 20
220.3946726862302
 30
0.0
 11
128.3224604966243
 21
189.5146726862299
 31
0.0
  0
LINE
  5
2D2
330
2CF
100
AcDbEntity
  8
1
  6
Continuous
 62
     2
100
AcDbLine
 10
162.3224604966083
 20
211.5146726862299
 30
0.0
 11
162.3224604966083
 21
189.5146726862299
 31
0.0
  0
SOLID
  5
2D3
330
2CF
100
AcDbEntity
  8
1
 62
     2
100
AcDbTrace
 10
135.3224604966243
 20
192.4362401693417
 30
0.0
 11
135.3224604966243
 21
190.5931052031181
 31
0.0
 12
128.3224604966243
 22
191.5146726862299
 32
0.0
 13
128.3224604966243
 23
191.5146726862299
 33
0.0
  0
SOLID
  5
2D4
330
2CF
100
AcDbEntity
  8
1
 62
     2
100
AcDbTrace
 10
155.3224604966083
 20
190.5931052031181
 30
0.0
 11
155.3224604966083
 21
192.4362401693417
 31
0.0
 12
162.3224604966083
 22
191.5146726862299
 32
0.0
 13
162.3224604966083
 23
191.5146726862299
 33
0.0
  0
MTEXT
  5
2D5
330
2CF
100
AcDbEntity
  8
1
 62
     7
100
AcDbMText
 10
140.0724604966163
 20
193.5146726862299
 30
0.0
 40
7.0
 41
0.0
 71
     7
 72
     1
  1
34
  7
CONVERTER_2
 11
0.9999999999970621
 21
2.424068405545307E-6
 31
0.0
 73
     1
 44
0.60024009603842
  0
ENDBLK
  5
2D7
330
2CF
100
AcDbEntity
  8
0
100
AcDbBlockEnd
  0
ENDSEC
  0
SECTION
  2
ENTITIES
  0
INSERT
  5
4E
330
1F
100
AcDbEntity
  8
1
100
AcDbBlockReference
  2
36-45A-M11
 10
176.3224604966088
 20
229.7146726862305
 30
0.0
  0
INSERT
  5
4F
330
1F
100
AcDbEntity
  8
1
100
AcDbBlockReference
  2
37-1-13__1
 10
162.3224604966083
 20
359.7146726862299
 30
0.0
  0
INSERT
  5
50
330
1F
100
AcDbEntity
  8
1
100
AcDbBlockReference
  2
37-1-13__2
 10
1012.026590067418
 20
529.0204979929567
 30
0.0
  0
INSERT
  5
51
330
1F
100
AcDbEntity
  8
1
100
AcDbBlockReference
  2
51-1
 10
86.54819568330254
 20
1341.219788549141
 30
0.0
  0
INSERT
  5
52
330
1F
100
AcDbEntity
  8
1
100
AcDbBlockReference
  2
36-54-M11
 10
162.3224604966085
 20
240.7146726862307
 30
0.0
  0
INSERT
  5
53
330
1F
100
AcDbEntity
  8
0
100
AcDbBlockReference
  2
42-_e__
 10
162.3224604966085
 20
279.714672686231
 30
0.0
  0
INSERT
  5
54
330
1F
100
AcDbEntity
  8
1
100
AcDbBlockReference
  2
V2220L-0A-13-M1
 10
162.3224604966083
 20
359.7146726862299
 30
0.0
  0
INSERT
  5
55
330
1F
100
AcDbEntity
  8
1
100
AcDbBlockReference
  2
_J__A4
 10
0.0
 20
0.0
 30
0.0
 41
2.0
 42
2.0
 43
2.0
  0
LINE
  5
245
330
1F
100
AcDbEntity
  8
1
  6
Continuous
 62
     7
100
AcDbLine
 10
248.0
 20
489.75
 30
0.0
 11
384.0000000000005
 21
489.75
 31
0.0
  0
LINE
  5
246
330
1F
100
AcDbEntity
  8
1
  6
Continuous
 62
     2
100
AcDbLine
 10
248.0
 20
521.75
 30
0.0
 11
384.0000000000002
 21
521.75
 31
0.0
  0
LINE
  5
247
330
1F
100
AcDbEntity
  8
0
  6
Continuous
 62
     2
100
AcDbLine
 10
356.0
 20
553.75
 30
0.0
 11
356.0000000000002
 21
489.75
 31
0.0
  0
LINE
  5
248
330
1F
100
AcDbEntity
  8
0
  6
Continuous
 62
     7
100
AcDbLine
 10
384.0
 20
553.75
 30
0.0
 11
248.0
 21
553.75
 31
0.0
  0
LINE
  5
249
330
1F
100
AcDbEntity
  8
0
  6
Continuous
 62
     2
100
AcDbLine
 10
384.0
 20
537.75
 30
0.0
 11
248.0
 21
537.75
 31
0.0
  0
LINE
  5
24A
330
1F
100
AcDbEntity
  8
0
  6
Continuous
 62
     2
100
AcDbLine
 10
384.0000000000002
 20
505.75
 30
0.0
 11
248.0
 21
505.75
 31
0.0
  0
LINE
  5
24B
330
1F
100
AcDbEntity
  8
0
  6
Continuous
 62
     7
100
AcDbLine
 10
248.0
 20
553.75
 30
0.0
 11
248.0
 21
489.75
 31
0.0
  0
LINE
  5
24C
330
1F
100
AcDbEntity
  8
0
  6
Continuous
 62
     7
100
AcDbLine
 10
384.0
 20
553.75
 30
0.0
 11
384.0000000000005
 21
489.75
 31
0.0
  0
LINE
  5
24D
330
1F
100
AcDbEntity
  8
1
  6
Continuous
 62
     7
100
AcDbLine
 10
220.8224604966083
 20
359.7146726862299
 30
0.0
 11
217.8224604966083
 21
359.7146726862299
 31
0.0
  0
LINE
  5
24E
330
1F
100
AcDbEntity
  8
1
  6
DASH_CENTER
 62
     2
100
AcDbLine
 10
162.3224604966083
 20
323.2146726862288
 30
0.0
 11
162.3224604966083
 21
404.2146726862285
 31
0.0
  0
LINE
  5
24F
330
1F
100
AcDbEntity
  8
1
  6
Continuous
 62
     7
100
AcDbLine
 10
125.3224604966083
 20
359.7146726862299
 30
0.0
 11
122.3224604966083
 21
359.7146726862299
 31
0.0
  0
LINE
  5
250
330
1F
100
AcDbEntity
  8
1
  6
DASH_CENTER
 62
     2
100
AcDbLine
 10
217.8224604966083
 20
359.7146726862299
 30
0.0
 11
125.3224604966083
 21
359.7146726862299
 31
0.0
  0
LINE
  5
251
330
1F
100
AcDbEntity
  8
1
  6
DASH_CENTER
 62
     2
100
AcDbLine
 10
217.8224604966083
 20
229.7146726862301
 30
0.0
 11
125.3224604966244
 21
229.7146726862301
 31
0.0
  0
LINE
  5
252
330
1F
100
AcDbEntity
  8
1
  6
DASH_CENTER
 62
     2
100
AcDbLine
 10
162.3224604966083
 20
298.7146726862301
 30
0.0
 11
162.3224604966083
 21
208.51467268623
 31
0.0
  0
LINE
  5
253
330
1F
100
AcDbEntity
  8
1
  6
DASH_CENTER
 62
     2
100
AcDbLine
 10
322.3896162528179
 20
404.2146726862285
 30
0.0
 11
322.3896162528179
 21
323.2146726862287
 31
0.0
  0
LINE
  5
254
330
1F
100
AcDbEntity
  8
1
  6
DASH_CENTER
 62
     2
100
AcDbLine
 10
343.3896162528176
 20
359.71467268623
 30
0.0
 11
253.3896162528179
 21
359.7146726862299
 31
0.0
  0
SPLINE
  5
255
330
1F
100
AcDbEntity
  8
1
  6
Continuous
 62
     7
100
AcDbSpline
210
0.0
220
0.0
230
1.0
 70
    11
 71
     3
 72
    79
 73
    75
 74
    73
 42
0.0000000001
 43
0.0000000001
 44
0.00000001
 40
0.0
 40
0.0
 40
0.0
 40
0.0
 40
0.2412068094785644
 40
0.4811338352636414
 40
0.7660127539721915
 40
1.049767124189324
 40
1.39100739303632
 40
1.731748941522616
 40
2.132110806033077
 40
2.532213930800437
 40
2.987347943100084
 40
3.442348250959407
 40
3.943621096800858
 40
4.444820886941115
 40
4.980807704427406
 40
5.516755704927353
 40
6.074243774234471
 40
6.631714842664134
 40
7.196475089622354
 40
7.761235336580575
 40
8.318706405010296
 40
8.876194474317252
 40
9.412142474817326
 40
9.948129292303639
 40
10.44932908244386
 40
10.95060192828525
 40
11.40560223614451
 40
11.86073624844416
 40
12.26083937321167
 40
12.66120123772203
 40
13.00194278620832
 40
13.34318305505532
 40
13.62693742527251
 40
13.91181634398113
 40
14.15174336976611
 40
14.39295017924452
 40
14.61620350139401
 40
14.83945682354355
 40
15.08066363302212
 40
15.3205906588071
 40
15.60546957751572
 40
15.88922394773287
 40
16.23046421657993
 40
16.57120576506624
 40
16.97156762957653
 40
17.371670754344
 40
17.82680476664368
 40
18.28180507450316
 40
18.7830779203447
 40
19.28427771048489
 40
19.82026452797096
 40
20.35621252847092
 40
20.91370059777788
 40
21.4711716662076
 40
22.03593191316594
 40
22.60069216012416
 40
23.15816322855384
 40
23.71565129786085
 40
24.2515992983607
 40
24.787586115847
 40
25.28878590598736
 40
25.79005875182893
 40
26.24505905968838
 40
26.70019307198811
 40
27.10029619675553
 40
27.5006580612658
 40
27.84139960975206
 40
28.18263987859902
 40
28.46639424881612
 40
28.7512731675247
 40
28.99120019330955
 40
29.232407002788
 40
29.45566032493748
 40
29.67891364708708
 40
29.67891364708708
 40
29.67891364708708
 40
29.67891364708708
 10
206.5442047171174
 20
353.2414177509847
 30
0.0
 10
206.6215701165083
 20
353.2644702436015
 30
0.0
 10
206.7758904336091
 20
353.3104529180088
 30
0.0
 10
206.9950115782854
 20
353.4460365644428
 30
0.0
 10
207.2013447098545
 20
353.6203179892017
 30
0.0
 10
207.4052593343637
 20
353.8459272277652
 30
0.0
 10
207.593378370755
 20
354.1078242503431
 30
0.0
 10
207.777736477792
 20
354.4183680477464
 30
0.0
 10
207.9455311581982
 20
354.760168570495
 30
0.0
 10
208.1059243897744
 20
355.1469898539208
 30
0.0
 10
208.2491308453495
 20
355.5598440266402
 30
0.0
 10
208.3811749707825
 20
356.0115715818058
 30
0.0
 10
208.4954305379511
 20
356.4839457635791
 30
0.0
 10
208.5953700993491
 20
356.987065103605
 30
0.0
 10
208.6769779006614
 20
357.5051895783433
 30
0.0
 10
208.7419573171734
 20
358.0445424901124
 30
0.0
 10
208.788197168963
 20
358.5930130411718
 30
0.0
 10
208.8164053108559
 20
359.1523131888454
 30
0.0
 10
208.825656089065
 20
359.7146726862246
 30
0.0
 10
208.8164053108606
 20
360.2770321836365
 30
0.0
 10
208.7881971689442
 20
360.8363323312125
 30
0.0
 10
208.741957317242
 20
361.3848028826248
 30
0.0
 10
208.6769779004151
 20
361.9241557931274
 30
0.0
 10
208.5953701002431
 20
362.4422802724503
 30
0.0
 10
208.4954305348524
 20
362.9453995964267
 30
0.0
 10
208.3811749819204
 20
363.417773835429
 30
0.0
 10
208.2491308080183
 20
363.869501195753
 30
0.0
 10
208.105924522452
 20
364.2823560518937
 30
0.0
 10
207.945530728987
 20
364.66917507657
 30
0.0
 10
207.7777379864749
 20
365.0109833895034
 30
0.0
 10
207.593373660916
 20
365.3215021889317
 30
0.0
 10
207.4052757766739
 20
365.5834842415068
 30
0.0
 10
207.2012946348647
 20
365.80882608569
 30
0.0
 10
206.9951878668041
 20
365.9840174741731
 30
0.0
 10
206.7753455865016
 20
366.1167022113956
 30
0.0
 10
206.5519558113868
 20
366.1942220325043
 30
0.0
 10
206.3225591726953
 20
366.2245027579056
 30
0.0
 10
206.0931625340037
 20
366.1942220325043
 30
0.0
 10
205.8697727588888
 20
366.1167022113957
 30
0.0
 10
205.6499304785862
 20
365.984017474173
 30
0.0
 10
205.4438237105258
 20
365.80882608569
 30
0.0
 10
205.2398425687165
 20
365.5834842415067
 30
0.0
 10
205.0517446844744
 20
365.3215021889317
 30
0.0
 10
204.8673803589155
 20
365.0109833895032
 30
0.0
 10
204.6995876164036
 20
364.66917507657
 30
0.0
 10
204.5391938229386
 20
364.2823560518935
 30
0.0
 10
204.395987537372
 20
363.869501195753
 30
0.0
 10
204.2639433634701
 20
363.4177738354286
 30
0.0
 10
204.1496878105382
 20
362.9453995964263
 30
0.0
 10
204.0497482451475
 20
362.4422802724499
 30
0.0
 10
203.9681404449757
 20
361.9241557931272
 30
0.0
 10
203.9031610281487
 20
361.3848028826246
 30
0.0
 10
203.8569211764466
 20
360.8363323312127
 30
0.0
 10
203.8287130345296
 20
360.2770321836351
 30
0.0
 10
203.8194622563271
 20
359.7146726862295
 30
0.0
 10
203.8287130345294
 20
359.1523131888262
 30
0.0
 10
203.8569211764481
 20
358.5930130412418
 30
0.0
 10
203.9031610281442
 20
358.0445424898544
 30
0.0
 10
203.9681404449929
 20
357.5051895792643
 30
0.0
 10
204.0497482450861
 20
356.9870651002577
 30
0.0
 10
204.1496878107522
 20
356.4839457751737
 30
0.0
 10
204.2639433627018
 20
356.0115715401211
 30
0.0
 10
204.3959875399491
 20
355.5598441663494
 30
0.0
 10
204.5391938137819
 20
355.1469893573766
 30
0.0
 10
204.6995876460271
 20
354.7601701768075
 30
0.0
 10
204.8673802547908
 20
354.4183624015314
 30
0.0
 10
205.0517450095349
 20
354.1078418768115
 30
0.0
 10
205.2398414339137
 20
353.8458656927735
 30
0.0
 10
205.4438271665647
 20
353.6205053937641
 30
0.0
 10
205.6499183116368
 20
353.4453768084807
 30
0.0
 10
205.8698103627417
 20
353.3124919964977
 30
0.0
 10
206.0930250075543
 20
353.2356761856024
 30
0.0
 10
206.3230301956785
 20
353.2029491387442
 30
0.0
 10
206.4704798766377
 20
353.2285948802378
 30
0.0
 10
206.5442047171174
 20
353.2414177509847
 30
0.0
 11
206.5442047171174
 21
353.2414177509847
 31
0.0
 11
206.7721061946965
 21
353.3204218107292
 31
0.0
 11
206.978767010769
 21
353.4423081709271
 31
0.0
 11
207.1971969498729
 21
353.6251861631176
 31
0.0
 11
207.3885987973708
 21
353.8346661750321
 31
0.0
 11
207.5892989127055
 21
354.1106451321782
 31
0.0
 11
207.7639309821383
 21
354.4032343377044
 31
0.0
 11
207.9417064029029
 21
354.761961981365
 31
0.0
 11
208.095442223383
 21
355.1313504055879
 31
0.0
 11
208.2455623122782
 21
355.5610141439486
 31
0.0
 11
208.3735634922396
 21
355.9976386715241
 31
0.0
 11
208.4920694406376
 21
356.4847021234195
 31
0.0
 11
208.5899412145961
 21
356.9762530826281
 31
0.0
 11
208.673764647333
 21
357.5056447152058
 31
0.0
 11
208.7379801248093
 21
358.0377317679447
 31
0.0
 11
208.7850713749022
 21
358.5932273679133
 31
0.0
 11
208.8131509418604
 21
359.1499908096509
 31
0.0
 11
208.8225591726955
 21
359.71467268623
 31
0.0
 11
208.8131509418604
 21
360.2793545628091
 31
0.0
 11
208.7850713749021
 21
360.8361180045468
 31
0.0
 11
208.7379801248092
 21
361.3916136045152
 31
0.0
 11
208.6737646473328
 21
361.9237006572542
 31
0.0
 11
208.5899412145957
 21
362.4530922898319
 31
0.0
 11
208.4920694406371
 21
362.9446432490404
 31
0.0
 11
208.3735634922392
 21
363.4317067009358
 31
0.0
 11
208.2455623122778
 21
363.8683312285113
 31
0.0
 11
208.0954422233827
 21
364.297994966872
 31
0.0
 11
207.9417064029026
 21
364.6673833910951
 31
0.0
 11
207.763930982138
 21
365.0261110347556
 31
0.0
 11
207.5892989127051
 21
365.3187002402817
 31
0.0
 11
207.3885987973703
 21
365.5946791974277
 31
0.0
 11
207.1971969498723
 21
365.8041592093422
 31
0.0
 11
206.9787670107685
 21
365.9870372015329
 31
0.0
 11
206.7721061946961
 21
366.1089235617308
 31
0.0
 11
206.5442047171171
 21
366.1879276214752
 31
0.0
 11
206.3225591726953
 21
366.21467268623
 31
0.0
 11
206.1009136282734
 21
366.1879276214752
 31
0.0
 11
205.8730121506943
 21
366.1089235617308
 31
0.0
 11
205.6663513346219
 21
365.9870372015329
 31
0.0
 11
205.4479213955181
 21
365.8041592093422
 31
0.0
 11
205.2565195480201
 21
365.5946791974277
 31
0.0
 11
205.0558194326853
 21
365.3187002402817
 31
0.0
 11
204.8811873632525
 21
365.0261110347554
 31
0.0
 11
204.703411942488
 21
364.667383391095
 31
0.0
 11
204.5496761220079
 21
364.297994966872
 31
0.0
 11
204.3995560331127
 21
363.8683312285112
 31
0.0
 11
204.2715548531513
 21
363.4317067009355
 31
0.0
 11
204.1530489047534
 21
362.94464324904
 31
0.0
 11
204.0551771307949
 21
362.4530922898315
 31
0.0
 11
203.971353698058
 21
361.923700657254
 31
0.0
 11
203.9071382205817
 21
361.3916136045151
 31
0.0
 11
203.8600469704887
 21
360.8361180045467
 31
0.0
 11
203.8319674035303
 21
360.279354562809
 31
0.0
 11
203.8225591726951
 21
359.7146726862298
 31
0.0
 11
203.8319674035304
 21
359.1499908096507
 31
0.0
 11
203.8600469704888
 21
358.5932273679131
 31
0.0
 11
203.9071382205818
 21
358.0377317679446
 31
0.0
 11
203.9713536980582
 21
357.5056447152058
 31
0.0
 11
204.0551771307952
 21
356.9762530826281
 31
0.0
 11
204.1530489047537
 21
356.4847021234194
 31
0.0
 11
204.2715548531516
 21
355.9976386715239
 31
0.0
 11
204.3995560331131
 21
355.5610141439482
 31
0.0
 11
204.5496761220083
 21
355.1313504055875
 31
0.0
 11
204.7034119424884
 21
354.7619619813644
 31
0.0
 11
204.8811873632529
 21
354.403234337704
 31
0.0
 11
205.0558194326857
 21
354.1106451321779
 31
0.0
 11
205.2565195480206
 21
353.834666175032
 31
0.0
 11
205.4479213955186
 21
353.6251861631176
 31
0.0
 11
205.6663513346224
 21
353.442308170927
 31
0.0
 11
205.8730121506947
 21
353.3204218107291
 31
0.0
 11
206.1009136282736
 21
353.2414177509846
 31
0.0
 11
206.3225591726955
 21
353.2146726862299
 31
0.0
 11
206.5442047171174
 21
353.2414177509847
 31
0.0
  0
SPLINE
  5
256
330
1F
100
AcDbEntity
  8
1
  6
Continuous
 62
     7
100
AcDbSpline
210
0.0
220
0.0
230
1.0
 70
     8
 71
     3
 72
    39
 73
    35
 74
    33
 42
0.0000000001
 43
0.0000000001
 44
0.00000001
 40
0.0
 40
0.0
 40
0.0
 40
0.0
 40
0.1392785673328718
 40
0.2785865588683538
 40
0.8433468058264593
 40
1.40810705278471
 40
1.965578121214488
 40
2.523066190521503
 40
3.059014191021488
 40
3.595001008507765
 40
4.096200798648039
 40
4.597473644489463
 40
5.052473952348794
 40
5.507607964648546
 40
5.907711089415956
 40
6.308072953926303
 40
6.648814502412613
 40
6.990054771259545
 40
7.273809141476699
 40
7.558688060185332
 40
7.798615085970297
 40
8.039821895448791
 40
8.263075217598253
 40
8.486328539747714
 40
8.727535349226333
 40
8.96746237501139
 40
9.252341293720061
 40
9.536095663937134
 40
9.87733593278411
 40
10.21807748127038
 40
10.61843934578075
 40
11.01854247054818
 40
11.30828051514209
 40
11.59779043170476
 40
11.59779043170476
 40
11.59779043170476
 40
11.59779043170476
 10
161.4794384331729
 20
378.1936112185082
 30
0.0
 10
161.525811698223
 20
378.1958345686157
 30
0.0
 10
161.6185680252098
 20
378.2002817385389
 30
0.0
 10
161.8994931847804
 20
378.2107144288056
 30
0.0
 10
162.3224615543255
 20
378.2178079233161
 30
0.0
 10
162.8848197146419
 20
378.2085087028592
 30
0.0
 10
163.4441202161383
 20
378.1803133832896
 30
0.0
 10
163.9925906738823
 20
378.1340701380352
 30
0.0
 10
164.5319436085555
 20
378.0690915968929
 30
0.0
 10
165.0500680815727
 20
377.9874835682746
 30
0.0
 10
165.5531874071333
 20
377.8875440602722
 30
0.0
 10
166.0255616457284
 20
377.7732884925947
 30
0.0
 10
166.4772890061519
 20
377.641244322291
 30
0.0
 10
166.8901438622674
 20
377.4980380358149
 30
0.0
 10
167.2769628869499
 20
377.3376442425653
 30
0.0
 10
167.6187711998816
 20
377.1698514999995
 30
0.0
 10
167.9292899993102
 20
376.9854871744529
 30
0.0
 10
168.1912720518853
 20
376.7973892902077
 30
0.0
 10
168.4166138960683
 20
376.5934081483999
 30
0.0
 10
168.5918052845522
 20
376.3873013803368
 30
0.0
 10
168.7244900217717
 20
376.1674591000415
 30
0.0
 10
168.8020098428915
 20
375.9440693249014
 30
0.0
 10
168.8322905682544
 20
375.7146726862978
 30
0.0
 10
168.8020098429977
 20
375.4852760472744
 30
0.0
 10
168.7244900213078
 20
375.2618862734944
 30
0.0
 10
168.591805286413
 20
375.0420439878433
 30
0.0
 10
168.4166138876708
 20
374.8359372433552
 30
0.0
 10
168.1912720855699
 20
374.6319560048539
 30
0.0
 10
167.9292898450794
 20
374.4438585523832
 30
0.0
 10
167.6187718133224
 20
374.2594924629547
 30
0.0
 10
167.2769601493051
 20
374.0917074201877
 30
0.0
 10
166.94110724255
 20
373.9524148787581
 30
0.0
 10
166.633812426269
 20
373.8419546707657
 30
0.0
 10
166.4497191409749
 20
373.7836839344988
 30
0.0
 10
166.357708749503
 20
373.7545600408884
 30
0.0
 11
161.4794384331729
 21
378.1936112185082
 31
0.0
 11
161.6185689634586
 21
378.2000310986262
 31
0.0
 11
161.7577786200294
 21
378.2052644553951
 31
0.0
 11
162.3224604966084
 21
378.2146726862301
 31
0.0
 11
162.8871423731875
 21
378.2052644553949
 31
0.0
 11
163.4439058149252
 21
378.1771848884366
 31
0.0
 11
163.9994014148937
 21
378.1300936383436
 31
0.0
 11
164.5314884676327
 21
378.0658781608673
 31
0.0
 11
165.0608801002103
 21
377.9820547281303
 31
0.0
 11
165.5524310594189
 21
377.8841829541717
 31
0.0
 11
166.0394945113143
 21
377.7656770057737
 31
0.0
 11
166.4761190388898
 21
377.6376758258123
 31
0.0
 11
166.9057827772506
 21
377.4875557369171
 31
0.0
 11
167.2751712014737
 21
377.3338199164372
 31
0.0
 11
167.6338988451341
 21
377.1560444956725
 31
0.0
 11
167.9264880506602
 21
376.9814124262395
 31
0.0
 11
168.2024670078062
 21
376.7807123109049
 31
0.0
 11
168.4119470197207
 21
376.5893104634069
 31
0.0
 11
168.5948250119113
 21
376.370880524303
 31
0.0
 11
168.7167113721092
 21
376.1642197082305
 31
0.0
 11
168.7957154318536
 21
375.9363182306515
 31
0.0
 11
168.8224604966085
 21
375.7146726862297
 31
0.0
 11
168.7957154318537
 21
375.4930271418079
 31
0.0
 11
168.7167113721092
 21
375.2651256642288
 31
0.0
 11
168.5948250119112
 21
375.0584648481564
 31
0.0
 11
168.4119470197205
 21
374.8400349090524
 31
0.0
 11
168.2024670078061
 21
374.6486330615545
 31
0.0
 11
167.9264880506601
 21
374.4479329462197
 31
0.0
 11
167.633898845134
 21
374.273300876787
 31
0.0
 11
167.2751712014735
 21
374.0955254560224
 31
0.0
 11
166.9057827772504
 21
373.9417896355424
 31
0.0
 11
166.6331552873006
 21
373.8436958732088
 31
0.0
 11
166.357708749503
 21
373.7545600408884
 31
0.0
  0
SPLINE
  5
257
330
1F
100
AcDbEntity
  8
1
  6
DASHED
 62
     7
100
AcDbSpline
210
0.0
220
0.0
230
1.0
 70
     8
 71
     3
 72
    51
 73
    47
 74
    45
 42
0.0000000001
 43
0.0000000001
 44
0.00000001
 40
0.0
 40
0.0
 40
0.0
 40
0.0
 40
0.4181509757290201
 40
0.8364030793233408
 40
1.372351079823481
 40
1.908337897309813
 40
2.409537687450104
 40
2.910810533291596
 40
3.36581084115097
 40
3.820944853450597
 40
4.22104797821792
 40
4.621409842728216
 40
4.962151391214522
 40
5.303391660061567
 40
5.587146030278724
 40
5.872024948987307
 40
6.111951974772321
 40
6.353158784250417
 40
6.576412106400265
 40
6.799665428549821
 40
7.040872238028268
 40
7.280799263813275
 40
7.565678182521993
 40
7.849432552739207
 40
8.190672821586103
 40
8.531414370072428
 40
8.931776234582699
 40
9.33187935934993
 40
9.787013371649502
 40
10.24201367950894
 40
10.7432865253506
 40
11.24448631549093
 40
11.78047313297717
 40
12.31642113347713
 40
12.87390920278408
 40
13.43138027121375
 40
13.99614051817198
 40
14.56090076513014
 40
15.11837183355978
 40
15.67585990286674
 40
16.21180790336673
 40
16.74779472085291
 40
17.24899451099314
 40
17.75026735683457
 40
17.91578555692548
 40
18.08122202195853
 40
18.08122202195853
 40
18.08122202195853
 40
18.08122202195853
 10
161.479438433179
 20
378.1936112185086
 30
0.0
 10
161.3402808955354
 20
378.1855484122422
 30
0.0
 10
161.0619321656459
 20
378.1694208497572
 30
0.0
 10
160.6062508664319
 20
378.1283804077107
 30
0.0
 10
160.1129747660853
 20
378.0691322299271
 30
0.0
 10
159.5948535629542
 20
377.9874734617484
 30
0.0
 10
159.0917334159645
 20
377.8875467000463
 30
0.0
 10
158.6193593884275
 20
377.7732878573315
 30
0.0
 10
158.1676319764988
 20
377.6412444862456
 30
0.0
 10
157.7547771334033
 20
377.4980379977356
 30
0.0
 10
157.3679581056419
 20
377.3376442522662
 30
0.0
 10
157.0261497934753
 20
377.1698514978258
 30
0.0
 10
156.7156309938714
 20
376.9854871749994
 30
0.0
 10
156.4536489413393
 20
376.7973892900885
 30
0.0
 10
156.2283070971463
 20
376.5934081484291
 30
0.0
 10
156.0531157086657
 20
376.3873013803321
 30
0.0
 10
155.9204309714426
 20
376.1674591000378
 30
0.0
 10
155.842911150334
 20
375.9440693249209
 30
0.0
 10
155.8126304249331
 20
375.71467268623
 30
0.0
 10
155.842911150334
 20
375.4852760475382
 30
0.0
 10
155.9204309714427
 20
375.2618862724233
 30
0.0
 10
156.0531157086654
 20
375.0420439921209
 30
0.0
 10
156.2283070971484
 20
374.8359372240601
 30
0.0
 10
156.4536489413318
 20
374.631956082251
 30
0.0
 10
156.7156309939068
 20
374.4438581980089
 30
0.0
 10
157.0261497933351
 20
374.2594938724502
 30
0.0
 10
157.3679581062684
 20
374.0917011299381
 30
0.0
 10
157.7547771309446
 20
373.9313073364735
 30
0.0
 10
158.1676319870856
 20
373.7881010509058
 30
0.0
 10
158.6193593474084
 20
373.6560568770094
 30
0.0
 10
159.0917335864166
 20
373.5418013240542
 30
0.0
 10
159.59485291037
 20
373.4418617587534
 30
0.0
 10
160.1129773897849
 20
373.3602539582234
 30
0.0
 10
160.6523302999348
 20
373.2952745427691
 30
0.0
 10
161.2008008527137
 20
373.2490346857474
 30
0.0
 10
161.7601009951258
 20
373.2208265639308
 30
0.0
 10
162.3224605120467
 20
373.2115757097889
 30
0.0
 10
162.8848199367365
 20
373.2208267709367
 30
0.0
 10
163.444120352279
 20
373.2490338701662
 30
0.0
 10
163.9925899191855
 20
373.2952775527132
 30
0.0
 10
164.5319463676635
 20
373.3602432027924
 30
0.0
 10
165.0500580357308
 20
373.4419008533192
 30
0.0
 10
165.5532222096678
 20
373.5416659013522
 30
0.0
 10
165.93164569549
 20
373.6337267980351
 30
0.0
 10
166.1992205745318
 20
373.7070025233156
 30
0.0
 10
166.3048880566604
 20
373.7387101452824
 30
0.0
 10
166.357708749506
 20
373.7545600408894
 30
0.0
 11
161.479438433179
 21
378.1936112185086
 31
0.0
 11
161.0621222544322
 21
378.1672020258046
 31
0.0
 11
160.6455195783233
 21
378.1300936383437
 31
0.0
 11
160.1134325255842
 21
378.0658781608673
 31
0.0
 11
159.5840408930064
 21
377.9820547281303
 31
0.0
 11
159.0924899337979
 21
377.8841829541717
 31
0.0
 11
158.6054264819024
 21
377.7656770057737
 31
0.0
 11
158.1688019543268
 21
377.6376758258122
 31
0.0
 11
157.7391382159661
 21
377.4875557369171
 31
0.0
 11
157.3697497917432
 21
377.3338199164371
 31
0.0
 11
157.0110221480828
 21
377.1560444956725
 31
0.0
 11
156.7184329425567
 21
376.9814124262396
 31
0.0
 11
156.4424539854106
 21
376.7807123109048
 31
0.0
 11
156.2329739734961
 21
376.5893104634069
 31
0.0
 11
156.0500959813055
 21
376.3708805243031
 31
0.0
 11
155.9282096211075
 21
376.1642197082306
 31
0.0
 11
155.8492055613633
 21
375.9363182306519
 31
0.0
 11
155.8224604966086
 21
375.7146726862297
 31
0.0
 11
155.8492055613632
 21
375.4930271418078
 31
0.0
 11
155.9282096211075
 21
375.2651256642288
 31
0.0
 11
156.0500959813055
 21
375.0584648481564
 31
0.0
 11
156.2329739734963
 21
374.8400349090525
 31
0.0
 11
156.4424539854108
 21
374.6486330615545
 31
0.0
 11
156.7184329425567
 21
374.4479329462198
 31
0.0
 11
157.0110221480829
 21
374.273300876787
 31
0.0
 11
157.3697497917434
 21
374.0955254560225
 31
0.0
 11
157.7391382159663
 21
373.9417896355426
 31
0.0
 11
158.1688019543269
 21
373.7916695466475
 31
0.0
 11
158.6054264819025
 21
373.663668366686
 31
0.0
 11
159.0924899337982
 21
373.545162418288
 31
0.0
 11
159.5840408930068
 21
373.4472906443294
 31
0.0
 11
160.1134325255844
 21
373.3634672115925
 31
0.0
 11
160.6455195783233
 21
373.2992517341161
 31
0.0
 11
161.2010151782918
 21
373.2521604840232
 31
0.0
 11
161.7577786200294
 21
373.2240809170647
 31
0.0
 11
162.3224604966085
 21
373.2146726862296
 31
0.0
 11
162.8871423731875
 21
373.2240809170647
 31
0.0
 11
163.4439058149251
 21
373.2521604840231
 31
0.0
 11
163.9994014148935
 21
373.2992517341161
 31
0.0
 11
164.5314884676325
 21
373.3634672115925
 31
0.0
 11
165.0608801002101
 21
373.4472906443294
 31
0.0
 11
165.5524310594186
 21
373.545162418288
 31
0.0
 11
166.039494511314
 21
373.6636683666858
 31
0.0
 11
166.1990617862093
 21
373.7076519925461
 31
0.0
 11
166.357708749506
 21
373.7545600408894
 31
0.0
  0
SPLINE
  5
258
330
1F
100
AcDbEntity
  8
1
  6
Continuous
 62
     7
100
AcDbSpline
210
0.0
220
0.0
230
1.0
 70
     8
 71
     3
 72
    29
 73
    25
 74
    23
 42
0.0000000001
 43
0.0000000001
 44
0.00000001
 40
0.0
 40
0.0
 40
0.0
 40
0.0
 40
0.3993045179440089
 40
0.7983561746001543
 40
1.253490186899827
 40
1.708490494759305
 40
2.209763340600846
 40
2.710963130741059
 40
3.246949948227134
 40
3.782897948727088
 40
4.340386018034036
 40
4.897857086463763
 40
5.462617333422099
 40
6.02737758038032
 40
6.584848648809991
 40
7.142336718117003
 40
7.67828471861685
 40
8.214271536103141
 40
8.715471326243515
 40
9.216744172085104
 40
9.671744479944575
 40
10.12687849224429
 40
10.52593014888447
 40
10.92523466681223
 40
10.92523466681223
 40
10.92523466681223
 40
10.92523466681223
 10
147.8801893801735
 20
365.0242520311859
 30
0.0
 10
147.8193913171709
 20
364.9057862312033
 30
0.0
 10
147.6978336917982
 20
364.6689296502108
 30
0.0
 10
147.5394947060342
 20
364.2818000455218
 30
0.0
 10
147.3958704241759
 20
363.8695644802746
 30
0.0
 10
147.2639783060089
 20
363.4177549535102
 30
0.0
 10
147.1496780911984
 20
362.9454048484698
 30
0.0
 10
147.049751050989
 20
362.4422787562612
 30
0.0
 10
146.9681396730131
 20
361.9241562102508
 30
0.0
 10
146.9031612443292
 20
361.384802765891
 30
0.0
 10
146.8569211173045
 20
360.8363323628433
 30
0.0
 10
146.828713051664
 20
360.2770321756066
 30
0.0
 10
146.8194622477041
 20
359.7146726862299
 30
0.0
 10
146.8287130516641
 20
359.152313196853
 30
0.0
 10
146.8569211173044
 20
358.5930130096165
 30
0.0
 10
146.9031612443293
 20
358.0445426065686
 30
0.0
 10
146.9681396730133
 20
357.505189162209
 30
0.0
 10
147.0497510509892
 20
356.9870666161983
 30
0.0
 10
147.1496780911984
 20
356.4839405239896
 30
0.0
 10
147.2639783060091
 20
356.0115904189493
 30
0.0
 10
147.3958704241765
 20
355.5597808921847
 30
0.0
 10
147.5394947060328
 20
355.1475453269428
 30
0.0
 10
147.6978336917924
 20
354.7604157222634
 30
0.0
 10
147.8193913171592
 20
354.52355914128
 30
0.0
 10
147.8801893801588
 20
354.405093341302
 30
0.0
 11
147.8801893801735
 21
365.0242520311859
 31
0.0
 11
147.7029760915008
 21
364.6664258885296
 31
0.0
 11
147.5496761220078
 21
364.297994966872
 31
0.0
 11
147.3995560331127
 21
363.8683312285112
 31
0.0
 11
147.2715548531513
 21
363.4317067009355
 31
0.0
 11
147.1530489047534
 21
362.94464324904
 31
0.0
 11
147.0551771307949
 21
362.4530922898315
 31
0.0
 11
146.9713536980579
 21
361.923700657254
 31
0.0
 11
146.9071382205815
 21
361.3916136045151
 31
0.0
 11
146.8600469704887
 21
360.8361180045467
 31
0.0
 11
146.8319674035303
 21
360.279354562809
 31
0.0
 11
146.822559172695
 21
359.7146726862298
 31
0.0
 11
146.8319674035303
 21
359.1499908096507
 31
0.0
 11
146.8600469704887
 21
358.5932273679131
 31
0.0
 11
146.9071382205816
 21
358.0377317679446
 31
0.0
 11
146.971353698058
 21
357.5056447152058
 31
0.0
 11
147.0551771307949
 21
356.9762530826281
 31
0.0
 11
147.1530489047535
 21
356.4847021234194
 31
0.0
 11
147.2715548531515
 21
355.9976386715239
 31
0.0
 11
147.3995560331131
 21
355.5610141439482
 31
0.0
 11
147.5496761220082
 21
355.1313504055875
 31
0.0
 11
147.7029760914946
 21
354.7629194839444
 31
0.0
 11
147.8801893801588
 21
354.405093341302
 31
0.0
  0
SPLINE
  5
259
330
1F
100
AcDbEntity
  8
1
  6
DASHED
 62
     7
100
AcDbSpline
210
0.0
220
0.0
230
1.0
 70
     8
 71
     3
 72
   154
 73
   150
 74
   148
 42
0.0000000001
 43
0.0000000001
 44
0.00000001
 40
0.0
 40
0.0
 40
0.0
 40
0.0
 40
0.0010549652707446
 40
0.0021099442138522
 40
0.1385652938711273
 40
0.2748314010487442
 40
0.4110876309285901
 40
0.5475133876508677
 40
0.6842874082611153
 40
0.7791221089732161
 40
0.8737068990455721
 40
0.968229146756551
 40
1.062876591820074
 40
1.157836231389623
 40
1.253293227899658
 40
1.322371736783324
 40
1.391000436230658
 40
1.45939983511262
 40
1.527792660235865
 40
1.59640170242847
 40
1.665447659545344
 40
1.735147079192213
 40
1.79178041135171
 40
1.847818568692644
 40
1.903456405841725
 40
1.958892998854394
 40
2.01432959186706
 40
2.069967429016108
 40
2.126005586357087
 40
2.182638918516596
 40
2.252338338163481
 40
2.321384295280255
 40
2.389993337472866
 40
2.458386162596012
 40
2.52678556147795
 40
2.595414260925284
 40
2.664492769808936
 40
2.759949766318925
 40
2.854909405888437
 40
2.949556850951919
 40
3.044079098662958
 40
3.138663888735318
 40
3.233498589447393
 40
3.37027261005764
 40
3.506698366779981
 40
3.642954596659779
 40
3.779220703837508
 40
3.915676053494761
 40
4.075986483593036
 40
4.236089785958709
 40
4.396096374745774
 40
4.556116864305421
 40
4.71626184018432
 40
4.898423604933027
 40
5.08045059518111
 40
5.262418372536188
 40
5.444402572363462
 40
5.62647880956207
 40
5.827066083560066
 40
6.027556287101199
 40
6.22800632919171
 40
6.428473153041137
 40
6.629013687563753
 40
6.843470071496857
 40
7.057850089686363
 40
7.272200505437682
 40
7.486568101429228
 40
7.700999649094765
 40
7.924047706372869
 40
8.147030531632332
 40
8.369989794960329
 40
8.592967179653202
 40
8.816004358847389
 40
9.04195735206282
 40
9.267850166012691
 40
9.493722916644286
 40
9.719615730594157
 40
9.945568723809645
 40
10.16860590300383
 40
10.3915832876967
 40
10.6145425510247
 40
10.83752537628427
 40
11.0605734335622
 40
11.27500498122778
 40
11.48937257721938
 40
11.70372299297058
 40
11.91810301116008
 40
12.13255939509324
 40
12.33309992961574
 40
12.53356675346527
 40
12.73401679555578
 40
12.93450699909703
 40
13.13509427309504
 40
13.31717051029365
 40
13.499154710121
 40
13.68112248747613
 40
13.8631494777241
 40
14.04531124247281
 40
14.20545621835169
 40
14.36547670791123
 40
14.52548329669834
 40
14.68558659906401
 40
14.84589702916222
 40
14.98235237881966
 40
15.11861848599734
 40
15.25487471587725
 40
15.39130047259946
 40
15.52807449320971
 40
15.62290919392183
 40
15.71749398399417
 40
15.81201623170509
 40
15.90666367676869
 40
16.00162331633817
 40
16.09708031284814
 40
16.16615882173184
 40
16.23478752117918
 40
16.30318692006116
 40
16.37157974518431
 40
16.44018878737689
 40
16.50923474449373
 40
16.57893416414056
 40
16.63556749630011
 40
16.69160565364111
 40
16.74724349079017
 40
16.80268008380286
 40
16.8581166768155
 40
16.91375451396458
 40
16.96979267130554
 40
17.02642600346503
 40
17.09612542311183
 40
17.16517138022866
 40
17.23378042242124
 40
17.30217324754441
 40
17.37057264642634
 40
17.43920134587362
 40
17.50827985475727
 40
17.60373685126729
 40
17.69869649083682
 40
17.79334393590034
 40
17.88786618361136
 40
17.98245097368369
 40
18.07728567439577
 40
18.21405969500603
 40
18.35048545172827
 40
18.48674168160808
 40
18.62300778878575
 40
18.75946313844307
 40
18.76051811739432
 40
18.76157308265755
 40
18.76157308265755
 40
18.76157308265755
 40
18.76157308265755
 10
147.8801893801674
 20
365.0242520311745
 30
0.0
 10
147.8803556732469
 20
365.024561882639
 30
0.0
 10
147.8806882615609
 20
365.0251815895837
 30
0.0
 10
147.9025378268848
 20
365.0658751563726
 30
0.0
 10
147.9471671922502
 20
365.1455037818433
 30
0.0
 10
148.0181131140582
 20
365.2619469259159
 30
0.0
 10
148.0932117603009
 20
365.3757496611291
 30
0.0
 10
148.1725735674254
 20
365.4868213348113
 30
0.0
 10
148.2471767806421
 20
365.5842472283492
 30
0.0
 10
148.3166964196354
 20
365.6678904403532
 30
0.0
 10
148.3806041558971
 20
365.7377518504549
 30
0.0
 10
148.4474653116281
 20
365.8046946180788
 30
0.0
 10
148.5173360120007
 20
365.8686825488489
 30
0.0
 10
148.5902664398607
 20
365.929635374531
 30
0.0
 10
148.6588419427541
 20
365.9824064933937
 30
0.0
 10
148.7227262189888
 20
366.0267341390072
 30
0.0
 10
148.7814596409633
 20
366.0624559057753
 30
0.0
 10
148.8418942802779
 20
366.0947227618308
 30
0.0
 10
148.9040798731093
 20
366.1234604761077
 30
0.0
 10
148.9679979692315
 20
366.1486983266634
 30
0.0
 10
149.0336607571954
 20
366.1703883883334
 30
0.0
 10
149.0965415239821
 20
366.1874751413747
 30
0.0
 10
149.1560274322092
 20
366.2001509457854
 30
0.0
 10
149.2115383637482
 20
366.2085163058289
 30
0.0
 10
149.2670468574554
 20
366.213554860407
 30
0.0
 10
149.3225591726954
 20
366.2152305865058
 30
0.0
 10
149.3780714879352
 20
366.213554860407
 30
0.0
 10
149.4335799816424
 20
366.2085163058291
 30
0.0
 10
149.4890909131814
 20
366.2001509457853
 30
0.0
 10
149.5485768214086
 20
366.1874751413748
 30
0.0
 10
149.6114575881952
 20
366.1703883883332
 30
0.0
 10
149.6771203761591
 20
366.1486983266633
 30
0.0
 10
149.7410384722814
 20
366.1234604761077
 30
0.0
 10
149.8032240651122
 20
366.0947227618307
 30
0.0
 10
149.8636587044291
 20
366.0624559057762
 30
0.0
 10
149.9223921263946
 20
366.0267341390039
 30
0.0
 10
149.9862764026671
 20
365.9824064934092
 30
0.0
 10
150.0548519053654
 20
365.929635374447
 30
0.0
 10
150.1277823339918
 20
365.8686825491567
 30
0.0
 10
150.1976530315257
 20
365.804694616936
 30
0.0
 10
150.2645141978305
 20
365.7377518547152
 30
0.0
 10
150.3284218945805
 20
365.6678904244236
 30
0.0
 10
150.3979417032482
 20
365.5842472991202
 30
0.0
 10
150.472544001987
 20
365.4868209383006
 30
0.0
 10
150.5519094370113
 20
365.3757511184092
 30
0.0
 10
150.6269946105084
 20
365.2619414988691
 30
0.0
 10
150.697990816477
 20
365.1455240490826
 30
0.0
 10
150.7683821616263
 20
365.0194739194682
 30
0.0
 10
150.8384729224395
 20
364.884251112505
 30
0.0
 10
150.9087099579183
 20
364.7403174352316
 30
0.0
 10
150.9750095744445
 20
364.5946318015825
 30
0.0
 10
151.0375280606035
 20
364.4472682177666
 30
0.0
 10
151.0986652509219
 20
364.2913668108745
 30
0.0
 10
151.1586778210044
 20
364.1272012850848
 30
0.0
 10
151.2178990041273
 20
363.9550383817682
 30
0.0
 10
151.2735164811641
 20
363.7817386066046
 30
0.0
 10
151.3256415335975
 20
363.6073391041883
 30
0.0
 10
151.3757238780235
 20
363.4258958555063
 30
0.0
 10
151.4239573764168
 20
363.2375805689141
 30
0.0
 10
151.4705719852327
 20
363.0425559917935
 30
0.0
 10
151.513841271091
 20
362.8468024396376
 30
0.0
 10
151.5538402512709
 20
362.6503372868743
 30
0.0
 10
151.5912900845165
 20
362.4486202592851
 30
0.0
 10
151.6263254742436
 20
362.2417660902177
 30
0.0
 10
151.659093919212
 20
362.0298818978165
 30
0.0
 10
151.6886972845041
 20
361.8175618459731
 30
0.0
 10
151.7151817331968
 20
361.6048128756473
 30
0.0
 10
151.7387871747366
 20
361.3888087386205
 30
0.0
 10
151.7595939562337
 20
361.1696330000509
 30
0.0
 10
151.7776826073249
 20
360.947364338683
 30
0.0
 10
151.7927145321253
 20
360.7248914290422
 30
0.0
 10
151.8047117074196
 20
360.5022161336974
 30
0.0
 10
151.8136875624104
 20
360.2783999322058
 30
0.0
 10
151.8196708832742
 20
360.0535118189338
 30
0.0
 10
151.8226851195061
 20
359.8276191207256
 30
0.0
 10
151.8226851195061
 20
359.6017262517344
 30
0.0
 10
151.8196708832741
 20
359.3758335535263
 30
0.0
 10
151.8136875624105
 20
359.1509454402543
 30
0.0
 10
151.8047117074196
 20
358.9271292387626
 30
0.0
 10
151.7927145321253
 20
358.704453943418
 30
0.0
 10
151.7776826073249
 20
358.481981033777
 30
0.0
 10
151.7595939562339
 20
358.2597123724092
 30
0.0
 10
151.7387871747368
 20
358.0405366338396
 30
0.0
 10
151.7151817331971
 20
357.8245324968127
 30
0.0
 10
151.6886972845045
 20
357.611783526487
 30
0.0
 10
151.6590939192124
 20
357.3994634746435
 30
0.0
 10
151.6263254742439
 20
357.1875792822424
 30
0.0
 10
151.591290084517
 20
356.9807251131751
 30
0.0
 10
151.5538402512713
 20
356.7790080855858
 30
0.0
 10
151.5138412710915
 20
356.5825429328225
 30
0.0
 10
151.4705719852332
 20
356.3867893806665
 30
0.0
 10
151.4239573764173
 20
356.1917648035458
 30
0.0
 10
151.375723878024
 20
356.0034495169538
 30
0.0
 10
151.3256415335978
 20
355.8220062682716
 30
0.0
 10
151.2735164811645
 20
355.6476067658552
 30
0.0
 10
151.2178990041277
 20
355.4743069906917
 30
0.0
 10
151.1586778210048
 20
355.3021440873749
 30
0.0
 10
151.0986652509222
 20
355.1379785615855
 30
0.0
 10
151.0375280606039
 20
354.9820771546932
 30
0.0
 10
150.9750095744448
 20
354.8347135708776
 30
0.0
 10
150.9087099579188
 20
354.6890279372283
 30
0.0
 10
150.8384729224399
 20
354.545094259955
 30
0.0
 10
150.7683821616266
 20
354.4098714529919
 30
0.0
 10
150.6979908164776
 20
354.2838213233772
 30
0.0
 10
150.6269946105089
 20
354.1674038735907
 30
0.0
 10
150.5519094370118
 20
354.0535942540506
 30
0.0
 10
150.4725440019874
 20
353.9425244341592
 30
0.0
 10
150.3979417032487
 20
353.8450980733396
 30
0.0
 10
150.328421894581
 20
353.7614549480363
 30
0.0
 10
150.264514197831
 20
353.6915935177447
 30
0.0
 10
150.1976530315262
 20
353.6246507555239
 30
0.0
 10
150.1277823339923
 20
353.5606628233034
 30
0.0
 10
150.0548519053658
 20
353.4997099980128
 30
0.0
 10
149.9862764026674
 20
353.4469388790507
 30
0.0
 10
149.922392126395
 20
353.4026112334564
 30
0.0
 10
149.8636587044294
 20
353.3668894666836
 30
0.0
 10
149.8032240651125
 20
353.3346226106295
 30
0.0
 10
149.7410384722816
 20
353.3058848963523
 30
0.0
 10
149.6771203761594
 20
353.2806470457968
 30
0.0
 10
149.6114575881956
 20
353.2589569841266
 30
0.0
 10
149.5485768214089
 20
353.2418702310857
 30
0.0
 10
149.4890909131816
 20
353.2291944266744
 30
0.0
 10
149.4335799816427
 20
353.2208290666313
 30
0.0
 10
149.3780714879354
 20
353.2157905120528
 30
0.0
 10
149.3225591726956
 20
353.2141147859544
 30
0.0
 10
149.2670468574556
 20
353.2157905120528
 30
0.0
 10
149.2115383637485
 20
353.220829066631
 30
0.0
 10
149.1560274322094
 20
353.2291944266744
 30
0.0
 10
149.0965415239823
 20
353.2418702310854
 30
0.0
 10
149.0336607571957
 20
353.2589569841264
 30
0.0
 10
148.9679979692318
 20
353.2806470457966
 30
0.0
 10
148.9040798731097
 20
353.3058848963522
 30
0.0
 10
148.8418942802783
 20
353.334622610629
 30
0.0
 10
148.7814596409637
 20
353.3668894666847
 30
0.0
 10
148.7227262189893
 20
353.4026112334523
 30
0.0
 10
148.6588419427546
 20
353.4469388790665
 30
0.0
 10
148.5902664398612
 20
353.4997099979287
 30
0.0
 10
148.5173360120012
 20
353.5606628236109
 30
0.0
 10
148.4474653116286
 20
353.6246507543809
 30
0.0
 10
148.3806041558977
 20
353.691593522005
 30
0.0
 10
148.3166964196358
 20
353.7614549321065
 30
0.0
 10
148.2471767806425
 20
353.8450981441104
 30
0.0
 10
148.1725735674258
 20
353.9425240376486
 30
0.0
 10
148.0932117603013
 20
354.0535957113303
 30
0.0
 10
148.018113114059
 20
354.1673984465443
 30
0.0
 10
147.9471671922496
 20
354.2838415906141
 30
0.0
 10
147.9025378268862
 20
354.3634702160944
 30
0.0
 10
147.88068826156
 20
354.4041637828785
 30
0.0
 10
147.8803556732457
 20
354.4047834898234
 30
0.0
 10
147.8801893801674
 20
354.4050933412857
 30
0.0
 11
147.8801893801674
 21
365.0242520311745
 31
0.0
 11
147.8806882885729
 21
365.0251815698372
 31
0.0
 11
147.8811873632525
 21
365.0261110347556
 31
0.0
 11
147.9479120255174
 21
365.1451399467717
 31
0.0
 11
148.0188075751265
 21
365.2615112190469
 31
0.0
 11
148.0938740120801
 21
365.3752248515813
 31
0.0
 11
148.1731113363779
 21
365.4862808443749
 31
0.0
 11
148.25651954802
 21
365.5946791974277
 31
0.0
 11
148.3173170425631
 21
365.6674616480352
 31
0.0
 11
148.3811176583957
 21
365.7372883186733
 31
0.0
 11
148.4479213955179
 21
365.8041592093422
 31
0.0
 11
148.5177282539297
 21
365.8680743200417
 31
0.0
 11
148.5905382336309
 21
365.929033650772
 31
0.0
 11
148.6663513346218
 21
365.9870372015329
 31
0.0
 11
148.7232298676316
 21
366.0262376208194
 31
0.0
 11
148.781842332193
 21
366.0619374441505
 31
0.0
 11
148.842188728306
 21
366.0941366715262
 31
0.0
 11
148.9042690559705
 21
366.1228353029466
 31
0.0
 11
148.9680833151866
 21
366.1480333384115
 31
0.0
 11
149.0336315059542
 21
366.1697307779211
 31
0.0
 11
149.1009136282734
 21
366.1879276214752
 31
0.0
 11
149.1563250143789
 21
366.1996285873054
 31
0.0
 11
149.2117364004843
 21
366.2079864200412
 31
0.0
 11
149.2671477865899
 21
366.2130011196827
 31
0.0
 11
149.3225591726953
 21
366.21467268623
 31
0.0
 11
149.3779705588008
 21
366.2130011196828
 31
0.0
 11
149.4333819449063
 21
366.2079864200413
 31
0.0
 11
149.4887933310118
 21
366.1996285873054
 31
0.0
 11
149.5442047171172
 21
366.1879276214752
 31
0.0
 11
149.6114868394364
 21
366.169730777921
 31
0.0
 11
149.677035030204
 21
366.1480333384114
 31
0.0
 11
149.7408492894201
 21
366.1228353029466
 31
0.0
 11
149.8029296170846
 21
366.0941366715263
 31
0.0
 11
149.8632760131975
 21
366.0619374441505
 31
0.0
 11
149.9218884777588
 21
366.0262376208194
 31
0.0
 11
149.9787670107687
 21
365.9870372015329
 31
0.0
 11
150.0545801117594
 21
365.929033650772
 31
0.0
 11
150.1273900914607
 21
365.8680743200418
 31
0.0
 11
150.1971969498724
 21
365.8041592093422
 31
0.0
 11
150.2640006869946
 21
365.7372883186733
 31
0.0
 11
150.3278013028272
 21
365.6674616480352
 31
0.0
 11
150.3885987973703
 21
365.5946791974277
 31
0.0
 11
150.4720070090124
 21
365.4862808443749
 31
0.0
 11
150.5512443333103
 21
365.3752248515813
 31
0.0
 11
150.6263107702638
 21
365.2615112190469
 31
0.0
 11
150.697206319873
 21
365.1451399467716
 31
0.0
 11
150.7639309821379
 21
365.0261110347556
 31
0.0
 11
150.837925902478
 21
364.8838992709589
 31
0.0
 11
150.9080744867724
 21
364.7399817822722
 31
0.0
 11
150.9743767350214
 21
364.5943585686955
 31
0.0
 11
151.0368326472248
 21
364.4470296302287
 31
0.0
 11
151.0954422233827
 21
364.297994966872
 31
0.0
 11
151.1581445280128
 21
364.1269647662335
 31
0.0
 11
151.2173078072135
 21
363.9548208393206
 31
0.0
 11
151.2729320609848
 21
363.7815631861334
 31
0.0
 11
151.3250172893267
 21
363.6071918066718
 31
0.0
 11
151.3735634922392
 21
363.4317067009358
 31
0.0
 11
151.4234419725311
 21
363.2374198210553
 31
0.0
 11
151.4700189849126
 21
363.0424149400046
 31
0.0
 11
151.5132945293839
 21
362.8466920577839
 31
0.0
 11
151.5532686059449
 21
362.650251174393
 31
0.0
 11
151.5899412145956
 21
362.4530922898319
 31
0.0
 11
151.6258235423217
 21
362.2416590872203
 31
0.0
 11
151.6585685972061
 21
362.0297946173827
 31
0.0
 11
151.6881763792488
 21
361.8174988803194
 31
0.0
 11
151.7146468884498
 21
361.6047718760302
 31
0.0
 11
151.7379801248091
 21
361.3916136045153
 31
0.0
 11
151.7590980268224
 21
361.1695675055401
 31
0.0
 11
151.7771740595343
 21
360.9473185518821
 31
0.0
 11
151.7922082229445
 21
360.7248667435408
 31
0.0
 11
151.8042005170532
 21
360.5022120805164
 31
0.0
 11
151.8131509418604
 21
360.2793545628091
 31
0.0
 11
151.8191722095949
 21
360.0534818121775
 31
0.0
 11
151.8221828434621
 21
359.8276090615458
 31
0.0
 11
151.8221828434621
 21
359.6017363109143
 31
0.0
 11
151.8191722095949
 21
359.3758635602826
 31
0.0
 11
151.8131509418604
 21
359.1499908096509
 31
0.0
 11
151.8042005170533
 21
358.9271332919436
 31
0.0
 11
151.7922082229446
 21
358.7044786289193
 31
0.0
 11
151.7771740595343
 21
358.482026820578
 31
0.0
 11
151.7590980268226
 21
358.2597778669198
 31
0.0
 11
151.7379801248093
 21
358.0377317679448
 31
0.0
 11
151.71464688845
 21
357.8245734964298
 31
0.0
 11
151.6881763792491
 21
357.6118464921406
 31
0.0
 11
151.6585685972065
 21
357.3995507550774
 31
0.0
 11
151.6258235423221
 21
357.1876862852398
 31
0.0
 11
151.5899412145961
 21
356.9762530826281
 31
0.0
 11
151.5532686059454
 21
356.7790941980671
 31
0.0
 11
151.5132945293844
 21
356.5826533146762
 31
0.0
 11
151.4700189849131
 21
356.3869304324554
 31
0.0
 11
151.4234419725315
 21
356.1919255514047
 31
0.0
 11
151.3735634922396
 21
355.9976386715241
 31
0.0
 11
151.3250172893271
 21
355.8221535657881
 31
0.0
 11
151.2729320609851
 21
355.6477821863264
 31
0.0
 11
151.2173078072138
 21
355.4745245331392
 31
0.0
 11
151.1581445280131
 21
355.3023806062264
 31
0.0
 11
151.095442223383
 21
355.1313504055879
 31
0.0
 11
151.0368326472252
 21
354.9823157422312
 31
0.0
 11
150.9743767350218
 21
354.8349868037645
 31
0.0
 11
150.9080744867729
 21
354.6893635901878
 31
0.0
 11
150.8379259024784
 21
354.5454461015011
 31
0.0
 11
150.7639309821384
 21
354.4032343377045
 31
0.0
 11
150.6972063198735
 21
354.2842054256882
 31
0.0
 11
150.6263107702643
 21
354.167834153413
 31
0.0
 11
150.5512443333107
 21
354.0541205208785
 31
0.0
 11
150.4720070090129
 21
353.943064528085
 31
0.0
 11
150.3885987973708
 21
353.8346661750322
 31
0.0
 11
150.3278013028277
 21
353.7618837244247
 31
0.0
 11
150.2640006869951
 21
353.6920570537865
 31
0.0
 11
150.1971969498729
 21
353.6251861631178
 31
0.0
 11
150.1273900914611
 21
353.5612710524181
 31
0.0
 11
150.0545801117599
 21
353.500311721688
 31
0.0
 11
149.9787670107691
 21
353.4423081709272
 31
0.0
 11
149.9218884777592
 21
353.4031077516406
 31
0.0
 11
149.8632760131978
 21
353.3674079283095
 31
0.0
 11
149.8029296170848
 21
353.3352087009338
 31
0.0
 11
149.7408492894203
 21
353.3065100695135
 31
0.0
 11
149.6770350302043
 21
353.2813120340486
 31
0.0
 11
149.6114868394367
 21
353.259614594539
 31
0.0
 11
149.5442047171175
 21
353.2414177509849
 31
0.0
 11
149.488793331012
 21
353.2297167851547
 31
0.0
 11
149.4333819449065
 21
353.2213589524188
 31
0.0
 11
149.377970558801
 21
353.2163442527772
 31
0.0
 11
149.3225591726955
 21
353.21467268623
 31
0.0
 11
149.2671477865901
 21
353.2163442527772
 31
0.0
 11
149.2117364004846
 21
353.2213589524187
 31
0.0
 11
149.1563250143791
 21
353.2297167851545
 31
0.0
 11
149.1009136282736
 21
353.2414177509847
 31
0.0
 11
149.0336315059545
 21
353.2596145945389
 31
0.0
 11
148.9680833151869
 21
353.2813120340484
 31
0.0
 11
148.9042690559708
 21
353.3065100695133
 31
0.0
 11
148.8421887283064
 21
353.3352087009337
 31
0.0
 11
148.7818423321934
 21
353.3674079283093
 31
0.0
 11
148.7232298676321
 21
353.4031077516404
 31
0.0
 11
148.6663513346223
 21
353.4423081709269
 31
0.0
 11
148.5905382336315
 21
353.5003117216878
 31
0.0
 11
148.5177282539302
 21
353.561271052418
 31
0.0
 11
148.4479213955185
 21
353.6251861631176
 31
0.0
 11
148.3811176583963
 21
353.6920570537865
 31
0.0
 11
148.3173170425636
 21
353.7618837244245
 31
0.0
 11
148.2565195480204
 21
353.834666175032
 31
0.0
 11
148.1731113363783
 21
353.9430645280848
 31
0.0
 11
148.0938740120805
 21
354.0541205208783
 31
0.0
 11
148.018807575127
 21
354.1678341534127
 31
0.0
 11
147.9479120255178
 21
354.284205425688
 31
0.0
 11
147.881187363253
 21
354.4032343377041
 31
0.0
 11
147.8806882885695
 21
354.4041638026297
 31
0.0
 11
147.8801893801674
 21
354.4050933412857
 31
0.0
  0
SPLINE
  5
25A
330
1F
100
AcDbEntity
  8
1
  6
DASHED
 62
     7
100
AcDbSpline
210
0.0
220
0.0
230
1.0
 70
    11
 71
     3
 72
    79
 73
    75
 74
    73
 42
0.0000000001
 43
0.0000000001
 44
0.00000001
 40
0.0
 40
0.0
 40
0.0
 40
0.0
 40
0.2412068094785726
 40
0.4811338352636208
 40
0.7660127539721673
 40
1.04976712418944
 40
1.391007393036395
 40
1.731748941522716
 40
2.132110806033012
 40
2.532213930800388
 40
2.987347943100071
 40
3.44234825095944
 40
3.943621096800933
 40
4.444820886941251
 40
4.980807704427519
 40
5.516755704927469
 40
6.074243774234427
 40
6.631714842664089
 40
7.196475089622366
 40
7.761235336580587
 40
8.31870640501028
 40
8.876194474317257
 40
9.412142474817243
 40
9.948129292303527
 40
10.4493290824438
 40
10.95060192828528
 40
11.40560223614454
 40
11.8607362484443
 40
12.26083937321176
 40
12.66120123772208
 40
13.00194278620836
 40
13.3431830550553
 40
13.62693742527248
 40
13.91181634398111
 40
14.15174336976601
 40
14.39295017924443
 40
14.61620350139389
 40
14.83945682354335
 40
15.08066363302201
 40
15.32059065880709
 40
15.60546957751573
 40
15.88922394773282
 40
16.2304642165798
 40
16.57120576506607
 40
16.97156762957645
 40
17.37167075434387
 40
17.82680476664352
 40
18.28180507450291
 40
18.78307792034439
 40
19.28427771048466
 40
19.82026452797086
 40
20.35621252847082
 40
20.91370059777777
 40
21.47117166620753
 40
22.03593191316575
 40
22.60069216012398
 40
23.15816322855371
 40
23.71565129786053
 40
24.2515992983604
 40
24.78758611584663
 40
25.28878590598699
 40
25.79005875182859
 40
26.2450590596881
 40
26.70019307198785
 40
27.10029619675523
 40
27.50065806126555
 40
27.84139960975175
 40
28.18263987859876
 40
28.46639424881593
 40
28.75127316752459
 40
28.99120019330956
 40
29.23240700278794
 40
29.45566032493749
 40
29.678913647087
 40
29.678913647087
 40
29.678913647087
 40
29.678913647087
 10
170.8492055613633
 20
359.9363182306519
 30
0.0
 10
170.87225805398
 20
360.0136836300427
 30
0.0
 10
170.9182407283873
 20
360.1680039471437
 30
0.0
 10
171.0538243748212
 20
360.3871250918197
 30
0.0
 10
171.2281057995803
 20
360.5934582233892
 30
0.0
 10
171.4537150381438
 20
360.7973728478982
 30
0.0
 10
171.7156120607216
 20
360.9854918842896
 30
0.0
 10
172.0261558581249
 20
361.1698499913265
 30
0.0
 10
172.3679563808735
 20
361.3376446717325
 30
0.0
 10
172.7547776642992
 20
361.498037903309
 30
0.0
 10
173.1676318370189
 20
361.6412443588839
 30
0.0
 10
173.6193593921843
 20
361.7732884843171
 30
0.0
 10
174.0917335739576
 20
361.8875440514853
 30
0.0
 10
174.5948529139837
 20
361.9874836128835
 30
0.0
 10
175.112977388722
 20
362.0690914141959
 30
0.0
 10
175.6523303004908
 20
362.1340708307077
 30
0.0
 10
176.2008008515502
 20
362.1803106824976
 30
0.0
 10
176.7601009992239
 20
362.2085188243904
 30
0.0
 10
177.322460496603
 20
362.2177696025996
 30
0.0
 10
177.8848199940151
 20
362.2085188243952
 30
0.0
 10
178.444120141591
 20
362.1803106824788
 30
0.0
 10
178.9925906930033
 20
362.1340708307766
 30
0.0
 10
179.5319436035059
 20
362.0690914139498
 30
0.0
 10
180.0500680828288
 20
361.9874836137778
 30
0.0
 10
180.5531874068053
 20
361.8875440483871
 30
0.0
 10
181.0255616458073
 20
361.7732884954547
 30
0.0
 10
181.4772890061315
 20
361.6412443215527
 30
0.0
 10
181.8901438622722
 20
361.4980380359866
 30
0.0
 10
182.2769628869486
 20
361.3376442425214
 30
0.0
 10
182.6187711998819
 20
361.1698515000094
 30
0.0
 10
182.9292899993102
 20
360.9854871744505
 30
0.0
 10
183.1912720518852
 20
360.7973892902083
 30
0.0
 10
183.4166138960686
 20
360.5934081483994
 30
0.0
 10
183.5918052845514
 20
360.3873013803385
 30
0.0
 10
183.724490021774
 20
360.167459100036
 30
0.0
 10
183.8020098428828
 20
359.9440693249213
 30
0.0
 10
183.8322905682839
 20
359.7146726862298
 30
0.0
 10
183.8020098428828
 20
359.4852760475383
 30
0.0
 10
183.724490021774
 20
359.2618862724234
 30
0.0
 10
183.5918052845514
 20
359.0420439921209
 30
0.0
 10
183.4166138960683
 20
358.8359372240601
 30
0.0
 10
183.1912720518851
 20
358.6319560822509
 30
0.0
 10
182.9292899993101
 20
358.4438581980089
 30
0.0
 10
182.6187711998818
 20
358.2594938724501
 30
0.0
 10
182.2769628869484
 20
358.091701129938
 30
0.0
 10
181.890143862272
 20
357.9313073364731
 30
0.0
 10
181.4772890061314
 20
357.7881010509066
 30
0.0
 10
181.0255616458072
 20
357.6560568770047
 30
0.0
 10
180.553187406805
 20
357.5418013240727
 30
0.0
 10
180.0500680828284
 20
357.441861758682
 30
0.0
 10
179.5319436035057
 20
357.3602539585103
 30
0.0
 10
178.992590693003
 20
357.2952745416831
 30
0.0
 10
178.4441201415912
 20
357.2490346899813
 30
0.0
 10
177.8848199940134
 20
357.2208265480639
 30
0.0
 10
177.322460496608
 20
357.2115757698616
 30
0.0
 10
176.7601009992047
 20
357.2208265480639
 30
0.0
 10
176.2008008516202
 20
357.2490346899826
 30
0.0
 10
175.6523303002329
 20
357.2952745416785
 30
0.0
 10
175.1129773896429
 20
357.3602539585273
 30
0.0
 10
174.5948529106365
 20
357.4418617586204
 30
0.0
 10
174.0917335855522
 20
357.5418013242866
 30
0.0
 10
173.6193593504996
 20
357.6560568762361
 30
0.0
 10
173.1676319767281
 20
357.7881010534835
 30
0.0
 10
172.7547771677551
 20
357.9313073273163
 30
0.0
 10
172.3679579871861
 20
358.0917011595615
 30
0.0
 10
172.0261502119099
 20
358.2594937683252
 30
0.0
 10
171.7156296871901
 20
358.4438585230694
 30
0.0
 10
171.4536535031521
 20
358.6319549474482
 30
0.0
 10
171.2282932041424
 20
358.835940680099
 30
0.0
 10
171.0531646188589
 20
359.0420318251711
 30
0.0
 10
170.920279806876
 20
359.2619238762761
 30
0.0
 10
170.8434639959808
 20
359.4851385210887
 30
0.0
 10
170.8107369491228
 20
359.715143709213
 30
0.0
 10
170.8363826906165
 20
359.8625933901722
 30
0.0
 10
170.8492055613633
 20
359.9363182306519
 30
0.0
 11
170.8492055613633
 21
359.9363182306519
 31
0.0
 11
170.9282096211077
 21
360.164219708231
 31
0.0
 11
171.0500959813056
 21
360.3708805243035
 31
0.0
 11
171.2329739734961
 21
360.5893104634073
 31
0.0
 11
171.4424539854107
 21
360.7807123109054
 31
0.0
 11
171.7184329425567
 21
360.9814124262401
 31
0.0
 11
172.0110221480829
 21
361.1560444956729
 31
0.0
 11
172.3697497917434
 21
361.3338199164373
 31
0.0
 11
172.7391382159664
 21
361.4875557369174
 31
0.0
 11
173.1688019543271
 21
361.6376758258127
 31
0.0
 11
173.6054264819026
 21
361.7656770057741
 31
0.0
 11
174.0924899337981
 21
361.8841829541719
 31
0.0
 11
174.5840408930067
 21
361.9820547281305
 31
0.0
 11
175.1134325255844
 21
362.0658781608674
 31
0.0
 11
175.6455195783233
 21
362.1300936383437
 31
0.0
 11
176.2010151782918
 21
362.1771848884367
 31
0.0
 11
176.7577786200294
 21
362.205264455395
 31
0.0
 11
177.3224604966085
 21
362.2146726862301
 31
0.0
 11
177.8871423731876
 21
362.2052644553949
 31
0.0
 11
178.4439058149253
 21
362.1771848884366
 31
0.0
 11
178.9994014148937
 21
362.1300936383437
 31
0.0
 11
179.5314884676327
 21
362.0658781608674
 31
0.0
 11
180.0608801002103
 21
361.9820547281303
 31
0.0
 11
180.5524310594189
 21
361.8841829541717
 31
0.0
 11
181.0394945113143
 21
361.7656770057737
 31
0.0
 11
181.4761190388898
 21
361.6376758258123
 31
0.0
 11
181.9057827772506
 21
361.4875557369172
 31
0.0
 11
182.2751712014737
 21
361.3338199164371
 31
0.0
 11
182.6338988451341
 21
361.1560444956725
 31
0.0
 11
182.9264880506602
 21
360.9814124262396
 31
0.0
 11
183.2024670078062
 21
360.7807123109049
 31
0.0
 11
183.4119470197207
 21
360.5893104634069
 31
0.0
 11
183.5948250119113
 21
360.370880524303
 31
0.0
 11
183.7167113721092
 21
360.1642197082306
 31
0.0
 11
183.7957154318536
 21
359.9363182306516
 31
0.0
 11
183.8224604966084
 21
359.7146726862299
 31
0.0
 11
183.7957154318536
 21
359.4930271418081
 31
0.0
 11
183.7167113721091
 21
359.2651256642289
 31
0.0
 11
183.5948250119112
 21
359.0584648481564
 31
0.0
 11
183.4119470197205
 21
358.8400349090525
 31
0.0
 11
183.2024670078061
 21
358.6486330615545
 31
0.0
 11
182.9264880506601
 21
358.4479329462197
 31
0.0
 11
182.633898845134
 21
358.273300876787
 31
0.0
 11
182.2751712014735
 21
358.0955254560224
 31
0.0
 11
181.9057827772504
 21
357.9417896355424
 31
0.0
 11
181.4761190388897
 21
357.7916695466472
 31
0.0
 11
181.0394945113141
 21
357.6636683666858
 31
0.0
 11
180.5524310594186
 21
357.545162418288
 31
0.0
 11
180.0608801002101
 21
357.4472906443294
 31
0.0
 11
179.5314884676324
 21
357.3634672115925
 31
0.0
 11
178.9994014148935
 21
357.2992517341161
 31
0.0
 11
178.4439058149251
 21
357.2521604840232
 31
0.0
 11
177.8871423731874
 21
357.2240809170647
 31
0.0
 11
177.3224604966083
 21
357.2146726862296
 31
0.0
 11
176.7577786200292
 21
357.2240809170648
 31
0.0
 11
176.2010151782915
 21
357.2521604840233
 31
0.0
 11
175.6455195783233
 21
357.2992517341163
 31
0.0
 11
175.1134325255844
 21
357.3634672115927
 31
0.0
 11
174.5840408930068
 21
357.4472906443295
 31
0.0
 11
174.0924899337981
 21
357.545162418288
 31
0.0
 11
173.6054264819025
 21
357.663668366686
 31
0.0
 11
173.1688019543268
 21
357.7916695466475
 31
0.0
 11
172.739138215966
 21
357.9417896355427
 31
0.0
 11
172.369749791743
 21
358.0955254560228
 31
0.0
 11
172.0110221480826
 21
358.2733008767874
 31
0.0
 11
171.7184329425565
 21
358.4479329462201
 31
0.0
 11
171.4424539854106
 21
358.648633061555
 31
0.0
 11
171.232973973496
 21
358.8400349090529
 31
0.0
 11
171.0500959813053
 21
359.0584648481568
 31
0.0
 11
170.9282096211074
 21
359.2651256642292
 31
0.0
 11
170.8492055613631
 21
359.4930271418081
 31
0.0
 11
170.8224604966085
 21
359.71467268623
 31
0.0
 11
170.8492055613633
 21
359.9363182306519
 31
0.0
  0
SOLID
  5
25B
330
1F
100
AcDbEntity
  8
1
 62
     2
100
AcDbTrace
 10
175.5043596449319
 20
391.1463236621557
 30
0.0
 11
177.1005613482848
 21
390.2247561790439
 31
0.0
 12
172.8024604966083
 22
384.6233620941088
 32
0.0
 13
172.8024604966083
 23
384.6233620941088
 33
0.0
  0
LEADER
  5
25C
330
1F
100
AcDbEntity
  8
1
  6
Continuous
 62
     2
100
AcDbLeader
  3
Standard
 71
     0
 76
     3
 10
172.8024604966083
 20
384.6233620941088
 30
0.0
 10
199.1246159396764
 20
430.2146726862285
 30
0.0
 10
159.8889197510661
 20
430.2146726862285
 30
0.0
  0
SOLID
  5
25D
330
1F
100
AcDbEntity
  8
1
 62
     2
100
AcDbTrace
 10
134.9505613482928
 20
342.711711118183
 30
0.0
 11
133.3543596449399
 21
343.6332786012948
 31
0.0
 12
137.6524604966164
 22
349.2346726862299
 32
0.0
 13
137.6524604966164
 23
349.2346726862299
 33
0.0
  0
LEADER
  5
25E
330
1F
100
AcDbEntity
  8
1
  6
Continuous
 62
     2
100
AcDbLeader
  3
Standard
 71
     0
 76
     3
 10
137.6524604966164
 20
349.2346726862299
 30
0.0
 10
125.2570760355515
 20
327.7652370203157
 30
0.0
 10
91.911487269342
 20
327.7652370203157
 30
0.0
  0
SOLID
  5
25F
330
1F
100
AcDbEntity
  8
1
 62
     2
100
AcDbTrace
 10
173.1205613482848
 20
320.6132786012938
 30
0.0
 11
171.5243596449319
 21
319.691711118182
 31
0.0
 12
168.8224604966083
 22
326.2146726862289
 32
0.0
 13
168.8224604966083
 23
326.2146726862289
 33
0.0
  0
LEADER
  5
260
330
1F
100
AcDbEntity
  8
1
  6
Continuous
 62
     2
100
AcDbLeader
  3
Standard
 71
     0
 76
     3
 10
168.8224604966083
 20
326.2146726862289
 30
0.0
 10
180.3694658804008
 20
306.2146726862289
 30
0.0
 10
212.1818487236058
 20
306.2146726862289
 30
0.0
  0
SOLID
  5
261
330
1F
100
AcDbEntity
  8
1
 62
     2
100
AcDbTrace
 10
211.1546669648684
 20
369.6393129108724
 30
0.0
 11
212.7508686682213
 21
368.7177454277606
 31
0.0
 12
208.4527678165448
 22
363.1163513428255
 32
0.0
 13
208.4527678165448
 23
363.1163513428255
 33
0.0
  0
LEADER
  5
262
330
1F
100
AcDbEntity
  8
1
  6
Continuous
 62
     2
100
AcDbLeader
  3
Standard
 71
     0
 76
     3
 10
208.4527678165448
 20
363.1163513428255
 30
0.0
 10
231.026194169021
 20
402.2146726862285
 30
0.0
 10
252.526194169021
 20
402.2146726862285
 30
0.0
  0
SOLID
  5
263
330
1F
100
AcDbEntity
  8
1
 62
     2
100
AcDbTrace
 10
184.0956614638836
 20
368.1866390870579
 30
0.0
 11
185.6918631672365
 21
367.2650716039461
 31
0.0
 12
181.39376231556
 22
361.663677519011
 32
0.0
 13
181.39376231556
 23
361.663677519011
 33
0.0
  0
LEADER
  5
264
330
1F
100
AcDbEntity
  8
1
  6
Continuous
 62
     2
100
AcDbLeader
  3
Standard
 71
     0
 76
     3
 10
181.39376231556
 20
361.663677519011
 30
0.0
 10
220.9716978285698
 20
430.2146726862285
 30
0.0
 10
243.4716978285698
 20
430.2146726862285
 30
0.0
  0
SOLID
  5
265
330
1F
100
AcDbEntity
  8
1
 62
     2
100
AcDbTrace
 10
143.306598693094
 20
370.0396253607493
 30
0.0
 11
144.9028003964469
 21
370.9611928438611
 31
0.0
 12
147.6046995447705
 22
364.4382312758142
 32
0.0
 13
147.6046995447705
 23
364.4382312758142
 33
0.0
  0
LEADER
  5
266
330
1F
100
AcDbEntity
  8
1
  6
Continuous
 62
     2
100
AcDbLeader
  3
Standard
 71
     0
 76
     3
 10
147.6046995447705
 20
364.4382312758142
 30
0.0
 10
125.7944609274417
 20
402.2146726862285
 30
0.0
 10
106.2944609274417
 20
402.2146726862285
 30
0.0
  0
SOLID
  5
267
330
1F
100
AcDbEntity
  8
1
 62
     2
100
AcDbTrace
 10
157.6351086557374
 20
384.2077871536206
 30
0.0
 11
159.3195191107334
 21
384.95605710679
 31
0.0
 12
161.3191511703428
 22
378.1847383096788
 32
0.0
 13
161.3191511703428
 23
378.1847383096788
 33
0.0
  0
LEADER
  5
268
330
1F
100
AcDbEntity
  8
1
  6
Continuous
 62
     2
100
AcDbLeader
  3
Standard
 71
     0
 76
     3
 10
161.3191511703428
 20
378.1847383096788
 30
0.0
 10
138.2057606995866
 20
430.2146726862285
 30
0.0
 10
114.7057606995866
 20
430.2146726862285
 30
0.0
  0
MTEXT
  5
26A
330
1F
100
AcDbEntity
  8
1
 62
     7
100
AcDbMText
 10
302.0
 20
497.75
 30
0.0
 40
7.0
 41
0.0
 71
     5
 72
     1
  1
V2220LAD-X3-13-R
  7
CONVERTER_2
 73
     1
 44
0.7202881152461
  0
MTEXT
  5
26B
330
1F
100
AcDbEntity
  8
1
 62
     7
100
AcDbMText
 10
302.0
 20
513.75
 30
0.0
 40
7.0
 41
0.0
 71
     5
 72
     1
  1
V2220LAD-X3-13-B
  7
CONVERTER_2
 73
     1
 44
0.7202881152461
  0
MTEXT
  5
26C
330
1F
100
AcDbEntity
  8
0
 62
     7
100
AcDbMText
 10
302.0
 20
545.75
 30
0.0
 40
7.0
 41
0.0
 71
     5
 72
     1
  1
品番
  7
CONVERTER_1
 73
     1
 44
1.32052821128451
  0
MTEXT
  5
26D
330
1F
100
AcDbEntity
  8
1
 62
     7
100
AcDbMText
 10
302.0
 20
529.75
 30
0.0
 40
7.0
 41
0.0
 71
     5
 72
     1
  1
V2220LAD-X3-13
  7
CONVERTER_2
 73
     1
 44
0.7202881152461
  0
MTEXT
  5
26E
330
1F
100
AcDbEntity
  8
0
 62
     7
100
AcDbMText
 10
370.0000000000002
 20
545.75
 30
0.0
 40
7.0
 41
0.0
 71
     5
 72
     1
  1
ビス色
  7
CONVERTER_1
 73
     1
 44
1.32052821128451
  0
MTEXT
  5
26F
330
1F
100
AcDbEntity
  8
1
 62
     7
100
AcDbMText
 10
370.0000000000002
 20
529.75
 30
0.0
 40
7.0
 41
0.0
 71
     5
 72
     1
  1
無地
  7
CONVERTER_1
 73
     1
 44
0.7202881152461
  0
MTEXT
  5
270
330
1F
100
AcDbEntity
  8
1
 62
     7
100
AcDbMText
 10
370.0000000000002
 20
513.75
 30
0.0
 40
7.0
 41
0.0
 71
     5
 72
     1
  1
青
  7
CONVERTER_1
 73
     1
 44
0.7202881152461
  0
MTEXT
  5
271
330
1F
100
AcDbEntity
  8
1
 62
     7
100
AcDbMText
 10
370.0000000000002
 20
497.75
 30
0.0
 40
7.0
 41
0.0
 71
     5
 72
     1
  1
赤
  7
CONVERTER_1
 73
     1
 44
0.7202881152461
  0
MTEXT
  5
272
330
1F
100
AcDbEntity
  8
1
 62
     7
100
AcDbMText
 10
114.0
 20
32.5
 30
0.0
 40
7.0
 41
0.0
 71
     5
 72
     1
  1
V2220LAD
  7
CONVERTER_2
 73
     1
 44
0.7202881152461
  0
MTEXT
  5
273
330
1F
100
AcDbEntity
  8
1
 62
     7
100
AcDbMText
 10
187.5
 20
34.0
 30
0.0
 40
7.0
 41
0.0
 71
     5
 72
     1
  1
2
  7
CONVERTER_2
 73
     1
 44
0.7202881152461
  0
MTEXT
  5
274
330
1F
100
AcDbEntity
  8
1
 62
     7
100
AcDbMText
 10
170.5
 20
34.0
 30
0.0
 40
7.0
 41
0.0
 71
     5
 72
     1
  1
1
  7
CONVERTER_2
 73
     1
 44
0.7202881152461
  0
MTEXT
  5
275
330
1F
100
AcDbEntity
  8
1
 62
     7
100
AcDbMText
 10
68.0
 20
75.0
 30
0.0
 40
7.0
 41
0.0
 71
     4
 72
     1
  1
JIS
  7
CONVERTER_2
 73
     1
 44
0.7202881152461
  0
MTEXT
  5
276
330
1F
100
AcDbEntity
  8
1
 62
     7
100
AcDbMText
 10
206.337550594222
 20
359.3790242851549
 30
0.0
 40
4.0
 41
0.0
 71
     5
 72
     1
  1
B
  7
CONVERTER_2
 11
0.0
 21
-1.0
 31
0.0
 73
     1
 44
0.7202881152461
  0
MTEXT
  5
277
330
1F
100
AcDbEntity
  8
1
 62
     7
100
AcDbMText
 10
177.2188487584604
 20
359.7652370203157
 30
0.0
 40
4.0
 41
0.0
 71
     5
 72
     1
  1
A
  7
CONVERTER_2
 73
     1
 44
0.7202881152461
  0
MTEXT
  5
278
330
1F
100
AcDbEntity
  8
1
 62
     7
100
AcDbMText
 10
162.7188487584604
 20
375.7652370203157
 30
0.0
 40
4.0
 41
0.0
 71
     5
 72
     1
  1
A
  7
CONVERTER_2
 73
     1
 44
0.7202881152461
  0
MTEXT
  5
279
330
1F
100
AcDbEntity
  8
1
 62
     7
100
AcDbMText
 10
149.4702189678953
 20
359.8311987742441
 30
0.0
 40
4.0
 41
0.0
 71
     5
 72
     1
  1
B
  7
CONVERTER_2
 11
0.0
 21
1.0
 31
0.0
 73
     1
 44
0.7202881152461
  0
MTEXT
  5
27A
330
1F
100
AcDbEntity
  8
1
 62
     7
100
AcDbMText
 10
242.776194169021
 20
396.2146726862285
 30
0.0
 40
7.0
 41
0.0
 71
     5
 72
     1
  1
シール
  7
CONVERTER_1
 73
     1
 44
0.7202881152461
  0
MTEXT
  5
27B
330
1F
100
AcDbEntity
  8
1
 62
     7
100
AcDbMText
 10
242.776194169021
 20
408.2146726862285
 30
0.0
 40
7.0
 41
0.0
 71
     5
 72
     1
  1
B
  7
CONVERTER_2
 73
     1
 44
0.7202881152461
  0
MTEXT
  5
27C
330
1F
100
AcDbEntity
  8
1
 62
     7
100
AcDbMText
 10
232.2216978285698
 20
436.2146726862285
 30
0.0
 40
7.0
 41
0.0
 71
     5
 72
     1
  1
A
  7
CONVERTER_2
 73
     1
 44
0.7202881152461
  0
MTEXT
  5
27D
330
1F
100
AcDbEntity
  8
1
 62
     7
100
AcDbMText
 10
232.2216978285698
 20
424.2146726862285
 30
0.0
 40
7.0
 41
0.0
 71
     5
 72
     1
  1
シール
  7
CONVERTER_1
 73
     1
 44
0.7202881152461
  0
MTEXT
  5
27E
330
1F
100
AcDbEntity
  8
1
 62
     7
100
AcDbMText
 10
179.5067678453712
 20
436.2146726862285
 30
0.0
 40
7.0
 41
0.0
 71
     5
 72
     1
  1
PJ1/2
  7
CONVERTER_2
 73
     1
 44
0.7202881152461
  0
MTEXT
  5
27F
330
1F
100
AcDbEntity
  8
1
 62
     7
100
AcDbMText
 10
196.2756573020033
 20
312.2146726862289
 30
0.0
 40
7.0
 41
0.0
 71
     5
 72
     1
  1
Rc1/2
  7
CONVERTER_2
 73
     1
 44
0.7202881152461
  0
MTEXT
  5
280
330
1F
100
AcDbEntity
  8
1
 62
     7
100
AcDbMText
 10
108.5842816524468
 20
333.7652370203157
 30
0.0
 40
7.0
 41
0.0
 71
     5
 72
     1
  1
PJ1/2
  7
CONVERTER_2
 73
     1
 44
0.7202881152461
  0
MTEXT
  5
281
330
1F
100
AcDbEntity
  8
1
 62
     7
100
AcDbMText
 10
116.0444609274417
 20
408.2146726862285
 30
0.0
 40
7.0
 41
0.0
 71
     5
 72
     1
  1
B
  7
CONVERTER_2
 73
     1
 44
0.7202881152461
  0
MTEXT
  5
282
330
1F
100
AcDbEntity
  8
1
 62
     7
100
AcDbMText
 10
116.0444609274417
 20
396.2146726862285
 30
0.0
 40
7.0
 41
0.0
 71
     5
 72
     1
  1
シール
  7
CONVERTER_1
 73
     1
 44
0.7202881152461
  0
MTEXT
  5
283
330
1F
100
AcDbEntity
  8
1
 62
     7
100
AcDbMText
 10
124.9557606995866
 20
424.2146726862285
 30
0.0
 40
7.0
 41
0.0
 71
     5
 72
     1
  1
シール
  7
CONVERTER_1
 73
     1
 44
0.7202881152461
  0
MTEXT
  5
284
330
1F
100
AcDbEntity
  8
1
 62
     7
100
AcDbMText
 10
124.9557606995866
 20
436.2146726862285
 30
0.0
 40
7.0
 41
0.0
 71
     5
 72
     1
  1
A
  7
CONVERTER_2
 73
     1
 44
0.7202881152461
  0
MTEXT
  5
285
330
1F
100
AcDbEntity
  8
1
 62
     7
100
AcDbMText
 10
114.0
 20
24.5
 30
0.0
 40
7.0
 41
0.0
 71
     5
 72
     1
  1
-X3-13-色
  7
CONVERTER_1
 73
     1
 44
0.7202881152461
  0
MTEXT
  5
286
330
1F
100
AcDbEntity
  8
1
 62
     7
100
AcDbMText
 10
114.0
 20
45.50000000000001
 30
0.0
 40
7.0
 41
0.0
 71
     5
 72
     1
  1
分岐止水栓本体
  7
CONVERTER_1
 73
     1
 44
0.7202881152461
  0
MTEXT
  5
287
330
1F
100
AcDbEntity
  8
1
 62
     7
100
AcDbMText
 10
68.0
 20
61.00000000000001
 30
0.0
 40
7.0
 41
0.0
 71
     4
 72
     1
  1
共用形
  7
CONVERTER_1
 73
     1
 44
0.7202881152461
  0
DIMENSION
  5
292
330
1F
100
AcDbEntity
  8
1
100
AcDbDimension
  2
*D09
 10
250.8224604966083
 20
295.5146726862311
 30
0.0
 11
245.3224604966083
 21
262.6146726862308
 31
0.0
  1
65リフト4
 71
     5
 42
0.0
 53
90.0
  3
ME10_DIM_0
100
AcDbAlignedDimension
 13
214.8224604966083
 23
233.4646726862548
 33
0.0
 14
162.3224604966083
 24
295.5146726862311
 34
0.0
 50
90.0
100
AcDbRotatedDimension
  0
DIMENSION
  5
29D
330
1F
100
AcDbEntity
  8
1
100
AcDbDimension
  2
*D110
 10
360.5896162528179
 20
326.2146726862286
 30
0.0
 11
355.0896162528179
 21
342.9646726862293
 31
0.0
  1
34
 71
     5
 42
0.0
 53
90.0
  3
ME10_DIM_1
100
AcDbAlignedDimension
 13
343.3896162528176
 23
359.71467268623
 33
0.0
 14
322.3896162528179
 24
326.2146726862286
 34
0.0
 50
90.0
100
AcDbRotatedDimension
  0
DIMENSION
  5
2A8
330
1F
100
AcDbEntity
  8
1
100
AcDbDimension
  2
*D211
 10
360.5896162528179
 20
359.7146726862301
 30
0.0
 11
355.0896162528179
 21
378.964672686222
 31
0.0
  1
39
 71
     5
 42
0.0
 53
90.0
  3
ME10_DIM_2
100
AcDbAlignedDimension
 13
331.7096162528183
 23
398.214672686214
 33
0.0
 14
343.3896162528176
 24
359.71467268623
 34
0.0
 50
90.0
100
AcDbRotatedDimension
  0
DIMENSION
  5
2B5
330
1F
100
AcDbEntity
  8
1
100
AcDbDimension
  2
*D312
 10
234.8224604966083
 20
228.8146726862547
 30
0.0
 11
228.9724604966083
 21
241.549288741307
 31
0.0
 70
     1
  1
<>
 71
     5
 42
0.0
 53
90.0
  3
ME10_DIM_3
100
AcDbAlignedDimension
 13
214.822460496609
 23
230.6146726862549
 33
0.0
 14
214.822460496609
 24
228.8146726862547
 34
0.0
  0
DIMENSION
  5
2C3
330
1F
100
AcDbEntity
  8
1
100
AcDbDimension
  2
*D413
 10
250.8224604966083
 20
211.5146726862299
 30
0.0
 11
245.3224604966083
 21
197.650470206873
 31
0.0
  1
18
 71
     5
 42
0.0
 53
90.0
  3
ME10_DIM_4
100
AcDbAlignedDimension
 13
217.8224604966083
 23
229.7146726862301
 33
0.0
 14
162.3224604966083
 24
211.5146726862299
 34
0.0
 50
90.0
100
AcDbRotatedDimension
  0
DIMENSION
  5
2CE
330
1F
100
AcDbEntity
  8
1
100
AcDbDimension
  2
*D515
 10
162.3224604966083
 20
191.5146726862299
 30
0.0
 11
188.5724604966083
 21
197.0146726862299
 31
0.0
  1
53リフト4
 71
     5
 42
0.0
 53
0.00013888888889
  3
ME10_DIM_5
100
AcDbAlignedDimension
 13
214.822460496609
 23
228.8146726862547
 33
0.0
 14
162.3224604966083
 24
211.5146726862299
 34
0.0
100
AcDbRotatedDimension
  0
DIMENSION
  5
2D9
330
1F
100
AcDbEntity
  8
1
100
AcDbDimension
  2
*D616
 10
128.3224604966243
 20
191.5146726862299
 30
0.0
 11
145.3224604966163
 21
197.0146726862299
 31
0.0
  1
<>
 71
     5
 42
0.0
 53
0.00013888888889
  3
ME10_DIM_6
100
AcDbAlignedDimension
 13
162.3224604966083
 23
211.5146726862299
 33
0.0
 14
128.3224604966242
 24
220.3946726862302
 34
0.0
100
AcDbRotatedDimension
  0
ENDSEC
  0
SECTION
  2
OBJECTS
  0
DICTIONARY
  5
C
330
0
100
AcDbDictionary
281
     1
  3
ACAD_GROUP
350
D
  3
ACAD_LAYOUT
350
1A
  3
ACAD_MLINESTYLE
350
17
  3
ACAD_PLOTSETTINGS
350
19
  3
ACAD_PLOTSTYLENAME
350
E
  3
ACAD_TABLESTYLE
350
2A
  3
AcDbVariableDictionary
350
2C
  0
DICTIONARY
  5
D
102
{ACAD_REACTORS
330
C
102
}
330
C
100
AcDbDictionary
281
     1
  0
DICTIONARY
  5
1A
102
{ACAD_REACTORS
330
C
102
}
330
C
100
AcDbDictionary
281
     1
  3
Layout1
350
1E
  3
Layout2
350
26
  3
Model
350
22
  0
DICTIONARY
  5
17
102
{ACAD_REACTORS
330
C
102
}
330
C
100
AcDbDictionary
281
     1
  3
Standard
350
18
  0
DICTIONARY
  5
19
102
{ACAD_REACTORS
330
C
102
}
330
C
100
AcDbDictionary
281
     1
  0
ACDBDICTIONARYWDFLT
  5
E
102
{ACAD_REACTORS
330
C
102
}
330
C
100
AcDbDictionary
281
     1
  3
Normal
350
F
100
AcDbDictionaryWithDefault
340
F
  0
DICTIONARY
  5
2A
102
{ACAD_REACTORS
330
C
102
}
330
C
100
AcDbDictionary
281
     1
  3
Standard
350
2B
  0
DICTIONARY
  5
2C
102
{ACAD_REACTORS
330
C
102
}
330
C
100
AcDbDictionary
281
     1
  3
CTABLESTYLE
350
2D
  0
LAYOUT
  5
1E
102
{ACAD_REACTORS
330
1A
102
}
330
1A
100
AcDbPlotSettings
  1

  2

  4

  6

 40
0.0
 41
0.0
 42
0.0
 43
0.0
 44
0.0
 45
0.0
 46
0.0
 47
0.0
 48
0.0
 49
0.0
140
0.0
141
0.0
142
1.0
143
1.0
 70
   688
 72
     0
 73
     0
 74
     5
  7

 75
    16
147
1.0
148
0.0
149
0.0
100
AcDbLayout
  1
Layout1
 70
     1
 71
     1
 10
0.0
 20
0.0
 11
12.0
 21
9.0
 12
0.0
 22
0.0
 32
0.0
 14
1.00000000000000E+20
 24
1.00000000000000E+20
 34
1.00000000000000E+20
 15
-1.00000000000000E+20
 25
-1.00000000000000E+20
 35
-1.00000000000000E+20
146
0.0
 13
0.0
 23
0.0
 33
0.0
 16
1.0
 26
0.0
 36
0.0
 17
0.0
 27
1.0
 37
0.0
 76
     0
330
1B
  0
LAYOUT
  5
26
102
{ACAD_REACTORS
330
1A
102
}
330
1A
100
AcDbPlotSettings
  1

  2

  4

  6

 40
0.0
 41
0.0
 42
0.0
 43
0.0
 44
0.0
 45
0.0
 46
0.0
 47
0.0
 48
0.0
 49
0.0
140
0.0
141
0.0
142
1.0
143
1.0
 70
   688
 72
     0
 73
     0
 74
     5
  7

 75
    16
147
1.0
148
0.0
149
0.0
100
AcDbLayout
  1
Layout2
 70
     1
 71
     2
 10
0.0
 20
0.0
 11
0.0
 21
0.0
 12
0.0
 22
0.0
 32
0.0
 14
0.0
 24
0.0
 34
0.0
 15
0.0
 25
0.0
 35
0.0
146
0.0
 13
0.0
 23
0.0
 33
0.0
 16
1.0
 26
0.0
 36
0.0
 17
0.0
 27
1.0
 37
0.0
 76
     0
330
23
  0
LAYOUT
  5
22
102
{ACAD_REACTORS
330
1A
102
}
330
1A
100
AcDbPlotSettings
  1

  2

  4

  6

 40
0.0
 41
0.0
 42
0.0
 43
0.0
 44
0.0
 45
0.0
 46
0.0
 47
0.0
 48
0.0
 49
0.0
140
0.0
141
0.0
142
1.0
143
1.0
 70
  1712
 72
     0
 73
     0
 74
     0
  7

 75
     0
147
1.0
148
0.0
149
0.0
100
AcDbLayout
  1
Model
 70
     1
 71
     0
 10
0.0
 20
0.0
 11
0.0
 21
0.0
 12
0.0
 22
0.0
 32
0.0
 14
0.0
 24
0.0
 34
0.0
 15
420.0
 25
594.0
 35
0.0
146
0.0
 13
0.0
 23
0.0
 33
0.0
 16
1.0
 26
0.0
 36
0.0
 17
0.0
 27
1.0
 37
0.0
 76
     0
330
1F
  0
MLINESTYLE
  5
18
102
{ACAD_REACTORS
330
17
102
}
330
17
100
AcDbMlineStyle
  2
Standard
 70
     0
  3

 62
   256
 51
90.0
 52
90.0
 71
     2
 49
0.5
 62
   256
  6
BYLAYER
 49
-0.5
 62
   256
  6
BYLAYER
  0
ACDBPLACEHOLDER
  5
F
102
{ACAD_REACTORS
330
E
102
}
330
E
  0
TABLESTYLE
  5
2B
102
{ACAD_REACTORS
330
2A
102
}
330
2A
100
AcDbTableStyle
  3
Standard
 70
     0
 71
     0
 40
0.06
 41
0.06
280
     0
281
     0
  7
Standard
140
0.18
170
     2
 62
     0
 63
     7
283
     0
274
    -2
284
     1
 64
     0
275
    -2
285
     1
 65
     0
276
    -2
286
     1
 66
     0
277
    -2
287
     1
 67
     0
278
    -2
288
     1
 68
     0
279
    -2
289
     1
 69
     0
  7
Standard
140
0.25
170
     5
 62
     0
 63
     7
283
     0
274
    -2
284
     1
 64
     0
275
    -2
285
     1
 65
     0
276
    -2
286
     1
 66
     0
277
    -2
287
     1
 67
     0
278
    -2
288
     1
 68
     0
279
    -2
289
     1
 69
     0
  7
Standard
140
0.18
170
     5
 62
     0
 63
     7
283
     0
274
    -2
284
     1
 64
     0
275
    -2
285
     1
 65
     0
276
    -2
286
     1
 66
     0
277
    -2
287
     1
 67
     0
278
    -2
288
     1
 68
     0
279
    -2
289
     1
 69
     0
  0
DICTIONARYVAR
  5
2D
102
{ACAD_REACTORS
330
2C
102
}
330
2C
100
DictionaryVariables
280
     0
  1
Standard
  0
ENDSEC
  0
EOF
