  0
SECTION
  2
HEADER
  9
$ACADVER
  1
AC1015
  9
$ACADMAINTVER
 70
     6
  9
$DWGCODEPAGE
  3
DOS932
  9
$INSBASE
 10
0.0
 20
0.0
 30
0.0
  9
$EXTMIN
 10
0.0
 20
0.0
 30
0.0
  9
$EXTMAX
 10
420.0
 20
594.0
 30
0.0
  9
$LIMMIN
 10
0.0
 20
0.0
  9
$LIMMAX
 10
12.0
 20
9.0
  9
$ORTHOMODE
 70
     0
  9
$REGENMODE
 70
     1
  9
$FILLMODE
 70
     1
  9
$QTEXTMODE
 70
     0
  9
$MIRRTEXT
 70
     1
  9
$LTSCALE
 40
1.0
  9
$ATTMODE
 70
     1
  9
$TEXTSIZE
 40
0.2
  9
$TRACEWID
 40
0.05
  9
$TEXTSTYLE
  7
Standard
  9
$CLAYER
  8
0
  9
$CELTYPE
  6
ByLayer
  9
$CECOLOR
 62
   256
  9
$CELTSCALE
 40
1.0
  9
$DISPSILH
 70
     0
  9
$DIMSCALE
 40
1.0
  9
$DIMASZ
 40
0.18
  9
$DIMEXO
 40
0.0625
  9
$DIMDLI
 40
0.38
  9
$DIMRND
 40
0.0
  9
$DIMDLE
 40
0.0
  9
$DIMEXE
 40
0.18
  9
$DIMTP
 40
0.0
  9
$DIMTM
 40
0.0
  9
$DIMTXT
 40
0.18
  9
$DIMCEN
 40
0.09
  9
$DIMTSZ
 40
0.0
  9
$DIMTOL
 70
     0
  9
$DIMLIM
 70
     0
  9
$DIMTIH
 70
     1
  9
$DIMTOH
 70
     1
  9
$DIMSE1
 70
     0
  9
$DIMSE2
 70
     0
  9
$DIMTAD
 70
     0
  9
$DIMZIN
 70
     0
  9
$DIMBLK
  1

  9
$DIMASO
 70
     1
  9
$DIMSHO
 70
     1
  9
$DIMPOST
  1

  9
$DIMAPOST
  1

  9
$DIMALT
 70
     0
  9
$DIMALTD
 70
     2
  9
$DIMALTF
 40
25.4
  9
$DIMLFAC
 40
1.0
  9
$DIMTOFL
 70
     0
  9
$DIMTVP
 40
0.0
  9
$DIMTIX
 70
     0
  9
$DIMSOXD
 70
     0
  9
$DIMSAH
 70
     0
  9
$DIMBLK1
  1

  9
$DIMBLK2
  1

  9
$DIMSTYLE
  2
Standard
  9
$DIMCLRD
 70
     0
  9
$DIMCLRE
 70
     0
  9
$DIMCLRT
 70
     0
  9
$DIMTFAC
 40
1.0
  9
$DIMGAP
 40
0.09
  9
$DIMJUST
 70
     0
  9
$DIMSD1
 70
     0
  9
$DIMSD2
 70
     0
  9
$DIMTOLJ
 70
     1
  9
$DIMTZIN
 70
     0
  9
$DIMALTZ
 70
     0
  9
$DIMALTTZ
 70
     0
  9
$DIMUPT
 70
     0
  9
$DIMDEC
 70
     4
  9
$DIMTDEC
 70
     4
  9
$DIMALTU
 70
     2
  9
$DIMALTTD
 70
     2
  9
$DIMTXSTY
  7
Standard
  9
$DIMAUNIT
 70
     0
  9
$DIMADEC
 70
     0
  9
$DIMALTRND
 40
0.0
  9
$DIMAZIN
 70
     0
  9
$DIMDSEP
 70
    46
  9
$DIMATFIT
 70
     3
  9
$DIMFRAC
 70
     0
  9
$DIMLDRBLK
  1

  9
$DIMLUNIT
 70
     2
  9
$DIMLWD
 70
    -2
  9
$DIMLWE
 70
    -2
  9
$DIMTMOVE
 70
     0
  9
$LUNITS
 70
     2
  9
$LUPREC
 70
     4
  9
$SKETCHINC
 40
0.1
  9
$FILLETRAD
 40
0.5
  9
$AUNITS
 70
     0
  9
$AUPREC
 70
     0
  9
$MENU
  1
.
  9
$ELEVATION
 40
0.0
  9
$PELEVATION
 40
0.0
  9
$THICKNESS
 40
0.0
  9
$LIMCHECK
 70
     0
  9
$CHAMFERA
 40
0.5
  9
$CHAMFERB
 40
0.5
  9
$CHAMFERC
 40
1.0
  9
$CHAMFERD
 40
0.0
  9
$SKPOLY
 70
     0
  9
$TDCREATE
 40
2456135.675042674
  9
$TDUCREATE
 40
2456135.300042674
  9
$TDUPDATE
 40
2456135.675042685
  9
$TDUUPDATE
 40
2456135.300042685
  9
$TDINDWG
 40
0.0000000116
  9
$TDUSRTIMER
 40
0.0000000116
  9
$USRTIMER
 70
     1
  9
$ANGBASE
 50
0.0
  9
$ANGDIR
 70
     0
  9
$PDMODE
 70
     0
  9
$PDSIZE
 40
0.0
  9
$PLINEWID
 40
0.0
  9
$SPLFRAME
 70
     0
  9
$SPLINETYPE
 70
     6
  9
$SPLINESEGS
 70
     8
  9
$HANDSEED
  5
31A
  9
$SURFTAB1
 70
     6
  9
$SURFTAB2
 70
     6
  9
$SURFTYPE
 70
     6
  9
$SURFU
 70
     6
  9
$SURFV
 70
     6
  9
$UCSBASE
  2

  9
$UCSNAME
  2

  9
$UCSORG
 10
0.0
 20
0.0
 30
0.0
  9
$UCSXDIR
 10
1.0
 20
0.0
 30
0.0
  9
$UCSYDIR
 10
0.0
 20
1.0
 30
0.0
  9
$UCSORTHOREF
  2

  9
$UCSORTHOVIEW
 70
     0
  9
$UCSORGTOP
 10
0.0
 20
0.0
 30
0.0
  9
$UCSORGBOTTOM
 10
0.0
 20
0.0
 30
0.0
  9
$UCSORGLEFT
 10
0.0
 20
0.0
 30
0.0
  9
$UCSORGRIGHT
 10
0.0
 20
0.0
 30
0.0
  9
$UCSORGFRONT
 10
0.0
 20
0.0
 30
0.0
  9
$UCSORGBACK
 10
0.0
 20
0.0
 30
0.0
  9
$PUCSBASE
  2

  9
$PUCSNAME
  2

  9
$PUCSORG
 10
0.0
 20
0.0
 30
0.0
  9
$PUCSXDIR
 10
1.0
 20
0.0
 30
0.0
  9
$PUCSYDIR
 10
0.0
 20
1.0
 30
0.0
  9
$PUCSORTHOREF
  2

  9
$PUCSORTHOVIEW
 70
     0
  9
$PUCSORGTOP
 10
0.0
 20
0.0
 30
0.0
  9
$PUCSORGBOTTOM
 10
0.0
 20
0.0
 30
0.0
  9
$PUCSORGLEFT
 10
0.0
 20
0.0
 30
0.0
  9
$PUCSORGRIGHT
 10
0.0
 20
0.0
 30
0.0
  9
$PUCSORGFRONT
 10
0.0
 20
0.0
 30
0.0
  9
$PUCSORGBACK
 10
0.0
 20
0.0
 30
0.0
  9
$USERI1
 70
     0
  9
$USERI2
 70
     0
  9
$USERI3
 70
     0
  9
$USERI4
 70
     0
  9
$USERI5
 70
     0
  9
$USERR1
 40
13.2
  9
$USERR2
 40
0.0
  9
$USERR3
 40
0.0
  9
$USERR4
 40
0.0
  9
$USERR5
 40
0.0
  9
$WORLDVIEW
 70
     1
  9
$SHADEDGE
 70
     3
  9
$SHADEDIF
 70
    70
  9
$TILEMODE
 70
     1
  9
$MAXACTVP
 70
    64
  9
$PINSBASE
 10
0.0
 20
0.0
 30
0.0
  9
$PLIMCHECK
 70
     0
  9
$PEXTMIN
 10
1.00000000000000E+20
 20
1.00000000000000E+20
 30
1.00000000000000E+20
  9
$PEXTMAX
 10
-1.00000000000000E+20
 20
-1.00000000000000E+20
 30
-1.00000000000000E+20
  9
$PLIMMIN
 10
0.0
 20
0.0
  9
$PLIMMAX
 10
12.0
 20
9.0
  9
$UNITMODE
 70
     0
  9
$VISRETAIN
 70
     1
  9
$PLINEGEN
 70
     0
  9
$PSLTSCALE
 70
     1
  9
$TREEDEPTH
 70
  3020
  9
$CMLSTYLE
  2
Standard
  9
$CMLJUST
 70
     0
  9
$CMLSCALE
 40
1.0
  9
$PROXYGRAPHICS
 70
     1
  9
$MEASUREMENT
 70
     1
  9
$CELWEIGHT
370
    -1
  9
$ENDCAPS
280
     0
  9
$JOINSTYLE
280
     0
  9
$LWDISPLAY
290
     0
  9
$INSUNITS
 70
     1
  9
$HYPERLINKBASE
  1

  9
$STYLESHEET
  1

  9
$XEDIT
290
     1
  9
$CEPSNTYPE
380
     0
  9
$PSTYLEMODE
290
     0
  9
$FINGERPRINTGUID
  2
{FAEB1C30-E019-11D5-929B-00C0DF256EC4}
  9
$VERSIONGUID
  2
{FAEB1C32-E019-11D5-929B-00C0DF256EC4}
  9
$EXTNAMES
290
     1
  9
$PSVPSCALE
 40
0.0
  9
$OLESTARTUP
290
     0
  0
ENDSEC
  0
SECTION
  2
CLASSES
  0
CLASS
  1
ACDBDICTIONARYWDFLT
  2
AcDbDictionaryWithDefault
  3
ObjectDBX Classes
 90
        0
280
     0
281
     0
  0
CLASS
  1
TABLESTYLE
  2
AcDbTableStyle
  3
ObjectDBX Classes
 90
     2047
280
     0
281
     0
  0
CLASS
  1
DICTIONARYVAR
  2
AcDbDictionaryVar
  3
ObjectDBX Classes
 90
        0
280
     0
281
     0
  0
CLASS
  1

  2
exOdDbCircle
  3

 90
        0
280
     0
281
     1
  0
CLASS
  1

  2
exOdDbSpline
  3

 90
        0
280
     0
281
     1
  0
CLASS
  1
ACDBPLACEHOLDER
  2
AcDbPlaceHolder
  3
ObjectDBX Classes
 90
        0
280
     0
281
     0
  0
CLASS
  1
LAYOUT
  2
AcDbLayout
  3
ObjectDBX Classes
 90
        0
280
     0
281
     0
  0
ENDSEC
  0
SECTION
  2
TABLES
  0
TABLE
  2
VPORT
  5
8
330
0
100
AcDbSymbolTable
 70
     2
  0
VPORT
  5
29
330
8
100
AcDbSymbolTableRecord
100
AcDbViewportTableRecord
  2
*Active
 70
     0
 10
0.0
 20
0.0
 11
1.0
 21
1.0
 12
210.0
 22
297.0
 13
0.0
 23
0.0
 14
0.5
 24
0.5
 15
0.5
 25
0.5
 16
0.0
 26
0.0
 36
1.0
 17
0.0
 27
0.0
 37
0.0
 40
653.4000000000001
 41
1.60267857142857
 42
50.0
 43
0.0
 44
0.0
 50
0.0
 51
0.0
 71
     0
 72
   100
 73
     1
 74
     3
 75
     0
 76
     0
 77
     0
 78
     0
281
     0
 65
     1
110
0.0
120
0.0
130
0.0
111
1.0
121
0.0
131
0.0
112
0.0
122
1.0
132
0.0
 79
     0
146
0.0
  0
ENDTAB
  0
TABLE
  2
LTYPE
  5
5
330
0
100
AcDbSymbolTable
 70
     8
  0
LTYPE
  5
14
330
5
100
AcDbSymbolTableRecord
100
AcDbLinetypeTableRecord
  2
ByBlock
 70
     0
  3

 72
    65
 73
     0
 40
0.0
  0
LTYPE
  5
15
330
5
100
AcDbSymbolTableRecord
100
AcDbLinetypeTableRecord
  2
ByLayer
 70
     0
  3

 72
    65
 73
     0
 40
0.0
  0
LTYPE
  5
16
330
5
100
AcDbSymbolTableRecord
100
AcDbLinetypeTableRecord
  2
Continuous
 70
     0
  3
Solid line
 72
    65
 73
     0
 40
0.0
  0
LTYPE
  5
2E
330
5
100
AcDbSymbolTableRecord
100
AcDbLinetypeTableRecord
  2
DASHED
 70
     0
  3
Dashed
 72
    65
 73
     2
 40
15.0
 49
7.0
 74
     0
 49
-8.0
 74
     0
  0
LTYPE
  5
2F
330
5
100
AcDbSymbolTableRecord
100
AcDbLinetypeTableRecord
  2
DOTTED
 70
     0
  3
Dotted
 72
    65
 73
     2
 40
1.0
 49
0.0
 74
     0
 49
-1.0
 74
     0
  0
LTYPE
  5
30
330
5
100
AcDbSymbolTableRecord
100
AcDbLinetypeTableRecord
  2
DOT_CENTER
 70
     0
  3
Dot_Center
 72
    65
 73
     4
 40
14.0
 49
12.0
 74
     0
 49
-1.0
 74
     0
 49
0.0
 74
     0
 49
-1.0
 74
     0
  0
LTYPE
  5
31
330
5
100
AcDbSymbolTableRecord
100
AcDbLinetypeTableRecord
  2
LONG_DASHED
 70
     0
  3
Long_Dashed
 72
    65
 73
     2
 40
15.0
 49
10.0
 74
     0
 49
-5.0
 74
     0
  0
LTYPE
  5
32
330
5
100
AcDbSymbolTableRecord
100
AcDbLinetypeTableRecord
  2
DASH_CENTER
 70
     0
  3
Dash_Center
 72
    65
 73
     4
 40
14.0
 49
11.0
 74
     0
 49
-1.0
 74
     0
 49
1.0
 74
     0
 49
-1.0
 74
     0
  0
LTYPE
  5
33
330
5
100
AcDbSymbolTableRecord
100
AcDbLinetypeTableRecord
  2
PHANTOM
 70
     0
  3
Phantom
 72
    65
 73
     6
 40
13.0
 49
10.0
 74
     0
 49
-1.0
 74
     0
 49
0.0
 74
     0
 49
-1.0
 74
     0
 49
0.0
 74
     0
 49
-1.0
 74
     0
  0
LTYPE
  5
34
330
5
100
AcDbSymbolTableRecord
100
AcDbLinetypeTableRecord
  2
CENTER_DASH_DASH
 70
     0
  3
Center_Dash_Dash
 72
    65
 73
     6
 40
14.0
 49
9.0
 74
     0
 49
-1.0
 74
     0
 49
1.0
 74
     0
 49
-1.0
 74
     0
 49
1.0
 74
     0
 49
-1.0
 74
     0
  0
ENDTAB
  0
TABLE
  2
LAYER
  5
2
330
0
100
AcDbSymbolTable
 70
     2
  0
LAYER
  5
10
330
2
100
AcDbSymbolTableRecord
100
AcDbLayerTableRecord
  2
0
 70
     0
 62
     7
  6
Continuous
370
    -3
390
F
  0
LAYER
  5
35
330
2
100
AcDbSymbolTableRecord
100
AcDbLayerTableRecord
  2
1
 70
     0
 62
     7
  6
Continuous
370
    -3
390
F
  0
ENDTAB
  0
TABLE
  2
STYLE
  5
3
330
0
100
AcDbSymbolTable
 70
     3
  0
STYLE
  5
11
330
3
100
AcDbSymbolTableRecord
100
AcDbTextStyleTableRecord
  2
Standard
 70
     0
 40
0.0
 41
1.0
 50
0.0
 71
     0
 42
0.2
  3
txt
  4

  0
STYLE
  5
1AE
330
3
100
AcDbSymbolTableRecord
100
AcDbTextStyleTableRecord
  2
CONVERTER_1
 70
     0
 40
0.0
 41
0.89
 50
0.0
 71
     0
 42
0.2
  3
msmincho.ttc
  4

1001
ACAD
1000
MS Mincho
1071
    32785
  0
STYLE
  5
29E
330
3
100
AcDbSymbolTableRecord
100
AcDbTextStyleTableRecord
  2
CONVERTER_2
 70
     0
 40
0.0
 41
0.9
 50
0.0
 71
     0
 42
0.2
  3
txt.shx
  4

  0
ENDTAB
  0
TABLE
  2
VIEW
  5
6
330
0
100
AcDbSymbolTable
 70
     0
  0
ENDTAB
  0
TABLE
  2
UCS
  5
7
330
0
100
AcDbSymbolTable
 70
     0
  0
ENDTAB
  0
TABLE
  2
APPID
  5
9
330
0
100
AcDbSymbolTable
 70
     1
  0
APPID
  5
12
330
9
100
AcDbSymbolTableRecord
100
AcDbRegAppTableRecord
  2
ACAD
 70
     0
  0
ENDTAB
  0
TABLE
  2
DIMSTYLE
  5
A
330
0
100
AcDbSymbolTable
 70
    10
100
AcDbDimStyleTable
  0
DIMSTYLE
105
27
330
A
100
AcDbSymbolTableRecord
100
AcDbDimStyleTableRecord
  2
Standard
 70
     0
340
11
  0
DIMSTYLE
105
2BB
102
{ACAD_REACTORS
330
2BC
102
}
330
A
100
AcDbSymbolTableRecord
100
AcDbDimStyleTableRecord
  2
ME10_DIM_0
 70
     0
 41
7.0
 42
0.0
 44
2.0
 73
     0
 74
     0
 77
     1
 78
     8
140
7.0
147
0.625
172
     1
173
     1
176
     2
177
     2
178
     7
271
     2
340
1AE
  0
DIMSTYLE
105
2C6
102
{ACAD_REACTORS
330
2C7
102
}
330
A
100
AcDbSymbolTableRecord
100
AcDbDimStyleTableRecord
  2
ME10_DIM_1
 70
     0
 41
7.0
 42
0.0
 44
2.0
 73
     0
 74
     0
 77
     1
 78
     8
140
7.0
147
0.625
172
     1
173
     1
176
     2
177
     2
178
     7
271
     2
340
1AE
  0
DIMSTYLE
105
2D1
102
{ACAD_REACTORS
330
2D2
102
}
330
A
100
AcDbSymbolTableRecord
100
AcDbDimStyleTableRecord
  2
ME10_DIM_2
 70
     0
 41
7.0
 42
0.0
 44
2.0
 73
     0
 74
     0
 77
     1
 78
     8
140
7.0
147
0.625
172
     1
173
     1
176
     2
177
     2
178
     7
271
     2
340
29E
  0
DIMSTYLE
105
2DC
102
{ACAD_REACTORS
330
2DD
102
}
330
A
100
AcDbSymbolTableRecord
100
AcDbDimStyleTableRecord
  2
ME10_DIM_3
 70
     0
 41
7.0
 42
0.0
 44
2.0
 73
     0
 74
     0
 77
     1
 78
     8
140
7.0
147
0.625
172
     1
173
     1
176
     2
177
     2
178
     7
271
     2
340
29E
  0
DIMSTYLE
105
2E7
102
{ACAD_REACTORS
330
2E8
102
}
330
A
100
AcDbSymbolTableRecord
100
AcDbDimStyleTableRecord
  2
ME10_DIM_4
 70
     0
 41
7.0
 42
0.0
 44
2.0
 73
     0
 74
     0
 77
     1
 78
     8
140
7.0
147
0.625
172
     1
173
     1
176
     2
177
     2
178
     7
271
     2
340
29E
  0
DIMSTYLE
105
2F2
102
{ACAD_REACTORS
330
2F3
102
}
330
A
100
AcDbSymbolTableRecord
100
AcDbDimStyleTableRecord
  2
ME10_DIM_5
 70
     0
 41
7.0
 42
0.0
 44
2.0
 73
     0
 74
     0
 77
     1
 78
     8
140
7.0
147
0.625
172
     1
173
     1
176
     2
177
     2
178
     7
271
     2
340
29E
  0
DIMSTYLE
105
300
102
{ACAD_REACTORS
330
301
102
}
330
A
100
AcDbSymbolTableRecord
100
AcDbDimStyleTableRecord
  2
ME10_DIM_6
 70
     0
 41
7.0
 42
0.0
 44
2.0
 73
     0
 74
     0
 77
     1
 78
     8
140
7.0
147
0.625
172
     1
173
     1
176
     2
177
     2
178
     7
271
     2
340
29E
343
2FD
  0
DIMSTYLE
105
30B
102
{ACAD_REACTORS
330
30C
102
}
330
A
100
AcDbSymbolTableRecord
100
AcDbDimStyleTableRecord
  2
ME10_DIM_7
 70
     0
  3
{\Fgdt;n}<>
 41
7.0
 42
0.0
 44
2.0
 73
     0
 74
     0
 77
     1
 78
     8
140
7.0
147
0.625
172
     1
173
     1
176
     2
177
     2
178
     7
271
     2
340
29E
  0
DIMSTYLE
105
318
102
{ACAD_REACTORS
330
319
102
}
330
A
100
AcDbSymbolTableRecord
100
AcDbDimStyleTableRecord
  2
ME10_DIM_8
 70
     0
 41
7.0
 42
0.0
 44
2.0
 73
     0
 74
     0
 77
     1
 78
     8
140
7.0
147
0.625
172
     1
173
     1
176
     2
177
     2
178
     7
271
     2
340
29E
  0
ENDTAB
  0
TABLE
  2
BLOCK_RECORD
  5
1
330
0
100
AcDbSymbolTable
 70
    21
  0
BLOCK_RECORD
  5
1F
330
1
100
AcDbSymbolTableRecord
100
AcDbBlockTableRecord
  2
*Model_Space
340
22
  0
BLOCK_RECORD
  5
1B
330
1
100
AcDbSymbolTableRecord
100
AcDbBlockTableRecord
  2
*Paper_Space
340
1E
  0
BLOCK_RECORD
  5
23
330
1
100
AcDbSymbolTableRecord
100
AcDbBlockTableRecord
  2
*Paper_Space0
340
26
  0
BLOCK_RECORD
  5
36
330
1
100
AcDbSymbolTableRecord
100
AcDbBlockTableRecord
  2
36-45A-M11
340
0
102
{BLKREFS
331
54
102
}
  0
BLOCK_RECORD
  5
39
330
1
100
AcDbSymbolTableRecord
100
AcDbBlockTableRecord
  2
64-7-75
340
0
102
{BLKREFS
331
55
102
}
  0
BLOCK_RECORD
  5
3C
330
1
100
AcDbSymbolTableRecord
100
AcDbBlockTableRecord
  2
51-1
340
0
102
{BLKREFS
331
56
102
}
  0
BLOCK_RECORD
  5
3F
330
1
100
AcDbSymbolTableRecord
100
AcDbBlockTableRecord
  2
36-54-M11
340
0
102
{BLKREFS
331
57
102
}
  0
BLOCK_RECORD
  5
42
330
1
100
AcDbSymbolTableRecord
100
AcDbBlockTableRecord
  2
42-15
340
0
102
{BLKREFS
331
58
102
}
  0
BLOCK_RECORD
  5
45
330
1
100
AcDbSymbolTableRecord
100
AcDbBlockTableRecord
  2
37-1-13__1
340
0
102
{BLKREFS
331
59
102
}
  0
BLOCK_RECORD
  5
48
330
1
100
AcDbSymbolTableRecord
100
AcDbBlockTableRecord
  2
37-1-13__2
340
0
102
{BLKREFS
331
5A
102
}
  0
BLOCK_RECORD
  5
4B
330
1
100
AcDbSymbolTableRecord
100
AcDbBlockTableRecord
  2
_J__A4
340
0
102
{BLKREFS
331
5B
102
}
  0
BLOCK_RECORD
  5
4E
330
1
100
AcDbSymbolTableRecord
100
AcDbBlockTableRecord
  2
V2220R-0A-13-M1
340
0
102
{BLKREFS
331
5C
102
}
  0
BLOCK_RECORD
  5
51
330
1
100
AcDbSymbolTableRecord
100
AcDbBlockTableRecord
  2
78-167
340
0
102
{BLKREFS
331
5D
102
}
  0
BLOCK_RECORD
  5
2B2
330
1
100
AcDbSymbolTableRecord
100
AcDbBlockTableRecord
  2
*D011
340
0
  0
BLOCK_RECORD
  5
2BD
330
1
100
AcDbSymbolTableRecord
100
AcDbBlockTableRecord
  2
*D112
340
0
  0
BLOCK_RECORD
  5
2C8
330
1
100
AcDbSymbolTableRecord
100
AcDbBlockTableRecord
  2
*D213
340
0
  0
BLOCK_RECORD
  5
2D3
330
1
100
AcDbSymbolTableRecord
100
AcDbBlockTableRecord
  2
*D314
340
0
  0
BLOCK_RECORD
  5
2DE
330
1
100
AcDbSymbolTableRecord
100
AcDbBlockTableRecord
  2
*D415
340
0
  0
BLOCK_RECORD
  5
2E9
330
1
100
AcDbSymbolTableRecord
100
AcDbBlockTableRecord
  2
*D516
340
0
  0
BLOCK_RECORD
  5
2F4
330
1
100
AcDbSymbolTableRecord
100
AcDbBlockTableRecord
  2
*D617
340
0
  0
BLOCK_RECORD
  5
2FD
330
1
100
AcDbSymbolTableRecord
100
AcDbBlockTableRecord
  2
_None
340
0
  0
BLOCK_RECORD
  5
302
330
1
100
AcDbSymbolTableRecord
100
AcDbBlockTableRecord
  2
*D719
340
0
  0
BLOCK_RECORD
  5
30D
330
1
100
AcDbSymbolTableRecord
100
AcDbBlockTableRecord
  2
*D820
340
0
  0
ENDTAB
  0
ENDSEC
  0
SECTION
  2
BLOCKS
  0
BLOCK
  5
20
330
1F
100
AcDbEntity
  8
0
100
AcDbBlockBegin
  2
*Model_Space
 70
     0
 71
     0
 10
0.0
 20
0.0
 30
0.0
  3
*Model_Space
  1

  0
ENDBLK
  5
21
330
1F
100
AcDbEntity
  8
0
100
AcDbBlockEnd
  0
BLOCK
  5
1C
330
1B
100
AcDbEntity
 67
     1
  8
0
100
AcDbBlockBegin
  2
*Paper_Space
 70
     0
 71
     0
 10
0.0
 20
0.0
 30
0.0
  3
*Paper_Space
  1

  0
ENDBLK
  5
1D
330
1B
100
AcDbEntity
 67
     1
  8
0
100
AcDbBlockEnd
  0
BLOCK
  5
24
330
23
100
AcDbEntity
  8
0
100
AcDbBlockBegin
  2
*Paper_Space0
 70
     0
 71
     0
 10
0.0
 20
0.0
 30
0.0
  3
*Paper_Space0
  1

  0
ENDBLK
  5
25
330
23
100
AcDbEntity
  8
0
100
AcDbBlockEnd
  0
BLOCK
  5
37
330
36
100
AcDbEntity
  8
0
100
AcDbBlockBegin
  2
36-45A-M11
 70
     0
 71
     0
 10
295.1915980634014
 20
754.3034471138585
 30
0.0
  3
36-45A-M11
  1

  0
LINE
  5
5E
330
36
100
AcDbEntity
  8
1
  6
Continuous
 62
     7
100
AcDbLine
 10
261.6395143636705
 20
356.5286515676875
 30
0.0
 11
262.6395143636705
 21
355.5286515676875
 31
0.0
  0
LINE
  5
5F
330
36
100
AcDbEntity
  8
1
  6
Continuous
 62
     7
100
AcDbLine
 10
270.1395143636705
 20
355.5286515676875
 30
0.0
 11
262.6395143636705
 21
355.5286515676875
 31
0.0
  0
LINE
  5
60
330
36
100
AcDbEntity
  8
1
  6
Continuous
 62
     7
100
AcDbLine
 10
270.1395143636705
 20
355.5286515676875
 30
0.0
 11
271.1395143636705
 21
356.5286515676875
 31
0.0
  0
LINE
  5
61
330
36
100
AcDbEntity
  8
1
  6
Continuous
 62
     7
100
AcDbLine
 10
271.1395143636705
 20
356.5286515676875
 30
0.0
 11
271.1395143636705
 21
360.0286515676875
 31
0.0
  0
LINE
  5
62
330
36
100
AcDbEntity
  8
1
  6
Continuous
 62
     7
100
AcDbLine
 10
261.6395143636705
 20
360.0286515676875
 30
0.0
 11
261.6395143636705
 21
356.5286515676875
 31
0.0
  0
LINE
  5
63
330
36
100
AcDbEntity
  8
1
  6
Continuous
 62
     7
100
AcDbLine
 10
271.1395143636705
 20
356.5286515676875
 30
0.0
 11
261.6395143636705
 21
356.5286515676875
 31
0.0
  0
LINE
  5
64
330
36
100
AcDbEntity
  8
1
  6
Continuous
 62
     7
100
AcDbLine
 10
122.3708030687402
 20
356.5288489198616
 30
0.0
 11
118.5208030687403
 21
356.5288489198616
 31
0.0
  0
LINE
  5
65
330
36
100
AcDbEntity
  8
1
  6
Continuous
 62
     7
100
AcDbLine
 10
112.8708030687402
 20
356.5288489198616
 30
0.0
 11
116.7208030687401
 21
356.5288489198616
 31
0.0
  0
LINE
  5
66
330
36
100
AcDbEntity
  8
1
  6
Continuous
 62
     7
100
AcDbLine
 10
116.7208030687401
 20
358.5286515676875
 30
0.0
 11
118.5208030687403
 21
358.5286515676875
 31
0.0
  0
LINE
  5
67
330
36
100
AcDbEntity
  8
1
  6
Continuous
 62
     7
100
AcDbLine
 10
121.3708030687402
 20
355.5288489198616
 30
0.0
 11
118.5208030687403
 21
355.5288489198616
 31
0.0
  0
LINE
  5
68
330
36
100
AcDbEntity
  8
1
  6
Continuous
 62
     7
100
AcDbLine
 10
121.3708030687402
 20
355.5288489198616
 30
0.0
 11
122.3708030687402
 21
356.5288489198616
 31
0.0
  0
LINE
  5
69
330
36
100
AcDbEntity
  8
1
  6
Continuous
 62
     7
100
AcDbLine
 10
116.7208030687401
 20
358.5286515676875
 30
0.0
 11
116.7208030687401
 21
355.5288489198616
 31
0.0
  0
LINE
  5
6A
330
36
100
AcDbEntity
  8
1
  6
Continuous
 62
     7
100
AcDbLine
 10
116.7208030687401
 20
355.5288489198616
 30
0.0
 11
113.8708030687402
 21
355.5288489198616
 31
0.0
  0
LINE
  5
6B
330
36
100
AcDbEntity
  8
1
  6
Continuous
 62
     7
100
AcDbLine
 10
112.8708030687402
 20
356.5288489198616
 30
0.0
 11
113.8708030687402
 21
355.5288489198616
 31
0.0
  0
LINE
  5
6C
330
36
100
AcDbEntity
  8
1
  6
Continuous
 62
     7
100
AcDbLine
 10
112.8708030687402
 20
360.0288489198616
 30
0.0
 11
112.8708030687402
 21
356.5288489198616
 31
0.0
  0
LINE
  5
6D
330
36
100
AcDbEntity
  8
1
  6
Continuous
 62
     7
100
AcDbLine
 10
118.5208030687403
 20
355.5288489198616
 30
0.0
 11
118.5208030687403
 21
358.5286515676875
 31
0.0
  0
LINE
  5
6E
330
36
100
AcDbEntity
  8
1
  6
Continuous
 62
     7
100
AcDbLine
 10
122.3708030687402
 20
356.5288489198616
 30
0.0
 11
122.3708030687402
 21
360.0288489198616
 31
0.0
  0
LINE
  5
6F
330
36
100
AcDbEntity
  8
1
  6
Continuous
 62
     7
100
AcDbLine
 10
261.7255568167182
 20
241.0114791127866
 30
0.0
 11
262.2062142310244
 21
241.0114791127866
 31
0.0
  0
LINE
  5
70
330
36
100
AcDbEntity
  8
1
  6
Continuous
 62
     7
100
AcDbLine
 10
261.7255568167182
 20
242.8114791127866
 30
0.0
 11
262.2062142310244
 21
242.8114791127866
 31
0.0
  0
LINE
  5
71
330
36
100
AcDbEntity
  8
1
  6
Continuous
 62
     7
100
AcDbLine
 10
262.2062142310244
 20
241.0114791127866
 30
0.0
 11
270.5728144963652
 21
241.0114791127866
 31
0.0
  0
LINE
  5
72
330
36
100
AcDbEntity
  8
1
  6
Continuous
 62
     7
100
AcDbLine
 10
270.5728144963652
 20
241.0114791127866
 30
0.0
 11
271.0534719106715
 21
241.0114791127866
 31
0.0
  0
LINE
  5
73
330
36
100
AcDbEntity
  8
1
  6
Continuous
 62
     7
100
AcDbLine
 10
262.2062142310244
 20
242.8114791127866
 30
0.0
 11
270.5728144963652
 21
242.8114791127866
 31
0.0
  0
LINE
  5
74
330
36
100
AcDbEntity
  8
1
  6
Continuous
 62
     7
100
AcDbLine
 10
270.5728144963652
 20
242.8114791127866
 30
0.0
 11
271.0534719106715
 21
242.8114791127866
 31
0.0
  0
LINE
  5
75
330
36
100
AcDbEntity
  8
1
  6
PHANTOM
 62
     4
100
AcDbLine
 10
266.3895143636948
 20
229.4114791127865
 30
0.0
 11
266.3895143636948
 21
254.4114791127865
 31
0.0
  0
LINE
  5
76
330
36
100
AcDbEntity
  8
1
  6
PHANTOM
 62
     4
100
AcDbLine
 10
253.8895143636948
 20
241.9114791127865
 30
0.0
 11
278.8895143636948
 21
241.9114791127865
 31
0.0
  0
ARC
  5
77
330
36
100
AcDbEntity
  8
1
  6
Continuous
 62
     7
100
AcDbCircle
 10
266.3895143636948
 20
241.9114791127865
 30
0.0
 40
4.749999999999966
100
AcDbArc
 50
9.08472028739114
 51
170.9152797126089
  0
ARC
  5
78
330
36
100
AcDbEntity
  8
1
  6
Continuous
 62
     7
100
AcDbCircle
 10
266.3895143636948
 20
241.9114791127865
 30
0.0
 40
4.250000000000115
100
AcDbArc
 50
12.2257885931584
 51
167.7742114068415
  0
ARC
  5
79
330
36
100
AcDbEntity
  8
1
  6
Continuous
 62
     7
100
AcDbCircle
 10
266.3895143636948
 20
241.9114791127865
 30
0.0
 40
4.250000000000023
100
AcDbArc
 50
-167.7742114068437
 51
-12.22578859315615
  0
ARC
  5
7A
330
36
100
AcDbEntity
  8
1
  6
Continuous
 62
     7
100
AcDbCircle
 10
266.3895143636948
 20
241.9114791127865
 30
0.0
 40
4.749999999999966
100
AcDbArc
 50
-170.9152797126089
 51
-9.08472028739114
  0
ARC
  5
7B
330
36
100
AcDbEntity
  8
1
  6
Continuous
 62
     7
100
AcDbCircle
 10
266.3895143636948
 20
241.9114791127865
 30
0.0
 40
4.749999999999966
100
AcDbArc
 50
170.9152797126089
 51
-170.9152797126089
  0
ARC
  5
7C
330
36
100
AcDbEntity
  8
1
  6
Continuous
 62
     7
100
AcDbCircle
 10
266.3895143636948
 20
241.9114791127865
 30
0.0
 40
4.749999999999966
100
AcDbArc
 50
-9.08472028739114
 51
9.08472028739114
  0
ENDBLK
  5
38
330
36
100
AcDbEntity
  8
0
100
AcDbBlockEnd
  0
BLOCK
  5
3A
330
39
100
AcDbEntity
  8
0
100
AcDbBlockBegin
  2
64-7-75
 70
     0
 71
     0
 10
140.8895143636694
 20
268.0286515676876
 30
0.0
  3
64-7-75
  1

  0
LINE
  5
7D
330
39
100
AcDbEntity
  8
1
  6
Continuous
 62
     7
100
AcDbLine
 10
366.8895143636956
 20
232.8077663377173
 30
0.0
 11
366.8895143636956
 21
232.8094668934983
 31
0.0
  0
LINE
  5
7E
330
39
100
AcDbEntity
  8
1
  6
Continuous
 62
     7
100
AcDbLine
 10
365.7292124343961
 20
231.5829695793353
 30
0.0
 11
353.8895143636958
 21
231.3076270193003
 31
0.0
  0
LINE
  5
7F
330
39
100
AcDbEntity
  8
1
  6
Continuous
 62
     7
100
AcDbLine
 10
366.8895143636956
 20
232.8077663377173
 30
0.0
 11
365.7292124343961
 21
231.5829695793353
 31
0.0
  0
LINE
  5
80
330
39
100
AcDbEntity
  8
1
  6
Continuous
 62
     7
100
AcDbLine
 10
353.8895143636958
 20
231.3076270193003
 30
0.0
 11
352.8895143636718
 21
231.2815212148603
 31
0.0
  0
LINE
  5
81
330
39
100
AcDbEntity
  8
1
  6
Continuous
 62
     2
100
AcDbLine
 10
366.8895143636956
 20
232.8094668934983
 30
0.0
 11
353.8895143636958
 21
232.4700229109283
 31
0.0
  0
LINE
  5
82
330
39
100
AcDbEntity
  8
1
  6
PHANTOM
 62
     4
100
AcDbLine
 10
366.8895143636956
 20
241.9114791127865
 30
0.0
 11
299.8895143636961
 21
241.9114791127865
 31
0.0
  0
LINE
  5
83
330
39
100
AcDbEntity
  8
1
  6
Continuous
 62
     7
100
AcDbLine
 10
306.998190216168
 20
231.2525783398697
 30
0.0
 11
307.4074601355256
 21
231.0162862417574
 31
0.0
  0
LINE
  5
84
330
39
100
AcDbEntity
  8
1
  6
Continuous
 62
     2
100
AcDbLine
 10
304.8895143636958
 20
232.4700229109283
 30
0.0
 11
306.998190216168
 21
231.2525783398697
 31
0.0
  0
LINE
  5
85
330
39
100
AcDbEntity
  8
1
  6
Continuous
 62
     7
100
AcDbLine
 10
306.998190216168
 20
231.2525783398697
 30
0.0
 11
304.8895143636958
 21
231.3076270193003
 31
0.0
  0
LINE
  5
86
330
39
100
AcDbEntity
  8
1
  6
Continuous
 62
     7
100
AcDbLine
 10
304.8895143636958
 20
252.515331206273
 30
0.0
 11
304.8895143636958
 21
231.3076270193003
 31
0.0
  0
LINE
  5
87
330
39
100
AcDbEntity
  8
1
  6
Continuous
 62
     7
100
AcDbLine
 10
366.8895143636956
 20
251.0134913320749
 30
0.0
 11
366.8895143636956
 21
251.015191887856
 31
0.0
  0
LINE
  5
88
330
39
100
AcDbEntity
  8
1
  6
Continuous
 62
     7
100
AcDbLine
 10
366.8895143636956
 20
232.8094668934983
 30
0.0
 11
366.8895143636956
 21
251.0134913320749
 31
0.0
  0
LINE
  5
89
330
39
100
AcDbEntity
  8
1
  6
Continuous
 62
     7
100
AcDbLine
 10
353.8895143636958
 20
252.515331206273
 30
0.0
 11
365.7292124343961
 21
252.2399886462379
 31
0.0
  0
LINE
  5
8A
330
39
100
AcDbEntity
  8
1
  6
Continuous
 62
     7
100
AcDbLine
 10
353.8895143636958
 20
231.3076270193003
 30
0.0
 11
353.8895143636958
 21
252.515331206273
 31
0.0
  0
LINE
  5
8B
330
39
100
AcDbEntity
  8
1
  6
Continuous
 62
     7
100
AcDbLine
 10
365.7292124343961
 20
252.2399886462379
 30
0.0
 11
366.8895143636956
 21
251.015191887856
 31
0.0
  0
LINE
  5
8C
330
39
100
AcDbEntity
  8
1
  6
Continuous
 62
     2
100
AcDbLine
 10
353.8895143636958
 20
251.352935314645
 30
0.0
 11
366.8895143636956
 21
251.0134913320749
 31
0.0
  0
LINE
  5
8D
330
39
100
AcDbEntity
  8
1
  6
Continuous
 62
     2
100
AcDbLine
 10
353.8895143636958
 20
251.352935314645
 30
0.0
 11
352.8895143636718
 21
251.9302855838484
 31
0.0
  0
LINE
  5
8E
330
39
100
AcDbEntity
  8
1
  6
Continuous
 62
     7
100
AcDbLine
 10
307.4074601355256
 20
252.8066719838159
 30
0.0
 11
306.998190216168
 21
252.5703798857035
 31
0.0
  0
LINE
  5
8F
330
39
100
AcDbEntity
  8
1
  6
Continuous
 62
     2
100
AcDbLine
 10
306.998190216168
 20
252.5703798857035
 30
0.0
 11
304.8895143636958
 21
251.352935314645
 31
0.0
  0
LINE
  5
90
330
39
100
AcDbEntity
  8
1
  6
Continuous
 62
     2
100
AcDbLine
 10
299.8895143636961
 20
251.2223799367334
 30
0.0
 11
304.8895143636958
 21
251.352935314645
 31
0.0
  0
LINE
  5
91
330
39
100
AcDbEntity
  8
1
  6
Continuous
 62
     7
100
AcDbLine
 10
304.8895143636958
 20
252.515331206273
 30
0.0
 11
306.998190216168
 21
252.5703798857035
 31
0.0
  0
LINE
  5
92
330
39
100
AcDbEntity
  8
1
  6
Continuous
 62
     7
100
AcDbLine
 10
299.8895143636961
 20
252.3990518221237
 30
0.0
 11
304.8895143636958
 21
252.515331206273
 31
0.0
  0
LINE
  5
93
330
39
100
AcDbEntity
  8
1
  6
Continuous
 62
     7
100
AcDbLine
 10
307.4074601355256
 20
231.0162862417574
 30
0.0
 11
336.8895143636718
 21
231.0162862417574
 31
0.0
  0
LINE
  5
94
330
39
100
AcDbEntity
  8
1
  6
Continuous
 62
     7
100
AcDbLine
 10
304.8895143636958
 20
231.3076270193003
 30
0.0
 11
299.8895143636961
 21
231.4239064034497
 31
0.0
  0
LINE
  5
95
330
39
100
AcDbEntity
  8
1
  6
Continuous
 62
     2
100
AcDbLine
 10
304.8895143636958
 20
232.4700229109283
 30
0.0
 11
299.8895143636961
 21
232.6005782888399
 31
0.0
  0
LINE
  5
96
330
39
100
AcDbEntity
  8
0
  6
Continuous
 62
     7
100
AcDbLine
 10
299.8895143636718
 20
417.3395523916345
 30
0.0
 11
299.8895143636718
 21
417.4701077695459
 31
0.0
  0
LINE
  5
97
330
39
100
AcDbEntity
  8
1
  6
PHANTOM
 62
     4
100
AcDbLine
 10
291.8895143636718
 20
408.0286515676875
 30
0.0
 11
366.8895143636718
 21
408.0286515676875
 31
0.0
  0
LINE
  5
98
330
39
100
AcDbEntity
  8
1
  6
Continuous
 62
     7
100
AcDbLine
 10
304.8895143636718
 20
397.4247994742013
 30
0.0
 11
299.8895143636718
 21
397.5410788583503
 31
0.0
  0
LINE
  5
99
330
39
100
AcDbEntity
  8
1
  6
Continuous
 62
     7
100
AcDbLine
 10
306.998190216144
 20
397.3697507947705
 30
0.0
 11
304.8895143636718
 21
397.4247994742013
 31
0.0
  0
LINE
  5
9A
330
39
100
AcDbEntity
  8
1
  6
Continuous
 62
     2
100
AcDbLine
 10
304.8895143636718
 20
398.5871953658291
 30
0.0
 11
299.8895143636718
 21
398.7177507437407
 31
0.0
  0
LINE
  5
9B
330
39
100
AcDbEntity
  8
1
  6
Continuous
 62
     2
100
AcDbLine
 10
304.8895143636718
 20
398.5871953658291
 30
0.0
 11
306.998190216144
 21
397.3697507947705
 31
0.0
  0
LINE
  5
9C
330
39
100
AcDbEntity
  8
1
  6
Continuous
 62
     7
100
AcDbLine
 10
307.4074601355018
 20
397.1334586966582
 30
0.0
 11
336.8895143636718
 21
397.1334586966582
 31
0.0
  0
LINE
  5
9D
330
39
100
AcDbEntity
  8
1
  6
Continuous
 62
     7
100
AcDbLine
 10
306.998190216144
 20
397.3697507947705
 30
0.0
 11
307.4074601355018
 21
397.1334586966582
 31
0.0
  0
LINE
  5
9E
330
39
100
AcDbEntity
  8
1
  6
Continuous
 62
     2
100
AcDbLine
 10
366.8895143636718
 20
398.9266393483993
 30
0.0
 11
353.8895143636718
 21
398.5871953658291
 31
0.0
  0
LINE
  5
9F
330
39
100
AcDbEntity
  8
1
  6
Continuous
 62
     7
100
AcDbLine
 10
353.8895143636718
 20
397.4247994742013
 30
0.0
 11
352.8895143636718
 21
397.3986936697618
 31
0.0
  0
LINE
  5
A0
330
39
100
AcDbEntity
  8
1
  6
Continuous
 62
     7
100
AcDbLine
 10
366.8895143636718
 20
398.9249387926182
 30
0.0
 11
365.729212434372
 21
397.7001420342361
 31
0.0
  0
LINE
  5
A1
330
39
100
AcDbEntity
  8
1
  6
Continuous
 62
     7
100
AcDbLine
 10
365.729212434372
 20
397.7001420342361
 30
0.0
 11
353.8895143636718
 21
397.4247994742013
 31
0.0
  0
LINE
  5
A2
330
39
100
AcDbEntity
  8
1
  6
Continuous
 62
     7
100
AcDbLine
 10
366.8895143636718
 20
398.9249387926182
 30
0.0
 11
366.8895143636718
 21
417.1323643427568
 31
0.0
  0
LINE
  5
A3
330
39
100
AcDbEntity
  8
1
  6
Continuous
 62
     7
100
AcDbLine
 10
304.8895143636718
 20
418.632503661174
 30
0.0
 11
306.998190216144
 21
418.6875523406044
 31
0.0
  0
LINE
  5
A4
330
39
100
AcDbEntity
  8
1
  6
Continuous
 62
     2
100
AcDbLine
 10
306.998190216144
 20
418.6875523406044
 30
0.0
 11
304.8895143636718
 21
417.4701077695459
 31
0.0
  0
LINE
  5
A5
330
39
100
AcDbEntity
  8
1
  6
Continuous
 62
     7
100
AcDbLine
 10
307.4074601355018
 20
418.9238444387167
 30
0.0
 11
306.998190216144
 21
418.6875523406044
 31
0.0
  0
LINE
  5
A6
330
39
100
AcDbEntity
  8
1
  6
Continuous
 62
     2
100
AcDbLine
 10
353.8895143636718
 20
417.4701077695459
 30
0.0
 11
352.8895143636718
 21
418.0474580387355
 31
0.0
  0
LINE
  5
A7
330
39
100
AcDbEntity
  8
1
  6
Continuous
 62
     2
100
AcDbLine
 10
353.8895143636718
 20
417.4701077695459
 30
0.0
 11
366.8895143636718
 21
417.1306637869757
 31
0.0
  0
LINE
  5
A8
330
39
100
AcDbEntity
  8
1
  6
Continuous
 62
     7
100
AcDbLine
 10
365.729212434372
 20
418.3571611011388
 30
0.0
 11
366.8895143636718
 21
417.1323643427568
 31
0.0
  0
LINE
  5
A9
330
39
100
AcDbEntity
  8
1
  6
Continuous
 62
     7
100
AcDbLine
 10
353.8895143636718
 20
418.632503661174
 30
0.0
 11
365.729212434372
 21
418.3571611011388
 31
0.0
  0
LINE
  5
AA
330
39
100
AcDbEntity
  8
1
  6
Continuous
 62
     7
100
AcDbLine
 10
365.729212434372
 20
418.3571611011388
 30
0.0
 11
365.729212434372
 21
397.7001420342361
 31
0.0
  0
LINE
  5
AB
330
39
100
AcDbEntity
  8
1
  6
Continuous
 62
     7
100
AcDbLine
 10
353.8895143636718
 20
418.632503661174
 30
0.0
 11
353.8895143636718
 21
397.4247994742013
 31
0.0
  0
LINE
  5
AC
330
39
100
AcDbEntity
  8
1
  6
Continuous
 62
     7
100
AcDbLine
 10
304.8895143636718
 20
418.632503661174
 30
0.0
 11
304.8895143636718
 21
397.4247994742013
 31
0.0
  0
LINE
  5
AD
330
39
100
AcDbEntity
  8
1
  6
Continuous
 62
     2
100
AcDbLine
 10
299.8895143636718
 20
417.3395523916345
 30
0.0
 11
304.8895143636718
 21
417.4701077695459
 31
0.0
  0
LINE
  5
AE
330
39
100
AcDbEntity
  8
1
  6
Continuous
 62
     7
100
AcDbLine
 10
299.8895143636718
 20
418.5162242770248
 30
0.0
 11
304.8895143636718
 21
418.632503661174
 31
0.0
  0
LINE
  5
AF
330
39
100
AcDbEntity
  8
1
  6
Continuous
 62
     7
100
AcDbLine
 10
365.7292124343961
 20
231.5829695793353
 30
0.0
 11
365.7292124343961
 21
252.2399886462379
 31
0.0
  0
LINE
  5
B0
330
39
100
AcDbEntity
  8
1
  6
Continuous
 62
     7
100
AcDbLine
 10
336.8895143636718
 20
418.9238444387167
 30
0.0
 11
307.4074601355018
 21
418.9238444387167
 31
0.0
  0
LINE
  5
B1
330
39
100
AcDbEntity
  8
1
  6
Continuous
 62
     7
100
AcDbLine
 10
352.8895143636718
 20
418.6586094656132
 30
0.0
 11
353.8895143636718
 21
418.632503661174
 31
0.0
  0
LINE
  5
B2
330
39
100
AcDbEntity
  8
1
  6
Continuous
 62
     2
100
AcDbLine
 10
352.8895143636718
 20
398.0098450966394
 30
0.0
 11
353.8895143636718
 21
398.5871953658291
 31
0.0
  0
LINE
  5
B3
330
39
100
AcDbEntity
  8
1
  6
Continuous
 62
     7
100
AcDbLine
 10
336.8895143636718
 20
252.8066719838159
 30
0.0
 11
307.4074601355256
 21
252.8066719838159
 31
0.0
  0
LINE
  5
B4
330
39
100
AcDbEntity
  8
1
  6
Continuous
 62
     7
100
AcDbLine
 10
352.8895143636718
 20
252.5414370107129
 30
0.0
 11
353.8895143636958
 21
252.515331206273
 31
0.0
  0
LINE
  5
B5
330
39
100
AcDbEntity
  8
1
  6
Continuous
 62
     2
100
AcDbLine
 10
352.8895143636718
 20
231.8926726417248
 30
0.0
 11
353.8895143636958
 21
232.4700229109283
 31
0.0
  0
ENDBLK
  5
3B
330
39
100
AcDbEntity
  8
0
100
AcDbBlockEnd
  0
BLOCK
  5
3D
330
3C
100
AcDbEntity
  8
0
100
AcDbBlockBegin
  2
51-1
 70
     0
 71
     0
 10
242.1637791769767
 20
1379.533767430599
 30
0.0
  3
51-1
  1

  0
LINE
  5
B6
330
3C
100
AcDbEntity
  8
1
  6
Continuous
 62
     7
100
AcDbLine
 10
235.389514363695
 20
295.798388018155
 30
0.0
 11
235.389514363695
 21
292.9114791127876
 31
0.0
  0
LINE
  5
B7
330
3C
100
AcDbEntity
  8
1
  6
Continuous
 62
     7
100
AcDbLine
 10
280.1818057671855
 20
292.4114791127876
 30
0.0
 11
280.1818057671855
 21
296.9896692497296
 31
0.0
  0
LINE
  5
B8
330
3C
100
AcDbEntity
  8
1
  6
Continuous
 62
     7
100
AcDbLine
 10
280.1818057671855
 20
292.4114791127876
 30
0.0
 11
284.3895143636948
 21
292.4114791127877
 31
0.0
  0
LINE
  5
B9
330
3C
100
AcDbEntity
  8
1
  6
Continuous
 62
     7
100
AcDbLine
 10
284.8895143636948
 20
295.3864285351974
 30
0.0
 11
284.8895143636948
 21
292.9114791127876
 31
0.0
  0
LINE
  5
BA
330
3C
100
AcDbEntity
  8
1
  6
Continuous
 62
     7
100
AcDbLine
 10
261.4895143636945
 20
303.9114791127876
 30
0.0
 11
271.2895143636944
 21
303.9114791127876
 31
0.0
  0
LINE
  5
BB
330
3C
100
AcDbEntity
  8
1
  6
Continuous
 62
     7
100
AcDbLine
 10
235.889514363695
 20
292.4114791127877
 30
0.0
 11
280.1818057671855
 21
292.4114791127876
 31
0.0
  0
LINE
  5
BC
330
3C
100
AcDbEntity
  8
1
  6
Continuous
 62
     7
100
AcDbLine
 10
280.6092791633645
 20
417.1288639662865
 30
0.0
 11
292.9424286342849
 21
413.8242065254208
 31
0.0
  0
LINE
  5
BD
330
3C
100
AcDbEntity
  8
1
  6
PHANTOM
 62
     4
100
AcDbLine
 10
273.3738505164402
 20
420.1258766414252
 30
0.0
 11
250.8895143636699
 21
381.1818640503691
 31
0.0
  0
LINE
  5
BE
330
3C
100
AcDbEntity
  8
1
  6
Continuous
 62
     7
100
AcDbLine
 10
280.6092791633645
 20
398.9284391690867
 30
0.0
 11
292.9424286342849
 21
402.233096609952
 31
0.0
  0
LINE
  5
BF
330
3C
100
AcDbEntity
  8
1
  6
Continuous
 62
     7
100
AcDbLine
 10
267.1606470808437
 20
391.1638678160111
 30
0.0
 11
258.1321550507888
 21
382.1353757859563
 31
0.0
  0
LINE
  5
C0
330
3C
100
AcDbEntity
  8
1
  6
Continuous
 62
     7
100
AcDbLine
 10
251.3986168468005
 20
400.2640802146109
 30
0.0
 11
247.8901827314383
 21
387.17042584107
 31
0.0
  0
LINE
  5
C1
330
3C
100
AcDbEntity
  8
1
  6
Continuous
 62
     7
100
AcDbLine
 10
251.3986168468005
 20
415.7932229207623
 30
0.0
 11
248.0939594059352
 21
428.1263723916823
 31
0.0
  0
LINE
  5
C2
330
3C
100
AcDbEntity
  8
1
  6
Continuous
 62
     7
100
AcDbLine
 10
267.1606470808437
 20
424.8934353193619
 30
0.0
 11
258.1321550507888
 21
433.9219273494169
 31
0.0
  0
LINE
  5
C3
330
3C
100
AcDbEntity
  8
1
  6
PHANTOM
 62
     4
100
AcDbLine
 10
273.3738505164402
 20
395.931426493948
 30
0.0
 11
250.8895143636696
 21
434.8754390850041
 31
0.0
  0
LINE
  5
C4
330
3C
100
AcDbEntity
  8
1
  6
PHANTOM
 62
     4
100
AcDbLine
 10
252.4208420581288
 20
408.0286515676864
 30
0.0
 11
297.3895143636697
 21
408.0286515676864
 31
0.0
  0
LINE
  5
C5
330
3C
100
AcDbEntity
  8
1
  6
Continuous
 62
     7
100
AcDbLine
 10
166.6209017446661
 20
435.1841526279268
 30
0.0
 11
166.6209017446661
 21
381.864649588956
 31
0.0
  0
LINE
  5
C6
330
3C
100
AcDbEntity
  8
1
  6
Continuous
 62
     7
100
AcDbLine
 10
170.4059815000166
 20
435.2273785633051
 30
0.0
 11
167.1904882951462
 21
435.6792866622976
 31
0.0
  0
LINE
  5
C7
330
3C
100
AcDbEntity
  8
1
  6
Continuous
 62
     7
100
AcDbLine
 10
167.1904882951462
 20
380.378016473126
 30
0.0
 11
170.4059815000166
 21
380.8299245721183
 31
0.0
  0
LINE
  5
C8
330
3C
100
AcDbEntity
  8
1
  6
Continuous
 62
     7
100
AcDbLine
 10
166.6209017446661
 20
381.864649588956
 30
0.0
 11
166.6209017446661
 21
380.8731505074968
 31
0.0
  0
ARC
  5
C9
330
3C
100
AcDbEntity
  8
1
  6
Continuous
 62
     7
100
AcDbCircle
 10
266.2895143636951
 20
155.3798130353671
 30
0.0
 40
148.6092050572049
100
AcDbArc
 50
99.59172272312939
 51
100.0532276375031
  0
ARC
  5
CA
330
3C
100
AcDbEntity
  8
1
  6
Continuous
 62
     7
100
AcDbCircle
 10
268.3383961763053
 20
282.3513143477974
 30
0.0
 40
21.76119949013514
100
AcDbArc
 50
68.44320528903214
 51
82.20588758494974
  0
ARC
  5
CB
330
3C
100
AcDbEntity
  8
1
  6
Continuous
 62
     7
100
AcDbCircle
 10
253.3854695051593
 20
225.238145857406
 30
0.0
 40
80.64072525632021
100
AcDbArc
 50
70.020083220888
 51
73.19210648524873
  0
ARC
  5
CC
330
3C
100
AcDbEntity
  8
1
  6
Continuous
 62
     7
100
AcDbCircle
 10
266.2895143636951
 20
155.3798130353671
 30
0.0
 40
148.6092050572048
100
AcDbArc
 50
91.85094579686913
 51
99.59172272312939
  0
ARC
  5
CD
330
3C
100
AcDbEntity
  8
1
  6
Continuous
 62
     7
100
AcDbCircle
 10
291.3895143636697
 20
408.0286515676864
 30
0.0
 40
6.000000000000004
100
AcDbArc
 50
-74.99999999999938
 51
0.0
  0
ARC
  5
CE
330
3C
100
AcDbEntity
  8
1
  6
Continuous
 62
     7
100
AcDbCircle
 10
253.88951436367
 20
386.3780164730756
 30
0.0
 40
6.000000000000342
100
AcDbArc
 50
172.4757589210618
 51
-45.00000000000345
  0
ARC
  5
CF
330
3C
100
AcDbEntity
  8
1
  6
Continuous
 62
     7
100
AcDbCircle
 10
253.88951436367
 20
429.6792866622974
 30
0.0
 40
5.999999999999807
100
AcDbArc
 50
45.0000000000046
 51
-165.0000000000014
  0
ARC
  5
D0
330
3C
100
AcDbEntity
  8
1
  6
Continuous
 62
     7
100
AcDbCircle
 10
291.3895143636697
 20
408.0286515676864
 30
0.0
 40
6.0
100
AcDbArc
 50
0.0
 51
74.99999999999938
  0
ARC
  5
D1
330
3C
100
AcDbEntity
  8
0
  6
Continuous
 62
     7
100
AcDbCircle
 10
9.57241583279354
 20
401.6408806292994
 30
0.0
 40
168.3692353202929
100
AcDbArc
 50
3.53718815616222
 51
9.80290179376461
  0
ARC
  5
D2
330
3C
100
AcDbEntity
  8
0
  6
Continuous
 62
     7
100
AcDbCircle
 10
9.57241583279354
 20
414.4164225061242
 30
0.0
 40
168.3692353202929
100
AcDbArc
 50
-9.80290179376461
 51
-3.53718815616218
  0
ARC
  5
D3
330
3C
100
AcDbEntity
  8
1
  6
Continuous
 62
     7
100
AcDbCircle
 10
235.889514363695
 20
292.9114791127876
 30
0.0
 40
0.5
100
AcDbArc
 50
180.0
 51
-90.0
  0
ARC
  5
D4
330
3C
100
AcDbEntity
  8
1
  6
Continuous
 62
     7
100
AcDbCircle
 10
241.389514363695
 20
295.798388018155
 30
0.0
 40
5.99999999999997
100
AcDbArc
 50
99.99784348756715
 51
180.0
  0
ARC
  5
D5
330
3C
100
AcDbEntity
  8
1
  6
Continuous
 62
     7
100
AcDbCircle
 10
274.1818057671857
 20
296.9896692497296
 30
0.0
 40
5.999999999999773
100
AcDbArc
 50
0.0
 51
68.98000123350977
  0
ARC
  5
D6
330
3C
100
AcDbEntity
  8
1
  6
Continuous
 62
     7
100
AcDbCircle
 10
284.3895143636948
 20
292.9114791127876
 30
0.0
 40
0.4999999999999432
100
AcDbArc
 50
-90.0
 51
0.0
  0
ARC
  5
D7
330
3C
100
AcDbEntity
  8
1
  6
Continuous
 62
     7
100
AcDbCircle
 10
278.8895143636948
 20
295.3864285351974
 30
0.0
 40
6.0
100
AcDbArc
 50
0.0
 51
70.02008322088702
  0
ARC
  5
D8
330
3C
100
AcDbEntity
  8
0
  6
Continuous
 62
     7
100
AcDbCircle
 10
288.3738505164402
 20
446.1066387549583
 30
0.0
 40
30.0
100
AcDbArc
 50
-135.0000000000001
 51
-105.0000000000003
  0
ARC
  5
D9
330
3C
100
AcDbEntity
  8
0
  6
Continuous
 62
     7
100
AcDbCircle
 10
222.4208420581285
 20
408.0286515676864
 30
0.0
 40
29.99999999999993
100
AcDbArc
 50
-14.99999999999979
 51
15.00000000000052
  0
ARC
  5
DA
330
3C
100
AcDbEntity
  8
0
  6
Continuous
 62
     7
100
AcDbCircle
 10
288.3738505164402
 20
369.9506643804147
 30
0.0
 40
29.99999999999996
100
AcDbArc
 50
105.0000000000002
 51
135.0000000000001
  0
ARC
  5
DB
330
3C
100
AcDbEntity
  8
1
  6
Continuous
 62
     7
100
AcDbCircle
 10
169.5709428942562
 20
429.2857701508558
 30
0.0
 40
6.000000000000004
100
AcDbArc
 50
9.80290179376699
 51
81.99999999999986
  0
ARC
  5
DC
330
3C
100
AcDbEntity
  8
1
  6
Continuous
 62
     7
100
AcDbCircle
 10
167.1209017446661
 20
435.1841526279268
 30
0.0
 40
0.5000000000000584
100
AcDbArc
 50
81.99999999999359
 51
180.0
  0
ARC
  5
DD
330
3C
100
AcDbEntity
  8
1
  6
Continuous
 62
     7
100
AcDbCircle
 10
167.1209017446661
 20
380.8731505074968
 30
0.0
 40
0.5
100
AcDbArc
 50
180.0
 51
-81.99999999999267
  0
ARC
  5
DE
330
3C
100
AcDbEntity
  8
1
  6
Continuous
 62
     7
100
AcDbCircle
 10
169.5709428942562
 20
386.7715329845678
 30
0.0
 40
6.000000000000088
100
AcDbArc
 50
-82.00000000000017
 51
-9.80290179376699
  0
ENDBLK
  5
3E
330
3C
100
AcDbEntity
  8
0
100
AcDbBlockEnd
  0
BLOCK
  5
40
330
3F
100
AcDbEntity
  8
0
100
AcDbBlockBegin
  2
36-54-M11
 70
     0
 71
     0
 10
166.3895143636707
 20
279.0286515676881
 30
0.0
  3
36-54-M11
  1

  0
LINE
  5
DF
330
3F
100
AcDbEntity
  8
1
  6
Continuous
 62
     7
100
AcDbLine
 10
166.6209017446661
 20
403.2786515676876
 30
0.0
 11
162.6209017448262
 21
403.2786515676876
 31
0.0
  0
LINE
  5
E0
330
3F
100
AcDbEntity
  8
1
  6
Continuous
 62
     7
100
AcDbLine
 10
162.6209017448262
 20
412.7786515676878
 30
0.0
 11
166.6209017446661
 21
412.7786515676878
 31
0.0
  0
LINE
  5
E1
330
3F
100
AcDbEntity
  8
1
  6
PHANTOM
 62
     4
100
AcDbLine
 10
266.3895143636705
 20
252.9114791127872
 30
0.0
 11
266.3895143636705
 21
301.4114791127876
 31
0.0
  0
LINE
  5
E2
330
3F
100
AcDbEntity
  8
1
  6
Continuous
 62
     7
100
AcDbLine
 10
271.1395143636705
 20
292.4114791127877
 30
0.0
 11
271.1395143636705
 21
286.9114791127865
 31
0.0
  0
LINE
  5
E3
330
3F
100
AcDbEntity
  8
1
  6
Continuous
 62
     7
100
AcDbLine
 10
261.6395143636705
 20
286.9114791127865
 30
0.0
 11
261.6395143636705
 21
292.4114791127877
 31
0.0
  0
ENDBLK
  5
41
330
3F
100
AcDbEntity
  8
0
100
AcDbBlockEnd
  0
BLOCK
  5
43
330
42
100
AcDbEntity
  8
0
100
AcDbBlockBegin
  2
42-15
 70
     0
 71
     0
 10
166.3895143636707
 20
318.0286515676885
 30
0.0
  3
42-15
  1

  0
LINE
  5
E4
330
42
100
AcDbEntity
  8
1
  6
Continuous
 62
     2
100
AcDbLine
 10
264.8895143636947
 20
305.9977992710096
 30
0.0
 11
264.8895143636947
 21
304.8490729411565
 31
0.0
  0
LINE
  5
E5
330
42
100
AcDbEntity
  8
1
  6
Continuous
 62
     2
100
AcDbLine
 10
263.889514363695
 20
306.2430222400737
 30
0.0
 11
263.889514363695
 21
304.5250283034646
 31
0.0
  0
LINE
  5
E6
330
42
100
AcDbEntity
  8
1
  6
Continuous
 62
     2
100
AcDbLine
 10
262.8895143636947
 20
306.4356974300526
 30
0.0
 11
262.8895143636947
 21
304.1659518130496
 31
0.0
  0
LINE
  5
E7
330
42
100
AcDbEntity
  8
1
  6
Continuous
 62
     2
100
AcDbLine
 10
261.8895143636947
 20
306.5670668777657
 30
0.0
 11
261.8895143636947
 21
304.0170664389746
 31
0.0
  0
LINE
  5
E8
330
42
100
AcDbEntity
  8
1
  6
Continuous
 62
     2
100
AcDbLine
 10
260.8895143636947
 20
306.7114791127877
 30
0.0
 11
260.8895143636947
 21
303.9114791127876
 31
0.0
  0
LINE
  5
E9
330
42
100
AcDbEntity
  8
1
  6
Continuous
 62
     2
100
AcDbLine
 10
259.8895143636947
 20
306.7114791127877
 30
0.0
 11
259.8895143636947
 21
303.9114791127876
 31
0.0
  0
LINE
  5
EA
330
42
100
AcDbEntity
  8
1
  6
Continuous
 62
     7
100
AcDbLine
 10
259.3895143636947
 20
303.9114791127876
 30
0.0
 11
259.3895143636947
 21
306.7114791127877
 31
0.0
  0
LINE
  5
EB
330
42
100
AcDbEntity
  8
1
  6
Continuous
 62
     7
100
AcDbLine
 10
273.3895143636947
 20
306.7114791127877
 30
0.0
 11
273.3895143636947
 21
303.9114791127876
 31
0.0
  0
LINE
  5
EC
330
42
100
AcDbEntity
  8
1
  6
Continuous
 62
     2
100
AcDbLine
 10
272.889514363695
 20
303.9114791127876
 30
0.0
 11
272.889514363695
 21
306.7114791127877
 31
0.0
  0
LINE
  5
ED
330
42
100
AcDbEntity
  8
1
  6
Continuous
 62
     2
100
AcDbLine
 10
271.8895143636947
 20
303.9114791127876
 30
0.0
 11
271.8895143636947
 21
306.7114791127877
 31
0.0
  0
LINE
  5
EE
330
42
100
AcDbEntity
  8
1
  6
Continuous
 62
     7
100
AcDbLine
 10
273.3895143636947
 20
306.7114791127877
 30
0.0
 11
259.3895143636947
 21
306.7114791127877
 31
0.0
  0
LINE
  5
EF
330
42
100
AcDbEntity
  8
1
  6
Continuous
 62
     7
100
AcDbLine
 10
259.3895143636947
 20
303.9114791127876
 30
0.0
 11
273.3895143636947
 21
303.9114791127876
 31
0.0
  0
LINE
  5
F0
330
42
100
AcDbEntity
  8
1
  6
Continuous
 62
     2
100
AcDbLine
 10
270.889514363695
 20
304.0170664389746
 30
0.0
 11
270.889514363695
 21
306.5670668777657
 31
0.0
  0
LINE
  5
F1
330
42
100
AcDbEntity
  8
1
  6
Continuous
 62
     2
100
AcDbLine
 10
269.889514363695
 20
304.1659518130496
 30
0.0
 11
269.889514363695
 21
306.4356974300526
 31
0.0
  0
LINE
  5
F2
330
42
100
AcDbEntity
  8
1
  6
Continuous
 62
     2
100
AcDbLine
 10
268.889514363695
 20
304.5250283034646
 30
0.0
 11
268.889514363695
 21
306.2430222400737
 31
0.0
  0
LINE
  5
F3
330
42
100
AcDbEntity
  8
1
  6
Continuous
 62
     2
100
AcDbLine
 10
267.8895143636947
 20
304.8490729411565
 30
0.0
 11
267.8895143636947
 21
305.9977992710096
 31
0.0
  0
LINE
  5
F4
330
42
100
AcDbEntity
  8
1
  6
Continuous
 62
     7
100
AcDbLine
 10
177.6209017446664
 20
415.0286515676874
 30
0.0
 11
177.6209017446664
 21
401.0286515676875
 31
0.0
  0
LINE
  5
F5
330
42
100
AcDbEntity
  8
1
  6
Continuous
 62
     2
100
AcDbLine
 10
179.9072219028883
 20
409.5286515676875
 30
0.0
 11
178.5584955730363
 21
409.5286515676875
 31
0.0
  0
LINE
  5
F6
330
42
100
AcDbEntity
  8
1
  6
Continuous
 62
     2
100
AcDbLine
 10
180.1524448719522
 20
410.5286515676875
 30
0.0
 11
178.2344509353443
 21
410.5286515676875
 31
0.0
  0
LINE
  5
F7
330
42
100
AcDbEntity
  8
1
  6
Continuous
 62
     2
100
AcDbLine
 10
180.3451200619313
 20
411.5286515676875
 30
0.0
 11
177.8753744449282
 21
411.5286515676875
 31
0.0
  0
LINE
  5
F8
330
42
100
AcDbEntity
  8
1
  6
Continuous
 62
     2
100
AcDbLine
 10
180.4764895096442
 20
412.5286515676875
 30
0.0
 11
177.7264890708544
 21
412.5286515676875
 31
0.0
  0
LINE
  5
F9
330
42
100
AcDbEntity
  8
1
  6
Continuous
 62
     7
100
AcDbLine
 10
180.6209017446663
 20
401.0286515676875
 30
0.0
 11
180.6209017446663
 21
415.0286515676874
 31
0.0
  0
LINE
  5
FA
330
42
100
AcDbEntity
  8
1
  6
Continuous
 62
     2
100
AcDbLine
 10
180.6209017446663
 20
413.5286515676874
 30
0.0
 11
177.6209017446664
 21
413.5286515676874
 31
0.0
  0
LINE
  5
FB
330
42
100
AcDbEntity
  8
1
  6
Continuous
 62
     2
100
AcDbLine
 10
180.6209017446663
 20
414.5286515676874
 30
0.0
 11
177.6209017446664
 21
414.5286515676874
 31
0.0
  0
LINE
  5
FC
330
42
100
AcDbEntity
  8
1
  6
Continuous
 62
     7
100
AcDbLine
 10
177.6209017446664
 20
415.0286515676874
 30
0.0
 11
180.6209017446663
 21
415.0286515676874
 31
0.0
  0
LINE
  5
FD
330
42
100
AcDbEntity
  8
1
  6
Continuous
 62
     7
100
AcDbLine
 10
180.9506674648704
 20
413.7786515676874
 30
0.0
 11
180.9506674648704
 21
402.2786515676875
 31
0.0
  0
LINE
  5
FE
330
42
100
AcDbEntity
  8
1
  6
Continuous
 62
     7
100
AcDbLine
 10
180.6209017446663
 20
401.0286515676875
 30
0.0
 11
177.6209017446664
 21
401.0286515676875
 31
0.0
  0
LINE
  5
FF
330
42
100
AcDbEntity
  8
1
  6
Continuous
 62
     2
100
AcDbLine
 10
177.6209017446664
 20
401.5286515676875
 30
0.0
 11
180.6209017446663
 21
401.5286515676875
 31
0.0
  0
LINE
  5
100
330
42
100
AcDbEntity
  8
1
  6
Continuous
 62
     2
100
AcDbLine
 10
177.6209017446664
 20
402.5286515676875
 30
0.0
 11
180.6209017446663
 21
402.5286515676875
 31
0.0
  0
LINE
  5
101
330
42
100
AcDbEntity
  8
1
  6
Continuous
 62
     2
100
AcDbLine
 10
177.7264890708544
 20
403.5286515676875
 30
0.0
 11
180.4764895096442
 21
403.5286515676875
 31
0.0
  0
LINE
  5
102
330
42
100
AcDbEntity
  8
1
  6
Continuous
 62
     2
100
AcDbLine
 10
177.8753744449282
 20
404.5286515676875
 30
0.0
 11
180.3451200619313
 21
404.5286515676875
 31
0.0
  0
LINE
  5
103
330
42
100
AcDbEntity
  8
1
  6
Continuous
 62
     2
100
AcDbLine
 10
178.2344509353443
 20
405.5286515676875
 30
0.0
 11
180.1524448719522
 21
405.5286515676875
 31
0.0
  0
LINE
  5
104
330
42
100
AcDbEntity
  8
1
  6
Continuous
 62
     2
100
AcDbLine
 10
178.5584955730363
 20
406.5286515676875
 30
0.0
 11
179.9072219028883
 21
406.5286515676875
 31
0.0
  0
ARC
  5
105
330
42
100
AcDbEntity
  8
1
  6
Continuous
 62
     7
100
AcDbCircle
 10
266.3895143636947
 20
282.7114791127876
 30
0.0
 40
25.00000000000011
100
AcDbArc
 50
73.73979529168813
 51
90.0
  0
ARC
  5
106
330
42
100
AcDbEntity
  8
1
  6
Continuous
 62
     7
100
AcDbCircle
 10
266.3895143636947
 20
282.7114791127876
 30
0.0
 40
25.0
100
AcDbArc
 50
90.0
 51
106.2602047083119
  0
ARC
  5
107
330
42
100
AcDbEntity
  8
1
  6
Continuous
 62
     7
100
AcDbCircle
 10
156.6209017446664
 20
408.0286515676875
 30
0.0
 40
24.99999999999989
100
AcDbArc
 50
-16.26020470831203
 51
0.0
  0
ARC
  5
108
330
42
100
AcDbEntity
  8
1
  6
Continuous
 62
     7
100
AcDbCircle
 10
156.6209017446664
 20
408.0286515676875
 30
0.0
 40
24.99999999999989
100
AcDbArc
 50
0.0
 51
16.26020470831178
  0
CIRCLE
  5
109
330
42
100
AcDbEntity
  8
1
  6
Continuous
 62
     7
100
AcDbCircle
 10
266.3895143636707
 20
408.0286515676864
 30
0.0
 40
6.999999999999943
  0
ENDBLK
  5
44
330
42
100
AcDbEntity
  8
0
100
AcDbBlockEnd
  0
BLOCK
  5
46
330
45
100
AcDbEntity
  8
0
100
AcDbBlockBegin
  2
37-1-13__1
 70
     0
 71
     0
 10
166.3895143636707
 20
299.0286515676875
 30
0.0
  3
37-1-13__1
  1

  0
LINE
  5
10A
330
45
100
AcDbEntity
  8
1
  6
Continuous
 62
     7
100
AcDbLine
 10
271.9089011197668
 20
421.0286515676864
 30
0.0
 11
272.8121306530038
 21
421.0286515676864
 31
0.0
  0
LINE
  5
10B
330
45
100
AcDbEntity
  8
1
  6
Continuous
 62
     7
100
AcDbLine
 10
252.3714907364241
 20
406.3085807117788
 30
0.0
 11
251.9198759698065
 21
407.0908004330083
 31
0.0
  0
LINE
  5
10C
330
45
100
AcDbEntity
  8
1
  6
Continuous
 62
     7
100
AcDbLine
 10
274.8881512348199
 20
396.7487224235958
 30
0.0
 11
274.4365364682014
 21
395.9665027023647
 31
0.0
  0
LINE
  5
10D
330
45
100
AcDbEntity
  8
1
  6
Continuous
 62
     7
100
AcDbLine
 10
251.9198759698065
 20
408.9665027023647
 30
0.0
 11
252.3714907364237
 21
409.7487224235942
 31
0.0
  0
LINE
  5
10E
330
45
100
AcDbEntity
  8
1
  6
Continuous
 62
     7
100
AcDbLine
 10
272.8121306530038
 20
395.0286515676864
 30
0.0
 11
271.9089011197668
 21
395.0286515676864
 31
0.0
  0
LINE
  5
10F
330
45
100
AcDbEntity
  8
1
  6
Continuous
 62
     7
100
AcDbLine
 10
274.4365364682014
 20
420.0908004330083
 30
0.0
 11
274.8881512348197
 21
419.3085807117777
 31
0.0
  0
LINE
  5
110
330
45
100
AcDbEntity
  8
1
  6
Continuous
 62
     7
100
AcDbLine
 10
253.889514363695
 20
280.4114791127868
 30
0.0
 11
266.3895143636956
 21
280.4114791127861
 31
0.0
  0
LINE
  5
111
330
45
100
AcDbEntity
  8
1
  6
DASH_CENTER
 62
     2
100
AcDbLine
 10
266.3895143636947
 20
272.9114791127865
 30
0.0
 11
266.3895143636947
 21
272.9115777888735
 31
0.0
  0
LINE
  5
112
330
45
100
AcDbEntity
  8
1
  6
DOT_CENTER
 62
     2
100
AcDbLine
 10
266.3895143636947
 20
272.9115777888735
 30
0.0
 11
266.3895143636947
 21
272.9114791127865
 31
0.0
  0
LINE
  5
113
330
45
100
AcDbEntity
  8
1
  6
Continuous
 62
     7
100
AcDbLine
 10
266.3895143636947
 20
272.9114791127865
 30
0.0
 11
253.3188001494233
 21
272.9114791127865
 31
0.0
  0
LINE
  5
114
330
45
100
AcDbEntity
  8
1
  6
Continuous
 62
     7
100
AcDbLine
 10
266.389514363695
 20
286.9114791127865
 30
0.0
 11
260.3895143636947
 21
286.9114791127865
 31
0.0
  0
LINE
  5
115
330
45
100
AcDbEntity
  8
1
  6
Continuous
 62
     7
100
AcDbLine
 10
266.3895143636937
 20
280.4114791127861
 30
0.0
 11
278.8895143636943
 21
280.4114791127868
 31
0.0
  0
LINE
  5
116
330
45
100
AcDbEntity
  8
1
  6
Continuous
 62
     7
100
AcDbLine
 10
279.4602285779659
 20
272.9114791127865
 30
0.0
 11
266.3895143636947
 21
272.9114791127865
 31
0.0
  0
LINE
  5
117
330
45
100
AcDbEntity
  8
1
  6
Continuous
 62
     7
100
AcDbLine
 10
272.3895143636946
 20
286.9114791127865
 30
0.0
 11
266.389514363695
 21
286.9114791127865
 31
0.0
  0
LINE
  5
118
330
45
100
AcDbEntity
  8
1
  6
Continuous
 62
     7
100
AcDbLine
 10
155.7931430033014
 20
418.0286515676875
 30
0.0
 11
155.7931430033014
 21
398.0286515676872
 31
0.0
  0
LINE
  5
119
330
45
100
AcDbEntity
  8
1
  6
Continuous
 62
     7
100
AcDbLine
 10
155.7931430033014
 20
421.0286515676872
 30
0.0
 11
148.6209017448262
 21
421.0286515676872
 31
0.0
  0
LINE
  5
11A
330
45
100
AcDbEntity
  8
1
  6
Continuous
 62
     7
100
AcDbLine
 10
148.6209017448262
 20
395.0286515676875
 30
0.0
 11
155.7931430033014
 21
395.0286515676875
 31
0.0
  0
LINE
  5
11B
330
45
100
AcDbEntity
  8
1
  6
Continuous
 62
     7
100
AcDbLine
 10
148.6209017448262
 20
421.0286515676872
 30
0.0
 11
148.6209017448262
 21
395.0286515676875
 31
0.0
  0
LINE
  5
11C
330
45
100
AcDbEntity
  8
1
  6
Continuous
 62
     7
100
AcDbLine
 10
162.6209017448262
 20
414.0286515676878
 30
0.0
 11
162.6209017448262
 21
402.0286515676875
 31
0.0
  0
ARC
  5
11D
330
45
100
AcDbEntity
  8
1
  6
Continuous
 62
     7
100
AcDbCircle
 10
266.3895143636706
 20
408.0286515676864
 30
0.0
 40
14.49999999999979
100
AcDbArc
 50
56.29155527473199
 51
63.70844472526846
  0
ARC
  5
11E
330
45
100
AcDbEntity
  8
1
  6
Continuous
 62
     7
100
AcDbCircle
 10
266.3895143636706
 20
408.0286515676864
 30
0.0
 40
14.50000000000015
100
AcDbArc
 50
176.2915552747291
 51
180.0
  0
ARC
  5
11F
330
45
100
AcDbEntity
  8
1
  6
Continuous
 62
     7
100
AcDbCircle
 10
266.3895143636706
 20
408.0286515676864
 30
0.0
 40
14.50000000000027
100
AcDbArc
 50
-63.70844472526846
 51
-56.29155527473137
  0
ARC
  5
120
330
45
100
AcDbEntity
  8
1
  6
Continuous
 62
     7
100
AcDbCircle
 10
266.3895143636706
 20
408.0286515676864
 30
0.0
 40
14.50000000000003
100
AcDbArc
 50
180.0
 51
-176.2915552747302
  0
ARC
  5
121
330
45
100
AcDbEntity
  8
1
  6
Continuous
 62
     7
100
AcDbCircle
 10
240.48305915858
 20
300.3179343179015
 30
0.0
 40
23.99999999999986
100
AcDbArc
 50
-56.04080749990203
 51
-33.95919250009806
  0
ARC
  5
122
330
45
100
AcDbEntity
  8
1
  6
Continuous
 62
     7
100
AcDbCircle
 10
256.8895143636947
 20
276.4114791127865
 30
0.0
 40
5.000000000000068
100
AcDbArc
 50
126.8698976458386
 51
-135.5729959991938
  0
ARC
  5
123
330
45
100
AcDbEntity
  8
1
  6
Continuous
 62
     7
100
AcDbCircle
 10
275.8895143636946
 20
276.4114791127865
 30
0.0
 40
4.999999999999894
100
AcDbArc
 50
-44.4270040008069
 51
53.13010235416146
  0
ARC
  5
124
330
45
100
AcDbEntity
  8
1
  6
Continuous
 62
     7
100
AcDbCircle
 10
292.2959695688092
 20
300.3179343179015
 30
0.0
 40
23.99999999999978
100
AcDbArc
 50
-146.0408074999018
 51
-123.9591925000978
  0
ARC
  5
125
330
45
100
AcDbEntity
  8
1
  6
Continuous
 62
     7
100
AcDbCircle
 10
176.0273569499403
 20
433.9351067728023
 30
0.0
 40
24.0
100
AcDbArc
 50
-147.4681084822512
 51
-146.040807499901
  0
ARC
  5
126
330
45
100
AcDbEntity
  8
1
  6
Continuous
 62
     7
100
AcDbCircle
 10
176.0273569499403
 20
382.1221963625726
 30
0.0
 40
23.99999999999954
100
AcDbArc
 50
123.9591925000959
 51
146.0408074999014
  0
ARC
  5
127
330
45
100
AcDbEntity
  8
1
  6
Continuous
 62
     7
100
AcDbCircle
 10
176.0273569499403
 20
433.9351067728023
 30
0.0
 40
23.99999999999945
100
AcDbArc
 50
-146.040807499901
 51
-123.9591925000964
  0
ARC
  5
128
330
45
100
AcDbEntity
  8
1
  6
Continuous
 62
     7
100
AcDbCircle
 10
176.0273569499403
 20
382.1221963625726
 30
0.0
 40
23.99999999999932
100
AcDbArc
 50
146.0408074999014
 51
147.4681084822517
  0
SPLINE
  5
129
330
45
100
AcDbEntity
  8
1
  6
Continuous
 62
     7
100
AcDbSpline
210
0.0
220
0.0
230
1.0
 70
     8
 71
     3
 72
    29
 73
    25
 74
    23
 42
0.0000000001
 43
0.0000000001
 44
0.00000001
 40
0.0
 40
0.0
 40
0.0
 40
0.0
 40
0.6069077131758689
 40
1.212222625822563
 40
1.8426667078266
 40
2.474631900595208
 40
3.102420172365074
 40
3.729333891456023
 40
4.271042939832981
 40
4.812985328221133
 40
5.340107980728286
 40
5.866248927279897
 40
6.263874837343065
 40
6.661485236222328
 40
7.28096649756881
 40
7.902596738527842
 40
8.54916891517861
 40
9.1958967724891
 40
9.722415974179105
 40
10.2491184172569
 40
11.07897537273999
 40
11.90732207846621
 40
12.67331709995001
 40
13.44191271185778
 40
13.44191271185778
 40
13.44191271185778
 40
13.44191271185778
 10
266.3895143636947
 20
279.9114791127865
 30
0.0
 10
266.5915741932521
 20
279.9016037393242
 30
0.0
 10
266.9951635559208
 20
279.8818789098493
 30
0.0
 10
267.6068691062594
 20
279.8180885557961
 30
0.0
 10
268.2162861681493
 20
279.6839052584789
 30
0.0
 10
268.8146923436544
 20
279.4834496377943
 30
0.0
 10
269.3892548755502
 20
279.2248885209765
 30
0.0
 10
269.9041526732218
 20
278.9159591312052
 30
0.0
 10
270.35317154722
 20
278.5621422066304
 30
0.0
 10
270.7271131497112
 20
278.1741175384672
 30
0.0
 10
271.0340790511713
 20
277.7371871347046
 30
0.0
 10
271.2413877087051
 20
277.2969731676045
 30
0.0
 10
271.3572902969758
 20
276.8702640469197
 30
0.0
 10
271.4079935018701
 20
276.3993486044175
 30
0.0
 10
271.3475371785921
 20
275.8503740113735
 30
0.0
 10
271.1345899468456
 20
275.2526279451536
 30
0.0
 10
270.7873530094993
 20
274.711025699155
 30
0.0
 10
270.3659952836666
 20
274.2704177310174
 30
0.0
 10
269.9185817934098
 20
273.9205438073803
 30
0.0
 10
269.3827454074872
 20
273.5916334243913
 30
0.0
 10
268.7178543575737
 20
273.2878948027641
 30
0.0
 10
267.9381932960998
 20
273.0631249374214
 30
0.0
 10
267.1557876777903
 20
272.9587381320121
 30
0.0
 10
266.6452272084279
 20
272.9273156532631
 30
0.0
 10
266.3895143636947
 20
272.9115777888735
 30
0.0
 11
266.3895143636947
 21
279.9114791127865
 31
0.0
 11
266.9954003854529
 21
279.8762782470243
 31
0.0
 11
267.5968432049342
 21
279.8079212549401
 31
0.0
 11
268.2127344166753
 21
279.6732447691157
 31
0.0
 11
268.8121958782239
 21
279.4731798771705
 31
0.0
 11
269.3838946515439
 21
279.2137986389203
 31
0.0
 11
269.920459868557
 21
278.8895786841424
 31
0.0
 11
270.3448924073363
 21
278.5529695441613
 31
0.0
 11
270.7196413826168
 21
278.1614791127865
 31
0.0
 11
271.0211972685768
 21
277.729133951568
 31
0.0
 11
271.2432175824105
 21
277.2521315659519
 31
0.0
 11
271.3469782995535
 21
276.8682825358222
 31
0.0
 11
271.3887363973741
 21
276.4728709900078
 31
0.0
 11
271.3241427857528
 21
275.856766535798
 31
0.0
 11
271.1165246156015
 21
275.2708323655213
 31
0.0
 11
270.7711520147465
 21
274.7242307316072
 31
0.0
 11
270.3268778881435
 21
274.2542547515268
 31
0.0
 11
269.9130074693689
 21
273.9287801039556
 31
0.0
 11
269.4649686221447
 21
273.6518746057759
 31
0.0
 11
268.7102079155072
 21
273.3069125175985
 31
0.0
 11
267.914051605119
 21
273.0782350278523
 31
0.0
 11
267.1560424745196
 21
272.9679148988378
 31
0.0
 11
266.3895143636947
 21
272.9115777888735
 31
0.0
  0
SPLINE
  5
12A
330
45
100
AcDbEntity
  8
1
  6
Continuous
 62
     7
100
AcDbSpline
210
0.0
220
0.0
230
1.0
 70
    11
 71
     3
 72
    79
 73
    75
 74
    73
 42
0.0000000001
 43
0.0000000001
 44
0.00000001
 40
0.0
 40
0.0
 40
0.0
 40
0.0
 40
0.2803981145479569
 40
0.5607977859033269
 40
0.8427454841468742
 40
1.124697473048718
 40
1.409536451638225
 40
1.694381500885916
 40
1.983071310125275
 40
2.271767843423103
 40
2.564776142201068
 40
2.857790854546643
 40
3.155055698552927
 40
3.452325978931077
 40
3.753284827389855
 40
4.054247742882809
 40
4.357919806975693
 40
4.66159436832893
 40
4.966700748943606
 40
5.271807969839614
 40
5.576915190735454
 40
5.882021571349953
 40
6.185696132703134
 40
6.489368196796073
 40
6.790331112289186
 40
7.091289960748117
 40
7.38856024112607
 40
7.685825085132262
 40
7.978839797477924
 40
8.271848096256049
 40
8.56054462955373
 40
8.849234438793024
 40
9.134079488040772
 40
9.418918466630325
 40
9.700870455532078
 40
9.982818153775654
 40
10.26321782513112
 40
10.54361593967902
 40
10.82401405422693
 40
11.10441372558222
 40
11.38636142382569
 40
11.66831341272738
 40
11.95315239131696
 40
12.23799744056468
 40
12.52668724980398
 40
12.81538378310166
 40
13.1083920818797
 40
13.40140679422541
 40
13.69867163823155
 40
13.99594191860959
 40
14.29690076706857
 40
14.59786368256163
 40
14.90153574665463
 40
15.20521030800782
 40
15.5103166886223
 40
15.81542390951814
 40
16.1205311304142
 40
16.4256375110288
 40
16.72931207238204
 40
17.03298413647499
 40
17.33394705196791
 40
17.63490590042672
 40
17.93217618080487
 40
18.22944102481118
 40
18.5224557371568
 40
18.81546403593468
 40
19.10416056923242
 40
19.39285037847187
 40
19.67769542771957
 40
19.96253440630908
 40
20.24448639521083
 40
20.52643409345431
 40
20.80683376480962
 40
21.08723187935746
 40
21.08723187935746
 40
21.08723187935746
 40
21.08723187935746
 10
277.6478446128921
 20
279.9114791127865
 30
0.0
 10
277.7413451559456
 20
279.9088977268973
 30
0.0
 10
277.92834676118
 20
279.9037349407866
 30
0.0
 10
278.2068311744202
 20
279.8622625907381
 30
0.0
 10
278.4807733708224
 20
279.796362430345
 30
0.0
 10
278.748701536158
 20
279.7041303211112
 30
0.0
 10
279.0077473237182
 20
279.5870481317521
 30
0.0
 10
279.256906617871
 20
279.4455718501729
 30
0.0
 10
279.4932166380489
 20
279.2812895041798
 30
0.0
 10
279.7159916319669
 20
279.0948293559633
 30
0.0
 10
279.9224476642651
 20
278.8884048810262
 30
0.0
 10
280.1120604079056
 20
278.6626871865898
 30
0.0
 10
280.2824595838312
 20
278.4203963882409
 30
0.0
 10
280.4331723914389
 20
278.1623388954009
 30
0.0
 10
280.5623955279645
 20
277.891511691919
 30
0.0
 10
280.6696752011491
 20
277.6089948384225
 30
0.0
 10
280.753829704704
 20
277.3178068678293
 30
0.0
 10
280.814472978535
 20
277.0194280949143
 30
0.0
 10
280.8510067408066
 20
276.7166671230343
 30
0.0
 10
280.8632257715432
 20
276.4114791127862
 30
0.0
 10
280.8510067408065
 20
276.10629110254
 30
0.0
 10
280.8144729785352
 20
275.8035301306553
 30
0.0
 10
280.753829704704
 20
275.5051513577573
 30
0.0
 10
280.6696752011491
 20
275.2139633871015
 30
0.0
 10
280.5623955279645
 20
274.9314465338365
 30
0.0
 10
280.4331723914389
 20
274.6606193294948
 30
0.0
 10
280.2824595838311
 20
274.4025618398258
 30
0.0
 10
280.1120604079055
 20
274.1602710297302
 30
0.0
 10
279.9224476642651
 20
273.9345533785323
 30
0.0
 10
279.715991631967
 20
273.7281287435056
 30
0.0
 10
279.4932166380488
 20
273.5416691843287
 30
0.0
 10
279.256906617871
 20
273.3773846566176
 30
0.0
 10
279.0077473237183
 20
273.2359164135477
 30
0.0
 10
278.748701536158
 20
273.1188044099459
 30
0.0
 10
278.4807733708225
 20
273.0266824914731
 30
0.0
 10
278.2068311744201
 20
272.9603727259056
 30
0.0
 10
277.92834676118
 20
272.9204210608095
 30
0.0
 10
277.6478446128921
 20
272.9070081511866
 30
0.0
 10
277.3673424646042
 20
272.9204210608096
 30
0.0
 10
277.0888580513642
 20
272.9603727259056
 30
0.0
 10
276.8149158549619
 20
273.0266824914731
 30
0.0
 10
276.5469876896265
 20
273.1188044099459
 30
0.0
 10
276.2879419020662
 20
273.2359164135477
 30
0.0
 10
276.0387826079135
 20
273.3773846566177
 30
0.0
 10
275.8024725877357
 20
273.5416691843287
 30
0.0
 10
275.5796975938175
 20
273.7281287435056
 30
0.0
 10
275.3732415615194
 20
273.9345533785323
 30
0.0
 10
275.183628817879
 20
274.1602710297302
 30
0.0
 10
275.0132296419535
 20
274.4025618398258
 30
0.0
 10
274.8625168343455
 20
274.6606193294948
 30
0.0
 10
274.7332936978199
 20
274.9314465338366
 30
0.0
 10
274.6260140246355
 20
275.2139633871015
 30
0.0
 10
274.5418595210801
 20
275.5051513577573
 30
0.0
 10
274.4812162472491
 20
275.8035301306552
 30
0.0
 10
274.444682484978
 20
276.10629110254
 30
0.0
 10
274.4324634542412
 20
276.4114791127863
 30
0.0
 10
274.4446824849779
 20
276.7166671230343
 30
0.0
 10
274.4812162472491
 20
277.0194280949145
 30
0.0
 10
274.5418595210802
 20
277.3178068678294
 30
0.0
 10
274.6260140246355
 20
277.6089948384224
 30
0.0
 10
274.73329369782
 20
277.891511691919
 30
0.0
 10
274.8625168343457
 20
278.1623388954009
 30
0.0
 10
275.0132296419533
 20
278.4203963882409
 30
0.0
 10
275.183628817879
 20
278.6626871865898
 30
0.0
 10
275.3732415615195
 20
278.8884048810263
 30
0.0
 10
275.5796975938176
 20
279.0948293559632
 30
0.0
 10
275.8024725877355
 20
279.2812895041798
 30
0.0
 10
276.0387826079135
 20
279.4455718501728
 30
0.0
 10
276.2879419020662
 20
279.5870481317522
 30
0.0
 10
276.5469876896266
 20
279.7041303211111
 30
0.0
 10
276.8149158549619
 20
279.7963624303453
 30
0.0
 10
277.0888580513642
 20
279.8622625907379
 30
0.0
 10
277.3673424646042
 20
279.9037349407867
 30
0.0
 10
277.5543440698386
 20
279.9088977268973
 30
0.0
 10
277.6478446128921
 20
279.9114791127865
 30
0.0
 11
277.6478446128921
 21
279.9114791127865
 31
0.0
 11
277.9279246117617
 21
279.8981263274884
 31
0.0
 11
278.2054824201404
 21
279.8583062483294
 31
0.0
 11
278.4795338245194
 21
279.7920466656054
 31
0.0
 11
278.7461766847939
 21
279.7004032855373
 31
0.0
 11
279.0057651093298
 21
279.5831552852521
 31
0.0
 11
279.2534986852253
 21
279.4425680260322
 31
0.0
 11
279.4905991698342
 21
279.2778708306801
 31
0.0
 11
279.7120336991692
 21
279.0926346637029
 31
0.0
 11
279.919317088479
 21
278.8855417867878
 31
0.0
 11
280.1078493722566
 21
278.6612357466895
 31
0.0
 11
280.2789379188301
 21
278.4181409159887
 31
0.0
 11
280.4289190455531
 21
278.1614791127865
 31
0.0
 11
280.5585958254275
 21
277.8898908928155
 31
0.0
 11
280.6654871795049
 21
277.6085496144265
 31
0.0
 11
280.749853240835
 21
277.3168321308811
 31
0.0
 11
280.8103657710707
 21
277.0192477346209
 31
0.0
 11
280.8469447196338
 21
276.7163420000865
 31
0.0
 11
280.8591527575586
 21
276.4114791127865
 31
0.0
 11
280.8469447196338
 21
276.1066162254866
 31
0.0
 11
280.8103657710707
 21
275.8037104909524
 31
0.0
 11
280.749853240835
 21
275.5061260946923
 31
0.0
 11
280.6654871795049
 21
275.2144086111468
 31
0.0
 11
280.5585958254275
 21
274.9330673327577
 31
0.0
 11
280.4289190455531
 21
274.6614791127865
 31
0.0
 11
280.2789379188301
 21
274.4048173095845
 31
0.0
 11
280.1078493722566
 21
274.1617224788838
 31
0.0
 11
279.919317088479
 21
273.9374164387854
 31
0.0
 11
279.7120336991692
 21
273.7303235618701
 31
0.0
 11
279.4905991698342
 21
273.5450873948931
 31
0.0
 11
279.2534986852253
 21
273.3803901995411
 31
0.0
 11
279.0057651093298
 21
273.2398029403211
 31
0.0
 11
278.7461766847939
 21
273.1225549400358
 31
0.0
 11
278.4795338245194
 21
273.0309115599678
 31
0.0
 11
278.2054824201404
 21
272.9646519772439
 31
0.0
 11
277.9279246117617
 21
272.9248318980846
 31
0.0
 11
277.6478446128921
 21
272.9114791127865
 31
0.0
 11
277.3677646140225
 21
272.9248318980847
 31
0.0
 11
277.0902068056439
 21
272.9646519772439
 31
0.0
 11
276.816155401265
 21
273.0309115599678
 31
0.0
 11
276.5495125409906
 21
273.1225549400358
 31
0.0
 11
276.2899241164546
 21
273.2398029403211
 31
0.0
 11
276.0421905405592
 21
273.3803901995411
 31
0.0
 11
275.8050900559503
 21
273.5450873948931
 31
0.0
 11
275.5836555266153
 21
273.7303235618701
 31
0.0
 11
275.3763721373055
 21
273.9374164387854
 31
0.0
 11
275.1878398535279
 21
274.1617224788838
 31
0.0
 11
275.0167513069544
 21
274.4048173095844
 31
0.0
 11
274.8667701802314
 21
274.6614791127865
 31
0.0
 11
274.737093400357
 21
274.9330673327577
 31
0.0
 11
274.6302020462796
 21
275.2144086111468
 31
0.0
 11
274.5458359849492
 21
275.5061260946923
 31
0.0
 11
274.4853234547135
 21
275.8037104909524
 31
0.0
 11
274.4487445061506
 21
276.1066162254866
 31
0.0
 11
274.4365364682259
 21
276.4114791127865
 31
0.0
 11
274.4487445061506
 21
276.7163420000866
 31
0.0
 11
274.4853234547135
 21
277.0192477346209
 31
0.0
 11
274.5458359849492
 21
277.3168321308811
 31
0.0
 11
274.6302020462796
 21
277.6085496144265
 31
0.0
 11
274.737093400357
 21
277.8898908928154
 31
0.0
 11
274.8667701802314
 21
278.1614791127865
 31
0.0
 11
275.0167513069544
 21
278.4181409159887
 31
0.0
 11
275.1878398535279
 21
278.6612357466895
 31
0.0
 11
275.3763721373056
 21
278.8855417867878
 31
0.0
 11
275.5836555266153
 21
279.0926346637029
 31
0.0
 11
275.8050900559501
 21
279.2778708306801
 31
0.0
 11
276.0421905405592
 21
279.4425680260322
 31
0.0
 11
276.2899241164546
 21
279.5831552852521
 31
0.0
 11
276.5495125409906
 21
279.7004032855373
 31
0.0
 11
276.816155401265
 21
279.7920466656055
 31
0.0
 11
277.0902068056439
 21
279.8583062483294
 31
0.0
 11
277.3677646140225
 21
279.8981263274884
 31
0.0
 11
277.6478446128921
 21
279.9114791127865
 31
0.0
  0
SPLINE
  5
12B
330
45
100
AcDbEntity
  8
1
  6
Continuous
 62
     7
100
AcDbSpline
210
0.0
220
0.0
230
1.0
 70
     8
 71
     3
 72
    29
 73
    25
 74
    23
 42
0.0000000001
 43
0.0000000001
 44
0.00000001
 40
0.0
 40
0.0
 40
0.0
 40
0.0
 40
0.6069077131758689
 40
1.212222625822619
 40
1.842666707826613
 40
2.474631900595203
 40
3.102420172365144
 40
3.729333891456063
 40
4.271042939833012
 40
4.812985328221084
 40
5.34010798072827
 40
5.866248927279881
 40
6.263874837343064
 40
6.661485236222339
 40
7.280966497568839
 40
7.90259673852787
 40
8.549168915178578
 40
9.195896772489029
 40
9.722415974179159
 40
10.24911841725692
 40
11.07897537274007
 40
11.90732207846629
 40
12.67331709995003
 40
13.44191271185786
 40
13.44191271185786
 40
13.44191271185786
 40
13.44191271185786
 10
266.3895143636947
 20
279.9114791127865
 30
0.0
 10
266.1874545341372
 20
279.9016037393242
 30
0.0
 10
265.7838651714686
 20
279.8818789098494
 30
0.0
 10
265.1721596211299
 20
279.8180885557962
 30
0.0
 10
264.5627425592401
 20
279.6839052584788
 30
0.0
 10
263.9643363837349
 20
279.4834496377944
 30
0.0
 10
263.3897738518392
 20
279.2248885209764
 30
0.0
 10
262.8748760541676
 20
278.9159591312053
 30
0.0
 10
262.4258571801693
 20
278.5621422066303
 30
0.0
 10
262.0519155776784
 20
278.1741175384673
 30
0.0
 10
261.7449496762181
 20
277.7371871347045
 30
0.0
 10
261.5376410186843
 20
277.2969731676045
 30
0.0
 10
261.4217384304135
 20
276.8702640469196
 30
0.0
 10
261.3710352255191
 20
276.3993486044176
 30
0.0
 10
261.4314915487972
 20
275.8503740113735
 30
0.0
 10
261.6444387805439
 20
275.2526279451536
 30
0.0
 10
261.9916757178899
 20
274.7110256991549
 30
0.0
 10
262.4130334437225
 20
274.2704177310174
 30
0.0
 10
262.8604469339795
 20
273.9205438073802
 30
0.0
 10
263.3962833199022
 20
273.5916334243913
 30
0.0
 10
264.0611743698155
 20
273.2878948027641
 30
0.0
 10
264.8408354312896
 20
273.0631249374215
 30
0.0
 10
265.623241049599
 20
272.9587381320122
 30
0.0
 10
266.1338015189614
 20
272.9273156532631
 30
0.0
 10
266.3895143636947
 20
272.9115777888735
 30
0.0
 11
266.3895143636947
 21
279.9114791127865
 31
0.0
 11
265.7836283419365
 21
279.8762782470243
 31
0.0
 11
265.1821855224551
 21
279.8079212549401
 31
0.0
 11
264.5662943107141
 21
279.6732447691156
 31
0.0
 11
263.9668328491654
 21
279.4731798771705
 31
0.0
 11
263.3951340758454
 21
279.2137986389203
 31
0.0
 11
262.8585688588323
 21
278.8895786841424
 31
0.0
 11
262.4341363200531
 21
278.5529695441612
 31
0.0
 11
262.0593873447726
 21
278.1614791127865
 31
0.0
 11
261.7578314588125
 21
277.729133951568
 31
0.0
 11
261.5358111449788
 21
277.2521315659519
 31
0.0
 11
261.4320504278358
 21
276.8682825358222
 31
0.0
 11
261.3902923300151
 21
276.4728709900078
 31
0.0
 11
261.4548859416366
 21
275.856766535798
 31
0.0
 11
261.6625041117878
 21
275.2708323655213
 31
0.0
 11
262.0078767126428
 21
274.7242307316072
 31
0.0
 11
262.4521508392457
 21
274.2542547515268
 31
0.0
 11
262.8660212580204
 21
273.9287801039555
 31
0.0
 11
263.3140601052446
 21
273.6518746057759
 31
0.0
 11
264.0688208118822
 21
273.3069125175985
 31
0.0
 11
264.8649771222703
 21
273.0782350278523
 31
0.0
 11
265.6229862528697
 21
272.9679148988378
 31
0.0
 11
266.3895143636947
 21
272.9115777888735
 31
0.0
  0
SPLINE
  5
12C
330
45
100
AcDbEntity
  8
1
  6
Continuous
 62
     7
100
AcDbSpline
210
0.0
220
0.0
230
1.0
 70
    11
 71
     3
 72
    79
 73
    75
 74
    73
 42
0.0000000001
 43
0.0000000001
 44
0.00000001
 40
0.0
 40
0.0
 40
0.0
 40
0.0
 40
0.2803981145479286
 40
0.5607977859032705
 40
0.8427454841468731
 40
1.124697473048663
 40
1.409536451638222
 40
1.694381500885987
 40
1.983071310125393
 40
2.271767843423177
 40
2.564776142201061
 40
2.857790854546539
 40
3.155055698552886
 40
3.452325978931
 40
3.753284827389778
 40
4.054247742882752
 40
4.35791980697566
 40
4.661594368328908
 40
4.96670074894357
 40
5.271807969839577
 40
5.576915190735415
 40
5.882021571349901
 40
6.185696132703098
 40
6.489368196796053
 40
6.790331112289123
 40
7.091289960748118
 40
7.388560241126065
 40
7.685825085132287
 40
7.978839797477894
 40
8.2718480962559
 40
8.560544629553517
 40
8.84923443879288
 40
9.134079488040678
 40
9.418918466630309
 40
9.700870455532115
 40
9.982818153775636
 40
10.26321782513105
 40
10.54361593967895
 40
10.82401405422688
 40
11.10441372558217
 40
11.38636142382553
 40
11.66831341272723
 40
11.95315239131686
 40
12.23799744056463
 40
12.52668724980394
 40
12.81538378310161
 40
13.10839208187965
 40
13.4014067942254
 40
13.69867163823159
 40
13.99594191860954
 40
14.29690076706847
 40
14.59786368256154
 40
14.90153574665455
 40
15.20521030800777
 40
15.51031668862224
 40
15.81542390951807
 40
16.12053113041413
 40
16.42563751102871
 40
16.72931207238197
 40
17.03298413647494
 40
17.33394705196783
 40
17.63490590042663
 40
17.93217618080478
 40
18.22944102481107
 40
18.52245573715668
 40
18.8154640359346
 40
19.10416056923239
 40
19.39285037847179
 40
19.67769542771953
 40
19.96253440630909
 40
20.24448639521082
 40
20.52643409345422
 40
20.80683376480945
 40
21.0872318793574
 40
21.0872318793574
 40
21.0872318793574
 40
21.0872318793574
 10
255.1311841144972
 20
279.9114791127865
 30
0.0
 10
255.0376835714437
 20
279.9088977268973
 30
0.0
 10
254.8506819662093
 20
279.9037349407867
 30
0.0
 10
254.5721975529691
 20
279.8622625907379
 30
0.0
 10
254.2982553565668
 20
279.7963624303451
 30
0.0
 10
254.0303271912313
 20
279.7041303211112
 30
0.0
 10
253.771281403671
 20
279.5870481317521
 30
0.0
 10
253.5221221095182
 20
279.4455718501729
 30
0.0
 10
253.2858120893403
 20
279.2812895041798
 30
0.0
 10
253.0630370954222
 20
279.0948293559632
 30
0.0
 10
252.8565810631243
 20
278.8884048810263
 30
0.0
 10
252.6669683194838
 20
278.6626871865897
 30
0.0
 10
252.4965691435584
 20
278.4203963882409
 30
0.0
 10
252.3458563359505
 20
278.1623388954008
 30
0.0
 10
252.2166331994249
 20
277.8915116919191
 30
0.0
 10
252.1093535262403
 20
277.6089948384225
 30
0.0
 10
252.0251990226852
 20
277.3178068678292
 30
0.0
 10
251.9645557488541
 20
277.0194280949145
 30
0.0
 10
251.9280219865827
 20
276.7166671230341
 30
0.0
 10
251.9158029558461
 20
276.4114791127863
 30
0.0
 10
251.9280219865829
 20
276.10629110254
 30
0.0
 10
251.964555748854
 20
275.8035301306551
 30
0.0
 10
252.0251990226853
 20
275.5051513577573
 30
0.0
 10
252.1093535262403
 20
275.2139633871016
 30
0.0
 10
252.2166331994249
 20
274.9314465338365
 30
0.0
 10
252.3458563359504
 20
274.6606193294949
 30
0.0
 10
252.4965691435585
 20
274.4025618398259
 30
0.0
 10
252.6669683194837
 20
274.1602710297301
 30
0.0
 10
252.8565810631244
 20
273.9345533785324
 30
0.0
 10
253.0630370954221
 20
273.7281287435055
 30
0.0
 10
253.2858120893403
 20
273.5416691843287
 30
0.0
 10
253.5221221095182
 20
273.3773846566177
 30
0.0
 10
253.771281403671
 20
273.2359164135477
 30
0.0
 10
254.0303271912312
 20
273.1188044099458
 30
0.0
 10
254.2982553565669
 20
273.0266824914731
 30
0.0
 10
254.5721975529692
 20
272.9603727259056
 30
0.0
 10
254.8506819662092
 20
272.9204210608095
 30
0.0
 10
255.1311841144973
 20
272.9070081511867
 30
0.0
 10
255.4116862627851
 20
272.9204210608096
 30
0.0
 10
255.6901706760251
 20
272.9603727259055
 30
0.0
 10
255.9641128724273
 20
273.0266824914731
 30
0.0
 10
256.2320410377628
 20
273.1188044099459
 30
0.0
 10
256.491086825323
 20
273.2359164135478
 30
0.0
 10
256.7402461194757
 20
273.3773846566176
 30
0.0
 10
256.9765561396537
 20
273.5416691843286
 30
0.0
 10
257.1993311335718
 20
273.7281287435058
 30
0.0
 10
257.4057871658698
 20
273.9345533785322
 30
0.0
 10
257.5953999095104
 20
274.1602710297302
 30
0.0
 10
257.7657990854359
 20
274.4025618398259
 30
0.0
 10
257.9165118930438
 20
274.6606193294948
 30
0.0
 10
258.0457350295692
 20
274.9314465338366
 30
0.0
 10
258.1530147027536
 20
275.2139633871016
 30
0.0
 10
258.237169206309
 20
275.5051513577573
 30
0.0
 10
258.2978124801402
 20
275.8035301306553
 30
0.0
 10
258.3343462424114
 20
276.1062911025399
 30
0.0
 10
258.346565273148
 20
276.4114791127863
 30
0.0
 10
258.3343462424112
 20
276.7166671230342
 30
0.0
 10
258.2978124801404
 20
277.0194280949145
 30
0.0
 10
258.2371692063092
 20
277.3178068678293
 30
0.0
 10
258.1530147027536
 20
277.6089948384224
 30
0.0
 10
258.0457350295693
 20
277.8915116919191
 30
0.0
 10
257.9165118930437
 20
278.1623388954008
 30
0.0
 10
257.765799085436
 20
278.4203963882409
 30
0.0
 10
257.5953999095103
 20
278.6626871865897
 30
0.0
 10
257.4057871658699
 20
278.8884048810263
 30
0.0
 10
257.1993311335717
 20
279.0948293559632
 30
0.0
 10
256.9765561396537
 20
279.2812895041798
 30
0.0
 10
256.7402461194758
 20
279.445571850173
 30
0.0
 10
256.491086825323
 20
279.5870481317521
 30
0.0
 10
256.2320410377627
 20
279.7041303211111
 30
0.0
 10
255.9641128724274
 20
279.7963624303452
 30
0.0
 10
255.6901706760251
 20
279.862262590738
 30
0.0
 10
255.4116862627851
 20
279.9037349407867
 30
0.0
 10
255.2246846575507
 20
279.9088977268972
 30
0.0
 10
255.1311841144972
 20
279.9114791127865
 30
0.0
 11
255.1311841144972
 21
279.9114791127865
 31
0.0
 11
254.8511041156276
 21
279.8981263274884
 31
0.0
 11
254.5735463072489
 21
279.8583062483294
 31
0.0
 11
254.2994949028699
 21
279.7920466656054
 31
0.0
 11
254.0328520425954
 21
279.7004032855373
 31
0.0
 11
253.7732636180594
 21
279.5831552852521
 31
0.0
 11
253.5255300421639
 21
279.4425680260322
 31
0.0
 11
253.2884295575549
 21
279.2778708306801
 31
0.0
 11
253.06699502822
 21
279.0926346637029
 31
0.0
 11
252.8597116389103
 21
278.8855417867877
 31
0.0
 11
252.6711793551328
 21
278.6612357466895
 31
0.0
 11
252.5000908085593
 21
278.4181409159887
 31
0.0
 11
252.3501096818363
 21
278.1614791127865
 31
0.0
 11
252.2204329019619
 21
277.8898908928155
 31
0.0
 11
252.1135415478844
 21
277.6085496144265
 31
0.0
 11
252.0291754865542
 21
277.3168321308811
 31
0.0
 11
251.9686629563185
 21
277.0192477346209
 31
0.0
 11
251.9320840077555
 21
276.7163420000865
 31
0.0
 11
251.9198759698307
 21
276.4114791127865
 31
0.0
 11
251.9320840077555
 21
276.1066162254866
 31
0.0
 11
251.9686629563185
 21
275.8037104909524
 31
0.0
 11
252.0291754865542
 21
275.5061260946923
 31
0.0
 11
252.1135415478844
 21
275.2144086111468
 31
0.0
 11
252.2204329019618
 21
274.9330673327577
 31
0.0
 11
252.3501096818363
 21
274.6614791127865
 31
0.0
 11
252.5000908085593
 21
274.4048173095845
 31
0.0
 11
252.6711793551328
 21
274.1617224788838
 31
0.0
 11
252.8597116389103
 21
273.9374164387854
 31
0.0
 11
253.06699502822
 21
273.7303235618701
 31
0.0
 11
253.2884295575549
 21
273.5450873948931
 31
0.0
 11
253.5255300421639
 21
273.3803901995411
 31
0.0
 11
253.7732636180594
 21
273.2398029403211
 31
0.0
 11
254.0328520425954
 21
273.1225549400358
 31
0.0
 11
254.29949490287
 21
273.0309115599678
 31
0.0
 11
254.5735463072489
 21
272.9646519772439
 31
0.0
 11
254.8511041156276
 21
272.9248318980846
 31
0.0
 11
255.1311841144972
 21
272.9114791127865
 31
0.0
 11
255.4112641133668
 21
272.9248318980847
 31
0.0
 11
255.6888219217454
 21
272.9646519772439
 31
0.0
 11
255.9628733261242
 21
273.0309115599678
 31
0.0
 11
256.2295161863986
 21
273.1225549400358
 31
0.0
 11
256.4891046109346
 21
273.2398029403211
 31
0.0
 11
256.7368381868301
 21
273.3803901995411
 31
0.0
 11
256.9739386714391
 21
273.5450873948931
 31
0.0
 11
257.195373200774
 21
273.7303235618701
 31
0.0
 11
257.4026565900838
 21
273.9374164387854
 31
0.0
 11
257.5911888738614
 21
274.1617224788838
 31
0.0
 11
257.7622774204349
 21
274.4048173095845
 31
0.0
 11
257.9122585471579
 21
274.6614791127865
 31
0.0
 11
258.0419353270322
 21
274.9330673327577
 31
0.0
 11
258.1488266811096
 21
275.2144086111468
 31
0.0
 11
258.23319274244
 21
275.5061260946923
 31
0.0
 11
258.2937052726758
 21
275.8037104909524
 31
0.0
 11
258.3302842212387
 21
276.1066162254866
 31
0.0
 11
258.3424922591633
 21
276.4114791127865
 31
0.0
 11
258.3302842212386
 21
276.7163420000866
 31
0.0
 11
258.2937052726758
 21
277.0192477346209
 31
0.0
 11
258.2331927424401
 21
277.3168321308811
 31
0.0
 11
258.1488266811096
 21
277.6085496144265
 31
0.0
 11
258.0419353270323
 21
277.8898908928154
 31
0.0
 11
257.9122585471579
 21
278.1614791127865
 31
0.0
 11
257.7622774204349
 21
278.4181409159887
 31
0.0
 11
257.5911888738614
 21
278.6612357466895
 31
0.0
 11
257.4026565900838
 21
278.8855417867878
 31
0.0
 11
257.195373200774
 21
279.0926346637029
 31
0.0
 11
256.9739386714391
 21
279.2778708306801
 31
0.0
 11
256.7368381868301
 21
279.4425680260322
 31
0.0
 11
256.4891046109346
 21
279.5831552852521
 31
0.0
 11
256.2295161863986
 21
279.7004032855373
 31
0.0
 11
255.9628733261242
 21
279.7920466656055
 31
0.0
 11
255.6888219217454
 21
279.8583062483294
 31
0.0
 11
255.4112641133669
 21
279.8981263274884
 31
0.0
 11
255.1311841144972
 21
279.9114791127865
 31
0.0
  0
SPLINE
  5
12D
330
45
100
AcDbEntity
  8
1
  6
Continuous
 62
     7
100
AcDbSpline
210
0.0
220
0.0
230
1.0
 70
    11
 71
     3
 72
    79
 73
    75
 74
    73
 42
0.0000000001
 43
0.0000000001
 44
0.00000001
 40
0.0
 40
0.0
 40
0.0
 40
0.0
 40
0.3142773867007196
 40
0.6283112411570382
 40
0.9612293766536707
 40
1.293805038039214
 40
1.653399990662965
 40
2.012687710360604
 40
2.402596358667092
 40
2.79227713571336
 40
3.21212560238305
 40
3.63181888911278
 40
4.078023830869926
 40
4.524128916245886
 40
4.990742665932443
 40
5.457297388872868
 40
5.936768753151096
 40
6.416212753073149
 40
6.900062536487799
 40
7.383912319902564
 40
7.863356319824445
 40
8.342827684102616
 40
8.809382407043197
 40
9.275996156729706
 40
9.72210124210573
 40
10.16830618386282
 40
10.5879994705924
 40
11.00784793726219
 40
11.39752871430854
 40
11.78743736261504
 40
12.14672508231258
 40
12.50632003493645
 40
12.83889569632199
 40
13.17181383181857
 40
13.48584768627487
 40
13.80012507297562
 40
14.10756996787536
 40
14.41501486277532
 40
14.72929224947653
 40
15.04332610393321
 40
15.37624423943004
 40
15.70881990081536
 40
16.06841485343885
 40
16.42770257313622
 40
16.8176112214426
 40
17.20729199848895
 40
17.62714046515889
 40
18.04683375188862
 40
18.49303869364568
 40
18.93914377902169
 40
19.40575752870818
 40
19.87231225164876
 40
20.35178361592695
 40
20.83122761584892
 40
21.31507739926363
 40
21.79892718267829
 40
22.27837118260037
 40
22.75784254687856
 40
23.22439726981914
 40
23.69101101950569
 40
24.13711610488165
 40
24.58332104663875
 40
25.00301433336854
 40
25.42286280003819
 40
25.81254357708441
 40
26.2024522253909
 40
26.56173994508844
 40
26.92133489771219
 40
27.25391055909774
 40
27.58682869459429
 40
27.90086254905075
 40
28.21513993575176
 40
28.52258483065174
 40
28.83002972555151
 40
28.83002972555151
 40
28.83002972555151
 40
28.83002972555151
 10
152.4275805048262
 20
407.0691093849779
 30
0.0
 10
152.5308520595264
 20
407.0505169123792
 30
0.0
 10
152.7373151442271
 20
407.0133463744117
 30
0.0
 10
153.0393999767184
 20
406.902400111199
 30
0.0
 10
153.331594869764
 20
406.7553352684157
 30
0.0
 10
153.616449235762
 20
406.5651807161656
 30
0.0
 10
153.8858901585176
 20
406.3400459876414
 30
0.0
 10
154.1446875152751
 20
406.0754099175309
 30
0.0
 10
154.3843651796007
 20
405.7803496918502
 30
0.0
 10
154.609703421284
 20
405.4495836442889
 30
0.0
 10
154.8132669422147
 20
405.0935163223245
 30
0.0
 10
154.9987592099282
 20
404.7067832501413
 30
0.0
 10
155.160529322648
 20
404.3001097924714
 30
0.0
 10
155.3008968833154
 20
403.8691335967127
 30
0.0
 10
155.4161399417008
 20
403.4237599123629
 30
0.0
 10
155.507393279919
 20
402.9615469624733
 30
0.0
 10
155.5726008216502
 20
402.4906283697748
 30
0.0
 10
155.6121912890814
 20
402.011096805491
 30
0.0
 10
155.6252768920522
 20
401.5286515676898
 30
0.0
 10
155.6121912890826
 20
401.0462063298734
 30
0.0
 10
155.5726008216453
 20
400.5666747656348
 30
0.0
 10
155.5073932799372
 20
400.0957561727728
 30
0.0
 10
155.416139941635
 20
399.6335432234768
 30
0.0
 10
155.3008968835571
 20
399.1881695369564
 30
0.0
 10
155.1605293217897
 20
398.7571933489586
 30
0.0
 10
154.9987592130566
 20
398.3505198631624
 30
0.0
 10
154.8132669313062
 20
397.9637868900104
 30
0.0
 10
154.6097034608561
 20
397.607719211899
 30
0.0
 10
154.3843650436271
 20
397.2769544028379
 30
0.0
 10
154.1446880074473
 20
396.9818897455004
 30
0.0
 10
153.8858884806741
 20
396.7172689851536
 30
0.0
 10
153.6164553212312
 20
396.4920794853705
 30
0.0
 10
153.3315740372666
 20
396.3021148431492
 30
0.0
 10
153.0394761478094
 20
396.1543656264484
 30
0.0
 10
152.7370486337464
 20
396.0458370297744
 30
0.0
 10
152.4308139418028
 20
395.9816255024007
 30
0.0
 10
152.120901744826
 20
395.9590243992628
 30
0.0
 10
151.810989547849
 20
395.9816255024008
 30
0.0
 10
151.5047548559051
 20
396.0458370297744
 30
0.0
 10
151.2023273418418
 20
396.1543656264484
 30
0.0
 10
150.9102294523844
 20
396.3021148431494
 30
0.0
 10
150.6253481684198
 20
396.4920794853704
 30
0.0
 10
150.3559150089773
 20
396.7172689851535
 30
0.0
 10
150.0971154822044
 20
396.9818897455003
 30
0.0
 10
149.8574384460245
 20
397.2769544028377
 30
0.0
 10
149.6321000287956
 20
397.6077192118989
 30
0.0
 10
149.4285365583455
 20
397.9637868900103
 30
0.0
 10
149.243044276595
 20
398.3505198631622
 30
0.0
 10
149.0812741678619
 20
398.7571933489588
 30
0.0
 10
148.9409066060944
 20
399.1881695369563
 30
0.0
 10
148.8256635480167
 20
399.6335432234769
 30
0.0
 10
148.7344102097146
 20
400.095756172773
 30
0.0
 10
148.6692026680063
 20
400.5666747656346
 30
0.0
 10
148.6296122005684
 20
401.0462063298741
 30
0.0
 10
148.616526597599
 20
401.5286515676875
 30
0.0
 10
148.6296122005683
 20
402.0110968054997
 30
0.0
 10
148.6692026680068
 20
402.4906283697425
 30
0.0
 10
148.7344102097132
 20
402.9615469625927
 30
0.0
 10
148.8256635480214
 20
403.4237599119308
 30
0.0
 10
148.9409066060773
 20
403.8691335982973
 30
0.0
 10
149.0812741679229
 20
404.300109786846
 30
0.0
 10
149.2430442763729
 20
404.7067832706453
 30
0.0
 10
149.4285365591201
 20
405.0935162508288
 30
0.0
 10
149.6321000259859
 20
405.4495839036526
 30
0.0
 10
149.8574384556792
 20
405.7803488006508
 30
0.0
 10
150.0971154472587
 20
406.0754131433276
 30
0.0
 10
150.3559151281093
 20
406.3400349907129
 30
0.0
 10
150.625347736334
 20
406.5652206015748
 30
0.0
 10
150.9102309315537
 20
406.7551987279688
 30
0.0
 10
151.2023219334699
 20
406.9028993521006
 30
0.0
 10
151.5047737789363
 20
407.0115996102379
 30
0.0
 10
151.810919377047
 20
407.0751825681257
 30
0.0
 10
152.121157324689
 20
407.1000818878825
 30
0.0
 10
152.3254394447805
 20
407.0794335526127
 30
0.0
 10
152.4275805048262
 20
407.0691093849779
 30
0.0
 11
152.4275805048262
 21
407.0691093849779
 31
0.0
 11
152.7351423775869
 21
407.0044876377452
 31
0.0
 11
153.0310312563827
 21
406.8992876703039
 31
0.0
 11
153.3282963212502
 21
406.749394487831
 31
0.0
 11
153.6054849379955
 21
406.5656200573657
 31
0.0
 11
153.8818588380767
 21
406.335563548424
 31
0.0
 11
154.1335854177968
 21
406.0792017053429
 31
0.0
 11
154.3800095887885
 21
405.777036383085
 31
0.0
 11
154.5998591012365
 21
405.4552953383367
 31
0.0
 11
154.8088130064397
 21
405.0911374049269
 31
0.0
 11
154.9906690680214
 21
404.7128903589477
 31
0.0
 11
155.156077547147
 21
404.2984764534356
 31
0.0
 11
155.2944744145699
 21
403.8743820603038
 31
0.0
 11
155.4117220969391
 21
403.4227390902759
 31
0.0
 11
155.5022209295921
 21
402.9650456658241
 31
0.0
 11
155.5682138501257
 21
402.4901375446024
 31
0.0
 11
155.6076800812143
 21
402.0123206699894
 31
0.0
 11
155.6209017448253
 21
401.5286515676873
 31
0.0
 11
155.6076800812143
 21
401.044982465385
 31
0.0
 11
155.5682138501257
 21
400.5671655907722
 31
0.0
 11
155.5022209295921
 21
400.0922574695507
 31
0.0
 11
155.4117220969392
 21
399.6345640450986
 31
0.0
 11
155.29447441457
 21
399.1829210750708
 31
0.0
 11
155.156077547147
 21
398.758826681939
 31
0.0
 11
154.9906690680214
 21
398.3444127764269
 31
0.0
 11
154.8088130064397
 21
397.9661657304478
 31
0.0
 11
154.5998591012365
 21
397.602007797038
 31
0.0
 11
154.3800095887885
 21
397.2802667522896
 31
0.0
 11
154.1335854177968
 21
396.9781014300316
 31
0.0
 11
153.8818588380767
 21
396.7217395869506
 31
0.0
 11
153.6054849379955
 21
396.4916830780089
 31
0.0
 11
153.3282963212502
 21
396.3079086475435
 31
0.0
 11
153.0310312563827
 21
396.1580154650707
 31
0.0
 11
152.7351423775869
 21
396.0528154976294
 31
0.0
 11
152.4275805048262
 21
395.9881937503967
 31
0.0
 11
152.1209017448261
 21
395.9665027023654
 31
0.0
 11
151.8142229848257
 21
395.9881937503968
 31
0.0
 11
151.5066611120646
 21
396.0528154976294
 31
0.0
 11
151.2107722332684
 21
396.1580154650707
 31
0.0
 11
150.9135071684007
 21
396.3079086475436
 31
0.0
 11
150.6363185516556
 21
396.4916830780089
 31
0.0
 11
150.3599446515748
 21
396.7217395869505
 31
0.0
 11
150.1082180718548
 21
396.9781014300314
 31
0.0
 11
149.8617939008632
 21
397.2802667522893
 31
0.0
 11
149.6419443884152
 21
397.6020077970377
 31
0.0
 11
149.4329904832121
 21
397.9661657304478
 31
0.0
 11
149.2511344216302
 21
398.3444127764269
 31
0.0
 11
149.0857259425046
 21
398.758826681939
 31
0.0
 11
148.9473290750817
 21
399.1829210750708
 31
0.0
 11
148.8300813927125
 21
399.6345640450986
 31
0.0
 11
148.7395825600596
 21
400.0922574695507
 31
0.0
 11
148.6735896395258
 21
400.5671655907722
 31
0.0
 11
148.6341234084368
 21
401.0449824653851
 31
0.0
 11
148.6209017448256
 21
401.5286515676873
 31
0.0
 11
148.6341234084368
 21
402.0123206699894
 31
0.0
 11
148.6735896395258
 21
402.4901375446024
 31
0.0
 11
148.7395825600596
 21
402.965045665824
 31
0.0
 11
148.8300813927125
 21
403.422739090276
 31
0.0
 11
148.9473290750817
 21
403.8743820603039
 31
0.0
 11
149.0857259425046
 21
404.2984764534357
 31
0.0
 11
149.2511344216302
 21
404.7128903589478
 31
0.0
 11
149.4329904832121
 21
405.091137404927
 31
0.0
 11
149.6419443884152
 21
405.4552953383367
 31
0.0
 11
149.8617939008632
 21
405.777036383085
 31
0.0
 11
150.1082180718548
 21
406.079201705343
 31
0.0
 11
150.3599446515749
 21
406.335563548424
 31
0.0
 11
150.636318551656
 21
406.5656200573657
 31
0.0
 11
150.9135071684013
 21
406.749394487831
 31
0.0
 11
151.2107722332688
 21
406.8992876703038
 31
0.0
 11
151.5066611120648
 21
407.0044876377451
 31
0.0
 11
151.8142229848257
 21
407.0691093849778
 31
0.0
 11
152.1209017448261
 21
407.0908004330092
 31
0.0
 11
152.4275805048262
 21
407.0691093849779
 31
0.0
  0
SPLINE
  5
12E
330
45
100
AcDbEntity
  8
1
  6
Continuous
 62
     7
100
AcDbSpline
210
0.0
220
0.0
230
1.0
 70
    11
 71
     3
 72
    79
 73
    75
 74
    73
 42
0.0000000001
 43
0.0000000001
 44
0.00000001
 40
0.0
 40
0.0
 40
0.0
 40
0.0
 40
0.3142773867007079
 40
0.6283112411569503
 40
0.9612293766535828
 40
1.293805038039063
 40
1.653399990662887
 40
2.012687710360445
 40
2.402596358666889
 40
2.792277135713252
 40
3.212125602383089
 40
3.631818889112768
 40
4.078023830869967
 40
4.524128916245819
 40
4.990742665932267
 40
5.457297388872859
 40
5.936768753151143
 40
6.416212753073253
 40
6.90006253648796
 40
7.383912319902497
 40
7.863356319824492
 40
8.342827684102664
 40
8.809382407043245
 40
9.275996156729644
 40
9.722101242105612
 40
10.16830618386271
 40
10.58799947059254
 40
11.00784793726228
 40
11.39752871430858
 40
11.78743736261504
 40
12.14672508231254
 40
12.50632003493637
 40
12.83889569632188
 40
13.17181383181846
 40
13.48584768627474
 40
13.80012507297548
 40
14.10756996787522
 40
14.41501486277518
 40
14.72929224947641
 40
15.04332610393306
 40
15.37624423942982
 40
15.70881990081507
 40
16.06841485343856
 40
16.42770257313602
 40
16.81761122144253
 40
17.20729199848883
 40
17.62714046515857
 40
18.04683375188836
 40
18.49303869364552
 40
18.93914377902153
 40
19.40575752870797
 40
19.87231225164849
 40
20.35178361592674
 40
20.83122761584876
 40
21.31507739926342
 40
21.79892718267807
 40
22.27837118260016
 40
22.75784254687846
 40
23.22439726981893
 40
23.69101101950531
 40
24.13711610488127
 40
24.58332104663848
 40
25.00301433336832
 40
25.42286280003811
 40
25.81254357708433
 40
26.20245222539078
 40
26.56173994508828
 40
26.9213348977121
 40
27.25391055909758
 40
27.58682869459409
 40
27.90086254905047
 40
28.2151399357515
 40
28.52258483065147
 40
28.83002972555123
 40
28.83002972555123
 40
28.83002972555123
 40
28.83002972555123
 10
152.4275805048262
 20
408.9881937503972
 30
0.0
 10
152.5308520595264
 20
409.0067862229959
 30
0.0
 10
152.7373151442271
 20
409.0439567609633
 30
0.0
 10
153.0393999767184
 20
409.1549030241757
 30
0.0
 10
153.3315948697641
 20
409.3019678669592
 30
0.0
 10
153.6164492357621
 20
409.4921224192091
 30
0.0
 10
153.8858901585174
 20
409.7172571477333
 30
0.0
 10
154.1446875152751
 20
409.981893217844
 30
0.0
 10
154.3843651796007
 20
410.2769534435245
 30
0.0
 10
154.6097034212841
 20
410.6077194910858
 30
0.0
 10
154.8132669422146
 20
410.9637868130506
 30
0.0
 10
154.9987592099283
 20
411.3505198852334
 30
0.0
 10
155.160529322648
 20
411.7571933429034
 30
0.0
 10
155.3008968833154
 20
412.1881695386622
 30
0.0
 10
155.4161399417009
 20
412.6335432230118
 30
0.0
 10
155.507393279919
 20
413.0957561729016
 30
0.0
 10
155.5726008216502
 20
413.5666747656002
 30
0.0
 10
155.6121912890814
 20
414.0462063298839
 30
0.0
 10
155.6252768920521
 20
414.5286515676851
 30
0.0
 10
155.6121912890826
 20
415.0110968055016
 30
0.0
 10
155.5726008216453
 20
415.49062836974
 30
0.0
 10
155.5073932799371
 20
415.9615469626021
 30
0.0
 10
155.416139941635
 20
416.4237599118981
 30
0.0
 10
155.3008968835571
 20
416.8691335984186
 30
0.0
 10
155.1605293217897
 20
417.300109786416
 30
0.0
 10
154.9987592130565
 20
417.7067832722125
 30
0.0
 10
154.8132669313063
 20
418.0935162453644
 30
0.0
 10
154.6097034608561
 20
418.449583923476
 30
0.0
 10
154.384365043627
 20
418.7803487325369
 30
0.0
 10
154.1446880074473
 20
419.0754133898746
 30
0.0
 10
153.885888480674
 20
419.3400341502211
 30
0.0
 10
153.6164553212313
 20
419.5652236500044
 30
0.0
 10
153.3315740372665
 20
419.7551882922252
 30
0.0
 10
153.0394761478094
 20
419.9029375089264
 30
0.0
 10
152.7370486337464
 20
420.0114661056003
 30
0.0
 10
152.4308139418028
 20
420.0756776329739
 30
0.0
 10
152.120901744826
 20
420.0982787361119
 30
0.0
 10
151.810989547849
 20
420.075677632974
 30
0.0
 10
151.5047548559051
 20
420.0114661056003
 30
0.0
 10
151.2023273418418
 20
419.9029375089264
 30
0.0
 10
150.9102294523844
 20
419.7551882922255
 30
0.0
 10
150.6253481684198
 20
419.5652236500047
 30
0.0
 10
150.3559150089772
 20
419.3400341502213
 30
0.0
 10
150.0971154822045
 20
419.0754133898748
 30
0.0
 10
149.8574384460246
 20
418.7803487325369
 30
0.0
 10
149.6321000287957
 20
418.4495839234759
 30
0.0
 10
149.4285365583455
 20
418.0935162453646
 30
0.0
 10
149.243044276595
 20
417.7067832722125
 30
0.0
 10
149.0812741678619
 20
417.3001097864161
 30
0.0
 10
148.9409066060945
 20
416.8691335984185
 30
0.0
 10
148.8256635480167
 20
416.423759911898
 30
0.0
 10
148.7344102097146
 20
415.961546962602
 30
0.0
 10
148.6692026680063
 20
415.4906283697402
 30
0.0
 10
148.6296122005684
 20
415.0110968055007
 30
0.0
 10
148.616526597599
 20
414.5286515676874
 30
0.0
 10
148.6296122005683
 20
414.0462063298752
 30
0.0
 10
148.6692026680068
 20
413.5666747656323
 30
0.0
 10
148.7344102097131
 20
413.0957561727821
 30
0.0
 10
148.8256635480215
 20
412.6335432234442
 30
0.0
 10
148.9409066060773
 20
412.1881695370777
 30
0.0
 10
149.0812741679228
 20
411.7571933485291
 30
0.0
 10
149.2430442763729
 20
411.3505198647297
 30
0.0
 10
149.4285365591201
 20
410.9637868845463
 30
0.0
 10
149.6321000259858
 20
410.6077192317222
 30
0.0
 10
149.8574384556792
 20
410.276954334724
 30
0.0
 10
150.0971154472587
 20
409.9818899920472
 30
0.0
 10
150.3559151281093
 20
409.7172681446619
 30
0.0
 10
150.625347736334
 20
409.4920825337999
 30
0.0
 10
150.9102309315537
 20
409.3021044074061
 30
0.0
 10
151.2023219334698
 20
409.1544037832742
 30
0.0
 10
151.5047737789365
 20
409.0457035251373
 30
0.0
 10
151.8109193770469
 20
408.9821205672491
 30
0.0
 10
152.1211573246889
 20
408.9572212474928
 30
0.0
 10
152.3254394447805
 20
408.9778695827624
 30
0.0
 10
152.4275805048262
 20
408.9881937503972
 30
0.0
 11
152.4275805048262
 21
408.9881937503972
 31
0.0
 11
152.7351423775869
 21
409.0528154976298
 31
0.0
 11
153.0310312563827
 21
409.1580154650709
 31
0.0
 11
153.3282963212502
 21
409.3079086475438
 31
0.0
 11
153.6054849379955
 21
409.491683078009
 31
0.0
 11
153.8818588380767
 21
409.7217395869508
 31
0.0
 11
154.1335854177968
 21
409.9781014300318
 31
0.0
 11
154.3800095887885
 21
410.2802667522897
 31
0.0
 11
154.5998591012365
 21
410.6020077970381
 31
0.0
 11
154.8088130064397
 21
410.966165730448
 31
0.0
 11
154.9906690680214
 21
411.3444127764271
 31
0.0
 11
155.156077547147
 21
411.7588266819394
 31
0.0
 11
155.2944744145699
 21
412.182921075071
 31
0.0
 11
155.4117220969391
 21
412.6345640450988
 31
0.0
 11
155.5022209295921
 21
413.0922574695508
 31
0.0
 11
155.5682138501257
 21
413.5671655907725
 31
0.0
 11
155.6076800812143
 21
414.0449824653855
 31
0.0
 11
155.6209017448253
 21
414.5286515676878
 31
0.0
 11
155.6076800812143
 21
415.0123206699898
 31
0.0
 11
155.5682138501257
 21
415.4901375446027
 31
0.0
 11
155.5022209295921
 21
415.9650456658243
 31
0.0
 11
155.4117220969392
 21
416.4227390902763
 31
0.0
 11
155.29447441457
 21
416.874382060304
 31
0.0
 11
155.156077547147
 21
417.2984764534358
 31
0.0
 11
154.9906690680214
 21
417.7128903589479
 31
0.0
 11
154.8088130064397
 21
418.0911374049272
 31
0.0
 11
154.5998591012365
 21
418.455295338337
 31
0.0
 11
154.3800095887885
 21
418.7770363830854
 31
0.0
 11
154.1335854177968
 21
419.0792017053433
 31
0.0
 11
153.8818588380767
 21
419.3355635484242
 31
0.0
 11
153.6054849379955
 21
419.5656200573659
 31
0.0
 11
153.3282963212502
 21
419.7493944878312
 31
0.0
 11
153.0310312563827
 21
419.899287670304
 31
0.0
 11
152.7351423775869
 21
420.0044876377452
 31
0.0
 11
152.4275805048262
 21
420.0691093849779
 31
0.0
 11
152.1209017448261
 21
420.0908004330092
 31
0.0
 11
151.8142229848257
 21
420.0691093849779
 31
0.0
 11
151.5066611120646
 21
420.0044876377452
 31
0.0
 11
151.2107722332684
 21
419.899287670304
 31
0.0
 11
150.9135071684007
 21
419.7493944878312
 31
0.0
 11
150.6363185516556
 21
419.5656200573661
 31
0.0
 11
150.3599446515748
 21
419.3355635484245
 31
0.0
 11
150.1082180718548
 21
419.0792017053435
 31
0.0
 11
149.8617939008632
 21
418.7770363830854
 31
0.0
 11
149.6419443884152
 21
418.455295338337
 31
0.0
 11
149.4329904832121
 21
418.0911374049272
 31
0.0
 11
149.2511344216302
 21
417.712890358948
 31
0.0
 11
149.0857259425046
 21
417.2984764534359
 31
0.0
 11
148.9473290750817
 21
416.874382060304
 31
0.0
 11
148.8300813927125
 21
416.4227390902763
 31
0.0
 11
148.7395825600596
 21
415.9650456658243
 31
0.0
 11
148.6735896395258
 21
415.4901375446027
 31
0.0
 11
148.6341234084368
 21
415.0123206699897
 31
0.0
 11
148.6209017448256
 21
414.5286515676876
 31
0.0
 11
148.6341234084368
 21
414.0449824653854
 31
0.0
 11
148.6735896395258
 21
413.5671655907725
 31
0.0
 11
148.7395825600596
 21
413.0922574695508
 31
0.0
 11
148.8300813927125
 21
412.6345640450988
 31
0.0
 11
148.9473290750817
 21
412.1829210750711
 31
0.0
 11
149.0857259425046
 21
411.7588266819394
 31
0.0
 11
149.2511344216302
 21
411.3444127764271
 31
0.0
 11
149.4329904832121
 21
410.9661657304479
 31
0.0
 11
149.6419443884152
 21
410.602007797038
 31
0.0
 11
149.8617939008632
 21
410.2802667522897
 31
0.0
 11
150.1082180718548
 21
409.9781014300318
 31
0.0
 11
150.3599446515749
 21
409.7217395869508
 31
0.0
 11
150.636318551656
 21
409.491683078009
 31
0.0
 11
150.9135071684013
 21
409.3079086475438
 31
0.0
 11
151.2107722332688
 21
409.1580154650711
 31
0.0
 11
151.5066611120648
 21
409.05281549763
 31
0.0
 11
151.8142229848257
 21
408.9881937503973
 31
0.0
 11
152.1209017448261
 21
408.9665027023659
 31
0.0
 11
152.4275805048262
 21
408.9881937503972
 31
0.0
  0
ENDBLK
  5
47
330
45
100
AcDbEntity
  8
0
100
AcDbBlockEnd
  0
BLOCK
  5
49
330
48
100
AcDbEntity
  8
0
100
AcDbBlockBegin
  2
37-1-13__2
 70
     0
 71
     0
 10
266.3895143636705
 20
374.0286515676874
 30
0.0
  3
37-1-13__2
  1

  0
LINE
  5
12F
330
48
100
AcDbEntity
  8
1
  6
Continuous
 62
     7
100
AcDbLine
 10
111.6207139150338
 20
360.0288489198616
 30
0.0
 11
123.6207139150338
 21
360.0288489198616
 31
0.0
  0
LINE
  5
130
330
48
100
AcDbEntity
  8
1
  6
Continuous
 62
     7
100
AcDbLine
 10
130.6914281293052
 20
374.0288489198616
 30
0.0
 11
104.5499997007624
 21
374.0288489198616
 31
0.0
  0
LINE
  5
131
330
48
100
AcDbEntity
  8
0
  6
Continuous
 62
     7
100
AcDbLine
 10
108.9454311084898
 20
366.9581347055902
 30
0.0
 11
112.7753671361369
 21
366.9581347055902
 31
0.0
  0
LINE
  5
132
330
48
100
AcDbEntity
  8
0
  6
Continuous
 62
     7
100
AcDbLine
 10
122.4660606939307
 20
366.9581347055902
 30
0.0
 11
126.2959967215779
 21
366.9581347055902
 31
0.0
  0
LINE
  5
133
330
48
100
AcDbEntity
  8
1
  6
DASH_CENTER
 62
     2
100
AcDbLine
 10
266.389514363695
 20
259.9103876832664
 30
0.0
 11
266.3895143636948
 21
224.2064934153959
 31
0.0
  0
LINE
  5
134
330
48
100
AcDbEntity
  8
1
  6
Continuous
 62
     7
100
AcDbLine
 10
267.3273654983732
 20
256.3811175066506
 30
0.0
 11
272.889514363695
 21
253.1698093619843
 31
0.0
  0
LINE
  5
135
330
48
100
AcDbEntity
  8
1
  6
Continuous
 62
     7
100
AcDbLine
 10
279.389514363695
 20
248.334095402119
 30
0.0
 11
279.3895143636948
 21
241.9114791127867
 31
0.0
  0
LINE
  5
136
330
48
100
AcDbEntity
  8
1
  6
Continuous
 62
     7
100
AcDbLine
 10
278.4516632290167
 20
233.864457008255
 30
0.0
 11
272.8895143636948
 21
230.6531488635892
 31
0.0
  0
LINE
  5
137
330
48
100
AcDbEntity
  8
1
  6
Continuous
 62
     7
100
AcDbLine
 10
265.4516632290167
 20
227.4418407189227
 30
0.0
 11
259.8895143636948
 21
230.6531488635892
 31
0.0
  0
LINE
  5
138
330
48
100
AcDbEntity
  8
1
  6
Continuous
 62
     7
100
AcDbLine
 10
253.3895143636948
 20
235.4888628234543
 30
0.0
 11
253.3895143636948
 21
241.9114791127867
 31
0.0
  0
LINE
  5
139
330
48
100
AcDbEntity
  8
1
  6
Continuous
 62
     7
100
AcDbLine
 10
254.3273654983732
 20
249.9585012173183
 30
0.0
 11
259.889514363695
 21
253.1698093619843
 31
0.0
  0
LINE
  5
13A
330
48
100
AcDbEntity
  8
1
  6
Continuous
 62
     7
100
AcDbLine
 10
272.889514363695
 20
253.1698093619843
 30
0.0
 11
278.4516632290167
 21
249.9585012173183
 31
0.0
  0
LINE
  5
13B
330
48
100
AcDbEntity
  8
1
  6
Continuous
 62
     7
100
AcDbLine
 10
279.3895143636948
 20
241.9114791127867
 30
0.0
 11
279.3895143636948
 21
235.4888628234543
 31
0.0
  0
LINE
  5
13C
330
48
100
AcDbEntity
  8
1
  6
Continuous
 62
     7
100
AcDbLine
 10
272.8895143636948
 20
230.6531488635892
 30
0.0
 11
267.3273654983732
 21
227.4418407189227
 31
0.0
  0
LINE
  5
13D
330
48
100
AcDbEntity
  8
1
  6
Continuous
 62
     7
100
AcDbLine
 10
259.8895143636948
 20
230.6531488635892
 30
0.0
 11
254.3273654983732
 21
233.864457008255
 31
0.0
  0
LINE
  5
13E
330
48
100
AcDbEntity
  8
1
  6
Continuous
 62
     7
100
AcDbLine
 10
253.3895143636948
 20
241.9114791127867
 30
0.0
 11
253.389514363695
 21
248.334095402119
 31
0.0
  0
LINE
  5
13F
330
48
100
AcDbEntity
  8
1
  6
Continuous
 62
     7
100
AcDbLine
 10
259.889514363695
 20
253.1698093619843
 30
0.0
 11
265.4516632290167
 21
256.3811175066506
 31
0.0
  0
LINE
  5
140
330
48
100
AcDbEntity
  8
1
  6
DASH_CENTER
 62
     2
100
AcDbLine
 10
281.9558244187401
 20
241.9114791127867
 30
0.0
 11
250.8928176206971
 21
241.9114791127867
 31
0.0
  0
LINE
  5
141
330
48
100
AcDbEntity
  8
1
  6
Continuous
 62
     7
100
AcDbLine
 10
276.3895143636706
 20
366.8565089852984
 30
0.0
 11
256.3895143636706
 21
366.8565089852984
 31
0.0
  0
LINE
  5
142
330
48
100
AcDbEntity
  8
1
  6
Continuous
 62
     7
100
AcDbLine
 10
253.3895143636706
 20
374.0287502437745
 30
0.0
 11
253.3895143636706
 21
366.8565089852984
 31
0.0
  0
LINE
  5
143
330
48
100
AcDbEntity
  8
1
  6
Continuous
 62
     7
100
AcDbLine
 10
279.3895143636705
 20
366.8565089852984
 30
0.0
 11
279.3895143636705
 21
374.0287502437745
 31
0.0
  0
LINE
  5
144
330
48
100
AcDbEntity
  8
1
  6
Continuous
 62
     7
100
AcDbLine
 10
279.3895143636705
 20
374.0287502437745
 30
0.0
 11
253.3895143636706
 21
374.0287502437745
 31
0.0
  0
LINE
  5
145
330
48
100
AcDbEntity
  8
1
  6
Continuous
 62
     7
100
AcDbLine
 10
272.3895143636705
 20
360.0287502437745
 30
0.0
 11
260.3895143636705
 21
360.0287502437745
 31
0.0
  0
ARC
  5
146
330
48
100
AcDbEntity
  8
1
  6
Continuous
 62
     7
100
AcDbCircle
 10
127.1207139150338
 20
370.5288489198616
 30
0.0
 40
4.999999999999932
100
AcDbArc
 50
-53.13010235415703
 51
44.42700400080598
  0
ARC
  5
147
330
48
100
AcDbEntity
  8
1
  6
Continuous
 62
     7
100
AcDbCircle
 10
143.5271691201487
 20
346.6223937147466
 30
0.0
 40
24.00000000000014
100
AcDbArc
 50
123.9591925000975
 51
146.0408074999022
  0
ARC
  5
148
330
48
100
AcDbEntity
  8
1
  6
Continuous
 62
     7
100
AcDbCircle
 10
91.71425870991888
 20
346.6223937147466
 30
0.0
 40
24.00000000000006
100
AcDbArc
 50
33.95919250009773
 51
56.04080749990246
  0
ARC
  5
149
330
48
100
AcDbEntity
  8
1
  6
Continuous
 62
     7
100
AcDbCircle
 10
108.1207139150338
 20
370.5288489198616
 30
0.0
 40
4.999999999999986
100
AcDbArc
 50
135.5729959991941
 51
-126.8698976458431
  0
ARC
  5
14A
330
48
100
AcDbEntity
  8
1
  6
Continuous
 62
     7
100
AcDbCircle
 10
266.3895143636948
 20
241.9114791127865
 30
0.0
 40
14.50000000000017
100
AcDbArc
 50
26.29155527472873
 51
33.70844472527151
  0
ARC
  5
14B
330
48
100
AcDbEntity
  8
1
  6
Continuous
 62
     7
100
AcDbCircle
 10
266.3895143636948
 20
241.9114791127865
 30
0.0
 40
12.99999999999966
100
AcDbArc
 50
-59.99999999999914
 51
0.00000000000088
  0
ARC
  5
14C
330
48
100
AcDbEntity
  8
1
  6
Continuous
 62
     7
100
AcDbCircle
 10
266.3895143636948
 20
241.9114791127865
 30
0.0
 40
13.0
100
AcDbArc
 50
0.00000000000088
 51
59.99999999999935
  0
ARC
  5
14D
330
48
100
AcDbEntity
  8
1
  6
Continuous
 62
     7
100
AcDbCircle
 10
266.3895143636948
 20
241.9114791127865
 30
0.0
 40
14.50000000000017
100
AcDbArc
 50
-33.70844472527066
 51
-26.29155527472812
  0
ARC
  5
14E
330
48
100
AcDbEntity
  8
1
  6
Continuous
 62
     7
100
AcDbCircle
 10
266.3895143636948
 20
241.9114791127865
 30
0.0
 40
12.99999999999966
100
AcDbArc
 50
-120.0000000000009
 51
-59.99999999999914
  0
ARC
  5
14F
330
48
100
AcDbEntity
  8
1
  6
Continuous
 62
     7
100
AcDbCircle
 10
266.3895143636948
 20
241.9114791127865
 30
0.0
 40
14.4999999999998
100
AcDbArc
 50
-90.0
 51
-86.29155527472877
  0
ARC
  5
150
330
48
100
AcDbEntity
  8
1
  6
Continuous
 62
     7
100
AcDbCircle
 10
266.3895143636948
 20
241.9114791127865
 30
0.0
 40
13.0
100
AcDbArc
 50
179.9999999999992
 51
-120.0000000000009
  0
ARC
  5
151
330
48
100
AcDbEntity
  8
1
  6
Continuous
 62
     7
100
AcDbCircle
 10
266.3895143636948
 20
241.9114791127865
 30
0.0
 40
14.49999999999984
100
AcDbArc
 50
-153.7084447252719
 51
-146.2915552747287
  0
ARC
  5
152
330
48
100
AcDbEntity
  8
1
  6
Continuous
 62
     7
100
AcDbCircle
 10
266.3895143636948
 20
241.9114791127865
 30
0.0
 40
12.99999999999997
100
AcDbArc
 50
119.9999999999989
 51
179.9999999999992
  0
ARC
  5
153
330
48
100
AcDbEntity
  8
1
  6
Continuous
 62
     7
100
AcDbCircle
 10
266.3895143636948
 20
241.9114791127865
 30
0.0
 40
14.50000000000006
100
AcDbArc
 50
146.2915552747278
 51
153.7084447252705
  0
ARC
  5
154
330
48
100
AcDbEntity
  8
1
  6
Continuous
 62
     7
100
AcDbCircle
 10
266.3895143636948
 20
241.9114791127865
 30
0.0
 40
13.0000000000002
100
AcDbArc
 50
59.99999999999935
 51
119.9999999999989
  0
ARC
  5
155
330
48
100
AcDbEntity
  8
1
  6
Continuous
 62
     7
100
AcDbCircle
 10
266.3895143636948
 20
241.9114791127865
 30
0.0
 40
14.50000000000031
100
AcDbArc
 50
89.99999999999911
 51
93.70844472527006
  0
ARC
  5
156
330
48
100
AcDbEntity
  8
1
  6
Continuous
 62
     7
100
AcDbCircle
 10
266.3895143636948
 20
241.9114791127865
 30
0.0
 40
14.5000000000001
100
AcDbArc
 50
86.29155527472882
 51
89.99999999999911
  0
ARC
  5
157
330
48
100
AcDbEntity
  8
1
  6
Continuous
 62
     7
100
AcDbCircle
 10
266.3895143636948
 20
241.9114791127865
 30
0.0
 40
14.49999999999982
100
AcDbArc
 50
-93.70844472527013
 51
-90.0
  0
ARC
  5
158
330
48
100
AcDbEntity
  8
1
  6
Continuous
 62
     7
100
AcDbCircle
 10
240.4830591585556
 20
346.6222950386596
 30
0.0
 40
23.99999999999993
100
AcDbArc
 50
56.04080749990181
 51
57.46810848225134
  0
ARC
  5
159
330
48
100
AcDbEntity
  8
1
  6
Continuous
 62
     7
100
AcDbCircle
 10
292.2959695687854
 20
346.6222950386596
 30
0.0
 40
23.99999999999978
100
AcDbArc
 50
123.9591925000977
 51
146.0408074999025
  0
ARC
  5
15A
330
48
100
AcDbEntity
  8
1
  6
Continuous
 62
     7
100
AcDbCircle
 10
240.4830591585556
 20
346.6222950386596
 30
0.0
 40
23.99999999999997
100
AcDbArc
 50
33.95919250009739
 51
56.04080749990181
  0
ARC
  5
15B
330
48
100
AcDbEntity
  8
1
  6
Continuous
 62
     7
100
AcDbCircle
 10
292.2959695687854
 20
346.6222950386596
 30
0.0
 40
23.99999999999973
100
AcDbArc
 50
122.5318915177484
 51
123.9591925000977
  0
CIRCLE
  5
15C
330
48
100
AcDbEntity
  8
1
  6
Continuous
 62
     7
100
AcDbCircle
 10
266.3895143636948
 20
241.9114791127865
 30
0.0
 40
5.999999999999801
  0
CIRCLE
  5
15D
330
48
100
AcDbEntity
  8
1
  6
Continuous
 62
     7
100
AcDbCircle
 10
266.3895143636948
 20
241.9114791127865
 30
0.0
 40
4.999999999999801
  0
SPLINE
  5
15E
330
48
100
AcDbEntity
  8
0
  6
Continuous
 62
     7
100
AcDbSpline
210
0.0
220
0.0
230
1.0
 70
    11
 71
     3
 72
    79
 73
    75
 74
    73
 42
0.0000000001
 43
0.0000000001
 44
0.00000001
 40
0.0
 40
0.0
 40
0.0
 40
0.0
 40
0.2804298739044268
 40
0.560861562404557
 40
0.8430390484978032
 40
1.125221505535884
 40
1.410656636455666
 40
1.69609872614247
 40
1.985866401890209
 40
2.275641686413413
 40
2.570259902967665
 40
2.864885283322827
 40
3.164276389853131
 40
3.463673499687146
 40
3.76720050111717
 40
4.07073195370442
 40
4.377293191266127
 40
4.683857145435338
 40
4.992021213448465
 40
5.300186192772587
 40
5.608351172096596
 40
5.91651524010961
 40
6.223079194278877
 40
6.529640431840749
 40
6.833171884427912
 40
7.136698885857758
 40
7.436095995691788
 40
7.735487102222075
 40
8.03011248257728
 40
8.324730699131573
 40
8.614505983654887
 40
8.904273659402659
 40
9.189715749089437
 40
9.475150880009222
 40
9.757333337047349
 40
10.03951082314057
 40
10.3199425116407
 40
10.60037238554512
 40
10.88080225944958
 40
11.16123394794977
 40
11.44341143404299
 40
11.72559389108112
 40
12.01102902200082
 40
12.29647111168766
 40
12.58623878743548
 40
12.87601407195875
 40
13.17063228851304
 40
13.46525766886832
 40
13.76464877539856
 40
14.06404588523259
 40
14.36757288666252
 40
14.67110433924963
 40
14.97766557681143
 40
15.28422953098075
 40
15.59239359899376
 40
15.90055857831777
 40
16.2087235576419
 40
16.51688762565503
 40
16.82345157982423
 40
17.13001281738593
 40
17.43354426997316
 40
17.73707127140323
 40
18.03646838123725
 40
18.3358594877675
 40
18.63048486812272
 40
18.92510308467698
 40
19.2148783692002
 40
19.50464604494794
 40
19.79008813463477
 40
20.07552326555451
 40
20.35770572259261
 40
20.63988320868583
 40
20.92031489718602
 40
21.20074477109047
 40
21.20074477109047
 40
21.20074477109047
 40
21.20074477109047
 10
128.8790441642315
 20
366.9581347055902
 30
0.0
 10
128.9725559597869
 20
366.9607434839826
 30
0.0
 10
129.1595801559905
 20
366.9659610576482
 30
0.0
 10
129.438112229508
 20
367.0078626034592
 30
0.0
 10
129.7120652725226
 20
367.0744423820345
 30
0.0
 10
129.9800422157759
 20
367.1676333144767
 30
0.0
 10
130.2390741317475
 20
367.2859088904197
 30
0.0
 10
130.4882724092306
 20
367.4288536345292
 30
0.0
 10
130.7245496589048
 20
367.5947933299806
 30
0.0
 10
130.9473481378196
 20
367.7831795855895
 30
0.0
 10
131.1537625770549
 20
367.9916704719018
 30
0.0
 10
131.3433831670583
 20
368.2197049017283
 30
0.0
 10
131.513742132404
 20
368.4644097662564
 30
0.0
 10
131.6644509503656
 20
368.7250978559608
 30
0.0
 10
131.7936427332118
 20
368.9986186321347
 30
0.0
 10
131.9009123329121
 20
369.2839965544901
 30
0.0
 10
131.9850480480719
 20
369.5780824716053
 30
0.0
 10
132.0456813550309
 20
369.8794651181916
 30
0.0
 10
132.0822090885823
 20
370.1852468256516
 30
0.0
 10
132.0944239250758
 20
370.4934918127262
 30
0.0
 10
132.0822090885823
 20
370.801736799799
 30
0.0
 10
132.0456813550309
 20
371.1075185072635
 30
0.0
 10
131.9850480480719
 20
371.4089011538329
 30
0.0
 10
131.9009123329121
 20
371.7029870710121
 30
0.0
 10
131.7936427332117
 20
371.9883649931304
 30
0.0
 10
131.6644509503656
 20
372.2618857701836
 30
0.0
 10
131.5137421324039
 20
372.5225738566487
 30
0.0
 10
131.3433831670583
 20
372.7672787331669
 30
0.0
 10
131.1537625770548
 20
372.9953131189288
 30
0.0
 10
130.9473481378195
 20
373.2038041682371
 30
0.0
 10
130.7245496589049
 20
373.3921898251149
 30
0.0
 10
130.4882724092306
 20
373.5581317361605
 30
0.0
 10
130.2390741317477
 20
373.7010683296682
 30
0.0
 10
129.9800422157759
 20
373.8193741123498
 30
0.0
 10
129.7120652725226
 20
373.9124535390265
 30
0.0
 10
129.438112229508
 20
373.9794476025933
 30
0.0
 10
129.1595801559905
 20
374.0198121133097
 30
0.0
 10
128.8790441642315
 20
374.0333673085189
 30
0.0
 10
128.5985081724724
 20
374.0198121133097
 30
0.0
 10
128.3199760989549
 20
373.9794476025936
 30
0.0
 10
128.0460230559402
 20
373.9124535390264
 30
0.0
 10
127.7780461126871
 20
373.8193741123497
 30
0.0
 10
127.5190141967153
 20
373.7010683296683
 30
0.0
 10
127.2698159192323
 20
373.5581317361606
 30
0.0
 10
127.033538669558
 20
373.3921898251147
 30
0.0
 10
126.8107401906434
 20
373.2038041682371
 30
0.0
 10
126.604325751408
 20
372.9953131189289
 30
0.0
 10
126.4147051614045
 20
372.7672787331669
 30
0.0
 10
126.244346196059
 20
372.5225738566487
 30
0.0
 10
126.0936373780973
 20
372.2618857701835
 30
0.0
 10
125.9644455952511
 20
371.9883649931304
 30
0.0
 10
125.8571759955506
 20
371.7029870710122
 30
0.0
 10
125.7730402803909
 20
371.4089011538327
 30
0.0
 10
125.7124069734321
 20
371.1075185072638
 30
0.0
 10
125.6758792398806
 20
370.801736799799
 30
0.0
 10
125.663664403387
 20
370.4934918127261
 30
0.0
 10
125.6758792398806
 20
370.1852468256517
 30
0.0
 10
125.7124069734321
 20
369.8794651181916
 30
0.0
 10
125.7730402803909
 20
369.5780824716053
 30
0.0
 10
125.8571759955507
 20
369.2839965544902
 30
0.0
 10
125.9644455952512
 20
368.9986186321347
 30
0.0
 10
126.0936373780973
 20
368.7250978559609
 30
0.0
 10
126.2443461960589
 20
368.4644097662563
 30
0.0
 10
126.4147051614045
 20
368.2197049017284
 30
0.0
 10
126.604325751408
 20
367.9916704719018
 30
0.0
 10
126.8107401906434
 20
367.7831795855895
 30
0.0
 10
127.0335386695581
 20
367.5947933299805
 30
0.0
 10
127.2698159192324
 20
367.4288536345293
 30
0.0
 10
127.5190141967153
 20
367.2859088904196
 30
0.0
 10
127.778046112687
 20
367.1676333144766
 30
0.0
 10
128.0460230559402
 20
367.0744423820347
 30
0.0
 10
128.3199760989548
 20
367.0078626034593
 30
0.0
 10
128.5985081724725
 20
366.9659610576483
 30
0.0
 10
128.7855323686761
 20
366.9607434839826
 30
0.0
 10
128.8790441642315
 20
366.9581347055902
 30
0.0
 11
128.8790441642315
 21
366.9581347055902
 31
0.0
 11
129.1591493344398
 21
366.9716257322607
 31
0.0
 11
129.4366819714798
 21
367.0118447239519
 31
0.0
 11
129.7108020939
 21
367.0787946465976
 31
0.0
 11
129.9773762361331
 21
367.1713428273075
 31
0.0
 11
130.2370594270584
 21
367.2898242786578
 31
0.0
 11
130.4846982365646
 21
367.4317827464964
 31
0.0
 11
130.7218982050655
 21
367.5982203649949
 31
0.0
 11
130.9432332505084
 21
367.7852511463633
 31
0.0
 11
131.1506027015646
 21
367.9945303959182
 31
0.0
 11
131.3390489235957
 21
368.2210080684416
 31
0.0
 11
131.5101994322854
 21
368.4666552504826
 31
0.0
 11
131.6601185968923
 21
368.7258132591579
 31
0.0
 11
131.7898309708888
 21
369.0002278007356
 31
0.0
 11
131.896686730844
 21
369.2843284682359
 31
0.0
 11
131.9810668304196
 21
369.5790483202496
 31
0.0
 11
132.04156532241
 21
369.8795834936699
 31
0.0
 11
132.0781463556982
 21
370.1855686580455
 31
0.0
 11
132.0903523088977
 21
370.4934918127259
 31
0.0
 11
132.0781463556982
 21
370.8014149674062
 31
0.0
 11
132.04156532241
 21
371.1074001317817
 31
0.0
 11
131.9810668304196
 21
371.407935305202
 31
0.0
 11
131.896686730844
 21
371.7026551572159
 31
0.0
 11
131.7898309708887
 21
371.9867558247161
 31
0.0
 11
131.6601185968923
 21
372.2611703662936
 31
0.0
 11
131.5101994322854
 21
372.5203283749689
 31
0.0
 11
131.3390489235957
 21
372.7659755570099
 31
0.0
 11
131.1506027015646
 21
372.9924532295333
 31
0.0
 11
130.9432332505084
 21
373.2017324790883
 31
0.0
 11
130.7218982050655
 21
373.3887632604569
 31
0.0
 11
130.4846982365646
 21
373.5552008789554
 31
0.0
 11
130.2370594270584
 21
373.6971593467941
 31
0.0
 11
129.9773762361331
 21
373.8156407981443
 31
0.0
 11
129.7108020938999
 21
373.9081889788542
 31
0.0
 11
129.4366819714798
 21
373.9751389014999
 31
0.0
 11
129.1591493344398
 21
374.0153578931912
 31
0.0
 11
128.8790441642315
 21
374.0288489198616
 31
0.0
 11
128.5989389940231
 21
374.0153578931912
 31
0.0
 11
128.3214063569831
 21
373.9751389014999
 31
0.0
 11
128.047286234563
 21
373.9081889788542
 31
0.0
 11
127.7807120923298
 21
373.8156407981443
 31
0.0
 11
127.5210289014046
 21
373.6971593467941
 31
0.0
 11
127.2733900918983
 21
373.5552008789554
 31
0.0
 11
127.0361901233974
 21
373.3887632604569
 31
0.0
 11
126.8148550779545
 21
373.2017324790883
 31
0.0
 11
126.6074856268983
 21
372.9924532295334
 31
0.0
 11
126.4190394048671
 21
372.7659755570099
 31
0.0
 11
126.2478888961775
 21
372.5203283749689
 31
0.0
 11
126.0979697315706
 21
372.2611703662936
 31
0.0
 11
125.9682573575741
 21
371.986755824716
 31
0.0
 11
125.8614015976188
 21
371.7026551572159
 31
0.0
 11
125.7770214980433
 21
371.4079353052021
 31
0.0
 11
125.7165230060529
 21
371.1074001317817
 31
0.0
 11
125.6799419727647
 21
370.8014149674062
 31
0.0
 11
125.6677360195651
 21
370.4934918127259
 31
0.0
 11
125.6799419727647
 21
370.1855686580455
 31
0.0
 11
125.7165230060529
 21
369.8795834936699
 31
0.0
 11
125.7770214980433
 21
369.5790483202496
 31
0.0
 11
125.8614015976188
 21
369.2843284682359
 31
0.0
 11
125.9682573575741
 21
369.0002278007357
 31
0.0
 11
126.0979697315706
 21
368.7258132591579
 31
0.0
 11
126.2478888961775
 21
368.4666552504826
 31
0.0
 11
126.4190394048671
 21
368.2210080684416
 31
0.0
 11
126.6074856268983
 21
367.9945303959182
 31
0.0
 11
126.8148550779545
 21
367.7852511463633
 31
0.0
 11
127.0361901233974
 21
367.5982203649949
 31
0.0
 11
127.2733900918983
 21
367.4317827464964
 31
0.0
 11
127.5210289014046
 21
367.2898242786577
 31
0.0
 11
127.7807120923298
 21
367.1713428273075
 31
0.0
 11
128.047286234563
 21
367.0787946465976
 31
0.0
 11
128.3214063569831
 21
367.0118447239519
 31
0.0
 11
128.5989389940231
 21
366.9716257322607
 31
0.0
 11
128.8790441642315
 21
366.9581347055902
 31
0.0
  0
SPLINE
  5
15F
330
48
100
AcDbEntity
  8
0
  6
Continuous
 62
     7
100
AcDbSpline
210
0.0
220
0.0
230
1.0
 70
    11
 71
     3
 72
    79
 73
    75
 74
    73
 42
0.0000000001
 43
0.0000000001
 44
0.00000001
 40
0.0
 40
0.0
 40
0.0
 40
0.0
 40
0.3116700534177665
 40
0.6234686074598124
 40
0.9551731643378706
 40
1.287058859521983
 40
1.653584847360777
 40
2.020201093449769
 40
2.428997907188977
 40
2.837843043328504
 40
3.289957832551626
 40
3.742100124812549
 40
4.233747147215362
 40
4.725411055863051
 40
5.249371789783512
 40
5.77334276168535
 40
6.320057953693396
 40
6.866778681134218
 40
7.425225176341247
 40
7.983673425729974
 40
8.542121675118745
 40
9.100568170325831
 40
9.647288897766652
 40
10.19400408977469
 40
10.71797506167645
 40
11.24193579559679
 40
11.73359970424459
 40
12.22524672664738
 40
12.6773890189083
 40
13.12950380813142
 40
13.53834894427101
 40
13.94714575801025
 40
14.31376200409924
 40
14.68028799193791
 40
15.01217368712202
 40
15.34387824400008
 40
15.65567679804213
 40
15.96734685145989
 40
16.27901690487771
 40
16.59081545891993
 40
16.92252001579788
 40
17.2544057109819
 40
17.62093169882075
 40
17.98754794490978
 40
18.39634475864902
 40
18.80518989478861
 40
19.25730468401177
 40
19.7094469762726
 40
20.20109399867537
 40
20.69275790732311
 40
21.21671864124349
 40
21.74068961314528
 40
22.28740480515326
 40
22.8341255325941
 40
23.3925720278012
 40
23.95102027718996
 40
24.50946852657865
 40
25.06791502178572
 40
25.61463574922652
 40
26.16135094123454
 40
26.68532191313639
 40
27.20928264705691
 40
27.70094655570462
 40
28.19259357810732
 40
28.64473587036819
 40
29.09685065959131
 40
29.50569579573088
 40
29.91449260947005
 40
30.28110885555908
 40
30.64763484339806
 40
30.97952053858207
 40
31.31122509546002
 40
31.6230236495023
 40
31.93469370292006
 40
31.93469370292006
 40
31.93469370292006
 40
31.93469370292006
 10
111.1980976257012
 20
370.4934918127259
 30
0.0
 10
111.2030529671622
 20
370.5974776950523
 30
0.0
 10
111.2129656931566
 20
370.805492332771
 30
0.0
 10
111.2905786006596
 20
371.1162331120862
 30
0.0
 10
111.4131585764594
 20
371.4183326360164
 30
0.0
 10
111.585788954389
 20
371.7163350636849
 30
0.0
 10
111.801039690271
 20
371.999729209741
 30
0.0
 10
112.0643312799039
 20
372.2755446447042
 30
0.0
 10
112.364429609231
 20
372.5329801941105
 30
0.0
 10
112.7096317392174
 20
372.7786991235083
 30
0.0
 10
113.0857999493703
 20
373.0033842460528
 30
0.0
 10
113.5021090644353
 20
373.2120073972143
 30
0.0
 10
113.9435228485099
 20
373.3975763194583
 30
0.0
 10
114.4181998658504
 20
373.5630997430021
 30
0.0
 10
114.9119634234486
 20
373.7040210960784
 30
0.0
 10
115.4305801620365
 20
373.8216613634505
 30
0.0
 10
115.9620649708145
 20
373.9135886167948
 30
0.0
 10
116.5088977511842
 20
373.979976466563
 30
0.0
 10
117.0622115885072
 20
374.0199783945783
 30
0.0
 10
117.6207139150349
 20
374.0332841894693
 30
0.0
 10
118.1792162415562
 20
374.0199783945781
 30
0.0
 10
118.7325300788979
 20
373.979976466563
 30
0.0
 10
119.279362859201
 20
373.9135886167947
 30
0.0
 10
119.8108476682226
 20
373.8216613634506
 30
0.0
 10
120.3294644059376
 20
373.7040210960781
 30
0.0
 10
120.8232279666976
 20
373.5630997430022
 30
0.0
 10
121.2979049729328
 20
373.3975763194582
 30
0.0
 10
121.7393187967931
 20
373.2120073972142
 30
0.0
 10
122.1556277747429
 20
373.0033842460529
 30
0.0
 10
122.5317964713323
 20
372.7786991235083
 30
0.0
 10
122.8769969510842
 20
372.5329801941106
 30
0.0
 10
123.1771010971375
 20
372.2755446447043
 30
0.0
 10
123.4403731052924
 20
371.9997292097409
 30
0.0
 10
123.6556929278772
 20
371.7163350636851
 30
0.0
 10
123.828088625373
 20
371.4183326360164
 30
0.0
 10
123.9515080489271
 20
371.1162331120861
 30
0.0
 10
124.0261668908572
 20
370.8054923327711
 30
0.0
 10
124.0519100923899
 20
370.4934918127258
 30
0.0
 10
124.0261668908572
 20
370.1814912926806
 30
0.0
 10
123.9515080489271
 20
369.8707505133654
 30
0.0
 10
123.828088625373
 20
369.5686509894353
 30
0.0
 10
123.655692927877
 20
369.2706485617667
 30
0.0
 10
123.4403731052925
 20
368.9872544157107
 30
0.0
 10
123.1771010971376
 20
368.7114389807474
 30
0.0
 10
122.8769969510843
 20
368.454003431341
 30
0.0
 10
122.5317964713323
 20
368.2082845019432
 30
0.0
 10
122.1556277747429
 20
367.9835993793988
 30
0.0
 10
121.7393187967931
 20
367.7749762282373
 30
0.0
 10
121.2979049729328
 20
367.5894073059936
 30
0.0
 10
120.8232279666976
 20
367.4238838824498
 30
0.0
 10
120.3294644059376
 20
367.2829625293733
 30
0.0
 10
119.8108476682227
 20
367.1653222620011
 30
0.0
 10
119.279362859201
 20
367.0733950086568
 30
0.0
 10
118.7325300788979
 20
367.0070071588889
 30
0.0
 10
118.1792162415563
 20
366.9670052308738
 30
0.0
 10
117.6207139150348
 20
366.9536994359824
 30
0.0
 10
117.0622115885073
 20
366.9670052308739
 30
0.0
 10
116.5088977511842
 20
367.0070071588888
 30
0.0
 10
115.9620649708145
 20
367.073395008657
 30
0.0
 10
115.4305801620365
 20
367.1653222620009
 30
0.0
 10
114.9119634234485
 20
367.2829625293733
 30
0.0
 10
114.4181998658504
 20
367.4238838824497
 30
0.0
 10
113.94352284851
 20
367.5894073059938
 30
0.0
 10
113.5021090644352
 20
367.7749762282373
 30
0.0
 10
113.0857999493703
 20
367.9835993793988
 30
0.0
 10
112.7096317392174
 20
368.2082845019431
 30
0.0
 10
112.3644296092309
 20
368.454003431341
 30
0.0
 10
112.0643312799039
 20
368.7114389807474
 30
0.0
 10
111.801039690271
 20
368.9872544157107
 30
0.0
 10
111.5857889543891
 20
369.2706485617667
 30
0.0
 10
111.4131585764594
 20
369.5686509894352
 30
0.0
 10
111.2905786006596
 20
369.8707505133654
 30
0.0
 10
111.2129656931566
 20
370.1814912926807
 30
0.0
 10
111.2030529671622
 20
370.3895059303995
 30
0.0
 10
111.1980976257012
 20
370.4934918127259
 30
0.0
 11
111.1980976257012
 21
370.4934918127259
 31
0.0
 11
111.2231463062177
 21
370.8041536639433
 31
0.0
 11
111.2956715986766
 21
371.1074001317817
 31
0.0
 11
111.4200848600711
 21
371.4148887550555
 31
0.0
 11
111.5854287818086
 21
371.7026551572159
 31
0.0
 11
111.8062359753693
 21
371.9952051239447
 31
0.0
 11
112.0585650497121
 21
372.2611703662936
 31
0.0
 11
112.3681900512428
 21
372.5280920652063
 31
0.0
 11
112.7007043963052
 21
372.7659755570099
 31
0.0
 11
113.0884511655557
 21
372.9984841064657
 31
0.0
 11
113.4923357424799
 21
373.2017324790883
 31
0.0
 11
113.9453407396904
 21
373.3927907611381
 31
0.0
 11
114.4094057703675
 21
373.5552008789554
 31
0.0
 11
114.9131426180244
 21
373.6993675845539
 31
0.0
 11
115.4240497712305
 21
373.8156407981443
 31
0.0
 11
115.9627282573356
 21
373.9090377455244
 31
0.0
 11
116.5054383005374
 21
373.9751389014999
 31
0.0
 11
117.0624256623374
 21
374.015482014966
 31
0.0
 11
117.6207139150338
 21
374.0288489198616
 31
0.0
 11
118.1790021677303
 21
374.015482014966
 31
0.0
 11
118.7359895295303
 21
373.9751389014999
 31
0.0
 11
119.2786995727321
 21
373.9090377455243
 31
0.0
 11
119.8173780588372
 21
373.8156407981443
 31
0.0
 11
120.3282852120432
 21
373.6993675845539
 31
0.0
 11
120.8320220597
 21
373.5552008789554
 31
0.0
 11
121.2960870903772
 21
373.3927907611381
 31
0.0
 11
121.7490920875877
 21
373.2017324790883
 31
0.0
 11
122.1529766645119
 21
372.9984841064657
 31
0.0
 11
122.5407234337624
 21
372.7659755570099
 31
0.0
 11
122.8732377788249
 21
372.5280920652064
 31
0.0
 11
123.1828627803556
 21
372.2611703662936
 31
0.0
 11
123.4351918546984
 21
371.9952051239447
 31
0.0
 11
123.6559990482589
 21
371.7026551572159
 31
0.0
 11
123.8213429699964
 21
371.4148887550555
 31
0.0
 11
123.9457562313909
 21
371.1074001317817
 31
0.0
 11
124.0182815238498
 21
370.8041536639433
 31
0.0
 11
124.0433302043663
 21
370.4934918127259
 31
0.0
 11
124.0182815238498
 21
370.1828299615085
 31
0.0
 11
123.9457562313909
 21
369.8795834936699
 31
0.0
 11
123.8213429699964
 21
369.5720948703961
 31
0.0
 11
123.6559990482589
 21
369.2843284682359
 31
0.0
 11
123.4351918546984
 21
368.9917785015069
 31
0.0
 11
123.1828627803556
 21
368.7258132591579
 31
0.0
 11
122.8732377788249
 21
368.4588915602452
 31
0.0
 11
122.5407234337624
 21
368.2210080684416
 31
0.0
 11
122.1529766645118
 21
367.9884995189858
 31
0.0
 11
121.7490920875877
 21
367.7852511463633
 31
0.0
 11
121.2960870903771
 21
367.5941928643137
 31
0.0
 11
120.8320220597
 21
367.4317827464964
 31
0.0
 11
120.3282852120432
 21
367.2876160408978
 31
0.0
 11
119.8173780588372
 21
367.1713428273073
 31
0.0
 11
119.2786995727322
 21
367.0779458799273
 31
0.0
 11
118.7359895295303
 21
367.0118447239519
 31
0.0
 11
118.1790021677303
 21
366.9715016104858
 31
0.0
 11
117.6207139150338
 21
366.9581347055902
 31
0.0
 11
117.0624256623374
 21
366.9715016104859
 31
0.0
 11
116.5054383005374
 21
367.0118447239519
 31
0.0
 11
115.9627282573356
 21
367.0779458799273
 31
0.0
 11
115.4240497712305
 21
367.1713428273073
 31
0.0
 11
114.9131426180245
 21
367.2876160408978
 31
0.0
 11
114.4094057703675
 21
367.4317827464964
 31
0.0
 11
113.9453407396904
 21
367.5941928643138
 31
0.0
 11
113.4923357424799
 21
367.7852511463633
 31
0.0
 11
113.0884511655557
 21
367.9884995189858
 31
0.0
 11
112.7007043963052
 21
368.2210080684416
 31
0.0
 11
112.3681900512427
 21
368.4588915602452
 31
0.0
 11
112.0585650497121
 21
368.7258132591579
 31
0.0
 11
111.8062359753693
 21
368.9917785015068
 31
0.0
 11
111.5854287818086
 21
369.2843284682359
 31
0.0
 11
111.4200848600711
 21
369.5720948703961
 31
0.0
 11
111.2956715986766
 21
369.8795834936699
 31
0.0
 11
111.2231463062177
 21
370.1828299615085
 31
0.0
 11
111.1980976257012
 21
370.4934918127259
 31
0.0
  0
SPLINE
  5
160
330
48
100
AcDbEntity
  8
0
  6
Continuous
 62
     7
100
AcDbSpline
210
0.0
220
0.0
230
1.0
 70
    11
 71
     3
 72
    79
 73
    75
 74
    73
 42
0.0000000001
 43
0.0000000001
 44
0.00000001
 40
0.0
 40
0.0
 40
0.0
 40
0.0
 40
0.2804298739044694
 40
0.5608615624046418
 40
0.8430390484979153
 40
1.125221505536072
 40
1.410656636455815
 40
1.696098726142644
 40
1.98586640189037
 40
2.275641686413596
 40
2.570259902967918
 40
2.86488528332308
 40
3.164276389853352
 40
3.463673499687346
 40
3.767200501117333
 40
4.070731953704608
 40
4.377293191266312
 40
4.683857145435526
 40
4.992021213448653
 40
5.300186192772775
 40
5.608351172096784
 40
5.916515240109795
 40
6.223079194279176
 40
6.529640431840934
 40
6.833171884428102
 40
7.136698885857936
 40
7.436095995691952
 40
7.7354871022222
 40
8.030112482577414
 40
8.324730699131766
 40
8.61450598365507
 40
8.904273659402865
 40
9.189715749089656
 40
9.475150880009414
 40
9.757333337047609
 40
10.03951082314087
 40
10.31994251164104
 40
10.60037238554551
 40
10.88080225944982
 40
11.16123394794986
 40
11.4434114340431
 40
11.7255938910813
 40
12.01102902200098
 40
12.29647111168786
 40
12.58623878743568
 40
12.87601407195895
 40
13.17063228851324
 40
13.46525766886852
 40
13.76464877539881
 40
14.0640458852329
 40
14.36757288666277
 40
14.67110433924986
 40
14.97766557681162
 40
15.284229530981
 40
15.59239359899401
 40
15.90055857831802
 40
16.20872355764214
 40
16.51688762565527
 40
16.82345157982448
 40
17.13001281738619
 40
17.43354426997342
 40
17.73707127140341
 40
18.03646838123746
 40
18.33585948776779
 40
18.63048486812301
 40
18.92510308467728
 40
19.21487836920051
 40
19.50464604494823
 40
19.7900881346351
 40
20.07552326555481
 40
20.35770572259299
 40
20.63988320868623
 40
20.92031489718626
 40
21.20074477109058
 40
21.20074477109058
 40
21.20074477109058
 40
21.20074477109058
 10
106.3623836658363
 20
366.9581347055902
 30
0.0
 10
106.2688718702809
 20
366.9607434839827
 30
0.0
 10
106.0818476740773
 20
366.9659610576483
 30
0.0
 10
105.8033156005596
 20
367.0078626034593
 30
0.0
 10
105.529362557545
 20
367.0744423820347
 30
0.0
 10
105.2613856142917
 20
367.1676333144766
 30
0.0
 10
105.00235369832
 20
367.2859088904197
 30
0.0
 10
104.753155420837
 20
367.4288536345292
 30
0.0
 10
104.5168781711627
 20
367.5947933299805
 30
0.0
 10
104.2940796922481
 20
367.7831795855896
 30
0.0
 10
104.0876652530126
 20
367.9916704719017
 30
0.0
 10
103.8980446630092
 20
368.2197049017283
 30
0.0
 10
103.7276856976636
 20
368.4644097662564
 30
0.0
 10
103.576976879702
 20
368.7250978559607
 30
0.0
 10
103.447785096856
 20
368.9986186321348
 30
0.0
 10
103.3405154971555
 20
369.2839965544901
 30
0.0
 10
103.2563797819957
 20
369.5780824716053
 30
0.0
 10
103.1957464750367
 20
369.8794651181916
 30
0.0
 10
103.1592187414853
 20
370.1852468256516
 30
0.0
 10
103.1470039049918
 20
370.4934918127261
 30
0.0
 10
103.1592187414854
 20
370.801736799799
 30
0.0
 10
103.1957464750367
 20
371.1075185072637
 30
0.0
 10
103.2563797819957
 20
371.4089011538329
 30
0.0
 10
103.3405154971554
 20
371.7029870710121
 30
0.0
 10
103.447785096856
 20
371.9883649931305
 30
0.0
 10
103.576976879702
 20
372.2618857701835
 30
0.0
 10
103.7276856976637
 20
372.5225738566487
 30
0.0
 10
103.8980446630092
 20
372.7672787331669
 30
0.0
 10
104.0876652530127
 20
372.9953131189288
 30
0.0
 10
104.2940796922481
 20
373.2038041682372
 30
0.0
 10
104.5168781711627
 20
373.3921898251148
 30
0.0
 10
104.7531554208371
 20
373.5581317361606
 30
0.0
 10
105.00235369832
 20
373.701068329668
 30
0.0
 10
105.2613856142918
 20
373.8193741123497
 30
0.0
 10
105.529362557545
 20
373.9124535390265
 30
0.0
 10
105.8033156005597
 20
373.9794476025936
 30
0.0
 10
106.0818476740773
 20
374.0198121133096
 30
0.0
 10
106.3623836658363
 20
374.0333673085189
 30
0.0
 10
106.6429196575952
 20
374.0198121133096
 30
0.0
 10
106.9214517311127
 20
373.9794476025934
 30
0.0
 10
107.1954047741273
 20
373.9124535390267
 30
0.0
 10
107.4633817173805
 20
373.8193741123495
 30
0.0
 10
107.7224136333524
 20
373.7010683296683
 30
0.0
 10
107.9716119108352
 20
373.5581317361605
 30
0.0
 10
108.2078891605096
 20
373.3921898251148
 30
0.0
 10
108.4306876394242
 20
373.2038041682371
 30
0.0
 10
108.6371020786597
 20
372.995313118929
 30
0.0
 10
108.8267226686631
 20
372.7672787331669
 30
0.0
 10
108.9970816340088
 20
372.5225738566486
 30
0.0
 10
109.1477904519705
 20
372.2618857701837
 30
0.0
 10
109.2769822348165
 20
371.9883649931304
 30
0.0
 10
109.3842518345169
 20
371.7029870710122
 30
0.0
 10
109.4683875496767
 20
371.4089011538328
 30
0.0
 10
109.5290208566357
 20
371.1075185072637
 30
0.0
 10
109.565548590187
 20
370.801736799799
 30
0.0
 10
109.5777634266805
 20
370.4934918127261
 30
0.0
 10
109.5655485901871
 20
370.1852468256515
 30
0.0
 10
109.5290208566357
 20
369.8794651181917
 30
0.0
 10
109.4683875496767
 20
369.5780824716053
 30
0.0
 10
109.3842518345169
 20
369.2839965544901
 30
0.0
 10
109.2769822348166
 20
368.9986186321346
 30
0.0
 10
109.1477904519705
 20
368.7250978559607
 30
0.0
 10
108.9970816340088
 20
368.4644097662564
 30
0.0
 10
108.8267226686631
 20
368.2197049017284
 30
0.0
 10
108.6371020786597
 20
367.9916704719018
 30
0.0
 10
108.4306876394242
 20
367.7831795855894
 30
0.0
 10
108.2078891605096
 20
367.5947933299806
 30
0.0
 10
107.9716119108352
 20
367.4288536345292
 30
0.0
 10
107.7224136333523
 20
367.2859088904194
 30
0.0
 10
107.4633817173806
 20
367.1676333144766
 30
0.0
 10
107.1954047741273
 20
367.0744423820347
 30
0.0
 10
106.9214517311127
 20
367.0078626034592
 30
0.0
 10
106.6429196575952
 20
366.9659610576483
 30
0.0
 10
106.4558954613917
 20
366.9607434839826
 30
0.0
 10
106.3623836658363
 20
366.9581347055902
 30
0.0
 11
106.3623836658363
 21
366.9581347055902
 31
0.0
 11
106.082278495628
 21
366.9716257322607
 31
0.0
 11
105.8047458585879
 21
367.0118447239519
 31
0.0
 11
105.5306257361677
 21
367.0787946465977
 31
0.0
 11
105.2640515939345
 21
367.1713428273075
 31
0.0
 11
105.0043684030093
 21
367.2898242786578
 31
0.0
 11
104.756729593503
 21
367.4317827464964
 31
0.0
 11
104.5195296250021
 21
367.5982203649949
 31
0.0
 11
104.2981945795592
 21
367.7852511463633
 31
0.0
 11
104.0908251285029
 21
367.9945303959182
 31
0.0
 11
103.9023789064718
 21
368.2210080684416
 31
0.0
 11
103.7312283977821
 21
368.4666552504826
 31
0.0
 11
103.5813092331753
 21
368.7258132591579
 31
0.0
 11
103.4515968591789
 21
369.0002278007356
 31
0.0
 11
103.3447410992236
 21
369.2843284682359
 31
0.0
 11
103.2603609996481
 21
369.5790483202496
 31
0.0
 11
103.1998625076576
 21
369.8795834936699
 31
0.0
 11
103.1632814743695
 21
370.1855686580455
 31
0.0
 11
103.1510755211699
 21
370.4934918127259
 31
0.0
 11
103.1632814743695
 21
370.8014149674062
 31
0.0
 11
103.1998625076576
 21
371.1074001317817
 31
0.0
 11
103.2603609996481
 21
371.4079353052021
 31
0.0
 11
103.3447410992236
 21
371.7026551572159
 31
0.0
 11
103.4515968591789
 21
371.9867558247161
 31
0.0
 11
103.5813092331753
 21
372.2611703662936
 31
0.0
 11
103.7312283977822
 21
372.5203283749689
 31
0.0
 11
103.9023789064718
 21
372.7659755570099
 31
0.0
 11
104.0908251285029
 21
372.9924532295333
 31
0.0
 11
104.2981945795592
 21
373.2017324790883
 31
0.0
 11
104.5195296250021
 21
373.3887632604569
 31
0.0
 11
104.756729593503
 21
373.5552008789554
 31
0.0
 11
105.0043684030092
 21
373.6971593467941
 31
0.0
 11
105.2640515939345
 21
373.8156407981443
 31
0.0
 11
105.5306257361677
 21
373.9081889788542
 31
0.0
 11
105.8047458585879
 21
373.9751389014999
 31
0.0
 11
106.082278495628
 21
374.0153578931912
 31
0.0
 11
106.3623836658363
 21
374.0288489198616
 31
0.0
 11
106.6424888360445
 21
374.0153578931912
 31
0.0
 11
106.9200214730844
 21
373.9751389014999
 31
0.0
 11
107.1941415955046
 21
373.9081889788542
 31
0.0
 11
107.4607157377378
 21
373.8156407981443
 31
0.0
 11
107.720398928663
 21
373.6971593467942
 31
0.0
 11
107.9680377381693
 21
373.5552008789554
 31
0.0
 11
108.2052377066702
 21
373.3887632604569
 31
0.0
 11
108.4265727521131
 21
373.2017324790883
 31
0.0
 11
108.6339422031693
 21
372.9924532295334
 31
0.0
 11
108.8223884252005
 21
372.7659755570099
 31
0.0
 11
108.9935389338903
 21
372.5203283749689
 31
0.0
 11
109.1434580984972
 21
372.2611703662936
 31
0.0
 11
109.2731704724936
 21
371.986755824716
 31
0.0
 11
109.3800262324488
 21
371.7026551572159
 31
0.0
 11
109.4644063320244
 21
371.4079353052021
 31
0.0
 11
109.5249048240148
 21
371.1074001317817
 31
0.0
 11
109.5614858573029
 21
370.8014149674062
 31
0.0
 11
109.5736918105025
 21
370.4934918127259
 31
0.0
 11
109.561485857303
 21
370.1855686580455
 31
0.0
 11
109.5249048240148
 21
369.8795834936699
 31
0.0
 11
109.4644063320244
 21
369.5790483202496
 31
0.0
 11
109.3800262324488
 21
369.2843284682359
 31
0.0
 11
109.2731704724936
 21
369.0002278007356
 31
0.0
 11
109.1434580984972
 21
368.7258132591579
 31
0.0
 11
108.9935389338903
 21
368.4666552504826
 31
0.0
 11
108.8223884252005
 21
368.2210080684416
 31
0.0
 11
108.6339422031694
 21
367.9945303959182
 31
0.0
 11
108.4265727521131
 21
367.7852511463633
 31
0.0
 11
108.2052377066702
 21
367.5982203649949
 31
0.0
 11
107.9680377381693
 21
367.4317827464964
 31
0.0
 11
107.720398928663
 21
367.2898242786577
 31
0.0
 11
107.4607157377378
 21
367.1713428273075
 31
0.0
 11
107.1941415955046
 21
367.0787946465976
 31
0.0
 11
106.9200214730844
 21
367.0118447239519
 31
0.0
 11
106.6424888360445
 21
366.9716257322607
 31
0.0
 11
106.3623836658363
 21
366.9581347055902
 31
0.0
  0
SPLINE
  5
161
330
48
100
AcDbEntity
  8
1
  6
Continuous
 62
     7
100
AcDbSpline
210
0.0
220
0.0
230
1.0
 70
    11
 71
     3
 72
    79
 73
    75
 74
    73
 42
0.0000000001
 43
0.0000000001
 44
0.00000001
 40
0.0
 40
0.0
 40
0.0
 40
0.0
 40
0.3142773867009538
 40
0.6283112411574754
 40
0.9612293766542853
 40
1.293805038039601
 40
1.653399990663162
 40
2.012687710360602
 40
2.40259635866708
 40
2.792277135713491
 40
3.21212560238342
 40
3.6318188891132
 40
4.078023830870314
 40
4.524128916246339
 40
4.990742665932709
 40
5.457297388873245
 40
5.936768753151425
 40
6.416212753073495
 40
6.900062536488147
 40
7.383912319902741
 40
7.863356319824812
 40
8.342827684103048
 40
8.809382407043595
 40
9.275996156730006
 40
9.722101242105886
 40
10.16830618386296
 40
10.58799947059276
 40
11.00784793726274
 40
11.39752871430915
 40
11.78743736261562
 40
12.14672508231302
 40
12.50632003493649
 40
12.83889569632182
 40
13.17181383181866
 40
13.4858476862753
 40
13.80012507297629
 40
14.10756996787608
 40
14.41501486277593
 40
14.72929224947685
 40
15.04332610393329
 40
15.37624423943
 40
15.70881990081549
 40
16.06841485343905
 40
16.42770257313648
 40
16.81761122144296
 40
17.20729199848948
 40
17.62714046515944
 40
18.04683375188927
 40
18.4930386936463
 40
18.93914377902215
 40
19.40575752870845
 40
19.872312251649
 40
20.35178361592725
 40
20.83122761584933
 40
21.31507739926404
 40
21.79892718267875
 40
22.27837118260077
 40
22.75784254687898
 40
23.22439726981947
 40
23.69101101950584
 40
24.13711610488189
 40
24.5833210466391
 40
25.00301433336893
 40
25.42286280003881
 40
25.81254357708516
 40
26.20245222539166
 40
26.56173994508906
 40
26.92133489771266
 40
27.25391055909796
 40
27.58682869459464
 40
27.90086254905111
 40
28.21513993575207
 40
28.52258483065192
 40
28.83002972555178
 40
28.83002972555178
 40
28.83002972555178
 40
28.83002972555178
 10
267.3490565463803
 20
370.2220714837742
 30
0.0
 10
267.367649018979
 20
370.118799929074
 30
0.0
 10
267.4048195569466
 20
369.9123368443732
 30
0.0
 10
267.5157658201591
 20
369.6102520118816
 30
0.0
 10
267.6628306629423
 20
369.3180571188358
 30
0.0
 10
267.8529852151922
 20
369.0332027528378
 30
0.0
 10
268.0781199437164
 20
368.7637618300824
 30
0.0
 10
268.3427560138269
 20
368.5049644733251
 30
0.0
 10
268.6378162395077
 20
368.2652868089998
 30
0.0
 10
268.968582287069
 20
368.0399485673162
 30
0.0
 10
269.3246496090334
 20
367.8363850463852
 30
0.0
 10
269.7113826812166
 20
367.6508927786718
 30
0.0
 10
270.1180561388866
 20
367.4891226659516
 30
0.0
 10
270.5490323346454
 20
367.3487551052848
 30
0.0
 10
270.9944060189951
 20
367.2335120468991
 30
0.0
 10
271.4566189688848
 20
367.1422587086811
 30
0.0
 10
271.9275375615832
 20
367.0770511669499
 30
0.0
 10
272.4070691258669
 20
367.0374606995183
 30
0.0
 10
272.8895143636681
 20
367.0243750965476
 30
0.0
 10
273.3719596014844
 20
367.0374606995169
 30
0.0
 10
273.8514911657231
 20
367.0770511669549
 30
0.0
 10
274.3224097585852
 20
367.1422587086628
 30
0.0
 10
274.7846227078809
 20
367.2335120469652
 30
0.0
 10
275.2299963944017
 20
367.3487551050429
 30
0.0
 10
275.660972582399
 20
367.4891226668102
 30
0.0
 10
276.0676460681956
 20
367.6508927755432
 30
0.0
 10
276.4543790413476
 20
367.8363850572938
 30
0.0
 10
276.8104467194589
 20
368.0399485277441
 30
0.0
 10
277.1412115285202
 20
368.2652869449735
 30
0.0
 10
277.4362761858576
 20
368.504963981153
 30
0.0
 10
277.7008969462044
 20
368.7637635079261
 30
0.0
 10
277.9260864459876
 20
369.0331966673685
 30
0.0
 10
278.1160510882085
 20
369.3180779513331
 30
0.0
 10
278.2638003049095
 20
369.6101758407905
 30
0.0
 10
278.3723289015833
 20
369.9126033548538
 30
0.0
 10
278.4365404289572
 20
370.2188380467976
 30
0.0
 10
278.4591415320948
 20
370.5287502437745
 30
0.0
 10
278.4365404289571
 20
370.8386624407513
 30
0.0
 10
278.3723289015834
 20
371.144897132695
 30
0.0
 10
278.2638003049096
 20
371.4473246467582
 30
0.0
 10
278.1160510882088
 20
371.7394225362156
 30
0.0
 10
277.9260864459876
 20
372.0243038201801
 30
0.0
 10
277.7008969462045
 20
372.2937369796229
 30
0.0
 10
277.4362761858578
 20
372.5525365063957
 30
0.0
 10
277.1412115285201
 20
372.7922135425755
 30
0.0
 10
276.810446719459
 20
373.0175519598047
 30
0.0
 10
276.4543790413476
 20
373.2211154302553
 30
0.0
 10
276.0676460681956
 20
373.4066077120056
 30
0.0
 10
275.6609725823992
 20
373.5683778207386
 30
0.0
 10
275.2299963944016
 20
373.7087453825058
 30
0.0
 10
274.7846227078812
 20
373.8239884405836
 30
0.0
 10
274.3224097585853
 20
373.9152417788858
 30
0.0
 10
273.8514911657235
 20
373.980449320594
 30
0.0
 10
273.3719596014838
 20
374.0200397880318
 30
0.0
 10
272.8895143636706
 20
374.0331253910011
 30
0.0
 10
272.4070691258581
 20
374.0200397880319
 30
0.0
 10
271.9275375616155
 20
373.9804493205938
 30
0.0
 10
271.4566189687654
 20
373.915241778887
 30
0.0
 10
270.9944060194273
 20
373.8239884405787
 30
0.0
 10
270.5490323330608
 20
373.7087453825231
 30
0.0
 10
270.1180561445121
 20
373.5683778206775
 30
0.0
 10
269.7113826607128
 20
373.4066077122278
 30
0.0
 10
269.324649680529
 20
373.2211154294807
 30
0.0
 10
268.9685820277053
 20
373.0175519626145
 30
0.0
 10
268.6378171307071
 20
372.792213532921
 30
0.0
 10
268.3427527880303
 20
372.5525365413414
 30
0.0
 10
268.0781309406451
 20
372.2937368604909
 30
0.0
 10
267.852945329783
 20
372.0243042522664
 30
0.0
 10
267.6629672033893
 20
371.7394210570467
 30
0.0
 10
267.5152665792575
 20
371.4473300551305
 30
0.0
 10
267.4065663211202
 20
371.1448782096641
 30
0.0
 10
267.3429833632322
 20
370.8387326115534
 30
0.0
 10
267.3180840434759
 20
370.5284946639116
 30
0.0
 10
267.3387323787455
 20
370.32421254382
 30
0.0
 10
267.3490565463803
 20
370.2220714837742
 30
0.0
 11
267.3490565463803
 21
370.2220714837742
 31
0.0
 11
267.4136782936131
 21
369.9145096110134
 31
0.0
 11
267.5188782610543
 21
369.6186207322173
 31
0.0
 11
267.6687714435271
 21
369.3213556673496
 31
0.0
 11
267.8525458739922
 21
369.0441670506044
 31
0.0
 11
268.0826023829338
 21
368.7677931505234
 31
0.0
 11
268.3389642260148
 21
368.5160665708035
 31
0.0
 11
268.6411295482728
 21
368.2696423998119
 31
0.0
 11
268.9628705930213
 21
368.0497928873638
 31
0.0
 11
269.3270285264311
 21
367.8408389821603
 31
0.0
 11
269.7052755724103
 21
367.6589829205785
 31
0.0
 11
270.1196894779224
 21
367.4935744414528
 31
0.0
 11
270.5437838710543
 21
367.3551775740301
 31
0.0
 11
270.995426841082
 21
367.2379298916609
 31
0.0
 11
271.453120265534
 21
367.147431059008
 31
0.0
 11
271.9280283867556
 21
367.0814381384743
 31
0.0
 11
272.4058452613685
 21
367.0419719073855
 31
0.0
 11
272.8895143636707
 21
367.0287502437744
 31
0.0
 11
273.3731834659728
 21
367.0419719073855
 31
0.0
 11
273.8510003405858
 21
367.0814381384743
 31
0.0
 11
274.3259084618074
 21
367.147431059008
 31
0.0
 11
274.7836018862594
 21
367.237929891661
 31
0.0
 11
275.2352448562871
 21
367.3551775740301
 31
0.0
 11
275.6593392494189
 21
367.4935744414529
 31
0.0
 11
276.073753154931
 21
367.6589829205785
 31
0.0
 11
276.4520002009102
 21
367.8408389821603
 31
0.0
 11
276.8161581343201
 21
368.0497928873638
 31
0.0
 11
277.1378991790685
 21
368.2696423998119
 31
0.0
 11
277.4400645013265
 21
368.5160665708036
 31
0.0
 11
277.6964263444074
 21
368.7677931505235
 31
0.0
 11
277.9264828533491
 21
369.0441670506042
 31
0.0
 11
278.1102572838142
 21
369.3213556673494
 31
0.0
 11
278.2601504662871
 21
369.6186207322172
 31
0.0
 11
278.3653504337284
 21
369.9145096110133
 31
0.0
 11
278.429972180961
 21
370.2220714837742
 31
0.0
 11
278.4516632289923
 21
370.5287502437744
 31
0.0
 11
278.429972180961
 21
370.8354290037747
 31
0.0
 11
278.3653504337285
 21
371.1429908765355
 31
0.0
 11
278.2601504662873
 21
371.4388797553315
 31
0.0
 11
278.1102572838145
 21
371.7361448201992
 31
0.0
 11
277.9264828533492
 21
372.0133334369444
 31
0.0
 11
277.6964263444075
 21
372.2897073370253
 31
0.0
 11
277.4400645013266
 21
372.5414339167453
 31
0.0
 11
277.1378991790685
 21
372.7878580877369
 31
0.0
 11
276.8161581343201
 21
373.0077076001851
 31
0.0
 11
276.4520002009102
 21
373.2166615053886
 31
0.0
 11
276.073753154931
 21
373.3985175669704
 31
0.0
 11
275.6593392494189
 21
373.5639260460959
 31
0.0
 11
275.2352448562871
 21
373.7023229135186
 31
0.0
 11
274.7836018862595
 21
373.8195705958877
 31
0.0
 11
274.3259084618075
 21
373.9100694285407
 31
0.0
 11
273.8510003405859
 21
373.9760623490746
 31
0.0
 11
273.3731834659729
 21
374.0155285801635
 31
0.0
 11
272.8895143636707
 21
374.0287502437745
 31
0.0
 11
272.4058452613685
 21
374.0155285801635
 31
0.0
 11
271.9280283867556
 21
373.9760623490746
 31
0.0
 11
271.453120265534
 21
373.9100694285406
 31
0.0
 11
270.9954268410821
 21
373.8195705958876
 31
0.0
 11
270.5437838710543
 21
373.7023229135187
 31
0.0
 11
270.1196894779224
 21
373.5639260460959
 31
0.0
 11
269.7052755724101
 21
373.3985175669704
 31
0.0
 11
269.3270285264309
 21
373.2166615053886
 31
0.0
 11
268.9628705930211
 21
373.0077076001851
 31
0.0
 11
268.6411295482728
 21
372.7878580877369
 31
0.0
 11
268.3389642260148
 21
372.5414339167452
 31
0.0
 11
268.0826023829338
 21
372.2897073370253
 31
0.0
 11
267.8525458739922
 21
372.0133334369444
 31
0.0
 11
267.6687714435271
 21
371.7361448201992
 31
0.0
 11
267.5188782610543
 21
371.4388797553316
 31
0.0
 11
267.4136782936131
 21
371.1429908765356
 31
0.0
 11
267.3490565463803
 21
370.8354290037747
 31
0.0
 11
267.327365498349
 21
370.5287502437745
 31
0.0
 11
267.3490565463803
 21
370.2220714837742
 31
0.0
  0
SPLINE
  5
162
330
48
100
AcDbEntity
  8
1
  6
Continuous
 62
     7
100
AcDbSpline
210
0.0
220
0.0
230
1.0
 70
    11
 71
     3
 72
    79
 73
    75
 74
    73
 42
0.0000000001
 43
0.0000000001
 44
0.00000001
 40
0.0
 40
0.0
 40
0.0
 40
0.0
 40
0.3142773867009304
 40
0.628311241157471
 40
0.9612293766542809
 40
1.293805038039753
 40
1.653399990663424
 40
2.012687710360702
 40
2.402596358667003
 40
2.792277135713461
 40
3.21212560238344
 40
3.631818889113322
 40
4.078023830870436
 40
4.524128916246352
 40
4.990742665932777
 40
5.457297388873258
 40
5.936768753151493
 40
6.41621275307345
 40
6.900062536488044
 40
7.383912319902867
 40
7.86335631982488
 40
8.34282768410306
 40
8.809382407043552
 40
9.275996156730018
 40
9.722101242106007
 40
10.16830618386313
 40
10.58799947059294
 40
11.00784793726282
 40
11.39752871430923
 40
11.78743736261565
 40
12.14672508231303
 40
12.50632003493652
 40
12.83889569632188
 40
13.17181383181869
 40
13.48584768627531
 40
13.80012507297629
 40
14.10756996787608
 40
14.41501486277593
 40
14.72929224947685
 40
15.04332610393331
 40
15.37624423943
 40
15.70881990081541
 40
16.06841485343897
 40
16.42770257313639
 40
16.81761122144284
 40
17.20729199848934
 40
17.62714046515933
 40
18.04683375188905
 40
18.49303869364614
 40
18.93914377902209
 40
19.40575752870856
 40
19.87231225164905
 40
20.35178361592725
 40
20.83122761584938
 40
21.31507739926409
 40
21.79892718267869
 40
22.27837118260066
 40
22.75784254687881
 40
23.22439726981941
 40
23.69101101950584
 40
24.13711610488177
 40
24.58332104663893
 40
25.00301433336881
 40
25.42286280003874
 40
25.81254357708518
 40
26.20245222539164
 40
26.561739945089
 40
26.92133489771256
 40
27.25391055909793
 40
27.58682869459461
 40
27.90086254905106
 40
28.215139935752
 40
28.52258483065186
 40
28.83002972555171
 40
28.83002972555171
 40
28.83002972555171
 40
28.83002972555171
 10
265.4299721809608
 20
370.2220714837742
 30
0.0
 10
265.4113797083621
 20
370.1187999290739
 30
0.0
 10
265.3742091703948
 20
369.9123368443732
 30
0.0
 10
265.263262907182
 20
369.6102520118815
 30
0.0
 10
265.1161980643989
 20
369.3180571188357
 30
0.0
 10
264.9260435121487
 20
369.033202752838
 30
0.0
 10
264.7009087836243
 20
368.7637618300826
 30
0.0
 10
264.4362727135141
 20
368.5049644733252
 30
0.0
 10
264.1412124878335
 20
368.2652868089996
 30
0.0
 10
263.8104464402722
 20
368.0399485673163
 30
0.0
 10
263.4543791183075
 20
367.8363850463852
 30
0.0
 10
263.0676460461245
 20
367.6508927786719
 30
0.0
 10
262.6609725884543
 20
367.4891226659516
 30
0.0
 10
262.2299963926957
 20
367.3487551052846
 30
0.0
 10
261.7846227083459
 20
367.2335120468993
 30
0.0
 10
261.3224097584564
 20
367.1422587086811
 30
0.0
 10
260.8514911657579
 20
367.0770511669499
 30
0.0
 10
260.3719596014742
 20
367.0374606995184
 30
0.0
 10
259.889514363673
 20
367.0243750965476
 30
0.0
 10
259.4070691258566
 20
367.0374606995171
 30
0.0
 10
258.927537561618
 20
367.0770511669549
 30
0.0
 10
258.4566189687558
 20
367.1422587086628
 30
0.0
 10
257.9944060194601
 20
367.2335120469653
 30
0.0
 10
257.5490323329394
 20
367.3487551050429
 30
0.0
 10
257.118056144942
 20
367.4891226668102
 30
0.0
 10
256.7113826591453
 20
367.6508927755433
 30
0.0
 10
256.3246496859933
 20
367.8363850572937
 30
0.0
 10
255.9685820078822
 20
368.0399485277443
 30
0.0
 10
255.6378171988209
 20
368.2652869449732
 30
0.0
 10
255.3427525414834
 20
368.5049639811531
 30
0.0
 10
255.0781317811368
 20
368.763763507926
 30
0.0
 10
254.8529422813535
 20
369.0331966673684
 30
0.0
 10
254.6629776391325
 20
369.3180779513332
 30
0.0
 10
254.5152284224316
 20
369.6101758407905
 30
0.0
 10
254.4066998257578
 20
369.9126033548538
 30
0.0
 10
254.3424882983841
 20
370.2188380467976
 30
0.0
 10
254.3198871952464
 20
370.5287502437745
 30
0.0
 10
254.3424882983842
 20
370.8386624407514
 30
0.0
 10
254.4066998257578
 20
371.1448971326949
 30
0.0
 10
254.5152284224317
 20
371.4473246467583
 30
0.0
 10
254.6629776391325
 20
371.7394225362155
 30
0.0
 10
254.8529422813534
 20
372.0243038201802
 30
0.0
 10
255.0781317811366
 20
372.2937369796227
 30
0.0
 10
255.3427525414832
 20
372.5525365063958
 30
0.0
 10
255.637817198821
 20
372.7922135425755
 30
0.0
 10
255.968582007882
 20
373.0175519598047
 30
0.0
 10
256.3246496859933
 20
373.2211154302552
 30
0.0
 10
256.7113826591453
 20
373.4066077120057
 30
0.0
 10
257.1180561449419
 20
373.5683778207385
 30
0.0
 10
257.5490323329394
 20
373.7087453825058
 30
0.0
 10
257.9944060194601
 20
373.8239884405836
 30
0.0
 10
258.4566189687559
 20
373.9152417788857
 30
0.0
 10
258.9275375616177
 20
373.9804493205941
 30
0.0
 10
259.4070691258573
 20
374.0200397880319
 30
0.0
 10
259.8895143636706
 20
374.033125391001
 30
0.0
 10
260.3719596014829
 20
374.0200397880319
 30
0.0
 10
260.8514911657255
 20
373.9804493205938
 30
0.0
 10
261.3224097585757
 20
373.915241778887
 30
0.0
 10
261.7846227079137
 20
373.8239884405786
 30
0.0
 10
262.2299963942803
 20
373.7087453825232
 30
0.0
 10
262.6609725828288
 20
373.5683778206776
 30
0.0
 10
263.0676460666283
 20
373.4066077122277
 30
0.0
 10
263.4543790468119
 20
373.2211154294806
 30
0.0
 10
263.8104466996359
 20
373.0175519626145
 30
0.0
 10
264.141211596634
 20
372.792213532921
 30
0.0
 10
264.4362759393109
 20
372.5525365413414
 30
0.0
 10
264.700897786696
 20
372.2937368604909
 30
0.0
 10
264.9260833975579
 20
372.0243042522665
 30
0.0
 10
265.1160615239519
 20
371.7394210570467
 30
0.0
 10
265.2637621480836
 20
371.4473300551306
 30
0.0
 10
265.3724624062209
 20
371.1448782096639
 30
0.0
 10
265.4360453641088
 20
370.8387326115535
 30
0.0
 10
265.4609446838653
 20
370.5284946639116
 30
0.0
 10
265.4402963485956
 20
370.32421254382
 30
0.0
 10
265.4299721809608
 20
370.2220714837742
 30
0.0
 11
265.4299721809608
 21
370.2220714837742
 31
0.0
 11
265.3653504337282
 21
369.9145096110134
 31
0.0
 11
265.2601504662869
 21
369.6186207322173
 31
0.0
 11
265.1102572838141
 21
369.3213556673496
 31
0.0
 11
264.9264828533487
 21
369.0441670506044
 31
0.0
 11
264.696426344407
 21
368.7677931505234
 31
0.0
 11
264.4400645013262
 21
368.5160665708035
 31
0.0
 11
264.1378991790684
 21
368.2696423998119
 31
0.0
 11
263.8161581343199
 21
368.0497928873638
 31
0.0
 11
263.45200020091
 21
367.8408389821603
 31
0.0
 11
263.0737531549307
 21
367.6589829205785
 31
0.0
 11
262.6593392494186
 21
367.4935744414528
 31
0.0
 11
262.2352448562868
 21
367.3551775740301
 31
0.0
 11
261.783601886259
 21
367.2379298916609
 31
0.0
 11
261.3259084618071
 21
367.147431059008
 31
0.0
 11
260.8510003405855
 21
367.0814381384743
 31
0.0
 11
260.3731834659726
 21
367.0419719073855
 31
0.0
 11
259.8895143636705
 21
367.0287502437744
 31
0.0
 11
259.4058452613682
 21
367.0419719073855
 31
0.0
 11
258.9280283867553
 21
367.0814381384743
 31
0.0
 11
258.4531202655337
 21
367.147431059008
 31
0.0
 11
257.9954268410818
 21
367.237929891661
 31
0.0
 11
257.543783871054
 21
367.3551775740301
 31
0.0
 11
257.1196894779221
 21
367.4935744414529
 31
0.0
 11
256.70527557241
 21
367.6589829205785
 31
0.0
 11
256.3270285264308
 21
367.8408389821603
 31
0.0
 11
255.962870593021
 21
368.0497928873638
 31
0.0
 11
255.6411295482725
 21
368.2696423998119
 31
0.0
 11
255.3389642260146
 21
368.5160665708036
 31
0.0
 11
255.0826023829337
 21
368.7677931505235
 31
0.0
 11
254.852545873992
 21
369.0441670506042
 31
0.0
 11
254.6687714435268
 21
369.3213556673494
 31
0.0
 11
254.5188782610539
 21
369.6186207322172
 31
0.0
 11
254.4136782936128
 21
369.9145096110133
 31
0.0
 11
254.3490565463802
 21
370.2220714837742
 31
0.0
 11
254.3273654983489
 21
370.5287502437744
 31
0.0
 11
254.3490565463802
 21
370.8354290037747
 31
0.0
 11
254.4136782936128
 21
371.1429908765355
 31
0.0
 11
254.5188782610539
 21
371.4388797553315
 31
0.0
 11
254.6687714435268
 21
371.7361448201992
 31
0.0
 11
254.8525458739919
 21
372.0133334369444
 31
0.0
 11
255.0826023829335
 21
372.2897073370253
 31
0.0
 11
255.3389642260145
 21
372.5414339167453
 31
0.0
 11
255.6411295482725
 21
372.7878580877369
 31
0.0
 11
255.9628705930209
 21
373.0077076001851
 31
0.0
 11
256.3270285264308
 21
373.2166615053886
 31
0.0
 11
256.70527557241
 21
373.3985175669704
 31
0.0
 11
257.1196894779221
 21
373.5639260460959
 31
0.0
 11
257.543783871054
 21
373.7023229135186
 31
0.0
 11
257.9954268410818
 21
373.8195705958877
 31
0.0
 11
258.4531202655337
 21
373.9100694285407
 31
0.0
 11
258.9280283867553
 21
373.9760623490746
 31
0.0
 11
259.4058452613683
 21
374.0155285801635
 31
0.0
 11
259.8895143636705
 21
374.0287502437745
 31
0.0
 11
260.3731834659726
 21
374.0155285801635
 31
0.0
 11
260.8510003405855
 21
373.9760623490746
 31
0.0
 11
261.325908461807
 21
373.9100694285406
 31
0.0
 11
261.783601886259
 21
373.8195705958876
 31
0.0
 11
262.2352448562868
 21
373.7023229135187
 31
0.0
 11
262.6593392494186
 21
373.5639260460959
 31
0.0
 11
263.0737531549308
 21
373.3985175669704
 31
0.0
 11
263.4520002009102
 21
373.2166615053886
 31
0.0
 11
263.81615813432
 21
373.0077076001851
 31
0.0
 11
264.1378991790684
 21
372.7878580877369
 31
0.0
 11
264.4400645013263
 21
372.5414339167452
 31
0.0
 11
264.6964263444073
 21
372.2897073370253
 31
0.0
 11
264.9264828533488
 21
372.0133334369444
 31
0.0
 11
265.1102572838141
 21
371.7361448201992
 31
0.0
 11
265.2601504662869
 21
371.4388797553316
 31
0.0
 11
265.365350433728
 21
371.1429908765356
 31
0.0
 11
265.4299721809607
 21
370.8354290037747
 31
0.0
 11
265.4516632289921
 21
370.5287502437745
 31
0.0
 11
265.4299721809608
 21
370.2220714837742
 31
0.0
  0
ENDBLK
  5
4A
330
48
100
AcDbEntity
  8
0
100
AcDbBlockEnd
  0
BLOCK
  5
4C
330
4B
100
AcDbEntity
  8
0
100
AcDbBlockBegin
  2
_J__A4
 70
     0
 71
     0
 10
0.0
 20
0.0
 30
0.0
  3
_J__A4
  1

  0
POINT
  5
163
330
4B
100
AcDbEntity
  8
1
 62
     4
100
AcDbPoint
 10
34.0
 20
34.00000000000001
 30
0.0
  0
POINT
  5
164
330
4B
100
AcDbEntity
  8
1
 62
     4
100
AcDbPoint
 10
57.0
 20
12.25
 30
0.0
  0
POINT
  5
165
330
4B
100
AcDbEntity
  8
1
 62
     4
100
AcDbPoint
 10
57.0
 20
20.75000000000001
 30
0.0
  0
POINT
  5
166
330
4B
100
AcDbEntity
  8
1
 62
     4
100
AcDbPoint
 10
57.0
 20
24.75000000000001
 30
0.0
  0
POINT
  5
167
330
4B
100
AcDbEntity
  8
1
 62
     4
100
AcDbPoint
 10
57.0
 20
16.25
 30
0.0
  0
POINT
  5
168
330
4B
100
AcDbEntity
  8
1
 62
     4
100
AcDbPoint
 10
157.5
 20
19.00000000000001
 30
0.0
  0
POINT
  5
169
330
4B
100
AcDbEntity
  8
1
 62
     4
100
AcDbPoint
 10
47.5
 20
282.0000000000003
 30
0.0
  0
POINT
  5
16A
330
4B
100
AcDbEntity
  8
1
 62
     4
100
AcDbPoint
 10
57.0
 20
22.75000000000001
 30
0.0
  0
POINT
  5
16B
330
4B
100
AcDbEntity
  8
1
 62
     4
100
AcDbPoint
 10
57.0
 20
14.25
 30
0.0
  0
POINT
  5
16C
330
4B
100
AcDbEntity
  8
1
 62
     4
100
AcDbPoint
 10
157.5
 20
12.5
 30
0.0
  0
POINT
  5
16D
330
4B
100
AcDbEntity
  8
1
 62
     4
100
AcDbPoint
 10
163.25
 20
12.5
 30
0.0
  0
POINT
  5
16E
330
4B
100
AcDbEntity
  8
1
 62
     4
100
AcDbPoint
 10
151.75
 20
12.5
 30
0.0
  0
POINT
  5
16F
330
4B
100
AcDbEntity
  8
1
 62
     4
100
AcDbPoint
 10
134.75
 20
12.5
 30
0.0
  0
POINT
  5
170
330
4B
100
AcDbEntity
  8
1
 62
     4
100
AcDbPoint
 10
146.25
 20
12.5
 30
0.0
  0
POINT
  5
171
330
4B
100
AcDbEntity
  8
1
 62
     4
100
AcDbPoint
 10
140.5
 20
12.5
 30
0.0
  0
POINT
  5
172
330
4B
100
AcDbEntity
  8
1
 62
     4
100
AcDbPoint
 10
140.5
 20
19.00000000000001
 30
0.0
  0
POINT
  5
173
330
4B
100
AcDbEntity
  8
1
 62
     4
100
AcDbPoint
 10
117.75
 20
12.5
 30
0.0
  0
POINT
  5
174
330
4B
100
AcDbEntity
  8
1
 62
     4
100
AcDbPoint
 10
129.25
 20
12.5
 30
0.0
  0
POINT
  5
175
330
4B
100
AcDbEntity
  8
1
 62
     4
100
AcDbPoint
 10
123.5
 20
12.5
 30
0.0
  0
POINT
  5
176
330
4B
100
AcDbEntity
  8
1
 62
     4
100
AcDbPoint
 10
123.5
 20
19.00000000000001
 30
0.0
  0
POINT
  5
177
330
4B
100
AcDbEntity
  8
1
 62
     4
100
AcDbPoint
 10
100.75
 20
12.5
 30
0.0
  0
POINT
  5
178
330
4B
100
AcDbEntity
  8
1
 62
     4
100
AcDbPoint
 10
112.25
 20
12.5
 30
0.0
  0
POINT
  5
179
330
4B
100
AcDbEntity
  8
1
 62
     4
100
AcDbPoint
 10
106.5
 20
12.5
 30
0.0
  0
POINT
  5
17A
330
4B
100
AcDbEntity
  8
1
 62
     4
100
AcDbPoint
 10
106.5
 20
19.00000000000001
 30
0.0
  0
POINT
  5
17B
330
4B
100
AcDbEntity
  8
1
 62
     4
100
AcDbPoint
 10
85.25
 20
17.0
 30
0.0
  0
POINT
  5
17C
330
4B
100
AcDbEntity
  8
1
 62
     4
100
AcDbPoint
 10
93.75
 20
17.0
 30
0.0
  0
LINE
  5
17D
330
4B
100
AcDbEntity
  8
1
  6
Continuous
 62
     2
100
AcDbLine
 10
81.0
 20
27.00000000000001
 30
0.0
 11
81.0
 21
10.0
 31
0.0
  0
LINE
  5
17E
330
4B
100
AcDbEntity
  8
1
  6
DOT_CENTER
 62
     2
100
AcDbLine
 10
187.0
 20
26.50000000000001
 30
0.0
 11
187.0
 21
20.50000000000001
 31
0.0
  0
LINE
  5
17F
330
4B
100
AcDbEntity
  8
1
  6
DOT_CENTER
 62
     2
100
AcDbLine
 10
184.0
 20
23.50000000000001
 30
0.0
 11
197.0
 21
23.50000000000001
 31
0.0
  0
LINE
  5
180
330
4B
100
AcDbEntity
  8
1
  6
Continuous
 62
     7
100
AcDbLine
 10
196.0
 20
21.50000000000001
 30
0.0
 11
191.0
 21
22.30000000000001
 31
0.0
  0
LINE
  5
181
330
4B
100
AcDbEntity
  8
1
  6
Continuous
 62
     7
100
AcDbLine
 10
196.0
 20
25.50000000000001
 30
0.0
 11
196.0
 21
21.50000000000001
 31
0.0
  0
LINE
  5
182
330
4B
100
AcDbEntity
  8
1
  6
Continuous
 62
     7
100
AcDbLine
 10
191.0
 20
24.70000000000001
 30
0.0
 11
196.0
 21
25.50000000000001
 31
0.0
  0
LINE
  5
183
330
4B
100
AcDbEntity
  8
1
  6
Continuous
 62
     7
100
AcDbLine
 10
191.0
 20
24.70000000000001
 30
0.0
 11
191.0
 21
22.30000000000001
 31
0.0
  0
LINE
  5
184
330
4B
100
AcDbEntity
  8
1
  6
Continuous
 62
     2
100
AcDbLine
 10
33.0
 20
27.0
 30
0.0
 11
33.0
 21
10.0
 31
0.0
  0
LINE
  5
185
330
4B
100
AcDbEntity
  8
1
  6
Continuous
 62
     2
100
AcDbLine
 10
25.0
 20
18.50000000000001
 30
0.0
 11
81.0
 21
18.50000000000001
 31
0.0
  0
LINE
  5
186
330
4B
100
AcDbEntity
  8
1
  6
Continuous
 62
     7
100
AcDbLine
 10
200.0
 20
287.0000000000003
 30
0.0
 11
105.0
 21
287.0000000000003
 31
0.0
  0
LINE
  5
187
330
4B
100
AcDbEntity
  8
1
  6
Continuous
 62
     7
100
AcDbLine
 10
200.0
 20
10.0
 30
0.0
 11
200.0
 21
148.5
 31
0.0
  0
LINE
  5
188
330
4B
100
AcDbEntity
  8
1
  6
Continuous
 62
     7
100
AcDbLine
 10
25.0
 20
10.0
 30
0.0
 11
105.0
 21
10.0
 31
0.0
  0
LINE
  5
189
330
4B
100
AcDbEntity
  8
1
  6
PHANTOM
 62
     4
100
AcDbLine
 10
0.0
 20
297.0
 30
0.0
 11
0.0
 21
0.0
 31
0.0
  0
LINE
  5
18A
330
4B
100
AcDbEntity
  8
1
  6
PHANTOM
 62
     4
100
AcDbLine
 10
210.0
 20
297.0
 30
0.0
 11
0.0
 21
297.0
 31
0.0
  0
LINE
  5
18B
330
4B
100
AcDbEntity
  8
1
  6
PHANTOM
 62
     4
100
AcDbLine
 10
210.0
 20
0.0
 30
0.0
 11
210.0
 21
297.0
 31
0.0
  0
LINE
  5
18C
330
4B
100
AcDbEntity
  8
1
  6
PHANTOM
 62
     4
100
AcDbLine
 10
0.0
 20
0.0
 30
0.0
 11
210.0
 21
0.0
 31
0.0
  0
LINE
  5
18D
330
4B
100
AcDbEntity
  8
1
  6
Continuous
 62
     7
100
AcDbLine
 10
25.0
 20
41.0
 30
0.0
 11
200.0
 21
41.0
 31
0.0
  0
LINE
  5
18E
330
4B
100
AcDbEntity
  8
1
  6
Continuous
 62
     7
100
AcDbLine
 10
200.0
 20
27.00000000000001
 30
0.0
 11
25.0
 21
27.00000000000001
 31
0.0
  0
LINE
  5
18F
330
4B
100
AcDbEntity
  8
1
  6
Continuous
 62
     2
100
AcDbLine
 10
33.0
 20
41.00000000000001
 30
0.0
 11
33.0
 21
27.0
 31
0.0
  0
LINE
  5
190
330
4B
100
AcDbEntity
  8
1
  6
Continuous
 62
     2
100
AcDbLine
 10
55.0
 20
287.0000000000003
 30
0.0
 11
55.0
 21
277.0000000000003
 31
0.0
  0
LINE
  5
191
330
4B
100
AcDbEntity
  8
1
  6
Continuous
 62
     2
100
AcDbLine
 10
40.0
 20
287.0000000000003
 30
0.0
 11
40.0
 21
277.0000000000003
 31
0.0
  0
LINE
  5
192
330
4B
100
AcDbEntity
  8
1
  6
Continuous
 62
     7
100
AcDbLine
 10
25.0
 20
10.0
 30
0.0
 11
25.0
 21
148.5
 31
0.0
  0
LINE
  5
193
330
4B
100
AcDbEntity
  8
1
  6
Continuous
 62
     2
100
AcDbLine
 10
55.0
 20
277.0000000000003
 30
0.0
 11
25.0
 21
277.0000000000003
 31
0.0
  0
LINE
  5
194
330
4B
100
AcDbEntity
  8
1
  6
Continuous
 62
     2
100
AcDbLine
 10
166.0
 20
27.00000000000001
 30
0.0
 11
166.0
 21
10.0
 31
0.0
  0
LINE
  5
195
330
4B
100
AcDbEntity
  8
1
  6
Continuous
 62
     2
100
AcDbLine
 10
132.0
 20
27.00000000000001
 30
0.0
 11
132.0
 21
9.99999999999999
 31
0.0
  0
LINE
  5
196
330
4B
100
AcDbEntity
  8
1
  6
Continuous
 62
     2
100
AcDbLine
 10
149.0
 20
27.00000000000001
 30
0.0
 11
149.0
 21
10.0
 31
0.0
  0
LINE
  5
197
330
4B
100
AcDbEntity
  8
1
  6
Continuous
 62
     2
100
AcDbLine
 10
115.0
 20
27.00000000000001
 30
0.0
 11
115.0
 21
9.99999999999999
 31
0.0
  0
LINE
  5
198
330
4B
100
AcDbEntity
  8
1
  6
Continuous
 62
     2
100
AcDbLine
 10
98.0
 20
27.00000000000001
 30
0.0
 11
98.0
 21
9.99999999999999
 31
0.0
  0
LINE
  5
199
330
4B
100
AcDbEntity
  8
1
  6
Continuous
 62
     2
100
AcDbLine
 10
166.0
 20
20.00000000000001
 30
0.0
 11
200.0
 21
20.00000000000001
 31
0.0
  0
LINE
  5
19A
330
4B
100
AcDbEntity
  8
1
  6
Continuous
 62
     2
100
AcDbLine
 10
105.0
 20
287.0000000000003
 30
0.0
 11
105.0
 21
292.0000000000003
 31
0.0
  0
LINE
  5
19B
330
4B
100
AcDbEntity
  8
1
  6
Continuous
 62
     7
100
AcDbLine
 10
105.0
 20
287.0000000000003
 30
0.0
 11
25.0
 21
287.0000000000003
 31
0.0
  0
LINE
  5
19C
330
4B
100
AcDbEntity
  8
1
  6
Continuous
 62
     2
100
AcDbLine
 10
25.0
 20
148.5
 30
0.0
 11
20.0
 21
148.5
 31
0.0
  0
LINE
  5
19D
330
4B
100
AcDbEntity
  8
1
  6
Continuous
 62
     7
100
AcDbLine
 10
25.0
 20
148.5
 30
0.0
 11
25.0
 21
287.0000000000003
 31
0.0
  0
LINE
  5
19E
330
4B
100
AcDbEntity
  8
1
  6
Continuous
 62
     2
100
AcDbLine
 10
200.0
 20
148.5
 30
0.0
 11
205.0
 21
148.5
 31
0.0
  0
LINE
  5
19F
330
4B
100
AcDbEntity
  8
1
  6
Continuous
 62
     7
100
AcDbLine
 10
200.0
 20
148.5
 30
0.0
 11
200.0
 21
287.0000000000003
 31
0.0
  0
LINE
  5
1A0
330
4B
100
AcDbEntity
  8
1
  6
Continuous
 62
     2
100
AcDbLine
 10
105.0
 20
10.0
 30
0.0
 11
105.0
 21
5.0
 31
0.0
  0
LINE
  5
1A1
330
4B
100
AcDbEntity
  8
1
  6
Continuous
 62
     7
100
AcDbLine
 10
105.0
 20
10.0
 30
0.0
 11
200.0
 21
10.0
 31
0.0
  0
CIRCLE
  5
1A2
330
4B
100
AcDbEntity
  8
1
  6
DOT_CENTER
 62
     7
100
AcDbCircle
 10
89.5
 20
18.0
 30
0.0
 40
0.1000000000000227
  0
CIRCLE
  5
1A3
330
4B
100
AcDbEntity
  8
1
  6
DOT_CENTER
 62
     7
100
AcDbCircle
 10
89.5
 20
16.0
 30
0.0
 40
0.1000000000000227
  0
CIRCLE
  5
1A4
330
4B
100
AcDbEntity
  8
1
  6
Continuous
 62
     7
100
AcDbCircle
 10
187.0
 20
23.50000000000001
 30
0.0
 40
2.0
  0
CIRCLE
  5
1A5
330
4B
100
AcDbEntity
  8
1
  6
Continuous
 62
     7
100
AcDbCircle
 10
187.0
 20
23.50000000000001
 30
0.0
 40
1.200000000000102
  0
CIRCLE
  5
1A6
330
4B
100
AcDbEntity
  8
1
  6
Continuous
 62
     7
100
AcDbCircle
 10
154.5
 20
12.5
 30
0.0
 40
0.3000000000000114
  0
CIRCLE
  5
1A7
330
4B
100
AcDbEntity
  8
1
  6
Continuous
 62
     7
100
AcDbCircle
 10
160.5
 20
12.5
 30
0.0
 40
0.3000000000000114
  0
CIRCLE
  5
1A8
330
4B
100
AcDbEntity
  8
1
  6
Continuous
 62
     7
100
AcDbCircle
 10
143.5
 20
12.5
 30
0.0
 40
0.3000000000000114
  0
CIRCLE
  5
1A9
330
4B
100
AcDbEntity
  8
1
  6
Continuous
 62
     7
100
AcDbCircle
 10
137.5
 20
12.5
 30
0.0
 40
0.3000000000000114
  0
CIRCLE
  5
1AA
330
4B
100
AcDbEntity
  8
1
  6
Continuous
 62
     7
100
AcDbCircle
 10
126.5
 20
12.5
 30
0.0
 40
0.2999999999999972
  0
CIRCLE
  5
1AB
330
4B
100
AcDbEntity
  8
1
  6
Continuous
 62
     7
100
AcDbCircle
 10
120.5
 20
12.5
 30
0.0
 40
0.2999999999999972
  0
CIRCLE
  5
1AC
330
4B
100
AcDbEntity
  8
1
  6
Continuous
 62
     7
100
AcDbCircle
 10
109.5
 20
12.5
 30
0.0
 40
0.2999999999999972
  0
CIRCLE
  5
1AD
330
4B
100
AcDbEntity
  8
1
  6
Continuous
 62
     7
100
AcDbCircle
 10
103.5
 20
12.5
 30
0.0
 40
0.2999999999999972
  0
MTEXT
  5
1AF
330
4B
100
AcDbEntity
  8
1
 62
   250
100
AcDbMText
 10
25.0
 20
5.0
 30
0.0
 40
3.5
 41
0.0
 71
     4
 72
     1
  1
備考欄の文字列 原点位置=4
  7
CONVERTER_1
 73
     1
 44
0.7202881152461
  0
MTEXT
  5
1B0
330
4B
100
AcDbEntity
  8
1
 62
     2
100
AcDbMText
 10
89.5
 20
24.00000000000001
 30
0.0
 40
3.5
 41
0.0
 71
     5
 72
     1
  1
尺度
  7
CONVERTER_1
 73
     1
 44
0.7202881152461
  0
MTEXT
  5
1B1
330
4B
100
AcDbEntity
  8
1
 62
     2
100
AcDbMText
 10
135.5
 20
25.00000000000001
 30
0.0
 40
3.0
 41
0.0
 71
     5
 72
     1
  1
製図
  7
CONVERTER_1
 73
     1
 44
0.78031212484994
  0
MTEXT
  5
1B2
330
4B
100
AcDbEntity
  8
1
 62
     2
100
AcDbMText
 10
152.5
 20
25.00000000000001
 30
0.0
 40
3.0
 41
0.0
 71
     5
 72
     1
  1
設計
  7
CONVERTER_1
 73
     1
 44
0.78031212484994
  0
MTEXT
  5
1B3
330
4B
100
AcDbEntity
  8
1
 62
     2
100
AcDbMText
 10
118.5
 20
25.00000000000001
 30
0.0
 40
3.0
 41
0.0
 71
     5
 72
     1
  1
検図
  7
CONVERTER_1
 73
     1
 44
0.78031212484994
  0
MTEXT
  5
1B4
330
4B
100
AcDbEntity
  8
1
 62
     2
100
AcDbMText
 10
175.0
 20
23.50000000000001
 30
0.0
 40
3.5
 41
0.0
 71
     5
 72
     1
  1
第三角法
  7
CONVERTER_1
 73
     1
 44
0.7202881152461
  0
MTEXT
  5
1B5
330
4B
100
AcDbEntity
  8
1
 62
     2
100
AcDbMText
 10
101.5
 20
25.00000000000001
 30
0.0
 40
3.0
 41
0.0
 71
     5
 72
     1
  1
承認
  7
CONVERTER_1
 73
     1
 44
0.78031212484994
  0
MTEXT
  5
1B6
330
4B
100
AcDbEntity
  8
1
 62
     2
100
AcDbMText
 10
29.0
 20
14.25
 30
0.0
 40
3.5
 41
0.0
 71
     5
 72
     1
  1
品番
  7
CONVERTER_1
 73
     1
 44
0.96038415366146
  0
MTEXT
  5
1B7
330
4B
100
AcDbEntity
  8
1
 62
     2
100
AcDbMText
 10
29.0
 20
22.75
 30
0.0
 40
3.5
 41
0.0
 71
     5
 72
     1
  1
品名
  7
CONVERTER_1
 73
     1
 44
0.96038415366146
  0
MTEXT
  5
1B8
330
4B
100
AcDbEntity
  8
1
 62
     2
100
AcDbMText
 10
29.0
 20
34.00000000000001
 30
0.0
 40
3.5
 41
0.0
 71
     5
 72
     1
  1
備考
  7
CONVERTER_1
 73
     1
 44
0.60024009603842
  0
MTEXT
  5
1B9
330
4B
100
AcDbEntity
  8
1
 62
     2
100
AcDbMText
 10
32.5
 20
282.0000000000003
 30
0.0
 40
5.0
 41
0.0
 71
     5
 72
     1
  1
図番
  7
CONVERTER_1
 73
     1
 44
0.60024009603842
  0
MTEXT
  5
1BA
330
4B
100
AcDbEntity
  8
1
 62
     7
100
AcDbMText
 10
171.5
 20
15.0
 30
0.0
 40
2.5
 41
0.0
 71
     5
 72
     1
  1
株式会社
  7
CONVERTER_1
 73
     1
 44
1.32052821128451
  0
MTEXT
  5
1BB
330
4B
100
AcDbEntity
  8
1
 62
     7
100
AcDbMText
 10
188.5
 20
15.0
 30
0.0
 40
3.0
 41
0.0
 71
     5
 72
     1
  1
三栄水栓製作所
  7
CONVERTER_1
 73
     1
 44
1.32052821128451
  0
ENDBLK
  5
4D
330
4B
100
AcDbEntity
  8
0
100
AcDbBlockEnd
  0
BLOCK
  5
4F
330
4E
100
AcDbEntity
  8
0
100
AcDbBlockBegin
  2
V2220R-0A-13-M1
 70
     0
 71
     0
 10
166.3895143636705
 20
268.0286515676876
 30
0.0
  3
V2220R-0A-13-M1
  1

  0
LINE
  5
1BC
330
4E
100
AcDbEntity
  8
1
  6
PHANTOM
 62
     4
100
AcDbLine
 10
266.3895143636948
 20
277.4114791127868
 30
0.0
 11
266.3895143636948
 21
223.7114791127867
 31
0.0
  0
LINE
  5
1BD
330
4E
100
AcDbEntity
  8
1
  6
Continuous
 62
     7
100
AcDbLine
 10
288.9468736765765
 20
229.6114791127867
 30
0.0
 11
287.0144992121743
 21
229.6114791127868
 31
0.0
  0
LINE
  5
1BE
330
4E
100
AcDbEntity
  8
1
  6
Continuous
 62
     7
100
AcDbLine
 10
287.197091376779
 20
254.2114791127867
 30
0.0
 11
288.9468736765765
 21
254.2114791127865
 31
0.0
  0
LINE
  5
1BF
330
4E
100
AcDbEntity
  8
1
  6
Continuous
 62
     2
100
AcDbLine
 10
243.8895143637106
 20
232.5914791127868
 30
0.0
 11
227.8895143637106
 21
232.5914791127868
 31
0.0
  0
LINE
  5
1C0
330
4E
100
AcDbEntity
  8
1
  6
Continuous
 62
     7
100
AcDbLine
 10
229.0495143637107
 20
231.4314791127866
 30
0.0
 11
227.8895143637106
 21
232.5914791127868
 31
0.0
  0
LINE
  5
1C1
330
4E
100
AcDbEntity
  8
1
  6
Continuous
 62
     7
100
AcDbLine
 10
243.8895143637106
 20
231.4314791127865
 30
0.0
 11
229.0495143637107
 21
231.4314791127866
 31
0.0
  0
LINE
  5
1C2
330
4E
100
AcDbEntity
  8
1
  6
Continuous
 62
     7
100
AcDbLine
 10
227.8895143637106
 20
232.5914791127868
 30
0.0
 11
227.8895143637106
 21
251.2314791127867
 31
0.0
  0
LINE
  5
1C3
330
4E
100
AcDbEntity
  8
1
  6
Continuous
 62
     2
100
AcDbLine
 10
245.8986933004904
 20
231.4314791127865
 30
0.0
 11
243.8895143637106
 21
232.5914791127868
 31
0.0
  0
LINE
  5
1C4
330
4E
100
AcDbEntity
  8
1
  6
Continuous
 62
     2
100
AcDbLine
 10
227.8895143637106
 20
251.2314791127867
 30
0.0
 11
243.8895143637106
 21
251.2314791127864
 31
0.0
  0
LINE
  5
1C5
330
4E
100
AcDbEntity
  8
1
  6
Continuous
 62
     7
100
AcDbLine
 10
227.8895143637106
 20
251.2314791127867
 30
0.0
 11
229.0495143637108
 21
252.3914791127866
 31
0.0
  0
LINE
  5
1C6
330
4E
100
AcDbEntity
  8
1
  6
Continuous
 62
     7
100
AcDbLine
 10
229.0495143637108
 20
252.3914791127866
 30
0.0
 11
245.8986933004904
 21
252.3914791127866
 31
0.0
  0
LINE
  5
1C7
330
4E
100
AcDbEntity
  8
1
  6
Continuous
 62
     7
100
AcDbLine
 10
243.8895143637106
 20
252.3914791127866
 30
0.0
 11
243.8895143637106
 21
231.4314791127865
 31
0.0
  0
LINE
  5
1C8
330
4E
100
AcDbEntity
  8
1
  6
Continuous
 62
     2
100
AcDbLine
 10
243.8895143637106
 20
251.2314791127864
 30
0.0
 11
245.8986933004904
 21
252.3914791127866
 31
0.0
  0
LINE
  5
1C9
330
4E
100
AcDbEntity
  8
1
  6
Continuous
 62
     7
100
AcDbLine
 10
299.8895143636961
 20
241.9114791127865
 30
0.0
 11
299.8895143636961
 21
254.9114791127865
 31
0.0
  0
LINE
  5
1CA
330
4E
100
AcDbEntity
  8
1
  6
Continuous
 62
     7
100
AcDbLine
 10
278.3895143636934
 20
271.4114791127868
 30
0.0
 11
254.3895143636962
 21
271.4114791127868
 31
0.0
  0
LINE
  5
1CB
330
4E
100
AcDbEntity
  8
1
  6
Continuous
 62
     2
100
AcDbLine
 10
255.2025143636948
 20
271.4114791127868
 30
0.0
 11
254.3895143636962
 21
270.0033218062355
 31
0.0
  0
LINE
  5
1CC
330
4E
100
AcDbEntity
  8
1
  6
Continuous
 62
     7
100
AcDbLine
 10
254.3895143636962
 20
272.9114791127865
 30
0.0
 11
254.3895143636962
 21
270.0033218062355
 31
0.0
  0
LINE
  5
1CD
330
4E
100
AcDbEntity
  8
1
  6
Continuous
 62
     7
100
AcDbLine
 10
290.8730097050023
 20
254.9114791127865
 30
0.0
 11
299.8895143636961
 21
254.9114791127865
 31
0.0
  0
LINE
  5
1CE
330
4E
100
AcDbEntity
  8
1
  6
Continuous
 62
     7
100
AcDbLine
 10
245.8986933004904
 20
231.4314791127865
 30
0.0
 11
246.5384120457337
 21
230.7917603675437
 31
0.0
  0
LINE
  5
1CF
330
4E
100
AcDbEntity
  8
1
  6
Continuous
 62
     7
100
AcDbLine
 10
253.9797969087321
 20
269.5936043512714
 30
0.0
 11
253.5508821330585
 21
261.409422889259
 31
0.0
  0
LINE
  5
1D0
330
4E
100
AcDbEntity
  8
1
  6
Continuous
 62
     7
100
AcDbLine
 10
245.8986933004904
 20
252.3914791127866
 30
0.0
 11
246.6276256248113
 21
253.1204114371075
 31
0.0
  0
LINE
  5
1D1
330
4E
100
AcDbEntity
  8
1
  6
Continuous
 62
     7
100
AcDbLine
 10
253.9797969087321
 20
269.5936043512714
 30
0.0
 11
254.3895143636962
 21
270.0033218062355
 31
0.0
  0
LINE
  5
1D2
330
4E
100
AcDbEntity
  8
1
  6
Continuous
 62
     7
100
AcDbLine
 10
279.2080550987424
 20
261.7927914628433
 30
0.0
 11
278.7992318186575
 21
269.5936043512714
 31
0.0
  0
LINE
  5
1D3
330
4E
100
AcDbEntity
  8
1
  6
Continuous
 62
     7
100
AcDbLine
 10
278.3895143636934
 20
270.0033218062355
 30
0.0
 11
278.7992318186575
 21
269.5936043512714
 31
0.0
  0
LINE
  5
1D4
330
4E
100
AcDbEntity
  8
1
  6
Continuous
 62
     7
100
AcDbLine
 10
278.3895143636934
 20
271.4114791127868
 30
0.0
 11
278.3895143636935
 21
272.9114791127865
 31
0.0
  0
LINE
  5
1D5
330
4E
100
AcDbEntity
  8
1
  6
Continuous
 62
     2
100
AcDbLine
 10
255.2025143636948
 20
272.9114791127865
 30
0.0
 11
255.2025143636948
 21
271.4114791127868
 31
0.0
  0
LINE
  5
1D6
330
4E
100
AcDbEntity
  8
1
  6
Continuous
 62
     2
100
AcDbLine
 10
277.5765143636947
 20
271.4114791127868
 30
0.0
 11
277.5765143636947
 21
272.9114791127865
 31
0.0
  0
LINE
  5
1D7
330
4E
100
AcDbEntity
  8
1
  6
Continuous
 62
     2
100
AcDbLine
 10
278.3895143636934
 20
270.0033218062355
 30
0.0
 11
277.5765143636947
 21
271.4114791127868
 31
0.0
  0
LINE
  5
1D8
330
4E
100
AcDbEntity
  8
1
  6
Continuous
 62
     7
100
AcDbLine
 10
278.3895143636934
 20
270.0033218062355
 30
0.0
 11
278.3895143636934
 21
271.4114791127868
 31
0.0
  0
LINE
  5
1D9
330
4E
100
AcDbEntity
  8
1
  6
Continuous
 62
     7
100
AcDbLine
 10
245.8986933004904
 20
231.4314791127865
 30
0.0
 11
243.8895143637106
 21
231.4314791127865
 31
0.0
  0
LINE
  5
1DA
330
4E
100
AcDbEntity
  8
1
  6
Continuous
 62
     7
100
AcDbLine
 10
246.5282030620823
 20
253.0209888743787
 30
0.0
 11
246.5282030620823
 21
230.8019693511945
 31
0.0
  0
LINE
  5
1DB
330
4E
100
AcDbEntity
  8
1
  6
Continuous
 62
     7
100
AcDbLine
 10
245.8986933004904
 20
252.3914791127866
 30
0.0
 11
245.8986933004904
 21
231.4314791127865
 31
0.0
  0
LINE
  5
1DC
330
4E
100
AcDbEntity
  8
1
  6
Continuous
 62
     7
100
AcDbLine
 10
246.5282030620438
 20
419.1381613292796
 30
0.0
 11
246.5282030620438
 21
396.9191418060955
 31
0.0
  0
LINE
  5
1DD
330
4E
100
AcDbEntity
  8
1
  6
Continuous
 62
     7
100
AcDbLine
 10
246.5282030620438
 20
396.9191418060955
 30
0.0
 11
245.8986933004517
 21
397.5486515676874
 31
0.0
  0
LINE
  5
1DE
330
4E
100
AcDbEntity
  8
1
  6
Continuous
 62
     7
100
AcDbLine
 10
253.8209026822674
 20
380.3784087828035
 30
0.0
 11
253.9797969087079
 21
377.3465263292027
 31
0.0
  0
LINE
  5
1DF
330
4E
100
AcDbEntity
  8
1
  6
Continuous
 62
     7
100
AcDbLine
 10
255.9095143636707
 20
435.3290300193005
 30
0.0
 11
255.9095143636706
 21
440.8686515676711
 31
0.0
  0
LINE
  5
1E0
330
4E
100
AcDbEntity
  8
1
  6
Continuous
 62
     2
100
AcDbLine
 10
257.0695143636708
 20
434.7672725113343
 30
0.0
 11
257.0695143636708
 21
442.0286515676716
 31
0.0
  0
LINE
  5
1E1
330
4E
100
AcDbEntity
  8
1
  6
Continuous
 62
     7
100
AcDbLine
 10
267.5318144127882
 20
424.5286515676875
 30
0.0
 11
278.276367839401
 21
424.5286515676875
 31
0.0
  0
LINE
  5
1E2
330
4E
100
AcDbEntity
  8
1
  6
Continuous
 62
     2
100
AcDbLine
 10
277.5765143636705
 20
374.0287502437745
 30
0.0
 11
277.5765143636705
 21
375.5286515676875
 31
0.0
  0
LINE
  5
1E3
330
4E
100
AcDbEntity
  8
1
  6
Continuous
 62
     7
100
AcDbLine
 10
278.3895143636691
 20
374.0287502437745
 30
0.0
 11
278.3895143636691
 21
376.9368088742386
 31
0.0
  0
LINE
  5
1E4
330
4E
100
AcDbEntity
  8
1
  6
Continuous
 62
     7
100
AcDbLine
 10
278.7992318186333
 20
377.3465263292027
 30
0.0
 11
253.9797969087079
 21
377.3465263292027
 31
0.0
  0
LINE
  5
1E5
330
4E
100
AcDbEntity
  8
1
  6
Continuous
 62
     7
100
AcDbLine
 10
254.3895143636719
 20
376.9368088742386
 30
0.0
 11
278.3895143636691
 21
376.9368088742386
 31
0.0
  0
LINE
  5
1E6
330
4E
100
AcDbEntity
  8
1
  6
Continuous
 62
     7
100
AcDbLine
 10
245.8986933004517
 20
418.5086515676875
 30
0.0
 11
245.8986933004517
 21
397.5486515676874
 31
0.0
  0
LINE
  5
1E7
330
4E
100
AcDbEntity
  8
1
  6
Continuous
 62
     7
100
AcDbLine
 10
229.049514363672
 20
418.5086515676875
 30
0.0
 11
229.049514363672
 21
397.5486515676874
 31
0.0
  0
LINE
  5
1E8
330
4E
100
AcDbEntity
  8
1
  6
Continuous
 62
     7
100
AcDbLine
 10
255.9095143636706
 20
440.8686515676711
 30
0.0
 11
276.8695143636704
 21
440.8686515676712
 31
0.0
  0
LINE
  5
1E9
330
4E
100
AcDbEntity
  8
1
  6
Continuous
 62
     7
100
AcDbLine
 10
278.7992318186333
 20
377.3465263292027
 30
0.0
 11
279.255215509075
 21
386.0472134538958
 31
0.0
  0
LINE
  5
1EA
330
4E
100
AcDbEntity
  8
1
  6
Continuous
 62
     7
100
AcDbLine
 10
278.7992318186333
 20
377.3465263292027
 30
0.0
 11
278.3895143636691
 21
376.9368088742386
 31
0.0
  0
LINE
  5
1EB
330
4E
100
AcDbEntity
  8
1
  6
Continuous
 62
     7
100
AcDbLine
 10
254.3895143636719
 20
376.9368088742386
 30
0.0
 11
253.9797969087079
 21
377.3465263292027
 31
0.0
  0
LINE
  5
1EC
330
4E
100
AcDbEntity
  8
1
  6
Continuous
 62
     7
100
AcDbLine
 10
245.8986933004517
 20
418.5086515676875
 30
0.0
 11
246.5282030620438
 21
419.1381613292796
 31
0.0
  0
LINE
  5
1ED
330
4E
100
AcDbEntity
  8
1
  6
Continuous
 62
     7
100
AcDbLine
 10
285.8895143636707
 20
420.3286515676875
 30
0.0
 11
288.9468736765525
 21
420.3286515676875
 31
0.0
  0
LINE
  5
1EE
330
4E
100
AcDbEntity
  8
1
  6
Continuous
 62
     7
100
AcDbLine
 10
298.7284011964702
 20
423.0397585666178
 30
0.0
 11
292.9006213626021
 21
423.0397585666178
 31
0.0
  0
LINE
  5
1EF
330
4E
100
AcDbEntity
  8
1
  6
Continuous
 62
     7
100
AcDbLine
 10
298.7284011964702
 20
423.0397585666178
 30
0.0
 11
299.2363882071167
 21
422.159899254593
 31
0.0
  0
LINE
  5
1F0
330
4E
100
AcDbEntity
  8
1
  6
Continuous
 62
     7
100
AcDbLine
 10
291.068194020112
 20
421.2073312241276
 30
0.0
 11
291.6069260305821
 21
421.7460632345978
 31
0.0
  0
LINE
  5
1F1
330
4E
100
AcDbEntity
  8
1
  6
Continuous
 62
     7
100
AcDbLine
 10
288.9468736765523
 20
395.7286515676876
 30
0.0
 11
288.0260045239079
 21
395.7286515676873
 31
0.0
  0
LINE
  5
1F2
330
4E
100
AcDbEntity
  8
1
  6
Continuous
 62
     7
100
AcDbLine
 10
299.8895143636717
 20
395.0286515676875
 30
0.0
 11
299.8895143636717
 21
421.0286515676875
 31
0.0
  0
LINE
  5
1F3
330
4E
100
AcDbEntity
  8
1
  6
Continuous
 62
     7
100
AcDbLine
 10
292.9006213626021
 20
393.0175445687573
 30
0.0
 11
298.7284011964702
 21
393.0175445687573
 31
0.0
  0
LINE
  5
1F4
330
4E
100
AcDbEntity
  8
1
  6
Continuous
 62
     7
100
AcDbLine
 10
299.8895143636717
 20
395.0286515676875
 30
0.0
 11
299.2363882071176
 21
393.8974038807835
 31
0.0
  0
LINE
  5
1F5
330
4E
100
AcDbEntity
  8
1
  6
Continuous
 62
     7
100
AcDbLine
 10
292.9006213626021
 20
393.0175445687573
 30
0.0
 11
291.6069260305815
 21
394.3112399007777
 31
0.0
  0
LINE
  5
1F6
330
4E
100
AcDbEntity
  8
1
  6
PHANTOM
 62
     4
100
AcDbLine
 10
266.3895143636705
 20
442.0286515676716
 30
0.0
 11
266.3895143636705
 21
369.5286515676875
 31
0.0
  0
LINE
  5
1F7
330
4E
100
AcDbEntity
  8
1
  6
Continuous
 62
     2
100
AcDbLine
 10
277.5765143636705
 20
375.5286515676875
 30
0.0
 11
278.3895143636691
 21
376.9368088742386
 31
0.0
  0
LINE
  5
1F8
330
4E
100
AcDbEntity
  8
1
  6
Continuous
 62
     7
100
AcDbLine
 10
254.3895143636719
 20
375.5286515676875
 30
0.0
 11
278.3895143636691
 21
375.5286515676875
 31
0.0
  0
LINE
  5
1F9
330
4E
100
AcDbEntity
  8
1
  6
Continuous
 62
     2
100
AcDbLine
 10
254.3895143636719
 20
376.9368088742386
 30
0.0
 11
255.2025143636706
 21
375.5286515676875
 31
0.0
  0
LINE
  5
1FA
330
4E
100
AcDbEntity
  8
1
  6
Continuous
 62
     2
100
AcDbLine
 10
255.2025143636706
 20
375.5286515676875
 30
0.0
 11
255.2025143636706
 21
374.0287502437745
 31
0.0
  0
LINE
  5
1FB
330
4E
100
AcDbEntity
  8
1
  6
Continuous
 62
     7
100
AcDbLine
 10
254.3895143636719
 20
376.9368088742386
 30
0.0
 11
254.3895143636719
 21
374.0287502437745
 31
0.0
  0
LINE
  5
1FC
330
4E
100
AcDbEntity
  8
1
  6
Continuous
 62
     2
100
AcDbLine
 10
275.7095143636709
 20
442.0286515676716
 30
0.0
 11
275.7095143636704
 21
426.5378305044673
 31
0.0
  0
LINE
  5
1FD
330
4E
100
AcDbEntity
  8
1
  6
Continuous
 62
     7
100
AcDbLine
 10
257.0695143636708
 20
442.0286515676716
 30
0.0
 11
275.7095143636709
 21
442.0286515676716
 31
0.0
  0
LINE
  5
1FE
330
4E
100
AcDbEntity
  8
1
  6
Continuous
 62
     7
100
AcDbLine
 10
275.7095143636709
 20
442.0286515676716
 30
0.0
 11
276.8695143636704
 21
440.8686515676712
 31
0.0
  0
LINE
  5
1FF
330
4E
100
AcDbEntity
  8
1
  6
Continuous
 62
     7
100
AcDbLine
 10
276.8695143636704
 20
440.8686515676712
 30
0.0
 11
276.8695143636706
 21
424.5286515676875
 31
0.0
  0
LINE
  5
200
330
4E
100
AcDbEntity
  8
1
  6
Continuous
 62
     2
100
AcDbLine
 10
275.7095143636704
 20
426.5378305044673
 30
0.0
 11
276.8695143636706
 21
424.5286515676875
 31
0.0
  0
LINE
  5
201
330
4E
100
AcDbEntity
  8
1
  6
Continuous
 62
     7
100
AcDbLine
 10
255.9095143636706
 20
440.8686515676711
 30
0.0
 11
257.0695143636708
 21
442.0286515676716
 31
0.0
  0
LINE
  5
202
330
4E
100
AcDbEntity
  8
1
  6
Continuous
 62
     7
100
AcDbLine
 10
276.8695143636706
 20
426.5378305044673
 30
0.0
 11
265.5162518957388
 21
426.5378305044673
 31
0.0
  0
LINE
  5
203
330
4E
100
AcDbEntity
  8
1
  6
Continuous
 62
     2
100
AcDbLine
 10
227.8895143636721
 20
417.3486515676877
 30
0.0
 11
243.8895143636721
 21
417.3486515676872
 31
0.0
  0
LINE
  5
204
330
4E
100
AcDbEntity
  8
1
  6
Continuous
 62
     7
100
AcDbLine
 10
227.8895143636721
 20
398.7086515676878
 30
0.0
 11
227.8895143636721
 21
417.3486515676877
 31
0.0
  0
LINE
  5
205
330
4E
100
AcDbEntity
  8
1
  6
Continuous
 62
     7
100
AcDbLine
 10
227.8895143636721
 20
417.3486515676877
 30
0.0
 11
229.049514363672
 21
418.5086515676875
 31
0.0
  0
LINE
  5
206
330
4E
100
AcDbEntity
  8
1
  6
Continuous
 62
     7
100
AcDbLine
 10
229.049514363672
 20
418.5086515676875
 30
0.0
 11
245.8986933004517
 21
418.5086515676875
 31
0.0
  0
LINE
  5
207
330
4E
100
AcDbEntity
  8
1
  6
Continuous
 62
     2
100
AcDbLine
 10
243.8895143636721
 20
417.3486515676872
 30
0.0
 11
245.8986933004517
 21
418.5086515676875
 31
0.0
  0
LINE
  5
208
330
4E
100
AcDbEntity
  8
1
  6
Continuous
 62
     2
100
AcDbLine
 10
243.8895143636721
 20
398.7086515676878
 30
0.0
 11
227.8895143636721
 21
398.7086515676878
 31
0.0
  0
LINE
  5
209
330
4E
100
AcDbEntity
  8
1
  6
Continuous
 62
     7
100
AcDbLine
 10
229.049514363672
 20
397.5486515676874
 30
0.0
 11
227.8895143636721
 21
398.7086515676878
 31
0.0
  0
LINE
  5
20A
330
4E
100
AcDbEntity
  8
1
  6
Continuous
 62
     7
100
AcDbLine
 10
245.8986933004517
 20
397.5486515676874
 30
0.0
 11
229.049514363672
 21
397.5486515676874
 31
0.0
  0
LINE
  5
20B
330
4E
100
AcDbEntity
  8
1
  6
Continuous
 62
     7
100
AcDbLine
 10
243.8895143636721
 20
418.5086515676875
 30
0.0
 11
243.8895143636721
 21
397.5486515676874
 31
0.0
  0
LINE
  5
20C
330
4E
100
AcDbEntity
  8
1
  6
Continuous
 62
     2
100
AcDbLine
 10
245.8986933004517
 20
397.5486515676874
 30
0.0
 11
243.8895143636721
 21
398.7086515676878
 31
0.0
  0
LINE
  5
20D
330
4E
100
AcDbEntity
  8
1
  6
Continuous
 62
     7
100
AcDbLine
 10
292.9006213626021
 20
415.5342050671524
 30
0.0
 11
298.7284011964702
 21
415.5342050671524
 31
0.0
  0
LINE
  5
20E
330
4E
100
AcDbEntity
  8
1
  6
Continuous
 62
     7
100
AcDbLine
 10
298.7284011964702
 20
400.5230980682223
 30
0.0
 11
292.9006213626021
 21
400.5230980682223
 31
0.0
  0
LINE
  5
20F
330
4E
100
AcDbEntity
  8
1
  6
Continuous
 62
     7
100
AcDbLine
 10
299.2363882071167
 20
422.159899254593
 30
0.0
 11
299.8895143636717
 21
421.0286515676875
 31
0.0
  0
LINE
  5
210
330
4E
100
AcDbEntity
  8
1
  6
Continuous
 62
     7
100
AcDbLine
 10
291.6069260305821
 20
421.7460632345978
 30
0.0
 11
292.9006213626021
 21
423.0397585666178
 31
0.0
  0
LINE
  5
211
330
4E
100
AcDbEntity
  8
1
  6
Continuous
 62
     7
100
AcDbLine
 10
299.2363882071176
 20
393.8974038807835
 30
0.0
 11
298.7284011964702
 21
393.0175445687573
 31
0.0
  0
LINE
  5
212
330
4E
100
AcDbEntity
  8
1
  6
Continuous
 62
     7
100
AcDbLine
 10
291.6069260305815
 20
394.3112399007777
 30
0.0
 11
291.0681940201119
 21
394.8499719112473
 31
0.0
  0
LINE
  5
213
330
4E
100
AcDbEntity
  8
1
  6
PHANTOM
 62
     4
100
AcDbLine
 10
299.8895143636717
 20
408.0286515676875
 30
0.0
 11
219.8895143636721
 21
408.0286515676875
 31
0.0
  0
LINE
  5
214
330
4E
100
AcDbEntity
  8
1
  6
Continuous
 62
     7
100
AcDbLine
 10
292.9006213626263
 20
241.9114791127865
 30
0.0
 11
298.8895143636961
 21
241.9114791127865
 31
0.0
  0
LINE
  5
215
330
4E
100
AcDbEntity
  8
1
  6
Continuous
 62
     7
100
AcDbLine
 10
299.8895143636961
 20
235.4114791127865
 30
0.0
 11
299.8895143636961
 21
241.9114791127865
 31
0.0
  0
LINE
  5
216
330
4E
100
AcDbEntity
  8
1
  6
Continuous
 62
     7
100
AcDbLine
 10
298.8895143636961
 20
228.9114791127865
 30
0.0
 11
290.8730097050023
 21
228.9114791127865
 31
0.0
  0
LINE
  5
217
330
4E
100
AcDbEntity
  8
1
  6
Continuous
 62
     7
100
AcDbLine
 10
299.8895143636961
 20
228.9114791127865
 30
0.0
 11
299.8895143636961
 21
235.4114791127865
 31
0.0
  0
LINE
  5
218
330
4E
100
AcDbEntity
  8
1
  6
Continuous
 62
     7
100
AcDbLine
 10
299.8895143636961
 20
228.9114791127865
 30
0.0
 11
298.8895143636961
 21
228.9114791127865
 31
0.0
  0
LINE
  5
219
330
4E
100
AcDbEntity
  8
1
  6
PHANTOM
 62
     4
100
AcDbLine
 10
227.8895143637106
 20
241.9114791127865
 30
0.0
 11
289.3895143636947
 21
241.9114791127865
 31
0.0
  0
LINE
  5
21A
330
4E
100
AcDbEntity
  8
1
  6
Continuous
 62
     7
100
AcDbLine
 10
253.9797969087321
 20
269.5936043512714
 30
0.0
 11
278.7992318186575
 21
269.5936043512714
 31
0.0
  0
LINE
  5
21B
330
4E
100
AcDbEntity
  8
1
  6
Continuous
 62
     7
100
AcDbLine
 10
254.3895143636962
 20
270.0033218062355
 30
0.0
 11
278.3895143636934
 21
270.0033218062355
 31
0.0
  0
LINE
  5
21C
330
4E
100
AcDbEntity
  8
1
  6
Continuous
 62
     7
100
AcDbLine
 10
129.6208030687386
 20
374.0288489198616
 30
0.0
 11
129.6208030687386
 21
376.9368088742385
 31
0.0
  0
LINE
  5
21D
330
4E
100
AcDbEntity
  8
1
  6
Continuous
 62
     2
100
AcDbLine
 10
128.8078030687401
 20
374.0288489198616
 30
0.0
 11
128.8078030687401
 21
375.5286515676874
 31
0.0
  0
LINE
  5
21E
330
4E
100
AcDbEntity
  8
1
  6
Continuous
 62
     7
100
AcDbLine
 10
148.6209017448262
 20
420.0286515676864
 30
0.0
 11
145.7126457621888
 21
420.0286515676864
 31
0.0
  0
LINE
  5
21F
330
4E
100
AcDbEntity
  8
1
  6
Continuous
 62
     2
100
AcDbLine
 10
148.6209017448262
 20
419.2156515676874
 30
0.0
 11
147.1208030687399
 21
419.2156515676874
 31
0.0
  0
LINE
  5
220
330
4E
100
AcDbEntity
  8
1
  6
Continuous
 62
     7
100
AcDbLine
 10
145.7126457621888
 20
420.0286515676864
 30
0.0
 11
145.7126457621888
 21
396.0286515676886
 31
0.0
  0
LINE
  5
221
330
4E
100
AcDbEntity
  8
1
  6
Continuous
 62
     7
100
AcDbLine
 10
145.3029283072248
 20
420.4383690226501
 30
0.0
 11
145.3029283072248
 21
395.6189341127245
 31
0.0
  0
LINE
  5
222
330
4E
100
AcDbEntity
  8
1
  6
Continuous
 62
     7
100
AcDbLine
 10
105.6208030687415
 20
376.9368088742385
 30
0.0
 11
129.6208030687386
 21
376.9368088742385
 31
0.0
  0
LINE
  5
223
330
4E
100
AcDbEntity
  8
1
  6
Continuous
 62
     7
100
AcDbLine
 10
105.2110856137774
 20
377.3465263292023
 30
0.0
 11
130.0305205237027
 21
377.3465263292023
 31
0.0
  0
LINE
  5
224
330
4E
100
AcDbEntity
  8
1
  6
Continuous
 62
     7
100
AcDbLine
 10
107.14080306874
 20
440.8686515676712
 30
0.0
 11
128.10080306874
 21
440.8686515676712
 31
0.0
  0
LINE
  5
225
330
4E
100
AcDbEntity
  8
1
  6
Continuous
 62
     7
100
AcDbLine
 10
105.7532518990015
 20
424.5286515676875
 30
0.0
 11
128.10080306874
 21
424.528651567687
 31
0.0
  0
LINE
  5
226
330
4E
100
AcDbEntity
  8
1
  6
Continuous
 62
     7
100
AcDbLine
 10
128.10080306874
 20
424.528651567687
 30
0.0
 11
129.6587065172697
 21
424.5286515676875
 31
0.0
  0
LINE
  5
227
330
4E
100
AcDbEntity
  8
1
  6
PHANTOM
 62
     4
100
AcDbLine
 10
117.6208030687401
 20
369.5286515676874
 30
0.0
 11
117.6208030687399
 21
442.0286515676716
 31
0.0
  0
LINE
  5
228
330
4E
100
AcDbEntity
  8
1
  6
Continuous
 62
     7
100
AcDbLine
 10
147.1208030687399
 20
396.0286515676886
 30
0.0
 11
147.1208030687399
 21
420.0286515676859
 31
0.0
  0
LINE
  5
229
330
4E
100
AcDbEntity
  8
1
  6
Continuous
 62
     2
100
AcDbLine
 10
145.7126457621888
 20
396.0286515676886
 30
0.0
 11
147.1208030687399
 21
396.8416515676875
 31
0.0
  0
LINE
  5
22A
330
4E
100
AcDbEntity
  8
1
  6
Continuous
 62
     2
100
AcDbLine
 10
147.1208030687399
 20
396.8416515676875
 30
0.0
 11
148.6209017448262
 21
396.8416515676875
 31
0.0
  0
LINE
  5
22B
330
4E
100
AcDbEntity
  8
1
  6
Continuous
 62
     7
100
AcDbLine
 10
145.7126457621888
 20
396.0286515676886
 30
0.0
 11
148.6209017448262
 21
396.0286515676886
 31
0.0
  0
LINE
  5
22C
330
4E
100
AcDbEntity
  8
1
  6
PHANTOM
 62
     4
100
AcDbLine
 10
153.1208030687401
 20
408.0286515676875
 30
0.0
 11
99.42080306874013
 21
408.0286515676875
 31
0.0
  0
LINE
  5
22D
330
4E
100
AcDbEntity
  8
1
  6
Continuous
 62
     2
100
AcDbLine
 10
147.1208030687399
 20
419.2156515676874
 30
0.0
 11
145.7126457621888
 21
420.0286515676864
 31
0.0
  0
LINE
  5
22E
330
4E
100
AcDbEntity
  8
1
  6
Continuous
 62
     7
100
AcDbLine
 10
105.6208030687415
 20
375.5286515676874
 30
0.0
 11
129.6208030687386
 21
375.5286515676874
 31
0.0
  0
LINE
  5
22F
330
4E
100
AcDbEntity
  8
1
  6
Continuous
 62
     2
100
AcDbLine
 10
105.6208030687415
 20
376.9368088742385
 30
0.0
 11
106.4338030687399
 21
375.5286515676874
 31
0.0
  0
LINE
  5
230
330
4E
100
AcDbEntity
  8
1
  6
Continuous
 62
     2
100
AcDbLine
 10
106.4338030687399
 20
375.5286515676874
 30
0.0
 11
106.4338030687399
 21
374.0279712841971
 31
0.0
  0
LINE
  5
231
330
4E
100
AcDbEntity
  8
1
  6
Continuous
 62
     7
100
AcDbLine
 10
105.6208030687415
 20
376.9368088742385
 30
0.0
 11
105.6208030687415
 21
374.0288489198616
 31
0.0
  0
LINE
  5
232
330
4E
100
AcDbEntity
  8
1
  6
Continuous
 62
     2
100
AcDbLine
 10
128.8078030687401
 20
375.5286515676874
 30
0.0
 11
129.6208030687386
 21
376.9368088742385
 31
0.0
  0
LINE
  5
233
330
4E
100
AcDbEntity
  8
1
  6
Continuous
 62
     2
100
AcDbLine
 10
108.3008030687402
 20
426.5378305044677
 30
0.0
 11
108.3008030687402
 21
442.0286515676717
 31
0.0
  0
LINE
  5
234
330
4E
100
AcDbEntity
  8
1
  6
Continuous
 62
     7
100
AcDbLine
 10
124.1208030687401
 20
442.0286515676716
 30
0.0
 11
126.9408030687403
 21
442.0286515676717
 31
0.0
  0
LINE
  5
235
330
4E
100
AcDbEntity
  8
1
  6
Continuous
 62
     7
100
AcDbLine
 10
107.14080306874
 20
440.8686515676712
 30
0.0
 11
108.3008030687402
 21
442.0286515676717
 31
0.0
  0
LINE
  5
236
330
4E
100
AcDbEntity
  8
1
  6
Continuous
 62
     7
100
AcDbLine
 10
107.14080306874
 20
424.5286515676875
 30
0.0
 11
107.14080306874
 21
440.8686515676712
 31
0.0
  0
LINE
  5
237
330
4E
100
AcDbEntity
  8
1
  6
Continuous
 62
     7
100
AcDbLine
 10
111.1208030687399
 20
442.0286515676716
 30
0.0
 11
124.1208030687401
 21
442.0286515676716
 31
0.0
  0
LINE
  5
238
330
4E
100
AcDbEntity
  8
1
  6
Continuous
 62
     7
100
AcDbLine
 10
108.3008030687402
 20
442.0286515676717
 30
0.0
 11
111.1208030687399
 21
442.0286515676716
 31
0.0
  0
LINE
  5
239
330
4E
100
AcDbEntity
  8
1
  6
Continuous
 62
     2
100
AcDbLine
 10
107.14080306874
 20
424.5286515676875
 30
0.0
 11
108.3008030687402
 21
426.5378305044677
 31
0.0
  0
LINE
  5
23A
330
4E
100
AcDbEntity
  8
1
  6
Continuous
 62
     2
100
AcDbLine
 10
126.9408030687403
 20
442.0286515676717
 30
0.0
 11
126.9408030687398
 21
426.5378305044671
 31
0.0
  0
LINE
  5
23B
330
4E
100
AcDbEntity
  8
1
  6
Continuous
 62
     7
100
AcDbLine
 10
126.9408030687403
 20
442.0286515676717
 30
0.0
 11
128.10080306874
 21
440.8686515676712
 31
0.0
  0
LINE
  5
23C
330
4E
100
AcDbEntity
  8
1
  6
Continuous
 62
     7
100
AcDbLine
 10
128.10080306874
 20
440.8686515676712
 30
0.0
 11
128.10080306874
 21
424.528651567687
 31
0.0
  0
LINE
  5
23D
330
4E
100
AcDbEntity
  8
1
  6
Continuous
 62
     7
100
AcDbLine
 10
128.10080306874
 20
426.5378305044671
 30
0.0
 11
107.14080306874
 21
426.5378305044671
 31
0.0
  0
LINE
  5
23E
330
4E
100
AcDbEntity
  8
1
  6
Continuous
 62
     2
100
AcDbLine
 10
126.9408030687398
 20
426.5378305044671
 30
0.0
 11
128.10080306874
 21
424.528651567687
 31
0.0
  0
LINE
  5
23F
330
4E
100
AcDbEntity
  8
1
  6
Continuous
 62
     7
100
AcDbLine
 10
145.3029283072248
 20
420.4383690226501
 30
0.0
 11
136.1759474406748
 21
420.916693821425
 31
0.0
  0
LINE
  5
240
330
4E
100
AcDbEntity
  8
1
  6
Continuous
 62
     7
100
AcDbLine
 10
145.3029283072248
 20
420.4383690226501
 30
0.0
 11
145.7126457621888
 21
420.0286515676864
 31
0.0
  0
LINE
  5
241
330
4E
100
AcDbEntity
  8
1
  6
Continuous
 62
     7
100
AcDbLine
 10
139.0412425477723
 20
395.2907730675036
 30
0.0
 11
145.3029283072248
 21
395.6189341127245
 31
0.0
  0
LINE
  5
242
330
4E
100
AcDbEntity
  8
1
  6
Continuous
 62
     7
100
AcDbLine
 10
130.0305205237027
 20
377.3465263292023
 30
0.0
 11
130.5246003411675
 21
386.7741308608988
 31
0.0
  0
LINE
  5
243
330
4E
100
AcDbEntity
  8
1
  6
Continuous
 62
     7
100
AcDbLine
 10
130.0305205237027
 20
377.3465263292023
 30
0.0
 11
129.6208030687386
 21
376.9368088742385
 31
0.0
  0
LINE
  5
244
330
4E
100
AcDbEntity
  8
1
  6
Continuous
 62
     7
100
AcDbLine
 10
145.7126457621888
 20
396.0286515676886
 30
0.0
 11
145.3029283072248
 21
395.6189341127245
 31
0.0
  0
LINE
  5
245
330
4E
100
AcDbEntity
  8
1
  6
Continuous
 62
     7
100
AcDbLine
 10
104.7407960226563
 20
386.3201863001999
 30
0.0
 11
105.2110856137774
 21
377.3465263292023
 31
0.0
  0
LINE
  5
246
330
4E
100
AcDbEntity
  8
1
  6
Continuous
 62
     7
100
AcDbLine
 10
105.6208030687415
 20
376.9368088742385
 30
0.0
 11
105.2110856137774
 21
377.3465263292023
 31
0.0
  0
LINE
  5
247
330
4E
100
AcDbEntity
  8
1
  6
Continuous
 62
     7
100
AcDbLine
 10
229.0495143637108
 20
252.3914791127866
 30
0.0
 11
229.0495143637107
 21
231.4314791127866
 31
0.0
  0
ARC
  5
248
330
4E
100
AcDbEntity
  8
1
  6
Continuous
 62
     7
100
AcDbCircle
 10
266.3895143636948
 20
242.7114791127867
 30
0.0
 40
19.00000000000025
100
AcDbArc
 50
-125.5859697206949
 51
-58.07249903137729
  0
ARC
  5
249
330
4E
100
AcDbEntity
  8
1
  6
Continuous
 62
     7
100
AcDbCircle
 10
305.778364519889
 20
408.0286515676872
 30
0.0
 40
14.90535481491078
100
AcDbArc
 50
149.7650233480889
 51
156.2171792358054
  0
ARC
  5
24A
330
4E
100
AcDbEntity
  8
1
  6
Continuous
 62
     7
100
AcDbCircle
 10
245.3895143636707
 20
408.0286515676875
 30
0.0
 40
39.22245539130737
100
AcDbArc
 50
-26.80207233142138
 51
-25.45995949922494
  0
ARC
  5
24B
330
4E
100
AcDbEntity
  8
1
  6
Continuous
 62
     7
100
AcDbCircle
 10
290.0179898674505
 20
385.4831603508491
 30
0.0
 40
10.77754460869275
100
AcDbArc
 50
153.1979276685798
 51
177.0000000000014
  0
ARC
  5
24C
330
4E
100
AcDbEntity
  8
1
  6
Continuous
 62
     7
100
AcDbCircle
 10
293.2443752177714
 20
419.286981816885
 30
0.0
 40
6.645139145900312
100
AcDbArc
 50
-34.38424746804118
 51
25.61575253203073
  0
ARC
  5
24D
330
4E
100
AcDbEntity
  8
1
  6
Continuous
 62
     7
100
AcDbCircle
 10
275.0506275308722
 20
408.0286515676875
 30
0.0
 40
24.83888683279952
100
AcDbArc
 50
-17.58795377399325
 51
17.5879537739925
  0
ARC
  5
24E
330
4E
100
AcDbEntity
  8
1
  6
Continuous
 62
     7
100
AcDbCircle
 10
295.359702780315
 20
419.286981816885
 30
0.0
 40
4.486693075336922
100
AcDbArc
 50
146.7643835149274
 51
-123.2356164850756
  0
ARC
  5
24F
330
4E
100
AcDbEntity
  8
1
  6
Continuous
 62
     7
100
AcDbCircle
 10
305.778364519889
 20
408.0286515676872
 30
0.0
 40
14.90535481491066
100
AcDbArc
 50
-156.2171792357999
 51
-149.76502334809
  0
ARC
  5
250
330
4E
100
AcDbEntity
  8
1
  6
Continuous
 62
     7
100
AcDbCircle
 10
295.359702780315
 20
396.7703213184894
 30
0.0
 40
4.486693075336953
100
AcDbArc
 50
123.2356164850733
 51
-146.7643835149435
  0
ARC
  5
251
330
4E
100
AcDbEntity
  8
1
  6
Continuous
 62
     7
100
AcDbCircle
 10
293.2443752177714
 20
396.7703213184894
 30
0.0
 40
6.645139145899689
100
AcDbArc
 50
-25.61575253201099
 51
34.3842474680436
  0
ARC
  5
252
330
4E
100
AcDbEntity
  8
1
  6
Continuous
 62
     7
100
AcDbCircle
 10
302.3054772733875
 20
248.4114791127867
 30
0.0
 40
11.43246756838513
100
AcDbArc
 50
145.3503954979938
 51
-145.3503954979921
  0
ARC
  5
253
330
4E
100
AcDbEntity
  8
1
  6
Continuous
 62
     7
100
AcDbCircle
 10
302.3054772733875
 20
235.4114791127865
 30
0.0
 40
11.43246756838524
100
AcDbArc
 50
145.3503954979929
 51
-145.3503954979938
  0
ARC
  5
254
330
4E
100
AcDbEntity
  8
1
  6
Continuous
 62
     7
100
AcDbCircle
 10
278.2645143636961
 20
235.4114791127865
 30
0.0
 40
21.625
100
AcDbArc
 50
-17.49232452511042
 51
17.49232452511042
  0
ARC
  5
255
330
4E
100
AcDbEntity
  8
1
  6
Continuous
 62
     7
100
AcDbCircle
 10
278.2645143636961
 20
248.4114791127865
 30
0.0
 40
21.625
100
AcDbArc
 50
-17.49232452511042
 51
17.49232452511042
  0
ARC
  5
256
330
4E
100
AcDbEntity
  8
1
  6
Continuous
 62
     7
100
AcDbCircle
 10
138.4208030687397
 20
408.0286515676875
 30
0.0
 40
38.99999999999957
100
AcDbArc
 50
180.0
 51
-153.0179902639772
  0
ARC
  5
257
330
4E
100
AcDbEntity
  8
1
  6
Continuous
 62
     7
100
AcDbCircle
 10
123.4208030687398
 20
408.0286515676875
 30
0.0
 40
23.99999999999971
100
AcDbArc
 50
140.6718935662979
 51
180.0
  0
CIRCLE
  5
258
330
4E
100
AcDbEntity
  8
1
  6
Continuous
 62
     7
100
AcDbCircle
 10
117.62080306874
 20
408.0286515676875
 30
0.0
 40
6.5
  0
CIRCLE
  5
259
330
4E
100
AcDbEntity
  8
1
  6
Continuous
 62
     7
100
AcDbCircle
 10
117.62080306874
 20
408.0286515676875
 30
0.0
 40
9.320000000000093
  0
CIRCLE
  5
25A
330
4E
100
AcDbEntity
  8
1
  6
Continuous
 62
     7
100
AcDbCircle
 10
117.62080306874
 20
408.0286515676875
 30
0.0
 40
10.47999999999999
  0
ARC
  5
25B
330
4E
100
AcDbEntity
  8
1
  6
Continuous
 62
     7
100
AcDbCircle
 10
287.0144992121743
 20
209.6114791127868
 30
0.0
 40
20.0
100
AcDbArc
 50
90.0
 51
121.9275009686229
  0
ARC
  5
25C
330
4E
100
AcDbEntity
  8
1
  6
Continuous
 62
     7
100
AcDbCircle
 10
288.9468736765765
 20
226.6114791127868
 30
0.0
 40
2.999999999999747
100
AcDbArc
 50
50.05549481018193
 51
90.0
  0
ARC
  5
25D
330
4E
100
AcDbEntity
  8
1
  6
Continuous
 62
     7
100
AcDbCircle
 10
287.197091376779
 20
262.2114791127867
 30
0.0
 40
7.999999999999967
100
AcDbArc
 50
-177.0000000000009
 51
-90.0
  0
ARC
  5
25E
330
4E
100
AcDbEntity
  8
1
  6
Continuous
 62
     7
100
AcDbCircle
 10
288.9468736765765
 20
257.2114791127865
 30
0.0
 40
3.0
100
AcDbArc
 50
-90.0
 51
-50.05549481018542
  0
ARC
  5
25F
330
4E
100
AcDbEntity
  8
1
  6
Continuous
 62
     7
100
AcDbCircle
 10
244.5632163202674
 20
261.8804464954457
 30
0.0
 40
9.000000000000114
100
AcDbArc
 50
-76.73949744068214
 51
-3.00000000000127
  0
ARC
  5
260
330
4E
100
AcDbEntity
  8
1
  6
Continuous
 62
     7
100
AcDbCircle
 10
243.6944844083863
 20
210.9949910454161
 30
0.0
 40
19.99999999999989
100
AcDbArc
 50
54.41403027930493
 51
81.82503860411737
  0
ARC
  5
261
330
4E
100
AcDbEntity
  8
1
  6
Continuous
 62
     7
100
AcDbCircle
 10
244.8895143636707
 20
386.0418857481632
 30
0.0
 40
11.00000000000014
100
AcDbArc
 50
61.29401787124164
 51
81.43266022788586
  0
ARC
  5
262
330
4E
100
AcDbEntity
  8
1
  6
Continuous
 62
     7
100
AcDbCircle
 10
244.8895143636707
 20
430.0154173872119
 30
0.0
 40
11.00000000000003
100
AcDbArc
 50
-81.43266022788586
 51
-61.29401787124164
  0
ARC
  5
263
330
4E
100
AcDbEntity
  8
1
  6
Continuous
 62
     7
100
AcDbCircle
 10
288.0260045239079
 20
387.7286515676873
 30
0.0
 40
8.0
100
AcDbArc
 50
90.0
 51
154.5400405007737
  0
ARC
  5
264
330
4E
100
AcDbEntity
  8
1
  6
Continuous
 62
     7
100
AcDbCircle
 10
285.8895143636707
 20
429.3286515676875
 30
0.0
 40
8.999999999999936
100
AcDbArc
 50
-147.769047364498
 51
-90.0
  0
ARC
  5
265
330
4E
100
AcDbEntity
  8
1
  6
Continuous
 62
     7
100
AcDbCircle
 10
288.9468736765525
 20
423.3286515676875
 30
0.0
 40
3.0
100
AcDbArc
 50
-90.0
 51
-45.00000000000537
  0
ARC
  5
266
330
4E
100
AcDbEntity
  8
1
  6
Continuous
 62
     7
100
AcDbCircle
 10
288.9468736765523
 20
392.7286515676876
 30
0.0
 40
2.999999999999984
100
AcDbArc
 50
45.00000000000077
 51
90.0
  0
ARC
  5
267
330
4E
100
AcDbEntity
  8
1
  6
Continuous
 62
     7
100
AcDbCircle
 10
139.5122661539588
 20
386.3031072547127
 30
0.0
 40
8.999999999999744
100
AcDbArc
 50
93.00000000000007
 51
177.0000000000024
  0
ARC
  5
268
330
4E
100
AcDbEntity
  8
1
  6
Continuous
 62
     7
100
AcDbCircle
 10
136.6208030687399
 20
429.4050448668385
 30
0.0
 40
8.499999999999872
100
AcDbArc
 50
-144.9918234862276
 51
-93.00000000000054
  0
ARC
  5
269
330
4E
100
AcDbEntity
  8
1
  6
Continuous
 62
     7
100
AcDbCircle
 10
94.75450067511028
 20
385.7968267377704
 30
0.0
 40
10.00000000000028
100
AcDbArc
 50
3.0000000000003
 51
26.98200973602197
  0
ARC
  5
26A
330
4E
100
AcDbEntity
  8
1
  6
Continuous
 62
     7
100
AcDbCircle
 10
97.12080306873989
 20
429.576505289114
 30
0.0
 40
10.00000000000011
100
AcDbArc
 50
-39.32810643370141
 51
-30.31710592541638
  0
ENDBLK
  5
50
330
4E
100
AcDbEntity
  8
0
100
AcDbBlockEnd
  0
BLOCK
  5
52
330
51
100
AcDbEntity
  8
0
100
AcDbBlockBegin
  2
78-167
 70
     0
 71
     0
 10
679.7184249091831
 20
-907.069190204263
 30
0.0
  3
78-167
  1

  0
LINE
  5
26B
330
51
100
AcDbEntity
  8
1
  6
Continuous
 62
     7
100
AcDbLine
 10
352.8895143636718
 20
378.0286515676875
 30
0.0
 11
352.8895143636718
 21
438.0286515676875
 31
0.0
  0
LINE
  5
26C
330
51
100
AcDbEntity
  8
1
  6
Continuous
 62
     7
100
AcDbLine
 10
336.8895143636718
 20
418.6286515676876
 30
0.0
 11
336.8895143636718
 21
397.4286515676875
 31
0.0
  0
LINE
  5
26D
330
51
100
AcDbEntity
  8
1
  6
Continuous
 62
     7
100
AcDbLine
 10
336.8895143636718
 20
420.2328200443749
 30
0.0
 11
336.8895143636718
 21
418.6286515676876
 31
0.0
  0
LINE
  5
26E
330
51
100
AcDbEntity
  8
1
  6
Continuous
 62
     7
100
AcDbLine
 10
352.8895143636718
 20
438.0286515676875
 30
0.0
 11
350.8895143636718
 21
438.0286515676873
 31
0.0
  0
LINE
  5
26F
330
51
100
AcDbEntity
  8
1
  6
Continuous
 62
     7
100
AcDbLine
 10
336.8895143636718
 20
397.4286515676875
 30
0.0
 11
336.8895143636718
 21
395.8244830910003
 31
0.0
  0
LINE
  5
270
330
51
100
AcDbEntity
  8
1
  6
Continuous
 62
     7
100
AcDbLine
 10
350.8895143636718
 20
378.0286515676873
 30
0.0
 11
352.8895143636718
 21
378.0286515676875
 31
0.0
  0
LINE
  5
271
330
51
100
AcDbEntity
  8
1
  6
Continuous
 62
     7
100
AcDbLine
 10
350.8895143636718
 20
211.9114791127863
 30
0.0
 11
352.8895143636718
 21
211.9114791127865
 31
0.0
  0
LINE
  5
272
330
51
100
AcDbEntity
  8
1
  6
Continuous
 62
     7
100
AcDbLine
 10
336.8895143636718
 20
231.3114791127865
 30
0.0
 11
336.8895143636718
 21
229.7073106360993
 31
0.0
  0
LINE
  5
273
330
51
100
AcDbEntity
  8
1
  6
Continuous
 62
     7
100
AcDbLine
 10
352.8895143636718
 20
271.9114791127865
 30
0.0
 11
350.8895143636718
 21
271.9114791127863
 31
0.0
  0
LINE
  5
274
330
51
100
AcDbEntity
  8
1
  6
Continuous
 62
     7
100
AcDbLine
 10
336.8895143636718
 20
254.1156475894739
 30
0.0
 11
336.8895143636718
 21
252.5114791127866
 31
0.0
  0
LINE
  5
275
330
51
100
AcDbEntity
  8
1
  6
Continuous
 62
     7
100
AcDbLine
 10
336.8895143636718
 20
252.5114791127866
 30
0.0
 11
336.8895143636718
 21
231.3114791127865
 31
0.0
  0
LINE
  5
276
330
51
100
AcDbEntity
  8
1
  6
Continuous
 62
     7
100
AcDbLine
 10
352.8895143636718
 20
211.9114791127865
 30
0.0
 11
352.8895143636718
 21
271.9114791127865
 31
0.0
  0
ARC
  5
277
330
51
100
AcDbEntity
  8
1
  6
Continuous
 62
     7
100
AcDbCircle
 10
117.6208030687398
 20
408.0286515676875
 30
0.0
 40
29.99999999999998
100
AcDbArc
 50
110.4465442316621
 51
-114.81487587836
  0
ARC
  5
278
330
51
100
AcDbEntity
  8
1
  6
Continuous
 62
     7
100
AcDbCircle
 10
117.6208030687398
 20
408.0286515676875
 30
0.0
 40
29.99999999999989
100
AcDbArc
 50
24.47636636045536
 51
69.55345576833813
  0
ARC
  5
279
330
51
100
AcDbEntity
  8
1
  6
Continuous
 62
     7
100
AcDbCircle
 10
117.6208030687398
 20
408.0286515676875
 30
0.0
 40
30.00000000000005
100
AcDbArc
 50
-65.18512412163999
 51
-24.4763663604567
  0
ARC
  5
27A
330
51
100
AcDbEntity
  8
1
  6
Continuous
 62
     7
100
AcDbCircle
 10
350.8895143636718
 20
425.0286515676873
 30
0.0
 40
13.0
100
AcDbArc
 50
90.0
 51
156.4435356908979
  0
ARC
  5
27B
330
51
100
AcDbEntity
  8
1
  6
Continuous
 62
     7
100
AcDbCircle
 10
361.8895143636718
 20
420.2328200443746
 30
0.0
 40
25.00000000000017
100
AcDbArc
 50
156.4435356908983
 51
179.9999999999994
  0
ARC
  5
27C
330
51
100
AcDbEntity
  8
1
  6
Continuous
 62
     7
100
AcDbCircle
 10
361.8895143636718
 20
395.824483091
 30
0.0
 40
25.0
100
AcDbArc
 50
179.9999999999994
 51
-156.4435356908992
  0
ARC
  5
27D
330
51
100
AcDbEntity
  8
1
  6
Continuous
 62
     7
100
AcDbCircle
 10
350.8895143636718
 20
391.0286515676873
 30
0.0
 40
13.00000000000002
100
AcDbArc
 50
-156.4435356908994
 51
-90.0
  0
ARC
  5
27E
330
51
100
AcDbEntity
  8
1
  6
Continuous
 62
     7
100
AcDbCircle
 10
350.8895143636718
 20
224.9114791127863
 30
0.0
 40
13.00000000000002
100
AcDbArc
 50
-156.4435356908994
 51
-90.0
  0
ARC
  5
27F
330
51
100
AcDbEntity
  8
1
  6
Continuous
 62
     7
100
AcDbCircle
 10
361.8895143636718
 20
229.707310636099
 30
0.0
 40
25.0
100
AcDbArc
 50
179.9999999999994
 51
-156.4435356908992
  0
ARC
  5
280
330
51
100
AcDbEntity
  8
1
  6
Continuous
 62
     7
100
AcDbCircle
 10
361.8895143636718
 20
254.1156475894736
 30
0.0
 40
25.00000000000017
100
AcDbArc
 50
156.4435356908983
 51
179.9999999999994
  0
ARC
  5
281
330
51
100
AcDbEntity
  8
1
  6
Continuous
 62
     7
100
AcDbCircle
 10
350.8895143636718
 20
258.9114791127863
 30
0.0
 40
13.0
100
AcDbArc
 50
90.0
 51
156.4435356908979
  0
ENDBLK
  5
53
330
51
100
AcDbEntity
  8
0
100
AcDbBlockEnd
  0
BLOCK
  5
2B9
330
2B2
100
AcDbEntity
  8
0
100
AcDbBlockBegin
  2
*D011
 70
     1
 71
     0
 10
0.0
 20
0.0
 30
0.0
  3
*D011
  1

  0
LINE
  5
2B3
330
2B2
100
AcDbEntity
  8
1
  6
Continuous
 62
     2
100
AcDbLine
 10
69.21857304302989
 20
355.5288489198616
 30
0.0
 11
69.21857304302989
 21
408.0286515676875
 31
0.0
  0
LINE
  5
2B4
330
2B2
100
AcDbEntity
  8
1
  6
Continuous
 62
     2
100
AcDbLine
 10
113.8708030687402
 20
355.5288489198616
 30
0.0
 11
67.21857304302989
 21
355.5288489198616
 31
0.0
  0
LINE
  5
2B5
330
2B2
100
AcDbEntity
  8
1
  6
Continuous
 62
     2
100
AcDbLine
 10
96.42080306874013
 20
408.0286515676875
 30
0.0
 11
67.21857304302989
 21
408.0286515676875
 31
0.0
  0
SOLID
  5
2B6
330
2B2
100
AcDbEntity
  8
1
 62
     2
100
AcDbTrace
 10
68.29700555991812
 20
362.5288489198616
 30
0.0
 11
70.14014052614166
 21
362.5288489198616
 31
0.0
 12
69.21857304302989
 22
355.5288489198616
 32
0.0
 13
69.21857304302989
 23
355.5288489198616
 33
0.0
  0
SOLID
  5
2B7
330
2B2
100
AcDbEntity
  8
1
 62
     2
100
AcDbTrace
 10
70.14014052614166
 20
401.0286515676875
 30
0.0
 11
68.29700555991812
 21
401.0286515676875
 31
0.0
 12
69.21857304302989
 22
408.0286515676875
 32
0.0
 13
69.21857304302989
 23
408.0286515676875
 33
0.0
  0
MTEXT
  5
2B8
330
2B2
100
AcDbEntity
  8
1
 62
     7
100
AcDbMText
 10
67.21857304302989
 20
362.8787502437745
 30
0.0
 40
7.0
 41
0.0
 71
     7
 72
     1
  1
53リフト4
  7
CONVERTER_1
 11
0.0
 21
1.0
 31
0.0
 73
     1
 44
0.60024009603842
  0
ENDBLK
  5
2BA
330
2B2
100
AcDbEntity
  8
0
100
AcDbBlockEnd
  0
BLOCK
  5
2C4
330
2BD
100
AcDbEntity
  8
0
100
AcDbBlockBegin
  2
*D112
 70
     1
 71
     0
 10
0.0
 20
0.0
 30
0.0
  3
*D112
  1

  0
LINE
  5
2BE
330
2BD
100
AcDbEntity
  8
1
  6
Continuous
 62
     2
100
AcDbLine
 10
191.8895143637105
 20
241.9114791127865
 30
0.0
 11
191.8895143637105
 21
307.7114791127876
 31
0.0
  0
LINE
  5
2BF
330
2BD
100
AcDbEntity
  8
1
  6
Continuous
 62
     2
100
AcDbLine
 10
221.8895143636719
 20
241.9114791127865
 30
0.0
 11
189.8895143637105
 21
241.9114791127865
 31
0.0
  0
LINE
  5
2C0
330
2BD
100
AcDbEntity
  8
1
  6
Continuous
 62
     2
100
AcDbLine
 10
247.3895143636954
 20
307.7114791127876
 30
0.0
 11
189.8895143637105
 21
307.7114791127876
 31
0.0
  0
SOLID
  5
2C1
330
2BD
100
AcDbEntity
  8
1
 62
     2
100
AcDbTrace
 10
190.9679468805987
 20
248.9114791127865
 30
0.0
 11
192.8110818468223
 21
248.9114791127865
 31
0.0
 12
191.8895143637105
 22
241.9114791127865
 32
0.0
 13
191.8895143637105
 23
241.9114791127865
 33
0.0
  0
SOLID
  5
2C2
330
2BD
100
AcDbEntity
  8
1
 62
     2
100
AcDbTrace
 10
192.8110818468223
 20
300.7114791127876
 30
0.0
 11
190.9679468805987
 21
300.7114791127876
 31
0.0
 12
191.8895143637105
 22
307.7114791127876
 32
0.0
 13
191.8895143637105
 23
307.7114791127876
 33
0.0
  0
MTEXT
  5
2C3
330
2BD
100
AcDbEntity
  8
1
 62
     7
100
AcDbMText
 10
189.8895143637105
 20
255.911479112787
 30
0.0
 40
7.0
 41
0.0
 71
     7
 72
     1
  1
65リフト4
  7
CONVERTER_1
 11
0.0
 21
1.0
 31
0.0
 73
     1
 44
0.60024009603842
  0
ENDBLK
  5
2C5
330
2BD
100
AcDbEntity
  8
0
100
AcDbBlockEnd
  0
BLOCK
  5
2CF
330
2C8
100
AcDbEntity
  8
0
100
AcDbBlockBegin
  2
*D213
 70
     1
 71
     0
 10
0.0
 20
0.0
 30
0.0
  3
*D213
  1

  0
LINE
  5
2C9
330
2C8
100
AcDbEntity
  8
1
  6
Continuous
 62
     2
100
AcDbLine
 10
69.21857304302989
 20
408.0286515676876
 30
0.0
 11
69.21857304302989
 21
442.0286515676717
 31
0.0
  0
LINE
  5
2CA
330
2C8
100
AcDbEntity
  8
1
  6
Continuous
 62
     2
100
AcDbLine
 10
111.1208030687399
 20
442.0286515676717
 30
0.0
 11
67.21857304302989
 21
442.0286515676717
 31
0.0
  0
LINE
  5
2CB
330
2C8
100
AcDbEntity
  8
1
  6
Continuous
 62
     2
100
AcDbLine
 10
96.42080306874013
 20
408.0286515676876
 30
0.0
 11
67.21857304302989
 21
408.0286515676876
 31
0.0
  0
SOLID
  5
2CC
330
2C8
100
AcDbEntity
  8
1
 62
     2
100
AcDbTrace
 10
68.29700555991812
 20
415.0286515676876
 30
0.0
 11
70.14014052614166
 21
415.0286515676876
 31
0.0
 12
69.21857304302989
 22
408.0286515676876
 32
0.0
 13
69.21857304302989
 23
408.0286515676876
 33
0.0
  0
SOLID
  5
2CD
330
2C8
100
AcDbEntity
  8
1
 62
     2
100
AcDbTrace
 10
70.14014052614166
 20
435.0286515676717
 30
0.0
 11
68.29700555991812
 21
435.0286515676717
 31
0.0
 12
69.21857304302989
 22
442.0286515676717
 32
0.0
 13
69.21857304302989
 23
442.0286515676717
 33
0.0
  0
MTEXT
  5
2CE
330
2C8
100
AcDbEntity
  8
1
 62
     7
100
AcDbMText
 10
67.21857304302989
 20
419.7786515676796
 30
0.0
 40
7.0
 41
0.0
 71
     7
 72
     1
  1
34
  7
CONVERTER_2
 11
0.0
 21
1.0
 31
0.0
 73
     1
 44
0.60024009603842
  0
ENDBLK
  5
2D0
330
2C8
100
AcDbEntity
  8
0
100
AcDbBlockEnd
  0
BLOCK
  5
2DA
330
2D3
100
AcDbEntity
  8
0
100
AcDbBlockBegin
  2
*D314
 70
     1
 71
     0
 10
0.0
 20
0.0
 30
0.0
  3
*D314
  1

  0
LINE
  5
2D4
330
2D3
100
AcDbEntity
  8
1
  6
Continuous
 62
     2
100
AcDbLine
 10
299.889514363696
 20
193.4114791127867
 30
0.0
 11
266.3895143636947
 21
193.4114791127867
 31
0.0
  0
LINE
  5
2D5
330
2D3
100
AcDbEntity
  8
1
  6
Continuous
 62
     2
100
AcDbLine
 10
266.3895143636947
 20
223.7114791127867
 30
0.0
 11
266.3895143636947
 21
191.4114791127867
 31
0.0
  0
LINE
  5
2D6
330
2D3
100
AcDbEntity
  8
1
  6
Continuous
 62
     2
100
AcDbLine
 10
299.889514363696
 20
228.9114791127865
 30
0.0
 11
299.889514363696
 21
191.4114791127867
 31
0.0
  0
SOLID
  5
2D7
330
2D3
100
AcDbEntity
  8
1
 62
     2
100
AcDbTrace
 10
292.889514363696
 20
192.4899116296749
 30
0.0
 11
292.889514363696
 21
194.3330465958985
 31
0.0
 12
299.889514363696
 22
193.4114791127867
 32
0.0
 13
299.889514363696
 23
193.4114791127867
 33
0.0
  0
SOLID
  5
2D8
330
2D3
100
AcDbEntity
  8
1
 62
     2
100
AcDbTrace
 10
273.3895143636947
 20
194.3330465958985
 30
0.0
 11
273.3895143636947
 21
192.4899116296749
 31
0.0
 12
266.3895143636947
 22
193.4114791127867
 32
0.0
 13
266.3895143636947
 23
193.4114791127867
 33
0.0
  0
MTEXT
  5
2D9
330
2D3
100
AcDbEntity
  8
1
 62
     7
100
AcDbMText
 10
277.8895143636954
 20
195.4114791127867
 30
0.0
 40
7.0
 41
0.0
 71
     7
 72
     1
  1
34
  7
CONVERTER_2
 11
0.9999999999970621
 21
2.424068405545307E-6
 31
0.0
 73
     1
 44
0.60024009603842
  0
ENDBLK
  5
2DB
330
2D3
100
AcDbEntity
  8
0
100
AcDbBlockEnd
  0
BLOCK
  5
2E5
330
2DE
100
AcDbEntity
  8
0
100
AcDbBlockBegin
  2
*D415
 70
     1
 71
     0
 10
0.0
 20
0.0
 30
0.0
  3
*D415
  1

  0
LINE
  5
2DF
330
2DE
100
AcDbEntity
  8
1
  6
Continuous
 62
     2
100
AcDbLine
 10
227.8895143637106
 20
193.4114791127867
 30
0.0
 11
266.3895143636948
 21
193.4114791127867
 31
0.0
  0
LINE
  5
2E0
330
2DE
100
AcDbEntity
  8
1
  6
Continuous
 62
     2
100
AcDbLine
 10
227.8895143637106
 20
232.5914791127868
 30
0.0
 11
227.8895143637106
 21
191.4114791127867
 31
0.0
  0
LINE
  5
2E1
330
2DE
100
AcDbEntity
  8
1
  6
Continuous
 62
     2
100
AcDbLine
 10
266.3895143636948
 20
223.7114791127867
 30
0.0
 11
266.3895143636948
 21
191.4114791127867
 31
0.0
  0
SOLID
  5
2E2
330
2DE
100
AcDbEntity
  8
1
 62
     2
100
AcDbTrace
 10
234.8895143637106
 20
194.3330465958985
 30
0.0
 11
234.8895143637106
 21
192.4899116296749
 31
0.0
 12
227.8895143637106
 22
193.4114791127867
 32
0.0
 13
227.8895143637106
 23
193.4114791127867
 33
0.0
  0
SOLID
  5
2E3
330
2DE
100
AcDbEntity
  8
1
 62
     2
100
AcDbTrace
 10
259.3895143636948
 20
192.4899116296749
 30
0.0
 11
259.3895143636948
 21
194.3330465958985
 31
0.0
 12
266.3895143636948
 22
193.4114791127867
 32
0.0
 13
266.3895143636948
 23
193.4114791127867
 33
0.0
  0
MTEXT
  5
2E4
330
2DE
100
AcDbEntity
  8
1
 62
     7
100
AcDbMText
 10
241.8895143637027
 20
195.4114791127867
 30
0.0
 40
7.0
 41
0.0
 71
     7
 72
     1
  1
39
  7
CONVERTER_2
 11
0.9999999999970621
 21
2.424068405545307E-6
 31
0.0
 73
     1
 44
0.60024009603842
  0
ENDBLK
  5
2E6
330
2DE
100
AcDbEntity
  8
0
100
AcDbBlockEnd
  0
BLOCK
  5
2F0
330
2E9
100
AcDbEntity
  8
0
100
AcDbBlockBegin
  2
*D516
 70
     1
 71
     0
 10
0.0
 20
0.0
 30
0.0
  3
*D516
  1

  0
LINE
  5
2EA
330
2E9
100
AcDbEntity
  8
1
  6
Continuous
 62
     2
100
AcDbLine
 10
366.8895143636956
 20
177.4114791127867
 30
0.0
 11
266.3895143636948
 21
177.4114791127867
 31
0.0
  0
LINE
  5
2EB
330
2E9
100
AcDbEntity
  8
1
  6
Continuous
 62
     2
100
AcDbLine
 10
366.8895143636956
 20
232.8094668934983
 30
0.0
 11
366.8895143636956
 21
175.4114791127867
 31
0.0
  0
LINE
  5
2EC
330
2E9
100
AcDbEntity
  8
1
  6
Continuous
 62
     2
100
AcDbLine
 10
266.3895143636948
 20
217.7114791127867
 30
0.0
 11
266.3895143636948
 21
175.4114791127867
 31
0.0
  0
SOLID
  5
2ED
330
2E9
100
AcDbEntity
  8
1
 62
     2
100
AcDbTrace
 10
359.8895143636956
 20
176.4899116296749
 30
0.0
 11
359.8895143636956
 21
178.3330465958985
 31
0.0
 12
366.8895143636956
 22
177.4114791127867
 32
0.0
 13
366.8895143636956
 23
177.4114791127867
 33
0.0
  0
SOLID
  5
2EE
330
2E9
100
AcDbEntity
  8
1
 62
     2
100
AcDbTrace
 10
273.3895143636948
 20
178.3330465958985
 30
0.0
 11
273.3895143636948
 21
176.4899116296749
 31
0.0
 12
266.3895143636948
 22
177.4114791127867
 32
0.0
 13
266.3895143636948
 23
177.4114791127867
 33
0.0
  0
MTEXT
  5
2EF
330
2E9
100
AcDbEntity
  8
1
 62
     7
100
AcDbMText
 10
309.2895143636952
 20
179.4114791127867
 30
0.0
 40
7.0
 41
0.0
 71
     7
 72
     1
  1
100
  7
CONVERTER_2
 11
0.9999999999970621
 21
2.424068405545307E-6
 31
0.0
 73
     1
 44
0.60024009603842
  0
ENDBLK
  5
2F1
330
2E9
100
AcDbEntity
  8
0
100
AcDbBlockEnd
  0
BLOCK
  5
2FB
330
2F4
100
AcDbEntity
  8
0
100
AcDbBlockBegin
  2
*D617
 70
     1
 71
     0
 10
0.0
 20
0.0
 30
0.0
  3
*D617
  1

  0
LINE
  5
2F5
330
2F4
100
AcDbEntity
  8
1
  6
Continuous
 62
     2
100
AcDbLine
 10
191.8895143637106
 20
223.7114791127867
 30
0.0
 11
191.8895143637106
 21
241.9114791127865
 31
0.0
  0
LINE
  5
2F6
330
2F4
100
AcDbEntity
  8
1
  6
Continuous
 62
     2
100
AcDbLine
 10
191.8895143637106
 20
209.7114791127867
 30
0.0
 11
191.8895143637106
 21
223.7114791127867
 31
0.0
  0
LINE
  5
2F7
330
2F4
100
AcDbEntity
  8
1
  6
Continuous
 62
     2
100
AcDbLine
 10
266.3895143636948
 20
223.7114791127867
 30
0.0
 11
189.8895143637106
 21
223.7114791127867
 31
0.0
  0
LINE
  5
2F8
330
2F4
100
AcDbEntity
  8
1
  6
Continuous
 62
     2
100
AcDbLine
 10
221.8895143636719
 20
241.9114791127865
 30
0.0
 11
189.8895143637106
 21
241.9114791127865
 31
0.0
  0
SOLID
  5
2F9
330
2F4
100
AcDbEntity
  8
1
 62
     2
100
AcDbTrace
 10
192.8110818468224
 20
216.7114791127867
 30
0.0
 11
190.9679468805988
 21
216.7114791127867
 31
0.0
 12
191.8895143637106
 22
223.7114791127867
 32
0.0
 13
191.8895143637106
 23
223.7114791127867
 33
0.0
  0
MTEXT
  5
2FA
330
2F4
100
AcDbEntity
  8
1
 62
     7
100
AcDbMText
 10
189.8895143637106
 20
228.6114791127866
 30
0.0
 40
7.0
 41
0.0
 71
     7
 72
     1
  1
19
  7
CONVERTER_2
 11
0.0
 21
1.0
 31
0.0
 73
     1
 44
0.60024009603842
  0
ENDBLK
  5
2FC
330
2F4
100
AcDbEntity
  8
0
100
AcDbBlockEnd
  0
BLOCK
  5
2FE
330
2FD
100
AcDbEntity
  8
0
100
AcDbBlockBegin
  2
_None
 70
     0
 71
     0
 10
0.0
 20
0.0
 30
0.0
  3
_None
  1

  0
ENDBLK
  5
2FF
330
2FD
100
AcDbEntity
  8
0
100
AcDbBlockEnd
  0
BLOCK
  5
309
330
302
100
AcDbEntity
  8
0
100
AcDbBlockBegin
  2
*D719
 70
     1
 71
     0
 10
0.0
 20
0.0
 30
0.0
  3
*D719
  1

  0
LINE
  5
303
330
302
100
AcDbEntity
  8
1
  6
Continuous
 62
     2
100
AcDbLine
 10
386.8895143636718
 20
378.0286515676875
 30
0.0
 11
386.8895143636718
 21
438.0286515676875
 31
0.0
  0
LINE
  5
304
330
302
100
AcDbEntity
  8
1
  6
Continuous
 62
     2
100
AcDbLine
 10
352.8895143636718
 20
438.0286515676875
 30
0.0
 11
388.8895143636718
 21
438.0286515676875
 31
0.0
  0
LINE
  5
305
330
302
100
AcDbEntity
  8
1
  6
Continuous
 62
     2
100
AcDbLine
 10
352.8895143636718
 20
378.0286515676875
 30
0.0
 11
388.8895143636718
 21
378.0286515676875
 31
0.0
  0
SOLID
  5
306
330
302
100
AcDbEntity
  8
1
 62
     2
100
AcDbTrace
 10
385.9679468805601
 20
385.0286515676875
 30
0.0
 11
387.8110818467836
 21
385.0286515676875
 31
0.0
 12
386.8895143636718
 22
378.0286515676875
 32
0.0
 13
386.8895143636718
 23
378.0286515676875
 33
0.0
  0
SOLID
  5
307
330
302
100
AcDbEntity
  8
1
 62
     2
100
AcDbTrace
 10
387.8110818467836
 20
431.0286515676875
 30
0.0
 11
385.9679468805601
 21
431.0286515676875
 31
0.0
 12
386.8895143636718
 22
438.0286515676875
 32
0.0
 13
386.8895143636718
 23
438.0286515676875
 33
0.0
  0
MTEXT
  5
308
330
302
100
AcDbEntity
  8
1
 62
     7
100
AcDbMText
 10
384.8895143636718
 20
395.4986515676875
 30
0.0
 40
7.0
 41
0.0
 71
     7
 72
     1
  1
\C7;{\Fgdt;n}\C7;60
  7
CONVERTER_2
 11
0.0
 21
1.0
 31
0.0
 73
     1
 44
0.60024009603842
  0
ENDBLK
  5
30A
330
302
100
AcDbEntity
  8
0
100
AcDbBlockEnd
  0
BLOCK
  5
316
330
30D
100
AcDbEntity
  8
0
100
AcDbBlockBegin
  2
*D820
 70
     1
 71
     0
 10
0.0
 20
0.0
 30
0.0
  3
*D820
  1

  0
LINE
  5
30E
330
30D
100
AcDbEntity
  8
1
  6
Continuous
 62
     2
100
AcDbLine
 10
322.8895143636718
 20
448.3512961743476
 30
0.0
 11
336.8895143636718
 21
448.3512961743476
 31
0.0
  0
LINE
  5
30F
330
30D
100
AcDbEntity
  8
1
  6
Continuous
 62
     2
100
AcDbLine
 10
336.8895143636718
 20
448.3512961743476
 30
0.0
 11
352.8895143636718
 21
448.3512961743476
 31
0.0
  0
LINE
  5
310
330
30D
100
AcDbEntity
  8
1
  6
Continuous
 62
     2
100
AcDbLine
 10
352.8895143636718
 20
448.3512961743476
 30
0.0
 11
366.8895143636718
 21
448.3512961743476
 31
0.0
  0
LINE
  5
311
330
30D
100
AcDbEntity
  8
1
  6
Continuous
 62
     2
100
AcDbLine
 10
352.8895143636718
 20
438.0286515676875
 30
0.0
 11
352.8895143636718
 21
450.3512961743476
 31
0.0
  0
LINE
  5
312
330
30D
100
AcDbEntity
  8
1
  6
Continuous
 62
     2
100
AcDbLine
 10
336.8895143636718
 20
420.2328200443749
 30
0.0
 11
336.8895143636718
 21
450.3512961743476
 31
0.0
  0
SOLID
  5
313
330
30D
100
AcDbEntity
  8
1
 62
     2
100
AcDbTrace
 10
329.8895143636718
 20
447.4297286912359
 30
0.0
 11
329.8895143636718
 21
449.2728636574594
 31
0.0
 12
336.8895143636718
 22
448.3512961743476
 32
0.0
 13
336.8895143636718
 23
448.3512961743476
 33
0.0
  0
SOLID
  5
314
330
30D
100
AcDbEntity
  8
1
 62
     2
100
AcDbTrace
 10
359.8895143636718
 20
449.2728636574594
 30
0.0
 11
359.8895143636718
 21
447.4297286912359
 31
0.0
 12
352.8895143636718
 22
448.3512961743476
 32
0.0
 13
352.8895143636718
 23
448.3512961743476
 33
0.0
  0
MTEXT
  5
315
330
30D
100
AcDbEntity
  8
1
 62
     7
100
AcDbMText
 10
340.6895143636718
 20
450.3512961743476
 30
0.0
 40
7.0
 41
0.0
 71
     7
 72
     1
  1
16
  7
CONVERTER_2
 11
0.9999999999970621
 21
2.424068405545307E-6
 31
0.0
 73
     1
 44
0.60024009603842
  0
ENDBLK
  5
317
330
30D
100
AcDbEntity
  8
0
100
AcDbBlockEnd
  0
ENDSEC
  0
SECTION
  2
ENTITIES
  0
INSERT
  5
54
330
1F
100
AcDbEntity
  8
1
100
AcDbBlockReference
  2
36-45A-M11
 10
295.1915980634014
 20
754.3034471138585
 30
0.0
  0
INSERT
  5
55
330
1F
100
AcDbEntity
  8
0
100
AcDbBlockReference
  2
64-7-75
 10
140.8895143636694
 20
268.0286515676876
 30
0.0
  0
INSERT
  5
56
330
1F
100
AcDbEntity
  8
1
100
AcDbBlockReference
  2
51-1
 10
242.1637791769767
 20
1379.533767430599
 30
0.0
  0
INSERT
  5
57
330
1F
100
AcDbEntity
  8
1
100
AcDbBlockReference
  2
36-54-M11
 10
166.3895143636707
 20
279.0286515676881
 30
0.0
  0
INSERT
  5
58
330
1F
100
AcDbEntity
  8
0
100
AcDbBlockReference
  2
42-15
 10
166.3895143636707
 20
318.0286515676885
 30
0.0
  0
INSERT
  5
59
330
1F
100
AcDbEntity
  8
0
100
AcDbBlockReference
  2
37-1-13__1
 10
166.3895143636707
 20
299.0286515676875
 30
0.0
  0
INSERT
  5
5A
330
1F
100
AcDbEntity
  8
0
100
AcDbBlockReference
  2
37-1-13__2
 10
266.3895143636705
 20
374.0286515676874
 30
0.0
  0
INSERT
  5
5B
330
1F
100
AcDbEntity
  8
1
100
AcDbBlockReference
  2
_J__A4
 10
0.0
 20
0.0
 30
0.0
 41
2.0
 42
2.0
 43
2.0
  0
INSERT
  5
5C
330
1F
100
AcDbEntity
  8
1
100
AcDbBlockReference
  2
V2220R-0A-13-M1
 10
166.3895143636705
 20
268.0286515676876
 30
0.0
  0
INSERT
  5
5D
330
1F
100
AcDbEntity
  8
0
100
AcDbBlockReference
  2
78-167
 10
679.7184249091831
 20
-907.069190204263
 30
0.0
  0
LINE
  5
282
330
1F
100
AcDbEntity
  8
1
  6
DASH_CENTER
 62
     2
100
AcDbLine
 10
266.3895143636947
 20
307.7114791127876
 30
0.0
 11
266.389514363695
 21
313.7114791127876
 31
0.0
  0
LINE
  5
283
330
1F
100
AcDbEntity
  8
1
  6
DASH_CENTER
 62
     2
100
AcDbLine
 10
221.8895143636721
 20
408.0286515676875
 30
0.0
 11
372.3895143636789
 21
408.0286515676875
 31
0.0
  0
LINE
  5
284
330
1F
100
AcDbEntity
  8
1
  6
DASH_CENTER
 62
     2
100
AcDbLine
 10
266.3895143636705
 20
349.5286515676875
 30
0.0
 11
266.3895143636705
 21
448.0286515676716
 31
0.0
  0
LINE
  5
285
330
1F
100
AcDbEntity
  8
1
  6
Continuous
 62
     2
100
AcDbLine
 10
247.3895143636954
 20
307.7114791127876
 30
0.0
 11
266.3895143636947
 21
307.7114791127876
 31
0.0
  0
LINE
  5
286
330
1F
100
AcDbEntity
  8
1
  6
DASH_CENTER
 62
     2
100
AcDbLine
 10
117.6208030687402
 20
352.5286515676877
 30
0.0
 11
117.6208030687402
 21
445.0286515676716
 31
0.0
  0
LINE
  5
287
330
1F
100
AcDbEntity
  8
1
  6
DASH_CENTER
 62
     2
100
AcDbLine
 10
185.6208030687402
 20
408.0286515676875
 30
0.0
 11
96.42080306874013
 21
408.0286515676875
 31
0.0
  0
LINE
  5
288
330
1F
100
AcDbEntity
  8
1
  6
DASH_CENTER
 62
     2
100
AcDbLine
 10
266.3895143636948
 20
223.7114791127867
 30
0.0
 11
266.3895143636947
 21
307.7114791127876
 31
0.0
  0
LINE
  5
289
330
1F
100
AcDbEntity
  8
1
  6
DASH_CENTER
 62
     2
100
AcDbLine
 10
372.3895143636789
 20
241.9114791127865
 30
0.0
 11
221.8895143636719
 21
241.9114791127865
 31
0.0
  0
LINE
  5
28A
330
1F
100
AcDbEntity
  8
1
  6
DASH_CENTER
 62
     2
100
AcDbLine
 10
266.3895143636948
 20
217.7114791127867
 30
0.0
 11
266.3895143636948
 21
223.7114791127867
 31
0.0
  0
SPLINE
  5
28B
330
1F
100
AcDbEntity
  8
1
  6
Continuous
 62
     7
100
AcDbSpline
210
0.0
220
0.0
230
1.0
 70
    11
 71
     3
 72
    79
 73
    75
 74
    73
 42
0.0000000001
 43
0.0000000001
 44
0.00000001
 40
0.0
 40
0.0
 40
0.0
 40
0.0
 40
0.2412068094786019
 40
0.481133835263711
 40
0.7660127539723641
 40
1.049767124189491
 40
1.391007393036399
 40
1.731748941522721
 40
2.13211080603309
 40
2.53221393080048
 40
2.98734794310014
 40
3.442348250959486
 40
3.943621096800896
 40
4.444820886941155
 40
4.980807704427465
 40
5.51675570492748
 40
6.074243774234517
 40
6.631714842664245
 40
7.19647508962248
 40
7.761235336580671
 40
8.318706405010241
 40
8.876194474317309
 40
9.412142474817429
 40
9.948129292303683
 40
10.44932908244389
 40
10.95060192828539
 40
11.40560223614471
 40
11.86073624844441
 40
12.26083937321175
 40
12.66120123772201
 40
13.00194278620824
 40
13.34318305505535
 40
13.62693742527261
 40
13.91181634398132
 40
14.15174336976629
 40
14.3929501792448
 40
14.61620350139434
 40
14.83945682354384
 40
15.08066363302245
 40
15.32059065880752
 40
15.60546957751624
 40
15.88922394773331
 40
16.2304642165803
 40
16.57120576506645
 40
16.97156762957671
 40
17.37167075434421
 40
17.82680476664391
 40
18.28180507450333
 40
18.78307792034488
 40
19.28427771048515
 40
19.82026452797132
 40
20.35621252847125
 40
20.91370059777808
 40
21.47117166620788
 40
22.03593191316626
 40
22.60069216012446
 40
23.15816322855413
 40
23.71565129786099
 40
24.25159929836089
 40
24.78758611584714
 40
25.28878590598751
 40
25.7900587518291
 40
26.24505905968861
 40
26.70019307198828
 40
27.10029619675567
 40
27.500658061266
 40
27.84139960975213
 40
28.18263987859907
 40
28.4663942488162
 40
28.75127316752484
 40
28.99120019330982
 40
29.23240700278821
 40
29.4556603249377
 40
29.67891364708721
 40
29.67891364708721
 40
29.67891364708721
 40
29.67891364708721
 10
262.3180925033977
 20
415.5238521775696
 30
0.0
 10
262.3735666583358
 20
415.5824989214916
 30
0.0
 10
262.4842206360617
 20
415.6994812442127
 30
0.0
 10
262.6061932906407
 20
415.9264606987005
 30
0.0
 10
262.6977423118424
 20
416.180559405734
 30
0.0
 10
262.7615329375889
 20
416.4779000499132
 30
0.0
 10
262.7935002907501
 20
416.7987690428367
 30
0.0
 10
262.7978871961362
 20
417.1598869138938
 30
0.0
 10
262.7723013906134
 20
417.5397921898243
 30
0.0
 10
262.7177953620407
 20
417.9549858637832
 30
0.0
 10
262.6353887041947
 20
418.3841312932048
 30
0.0
 10
262.5238784936577
 20
418.8413608942838
 30
0.0
 10
262.3866396264627
 20
419.3075767193757
 30
0.0
 10
262.2216301554634
 20
419.7932606296723
 30
0.0
 10
262.0332423471778
 20
420.2827734877745
 30
0.0
 10
261.8198397167158
 20
420.7823565192275
 30
0.0
 10
261.5856493275033
 20
421.2804658755674
 30
0.0
 10
261.3304282211394
 20
421.77893808274
 30
0.0
 10
261.0572598813835
 20
422.2705810826339
 30
0.0
 10
260.7680687237478
 20
422.7529733043501
 30
0.0
 10
260.4639896824667
 20
423.2232373695331
 30
0.0
 10
260.1497095205192
 20
423.6751068744326
 30
0.0
 10
259.8237592395726
 20
424.1097104881196
 30
0.0
 10
259.4940225718153
 20
424.5176155494498
 30
0.0
 10
259.1559127073556
 20
424.9033598824529
 30
0.0
 10
258.8207773764918
 20
425.2553201970562
 30
0.0
 10
258.4805600873089
 20
425.5805054797303
 30
0.0
 10
258.1501123779565
 20
425.8664451304406
 30
0.0
 10
257.8177977658683
 20
426.1212433357451
 30
0.0
 10
257.5015808318156
 20
426.3333616467138
 30
0.0
 10
257.1866572426158
 20
426.5100966525919
 30
0.0
 10
256.8927686701765
 20
426.6429308233365
 30
0.0
 10
256.603444897385
 20
426.7360920140303
 30
0.0
 10
256.3373555061111
 20
426.7847588229507
 30
0.0
 10
256.0806241379319
 20
426.7897460359285
 30
0.0
 10
255.8484030071824
 20
426.7451852827483
 30
0.0
 10
255.6345993278322
 20
426.6567108408448
 30
0.0
 10
255.4510763738829
 20
426.5157886440564
 30
0.0
 10
255.2963750642423
 20
426.3369596221223
 30
0.0
 10
255.1723284332858
 20
426.1121301288413
 30
0.0
 10
255.081430430495
 20
425.8573565518606
 30
0.0
 10
255.0174485018868
 20
425.5602142193575
 30
0.0
 10
254.9855419820224
 20
425.2392821643711
 30
0.0
 10
254.9811371922513
 20
424.8781828329342
 30
0.0
 10
255.0067285711321
 20
424.4982717794532
 30
0.0
 10
255.06123298372
 20
424.0830797806837
 30
0.0
 10
255.1436401305082
 20
423.653933844407
 30
0.0
 10
255.2551502016494
 20
423.1967043878306
 30
0.0
 10
255.3923891097879
 20
422.7304885202955
 30
0.0
 10
255.5573985693048
 20
422.2448046219016
 30
0.0
 10
255.7457863808705
 20
421.7552917603995
 30
0.0
 10
255.9591890104265
 20
421.2557087298858
 30
0.0
 10
256.1933793998912
 20
420.7575993732844
 30
0.0
 10
256.4486005061863
 20
420.2591271661834
 30
0.0
 10
256.7217688459608
 20
419.7674841662691
 30
0.0
 10
257.0109600035905
 20
419.2850919445597
 30
0.0
 10
257.3150390448777
 20
418.8148278793705
 30
0.0
 10
257.6293192068074
 20
418.3629583744894
 30
0.0
 10
257.9552694878166
 20
417.9283547607377
 30
0.0
 10
258.2850061553476
 20
417.5204496996423
 30
0.0
 10
258.6231160205998
 20
417.1347053658175
 30
0.0
 10
258.9582513486379
 20
416.7827450541436
 30
0.0
 10
259.2984686474414
 20
416.457559761496
 30
0.0
 10
259.6289163230486
 20
416.1716201457675
 30
0.0
 10
259.9612310466677
 20
415.9168218248461
 30
0.0
 10
260.2774475960624
 20
415.7047039126279
 30
0.0
 10
260.5923724195934
 20
415.5279676271962
 30
0.0
 10
260.8862567934852
 20
415.3951378088222
 30
0.0
 10
261.1755937694752
 20
415.3019629312006
 30
0.0
 10
261.4416382292445
 20
415.2533426999526
 30
0.0
 10
261.6985127375831
 20
415.2482071025507
 30
0.0
 10
261.9302301959352
 20
415.2932899813093
 30
0.0
 10
262.1457840552822
 20
415.3799501214016
 30
0.0
 10
262.2606563540258
 20
415.4758848255136
 30
0.0
 10
262.3180925033977
 20
415.5238521775696
 30
0.0
 11
262.3180925033977
 21
415.5238521775696
 31
0.0
 11
262.475958942669
 21
415.7062224390999
 31
0.0
 11
262.5939892792558
 21
415.9151095314423
 31
0.0
 11
262.6917161593716
 21
416.1827014880245
 31
0.0
 11
262.7527350156789
 21
416.4598174236764
 31
0.0
 11
262.7885569355281
 21
416.7991722691421
 31
0.0
 11
262.7934981412093
 21
417.1398779887173
 31
0.0
 11
262.7680923499295
 21
417.5394329515493
 31
0.0
 11
262.7165372638254
 21
417.9362006210304
 31
0.0
 11
262.6317132052466
 21
418.3833603779833
 31
0.0
 11
262.5242532150199
 21
418.8254889007599
 31
0.0
 11
262.3833506508844
 21
419.3065511975552
 31
0.0
 11
262.2223346138416
 21
419.7811827024636
 31
0.0
 11
262.0302320197354
 21
420.2815610211953
 31
0.0
 11
261.8198007281766
 21
420.7744696646303
 31
0.0
 11
261.5828351470689
 21
421.27908859094
 31
0.0
 11
261.3287710445131
 21
421.7752996588624
 31
0.0
 11
261.0545778731314
 21
422.2690326244541
 31
0.0
 11
260.764089167934
 21
422.7533573592107
 31
0.0
 11
260.4613898287521
 21
423.2214888601747
 31
0.0
 11
260.1428598098913
 21
423.6790165363914
 31
0.0
 11
259.8212040487111
 21
424.1077097023501
 31
0.0
 11
259.4839150102396
 21
424.5242645883448
 31
0.0
 11
259.1533800880738
 21
424.9010243192946
 31
0.0
 11
258.8072192003139
 21
425.2635806676921
 31
0.0
 11
258.4780546629651
 21
425.5777080105071
 31
0.0
 11
258.1332149831832
 21
425.874747678565
 31
0.0
 11
257.8153816450644
 21
426.117779527566
 31
0.0
 11
257.4820597926836
 21
426.3395590696333
 31
0.0
 11
257.1845293814762
 21
426.5056327197755
 31
0.0
 11
256.8727285044807
 21
426.6442874499065
 31
0.0
 11
256.6022296362589
 21
426.7300015380606
 31
0.0
 11
256.3216247639525
 21
426.779163555539
 31
0.0
 11
256.0817080671679
 21
426.781389831809
 31
0.0
 11
255.8448375681523
 21
426.7358586157602
 31
0.0
 11
255.63951436367
 21
426.6481977490527
 31
0.0
 11
255.4609362239424
 21
426.5142130713383
 31
0.0
 11
255.3030697846711
 21
426.3318428098079
 31
0.0
 11
255.1850394480846
 21
426.1229557174654
 31
0.0
 11
255.0873125679689
 21
425.8553637608831
 31
0.0
 11
255.0262937116617
 21
425.5782478252312
 31
0.0
 11
254.9904717918122
 21
425.2388929797655
 31
0.0
 11
254.9855305861311
 21
424.8981872601904
 31
0.0
 11
255.0109363774109
 21
424.4986322973585
 31
0.0
 11
255.062491463515
 21
424.1018646278774
 31
0.0
 11
255.1473155220937
 21
423.6547048709244
 31
0.0
 11
255.2547755123204
 21
423.2125763481478
 31
0.0
 11
255.3956780764561
 21
422.7315140513524
 31
0.0
 11
255.5566941134989
 21
422.2568825464439
 31
0.0
 11
255.7487967076052
 21
421.7565042277124
 31
0.0
 11
255.9592279991639
 21
421.2635955842775
 31
0.0
 11
256.1961935802716
 21
420.758976657968
 31
0.0
 11
256.4502576828272
 21
420.2627655900454
 31
0.0
 11
256.7244508542088
 21
419.7690326244535
 31
0.0
 11
257.0149395594063
 21
419.284707889697
 31
0.0
 11
257.3176388985884
 21
418.8165763887329
 31
0.0
 11
257.636168917449
 21
418.3590487125164
 31
0.0
 11
257.9578246786292
 21
417.930355546558
 31
0.0
 11
258.2951137171007
 21
417.5138006605633
 31
0.0
 11
258.6256486392666
 21
417.1370409296133
 31
0.0
 11
258.9718095270266
 21
416.7744845812158
 31
0.0
 11
259.3009740643755
 21
416.4603572384006
 31
0.0
 11
259.6458137441574
 21
416.1633175703428
 31
0.0
 11
259.9636470822763
 21
415.9202857213418
 31
0.0
 11
260.2969689346571
 21
415.6985061792744
 31
0.0
 11
260.5944993458644
 21
415.5324325291322
 31
0.0
 11
260.9063002228597
 21
415.3937777990012
 31
0.0
 11
261.1767990910814
 21
415.3080637108472
 31
0.0
 11
261.4574039633878
 21
415.2589016933689
 31
0.0
 11
261.6973206601723
 21
415.2566754170989
 31
0.0
 11
261.9341911591878
 21
415.3022066331477
 31
0.0
 11
262.1395143636701
 21
415.3898674998551
 31
0.0
 11
262.3180925033977
 21
415.5238521775696
 31
0.0
  0
SPLINE
  5
28C
330
1F
100
AcDbEntity
  8
1
  6
Continuous
 62
     7
100
AcDbSpline
210
0.0
220
0.0
230
1.0
 70
     8
 71
     3
 72
    77
 73
    73
 74
    71
 42
0.0000000001
 43
0.0000000001
 44
0.00000001
 40
0.0
 40
0.0
 40
0.0
 40
0.0
 40
0.0309699076054633
 40
0.0619417636773419
 40
0.5978897641772563
 40
1.133876581663396
 40
1.635076371803659
 40
2.136349217645139
 40
2.591349525504617
 40
3.046483537804289
 40
3.446586662571733
 40
3.846948527082156
 40
4.187690075568466
 40
4.528930344415478
 40
4.81268471463263
 40
5.097563633341166
 40
5.33749065912619
 40
5.578697468604728
 40
5.801950790754219
 40
6.025204112903654
 40
6.266410922382103
 40
6.506337948167048
 40
6.791216866875678
 40
7.07497123709283
 40
7.416211505939813
 40
7.756953054426216
 40
8.157314918936638
 40
8.557418043704018
 40
9.012552056003617
 40
9.467552363862986
 40
9.968825209704381
 40
10.47002499984471
 40
11.00601181733102
 40
11.54195981783099
 40
12.09944788713789
 40
12.65691895556755
 40
13.22167920252583
 40
13.78643944948394
 40
14.34391051791366
 40
14.90139858722062
 40
15.43734658772068
 40
15.97333340520702
 40
16.47453319534723
 40
16.97580604118875
 40
17.43080634904814
 40
17.88594036134781
 40
18.28604348611528
 40
18.68640535062564
 40
19.02714689911193
 40
19.36838716795887
 40
19.65214153817599
 40
19.93702045688452
 40
20.17694748266965
 40
20.41815429214818
 40
20.64140761429778
 40
20.86466093644728
 40
21.10586774592568
 40
21.34579477171058
 40
21.63067369041927
 40
21.91442806063638
 40
22.25566832948336
 40
22.5964098779696
 40
22.99677174247984
 40
23.39687486724717
 40
23.85200887954689
 40
24.30700918740646
 40
24.80828203324809
 40
25.30948182338842
 40
25.84546864087465
 40
26.38141664137453
 40
26.41238849743459
 40
26.44335840505128
 40
26.44335840505128
 40
26.44335840505128
 40
26.44335840505128
 10
252.3110053634477
 20
409.6439586844851
 30
0.0
 10
252.3099909681318
 20
409.6542320337805
 30
0.0
 10
252.3079621136793
 20
409.6747793787171
 30
0.0
 10
252.2879207183146
 20
409.8730655603153
 30
0.0
 10
252.2437881117696
 20
410.2381335911195
 30
0.0
 10
252.1622381320632
 20
410.7562594233943
 30
0.0
 10
252.0622840415757
 20
411.2593784074953
 30
0.0
 10
251.9480322207252
 20
411.7317527338252
 30
0.0
 10
251.8159871360716
 20
412.1834800728386
 30
0.0
 10
251.6727810807338
 20
412.5963349343663
 30
0.0
 10
251.5123872328205
 20
412.983153957769
 30
0.0
 10
251.3445945038405
 20
413.3249622710188
 30
0.0
 10
251.1602301751818
 20
413.6354810703747
 30
0.0
 10
250.9721322916984
 20
413.8974631229675
 30
0.0
 10
250.7681511497195
 20
414.1228049671469
 30
0.0
 10
250.5620443817001
 20
414.2979963556306
 30
0.0
 10
250.3422021013881
 20
414.430681092853
 30
0.0
 10
250.1188123262756
 20
414.5082009139617
 30
0.0
 10
249.8894156875835
 20
414.5384816393631
 30
0.0
 10
249.6600190488923
 20
414.508200913962
 30
0.0
 10
249.4366292737774
 20
414.4306810928529
 30
0.0
 10
249.2167869934749
 20
414.2979963556304
 30
0.0
 10
249.0106802254141
 20
414.1228049671474
 30
0.0
 10
248.806699083605
 20
413.8974631229643
 30
0.0
 10
248.618601199363
 20
413.6354810703892
 30
0.0
 10
248.434236873804
 20
413.3249622709608
 30
0.0
 10
248.2664441312919
 20
412.9831539580276
 30
0.0
 10
248.106050337827
 20
412.5963349333511
 30
0.0
 10
247.9628440522605
 20
412.1834800772105
 30
0.0
 10
247.8307998783587
 20
411.7317527168863
 30
0.0
 10
247.7165443254265
 20
411.2593784778842
 30
0.0
 10
247.6166047600358
 20
410.7562591539077
 30
0.0
 10
247.5349969598638
 20
410.238134674585
 30
0.0
 10
247.4700175430368
 20
409.698781764082
 30
0.0
 10
247.4237776913348
 20
409.1503112126703
 30
0.0
 10
247.3955695494178
 20
408.5910110650926
 30
0.0
 10
247.3863187712151
 20
408.0286515676875
 30
0.0
 10
247.3955695494178
 20
407.4662920702824
 30
0.0
 10
247.4237776913348
 20
406.9069919227047
 30
0.0
 10
247.4700175430368
 20
406.3585213712929
 30
0.0
 10
247.5349969598636
 20
405.8191684607901
 30
0.0
 10
247.6166047600355
 20
405.3010439814673
 30
0.0
 10
247.7165443254262
 20
404.7979246574906
 30
0.0
 10
247.8307998783581
 20
404.3255504184886
 30
0.0
 10
247.9628440522601
 20
403.8738230581643
 30
0.0
 10
248.1060503378266
 20
403.4609682020237
 30
0.0
 10
248.2664441312916
 20
403.0741491773471
 30
0.0
 10
248.4342368738037
 20
402.7323408644141
 30
0.0
 10
248.6186011993625
 20
402.4218220649856
 30
0.0
 10
248.8066990836044
 20
402.1598400124104
 30
0.0
 10
249.0106802254137
 20
401.9344981682274
 30
0.0
 10
249.2167869934743
 20
401.7593067797441
 30
0.0
 10
249.436629273777
 20
401.626622042522
 30
0.0
 10
249.6600190488919
 20
401.549102221413
 30
0.0
 10
249.8894156875832
 20
401.5188214960118
 30
0.0
 10
250.1188123262755
 20
401.5491022214129
 30
0.0
 10
250.3422021013878
 20
401.6266220425216
 30
0.0
 10
250.5620443816997
 20
401.7593067797438
 30
0.0
 10
250.7681511497189
 20
401.9344981682281
 30
0.0
 10
250.972132291698
 20
402.1598400124072
 30
0.0
 10
251.1602301751815
 20
402.421822065
 30
0.0
 10
251.3445945038402
 20
402.7323408643557
 30
0.0
 10
251.51238723282
 20
403.0741491776057
 30
0.0
 10
251.6727810807335
 20
403.4609682010079
 30
0.0
 10
251.8159871360711
 20
403.8738230625358
 30
0.0
 10
251.948032220725
 20
404.3255504015493
 30
0.0
 10
252.0622840415755
 20
404.7979247278793
 30
0.0
 10
252.1622381320631
 20
405.3010437119804
 30
0.0
 10
252.2437881117696
 20
405.819169544255
 30
0.0
 10
252.2879207183132
 20
406.1842375750557
 30
0.0
 10
252.3079621136785
 20
406.3825237566534
 30
0.0
 10
252.3099909681311
 20
406.40307110159
 30
0.0
 10
252.3110053634475
 20
406.413344450889
 30
0.0
 11
252.3110053634477
 21
409.6439586844851
 31
0.0
 11
252.3079503165004
 21
409.6747775401621
 31
0.0
 11
252.3048366396975
 21
409.7055924859726
 31
0.0
 11
252.240621162221
 21
410.2376795387115
 31
0.0
 11
252.156797729484
 21
410.767071171289
 31
0.0
 11
252.0589259555254
 21
411.2586221304975
 31
0.0
 11
251.9404200071276
 21
411.745685582393
 31
0.0
 11
251.8124188271662
 21
412.1823101099687
 31
0.0
 11
251.662298738271
 21
412.6119738483295
 31
0.0
 11
251.508562917791
 21
412.9813622725525
 31
0.0
 11
251.3307874970264
 21
413.3400899162131
 31
0.0
 11
251.1561554275936
 21
413.6326791217393
 31
0.0
 11
250.9554553122589
 21
413.9086580788853
 31
0.0
 11
250.7640534647609
 21
414.1181380907998
 31
0.0
 11
250.545623525657
 21
414.3010160829903
 31
0.0
 11
250.3389627095845
 21
414.4229024431882
 31
0.0
 11
250.1110612320055
 21
414.5019065029326
 31
0.0
 11
249.8894156875836
 21
414.5286515676874
 31
0.0
 11
249.6677701431619
 21
414.5019065029326
 31
0.0
 11
249.4398686655829
 21
414.4229024431881
 31
0.0
 11
249.2332078495105
 21
414.3010160829903
 31
0.0
 11
249.0147779104066
 21
414.1181380907997
 31
0.0
 11
248.8233760629086
 21
413.9086580788852
 31
0.0
 11
248.6226759475738
 21
413.6326791217392
 31
0.0
 11
248.4480438781409
 21
413.340089916213
 31
0.0
 11
248.2702684573762
 21
412.9813622725525
 31
0.0
 11
248.1165326368962
 21
412.6119738483295
 31
0.0
 11
247.9664125480011
 21
412.1823101099688
 31
0.0
 11
247.8384113680397
 21
411.7456855823932
 31
0.0
 11
247.7199054196418
 21
411.2586221304978
 31
0.0
 11
247.6220336456832
 21
410.7670711712892
 31
0.0
 11
247.5382102129461
 21
410.2376795387115
 31
0.0
 11
247.4739947354697
 21
409.7055924859726
 31
0.0
 11
247.4269034853768
 21
409.1500968860042
 31
0.0
 11
247.3988239184184
 21
408.5933334442666
 31
0.0
 11
247.3894156875833
 21
408.0286515676875
 31
0.0
 11
247.3988239184184
 21
407.4639696911085
 31
0.0
 11
247.4269034853768
 21
406.9072062493708
 31
0.0
 11
247.4739947354697
 21
406.3517106494024
 31
0.0
 11
247.538210212946
 21
405.8196235966634
 31
0.0
 11
247.6220336456829
 21
405.2902319640856
 31
0.0
 11
247.7199054196415
 21
404.7986810048771
 31
0.0
 11
247.8384113680392
 21
404.3116175529816
 31
0.0
 11
247.9664125480007
 21
403.874993025406
 31
0.0
 11
248.1165326368958
 21
403.4453292870452
 31
0.0
 11
248.2702684573759
 21
403.0759408628222
 31
0.0
 11
248.4480438781406
 21
402.7172132191618
 31
0.0
 11
248.6226759475734
 21
402.4246240136355
 31
0.0
 11
248.823376062908
 21
402.1486450564896
 31
0.0
 11
249.0147779104061
 21
401.9391650445751
 31
0.0
 11
249.2332078495099
 21
401.7562870523846
 31
0.0
 11
249.4398686655825
 21
401.6344006921867
 31
0.0
 11
249.6677701431615
 21
401.5553966324422
 31
0.0
 11
249.8894156875834
 21
401.5286515676874
 31
0.0
 11
250.1110612320053
 21
401.5553966324421
 31
0.0
 11
250.3389627095842
 21
401.6344006921864
 31
0.0
 11
250.5456235256566
 21
401.7562870523843
 31
0.0
 11
250.7640534647605
 21
401.9391650445751
 31
0.0
 11
250.9554553122584
 21
402.1486450564895
 31
0.0
 11
251.1561554275933
 21
402.4246240136354
 31
0.0
 11
251.3307874970261
 21
402.7172132191615
 31
0.0
 11
251.5085629177906
 21
403.0759408628219
 31
0.0
 11
251.6622987382706
 21
403.4453292870448
 31
0.0
 11
251.8124188271658
 21
403.8749930254056
 31
0.0
 11
251.9404200071273
 21
404.3116175529814
 31
0.0
 11
252.0589259555253
 21
404.798681004877
 31
0.0
 11
252.1567977294839
 21
405.2902319640856
 31
0.0
 11
252.2406211622208
 21
405.8196235966632
 31
0.0
 11
252.304836639697
 21
406.3517106494021
 31
0.0
 11
252.3079503164988
 21
406.3825255952008
 31
0.0
 11
252.3110053634475
 21
406.413344450889
 31
0.0
  0
SPLINE
  5
28D
330
1F
100
AcDbEntity
  8
1
  6
DASHED
 62
     7
100
AcDbSpline
210
0.0
220
0.0
230
1.0
 70
     8
 71
     3
 72
    13
 73
     9
 74
     7
 42
0.0000000001
 43
0.0000000001
 44
0.00000001
 40
0.0
 40
0.0
 40
0.0
 40
0.0
 40
0.5265044064789206
 40
1.05302590797246
 40
1.617786154930681
 40
2.182546401888903
 40
2.709067903405404
 40
3.235572309907418
 40
3.235572309907418
 40
3.235572309907418
 40
3.235572309907418
 10
252.3110053634502
 20
409.6439586844604
 30
0.0
 10
252.3265314883135
 20
409.4691295441413
 30
0.0
 10
252.3575842421562
 20
409.1194655869947
 30
0.0
 10
252.3831801498648
 20
408.5806732270725
 30
0.0
 10
252.39264270373
 20
408.0286515676872
 30
0.0
 10
252.3831801498647
 20
407.4766299082942
 30
0.0
 10
252.3575842421547
 20
406.9378375483566
 30
0.0
 10
252.3265314883098
 20
406.5881735911949
 30
0.0
 10
252.3110053634453
 20
406.4133444508681
 30
0.0
 11
252.3110053634502
 21
409.6439586844604
 31
0.0
 11
252.3539857956854
 21
409.1192115334566
 31
0.0
 11
252.3800074567487
 21
408.5933334442663
 31
0.0
 11
252.3894156875839
 21
408.0286515676872
 31
0.0
 11
252.3800074567487
 21
407.4639696911081
 31
0.0
 11
252.3539857956837
 21
406.9380916018948
 31
0.0
 11
252.3110053634453
 21
406.4133444508681
 31
0.0
  0
SPLINE
  5
28E
330
1F
100
AcDbEntity
  8
1
  6
Continuous
 62
     7
100
AcDbSpline
210
0.0
220
0.0
230
1.0
 70
    11
 71
     3
 72
    79
 73
    75
 74
    73
 42
0.0000000001
 43
0.0000000001
 44
0.00000001
 40
0.0
 40
0.0
 40
0.0
 40
0.0
 40
0.2412068094784487
 40
0.4811338352635459
 40
0.7660127539721107
 40
1.049767124189244
 40
1.391007393036289
 40
1.731748941522536
 40
2.132110806032908
 40
2.532213930800363
 40
2.987347943099962
 40
3.442348250959277
 40
3.943621096800659
 40
4.444820886940877
 40
4.980807704427191
 40
5.516755704927281
 40
6.074243774234239
 40
6.631714842664017
 40
7.196475089622238
 40
7.761235336580401
 40
8.318706405010072
 40
8.876194474317138
 40
9.412142474817166
 40
9.948129292303452
 40
10.44932908244369
 40
10.95060192828517
 40
11.40560223614449
 40
11.86073624844407
 40
12.26083937321144
 40
12.66120123772194
 40
13.00194278620834
 40
13.34318305505526
 40
13.62693742527235
 40
13.91181634398096
 40
14.15174336976599
 40
14.3929501792445
 40
14.61620350139407
 40
14.83945682354351
 40
15.08066363302194
 40
15.32059065880694
 40
15.60546957751551
 40
15.88922394773272
 40
16.23046421657962
 40
16.5712057650659
 40
16.97156762957614
 40
17.37167075434352
 40
17.8268047666433
 40
18.28180507450276
 40
18.78307792034438
 40
19.2842777104847
 40
19.82026452797093
 40
20.35621252847084
 40
20.91370059777786
 40
21.47117166620753
 40
22.03593191316581
 40
22.60069216012408
 40
23.15816322855387
 40
23.71565129786082
 40
24.25159929836076
 40
24.78758611584689
 40
25.288785905987
 40
25.79005875182856
 40
26.24505905968798
 40
26.70019307198766
 40
27.10029619675512
 40
27.50065806126549
 40
27.84139960975179
 40
28.18263987859883
 40
28.466394248816
 40
28.75127316752457
 40
28.99120019330952
 40
29.23240700278811
 40
29.45566032493768
 40
29.67891364708713
 40
29.67891364708713
 40
29.67891364708713
 40
29.67891364708713
 10
272.8628272689293
 20
363.3070060232658
 30
0.0
 10
272.8397747763125
 20
363.229640623875
 30
0.0
 10
272.7937921019052
 20
363.0753203067741
 30
0.0
 10
272.6582084554713
 20
362.8561991620981
 30
0.0
 10
272.4839270307122
 20
362.6498660305287
 30
0.0
 10
272.2583177921487
 20
362.4459514060196
 30
0.0
 10
271.9964207695711
 20
362.2578323696283
 30
0.0
 10
271.6858769721677
 20
362.0734742625913
 30
0.0
 10
271.3440764494192
 20
361.9056795821851
 30
0.0
 10
270.9572551659933
 20
361.7452863506087
 30
0.0
 10
270.5444009932737
 20
361.602079895034
 30
0.0
 10
270.0926734381084
 20
361.4700357696009
 30
0.0
 10
269.6202992563351
 20
361.3557802024325
 30
0.0
 10
269.1171799163091
 20
361.2558406410342
 30
0.0
 10
268.5990554415708
 20
361.1742328397218
 30
0.0
 10
268.0597025298018
 20
361.1092534232096
 30
0.0
 10
267.5112319787424
 20
361.0630135714199
 30
0.0
 10
266.9519318310686
 20
361.0348054295268
 30
0.0
 10
266.3895723336897
 20
361.0255546513178
 30
0.0
 10
265.8272128362776
 20
361.034805429522
 30
0.0
 10
265.2679126887017
 20
361.0630135714387
 30
0.0
 10
264.7194421372894
 20
361.1092534231408
 30
0.0
 10
264.1800892267867
 20
361.1742328399679
 30
0.0
 10
263.6619647474638
 20
361.2558406401396
 30
0.0
 10
263.1588454234873
 20
361.3557802055302
 30
0.0
 10
262.6864711844852
 20
361.4700357584623
 30
0.0
 10
262.234743824161
 20
361.6020799323641
 30
0.0
 10
261.8218889680205
 20
361.7452862179307
 30
0.0
 10
261.4350699433441
 20
361.9056800113957
 30
0.0
 10
261.0932616304107
 20
362.0734727539078
 30
0.0
 10
260.7827428309822
 20
362.2578370794664
 30
0.0
 10
260.5207607784071
 20
362.4459349637085
 30
0.0
 10
260.295418934224
 20
362.6499161055177
 30
0.0
 10
260.1202275457409
 20
362.8560228735782
 30
0.0
 10
259.9875428085184
 20
363.0758651538808
 30
0.0
 10
259.9100229874097
 20
363.2992549289958
 30
0.0
 10
259.8797422620086
 20
363.5286515676872
 30
0.0
 10
259.9100229874095
 20
363.7580482063789
 30
0.0
 10
259.9875428085184
 20
363.9814379814936
 30
0.0
 10
260.1202275457409
 20
364.2012802617962
 30
0.0
 10
260.2954189342239
 20
364.4073870298568
 30
0.0
 10
260.5207607784071
 20
364.611368171666
 30
0.0
 10
260.7827428309821
 20
364.7994660559082
 30
0.0
 10
261.0932616304102
 20
364.9838303814669
 30
0.0
 10
261.4350699433437
 20
365.151623123979
 30
0.0
 10
261.82188896802
 20
365.3120169174438
 30
0.0
 10
262.2347438241607
 20
365.4552232030102
 30
0.0
 10
262.686471184485
 20
365.5872673769125
 30
0.0
 10
263.1588454234873
 20
365.7015229298444
 30
0.0
 10
263.6619647474639
 20
365.8014624952353
 30
0.0
 10
264.1800892267866
 20
365.883070295407
 30
0.0
 10
264.7194421372893
 20
365.948049712234
 30
0.0
 10
265.2679126887011
 20
365.9942895639361
 30
0.0
 10
265.8272128362788
 20
366.0224977058532
 30
0.0
 10
266.3895723336843
 20
366.0317484840555
 30
0.0
 10
266.9519318310877
 20
366.0224977058537
 30
0.0
 10
267.5112319786721
 20
365.9942895639348
 30
0.0
 10
268.0597025300597
 20
365.9480497122389
 30
0.0
 10
268.5990554406496
 20
365.8830702953904
 30
0.0
 10
269.117179919656
 20
365.8014624952973
 30
0.0
 10
269.6202992447401
 20
365.7015229296308
 30
0.0
 10
270.0926734797926
 20
365.5872673776813
 30
0.0
 10
270.5444008535642
 20
365.4552232004343
 30
0.0
 10
270.9572556625369
 20
365.3120169266011
 30
0.0
 10
271.3440748431062
 20
365.1516230943565
 30
0.0
 10
271.6858826183823
 20
364.9838304855925
 30
0.0
 10
271.9964031431023
 20
364.7994657308485
 30
0.0
 10
272.2583793271404
 20
364.6113693064697
 30
0.0
 10
272.4837396261499
 20
364.4073835738187
 30
0.0
 10
272.6588682114335
 20
364.2012924287467
 30
0.0
 10
272.7917530234162
 20
363.9814003776414
 30
0.0
 10
272.8685688343117
 20
363.758185732829
 30
0.0
 10
272.9012958811698
 20
363.5281805447046
 30
0.0
 10
272.8756501396762
 20
363.3807308637454
 30
0.0
 10
272.8628272689293
 20
363.3070060232658
 30
0.0
 11
272.8628272689293
 21
363.3070060232658
 31
0.0
 11
272.7838232091849
 21
363.0791045456869
 31
0.0
 11
272.661936848987
 21
362.8724437296143
 31
0.0
 11
272.4790588567964
 21
362.6540137905104
 31
0.0
 11
272.2695788448819
 21
362.4626119430125
 31
0.0
 11
271.9935998877359
 21
362.2619118276777
 31
0.0
 11
271.7010106822097
 21
362.0872797582449
 31
0.0
 11
271.3422830385492
 21
361.9095043374803
 31
0.0
 11
270.9728946143262
 21
361.7557685170003
 31
0.0
 11
270.5432308759655
 21
361.6056484281052
 31
0.0
 11
270.10660634839
 21
361.4776472481437
 31
0.0
 11
269.6195428964946
 21
361.3591412997459
 31
0.0
 11
269.1279919372861
 21
361.2612695257873
 31
0.0
 11
268.5986003047084
 21
361.1774460930502
 31
0.0
 11
268.0665132519694
 21
361.1132306155737
 31
0.0
 11
267.5110176520009
 21
361.0661393654807
 31
0.0
 11
266.9542542102632
 21
361.0380597985224
 31
0.0
 11
266.3895723336841
 21
361.0286515676872
 31
0.0
 11
265.8248904571051
 21
361.0380597985223
 31
0.0
 11
265.2681270153674
 21
361.0661393654808
 31
0.0
 11
264.7126314153989
 21
361.1132306155737
 31
0.0
 11
264.1805443626599
 21
361.1774460930502
 31
0.0
 11
263.6511527300822
 21
361.261269525787
 31
0.0
 11
263.1596017708737
 21
361.3591412997455
 31
0.0
 11
262.6725383189782
 21
361.4776472481433
 31
0.0
 11
262.2359137914027
 21
361.6056484281047
 31
0.0
 11
261.8062500530421
 21
361.7557685169999
 31
0.0
 11
261.4368616288191
 21
361.90950433748
 31
0.0
 11
261.0781339851584
 21
362.0872797582446
 31
0.0
 11
260.7855447796321
 21
362.2619118276774
 31
0.0
 11
260.5095658224862
 21
362.4626119430121
 31
0.0
 11
260.3000858105718
 21
362.65401379051
 31
0.0
 11
260.1172078183812
 21
362.8724437296139
 31
0.0
 11
259.9953214581832
 21
363.0791045456864
 31
0.0
 11
259.9163173984389
 21
363.3070060232654
 31
0.0
 11
259.8895723336841
 21
363.5286515676874
 31
0.0
 11
259.9163173984388
 21
363.7502971121091
 31
0.0
 11
259.9953214581832
 21
363.9781985896881
 31
0.0
 11
260.1172078183811
 21
364.1848594057606
 31
0.0
 11
260.3000858105717
 21
364.4032893448644
 31
0.0
 11
260.5095658224861
 21
364.5946911923625
 31
0.0
 11
260.785544779632
 21
364.7953913076972
 31
0.0
 11
261.0781339851582
 21
364.9700233771301
 31
0.0
 11
261.4368616288185
 21
365.1477987978946
 31
0.0
 11
261.8062500530415
 21
365.3015346183746
 31
0.0
 11
262.2359137914024
 21
365.4516547072698
 31
0.0
 11
262.672538318978
 21
365.5796558872313
 31
0.0
 11
263.1596017708736
 21
365.6981618356292
 31
0.0
 11
263.6511527300822
 21
365.7960336095878
 31
0.0
 11
264.1805443626599
 21
365.8798570423247
 31
0.0
 11
264.7126314153987
 21
365.9440725198011
 31
0.0
 11
265.2681270153672
 21
365.9911637698941
 31
0.0
 11
265.8248904571049
 21
366.0192433368525
 31
0.0
 11
266.389572333684
 21
366.0286515676877
 31
0.0
 11
266.9542542102631
 21
366.0192433368526
 31
0.0
 11
267.5110176520009
 21
365.9911637698941
 31
0.0
 11
268.0665132519693
 21
365.9440725198012
 31
0.0
 11
268.5986003047082
 21
365.879857042325
 31
0.0
 11
269.1279919372857
 21
365.7960336095881
 31
0.0
 11
269.6195428964941
 21
365.6981618356294
 31
0.0
 11
270.1066063483897
 21
365.5796558872315
 31
0.0
 11
270.5432308759653
 21
365.4516547072701
 31
0.0
 11
270.972894614326
 21
365.3015346183749
 31
0.0
 11
271.3422830385492
 21
365.147798797895
 31
0.0
 11
271.7010106822096
 21
364.9700233771304
 31
0.0
 11
271.9935998877359
 21
364.7953913076976
 31
0.0
 11
272.2695788448819
 21
364.5946911923629
 31
0.0
 11
272.4790588567964
 21
364.4032893448649
 31
0.0
 11
272.661936848987
 21
364.184859405761
 31
0.0
 11
272.7838232091849
 21
363.9781985896886
 31
0.0
 11
272.8628272689293
 21
363.7502971121095
 31
0.0
 11
272.889572333684
 21
363.5286515676876
 31
0.0
 11
272.8628272689293
 21
363.3070060232658
 31
0.0
  0
SPLINE
  5
28F
330
1F
100
AcDbEntity
  8
1
  6
Continuous
 62
     7
100
AcDbSpline
210
0.0
220
0.0
230
1.0
 70
     8
 71
     3
 72
    23
 73
    19
 74
    17
 42
0.0000000001
 43
0.0000000001
 44
0.00000001
 40
0.0
 40
0.0
 40
0.0
 40
0.0
 40
0.3299750217316605
 40
0.660071242177653
 40
1.16127103231786
 40
1.662543878159477
 40
2.117544186018971
 40
2.572678198318716
 40
2.972781323086148
 40
3.373143187596394
 40
3.713884736082563
 40
4.055125004929583
 40
4.338879375146797
 40
4.623758293855398
 40
4.863685319640378
 40
5.104892129119037
 40
5.328145451268536
 40
5.551398773417859
 40
5.551398773417859
 40
5.551398773417859
 40
5.551398773417859
 10
268.4755916290229
 20
423.6553739075326
 30
0.0
 10
268.5845608086581
 20
423.6403795258652
 30
0.0
 10
268.8025391919413
 20
423.6103852551446
 30
0.0
 10
269.1844445442053
 20
423.5469357077201
 30
0.0
 10
269.6202442274247
 20
423.4604460511234
 30
0.0
 10
270.0926147992112
 20
423.3461682245404
 30
0.0
 10
270.5443430669414
 20
423.2141294830434
 30
0.0
 10
270.9571976499306
 20
423.0709218351079
 30
0.0
 10
271.3440168839443
 20
422.9105283278346
 30
0.0
 10
271.6858246459377
 20
422.7427356383055
 30
0.0
 10
271.9963451737006
 20
422.5583709020634
 30
0.0
 10
272.2583213569935
 20
422.3702744731554
 30
0.0
 10
272.4836816561701
 20
422.1662887415188
 30
0.0
 10
272.6588102414128
 20
421.9601975961995
 30
0.0
 10
272.791695053405
 20
421.7403055451503
 30
0.0
 10
272.8685108642977
 20
421.5170909003237
 30
0.0
 10
272.9012379111563
 20
421.2870857122027
 30
0.0
 10
272.8755921696628
 20
421.1396360312432
 30
0.0
 10
272.8627692989159
 20
421.0659111907634
 30
0.0
 11
268.4755916290229
 21
423.6553739075326
 31
0.0
 11
268.8022737990561
 21
423.6088736414126
 31
0.0
 11
269.1279339672726
 21
423.5549387770858
 31
0.0
 11
269.6194849264811
 21
423.4570670031272
 31
0.0
 11
270.1065483783767
 21
423.3385610547293
 31
0.0
 11
270.5431729059524
 21
423.2105598747679
 31
0.0
 11
270.9728366443131
 21
423.0604397858726
 31
0.0
 11
271.3422250685362
 21
422.9067039653926
 31
0.0
 11
271.7009527121966
 21
422.7289285446281
 31
0.0
 11
271.9935419177227
 21
422.5542964751954
 31
0.0
 11
272.2695208748686
 21
422.3535963598605
 31
0.0
 11
272.4790008867831
 21
422.1621945123625
 31
0.0
 11
272.6618788789738
 21
421.9437645732587
 31
0.0
 11
272.7837652391717
 21
421.7371037571862
 31
0.0
 11
272.8627692989159
 21
421.5092022796069
 31
0.0
 11
272.8895143636705
 21
421.2875567351851
 31
0.0
 11
272.8627692989159
 21
421.0659111907634
 31
0.0
  0
SOLID
  5
290
330
1F
100
AcDbEntity
  8
1
 62
     2
100
AcDbTrace
 10
245.1999740175662
 20
420.049361195587
 30
0.0
 11
246.7961757209191
 21
420.9709286786988
 31
0.0
 12
249.4980748692427
 22
414.4479671106519
 32
0.0
 13
249.4980748692427
 23
414.4479671106519
 33
0.0
  0
LEADER
  5
291
330
1F
100
AcDbEntity
  8
1
  6
Continuous
 62
     2
100
AcDbLeader
  3
Standard
 71
     0
 76
     3
 10
249.4980748692427
 20
414.4479671106519
 30
0.0
 10
234.404904198725
 20
440.5901055592968
 30
0.0
 10
208.2140346512339
 20
440.5901055592968
 30
0.0
  0
SOLID
  5
292
330
1F
100
AcDbEntity
  8
1
 62
     2
100
AcDbTrace
 10
274.7037590101745
 20
355.9400904782196
 30
0.0
 11
273.0999547910336
 21
355.0318182005507
 31
0.0
 12
270.4523504563153
 22
361.5770055861578
 32
0.0
 13
270.4523504563153
 23
361.5770055861578
 33
0.0
  0
LEADER
  5
293
330
1F
100
AcDbEntity
  8
1
  6
Continuous
 62
     2
100
AcDbLeader
  3
Standard
 71
     0
 76
     3
 10
270.4523504563153
 20
361.5770055861578
 30
0.0
 10
285.4365186442715
 20
335.118340325737
 30
0.0
 10
309.6273881917625
 20
335.118340325737
 30
0.0
  0
SOLID
  5
294
330
1F
100
AcDbEntity
  8
1
 62
     2
100
AcDbTrace
 10
255.1995398030465
 20
430.7869660126078
 30
0.0
 11
256.8511202572907
 21
431.605152120333
 31
0.0
 12
259.1327002765325
 22
424.9235595525595
 32
0.0
 13
259.1327002765325
 23
424.9235595525595
 33
0.0
  0
LEADER
  5
295
330
1F
100
AcDbEntity
  8
1
  6
Continuous
 62
     2
100
AcDbLeader
  3
Standard
 71
     0
 76
     3
 10
259.1327002765325
 20
424.9235595525595
 30
0.0
 10
231.396517115188
 20
480.9114791127865
 30
0.0
 10
209.205647567697
 20
480.9114791127865
 30
0.0
  0
SOLID
  5
296
330
1F
100
AcDbEntity
  8
1
 62
     2
100
AcDbTrace
 10
275.1345176716225
 20
428.7321192937494
 30
0.0
 11
276.7307193749754
 21
427.8105518106376
 31
0.0
 12
272.4326185232989
 22
422.2091577257025
 32
0.0
 13
272.4326185232989
 23
422.2091577257025
 33
0.0
  0
LEADER
  5
297
330
1F
100
AcDbEntity
  8
1
  6
Continuous
 62
     2
100
AcDbLeader
  3
Standard
 71
     0
 76
     3
 10
272.4326185232989
 20
422.2091577257025
 30
0.0
 10
287.5257891938166
 20
448.3512961743476
 30
0.0
 10
309.7166587413076
 20
448.3512961743476
 30
0.0
  0
SOLID
  5
298
330
1F
100
AcDbEntity
  8
1
 62
     2
100
AcDbTrace
 10
238.7722046837771
 20
224.9085175447396
 30
0.0
 11
237.1760029804242
 21
225.8300850278514
 31
0.0
 12
241.4741038321006
 22
231.4314791127866
 32
0.0
 13
241.4741038321006
 23
231.4314791127866
 33
0.0
  0
LEADER
  5
299
330
1F
100
AcDbEntity
  8
1
  6
Continuous
 62
     2
100
AcDbLeader
  3
Standard
 71
     0
 76
     3
 10
241.4741038321006
 20
231.4314791127866
 30
0.0
 10
219.5232465975111
 20
193.4114791127867
 30
0.0
 10
187.205081363146
 20
193.4114791127867
 30
0.0
  0
SOLID
  5
29A
330
1F
100
AcDbEntity
  8
1
 62
     2
100
AcDbTrace
 10
361.4568534867726
 20
258.925142701544
 30
0.0
 11
363.0530551901256
 21
258.0035752184322
 31
0.0
 12
358.7549543384491
 22
252.402181133497
 32
0.0
 13
358.7549543384491
 23
252.402181133497
 33
0.0
  0
LEADER
  5
29B
330
1F
100
AcDbEntity
  8
1
  6
Continuous
 62
     2
100
AcDbLeader
  3
Standard
 71
     0
 76
     3
 10
358.7549543384491
 20
252.402181133497
 30
0.0
 10
370.7668966266047
 20
273.2074754741676
 30
0.0
 10
394.058714308607
 20
273.2074754741676
 30
0.0
  0
SOLID
  5
29C
330
1F
100
AcDbEntity
  8
1
 62
     2
100
AcDbTrace
 10
102.8427022170635
 20
443.2143515170641
 30
0.0
 11
104.4389039204164
 21
444.1359190001759
 31
0.0
 12
107.14080306874
 22
437.612957432129
 32
0.0
 13
107.14080306874
 23
437.612957432129
 33
0.0
  0
LEADER
  5
29D
330
1F
100
AcDbEntity
  8
1
  6
Continuous
 62
     2
100
AcDbLeader
  3
Standard
 71
     0
 76
     3
 10
107.14080306874
 20
437.612957432129
 30
0.0
 10
94.77205671021031
 20
459.036254551035
 30
0.0
 10
120.872522456545
 20
459.036254551035
 30
0.0
  0
MTEXT
  5
29F
330
1F
100
AcDbEntity
  8
1
 62
     7
100
AcDbMText
 10
187.5
 20
34.0
 30
0.0
 40
7.0
 41
0.0
 71
     5
 72
     1
  1
2
  7
CONVERTER_2
 73
     1
 44
0.7202881152461
  0
MTEXT
  5
2A0
330
1F
100
AcDbEntity
  8
1
 62
     7
100
AcDbMText
 10
170.5
 20
34.0
 30
0.0
 40
7.0
 41
0.0
 71
     5
 72
     1
  1
1
  7
CONVERTER_2
 73
     1
 44
0.7202881152461
  0
MTEXT
  5
2A1
330
1F
100
AcDbEntity
  8
1
 62
     7
100
AcDbMText
 10
68.0
 20
68.00000000000001
 30
0.0
 40
7.0
 41
0.0
 71
     4
 72
     1
  1
JIS
  7
CONVERTER_2
 73
     1
 44
0.7202881152461
  0
MTEXT
  5
2A2
330
1F
100
AcDbEntity
  8
1
 62
     7
100
AcDbMText
 10
107.8222895833777
 20
465.036254551035
 30
0.0
 40
7.0
 41
0.0
 71
     5
 72
     1
  1
PJ1/2
  7
CONVERTER_2
 73
     1
 44
0.7202881152461
  0
MTEXT
  5
2A3
330
1F
100
AcDbEntity
  8
1
 62
     7
100
AcDbMText
 10
220.3010823414425
 20
474.9114791127865
 30
0.0
 40
7.0
 41
0.0
 71
     5
 72
     1
  1
シール
  7
CONVERTER_1
 73
     1
 44
0.7202881152461
  0
MTEXT
  5
2A4
330
1F
100
AcDbEntity
  8
1
 62
     7
100
AcDbMText
 10
220.3010823414425
 20
486.9114791127865
 30
0.0
 40
7.0
 41
0.0
 71
     5
 72
     1
  1
A
  7
CONVERTER_2
 73
     1
 44
0.7202881152461
  0
MTEXT
  5
2A5
330
1F
100
AcDbEntity
  8
1
 62
     7
100
AcDbMText
 10
219.3094694249795
 20
434.5901055592968
 30
0.0
 40
7.0
 41
0.0
 71
     5
 72
     1
  1
シール
  7
CONVERTER_1
 73
     1
 44
0.7202881152461
  0
MTEXT
  5
2A6
330
1F
100
AcDbEntity
  8
1
 62
     7
100
AcDbMText
 10
219.3094694249795
 20
446.5901055592968
 30
0.0
 40
7.0
 41
0.0
 71
     5
 72
     1
  1
A
  7
CONVERTER_2
 73
     1
 44
0.7202881152461
  0
MTEXT
  5
2A7
330
1F
100
AcDbEntity
  8
1
 62
     7
100
AcDbMText
 10
296.531953418017
 20
329.118340325737
 30
0.0
 40
7.0
 41
0.0
 71
     5
 72
     1
  1
シール
  7
CONVERTER_1
 73
     1
 44
0.7202881152461
  0
MTEXT
  5
2A8
330
1F
100
AcDbEntity
  8
1
 62
     7
100
AcDbMText
 10
296.531953418017
 20
341.118340325737
 30
0.0
 40
7.0
 41
0.0
 71
     5
 72
     1
  1
B
  7
CONVERTER_2
 73
     1
 44
0.7202881152461
  0
MTEXT
  5
2A9
330
1F
100
AcDbEntity
  8
1
 62
     7
100
AcDbMText
 10
258.8895143636705
 20
421.0190326244531
 30
0.0
 40
4.0
 41
0.0
 71
     5
 72
     1
  1
A
  7
CONVERTER_2
 11
0.5000000000000001
 21
-0.8660254037844386
 31
0.0
 73
     1
 44
0.7202881152461
  0
MTEXT
  5
2AA
330
1F
100
AcDbEntity
  8
1
 62
     7
100
AcDbMText
 10
249.8894156875836
 20
408.0286515676876
 30
0.0
 40
4.0
 41
0.0
 71
     5
 72
     1
  1
A
  7
CONVERTER_2
 11
0.0
 21
1.0
 31
0.0
 73
     1
 44
0.7202881152461
  0
MTEXT
  5
2AB
330
1F
100
AcDbEntity
  8
1
 62
     7
100
AcDbMText
 10
266.3895143636705
 20
363.5365627809224
 30
0.0
 40
4.0
 41
0.0
 71
     5
 72
     1
  1
B
  7
CONVERTER_2
 11
-1.0
 21
0.0
 31
0.0
 73
     1
 44
0.7202881152461
  0
MTEXT
  5
2AC
330
1F
100
AcDbEntity
  8
1
 62
     7
100
AcDbMText
 10
298.6212239675621
 20
442.3512961743476
 30
0.0
 40
7.0
 41
0.0
 71
     5
 72
     1
  1
シール
  7
CONVERTER_1
 73
     1
 44
0.7202881152461
  0
MTEXT
  5
2AD
330
1F
100
AcDbEntity
  8
1
 62
     7
100
AcDbMText
 10
298.6212239675621
 20
454.3512961743476
 30
0.0
 40
7.0
 41
0.0
 71
     5
 72
     1
  1
B
  7
CONVERTER_2
 73
     1
 44
0.7202881152461
  0
MTEXT
  5
2AE
330
1F
100
AcDbEntity
  8
1
 62
     7
100
AcDbMText
 10
382.4128054676058
 20
279.2074754741676
 30
0.0
 40
7.0
 41
0.0
 71
     5
 72
     1
  1
R1/2
  7
CONVERTER_2
 73
     1
 44
0.7202881152461
  0
MTEXT
  5
2AF
330
1F
100
AcDbEntity
  8
1
 62
     7
100
AcDbMText
 10
203.3641639803286
 20
199.4114791127867
 30
0.0
 40
7.0
 41
0.0
 71
     5
 72
     1
  1
PJ1/2
  7
CONVERTER_2
 73
     1
 44
0.7202881152461
  0
MTEXT
  5
2B0
330
1F
100
AcDbEntity
  8
0
 62
     7
100
AcDbMText
 10
114.0
 20
28.5
 30
0.0
 40
7.0
 41
0.0
 71
     5
 72
     1
  1
V2220RAD-X2-13
  7
CONVERTER_2
 73
     1
 44
0.7202881152461
  0
MTEXT
  5
2B1
330
1F
100
AcDbEntity
  8
0
 62
     7
100
AcDbMText
 10
114.0
 20
45.50000000000003
 30
0.0
 40
7.0
 41
0.0
 71
     5
 72
     1
  1
D式分岐止水栓本体
  7
CONVERTER_1
 73
     1
 44
0.7202881152461
  0
DIMENSION
  5
2BC
330
1F
100
AcDbEntity
  8
1
100
AcDbDimension
  2
*D011
 10
69.21857304302989
 20
355.5288489198616
 30
0.0
 11
63.71857304302989
 21
381.7787502437745
 31
0.0
  1
53リフト4
 71
     5
 42
0.0
 53
90.0
  3
ME10_DIM_0
100
AcDbAlignedDimension
 13
96.42080306874013
 23
408.0286515676875
 33
0.0
 14
113.8708030687402
 24
355.5288489198616
 34
0.0
 50
90.0
100
AcDbRotatedDimension
  0
DIMENSION
  5
2C7
330
1F
100
AcDbEntity
  8
1
100
AcDbDimension
  2
*D112
 10
191.8895143637105
 20
241.9114791127865
 30
0.0
 11
186.3895143637105
 21
274.811479112787
 31
0.0
  1
65リフト4
 71
     5
 42
0.0
 53
90.0
  3
ME10_DIM_1
100
AcDbAlignedDimension
 13
247.3895143636954
 23
307.7114791127876
 33
0.0
 14
221.8895143636719
 24
241.9114791127865
 34
0.0
 50
90.0
100
AcDbRotatedDimension
  0
DIMENSION
  5
2D2
330
1F
100
AcDbEntity
  8
1
100
AcDbDimension
  2
*D213
 10
69.21857304302989
 20
408.0286515676876
 30
0.0
 11
63.71857304302989
 21
425.0286515676796
 31
0.0
  1
<>
 71
     5
 42
0.0
 53
90.0
  3
ME10_DIM_2
100
AcDbAlignedDimension
 13
111.1208030687399
 23
442.0286515676716
 33
0.0
 14
96.42080306874013
 24
408.0286515676875
 34
0.0
 50
90.0
100
AcDbRotatedDimension
  0
DIMENSION
  5
2DD
330
1F
100
AcDbEntity
  8
1
100
AcDbDimension
  2
*D314
 10
299.889514363696
 20
193.4114791127867
 30
0.0
 11
283.1395143636954
 21
198.9114791127867
 31
0.0
  1
34
 71
     5
 42
0.0
 53
0.00013888888889
  3
ME10_DIM_3
100
AcDbAlignedDimension
 13
266.3895143636948
 23
223.7114791127867
 33
0.0
 14
299.8895143636961
 24
228.9114791127865
 34
0.0
100
AcDbRotatedDimension
  0
DIMENSION
  5
2E8
330
1F
100
AcDbEntity
  8
1
100
AcDbDimension
  2
*D415
 10
227.8895143637106
 20
193.4114791127867
 30
0.0
 11
247.1395143637027
 21
198.9114791127867
 31
0.0
  1
39
 71
     5
 42
0.0
 53
0.00013888888889
  3
ME10_DIM_4
100
AcDbAlignedDimension
 13
266.3895143636948
 23
223.7114791127867
 33
0.0
 14
227.8895143637106
 24
232.5914791127868
 34
0.0
100
AcDbRotatedDimension
  0
DIMENSION
  5
2F3
330
1F
100
AcDbEntity
  8
1
100
AcDbDimension
  2
*D516
 10
366.8895143636956
 20
177.4114791127867
 30
0.0
 11
316.6395143636952
 21
182.9114791127867
 31
0.0
  1
100
 71
     5
 42
0.0
 53
0.00013888888889
  3
ME10_DIM_5
100
AcDbAlignedDimension
 13
266.3895143636948
 23
217.7114791127867
 33
0.0
 14
366.8895143636956
 24
232.8094668934983
 34
0.0
100
AcDbRotatedDimension
  0
DIMENSION
  5
301
330
1F
100
AcDbEntity
  8
1
100
AcDbDimension
  2
*D617
 10
191.8895143637106
 20
223.7114791127867
 30
0.0
 11
186.3895143637106
 21
232.8114791127866
 31
0.0
  1
19
 71
     5
 42
0.0
 53
90.0
  3
ME10_DIM_6
100
AcDbAlignedDimension
 13
221.8895143636719
 23
241.9114791127865
 33
0.0
 14
266.3895143636948
 24
223.7114791127867
 34
0.0
 50
90.0
100
AcDbRotatedDimension
  0
DIMENSION
  5
30C
330
1F
100
AcDbEntity
  8
1
100
AcDbDimension
  2
*D719
 10
386.8895143636718
 20
378.0286515676875
 30
0.0
 11
381.3895143636718
 21
408.0286515676875
 31
0.0
  1
<>
 71
     5
 42
0.0
 53
90.0
  3
ME10_DIM_7
100
AcDbAlignedDimension
 13
352.8895143636718
 23
438.0286515676875
 33
0.0
 14
352.8895143636718
 24
378.0286515676875
 34
0.0
 50
90.0
100
AcDbRotatedDimension
  0
DIMENSION
  5
319
330
1F
100
AcDbEntity
  8
1
100
AcDbDimension
  2
*D820
 10
336.8895143636718
 20
448.3512961743476
 30
0.0
 11
344.8895143636718
 21
453.8512961743476
 31
0.0
  1
<>
 71
     5
 42
0.0
 53
0.00013888888889
  3
ME10_DIM_8
100
AcDbAlignedDimension
 13
352.8895143636718
 23
438.0286515676875
 33
0.0
 14
336.8895143636718
 24
420.2328200443749
 34
0.0
100
AcDbRotatedDimension
  0
ENDSEC
  0
SECTION
  2
OBJECTS
  0
DICTIONARY
  5
C
330
0
100
AcDbDictionary
281
     1
  3
ACAD_GROUP
350
D
  3
ACAD_LAYOUT
350
1A
  3
ACAD_MLINESTYLE
350
17
  3
ACAD_PLOTSETTINGS
350
19
  3
ACAD_PLOTSTYLENAME
350
E
  3
ACAD_TABLESTYLE
350
2A
  3
AcDbVariableDictionary
350
2C
  0
DICTIONARY
  5
D
102
{ACAD_REACTORS
330
C
102
}
330
C
100
AcDbDictionary
281
     1
  0
DICTIONARY
  5
1A
102
{ACAD_REACTORS
330
C
102
}
330
C
100
AcDbDictionary
281
     1
  3
Layout1
350
1E
  3
Layout2
350
26
  3
Model
350
22
  0
DICTIONARY
  5
17
102
{ACAD_REACTORS
330
C
102
}
330
C
100
AcDbDictionary
281
     1
  3
Standard
350
18
  0
DICTIONARY
  5
19
102
{ACAD_REACTORS
330
C
102
}
330
C
100
AcDbDictionary
281
     1
  0
ACDBDICTIONARYWDFLT
  5
E
102
{ACAD_REACTORS
330
C
102
}
330
C
100
AcDbDictionary
281
     1
  3
Normal
350
F
100
AcDbDictionaryWithDefault
340
F
  0
DICTIONARY
  5
2A
102
{ACAD_REACTORS
330
C
102
}
330
C
100
AcDbDictionary
281
     1
  3
Standard
350
2B
  0
DICTIONARY
  5
2C
102
{ACAD_REACTORS
330
C
102
}
330
C
100
AcDbDictionary
281
     1
  3
CTABLESTYLE
350
2D
  0
LAYOUT
  5
1E
102
{ACAD_REACTORS
330
1A
102
}
330
1A
100
AcDbPlotSettings
  1

  2

  4

  6

 40
0.0
 41
0.0
 42
0.0
 43
0.0
 44
0.0
 45
0.0
 46
0.0
 47
0.0
 48
0.0
 49
0.0
140
0.0
141
0.0
142
1.0
143
1.0
 70
   688
 72
     0
 73
     0
 74
     5
  7

 75
    16
147
1.0
148
0.0
149
0.0
100
AcDbLayout
  1
Layout1
 70
     1
 71
     1
 10
0.0
 20
0.0
 11
12.0
 21
9.0
 12
0.0
 22
0.0
 32
0.0
 14
1.00000000000000E+20
 24
1.00000000000000E+20
 34
1.00000000000000E+20
 15
-1.00000000000000E+20
 25
-1.00000000000000E+20
 35
-1.00000000000000E+20
146
0.0
 13
0.0
 23
0.0
 33
0.0
 16
1.0
 26
0.0
 36
0.0
 17
0.0
 27
1.0
 37
0.0
 76
     0
330
1B
  0
LAYOUT
  5
26
102
{ACAD_REACTORS
330
1A
102
}
330
1A
100
AcDbPlotSettings
  1

  2

  4

  6

 40
0.0
 41
0.0
 42
0.0
 43
0.0
 44
0.0
 45
0.0
 46
0.0
 47
0.0
 48
0.0
 49
0.0
140
0.0
141
0.0
142
1.0
143
1.0
 70
   688
 72
     0
 73
     0
 74
     5
  7

 75
    16
147
1.0
148
0.0
149
0.0
100
AcDbLayout
  1
Layout2
 70
     1
 71
     2
 10
0.0
 20
0.0
 11
0.0
 21
0.0
 12
0.0
 22
0.0
 32
0.0
 14
0.0
 24
0.0
 34
0.0
 15
0.0
 25
0.0
 35
0.0
146
0.0
 13
0.0
 23
0.0
 33
0.0
 16
1.0
 26
0.0
 36
0.0
 17
0.0
 27
1.0
 37
0.0
 76
     0
330
23
  0
LAYOUT
  5
22
102
{ACAD_REACTORS
330
1A
102
}
330
1A
100
AcDbPlotSettings
  1

  2

  4

  6

 40
0.0
 41
0.0
 42
0.0
 43
0.0
 44
0.0
 45
0.0
 46
0.0
 47
0.0
 48
0.0
 49
0.0
140
0.0
141
0.0
142
1.0
143
1.0
 70
  1712
 72
     0
 73
     0
 74
     0
  7

 75
     0
147
1.0
148
0.0
149
0.0
100
AcDbLayout
  1
Model
 70
     1
 71
     0
 10
0.0
 20
0.0
 11
0.0
 21
0.0
 12
0.0
 22
0.0
 32
0.0
 14
0.0
 24
0.0
 34
0.0
 15
420.0
 25
594.0
 35
0.0
146
0.0
 13
0.0
 23
0.0
 33
0.0
 16
1.0
 26
0.0
 36
0.0
 17
0.0
 27
1.0
 37
0.0
 76
     0
330
1F
  0
MLINESTYLE
  5
18
102
{ACAD_REACTORS
330
17
102
}
330
17
100
AcDbMlineStyle
  2
Standard
 70
     0
  3

 62
   256
 51
90.0
 52
90.0
 71
     2
 49
0.5
 62
   256
  6
BYLAYER
 49
-0.5
 62
   256
  6
BYLAYER
  0
ACDBPLACEHOLDER
  5
F
102
{ACAD_REACTORS
330
E
102
}
330
E
  0
TABLESTYLE
  5
2B
102
{ACAD_REACTORS
330
2A
102
}
330
2A
100
AcDbTableStyle
  3
Standard
 70
     0
 71
     0
 40
0.06
 41
0.06
280
     0
281
     0
  7
Standard
140
0.18
170
     2
 62
     0
 63
     7
283
     0
274
    -2
284
     1
 64
     0
275
    -2
285
     1
 65
     0
276
    -2
286
     1
 66
     0
277
    -2
287
     1
 67
     0
278
    -2
288
     1
 68
     0
279
    -2
289
     1
 69
     0
  7
Standard
140
0.25
170
     5
 62
     0
 63
     7
283
     0
274
    -2
284
     1
 64
     0
275
    -2
285
     1
 65
     0
276
    -2
286
     1
 66
     0
277
    -2
287
     1
 67
     0
278
    -2
288
     1
 68
     0
279
    -2
289
     1
 69
     0
  7
Standard
140
0.18
170
     5
 62
     0
 63
     7
283
     0
274
    -2
284
     1
 64
     0
275
    -2
285
     1
 65
     0
276
    -2
286
     1
 66
     0
277
    -2
287
     1
 67
     0
278
    -2
288
     1
 68
     0
279
    -2
289
     1
 69
     0
  0
DICTIONARYVAR
  5
2D
102
{ACAD_REACTORS
330
2C
102
}
330
2C
100
DictionaryVariables
280
     0
  1
Standard
  0
ENDSEC
  0
EOF
