  0
SECTION
  2
HEADER
  9
$ACADVER
  1
AC1015
  9
$ACADMAINTVER
 70
     6
  9
$DWGCODEPAGE
  3
DOS932
  9
$INSBASE
 10
0.0
 20
0.0
 30
0.0
  9
$EXTMIN
 10
0.0
 20
0.0
 30
0.0
  9
$EXTMAX
 10
525.0
 20
742.5
 30
0.0
  9
$LIMMIN
 10
0.0
 20
0.0
  9
$LIMMAX
 10
12.0
 20
9.0
  9
$ORTHOMODE
 70
     0
  9
$REGENMODE
 70
     1
  9
$FILLMODE
 70
     1
  9
$QTEXTMODE
 70
     0
  9
$MIRRTEXT
 70
     1
  9
$LTSCALE
 40
1.0
  9
$ATTMODE
 70
     1
  9
$TEXTSIZE
 40
0.2
  9
$TRACEWID
 40
0.05
  9
$TEXTSTYLE
  7
Standard
  9
$CLAYER
  8
0
  9
$CELTYPE
  6
ByLayer
  9
$CECOLOR
 62
   256
  9
$CELTSCALE
 40
1.0
  9
$DISPSILH
 70
     0
  9
$DIMSCALE
 40
1.0
  9
$DIMASZ
 40
0.18
  9
$DIMEXO
 40
0.0625
  9
$DIMDLI
 40
0.38
  9
$DIMRND
 40
0.0
  9
$DIMDLE
 40
0.0
  9
$DIMEXE
 40
0.18
  9
$DIMTP
 40
0.0
  9
$DIMTM
 40
0.0
  9
$DIMTXT
 40
0.18
  9
$DIMCEN
 40
0.09
  9
$DIMTSZ
 40
0.0
  9
$DIMTOL
 70
     0
  9
$DIMLIM
 70
     0
  9
$DIMTIH
 70
     1
  9
$DIMTOH
 70
     1
  9
$DIMSE1
 70
     0
  9
$DIMSE2
 70
     0
  9
$DIMTAD
 70
     0
  9
$DIMZIN
 70
     0
  9
$DIMBLK
  1

  9
$DIMASO
 70
     1
  9
$DIMSHO
 70
     1
  9
$DIMPOST
  1

  9
$DIMAPOST
  1

  9
$DIMALT
 70
     0
  9
$DIMALTD
 70
     2
  9
$DIMALTF
 40
25.4
  9
$DIMLFAC
 40
1.0
  9
$DIMTOFL
 70
     0
  9
$DIMTVP
 40
0.0
  9
$DIMTIX
 70
     0
  9
$DIMSOXD
 70
     0
  9
$DIMSAH
 70
     0
  9
$DIMBLK1
  1

  9
$DIMBLK2
  1

  9
$DIMSTYLE
  2
Standard
  9
$DIMCLRD
 70
     0
  9
$DIMCLRE
 70
     0
  9
$DIMCLRT
 70
     0
  9
$DIMTFAC
 40
1.0
  9
$DIMGAP
 40
0.09
  9
$DIMJUST
 70
     0
  9
$DIMSD1
 70
     0
  9
$DIMSD2
 70
     0
  9
$DIMTOLJ
 70
     1
  9
$DIMTZIN
 70
     0
  9
$DIMALTZ
 70
     0
  9
$DIMALTTZ
 70
     0
  9
$DIMUPT
 70
     0
  9
$DIMDEC
 70
     4
  9
$DIMTDEC
 70
     4
  9
$DIMALTU
 70
     2
  9
$DIMALTTD
 70
     2
  9
$DIMTXSTY
  7
Standard
  9
$DIMAUNIT
 70
     0
  9
$DIMADEC
 70
     0
  9
$DIMALTRND
 40
0.0
  9
$DIMAZIN
 70
     0
  9
$DIMDSEP
 70
    46
  9
$DIMATFIT
 70
     3
  9
$DIMFRAC
 70
     0
  9
$DIMLDRBLK
  1

  9
$DIMLUNIT
 70
     2
  9
$DIMLWD
 70
    -2
  9
$DIMLWE
 70
    -2
  9
$DIMTMOVE
 70
     0
  9
$LUNITS
 70
     2
  9
$LUPREC
 70
     4
  9
$SKETCHINC
 40
0.1
  9
$FILLETRAD
 40
0.5
  9
$AUNITS
 70
     0
  9
$AUPREC
 70
     0
  9
$MENU
  1
.
  9
$ELEVATION
 40
0.0
  9
$PELEVATION
 40
0.0
  9
$THICKNESS
 40
0.0
  9
$LIMCHECK
 70
     0
  9
$CHAMFERA
 40
0.5
  9
$CHAMFERB
 40
0.5
  9
$CHAMFERC
 40
1.0
  9
$CHAMFERD
 40
0.0
  9
$SKPOLY
 70
     0
  9
$TDCREATE
 40
2456142.694724201
  9
$TDUCREATE
 40
2456142.319724201
  9
$TDUPDATE
 40
2456142.694724213
  9
$TDUUPDATE
 40
2456142.319724213
  9
$TDINDWG
 40
0.0000000116
  9
$TDUSRTIMER
 40
0.0000000116
  9
$USRTIMER
 70
     1
  9
$ANGBASE
 50
0.0
  9
$ANGDIR
 70
     0
  9
$PDMODE
 70
     0
  9
$PDSIZE
 40
0.0
  9
$PLINEWID
 40
0.0
  9
$SPLFRAME
 70
     0
  9
$SPLINETYPE
 70
     6
  9
$SPLINESEGS
 70
     8
  9
$HANDSEED
  5
28A
  9
$SURFTAB1
 70
     6
  9
$SURFTAB2
 70
     6
  9
$SURFTYPE
 70
     6
  9
$SURFU
 70
     6
  9
$SURFV
 70
     6
  9
$UCSBASE
  2

  9
$UCSNAME
  2

  9
$UCSORG
 10
0.0
 20
0.0
 30
0.0
  9
$UCSXDIR
 10
1.0
 20
0.0
 30
0.0
  9
$UCSYDIR
 10
0.0
 20
1.0
 30
0.0
  9
$UCSORTHOREF
  2

  9
$UCSORTHOVIEW
 70
     0
  9
$UCSORGTOP
 10
0.0
 20
0.0
 30
0.0
  9
$UCSORGBOTTOM
 10
0.0
 20
0.0
 30
0.0
  9
$UCSORGLEFT
 10
0.0
 20
0.0
 30
0.0
  9
$UCSORGRIGHT
 10
0.0
 20
0.0
 30
0.0
  9
$UCSORGFRONT
 10
0.0
 20
0.0
 30
0.0
  9
$UCSORGBACK
 10
0.0
 20
0.0
 30
0.0
  9
$PUCSBASE
  2

  9
$PUCSNAME
  2

  9
$PUCSORG
 10
0.0
 20
0.0
 30
0.0
  9
$PUCSXDIR
 10
1.0
 20
0.0
 30
0.0
  9
$PUCSYDIR
 10
0.0
 20
1.0
 30
0.0
  9
$PUCSORTHOREF
  2

  9
$PUCSORTHOVIEW
 70
     0
  9
$PUCSORGTOP
 10
0.0
 20
0.0
 30
0.0
  9
$PUCSORGBOTTOM
 10
0.0
 20
0.0
 30
0.0
  9
$PUCSORGLEFT
 10
0.0
 20
0.0
 30
0.0
  9
$PUCSORGRIGHT
 10
0.0
 20
0.0
 30
0.0
  9
$PUCSORGFRONT
 10
0.0
 20
0.0
 30
0.0
  9
$PUCSORGBACK
 10
0.0
 20
0.0
 30
0.0
  9
$USERI1
 70
     0
  9
$USERI2
 70
     0
  9
$USERI3
 70
     0
  9
$USERI4
 70
     0
  9
$USERI5
 70
     0
  9
$USERR1
 40
13.2
  9
$USERR2
 40
0.0
  9
$USERR3
 40
0.0
  9
$USERR4
 40
0.0
  9
$USERR5
 40
0.0
  9
$WORLDVIEW
 70
     1
  9
$SHADEDGE
 70
     3
  9
$SHADEDIF
 70
    70
  9
$TILEMODE
 70
     1
  9
$MAXACTVP
 70
    64
  9
$PINSBASE
 10
0.0
 20
0.0
 30
0.0
  9
$PLIMCHECK
 70
     0
  9
$PEXTMIN
 10
1.00000000000000E+20
 20
1.00000000000000E+20
 30
1.00000000000000E+20
  9
$PEXTMAX
 10
-1.00000000000000E+20
 20
-1.00000000000000E+20
 30
-1.00000000000000E+20
  9
$PLIMMIN
 10
0.0
 20
0.0
  9
$PLIMMAX
 10
12.0
 20
9.0
  9
$UNITMODE
 70
     0
  9
$VISRETAIN
 70
     1
  9
$PLINEGEN
 70
     0
  9
$PSLTSCALE
 70
     1
  9
$TREEDEPTH
 70
  3020
  9
$CMLSTYLE
  2
Standard
  9
$CMLJUST
 70
     0
  9
$CMLSCALE
 40
1.0
  9
$PROXYGRAPHICS
 70
     1
  9
$MEASUREMENT
 70
     1
  9
$CELWEIGHT
370
    -1
  9
$ENDCAPS
280
     0
  9
$JOINSTYLE
280
     0
  9
$LWDISPLAY
290
     0
  9
$INSUNITS
 70
     1
  9
$HYPERLINKBASE
  1

  9
$STYLESHEET
  1

  9
$XEDIT
290
     1
  9
$CEPSNTYPE
380
     0
  9
$PSTYLEMODE
290
     0
  9
$FINGERPRINTGUID
  2
{FAEB1C30-E019-11D5-929B-00C0DF256EC4}
  9
$VERSIONGUID
  2
{FAEB1C32-E019-11D5-929B-00C0DF256EC4}
  9
$EXTNAMES
290
     1
  9
$PSVPSCALE
 40
0.0
  9
$OLESTARTUP
290
     0
  0
ENDSEC
  0
SECTION
  2
CLASSES
  0
CLASS
  1
ACDBDICTIONARYWDFLT
  2
AcDbDictionaryWithDefault
  3
ObjectDBX Classes
 90
        0
280
     0
281
     0
  0
CLASS
  1
TABLESTYLE
  2
AcDbTableStyle
  3
ObjectDBX Classes
 90
     2047
280
     0
281
     0
  0
CLASS
  1
DICTIONARYVAR
  2
AcDbDictionaryVar
  3
ObjectDBX Classes
 90
        0
280
     0
281
     0
  0
CLASS
  1

  2
exOdDbSpline
  3

 90
        0
280
     0
281
     1
  0
CLASS
  1

  2
exOdDbCircle
  3

 90
        0
280
     0
281
     1
  0
CLASS
  1
ACDBPLACEHOLDER
  2
AcDbPlaceHolder
  3
ObjectDBX Classes
 90
        0
280
     0
281
     0
  0
CLASS
  1
LAYOUT
  2
AcDbLayout
  3
ObjectDBX Classes
 90
        0
280
     0
281
     0
  0
ENDSEC
  0
SECTION
  2
TABLES
  0
TABLE
  2
VPORT
  5
8
330
0
100
AcDbSymbolTable
 70
     2
  0
VPORT
  5
29
330
8
100
AcDbSymbolTableRecord
100
AcDbViewportTableRecord
  2
*Active
 70
     0
 10
0.0
 20
0.0
 11
1.0
 21
1.0
 12
262.5
 22
371.25
 13
0.0
 23
0.0
 14
0.5
 24
0.5
 15
0.5
 25
0.5
 16
0.0
 26
0.0
 36
1.0
 17
0.0
 27
0.0
 37
0.0
 40
816.7500000000001
 41
1.60267857142857
 42
50.0
 43
0.0
 44
0.0
 50
0.0
 51
0.0
 71
     0
 72
   100
 73
     1
 74
     3
 75
     0
 76
     0
 77
     0
 78
     0
281
     0
 65
     1
110
0.0
120
0.0
130
0.0
111
1.0
121
0.0
131
0.0
112
0.0
122
1.0
132
0.0
 79
     0
146
0.0
  0
ENDTAB
  0
TABLE
  2
LTYPE
  5
5
330
0
100
AcDbSymbolTable
 70
     8
  0
LTYPE
  5
14
330
5
100
AcDbSymbolTableRecord
100
AcDbLinetypeTableRecord
  2
ByBlock
 70
     0
  3

 72
    65
 73
     0
 40
0.0
  0
LTYPE
  5
15
330
5
100
AcDbSymbolTableRecord
100
AcDbLinetypeTableRecord
  2
ByLayer
 70
     0
  3

 72
    65
 73
     0
 40
0.0
  0
LTYPE
  5
16
330
5
100
AcDbSymbolTableRecord
100
AcDbLinetypeTableRecord
  2
Continuous
 70
     0
  3
Solid line
 72
    65
 73
     0
 40
0.0
  0
LTYPE
  5
2E
330
5
100
AcDbSymbolTableRecord
100
AcDbLinetypeTableRecord
  2
DASHED
 70
     0
  3
Dashed
 72
    65
 73
     2
 40
15.0
 49
7.0
 74
     0
 49
-8.0
 74
     0
  0
LTYPE
  5
2F
330
5
100
AcDbSymbolTableRecord
100
AcDbLinetypeTableRecord
  2
DOTTED
 70
     0
  3
Dotted
 72
    65
 73
     2
 40
1.0
 49
0.0
 74
     0
 49
-1.0
 74
     0
  0
LTYPE
  5
30
330
5
100
AcDbSymbolTableRecord
100
AcDbLinetypeTableRecord
  2
DOT_CENTER
 70
     0
  3
Dot_Center
 72
    65
 73
     4
 40
14.0
 49
12.0
 74
     0
 49
-1.0
 74
     0
 49
0.0
 74
     0
 49
-1.0
 74
     0
  0
LTYPE
  5
31
330
5
100
AcDbSymbolTableRecord
100
AcDbLinetypeTableRecord
  2
LONG_DASHED
 70
     0
  3
Long_Dashed
 72
    65
 73
     2
 40
15.0
 49
10.0
 74
     0
 49
-5.0
 74
     0
  0
LTYPE
  5
32
330
5
100
AcDbSymbolTableRecord
100
AcDbLinetypeTableRecord
  2
DASH_CENTER
 70
     0
  3
Dash_Center
 72
    65
 73
     4
 40
14.0
 49
11.0
 74
     0
 49
-1.0
 74
     0
 49
1.0
 74
     0
 49
-1.0
 74
     0
  0
LTYPE
  5
33
330
5
100
AcDbSymbolTableRecord
100
AcDbLinetypeTableRecord
  2
PHANTOM
 70
     0
  3
Phantom
 72
    65
 73
     6
 40
13.0
 49
10.0
 74
     0
 49
-1.0
 74
     0
 49
0.0
 74
     0
 49
-1.0
 74
     0
 49
0.0
 74
     0
 49
-1.0
 74
     0
  0
LTYPE
  5
34
330
5
100
AcDbSymbolTableRecord
100
AcDbLinetypeTableRecord
  2
CENTER_DASH_DASH
 70
     0
  3
Center_Dash_Dash
 72
    65
 73
     6
 40
14.0
 49
9.0
 74
     0
 49
-1.0
 74
     0
 49
1.0
 74
     0
 49
-1.0
 74
     0
 49
1.0
 74
     0
 49
-1.0
 74
     0
  0
ENDTAB
  0
TABLE
  2
LAYER
  5
2
330
0
100
AcDbSymbolTable
 70
     2
  0
LAYER
  5
10
330
2
100
AcDbSymbolTableRecord
100
AcDbLayerTableRecord
  2
0
 70
     0
 62
     7
  6
Continuous
370
    -3
390
F
  0
LAYER
  5
35
330
2
100
AcDbSymbolTableRecord
100
AcDbLayerTableRecord
  2
1
 70
     0
 62
     7
  6
Continuous
370
    -3
390
F
  0
ENDTAB
  0
TABLE
  2
STYLE
  5
3
330
0
100
AcDbSymbolTable
 70
     3
  0
STYLE
  5
11
330
3
100
AcDbSymbolTableRecord
100
AcDbTextStyleTableRecord
  2
Standard
 70
     0
 40
0.0
 41
1.0
 50
0.0
 71
     0
 42
0.2
  3
txt
  4

  0
STYLE
  5
157
330
3
100
AcDbSymbolTableRecord
100
AcDbTextStyleTableRecord
  2
CONVERTER_1
 70
     0
 40
0.0
 41
0.89
 50
0.0
 71
     0
 42
0.2
  3
msmincho.ttc
  4

1001
ACAD
1000
MS Mincho
1071
    32785
  0
STYLE
  5
20C
330
3
100
AcDbSymbolTableRecord
100
AcDbTextStyleTableRecord
  2
CONVERTER_2
 70
     0
 40
0.0
 41
0.9
 50
0.0
 71
     0
 42
0.2
  3
txt.shx
  4

  0
ENDTAB
  0
TABLE
  2
VIEW
  5
6
330
0
100
AcDbSymbolTable
 70
     0
  0
ENDTAB
  0
TABLE
  2
UCS
  5
7
330
0
100
AcDbSymbolTable
 70
     0
  0
ENDTAB
  0
TABLE
  2
APPID
  5
9
330
0
100
AcDbSymbolTable
 70
     1
  0
APPID
  5
12
330
9
100
AcDbSymbolTableRecord
100
AcDbRegAppTableRecord
  2
ACAD
 70
     0
  0
ENDTAB
  0
TABLE
  2
DIMSTYLE
  5
A
330
0
100
AcDbSymbolTable
 70
    11
100
AcDbDimStyleTable
  0
DIMSTYLE
105
27
330
A
100
AcDbSymbolTableRecord
100
AcDbDimStyleTableRecord
  2
Standard
 70
     0
340
11
  0
DIMSTYLE
105
21B
102
{ACAD_REACTORS
330
21C
102
}
330
A
100
AcDbSymbolTableRecord
100
AcDbDimStyleTableRecord
  2
ME10_DIM_0
 70
     0
 41
8.75
 42
0.0
 44
2.5
 73
     0
 74
     0
 77
     1
 78
     8
140
8.75
147
0.625
172
     1
173
     1
176
     2
177
     2
178
     7
271
     2
340
20C
  0
DIMSTYLE
105
226
102
{ACAD_REACTORS
330
227
102
}
330
A
100
AcDbSymbolTableRecord
100
AcDbDimStyleTableRecord
  2
ME10_DIM_1
 70
     0
 41
8.75
 42
0.0
 44
2.5
 73
     0
 74
     0
 77
     1
 78
     8
140
8.75
147
0.625
172
     1
173
     1
176
     2
177
     2
178
     7
271
     2
340
20C
  0
DIMSTYLE
105
233
102
{ACAD_REACTORS
330
234
102
}
330
A
100
AcDbSymbolTableRecord
100
AcDbDimStyleTableRecord
  2
ME10_DIM_2
 70
     0
 41
8.75
 42
0.0
 44
2.5
 73
     0
 74
     0
 77
     1
 78
     8
140
8.75
147
0.625
172
     1
173
     1
176
     2
177
     2
178
     7
271
     2
340
20C
  0
DIMSTYLE
105
23F
102
{ACAD_REACTORS
330
240
102
}
330
A
100
AcDbSymbolTableRecord
100
AcDbDimStyleTableRecord
  2
ME10_DIM_3
 70
     0
 41
8.75
 42
0.0
 44
2.5
 73
     0
 74
     0
 77
     1
 78
     8
140
8.75
147
0.625
172
     1
173
     1
176
     2
177
     2
178
     7
271
     2
340
20C
  0
DIMSTYLE
105
24B
102
{ACAD_REACTORS
330
24C
102
}
330
A
100
AcDbSymbolTableRecord
100
AcDbDimStyleTableRecord
  2
ME10_DIM_4
 70
     0
 41
8.75
 42
0.0
 44
2.5
 73
     0
 74
     0
 77
     1
 78
     8
140
8.75
147
0.625
172
     1
173
     1
176
     2
177
     2
178
     7
271
     2
340
157
  0
DIMSTYLE
105
258
102
{ACAD_REACTORS
330
259
102
}
330
A
100
AcDbSymbolTableRecord
100
AcDbDimStyleTableRecord
  2
ME10_DIM_5
 70
     0
 41
8.75
 42
0.0
 44
2.5
 73
     0
 74
     0
 77
     1
 78
     8
140
8.75
147
0.625
172
     1
173
     1
176
     2
177
     2
178
     7
271
     2
340
20C
  0
DIMSTYLE
105
263
102
{ACAD_REACTORS
330
264
102
}
330
A
100
AcDbSymbolTableRecord
100
AcDbDimStyleTableRecord
  2
ME10_DIM_6
 70
     0
 41
8.75
 42
0.0
 44
2.5
 73
     0
 74
     0
 77
     1
 78
     8
140
8.75
147
0.625
172
     1
173
     1
176
     2
177
     2
178
     7
271
     2
340
20C
  0
DIMSTYLE
105
26E
102
{ACAD_REACTORS
330
26F
102
}
330
A
100
AcDbSymbolTableRecord
100
AcDbDimStyleTableRecord
  2
ME10_DIM_7
 70
     0
 41
8.75
 42
0.0
 44
2.5
 73
     0
 74
     0
 77
     1
 78
     8
140
8.75
147
0.625
172
     1
173
     1
176
     2
177
     2
178
     7
271
     2
340
20C
  0
DIMSTYLE
105
27B
102
{ACAD_REACTORS
330
27C
102
}
330
A
100
AcDbSymbolTableRecord
100
AcDbDimStyleTableRecord
  2
ME10_DIM_8
 70
     0
 41
8.75
 42
0.0
 44
2.5
 73
     0
 74
     0
 77
     1
 78
     8
140
8.75
147
0.625
172
     1
173
     1
176
     2
177
     2
178
     7
271
     2
340
20C
  0
DIMSTYLE
105
288
102
{ACAD_REACTORS
330
289
102
}
330
A
100
AcDbSymbolTableRecord
100
AcDbDimStyleTableRecord
  2
ME10_DIM_9
 70
     0
 41
8.75
 42
0.0
 44
2.5
 73
     0
 74
     0
 77
     1
 78
     8
140
8.75
147
0.625
172
     1
173
     1
176
     2
177
     2
178
     7
271
     2
340
20C
  0
ENDTAB
  0
TABLE
  2
BLOCK_RECORD
  5
1
330
0
100
AcDbSymbolTable
 70
    20
  0
BLOCK_RECORD
  5
1F
330
1
100
AcDbSymbolTableRecord
100
AcDbBlockTableRecord
  2
*Model_Space
340
22
  0
BLOCK_RECORD
  5
1B
330
1
100
AcDbSymbolTableRecord
100
AcDbBlockTableRecord
  2
*Paper_Space
340
1E
  0
BLOCK_RECORD
  5
23
330
1
100
AcDbSymbolTableRecord
100
AcDbBlockTableRecord
  2
*Paper_Space0
340
26
  0
BLOCK_RECORD
  5
36
330
1
100
AcDbSymbolTableRecord
100
AcDbBlockTableRecord
  2
78-167
340
0
102
{BLKREFS
331
51
102
}
  0
BLOCK_RECORD
  5
39
330
1
100
AcDbSymbolTableRecord
100
AcDbBlockTableRecord
  2
64-7-13-55-M11
340
0
102
{BLKREFS
331
52
102
}
  0
BLOCK_RECORD
  5
3C
330
1
100
AcDbSymbolTableRecord
100
AcDbBlockTableRecord
  2
V22-0A-13-__________
340
0
102
{BLKREFS
331
53
102
}
  0
BLOCK_RECORD
  5
3F
330
1
100
AcDbSymbolTableRecord
100
AcDbBlockTableRecord
  2
V22-0A-13
340
0
102
{BLKREFS
331
54
102
}
  0
BLOCK_RECORD
  5
42
330
1
100
AcDbSymbolTableRecord
100
AcDbBlockTableRecord
  2
_J__A4
340
0
102
{BLKREFS
331
55
102
}
  0
BLOCK_RECORD
  5
45
330
1
100
AcDbSymbolTableRecord
100
AcDbBlockTableRecord
  2
36-45
340
0
102
{BLKREFS
331
56
102
}
  0
BLOCK_RECORD
  5
48
330
1
100
AcDbSymbolTableRecord
100
AcDbBlockTableRecord
  2
32-12-M2
340
0
102
{BLKREFS
331
57
102
}
  0
BLOCK_RECORD
  5
4B
330
1
100
AcDbSymbolTableRecord
100
AcDbBlockTableRecord
  2
37-1-13
340
0
102
{BLKREFS
331
58
102
}
  0
BLOCK_RECORD
  5
4E
330
1
100
AcDbSymbolTableRecord
100
AcDbBlockTableRecord
  2
66-6-55-200
340
0
102
{BLKREFS
331
59
102
}
  0
BLOCK_RECORD
  5
212
330
1
100
AcDbSymbolTableRecord
100
AcDbBlockTableRecord
  2
*D010
340
0
  0
BLOCK_RECORD
  5
21D
330
1
100
AcDbSymbolTableRecord
100
AcDbBlockTableRecord
  2
*D111
340
0
  0
BLOCK_RECORD
  5
228
330
1
100
AcDbSymbolTableRecord
100
AcDbBlockTableRecord
  2
*D212
340
0
  0
BLOCK_RECORD
  5
235
330
1
100
AcDbSymbolTableRecord
100
AcDbBlockTableRecord
  2
*D313
340
0
  0
BLOCK_RECORD
  5
241
330
1
100
AcDbSymbolTableRecord
100
AcDbBlockTableRecord
  2
*D414
340
0
  0
BLOCK_RECORD
  5
24D
330
1
100
AcDbSymbolTableRecord
100
AcDbBlockTableRecord
  2
*D515
340
0
  0
BLOCK_RECORD
  5
25A
330
1
100
AcDbSymbolTableRecord
100
AcDbBlockTableRecord
  2
*D616
340
0
  0
BLOCK_RECORD
  5
265
330
1
100
AcDbSymbolTableRecord
100
AcDbBlockTableRecord
  2
*D717
340
0
  0
BLOCK_RECORD
  5
270
330
1
100
AcDbSymbolTableRecord
100
AcDbBlockTableRecord
  2
*D818
340
0
  0
BLOCK_RECORD
  5
27D
330
1
100
AcDbSymbolTableRecord
100
AcDbBlockTableRecord
  2
*D919
340
0
  0
ENDTAB
  0
ENDSEC
  0
SECTION
  2
BLOCKS
  0
BLOCK
  5
20
330
1F
100
AcDbEntity
  8
0
100
AcDbBlockBegin
  2
*Model_Space
 70
     0
 71
     0
 10
0.0
 20
0.0
 30
0.0
  3
*Model_Space
  1

  0
ENDBLK
  5
21
330
1F
100
AcDbEntity
  8
0
100
AcDbBlockEnd
  0
BLOCK
  5
1C
330
1B
100
AcDbEntity
 67
     1
  8
0
100
AcDbBlockBegin
  2
*Paper_Space
 70
     0
 71
     0
 10
0.0
 20
0.0
 30
0.0
  3
*Paper_Space
  1

  0
ENDBLK
  5
1D
330
1B
100
AcDbEntity
 67
     1
  8
0
100
AcDbBlockEnd
  0
BLOCK
  5
24
330
23
100
AcDbEntity
  8
0
100
AcDbBlockBegin
  2
*Paper_Space0
 70
     0
 71
     0
 10
0.0
 20
0.0
 30
0.0
  3
*Paper_Space0
  1

  0
ENDBLK
  5
25
330
23
100
AcDbEntity
  8
0
100
AcDbBlockEnd
  0
BLOCK
  5
37
330
36
100
AcDbEntity
  8
0
100
AcDbBlockBegin
  2
78-167
 70
     0
 71
     0
 10
334.8834491616931
 20
406.7622305915039
 30
0.0
  3
78-167
  1

  0
LINE
  5
5A
330
36
100
AcDbEntity
  8
1
  6
Continuous
 62
     7
100
AcDbLine
 10
149.621883097214
 20
678.4110164489206
 30
0.0
 11
209.0218830972141
 21
678.4110164489206
 31
0.0
  0
LINE
  5
5B
330
36
100
AcDbEntity
  8
1
  6
Continuous
 62
     7
100
AcDbLine
 10
168.7218830972141
 20
662.4110164489206
 30
0.0
 11
168.9218830972141
 21
662.4110164489206
 31
0.0
  0
LINE
  5
5C
330
36
100
AcDbEntity
  8
1
  6
Continuous
 62
     7
100
AcDbLine
 10
167.1177146205267
 20
662.4110164489206
 30
0.0
 11
190.071883097214
 21
662.4110164489206
 31
0.0
  0
LINE
  5
5D
330
36
100
AcDbEntity
  8
1
  6
Continuous
 62
     7
100
AcDbLine
 10
149.621883097214
 20
678.4110164489206
 30
0.0
 11
149.321883097214
 21
678.4110164489206
 31
0.0
  0
LINE
  5
5E
330
36
100
AcDbEntity
  8
1
  6
Continuous
 62
     7
100
AcDbLine
 10
149.321883097214
 20
678.4110164489206
 30
0.0
 11
149.321883097214
 21
676.4110164489206
 31
0.0
  0
LINE
  5
5F
330
36
100
AcDbEntity
  8
1
  6
Continuous
 62
     7
100
AcDbLine
 10
168.571883097214
 20
662.4110164489206
 30
0.0
 11
168.7218830972141
 21
662.4110164489206
 31
0.0
  0
LINE
  5
60
330
36
100
AcDbEntity
  8
1
  6
Continuous
 62
     7
100
AcDbLine
 10
209.321883097214
 20
676.4110164489206
 30
0.0
 11
209.321883097214
 21
678.4110164489206
 31
0.0
  0
LINE
  5
61
330
36
100
AcDbEntity
  8
1
  6
Continuous
 62
     7
100
AcDbLine
 10
209.321883097214
 20
678.4110164489206
 30
0.0
 11
209.0218830972141
 21
678.4110164489206
 31
0.0
  0
LINE
  5
62
330
36
100
AcDbEntity
  8
1
  6
Continuous
 62
     7
100
AcDbLine
 10
190.071883097214
 20
662.4110164489206
 30
0.0
 11
191.5260515739013
 21
662.4110164489206
 31
0.0
  0
LINE
  5
63
330
36
100
AcDbEntity
  8
1
  6
Continuous
 62
     7
100
AcDbLine
 10
373.9627668027711
 20
152.2880585002955
 30
0.0
 11
373.9627668027711
 21
150.8338900236082
 31
0.0
  0
LINE
  5
64
330
36
100
AcDbEntity
  8
1
  6
Continuous
 62
     7
100
AcDbLine
 10
389.9627668027711
 20
133.0380585002955
 30
0.0
 11
389.9627668027711
 21
133.3380585002955
 31
0.0
  0
LINE
  5
65
330
36
100
AcDbEntity
  8
1
  6
Continuous
 62
     7
100
AcDbLine
 10
387.9627668027711
 20
133.0380585002955
 30
0.0
 11
389.9627668027711
 21
133.0380585002955
 31
0.0
  0
LINE
  5
66
330
36
100
AcDbEntity
  8
1
  6
Continuous
 62
     7
100
AcDbLine
 10
373.9627668027711
 20
173.7880585002956
 30
0.0
 11
373.9627668027711
 21
173.6380585002955
 31
0.0
  0
LINE
  5
67
330
36
100
AcDbEntity
  8
1
  6
Continuous
 62
     7
100
AcDbLine
 10
389.9627668027711
 20
193.0380585002956
 30
0.0
 11
387.9627668027711
 21
193.0380585002956
 31
0.0
  0
LINE
  5
68
330
36
100
AcDbEntity
  8
1
  6
Continuous
 62
     7
100
AcDbLine
 10
389.9627668027711
 20
192.7380585002956
 30
0.0
 11
389.9627668027711
 21
193.0380585002956
 31
0.0
  0
LINE
  5
69
330
36
100
AcDbEntity
  8
1
  6
Continuous
 62
     7
100
AcDbLine
 10
373.9627668027711
 20
175.2422269769829
 30
0.0
 11
373.9627668027711
 21
152.2880585002955
 31
0.0
  0
LINE
  5
6A
330
36
100
AcDbEntity
  8
1
  6
Continuous
 62
     7
100
AcDbLine
 10
373.9627668027711
 20
173.6380585002955
 30
0.0
 11
373.9627668027711
 21
173.4380585002955
 31
0.0
  0
LINE
  5
6B
330
36
100
AcDbEntity
  8
1
  6
Continuous
 62
     7
100
AcDbLine
 10
389.9627668027711
 20
192.7380585002956
 30
0.0
 11
389.9627668027711
 21
133.3380585002955
 31
0.0
  0
ARC
  5
6C
330
36
100
AcDbEntity
  8
1
  6
Continuous
 62
     7
100
AcDbCircle
 10
167.1177146205267
 20
687.4110164489206
 30
0.0
 40
25.00000000000015
100
AcDbArc
 50
-113.5564643091009
 51
-90.0
  0
ARC
  5
6D
330
36
100
AcDbEntity
  8
1
  6
Continuous
 62
     7
100
AcDbCircle
 10
162.321883097214
 20
676.4110164489206
 30
0.0
 40
13.0
100
AcDbArc
 50
180.0
 51
-113.5564643091007
  0
ARC
  5
6E
330
36
100
AcDbEntity
  8
1
  6
Continuous
 62
     7
100
AcDbCircle
 10
196.321883097214
 20
676.4110164489206
 30
0.0
 40
13.00000000000023
100
AcDbArc
 50
-66.44353569089851
 51
0.0
  0
ARC
  5
6F
330
36
100
AcDbEntity
  8
1
  6
Continuous
 62
     7
100
AcDbCircle
 10
191.5260515739013
 20
687.4110164489206
 30
0.0
 40
25.0
100
AcDbArc
 50
-90.0
 51
-66.44353569089867
  0
ARC
  5
70
330
36
100
AcDbEntity
  8
1
  6
Continuous
 62
     7
100
AcDbCircle
 10
179.321883097214
 20
163.0380585002957
 30
0.0
 40
30.0
100
AcDbArc
 50
0.0
 51
67.45968953648337
  0
ARC
  5
71
330
36
100
AcDbEntity
  8
1
  6
Continuous
 62
     7
100
AcDbCircle
 10
179.321883097214
 20
163.0380585002957
 30
0.0
 40
29.99999999999999
100
AcDbArc
 50
112.5403104635167
 51
0.0
  0
ARC
  5
72
330
36
100
AcDbEntity
  8
1
  6
Continuous
 62
     7
100
AcDbCircle
 10
398.9627668027711
 20
150.8338900236082
 30
0.0
 40
25.0
100
AcDbArc
 50
180.0
 51
-156.443535690899
  0
ARC
  5
73
330
36
100
AcDbEntity
  8
1
  6
Continuous
 62
     7
100
AcDbCircle
 10
387.9627668027711
 20
146.0380585002955
 30
0.0
 40
13.0000000000001
100
AcDbArc
 50
-156.4435356908992
 51
-90.0
  0
ARC
  5
74
330
36
100
AcDbEntity
  8
1
  6
Continuous
 62
     7
100
AcDbCircle
 10
387.9627668027711
 20
180.0380585002956
 30
0.0
 40
13.0
100
AcDbArc
 50
90.0
 51
156.4435356908992
  0
ARC
  5
75
330
36
100
AcDbEntity
  8
1
  6
Continuous
 62
     7
100
AcDbCircle
 10
398.9627668027711
 20
175.2422269769829
 30
0.0
 40
25.0000000000001
100
AcDbArc
 50
156.443535690899
 51
180.0
  0
ENDBLK
  5
38
330
36
100
AcDbEntity
  8
0
100
AcDbBlockEnd
  0
BLOCK
  5
3A
330
39
100
AcDbEntity
  8
0
100
AcDbBlockBegin
  2
64-7-13-55-M11
 70
     0
 71
     0
 10
191.136286440474
 20
730.2773006344362
 30
0.0
  3
64-7-13-55-M11
  1

  0
LINE
  5
76
330
39
100
AcDbEntity
  8
1
  6
Continuous
 62
     7
100
AcDbLine
 10
188.0666950993665
 20
691.7701327433636
 30
0.0
 11
188.0649945435854
 21
691.7701327433636
 31
0.0
  0
LINE
  5
77
330
39
100
AcDbEntity
  8
1
  6
Continuous
 62
     7
100
AcDbLine
 10
188.0649945435854
 20
691.7701327433636
 30
0.0
 11
187.5718830972143
 21
691.7701327433636
 31
0.0
  0
LINE
  5
78
330
39
100
AcDbEntity
  8
1
  6
Continuous
 62
     7
100
AcDbLine
 10
189.2914918577484
 20
690.6098308140638
 30
0.0
 11
189.5530909045639
 21
678.4110164489205
 31
0.0
  0
LINE
  5
79
330
39
100
AcDbEntity
  8
1
  6
Continuous
 62
     7
100
AcDbLine
 10
188.0666950993665
 20
691.7701327433636
 30
0.0
 11
189.2914918577484
 21
690.6098308140638
 31
0.0
  0
LINE
  5
7A
330
39
100
AcDbEntity
  8
1
  6
Continuous
 62
     2
100
AcDbLine
 10
188.0649945435854
 20
691.7701327433636
 30
0.0
 11
188.3888996606285
 21
678.4110164489205
 31
0.0
  0
LINE
  5
7B
330
39
100
AcDbEntity
  8
1
  6
Continuous
 62
     2
100
AcDbLine
 10
188.4044385261556
 20
650.2701327433636
 30
0.0
 11
189.621883097214
 21
652.3788085958358
 31
0.0
  0
LINE
  5
7C
330
39
100
AcDbEntity
  8
1
  6
Continuous
 62
     2
100
AcDbLine
 10
188.392315526778
 20
650.2701327433636
 30
0.0
 11
188.2832085323805
 21
645.7701327433633
 31
0.0
  0
LINE
  5
7D
330
39
100
AcDbEntity
  8
1
  6
Continuous
 62
     7
100
AcDbLine
 10
189.6218830972143
 20
652.8788085958358
 30
0.0
 11
189.5668344177836
 21
650.7701327433636
 31
0.0
  0
LINE
  5
7E
330
39
100
AcDbEntity
  8
1
  6
Continuous
 62
     7
100
AcDbLine
 10
170.2393276682728
 20
650.2701327433636
 30
0.0
 11
189.5668344177836
 21
650.2701327433636
 31
0.0
  0
LINE
  5
7F
330
39
100
AcDbEntity
  8
1
  6
Continuous
 62
     7
100
AcDbLine
 10
189.5668344177836
 20
650.7701327433636
 30
0.0
 11
189.4596112733923
 21
645.7701327433633
 31
0.0
  0
LINE
  5
80
330
39
100
AcDbEntity
  8
1
  6
PHANTOM
 62
     4
100
AcDbLine
 10
179.3218830972142
 20
633.9697730311336
 30
0.0
 11
179.3218830972142
 21
694.4517874196226
 31
0.0
  0
LINE
  5
81
330
39
100
AcDbEntity
  8
1
  6
Continuous
 62
     7
100
AcDbLine
 10
169.0218830972143
 20
652.8788085958361
 30
0.0
 11
169.0218830972144
 21
662.4110164489205
 31
0.0
  0
LINE
  5
82
330
39
100
AcDbEntity
  8
1
  6
Continuous
 62
     7
100
AcDbLine
 10
169.0769317766447
 20
650.2701327433636
 30
0.0
 11
170.2393276682728
 21
650.2701327433636
 31
0.0
  0
LINE
  5
83
330
39
100
AcDbEntity
  8
1
  6
Continuous
 62
     7
100
AcDbLine
 10
169.0769317766447
 20
650.7701327433636
 30
0.0
 11
169.0218830972143
 21
652.8788085958361
 31
0.0
  0
LINE
  5
84
330
39
100
AcDbEntity
  8
1
  6
Continuous
 62
     2
100
AcDbLine
 10
169.0218830972143
 20
652.3788085958358
 30
0.0
 11
170.2393276682728
 21
650.2701327433636
 31
0.0
  0
LINE
  5
85
330
39
100
AcDbEntity
  8
1
  6
Continuous
 62
     7
100
AcDbLine
 10
169.3522743366799
 20
690.6098308140638
 30
0.0
 11
170.5770710950618
 21
691.7701327433636
 31
0.0
  0
LINE
  5
86
330
39
100
AcDbEntity
  8
1
  6
Continuous
 62
     7
100
AcDbLine
 10
187.5718830972143
 20
691.7701327433636
 30
0.0
 11
171.0718830972141
 21
691.7701327433636
 31
0.0
  0
LINE
  5
87
330
39
100
AcDbEntity
  8
1
  6
Continuous
 62
     7
100
AcDbLine
 10
171.0718830972141
 20
691.7701327433636
 30
0.0
 11
170.5787716508429
 21
691.7701327433638
 31
0.0
  0
LINE
  5
88
330
39
100
AcDbEntity
  8
1
  6
Continuous
 62
     7
100
AcDbLine
 10
170.5787716508429
 20
691.7701327433638
 30
0.0
 11
170.5770710950618
 21
691.7701327433636
 31
0.0
  0
LINE
  5
89
330
39
100
AcDbEntity
  8
1
  6
Continuous
 62
     7
100
AcDbLine
 10
169.3522743366799
 20
690.6098308140638
 30
0.0
 11
189.2914918577484
 21
690.6098308140638
 31
0.0
  0
LINE
  5
8A
330
39
100
AcDbEntity
  8
1
  6
Continuous
 62
     7
100
AcDbLine
 10
189.621883097214
 20
662.4110164489205
 30
0.0
 11
189.6218830972143
 21
652.8788085958358
 31
0.0
  0
LINE
  5
8B
330
39
100
AcDbEntity
  8
1
  6
Continuous
 62
     2
100
AcDbLine
 10
170.2548665337999
 20
678.4110164489205
 30
0.0
 11
170.5787716508429
 21
691.7701327433638
 31
0.0
  0
LINE
  5
8C
330
39
100
AcDbEntity
  8
1
  6
Continuous
 62
     7
100
AcDbLine
 10
169.0906752898645
 20
678.4110164489205
 30
0.0
 11
169.3522743366799
 21
690.6098308140638
 31
0.0
  0
LINE
  5
8D
330
39
100
AcDbEntity
  8
1
  6
Continuous
 62
     7
100
AcDbLine
 10
169.1841549210361
 20
645.7701327433633
 30
0.0
 11
169.0769317766447
 21
650.7701327433636
 31
0.0
  0
LINE
  5
8E
330
39
100
AcDbEntity
  8
1
  6
Continuous
 62
     2
100
AcDbLine
 10
170.3605576620479
 20
645.7701327433633
 30
0.0
 11
170.2514506676504
 21
650.2701327433636
 31
0.0
  0
LINE
  5
8F
330
39
100
AcDbEntity
  8
1
  6
Continuous
 62
     2
100
AcDbLine
 10
357.3218830972141
 20
171.9993839354618
 30
0.0
 11
361.8218830972141
 21
172.1084909298593
 31
0.0
  0
LINE
  5
90
330
39
100
AcDbEntity
  8
1
  6
Continuous
 62
     7
100
AcDbLine
 10
357.3218830972141
 20
173.1757866764737
 30
0.0
 11
362.3218830972141
 21
173.2830098208651
 31
0.0
  0
LINE
  5
91
330
39
100
AcDbEntity
  8
1
  6
Continuous
 62
     7
100
AcDbLine
 10
389.9627668027711
 20
173.2692663076453
 30
0.0
 11
402.1615811679144
 21
173.0076672608299
 31
0.0
  0
LINE
  5
92
330
39
100
AcDbEntity
  8
1
  6
Continuous
 62
     2
100
AcDbLine
 10
389.9627668027711
 20
172.1050750637098
 30
0.0
 11
403.3218830972142
 21
171.7811699466668
 31
0.0
  0
LINE
  5
93
330
39
100
AcDbEntity
  8
1
  6
Continuous
 62
     7
100
AcDbLine
 10
373.9627668027711
 20
152.7380585002957
 30
0.0
 11
364.4305589496864
 21
152.7380585002955
 31
0.0
  0
LINE
  5
94
330
39
100
AcDbEntity
  8
1
  6
Continuous
 62
     7
100
AcDbLine
 10
402.1615811679144
 20
173.0076672608299
 30
0.0
 11
402.1615811679144
 21
153.0684497397613
 31
0.0
  0
LINE
  5
95
330
39
100
AcDbEntity
  8
1
  6
Continuous
 62
     7
100
AcDbLine
 10
403.3218830972142
 20
171.7811699466668
 30
0.0
 11
403.3218830972141
 21
171.782870502448
 31
0.0
  0
LINE
  5
96
330
39
100
AcDbEntity
  8
1
  6
Continuous
 62
     7
100
AcDbLine
 10
403.3218830972141
 20
171.2880585002957
 30
0.0
 11
403.3218830972142
 21
171.7811699466668
 31
0.0
  0
LINE
  5
97
330
39
100
AcDbEntity
  8
1
  6
Continuous
 62
     7
100
AcDbLine
 10
403.3218830972141
 20
154.7880585002955
 30
0.0
 11
403.3218830972141
 21
171.2880585002957
 31
0.0
  0
LINE
  5
98
330
39
100
AcDbEntity
  8
1
  6
Continuous
 62
     7
100
AcDbLine
 10
402.1615811679144
 20
173.0076672608299
 30
0.0
 11
403.3218830972141
 21
171.782870502448
 31
0.0
  0
LINE
  5
99
330
39
100
AcDbEntity
  8
1
  6
Continuous
 62
     2
100
AcDbLine
 10
363.9305589496864
 20
173.3380585002955
 30
0.0
 11
361.8218830972141
 21
172.1206139292369
 31
0.0
  0
LINE
  5
9A
330
39
100
AcDbEntity
  8
1
  6
Continuous
 62
     7
100
AcDbLine
 10
362.3218830972141
 20
173.2830098208651
 30
0.0
 11
364.4305589496867
 21
173.3380585002955
 31
0.0
  0
LINE
  5
9B
330
39
100
AcDbEntity
  8
1
  6
Continuous
 62
     7
100
AcDbLine
 10
361.8218830972141
 20
173.2830098208651
 30
0.0
 11
361.8218830972141
 21
172.1206139292369
 31
0.0
  0
LINE
  5
9C
330
39
100
AcDbEntity
  8
1
  6
Continuous
 62
     7
100
AcDbLine
 10
364.4305589496867
 20
173.3380585002955
 30
0.0
 11
373.9627668027711
 21
173.3380585002954
 31
0.0
  0
LINE
  5
9D
330
39
100
AcDbEntity
  8
1
  6
PHANTOM
 62
     4
100
AcDbLine
 10
345.5215233849842
 20
163.0380585002956
 30
0.0
 11
406.0035377734732
 21
163.0380585002956
 31
0.0
  0
LINE
  5
9E
330
39
100
AcDbEntity
  8
1
  6
Continuous
 62
     7
100
AcDbLine
 10
362.3218830972141
 20
152.7931071797261
 30
0.0
 11
357.3218830972141
 21
152.9003303241175
 31
0.0
  0
LINE
  5
9F
330
39
100
AcDbEntity
  8
1
  6
Continuous
 62
     7
100
AcDbLine
 10
361.8218830972141
 20
172.1206139292369
 30
0.0
 11
361.8218830972141
 21
152.7931071797261
 31
0.0
  0
LINE
  5
A0
330
39
100
AcDbEntity
  8
1
  6
Continuous
 62
     7
100
AcDbLine
 10
364.4305589496864
 20
152.7380585002955
 30
0.0
 11
362.3218830972141
 21
152.7931071797261
 31
0.0
  0
LINE
  5
A1
330
39
100
AcDbEntity
  8
1
  6
Continuous
 62
     2
100
AcDbLine
 10
361.8218830972141
 20
153.9676260707317
 30
0.0
 11
357.3218830972141
 21
154.0767330651293
 31
0.0
  0
LINE
  5
A2
330
39
100
AcDbEntity
  8
1
  6
Continuous
 62
     2
100
AcDbLine
 10
361.8218830972141
 20
153.9555030713541
 30
0.0
 11
363.9305589496864
 21
152.7380585002957
 31
0.0
  0
LINE
  5
A3
330
39
100
AcDbEntity
  8
1
  6
Continuous
 62
     2
100
AcDbLine
 10
403.3218830972141
 20
154.2949470539243
 30
0.0
 11
389.9627668027711
 21
153.9710419368813
 31
0.0
  0
LINE
  5
A4
330
39
100
AcDbEntity
  8
1
  6
Continuous
 62
     7
100
AcDbLine
 10
403.3218830972141
 20
154.2932464981432
 30
0.0
 11
402.1615811679144
 21
153.0684497397613
 31
0.0
  0
LINE
  5
A5
330
39
100
AcDbEntity
  8
1
  6
Continuous
 62
     7
100
AcDbLine
 10
402.1615811679144
 20
153.0684497397613
 30
0.0
 11
389.9627668027711
 21
152.8068506929459
 31
0.0
  0
LINE
  5
A6
330
39
100
AcDbEntity
  8
1
  6
Continuous
 62
     7
100
AcDbLine
 10
403.3218830972141
 20
154.2949470539243
 30
0.0
 11
403.3218830972141
 21
154.7880585002955
 31
0.0
  0
LINE
  5
A7
330
39
100
AcDbEntity
  8
1
  6
Continuous
 62
     7
100
AcDbLine
 10
403.3218830972141
 20
154.2932464981432
 30
0.0
 11
403.3218830972141
 21
154.2949470539243
 31
0.0
  0
ENDBLK
  5
3B
330
39
100
AcDbEntity
  8
0
100
AcDbBlockEnd
  0
BLOCK
  5
3D
330
3C
100
AcDbEntity
  8
0
100
AcDbBlockBegin
  2
V22-0A-13-__________
 70
     0
 71
     0
 10
61.99999999999999
 20
612.0
 30
0.0
  3
V22-0A-13-__________
  1

  0
LINE
  5
A8
330
3C
100
AcDbEntity
  8
1
  6
Continuous
 62
     7
100
AcDbLine
 10
168.821883097214
 20
187.824909221239
 30
0.0
 11
168.821883097214
 21
184.0380585002956
 31
0.0
  0
LINE
  5
A9
330
3C
100
AcDbEntity
  8
1
  6
Continuous
 62
     2
100
AcDbLine
 10
188.659883097214
 20
187.5380585002956
 30
0.0
 11
188.659883097214
 21
184.0380585002956
 31
0.0
  0
LINE
  5
AA
330
3C
100
AcDbEntity
  8
1
  6
Continuous
 62
     7
100
AcDbLine
 10
189.821883097214
 20
187.8227412112232
 30
0.0
 11
189.821883097214
 21
184.0380585002956
 31
0.0
  0
LINE
  5
AB
330
3C
100
AcDbEntity
  8
1
  6
Continuous
 62
     7
100
AcDbLine
 10
168.1256699340719
 20
171.5850288155813
 30
0.0
 11
166.321883097214
 21
170.5436119997607
 31
0.0
  0
LINE
  5
AC
330
3C
100
AcDbEntity
  8
1
  6
Continuous
 62
     7
100
AcDbLine
 10
169.983883097214
 20
184.0380585002956
 30
0.0
 11
188.659883097214
 21
184.0380585002956
 31
0.0
  0
LINE
  5
AD
330
3C
100
AcDbEntity
  8
1
  6
Continuous
 62
     7
100
AcDbLine
 10
192.321883097214
 20
170.5436119997607
 30
0.0
 11
190.5180962603562
 21
171.5850288155813
 31
0.0
  0
LINE
  5
AE
330
3C
100
AcDbEntity
  8
1
  6
PHANTOM
 62
     4
100
AcDbLine
 10
163.321883097214
 20
163.0380585002956
 30
0.0
 11
194.321883097214
 21
163.0380585002956
 31
0.0
  0
LINE
  5
AF
330
3C
100
AcDbEntity
  8
1
  6
Continuous
 62
     7
100
AcDbLine
 10
168.821883097214
 20
184.0380585002956
 30
0.0
 11
169.983883097214
 21
184.0380585002956
 31
0.0
  0
LINE
  5
B0
330
3C
100
AcDbEntity
  8
1
  6
Continuous
 62
     7
100
AcDbLine
 10
189.821883097214
 20
184.0380585002956
 30
0.0
 11
189.821883097214
 21
182.0254154619006
 31
0.0
  0
LINE
  5
B1
330
3C
100
AcDbEntity
  8
1
  6
Continuous
 62
     7
100
AcDbLine
 10
188.659883097214
 20
184.0380585002956
 30
0.0
 11
189.821883097214
 21
184.0380585002956
 31
0.0
  0
LINE
  5
B2
330
3C
100
AcDbEntity
  8
1
  6
Continuous
 62
     7
100
AcDbLine
 10
168.821883097214
 20
184.0380585002956
 30
0.0
 11
168.821883097214
 21
182.0254154619006
 31
0.0
  0
LINE
  5
B3
330
3C
100
AcDbEntity
  8
1
  6
Continuous
 62
     2
100
AcDbLine
 10
169.983883097214
 20
184.0380585002956
 30
0.0
 11
169.983883097214
 21
187.5380585002956
 31
0.0
  0
LINE
  5
B4
330
3C
100
AcDbEntity
  8
1
  6
Continuous
 62
     2
100
AcDbLine
 10
168.821883097214
 20
182.0254154619006
 30
0.0
 11
169.983883097214
 21
184.0380585002956
 31
0.0
  0
LINE
  5
B5
330
3C
100
AcDbEntity
  8
1
  6
Continuous
 62
     2
100
AcDbLine
 10
188.659883097214
 20
184.0380585002956
 30
0.0
 11
189.821883097214
 21
182.0254154619006
 31
0.0
  0
LINE
  5
B6
330
3C
100
AcDbEntity
  8
1
  6
Continuous
 62
     7
100
AcDbLine
 10
179.321883097214
 20
148.0269515013654
 30
0.0
 11
192.321883097214
 21
155.5325050008305
 31
0.0
  0
LINE
  5
B7
330
3C
100
AcDbEntity
  8
1
  6
Continuous
 62
     7
100
AcDbLine
 10
166.321883097214
 20
155.5325050008305
 30
0.0
 11
179.321883097214
 21
148.0269515013654
 31
0.0
  0
LINE
  5
B8
330
3C
100
AcDbEntity
  8
1
  6
Continuous
 62
     7
100
AcDbLine
 10
166.321883097214
 20
170.5436119997607
 30
0.0
 11
166.321883097214
 21
155.5325050008305
 31
0.0
  0
LINE
  5
B9
330
3C
100
AcDbEntity
  8
1
  6
PHANTOM
 62
     4
100
AcDbLine
 10
179.321883097214
 20
195.0380585002956
 30
0.0
 11
179.321883097214
 21
145.7880585002956
 31
0.0
  0
LINE
  5
BA
330
3C
100
AcDbEntity
  8
1
  6
Continuous
 62
     7
100
AcDbLine
 10
192.321883097214
 20
155.5325050008305
 30
0.0
 11
192.321883097214
 21
170.5436119997607
 31
0.0
  0
ARC
  5
BB
330
3C
100
AcDbEntity
  8
1
  6
Continuous
 62
     7
100
AcDbCircle
 10
268.4518141940668
 20
182.0254154619007
 30
0.0
 40
78.6299310968528
100
AcDbArc
 50
-179.9999999999999
 51
-172.3698027158716
  0
ARC
  5
BC
330
3C
100
AcDbEntity
  8
1
  6
Continuous
 62
     7
100
AcDbCircle
 10
90.19195200036123
 20
182.0254154619007
 30
0.0
 40
78.62993109685283
100
AcDbArc
 50
-7.63019728412837
 51
-0.00000000000008
  0
ENDBLK
  5
3E
330
3C
100
AcDbEntity
  8
0
100
AcDbBlockEnd
  0
BLOCK
  5
40
330
3F
100
AcDbEntity
  8
0
100
AcDbBlockBegin
  2
V22-0A-13
 70
     0
 71
     0
 10
195.738570938733
 20
737.777740897449
 30
0.0
  3
V22-0A-13
  1

  0
LINE
  5
BD
330
3F
100
AcDbEntity
  8
1
  6
Continuous
 62
     7
100
AcDbLine
 10
185.671883097214
 20
602.7701327433636
 30
0.0
 11
190.5088830972141
 21
602.7701327433636
 31
0.0
  0
LINE
  5
BE
330
3F
100
AcDbEntity
  8
1
  6
Continuous
 62
     2
100
AcDbLine
 10
168.134883097214
 20
601.3401327433636
 30
0.0
 11
168.134883097214
 21
602.7701327433636
 31
0.0
  0
LINE
  5
BF
330
3F
100
AcDbEntity
  8
1
  6
Continuous
 62
     7
100
AcDbLine
 10
191.3218830972141
 20
601.3401327433636
 30
0.0
 11
191.3218830972141
 21
602.7701327433636
 31
0.0
  0
LINE
  5
C0
330
3F
100
AcDbEntity
  8
1
  6
Continuous
 62
     7
100
AcDbLine
 10
339.8218830972141
 20
187.5380585002956
 30
0.0
 11
339.8218830972141
 21
184.0380585002956
 31
0.0
  0
LINE
  5
C1
330
3F
100
AcDbEntity
  8
1
  6
Continuous
 62
     2
100
AcDbLine
 10
338.6598830972141
 20
187.5380585002956
 30
0.0
 11
338.6598830972141
 21
184.0380585002956
 31
0.0
  0
LINE
  5
C2
330
3F
100
AcDbEntity
  8
1
  6
Continuous
 62
     7
100
AcDbLine
 10
318.8218830972141
 20
187.5380585002956
 30
0.0
 11
318.8218830972141
 21
184.0380585002956
 31
0.0
  0
LINE
  5
C3
330
3F
100
AcDbEntity
  8
1
  6
Continuous
 62
     7
100
AcDbLine
 10
312.8921918090291
 20
151.0380585002956
 30
0.0
 11
314.3218830972141
 21
151.0380585002956
 31
0.0
  0
LINE
  5
C4
330
3F
100
AcDbEntity
  8
1
  6
Continuous
 62
     2
100
AcDbLine
 10
312.8921918090291
 20
174.2250585002958
 30
0.0
 11
314.3218830972141
 21
174.2250585002958
 31
0.0
  0
LINE
  5
C5
330
3F
100
AcDbEntity
  8
1
  6
PHANTOM
 62
     4
100
AcDbLine
 10
179.3218830972141
 20
651.7701327433636
 30
0.0
 11
179.3218830972141
 21
590.7701327433636
 31
0.0
  0
LINE
  5
C6
330
3F
100
AcDbEntity
  8
1
  6
Continuous
 62
     7
100
AcDbLine
 10
179.3218830972141
 20
638.7701327433636
 30
0.0
 11
179.3218830972141
 21
643.5090257444333
 31
0.0
  0
LINE
  5
C7
330
3F
100
AcDbEntity
  8
1
  6
Continuous
 62
     7
100
AcDbLine
 10
314.3218830972141
 20
151.8510585002956
 30
0.0
 11
314.3218830972141
 21
174.2250585002958
 31
0.0
  0
LINE
  5
C8
330
3F
100
AcDbEntity
  8
1
  6
Continuous
 62
     7
100
AcDbLine
 10
319.9838830972141
 20
184.0380585002956
 30
0.0
 11
338.6598830972141
 21
184.0380585002956
 31
0.0
  0
LINE
  5
C9
330
3F
100
AcDbEntity
  8
1
  6
Continuous
 62
     7
100
AcDbLine
 10
355.0607760982839
 20
155.5325050008305
 30
0.0
 11
350.3218830972141
 21
155.5325050008305
 31
0.0
  0
LINE
  5
CA
330
3F
100
AcDbEntity
  8
1
  6
Continuous
 62
     7
100
AcDbLine
 10
355.0607760982839
 20
170.5436119997607
 30
0.0
 11
350.3218830972141
 21
170.5436119997607
 31
0.0
  0
LINE
  5
CB
330
3F
100
AcDbEntity
  8
1
  6
PHANTOM
 62
     4
100
AcDbLine
 10
360.3218830972141
 20
163.0380585002956
 30
0.0
 11
305.3218830972141
 21
163.0380585002956
 31
0.0
  0
LINE
  5
CC
330
3F
100
AcDbEntity
  8
1
  6
PHANTOM
 62
     4
100
AcDbLine
 10
163.821883097214
 20
617.7701327433636
 30
0.0
 11
194.8218830972141
 21
617.7701327433636
 31
0.0
  0
LINE
  5
CD
330
3F
100
AcDbEntity
  8
1
  6
Continuous
 62
     7
100
AcDbLine
 10
339.8218830972141
 20
182.0254154619006
 30
0.0
 11
339.8218830972141
 21
180.5380585002957
 31
0.0
  0
LINE
  5
CE
330
3F
100
AcDbEntity
  8
1
  6
Continuous
 62
     7
100
AcDbLine
 10
339.8218830972141
 20
184.0380585002956
 30
0.0
 11
339.8218830972141
 21
182.0254154619006
 31
0.0
  0
LINE
  5
CF
330
3F
100
AcDbEntity
  8
1
  6
Continuous
 62
     7
100
AcDbLine
 10
318.8218830972141
 20
184.0380585002956
 30
0.0
 11
318.8218830972141
 21
182.0254154619006
 31
0.0
  0
LINE
  5
D0
330
3F
100
AcDbEntity
  8
1
  6
Continuous
 62
     7
100
AcDbLine
 10
355.0607760982838
 20
148.0269515013654
 30
0.0
 11
350.3218830972141
 21
148.0269515013654
 31
0.0
  0
LINE
  5
D1
330
3F
100
AcDbEntity
  8
1
  6
Continuous
 62
     7
100
AcDbLine
 10
357.3218830972141
 20
150.2880585002956
 30
0.0
 11
355.0607760982838
 21
148.0269515013654
 31
0.0
  0
LINE
  5
D2
330
3F
100
AcDbEntity
  8
1
  6
Continuous
 62
     7
100
AcDbLine
 10
355.0607760982838
 20
178.0491654992259
 30
0.0
 11
350.3218830972141
 21
178.0491654992259
 31
0.0
  0
LINE
  5
D3
330
3F
100
AcDbEntity
  8
1
  6
Continuous
 62
     7
100
AcDbLine
 10
355.0607760982838
 20
178.0491654992259
 30
0.0
 11
357.3218830972141
 21
175.7880585002956
 31
0.0
  0
LINE
  5
D4
330
3F
100
AcDbEntity
  8
1
  6
Continuous
 62
     7
100
AcDbLine
 10
314.3218830972141
 20
175.0380585002957
 30
0.0
 11
312.8921918090291
 21
175.0380585002957
 31
0.0
  0
LINE
  5
D5
330
3F
100
AcDbEntity
  8
1
  6
Continuous
 62
     7
100
AcDbLine
 10
314.3218830972141
 20
174.2250585002958
 30
0.0
 11
314.3218830972141
 21
175.0380585002957
 31
0.0
  0
LINE
  5
D6
330
3F
100
AcDbEntity
  8
1
  6
Continuous
 62
     7
100
AcDbLine
 10
315.7300404037676
 20
175.0380585002957
 30
0.0
 11
314.3218830972141
 21
175.0380585002957
 31
0.0
  0
LINE
  5
D7
330
3F
100
AcDbEntity
  8
1
  6
Continuous
 62
     7
100
AcDbLine
 10
318.8218830972141
 20
184.0380585002956
 30
0.0
 11
319.9838830972141
 21
184.0380585002956
 31
0.0
  0
LINE
  5
D8
330
3F
100
AcDbEntity
  8
1
  6
Continuous
 62
     7
100
AcDbLine
 10
338.6598830972141
 20
184.0380585002956
 30
0.0
 11
339.8218830972141
 21
184.0380585002956
 31
0.0
  0
LINE
  5
D9
330
3F
100
AcDbEntity
  8
1
  6
Continuous
 62
     7
100
AcDbLine
 10
314.3218830972141
 20
151.0380585002956
 30
0.0
 11
315.7300404037676
 21
151.0380585002956
 31
0.0
  0
LINE
  5
DA
330
3F
100
AcDbEntity
  8
1
  6
Continuous
 62
     7
100
AcDbLine
 10
314.3218830972141
 20
151.0380585002956
 30
0.0
 11
314.3218830972141
 21
151.8510585002956
 31
0.0
  0
LINE
  5
DB
330
3F
100
AcDbEntity
  8
1
  6
Continuous
 62
     2
100
AcDbLine
 10
315.7300404037676
 20
175.0380585002957
 30
0.0
 11
314.3218830972141
 21
174.2250585002958
 31
0.0
  0
LINE
  5
DC
330
3F
100
AcDbEntity
  8
1
  6
Continuous
 62
     2
100
AcDbLine
 10
319.9838830972141
 20
184.0380585002956
 30
0.0
 11
319.9838830972141
 21
187.5380585002956
 31
0.0
  0
LINE
  5
DD
330
3F
100
AcDbEntity
  8
1
  6
Continuous
 62
     2
100
AcDbLine
 10
318.8218830972141
 20
182.0254154619006
 30
0.0
 11
319.9838830972141
 21
184.0380585002956
 31
0.0
  0
LINE
  5
DE
330
3F
100
AcDbEntity
  8
1
  6
Continuous
 62
     2
100
AcDbLine
 10
338.6598830972141
 20
184.0380585002956
 30
0.0
 11
339.8218830972141
 21
182.0254154619006
 31
0.0
  0
LINE
  5
DF
330
3F
100
AcDbEntity
  8
1
  6
Continuous
 62
     2
100
AcDbLine
 10
314.3218830972141
 20
151.8510585002956
 30
0.0
 11
312.8921918090291
 21
151.8510585002956
 31
0.0
  0
LINE
  5
E0
330
3F
100
AcDbEntity
  8
1
  6
Continuous
 62
     2
100
AcDbLine
 10
314.3218830972141
 20
151.8510585002956
 30
0.0
 11
315.7300404037676
 21
151.0380585002956
 31
0.0
  0
LINE
  5
E1
330
3F
100
AcDbEntity
  8
1
  6
Continuous
 62
     7
100
AcDbLine
 10
357.3218830972141
 20
150.2880585002956
 30
0.0
 11
357.3218830972141
 21
175.7880585002956
 31
0.0
  0
LINE
  5
E2
330
3F
100
AcDbEntity
  8
1
  6
PHANTOM
 62
     4
100
AcDbLine
 10
329.3218830972141
 20
196.0380585002956
 30
0.0
 11
329.3218830972141
 21
145.9177367708506
 31
0.0
  0
LINE
  5
E3
330
3F
100
AcDbEntity
  8
1
  6
Continuous
 62
     7
100
AcDbLine
 10
350.3218830972141
 20
148.0269515013654
 30
0.0
 11
349.2752421923512
 21
149.0735924062283
 31
0.0
  0
LINE
  5
E4
330
3F
100
AcDbEntity
  8
1
  6
Continuous
 62
     7
100
AcDbLine
 10
350.3218830972141
 20
178.0491654992259
 30
0.0
 11
349.2752421923511
 21
177.002524594363
 31
0.0
  0
LINE
  5
E5
330
3F
100
AcDbEntity
  8
1
  6
Continuous
 62
     7
100
AcDbLine
 10
344.8218830972141
 20
175.5380585002957
 30
0.0
 11
345.7397082864184
 21
175.5380585002957
 31
0.0
  0
LINE
  5
E6
330
3F
100
AcDbEntity
  8
1
  6
Continuous
 62
     7
100
AcDbLine
 10
315.7300404037676
 20
175.0380585002957
 30
0.0
 11
316.2300404037675
 21
175.5380585002956
 31
0.0
  0
LINE
  5
E7
330
3F
100
AcDbEntity
  8
1
  6
Continuous
 62
     7
100
AcDbLine
 10
315.7300404037676
 20
151.0380585002956
 30
0.0
 11
316.2300404037676
 21
150.5380585002956
 31
0.0
  0
LINE
  5
E8
330
3F
100
AcDbEntity
  8
1
  6
Continuous
 62
     7
100
AcDbLine
 10
316.2300404037676
 20
150.5380585002956
 30
0.0
 11
345.7397082864184
 21
150.5380585002956
 31
0.0
  0
LINE
  5
E9
330
3F
100
AcDbEntity
  8
1
  6
Continuous
 62
     7
100
AcDbLine
 10
191.8218830972141
 20
604.6782900499171
 30
0.0
 11
191.8218830972141
 21
634.1879579325679
 31
0.0
  0
LINE
  5
EA
330
3F
100
AcDbEntity
  8
1
  6
Continuous
 62
     7
100
AcDbLine
 10
191.3218830972141
 20
604.1782900499171
 30
0.0
 11
191.8218830972141
 21
604.6782900499171
 31
0.0
  0
LINE
  5
EB
330
3F
100
AcDbEntity
  8
1
  6
Continuous
 62
     7
100
AcDbLine
 10
167.321883097214
 20
604.1782900499171
 30
0.0
 11
166.8218830972141
 21
604.678290049917
 31
0.0
  0
LINE
  5
EC
330
3F
100
AcDbEntity
  8
1
  6
Continuous
 62
     7
100
AcDbLine
 10
166.8218830972141
 20
604.678290049917
 30
0.0
 11
166.821883097214
 21
634.1879579325679
 31
0.0
  0
LINE
  5
ED
330
3F
100
AcDbEntity
  8
1
  6
Continuous
 62
     2
100
AcDbLine
 10
190.5088830972141
 20
602.7701327433636
 30
0.0
 11
191.3218830972141
 21
604.1782900499171
 31
0.0
  0
LINE
  5
EE
330
3F
100
AcDbEntity
  8
1
  6
Continuous
 62
     2
100
AcDbLine
 10
190.5088830972141
 20
602.7701327433636
 30
0.0
 11
190.5088830972141
 21
601.3401327433636
 31
0.0
  0
LINE
  5
EF
330
3F
100
AcDbEntity
  8
1
  6
Continuous
 62
     2
100
AcDbLine
 10
167.321883097214
 20
604.1782900499171
 30
0.0
 11
168.134883097214
 21
602.7701327433636
 31
0.0
  0
LINE
  5
F0
330
3F
100
AcDbEntity
  8
1
  6
Continuous
 62
     7
100
AcDbLine
 10
191.3218830972141
 20
602.7701327433636
 30
0.0
 11
190.5088830972141
 21
602.7701327433636
 31
0.0
  0
LINE
  5
F1
330
3F
100
AcDbEntity
  8
1
  6
Continuous
 62
     7
100
AcDbLine
 10
191.3218830972141
 20
602.7701327433636
 30
0.0
 11
191.3218830972141
 21
604.1782900499171
 31
0.0
  0
LINE
  5
F2
330
3F
100
AcDbEntity
  8
1
  6
Continuous
 62
     7
100
AcDbLine
 10
167.321883097214
 20
604.1782900499171
 30
0.0
 11
167.321883097214
 21
602.7701327433636
 31
0.0
  0
LINE
  5
F3
330
3F
100
AcDbEntity
  8
1
  6
Continuous
 62
     7
100
AcDbLine
 10
168.134883097214
 20
602.7701327433636
 30
0.0
 11
167.321883097214
 21
602.7701327433636
 31
0.0
  0
LINE
  5
F4
330
3F
100
AcDbEntity
  8
1
  6
Continuous
 62
     7
100
AcDbLine
 10
167.321883097214
 20
602.7701327433636
 30
0.0
 11
167.321883097214
 21
601.3401327433636
 31
0.0
  0
LINE
  5
F5
330
3F
100
AcDbEntity
  8
1
  6
Continuous
 62
     7
100
AcDbLine
 10
166.3218830972141
 20
645.5201327433636
 30
0.0
 11
166.5718830972141
 21
645.7701327433636
 31
0.0
  0
LINE
  5
F6
330
3F
100
AcDbEntity
  8
1
  6
Continuous
 62
     7
100
AcDbLine
 10
166.3218830972141
 20
645.5201327433636
 30
0.0
 11
166.3218830972141
 21
643.5090257444333
 31
0.0
  0
LINE
  5
F7
330
3F
100
AcDbEntity
  8
1
  6
Continuous
 62
     7
100
AcDbLine
 10
192.0718830972141
 20
645.7701327433636
 30
0.0
 11
192.321883097214
 21
645.5201327433638
 31
0.0
  0
LINE
  5
F8
330
3F
100
AcDbEntity
  8
1
  6
Continuous
 62
     7
100
AcDbLine
 10
192.321883097214
 20
645.5201327433638
 30
0.0
 11
192.321883097214
 21
636.3674074043381
 31
0.0
  0
LINE
  5
F9
330
3F
100
AcDbEntity
  8
1
  6
Continuous
 62
     7
100
AcDbLine
 10
192.0718830972141
 20
645.7701327433636
 30
0.0
 11
166.5718830972141
 21
645.7701327433636
 31
0.0
  0
LINE
  5
FA
330
3F
100
AcDbEntity
  8
1
  6
Continuous
 62
     7
100
AcDbLine
 10
166.3218830972141
 20
643.5090257444333
 30
0.0
 11
166.3218830972141
 21
636.3674074043381
 31
0.0
  0
LINE
  5
FB
330
3F
100
AcDbEntity
  8
1
  6
Continuous
 62
     7
100
AcDbLine
 10
168.134883097214
 20
602.7701327433636
 30
0.0
 11
172.9718830972139
 21
602.7701327433636
 31
0.0
  0
ARC
  5
FC
330
3F
100
AcDbEntity
  8
1
  6
Continuous
 62
     7
100
AcDbCircle
 10
309.4070661759837
 20
182.0254154619006
 30
0.0
 40
9.414816921230422
100
AcDbArc
 50
-43.55560474847177
 51
0.0
  0
SPLINE
  5
FD
330
3F
100
AcDbEntity
  8
1
  6
Continuous
 62
     7
100
AcDbSpline
210
0.0
220
0.0
230
1.0
 70
     8
 71
     3
 72
    33
 73
    29
 74
    27
 42
0.0000000001
 43
0.0000000001
 44
0.00000001
 40
0.0
 40
0.0
 40
0.0
 40
0.0
 40
0.4133569006801133
 40
0.8267148991712358
 40
1.047477429691542
 40
1.268240273686011
 40
1.504227369535099
 40
1.740225682305881
 40
2.001195139144786
 40
2.262139231593043
 40
2.573023665195199
 40
2.884147975817065
 40
3.395079514214114
 40
3.905704156215998
 40
4.367715781294273
 40
4.829727406372577
 40
5.340352048374571
 40
5.851283586771613
 40
6.162407897393353
 40
6.473292330995587
 40
6.734236423443797
 40
6.995205880282724
 40
7.231204193053483
 40
7.467191288902504
 40
7.687954132897045
 40
7.908716663417321
 40
8.322074661908523
 40
8.735431562588577
 40
8.735431562588577
 40
8.735431562588577
 40
8.735431562588577
 10
350.3218830972141
 20
148.0269515013654
 30
0.0
 10
350.2252666434948
 20
148.1252017030701
 30
0.0
 10
350.0320334794581
 20
148.3217023674166
 30
0.0
 10
349.7977565241269
 20
148.5807562360296
 30
0.0
 10
349.6126634463469
 20
148.7974390425288
 30
0.0
 10
349.4700415664949
 20
148.9725740398375
 30
0.0
 10
349.3288971643343
 20
149.1553707284253
 30
0.0
 10
349.1853887688258
 20
149.3531470117232
 30
0.0
 10
349.0441058793808
 20
149.5626630570713
 30
0.0
 10
348.8982750758917
 20
149.798961467443
 30
0.0
 10
348.7560529656513
 20
150.0568320192966
 30
0.0
 10
348.5942266700234
 20
150.3982978032127
 30
0.0
 10
348.4410626015907
 20
150.8165046093825
 30
0.0
 10
348.3337679422174
 20
151.3010887778839
 30
0.0
 10
348.3004521579333
 20
151.779728251098
 30
0.0
 10
348.3337679422174
 20
152.258367724312
 30
0.0
 10
348.4410626015907
 20
152.7429518928135
 30
0.0
 10
348.5942266700237
 20
153.1611586989832
 30
0.0
 10
348.7560529656511
 20
153.5026244828994
 30
0.0
 10
348.8982750758916
 20
153.7604950347529
 30
0.0
 10
349.0441058793809
 20
153.9967934451246
 30
0.0
 10
349.1853887688257
 20
154.2063094904727
 30
0.0
 10
349.3288971643345
 20
154.4040857737705
 30
0.0
 10
349.4700415664947
 20
154.5868824623583
 30
0.0
 10
349.6126634463471
 20
154.762017459667
 30
0.0
 10
349.7977565241267
 20
154.9787002661663
 30
0.0
 10
350.0320334794581
 20
155.2377541347793
 30
0.0
 10
350.2252666434948
 20
155.4342547991258
 30
0.0
 10
350.3218830972141
 20
155.5325050008305
 30
0.0
 11
350.3218830972141
 21
148.0269515013654
 31
0.0
 11
350.0341166222995
 21
148.3236910896496
 31
0.0
 11
349.7566063474816
 21
148.6300452675012
 31
0.0
 11
349.6133263025166
 21
148.7979944371822
 31
0.0
 11
349.4739679726152
 21
148.9692121032556
 31
0.0
 11
349.3298376267531
 21
149.1560712823423
 31
0.0
 11
349.191329597749
 21
149.3471490924932
 31
0.0
 11
349.0455758638308
 21
149.5636228933368
 31
0.0
 11
348.9086912228827
 21
149.785781427848
 31
0.0
 11
348.758925481472
 21
150.0582137199058
 31
0.0
 11
348.6260528480165
 21
150.3395377322803
 31
0.0
 11
348.4519153012726
 21
150.8198783944596
 31
0.0
 11
348.3434144731502
 21
151.3188424165256
 31
0.0
 11
348.3111811177861
 21
151.7797282510979
 31
0.0
 11
348.3434144731502
 21
152.2406140856703
 31
0.0
 11
348.4519153012726
 21
152.7395781077364
 31
0.0
 11
348.6260528480165
 21
153.2199187699157
 31
0.0
 11
348.7589254814719
 21
153.5012427822902
 31
0.0
 11
348.9086912228827
 21
153.773675074348
 31
0.0
 11
349.0455758638308
 21
153.9958336088591
 31
0.0
 11
349.191329597749
 21
154.2123074097028
 31
0.0
 11
349.3298376267531
 21
154.4033852198536
 31
0.0
 11
349.4739679726152
 21
154.5902443989402
 31
0.0
 11
349.6133263025167
 21
154.7614620650136
 31
0.0
 11
349.7566063474816
 21
154.9294112346947
 31
0.0
 11
350.0341166222995
 21
155.2357654125463
 31
0.0
 11
350.3218830972141
 21
155.5325050008305
 31
0.0
  0
SPLINE
  5
FE
330
3F
100
AcDbEntity
  8
1
  6
Continuous
 62
     7
100
AcDbSpline
210
0.0
220
0.0
230
1.0
 70
     8
 71
     3
 72
    33
 73
    29
 74
    27
 42
0.0000000001
 43
0.0000000001
 44
0.00000001
 40
0.0
 40
0.0
 40
0.0
 40
0.0
 40
0.4133569006801529
 40
0.8267148991713518
 40
1.047477429691548
 40
1.268240273686052
 40
1.504227369535175
 40
1.740225682305957
 40
2.00119513914483
 40
2.262139231593087
 40
2.573023665195271
 40
2.884147975817137
 40
3.395079514214225
 40
3.905704156216073
 40
4.367715781294352
 40
4.829727406372655
 40
5.340352048374614
 40
5.851283586771695
 40
6.162407897393508
 40
6.473292330995714
 40
6.734236423443893
 40
6.995205880282821
 40
7.23120419305358
 40
7.467191288902601
 40
7.68795413289707
 40
7.90871666341742
 40
8.322074661908584
 40
8.735431562588676
 40
8.735431562588676
 40
8.735431562588676
 40
8.735431562588676
 10
355.0607760982838
 20
148.0269515013654
 30
0.0
 10
355.1573925520031
 20
148.1252017030701
 30
0.0
 10
355.3506257160399
 20
148.3217023674166
 30
0.0
 10
355.5849026713711
 20
148.5807562360295
 30
0.0
 10
355.7699957491511
 20
148.7974390425289
 30
0.0
 10
355.9126176290031
 20
148.9725740398375
 30
0.0
 10
356.0537620311636
 20
149.1553707284254
 30
0.0
 10
356.1972704266721
 20
149.3531470117232
 30
0.0
 10
356.3385533161172
 20
149.5626630570714
 30
0.0
 10
356.4843841196062
 20
149.798961467443
 30
0.0
 10
356.6266062298469
 20
150.0568320192966
 30
0.0
 10
356.7884325254744
 20
150.3982978032128
 30
0.0
 10
356.9415965939075
 20
150.8165046093825
 30
0.0
 10
357.0488912532804
 20
151.3010887778839
 30
0.0
 10
357.0822070375648
 20
151.779728251098
 30
0.0
 10
357.0488912532804
 20
152.258367724312
 30
0.0
 10
356.9415965939075
 20
152.7429518928135
 30
0.0
 10
356.7884325254745
 20
153.1611586989833
 30
0.0
 10
356.6266062298467
 20
153.5026244828993
 30
0.0
 10
356.4843841196063
 20
153.7604950347529
 30
0.0
 10
356.3385533161172
 20
153.9967934451246
 30
0.0
 10
356.1972704266722
 20
154.2063094904727
 30
0.0
 10
356.0537620311636
 20
154.4040857737705
 30
0.0
 10
355.9126176290031
 20
154.5868824623583
 30
0.0
 10
355.7699957491512
 20
154.762017459667
 30
0.0
 10
355.5849026713712
 20
154.9787002661662
 30
0.0
 10
355.3506257160399
 20
155.2377541347794
 30
0.0
 10
355.1573925520032
 20
155.4342547991258
 30
0.0
 10
355.0607760982839
 20
155.5325050008305
 30
0.0
 11
355.0607760982838
 21
148.0269515013654
 31
0.0
 11
355.3485425731985
 21
148.3236910896496
 31
0.0
 11
355.6260528480165
 21
148.6300452675012
 31
0.0
 11
355.7693328929813
 21
148.7979944371822
 31
0.0
 11
355.9086912228827
 21
148.9692121032556
 31
0.0
 11
356.0528215687449
 21
149.1560712823423
 31
0.0
 11
356.191329597749
 21
149.3471490924932
 31
0.0
 11
356.3370833316672
 21
149.5636228933368
 31
0.0
 11
356.4739679726152
 21
149.785781427848
 31
0.0
 11
356.623733714026
 21
150.0582137199058
 31
0.0
 11
356.7566063474815
 21
150.3395377322803
 31
0.0
 11
356.9307438942255
 21
150.8198783944596
 31
0.0
 11
357.0392447223478
 21
151.3188424165256
 31
0.0
 11
357.0714780777119
 21
151.7797282510979
 31
0.0
 11
357.0392447223478
 21
152.2406140856703
 31
0.0
 11
356.9307438942255
 21
152.7395781077364
 31
0.0
 11
356.7566063474815
 21
153.2199187699157
 31
0.0
 11
356.623733714026
 21
153.5012427822902
 31
0.0
 11
356.4739679726152
 21
153.773675074348
 31
0.0
 11
356.3370833316672
 21
153.9958336088591
 31
0.0
 11
356.191329597749
 21
154.2123074097028
 31
0.0
 11
356.0528215687449
 21
154.4033852198536
 31
0.0
 11
355.9086912228827
 21
154.5902443989402
 31
0.0
 11
355.7693328929814
 21
154.7614620650136
 31
0.0
 11
355.6260528480164
 21
154.9294112346947
 31
0.0
 11
355.3485425731985
 21
155.2357654125463
 31
0.0
 11
355.0607760982839
 21
155.5325050008305
 31
0.0
  0
SPLINE
  5
FF
330
3F
100
AcDbEntity
  8
1
  6
Continuous
 62
     7
100
AcDbSpline
210
0.0
220
0.0
230
1.0
 70
     8
 71
     3
 72
    33
 73
    29
 74
    27
 42
0.0000000001
 43
0.0000000001
 44
0.00000001
 40
0.0
 40
0.0
 40
0.0
 40
0.0
 40
0.6660942076092064
 40
1.332190222770885
 40
1.699632944385034
 40
2.067077053321415
 40
2.470589213764415
 40
2.874107007989133
 40
3.334983200372722
 40
3.795855500931629
 40
4.367402403401195
 40
4.939051291210265
 40
5.92910249197742
 40
6.91919982313692
 40
7.841546055180315
 40
8.763892287223706
 40
9.753989618383212
 40
10.74404081915034
 40
11.31568970695942
 40
11.887236609429
 40
12.34810890998788
 40
12.80898510237139
 40
13.2125028965961
 40
13.61601505703912
 40
13.9834591659755
 40
14.35090188758965
 40
15.01699790275136
 40
15.68309211036059
 40
15.68309211036059
 40
15.68309211036059
 40
15.68309211036059
 10
355.0607760982839
 20
170.5436119997607
 30
0.0
 10
355.1587140119275
 20
170.344335721328
 30
0.0
 10
355.3545901049847
 20
169.9457826236947
 30
0.0
 10
355.5877855712996
 20
169.4293356905367
 30
0.0
 10
355.7711644209504
 20
168.9998403083461
 30
0.0
 10
355.9142173699812
 20
168.6483490043589
 30
0.0
 10
356.0551388578905
 20
168.2830731305623
 30
0.0
 10
356.1992070990991
 20
167.8857192009037
 30
0.0
 10
356.3402245219572
 20
167.4670249771174
 30
0.0
 10
356.4868488689932
 20
166.9912882876422
 30
0.0
 10
356.6286475611335
 20
166.4756219268523
 30
0.0
 10
356.7922807573225
 20
165.7834802226909
 30
0.0
 10
356.9443563728744
 20
164.9458645190858
 30
0.0
 10
357.0492981189335
 20
163.9831894004766
 30
0.0
 10
357.0826458851341
 20
163.0380585002956
 30
0.0
 10
357.0492981189335
 20
162.0929276001146
 30
0.0
 10
356.9443563728744
 20
161.1302524815054
 30
0.0
 10
356.7922807573224
 20
160.2926367779003
 30
0.0
 10
356.6286475611335
 20
159.6004950737389
 30
0.0
 10
356.486848868993
 20
159.084828712949
 30
0.0
 10
356.3402245219571
 20
158.6090920234739
 30
0.0
 10
356.199207099099
 20
158.1903977996876
 30
0.0
 10
356.0551388578905
 20
157.793043870029
 30
0.0
 10
355.914217369981
 20
157.4277679962324
 30
0.0
 10
355.7711644209505
 20
157.0762766922451
 30
0.0
 10
355.5877855712995
 20
156.6467813100546
 30
0.0
 10
355.3545901049847
 20
156.1303343768965
 30
0.0
 10
355.1587140119274
 20
155.7317812792632
 30
0.0
 10
355.0607760982839
 20
155.5325050008305
 30
0.0
 11
355.0607760982839
 21
170.5436119997607
 31
0.0
 11
355.3513160911629
 21
169.9442223051977
 31
0.0
 11
355.6260528480165
 21
169.337424467489
 31
0.0
 11
355.7702031065187
 21
168.9994379934387
 31
0.0
 11
355.9086912228827
 21
168.65909079598
 31
0.0
 11
356.0538550240221
 21
168.2825944022866
 31
0.0
 11
356.1913295977491
 21
167.9032168175052
 31
0.0
 11
356.3383310915293
 21
167.4664131710777
 31
0.0
 11
356.4739679726153
 21
167.0259521467955
 31
0.0
 11
356.625297221445
 21
166.474803056103
 31
0.0
 11
356.7566063474815
 21
165.9184395379309
 31
0.0
 11
356.9327506010575
 21
164.9441836259279
 31
0.0
 11
357.0392447223478
 21
163.95983016944
 31
0.0
 11
357.0717956321263
 21
163.0380585002956
 31
0.0
 11
357.0392447223479
 21
162.1162868311512
 31
0.0
 11
356.9327506010575
 21
161.1319333746633
 31
0.0
 11
356.7566063474815
 21
160.1576774626604
 31
0.0
 11
356.625297221445
 21
159.6013139444882
 31
0.0
 11
356.4739679726152
 21
159.0501648537957
 31
0.0
 11
356.3383310915292
 21
158.6097038295135
 31
0.0
 11
356.191329597749
 21
158.1729001830861
 31
0.0
 11
356.0538550240221
 21
157.7935225983047
 31
0.0
 11
355.9086912228827
 21
157.4170262046113
 31
0.0
 11
355.7702031065186
 21
157.0766790071526
 31
0.0
 11
355.6260528480165
 21
156.7386925331022
 31
0.0
 11
355.3513160911629
 21
156.1318946953936
 31
0.0
 11
355.0607760982839
 21
155.5325050008305
 31
0.0
  0
SPLINE
  5
100
330
3F
100
AcDbEntity
  8
1
  6
Continuous
 62
     7
100
AcDbSpline
210
0.0
220
0.0
230
1.0
 70
     8
 71
     3
 72
    33
 73
    29
 74
    27
 42
0.0000000001
 43
0.0000000001
 44
0.00000001
 40
0.0
 40
0.0
 40
0.0
 40
0.0
 40
0.6660942076092064
 40
1.332190222770885
 40
1.699632944385012
 40
2.067077053321393
 40
2.470589213764433
 40
2.874107007989054
 40
3.334983200372698
 40
3.795855500931605
 40
4.367402403401155
 40
4.939051291210239
 40
5.929102491977394
 40
6.919199823136895
 40
7.841546055180287
 40
8.76389228722368
 40
9.75398961838318
 40
10.74404081915031
 40
11.31568970695938
 40
11.88723660942894
 40
12.34810890998782
 40
12.80898510237137
 40
13.21250289659607
 40
13.61601505703907
 40
13.98345916597543
 40
14.35090188758965
 40
15.01699790275133
 40
15.68309211036054
 40
15.68309211036054
 40
15.68309211036054
 40
15.68309211036054
 10
350.3218830972141
 20
170.5436119997607
 30
0.0
 10
350.2239451835706
 20
170.344335721328
 30
0.0
 10
350.0280690905133
 20
169.9457826236948
 30
0.0
 10
349.7948736241984
 20
169.4293356905366
 30
0.0
 10
349.6114947745475
 20
168.9998403083463
 30
0.0
 10
349.468441825517
 20
168.6483490043589
 30
0.0
 10
349.3275203376073
 20
168.2830731305623
 30
0.0
 10
349.1834520963992
 20
167.8857192009037
 30
0.0
 10
349.0424346735408
 20
167.4670249771174
 30
0.0
 10
348.8958103265048
 20
166.9912882876422
 30
0.0
 10
348.7540116343646
 20
166.4756219268522
 30
0.0
 10
348.5903784381756
 20
165.7834802226909
 30
0.0
 10
348.4383028226237
 20
164.9458645190858
 30
0.0
 10
348.3333610765645
 20
163.9831894004765
 30
0.0
 10
348.3000133103641
 20
163.0380585002956
 30
0.0
 10
348.3333610765645
 20
162.0929276001146
 30
0.0
 10
348.4383028226237
 20
161.1302524815054
 30
0.0
 10
348.5903784381756
 20
160.2926367779004
 30
0.0
 10
348.7540116343646
 20
159.6004950737389
 30
0.0
 10
348.8958103265047
 20
159.084828712949
 30
0.0
 10
349.042434673541
 20
158.6090920234739
 30
0.0
 10
349.1834520963989
 20
158.1903977996876
 30
0.0
 10
349.3275203376076
 20
157.793043870029
 30
0.0
 10
349.468441825517
 20
157.4277679962325
 30
0.0
 10
349.6114947745473
 20
157.076276692245
 30
0.0
 10
349.7948736241987
 20
156.6467813100547
 30
0.0
 10
350.0280690905132
 20
156.1303343768965
 30
0.0
 10
350.2239451835704
 20
155.7317812792632
 30
0.0
 10
350.3218830972141
 20
155.5325050008305
 30
0.0
 11
350.3218830972141
 21
170.5436119997607
 31
0.0
 11
350.0313431043351
 21
169.9442223051977
 31
0.0
 11
349.7566063474815
 21
169.337424467489
 31
0.0
 11
349.6124560889793
 21
168.9994379934387
 31
0.0
 11
349.4739679726153
 21
168.65909079598
 31
0.0
 11
349.3288041714758
 21
168.2825944022866
 31
0.0
 11
349.1913295977491
 21
167.9032168175052
 31
0.0
 11
349.0443281039687
 21
167.4664131710777
 31
0.0
 11
348.9086912228827
 21
167.0259521467955
 31
0.0
 11
348.7573619740531
 21
166.474803056103
 31
0.0
 11
348.6260528480165
 21
165.9184395379309
 31
0.0
 11
348.4499085944405
 21
164.9441836259279
 31
0.0
 11
348.3434144731502
 21
163.95983016944
 31
0.0
 11
348.3108635633718
 21
163.0380585002956
 31
0.0
 11
348.3434144731502
 21
162.1162868311512
 31
0.0
 11
348.4499085944405
 21
161.1319333746633
 31
0.0
 11
348.6260528480165
 21
160.1576774626604
 31
0.0
 11
348.757361974053
 21
159.6013139444882
 31
0.0
 11
348.9086912228827
 21
159.0501648537957
 31
0.0
 11
349.0443281039687
 21
158.6097038295135
 31
0.0
 11
349.191329597749
 21
158.1729001830861
 31
0.0
 11
349.3288041714759
 21
157.7935225983047
 31
0.0
 11
349.4739679726153
 21
157.4170262046113
 31
0.0
 11
349.6124560889793
 21
157.0766790071526
 31
0.0
 11
349.7566063474816
 21
156.7386925331022
 31
0.0
 11
350.0313431043351
 21
156.1318946953936
 31
0.0
 11
350.3218830972141
 21
155.5325050008305
 31
0.0
  0
SPLINE
  5
101
330
3F
100
AcDbEntity
  8
1
  6
Continuous
 62
     7
100
AcDbSpline
210
0.0
220
0.0
230
1.0
 70
     8
 71
     3
 72
    33
 73
    29
 74
    27
 42
0.0000000001
 43
0.0000000001
 44
0.00000001
 40
0.0
 40
0.0
 40
0.0
 40
0.0
 40
0.4133569006801133
 40
0.8267148991712569
 40
1.04747742969165
 40
1.268240273686074
 40
1.50422736953514
 40
1.740225682305876
 40
2.001195139144804
 40
2.262139231593038
 40
2.573023665195294
 40
2.884147975817108
 40
3.395079514214104
 40
3.905704156216044
 40
4.367715781294319
 40
4.82972740637265
 40
5.340352048374562
 40
5.851283586771631
 40
6.162407897393423
 40
6.473292330995657
 40
6.734236423443866
 40
6.995205880282794
 40
7.231204193053576
 40
7.467191288902597
 40
7.687954132897048
 40
7.908716663417325
 40
8.322074661908486
 40
8.735431562588641
 40
8.735431562588641
 40
8.735431562588641
 40
8.735431562588641
 10
350.3218830972141
 20
178.0491654992259
 30
0.0
 10
350.2252666434948
 20
177.9509152975213
 30
0.0
 10
350.0320334794581
 20
177.7544146331748
 30
0.0
 10
349.7977565241268
 20
177.4953607645617
 30
0.0
 10
349.6126634463469
 20
177.2786779580624
 30
0.0
 10
349.4700415664949
 20
177.1035429607537
 30
0.0
 10
349.3288971643345
 20
176.9207462721658
 30
0.0
 10
349.1853887688258
 20
176.7229699888681
 30
0.0
 10
349.0441058793809
 20
176.51345394352
 30
0.0
 10
348.8982750758916
 20
176.2771555331483
 30
0.0
 10
348.7560529656512
 20
176.0192849812946
 30
0.0
 10
348.5942266700236
 20
175.6778191973785
 30
0.0
 10
348.4410626015908
 20
175.2596123912087
 30
0.0
 10
348.3337679422173
 20
174.7750282227074
 30
0.0
 10
348.3004521579334
 20
174.2963887494933
 30
0.0
 10
348.3337679422174
 20
173.8177492762792
 30
0.0
 10
348.4410626015908
 20
173.3331651077778
 30
0.0
 10
348.5942266700237
 20
172.9149583016081
 30
0.0
 10
348.7560529656511
 20
172.5734925176919
 30
0.0
 10
348.8982750758917
 20
172.3156219658384
 30
0.0
 10
349.0441058793809
 20
172.0793235554667
 30
0.0
 10
349.1853887688258
 20
171.8698075101184
 30
0.0
 10
349.3288971643346
 20
171.6720312268208
 30
0.0
 10
349.4700415664947
 20
171.4892345382328
 30
0.0
 10
349.612663446347
 20
171.3140995409244
 30
0.0
 10
349.7977565241267
 20
171.0974167344249
 30
0.0
 10
350.0320334794583
 20
170.838362865812
 30
0.0
 10
350.2252666434948
 20
170.6418622014654
 30
0.0
 10
350.3218830972141
 20
170.5436119997607
 30
0.0
 11
350.3218830972141
 21
178.0491654992259
 31
0.0
 11
350.0341166222995
 21
177.7524259109417
 31
0.0
 11
349.7566063474816
 21
177.4460717330901
 31
0.0
 11
349.6133263025166
 21
177.278122563409
 31
0.0
 11
349.4739679726152
 21
177.1069048973356
 31
0.0
 11
349.3298376267531
 21
176.9200457182489
 31
0.0
 11
349.191329597749
 21
176.7289679080981
 31
0.0
 11
349.0455758638308
 21
176.5124941072544
 31
0.0
 11
348.9086912228827
 21
176.2903355727433
 31
0.0
 11
348.758925481472
 21
176.0179032806854
 31
0.0
 11
348.6260528480165
 21
175.7365792683109
 31
0.0
 11
348.4519153012726
 21
175.2562386061317
 31
0.0
 11
348.3434144731502
 21
174.7572745840656
 31
0.0
 11
348.3111811177861
 21
174.2963887494933
 31
0.0
 11
348.3434144731502
 21
173.8355029149209
 31
0.0
 11
348.4519153012726
 21
173.3365388928549
 31
0.0
 11
348.6260528480165
 21
172.8561982306756
 31
0.0
 11
348.7589254814719
 21
172.5748742183011
 31
0.0
 11
348.9086912228827
 21
172.3024419262433
 31
0.0
 11
349.0455758638308
 21
172.0802833917321
 31
0.0
 11
349.191329597749
 21
171.8638095908885
 31
0.0
 11
349.3298376267531
 21
171.6727317807376
 31
0.0
 11
349.4739679726152
 21
171.485872601651
 31
0.0
 11
349.6133263025167
 21
171.3146549355777
 31
0.0
 11
349.7566063474816
 21
171.1467057658966
 31
0.0
 11
350.0341166222995
 21
170.840351588045
 31
0.0
 11
350.3218830972141
 21
170.5436119997607
 31
0.0
  0
SPLINE
  5
102
330
3F
100
AcDbEntity
  8
1
  6
Continuous
 62
     7
100
AcDbSpline
210
0.0
220
0.0
230
1.0
 70
     8
 71
     3
 72
    33
 73
    29
 74
    27
 42
0.0000000001
 43
0.0000000001
 44
0.00000001
 40
0.0
 40
0.0
 40
0.0
 40
0.0
 40
0.4133569006801529
 40
0.8267148991713729
 40
1.047477429691655
 40
1.268240273686116
 40
1.504227369535216
 40
1.740225682305952
 40
2.001195139144849
 40
2.262139231593082
 40
2.573023665195365
 40
2.88414797581718
 40
3.395079514214214
 40
3.905704156216117
 40
4.367715781294397
 40
4.829727406372729
 40
5.340352048374604
 40
5.851283586771712
 40
6.162407897393576
 40
6.473292330995783
 40
6.734236423443962
 40
6.99520588028289
 40
7.231204193053672
 40
7.467191288902693
 40
7.687954132897072
 40
7.908716663417422
 40
8.322074661908545
 40
8.73543156258874
 40
8.73543156258874
 40
8.73543156258874
 40
8.73543156258874
 10
355.0607760982838
 20
178.0491654992259
 30
0.0
 10
355.1573925520031
 20
177.9509152975212
 30
0.0
 10
355.3506257160398
 20
177.7544146331747
 30
0.0
 10
355.5849026713711
 20
177.4953607645617
 30
0.0
 10
355.769995749151
 20
177.2786779580623
 30
0.0
 10
355.9126176290031
 20
177.1035429607537
 30
0.0
 10
356.0537620311635
 20
176.9207462721659
 30
0.0
 10
356.1972704266721
 20
176.722969988868
 30
0.0
 10
356.3385533161172
 20
176.51345394352
 30
0.0
 10
356.4843841196063
 20
176.2771555331482
 30
0.0
 10
356.6266062298469
 20
176.0192849812946
 30
0.0
 10
356.7884325254743
 20
175.6778191973785
 30
0.0
 10
356.9415965939074
 20
175.2596123912088
 30
0.0
 10
357.0488912532805
 20
174.7750282227073
 30
0.0
 10
357.0822070375647
 20
174.2963887494933
 30
0.0
 10
357.0488912532804
 20
173.8177492762792
 30
0.0
 10
356.9415965939076
 20
173.3331651077778
 30
0.0
 10
356.7884325254744
 20
172.914958301608
 30
0.0
 10
356.6266062298467
 20
172.5734925176919
 30
0.0
 10
356.4843841196064
 20
172.3156219658384
 30
0.0
 10
356.3385533161172
 20
172.0793235554666
 30
0.0
 10
356.1972704266721
 20
171.8698075101185
 30
0.0
 10
356.0537620311635
 20
171.6720312268207
 30
0.0
 10
355.9126176290031
 20
171.4892345382329
 30
0.0
 10
355.7699957491511
 20
171.3140995409243
 30
0.0
 10
355.5849026713713
 20
171.097416734425
 30
0.0
 10
355.3506257160399
 20
170.838362865812
 30
0.0
 10
355.1573925520031
 20
170.6418622014654
 30
0.0
 10
355.0607760982839
 20
170.5436119997607
 30
0.0
 11
355.0607760982838
 21
178.0491654992259
 31
0.0
 11
355.3485425731985
 21
177.7524259109417
 31
0.0
 11
355.6260528480165
 21
177.4460717330901
 31
0.0
 11
355.7693328929813
 21
177.278122563409
 31
0.0
 11
355.9086912228827
 21
177.1069048973356
 31
0.0
 11
356.0528215687449
 21
176.9200457182489
 31
0.0
 11
356.191329597749
 21
176.7289679080981
 31
0.0
 11
356.3370833316672
 21
176.5124941072544
 31
0.0
 11
356.4739679726152
 21
176.2903355727433
 31
0.0
 11
356.623733714026
 21
176.0179032806854
 31
0.0
 11
356.7566063474815
 21
175.7365792683109
 31
0.0
 11
356.9307438942255
 21
175.2562386061317
 31
0.0
 11
357.0392447223478
 21
174.7572745840656
 31
0.0
 11
357.0714780777119
 21
174.2963887494933
 31
0.0
 11
357.0392447223478
 21
173.8355029149209
 31
0.0
 11
356.9307438942255
 21
173.3365388928549
 31
0.0
 11
356.7566063474815
 21
172.8561982306756
 31
0.0
 11
356.623733714026
 21
172.5748742183011
 31
0.0
 11
356.4739679726152
 21
172.3024419262433
 31
0.0
 11
356.3370833316672
 21
172.0802833917321
 31
0.0
 11
356.191329597749
 21
171.8638095908885
 31
0.0
 11
356.0528215687449
 21
171.6727317807376
 31
0.0
 11
355.9086912228827
 21
171.485872601651
 31
0.0
 11
355.7693328929814
 21
171.3146549355777
 31
0.0
 11
355.6260528480164
 21
171.1467057658966
 31
0.0
 11
355.3485425731985
 21
170.840351588045
 31
0.0
 11
355.0607760982839
 21
170.5436119997607
 31
0.0
  0
SPLINE
  5
103
330
3F
100
AcDbEntity
  8
1
  6
Continuous
 62
     7
100
AcDbSpline
210
0.0
220
0.0
230
1.0
 70
     8
 71
     3
 72
    33
 73
    29
 74
    27
 42
0.0000000001
 43
0.0000000001
 44
0.00000001
 40
0.0
 40
0.0
 40
0.0
 40
0.0
 40
0.5939249141923155
 40
1.187851599377324
 40
1.513819741513086
 40
1.839789281990929
 40
2.196317437918421
 40
2.552851935104872
 40
2.958199561199021
 40
3.363541512548714
 40
3.863542578220953
 40
4.363662706811175
 40
5.224160052688762
 40
6.084683379167901
 40
6.883623439069143
 40
7.682563498970419
 40
8.543086825449445
 40
9.403584171327106
 40
9.903704299917353
 40
10.40370536558971
 40
10.80904731693935
 40
11.2143949430335
 40
11.57092944022006
 40
11.92745759614748
 40
12.25342713662525
 40
12.57939527876109
 40
13.17332196394602
 40
13.76724687813834
 40
13.76724687813834
 40
13.76724687813834
 40
13.76724687813834
 10
179.3218830972141
 20
643.5090257444333
 30
0.0
 10
179.1496949019959
 20
643.6067493756535
 30
0.0
 10
178.8053179981206
 20
643.8021969294904
 30
0.0
 10
178.3577954548494
 20
644.0355843219879
 30
0.0
 10
177.9853082393135
 20
644.2192351582671
 30
0.0
 10
177.6810578928227
 20
644.3622279234589
 30
0.0
 10
177.3646663098272
 20
644.503187410131
 30
0.0
 10
177.0207588435093
 20
644.6471813933215
 30
0.0
 10
176.6580990475938
 20
644.7882429724784
 30
0.0
 10
176.2464424800923
 20
644.9347699573099
 30
0.0
 10
175.7998132456702
 20
645.0766350442066
 30
0.0
 10
175.2013624292348
 20
645.2400575552535
 30
0.0
 10
174.4759795309032
 20
645.3922667773286
 30
0.0
 10
173.641584462905
 20
645.4975022699152
 30
0.0
 10
172.8218830972141
 20
645.5308620712893
 30
0.0
 10
172.0021817315233
 20
645.497502269915
 30
0.0
 10
171.1677866635251
 20
645.392266777329
 30
0.0
 10
170.4424037651936
 20
645.2400575552531
 30
0.0
 10
169.8439529487579
 20
645.0766350442066
 30
0.0
 10
169.397323714336
 20
644.9347699573094
 30
0.0
 10
168.9856671468343
 20
644.7882429724784
 30
0.0
 10
168.6230073509188
 20
644.6471813933217
 30
0.0
 10
168.279099884601
 20
644.5031874101309
 30
0.0
 10
167.9627083016055
 20
644.3622279234592
 30
0.0
 10
167.6584579551146
 20
644.219235158267
 30
0.0
 10
167.285970739579
 20
644.0355843219879
 30
0.0
 10
166.8384481963075
 20
643.8021969294905
 30
0.0
 10
166.4940712924324
 20
643.6067493756534
 30
0.0
 10
166.3218830972141
 20
643.5090257444333
 30
0.0
 11
179.3218830972141
 21
643.5090257444333
 31
0.0
 11
178.8036231672785
 21
643.7991178827643
 31
0.0
 11
178.2772940525388
 21
644.0743024941659
 31
0.0
 11
177.9848657835337
 21
644.2183196361111
 31
0.0
 11
177.6898398607696
 21
644.3569408690321
 31
0.0
 11
177.3641351196122
 21
644.5019537910656
 31
0.0
 11
177.0352337933508
 21
644.6395792438984
 31
0.0
 11
176.6574136072879
 21
644.7864077322226
 31
0.0
 11
176.2755003026736
 21
644.9222176187648
 31
0.0
 11
175.798886202629
 21
645.0733469187434
 31
0.0
 11
175.3163662483854
 21
645.2048559936311
 31
0.0
 11
174.4740376926358
 21
645.3807488201796
 31
0.0
 11
173.6201607791822
 21
645.4874943684974
 31
0.0
 11
172.8218830972141
 21
645.5200206930166
 31
0.0
 11
172.0236054152461
 21
645.4874943684973
 31
0.0
 11
171.1697285017926
 21
645.3807488201798
 31
0.0
 11
170.327399946043
 21
645.204855993631
 31
0.0
 11
169.8448799917993
 21
645.0733469187434
 31
0.0
 11
169.3682658917546
 21
644.9222176187647
 31
0.0
 11
168.9863525871403
 21
644.7864077322228
 31
0.0
 11
168.6085324010774
 21
644.6395792438985
 31
0.0
 11
168.2796310748159
 21
644.5019537910655
 31
0.0
 11
167.9539263336586
 21
644.3569408690321
 31
0.0
 11
167.6589004108945
 21
644.2183196361112
 31
0.0
 11
167.3664721418894
 21
644.0743024941658
 31
0.0
 11
166.8401430271497
 21
643.7991178827645
 31
0.0
 11
166.3218830972141
 21
643.5090257444333
 31
0.0
  0
SPLINE
  5
104
330
3F
100
AcDbEntity
  8
1
  6
Continuous
 62
     7
100
AcDbSpline
210
0.0
220
0.0
230
1.0
 70
     8
 71
     3
 72
    33
 73
    29
 74
    27
 42
0.0000000001
 43
0.0000000001
 44
0.00000001
 40
0.0
 40
0.0
 40
0.0
 40
0.0
 40
0.5939249141922659
 40
1.187851599377299
 40
1.51381974151296
 40
1.839789281990726
 40
2.196317437918217
 40
2.552851935104773
 40
2.958199561199027
 40
3.363541512548748
 40
3.863542578220987
 40
4.363662706811236
 40
5.224160052688796
 40
6.084683379167963
 40
6.883623439069149
 40
7.68256349897034
 40
8.543086825449421
 40
9.403584171327028
 40
9.903704299917301
 40
10.40370536558963
 40
10.80904731693935
 40
11.21439494303345
 40
11.57092944022001
 40
11.92745759614738
 40
12.25342713662518
 40
12.57939527876101
 40
13.17332196394597
 40
13.76724687813834
 40
13.76724687813834
 40
13.76724687813834
 40
13.76724687813834
 10
179.3218830972141
 20
643.5090257444333
 30
0.0
 10
179.4940712924324
 20
643.6067493756534
 30
0.0
 10
179.8384481963076
 20
643.8021969294903
 30
0.0
 10
180.2859707395788
 20
644.0355843219882
 30
0.0
 10
180.6584579551146
 20
644.2192351582668
 30
0.0
 10
180.9627083016054
 20
644.3622279234595
 30
0.0
 10
181.2790998846008
 20
644.503187410131
 30
0.0
 10
181.6230073509188
 20
644.6471813933215
 30
0.0
 10
181.9856671468343
 20
644.7882429724782
 30
0.0
 10
182.397323714336
 20
644.9347699573098
 30
0.0
 10
182.843952948758
 20
645.0766350442066
 30
0.0
 10
183.4424037651936
 20
645.2400575552537
 30
0.0
 10
184.167786663525
 20
645.3922667773284
 30
0.0
 10
185.0021817315234
 20
645.4975022699155
 30
0.0
 10
185.821883097214
 20
645.5308620712892
 30
0.0
 10
186.6415844629049
 20
645.497502269915
 30
0.0
 10
187.4759795309031
 20
645.3922667773289
 30
0.0
 10
188.2013624292346
 20
645.2400575552532
 30
0.0
 10
188.7998132456702
 20
645.0766350442066
 30
0.0
 10
189.2464424800921
 20
644.9347699573094
 30
0.0
 10
189.6580990475939
 20
644.7882429724787
 30
0.0
 10
190.0207588435094
 20
644.6471813933217
 30
0.0
 10
190.3646663098271
 20
644.5031874101309
 30
0.0
 10
190.6810578928227
 20
644.3622279234592
 30
0.0
 10
190.9853082393134
 20
644.219235158267
 30
0.0
 10
191.3577954548492
 20
644.0355843219878
 30
0.0
 10
191.8053179981206
 20
643.8021969294903
 30
0.0
 10
192.1496949019959
 20
643.6067493756536
 30
0.0
 10
192.3218830972141
 20
643.5090257444333
 30
0.0
 11
179.3218830972141
 21
643.5090257444333
 31
0.0
 11
179.8401430271497
 21
643.7991178827643
 31
0.0
 11
180.3664721418894
 21
644.0743024941659
 31
0.0
 11
180.6589004108944
 21
644.2183196361111
 31
0.0
 11
180.9539263336584
 21
644.3569408690321
 31
0.0
 11
181.2796310748158
 21
644.5019537910656
 31
0.0
 11
181.6085324010774
 21
644.6395792438984
 31
0.0
 11
181.9863525871404
 21
644.7864077322226
 31
0.0
 11
182.3682658917547
 21
644.9222176187648
 31
0.0
 11
182.8448799917993
 21
645.0733469187434
 31
0.0
 11
183.3273999460429
 21
645.2048559936311
 31
0.0
 11
184.1697285017925
 21
645.3807488201796
 31
0.0
 11
185.0236054152461
 21
645.4874943684974
 31
0.0
 11
185.8218830972141
 21
645.5200206930166
 31
0.0
 11
186.6201607791821
 21
645.4874943684973
 31
0.0
 11
187.4740376926357
 21
645.3807488201798
 31
0.0
 11
188.3163662483852
 21
645.204855993631
 31
0.0
 11
188.7988862026289
 21
645.0733469187434
 31
0.0
 11
189.2755003026736
 21
644.9222176187647
 31
0.0
 11
189.657413607288
 21
644.7864077322228
 31
0.0
 11
190.0352337933508
 21
644.6395792438985
 31
0.0
 11
190.3641351196123
 21
644.5019537910655
 31
0.0
 11
190.6898398607695
 21
644.3569408690321
 31
0.0
 11
190.9848657835336
 21
644.2183196361112
 31
0.0
 11
191.2772940525388
 21
644.0743024941658
 31
0.0
 11
191.8036231672785
 21
643.7991178827645
 31
0.0
 11
192.3218830972141
 21
643.5090257444333
 31
0.0
  0
SPLINE
  5
105
330
3F
100
AcDbEntity
  8
1
  6
Continuous
 62
     7
100
AcDbSpline
210
0.0
220
0.0
230
1.0
 70
     8
 71
     3
 72
    33
 73
    29
 74
    27
 42
0.0000000001
 43
0.0000000001
 44
0.00000001
 40
0.0
 40
0.0
 40
0.0
 40
0.0
 40
0.593924914192371
 40
1.187851599377326
 40
1.513819741513089
 40
1.839789281990932
 40
2.196317437918378
 40
2.552851935104828
 40
2.958199561198977
 40
3.363541512548709
 40
3.863542578221017
 40
4.363662706811208
 40
5.224160052688796
 40
6.084683379167892
 40
6.883623439069138
 40
7.682563498970405
 40
8.543086825449473
 40
9.403584171327065
 40
9.903704299917312
 40
10.40370536558963
 40
10.80904731693939
 40
11.21439494303354
 40
11.57092944022006
 40
11.92745759614743
 40
12.2534271366253
 40
12.57939527876104
 40
13.17332196394607
 40
13.76724687813834
 40
13.76724687813834
 40
13.76724687813834
 40
13.76724687813834
 10
179.3218830972141
 20
638.7701327433636
 30
0.0
 10
179.1496949019959
 20
638.6724091121434
 30
0.0
 10
178.8053179981206
 20
638.4769615583064
 30
0.0
 10
178.3577954548493
 20
638.2435741658087
 30
0.0
 10
177.9853082393135
 20
638.05992332953
 30
0.0
 10
177.6810578928227
 20
637.9169305643378
 30
0.0
 10
177.3646663098272
 20
637.7759710776659
 30
0.0
 10
177.0207588435093
 20
637.6319770944754
 30
0.0
 10
176.6580990475938
 20
637.4909155153187
 30
0.0
 10
176.2464424800922
 20
637.3443885304872
 30
0.0
 10
175.7998132456703
 20
637.2025234435899
 30
0.0
 10
175.2013624292348
 20
637.0391009325434
 30
0.0
 10
174.4759795309032
 20
636.886891710468
 30
0.0
 10
173.641584462905
 20
636.781656217882
 30
0.0
 10
172.8218830972141
 20
636.7482964165076
 30
0.0
 10
172.0021817315233
 20
636.7816562178815
 30
0.0
 10
171.1677866635252
 20
636.8868917104687
 30
0.0
 10
170.4424037651936
 20
637.0391009325434
 30
0.0
 10
169.843952948758
 20
637.2025234435903
 30
0.0
 10
169.3973237143359
 20
637.3443885304868
 30
0.0
 10
168.9856671468343
 20
637.4909155153185
 30
0.0
 10
168.6230073509188
 20
637.6319770944753
 30
0.0
 10
168.279099884601
 20
637.775971077666
 30
0.0
 10
167.9627083016054
 20
637.9169305643375
 30
0.0
 10
167.6584579551148
 20
638.05992332953
 30
0.0
 10
167.2859707395788
 20
638.2435741658087
 30
0.0
 10
166.8384481963076
 20
638.4769615583066
 30
0.0
 10
166.4940712924324
 20
638.6724091121434
 30
0.0
 10
166.3218830972141
 20
638.7701327433636
 30
0.0
 11
179.3218830972141
 21
638.7701327433636
 31
0.0
 11
178.8036231672785
 21
638.4800406050324
 31
0.0
 11
178.2772940525388
 21
638.204855993631
 31
0.0
 11
177.9848657835337
 21
638.0608388516857
 31
0.0
 11
177.6898398607696
 21
637.9222176187648
 31
0.0
 11
177.3641351196122
 21
637.7772046967314
 31
0.0
 11
177.0352337933508
 21
637.6395792438985
 31
0.0
 11
176.6574136072879
 21
637.4927507555743
 31
0.0
 11
176.2755003026736
 21
637.3569408690321
 31
0.0
 11
175.798886202629
 21
637.2058115690533
 31
0.0
 11
175.3163662483854
 21
637.0743024941656
 31
0.0
 11
174.4740376926358
 21
636.8984096676171
 31
0.0
 11
173.6201607791822
 21
636.7916641192996
 31
0.0
 11
172.8218830972141
 21
636.7591377947804
 31
0.0
 11
172.0236054152461
 21
636.7916641192994
 31
0.0
 11
171.1697285017926
 21
636.8984096676173
 31
0.0
 11
170.327399946043
 21
637.0743024941658
 31
0.0
 11
169.8448799917993
 21
637.2058115690534
 31
0.0
 11
169.3682658917546
 21
637.356940869032
 31
0.0
 11
168.9863525871403
 21
637.4927507555742
 31
0.0
 11
168.6085324010774
 21
637.6395792438984
 31
0.0
 11
168.2796310748159
 21
637.7772046967314
 31
0.0
 11
167.9539263336586
 21
637.9222176187647
 31
0.0
 11
167.6589004108945
 21
638.0608388516857
 31
0.0
 11
167.3664721418894
 21
638.204855993631
 31
0.0
 11
166.8401430271497
 21
638.4800406050325
 31
0.0
 11
166.3218830972141
 21
638.7701327433636
 31
0.0
  0
SPLINE
  5
106
330
3F
100
AcDbEntity
  8
1
  6
Continuous
 62
     7
100
AcDbSpline
210
0.0
220
0.0
230
1.0
 70
     8
 71
     3
 72
    33
 73
    29
 74
    27
 42
0.0000000001
 43
0.0000000001
 44
0.00000001
 40
0.0
 40
0.0
 40
0.0
 40
0.0
 40
0.5939249141923215
 40
1.187851599377302
 40
1.513819741512963
 40
1.839789281990729
 40
2.196317437918174
 40
2.55285193510473
 40
2.958199561198985
 40
3.363541512548743
 40
3.863542578221051
 40
4.36366270681127
 40
5.22416005268883
 40
6.084683379167954
 40
6.883623439069145
 40
7.682563498970326
 40
8.54308682544945
 40
9.403584171326987
 40
9.90370429991726
 40
10.40370536558955
 40
10.80904731693939
 40
11.21439494303349
 40
11.57092944022001
 40
11.92745759614733
 40
12.25342713662523
 40
12.57939527876096
 40
13.17332196394602
 40
13.76724687813834
 40
13.76724687813834
 40
13.76724687813834
 40
13.76724687813834
 10
179.3218830972141
 20
638.7701327433636
 30
0.0
 10
179.4940712924324
 20
638.6724091121434
 30
0.0
 10
179.8384481963076
 20
638.4769615583064
 30
0.0
 10
180.2859707395788
 20
638.2435741658087
 30
0.0
 10
180.6584579551147
 20
638.05992332953
 30
0.0
 10
180.9627083016053
 20
637.9169305643377
 30
0.0
 10
181.2790998846008
 20
637.7759710776659
 30
0.0
 10
181.6230073509188
 20
637.6319770944755
 30
0.0
 10
181.9856671468344
 20
637.4909155153184
 30
0.0
 10
182.397323714336
 20
637.3443885304873
 30
0.0
 10
182.8439529487579
 20
637.2025234435899
 30
0.0
 10
183.4424037651936
 20
637.0391009325434
 30
0.0
 10
184.1677866635251
 20
636.8868917104679
 30
0.0
 10
185.0021817315233
 20
636.7816562178821
 30
0.0
 10
185.8218830972141
 20
636.7482964165077
 30
0.0
 10
186.6415844629049
 20
636.7816562178814
 30
0.0
 10
187.475979530903
 20
636.8868917104684
 30
0.0
 10
188.2013624292346
 20
637.0391009325434
 30
0.0
 10
188.7998132456702
 20
637.2025234435902
 30
0.0
 10
189.2464424800922
 20
637.3443885304868
 30
0.0
 10
189.6580990475939
 20
637.4909155153187
 30
0.0
 10
190.0207588435093
 20
637.6319770944751
 30
0.0
 10
190.3646663098272
 20
637.7759710776661
 30
0.0
 10
190.6810578928227
 20
637.9169305643375
 30
0.0
 10
190.9853082393134
 20
638.05992332953
 30
0.0
 10
191.3577954548493
 20
638.2435741658087
 30
0.0
 10
191.8053179981205
 20
638.4769615583066
 30
0.0
 10
192.1496949019958
 20
638.6724091121434
 30
0.0
 10
192.3218830972141
 20
638.7701327433636
 30
0.0
 11
179.3218830972141
 21
638.7701327433636
 31
0.0
 11
179.8401430271497
 21
638.4800406050324
 31
0.0
 11
180.3664721418894
 21
638.204855993631
 31
0.0
 11
180.6589004108944
 21
638.0608388516857
 31
0.0
 11
180.9539263336584
 21
637.9222176187648
 31
0.0
 11
181.2796310748158
 21
637.7772046967314
 31
0.0
 11
181.6085324010774
 21
637.6395792438985
 31
0.0
 11
181.9863525871404
 21
637.4927507555743
 31
0.0
 11
182.3682658917547
 21
637.3569408690321
 31
0.0
 11
182.8448799917993
 21
637.2058115690533
 31
0.0
 11
183.3273999460429
 21
637.0743024941656
 31
0.0
 11
184.1697285017925
 21
636.8984096676171
 31
0.0
 11
185.0236054152461
 21
636.7916641192996
 31
0.0
 11
185.8218830972141
 21
636.7591377947804
 31
0.0
 11
186.6201607791821
 21
636.7916641192994
 31
0.0
 11
187.4740376926357
 21
636.8984096676173
 31
0.0
 11
188.3163662483852
 21
637.0743024941658
 31
0.0
 11
188.7988862026289
 21
637.2058115690534
 31
0.0
 11
189.2755003026736
 21
637.356940869032
 31
0.0
 11
189.657413607288
 21
637.4927507555742
 31
0.0
 11
190.0352337933508
 21
637.6395792438984
 31
0.0
 11
190.3641351196123
 21
637.7772046967314
 31
0.0
 11
190.6898398607695
 21
637.9222176187647
 31
0.0
 11
190.9848657835336
 21
638.0608388516857
 31
0.0
 11
191.2772940525388
 21
638.204855993631
 31
0.0
 11
191.8036231672785
 21
638.4800406050325
 31
0.0
 11
192.3218830972141
 21
638.7701327433636
 31
0.0
  0
ARC
  5
107
330
3F
100
AcDbEntity
  8
1
  6
Continuous
 62
     7
100
AcDbCircle
 10
345.7397082864184
 20
180.5380585002957
 30
0.0
 40
5.0
100
AcDbArc
 50
-90.0
 51
-45.00000000000046
  0
ARC
  5
108
330
3F
100
AcDbEntity
  8
1
  6
Continuous
 62
     7
100
AcDbCircle
 10
344.8218830972141
 20
180.5380585002957
 30
0.0
 40
5.0
100
AcDbArc
 50
180.0
 51
-90.0
  0
ARC
  5
109
330
3F
100
AcDbEntity
  8
1
  6
Continuous
 62
     7
100
AcDbCircle
 10
345.7397082864184
 20
145.5380585002956
 30
0.0
 40
5.0
100
AcDbArc
 50
44.99999999999955
 51
90.0
  0
ARC
  5
10A
330
3F
100
AcDbEntity
  8
1
  6
Continuous
 62
     7
100
AcDbCircle
 10
196.8218830972141
 20
634.1879579325679
 30
0.0
 40
5.000000000000054
100
AcDbArc
 50
154.1580672368346
 51
180.0
  0
ARC
  5
10B
330
3F
100
AcDbEntity
  8
1
  6
Continuous
 62
     7
100
AcDbCircle
 10
161.821883097214
 20
634.1879579325679
 30
0.0
 40
5.0
100
AcDbArc
 50
0.0
 51
25.84193276316542
  0
ENDBLK
  5
41
330
3F
100
AcDbEntity
  8
0
100
AcDbBlockEnd
  0
BLOCK
  5
43
330
42
100
AcDbEntity
  8
0
100
AcDbBlockBegin
  2
_J__A4
 70
     0
 71
     0
 10
0.0
 20
0.0
 30
0.0
  3
_J__A4
  1

  0
POINT
  5
10C
330
42
100
AcDbEntity
  8
1
 62
     4
100
AcDbPoint
 10
34.0
 20
34.00000000000001
 30
0.0
  0
POINT
  5
10D
330
42
100
AcDbEntity
  8
1
 62
     4
100
AcDbPoint
 10
57.0
 20
12.25
 30
0.0
  0
POINT
  5
10E
330
42
100
AcDbEntity
  8
1
 62
     4
100
AcDbPoint
 10
57.0
 20
20.75000000000001
 30
0.0
  0
POINT
  5
10F
330
42
100
AcDbEntity
  8
1
 62
     4
100
AcDbPoint
 10
57.0
 20
24.75000000000001
 30
0.0
  0
POINT
  5
110
330
42
100
AcDbEntity
  8
1
 62
     4
100
AcDbPoint
 10
57.0
 20
16.25
 30
0.0
  0
POINT
  5
111
330
42
100
AcDbEntity
  8
1
 62
     4
100
AcDbPoint
 10
157.5
 20
19.00000000000001
 30
0.0
  0
POINT
  5
112
330
42
100
AcDbEntity
  8
1
 62
     4
100
AcDbPoint
 10
47.5
 20
282.0000000000003
 30
0.0
  0
POINT
  5
113
330
42
100
AcDbEntity
  8
1
 62
     4
100
AcDbPoint
 10
57.0
 20
22.75000000000001
 30
0.0
  0
POINT
  5
114
330
42
100
AcDbEntity
  8
1
 62
     4
100
AcDbPoint
 10
57.0
 20
14.25
 30
0.0
  0
POINT
  5
115
330
42
100
AcDbEntity
  8
1
 62
     4
100
AcDbPoint
 10
157.5
 20
12.5
 30
0.0
  0
POINT
  5
116
330
42
100
AcDbEntity
  8
1
 62
     4
100
AcDbPoint
 10
163.25
 20
12.5
 30
0.0
  0
POINT
  5
117
330
42
100
AcDbEntity
  8
1
 62
     4
100
AcDbPoint
 10
151.75
 20
12.5
 30
0.0
  0
POINT
  5
118
330
42
100
AcDbEntity
  8
1
 62
     4
100
AcDbPoint
 10
134.75
 20
12.5
 30
0.0
  0
POINT
  5
119
330
42
100
AcDbEntity
  8
1
 62
     4
100
AcDbPoint
 10
146.25
 20
12.5
 30
0.0
  0
POINT
  5
11A
330
42
100
AcDbEntity
  8
1
 62
     4
100
AcDbPoint
 10
140.5
 20
12.5
 30
0.0
  0
POINT
  5
11B
330
42
100
AcDbEntity
  8
1
 62
     4
100
AcDbPoint
 10
140.5
 20
19.00000000000001
 30
0.0
  0
POINT
  5
11C
330
42
100
AcDbEntity
  8
1
 62
     4
100
AcDbPoint
 10
117.75
 20
12.5
 30
0.0
  0
POINT
  5
11D
330
42
100
AcDbEntity
  8
1
 62
     4
100
AcDbPoint
 10
129.25
 20
12.5
 30
0.0
  0
POINT
  5
11E
330
42
100
AcDbEntity
  8
1
 62
     4
100
AcDbPoint
 10
123.5
 20
12.5
 30
0.0
  0
POINT
  5
11F
330
42
100
AcDbEntity
  8
1
 62
     4
100
AcDbPoint
 10
123.5
 20
19.00000000000001
 30
0.0
  0
POINT
  5
120
330
42
100
AcDbEntity
  8
1
 62
     4
100
AcDbPoint
 10
100.75
 20
12.5
 30
0.0
  0
POINT
  5
121
330
42
100
AcDbEntity
  8
1
 62
     4
100
AcDbPoint
 10
112.25
 20
12.5
 30
0.0
  0
POINT
  5
122
330
42
100
AcDbEntity
  8
1
 62
     4
100
AcDbPoint
 10
106.5
 20
12.5
 30
0.0
  0
POINT
  5
123
330
42
100
AcDbEntity
  8
1
 62
     4
100
AcDbPoint
 10
106.5
 20
19.00000000000001
 30
0.0
  0
POINT
  5
124
330
42
100
AcDbEntity
  8
1
 62
     4
100
AcDbPoint
 10
85.25
 20
17.0
 30
0.0
  0
POINT
  5
125
330
42
100
AcDbEntity
  8
1
 62
     4
100
AcDbPoint
 10
93.75
 20
17.0
 30
0.0
  0
LINE
  5
126
330
42
100
AcDbEntity
  8
1
  6
Continuous
 62
     2
100
AcDbLine
 10
81.0
 20
27.00000000000001
 30
0.0
 11
81.0
 21
10.0
 31
0.0
  0
LINE
  5
127
330
42
100
AcDbEntity
  8
1
  6
DOT_CENTER
 62
     2
100
AcDbLine
 10
187.0
 20
26.50000000000001
 30
0.0
 11
187.0
 21
20.50000000000001
 31
0.0
  0
LINE
  5
128
330
42
100
AcDbEntity
  8
1
  6
DOT_CENTER
 62
     2
100
AcDbLine
 10
184.0
 20
23.50000000000001
 30
0.0
 11
197.0
 21
23.50000000000001
 31
0.0
  0
LINE
  5
129
330
42
100
AcDbEntity
  8
1
  6
Continuous
 62
     7
100
AcDbLine
 10
196.0
 20
21.50000000000001
 30
0.0
 11
191.0
 21
22.30000000000001
 31
0.0
  0
LINE
  5
12A
330
42
100
AcDbEntity
  8
1
  6
Continuous
 62
     7
100
AcDbLine
 10
196.0
 20
25.50000000000001
 30
0.0
 11
196.0
 21
21.50000000000001
 31
0.0
  0
LINE
  5
12B
330
42
100
AcDbEntity
  8
1
  6
Continuous
 62
     7
100
AcDbLine
 10
191.0
 20
24.70000000000001
 30
0.0
 11
196.0
 21
25.50000000000001
 31
0.0
  0
LINE
  5
12C
330
42
100
AcDbEntity
  8
1
  6
Continuous
 62
     7
100
AcDbLine
 10
191.0
 20
24.70000000000001
 30
0.0
 11
191.0
 21
22.30000000000001
 31
0.0
  0
LINE
  5
12D
330
42
100
AcDbEntity
  8
1
  6
Continuous
 62
     2
100
AcDbLine
 10
33.0
 20
27.0
 30
0.0
 11
33.0
 21
10.0
 31
0.0
  0
LINE
  5
12E
330
42
100
AcDbEntity
  8
1
  6
Continuous
 62
     2
100
AcDbLine
 10
25.0
 20
18.50000000000001
 30
0.0
 11
81.0
 21
18.50000000000001
 31
0.0
  0
LINE
  5
12F
330
42
100
AcDbEntity
  8
1
  6
Continuous
 62
     7
100
AcDbLine
 10
200.0
 20
287.0000000000003
 30
0.0
 11
105.0
 21
287.0000000000003
 31
0.0
  0
LINE
  5
130
330
42
100
AcDbEntity
  8
1
  6
Continuous
 62
     7
100
AcDbLine
 10
200.0
 20
10.0
 30
0.0
 11
200.0
 21
148.5
 31
0.0
  0
LINE
  5
131
330
42
100
AcDbEntity
  8
1
  6
Continuous
 62
     7
100
AcDbLine
 10
25.0
 20
10.0
 30
0.0
 11
105.0
 21
10.0
 31
0.0
  0
LINE
  5
132
330
42
100
AcDbEntity
  8
1
  6
PHANTOM
 62
     4
100
AcDbLine
 10
0.0
 20
297.0
 30
0.0
 11
0.0
 21
0.0
 31
0.0
  0
LINE
  5
133
330
42
100
AcDbEntity
  8
1
  6
PHANTOM
 62
     4
100
AcDbLine
 10
210.0
 20
297.0
 30
0.0
 11
0.0
 21
297.0
 31
0.0
  0
LINE
  5
134
330
42
100
AcDbEntity
  8
1
  6
PHANTOM
 62
     4
100
AcDbLine
 10
210.0
 20
0.0
 30
0.0
 11
210.0
 21
297.0
 31
0.0
  0
LINE
  5
135
330
42
100
AcDbEntity
  8
1
  6
PHANTOM
 62
     4
100
AcDbLine
 10
0.0
 20
0.0
 30
0.0
 11
210.0
 21
0.0
 31
0.0
  0
LINE
  5
136
330
42
100
AcDbEntity
  8
1
  6
Continuous
 62
     7
100
AcDbLine
 10
25.0
 20
41.0
 30
0.0
 11
200.0
 21
41.0
 31
0.0
  0
LINE
  5
137
330
42
100
AcDbEntity
  8
1
  6
Continuous
 62
     7
100
AcDbLine
 10
200.0
 20
27.00000000000001
 30
0.0
 11
25.0
 21
27.00000000000001
 31
0.0
  0
LINE
  5
138
330
42
100
AcDbEntity
  8
1
  6
Continuous
 62
     2
100
AcDbLine
 10
33.0
 20
41.00000000000001
 30
0.0
 11
33.0
 21
27.0
 31
0.0
  0
LINE
  5
139
330
42
100
AcDbEntity
  8
1
  6
Continuous
 62
     2
100
AcDbLine
 10
55.0
 20
287.0000000000003
 30
0.0
 11
55.0
 21
277.0000000000003
 31
0.0
  0
LINE
  5
13A
330
42
100
AcDbEntity
  8
1
  6
Continuous
 62
     2
100
AcDbLine
 10
40.0
 20
287.0000000000003
 30
0.0
 11
40.0
 21
277.0000000000003
 31
0.0
  0
LINE
  5
13B
330
42
100
AcDbEntity
  8
1
  6
Continuous
 62
     7
100
AcDbLine
 10
25.0
 20
10.0
 30
0.0
 11
25.0
 21
148.5
 31
0.0
  0
LINE
  5
13C
330
42
100
AcDbEntity
  8
1
  6
Continuous
 62
     2
100
AcDbLine
 10
55.0
 20
277.0000000000003
 30
0.0
 11
25.0
 21
277.0000000000003
 31
0.0
  0
LINE
  5
13D
330
42
100
AcDbEntity
  8
1
  6
Continuous
 62
     2
100
AcDbLine
 10
166.0
 20
27.00000000000001
 30
0.0
 11
166.0
 21
10.0
 31
0.0
  0
LINE
  5
13E
330
42
100
AcDbEntity
  8
1
  6
Continuous
 62
     2
100
AcDbLine
 10
132.0
 20
27.00000000000001
 30
0.0
 11
132.0
 21
9.99999999999999
 31
0.0
  0
LINE
  5
13F
330
42
100
AcDbEntity
  8
1
  6
Continuous
 62
     2
100
AcDbLine
 10
149.0
 20
27.00000000000001
 30
0.0
 11
149.0
 21
10.0
 31
0.0
  0
LINE
  5
140
330
42
100
AcDbEntity
  8
1
  6
Continuous
 62
     2
100
AcDbLine
 10
115.0
 20
27.00000000000001
 30
0.0
 11
115.0
 21
9.99999999999999
 31
0.0
  0
LINE
  5
141
330
42
100
AcDbEntity
  8
1
  6
Continuous
 62
     2
100
AcDbLine
 10
98.0
 20
27.00000000000001
 30
0.0
 11
98.0
 21
9.99999999999999
 31
0.0
  0
LINE
  5
142
330
42
100
AcDbEntity
  8
1
  6
Continuous
 62
     2
100
AcDbLine
 10
166.0
 20
20.00000000000001
 30
0.0
 11
200.0
 21
20.00000000000001
 31
0.0
  0
LINE
  5
143
330
42
100
AcDbEntity
  8
1
  6
Continuous
 62
     2
100
AcDbLine
 10
105.0
 20
287.0000000000003
 30
0.0
 11
105.0
 21
292.0000000000003
 31
0.0
  0
LINE
  5
144
330
42
100
AcDbEntity
  8
1
  6
Continuous
 62
     7
100
AcDbLine
 10
105.0
 20
287.0000000000003
 30
0.0
 11
25.0
 21
287.0000000000003
 31
0.0
  0
LINE
  5
145
330
42
100
AcDbEntity
  8
1
  6
Continuous
 62
     2
100
AcDbLine
 10
25.0
 20
148.5
 30
0.0
 11
20.0
 21
148.5
 31
0.0
  0
LINE
  5
146
330
42
100
AcDbEntity
  8
1
  6
Continuous
 62
     7
100
AcDbLine
 10
25.0
 20
148.5
 30
0.0
 11
25.0
 21
287.0000000000003
 31
0.0
  0
LINE
  5
147
330
42
100
AcDbEntity
  8
1
  6
Continuous
 62
     2
100
AcDbLine
 10
200.0
 20
148.5
 30
0.0
 11
205.0
 21
148.5
 31
0.0
  0
LINE
  5
148
330
42
100
AcDbEntity
  8
1
  6
Continuous
 62
     7
100
AcDbLine
 10
200.0
 20
148.5
 30
0.0
 11
200.0
 21
287.0000000000003
 31
0.0
  0
LINE
  5
149
330
42
100
AcDbEntity
  8
1
  6
Continuous
 62
     2
100
AcDbLine
 10
105.0
 20
10.0
 30
0.0
 11
105.0
 21
5.0
 31
0.0
  0
LINE
  5
14A
330
42
100
AcDbEntity
  8
1
  6
Continuous
 62
     7
100
AcDbLine
 10
105.0
 20
10.0
 30
0.0
 11
200.0
 21
10.0
 31
0.0
  0
CIRCLE
  5
14B
330
42
100
AcDbEntity
  8
1
  6
DOT_CENTER
 62
     7
100
AcDbCircle
 10
89.5
 20
18.0
 30
0.0
 40
0.1000000000000227
  0
CIRCLE
  5
14C
330
42
100
AcDbEntity
  8
1
  6
DOT_CENTER
 62
     7
100
AcDbCircle
 10
89.5
 20
16.0
 30
0.0
 40
0.1000000000000227
  0
CIRCLE
  5
14D
330
42
100
AcDbEntity
  8
1
  6
Continuous
 62
     7
100
AcDbCircle
 10
187.0
 20
23.50000000000001
 30
0.0
 40
2.0
  0
CIRCLE
  5
14E
330
42
100
AcDbEntity
  8
1
  6
Continuous
 62
     7
100
AcDbCircle
 10
187.0
 20
23.50000000000001
 30
0.0
 40
1.200000000000102
  0
CIRCLE
  5
14F
330
42
100
AcDbEntity
  8
1
  6
Continuous
 62
     7
100
AcDbCircle
 10
154.5
 20
12.5
 30
0.0
 40
0.3000000000000114
  0
CIRCLE
  5
150
330
42
100
AcDbEntity
  8
1
  6
Continuous
 62
     7
100
AcDbCircle
 10
160.5
 20
12.5
 30
0.0
 40
0.3000000000000114
  0
CIRCLE
  5
151
330
42
100
AcDbEntity
  8
1
  6
Continuous
 62
     7
100
AcDbCircle
 10
143.5
 20
12.5
 30
0.0
 40
0.3000000000000114
  0
CIRCLE
  5
152
330
42
100
AcDbEntity
  8
1
  6
Continuous
 62
     7
100
AcDbCircle
 10
137.5
 20
12.5
 30
0.0
 40
0.3000000000000114
  0
CIRCLE
  5
153
330
42
100
AcDbEntity
  8
1
  6
Continuous
 62
     7
100
AcDbCircle
 10
126.5
 20
12.5
 30
0.0
 40
0.2999999999999972
  0
CIRCLE
  5
154
330
42
100
AcDbEntity
  8
1
  6
Continuous
 62
     7
100
AcDbCircle
 10
120.5
 20
12.5
 30
0.0
 40
0.2999999999999972
  0
CIRCLE
  5
155
330
42
100
AcDbEntity
  8
1
  6
Continuous
 62
     7
100
AcDbCircle
 10
109.5
 20
12.5
 30
0.0
 40
0.2999999999999972
  0
CIRCLE
  5
156
330
42
100
AcDbEntity
  8
1
  6
Continuous
 62
     7
100
AcDbCircle
 10
103.5
 20
12.5
 30
0.0
 40
0.2999999999999972
  0
MTEXT
  5
158
330
42
100
AcDbEntity
  8
1
 62
   250
100
AcDbMText
 10
25.0
 20
5.0
 30
0.0
 40
3.5
 41
0.0
 71
     4
 72
     1
  1
備考欄の文字列 原点位置=4
  7
CONVERTER_1
 73
     1
 44
0.7202881152461
  0
MTEXT
  5
159
330
42
100
AcDbEntity
  8
1
 62
     2
100
AcDbMText
 10
89.5
 20
24.00000000000001
 30
0.0
 40
3.5
 41
0.0
 71
     5
 72
     1
  1
尺度
  7
CONVERTER_1
 73
     1
 44
0.7202881152461
  0
MTEXT
  5
15A
330
42
100
AcDbEntity
  8
1
 62
     2
100
AcDbMText
 10
135.5
 20
25.00000000000001
 30
0.0
 40
3.0
 41
0.0
 71
     5
 72
     1
  1
製図
  7
CONVERTER_1
 73
     1
 44
0.78031212484994
  0
MTEXT
  5
15B
330
42
100
AcDbEntity
  8
1
 62
     2
100
AcDbMText
 10
152.5
 20
25.00000000000001
 30
0.0
 40
3.0
 41
0.0
 71
     5
 72
     1
  1
設計
  7
CONVERTER_1
 73
     1
 44
0.78031212484994
  0
MTEXT
  5
15C
330
42
100
AcDbEntity
  8
1
 62
     2
100
AcDbMText
 10
118.5
 20
25.00000000000001
 30
0.0
 40
3.0
 41
0.0
 71
     5
 72
     1
  1
検図
  7
CONVERTER_1
 73
     1
 44
0.78031212484994
  0
MTEXT
  5
15D
330
42
100
AcDbEntity
  8
1
 62
     2
100
AcDbMText
 10
175.0
 20
23.50000000000001
 30
0.0
 40
3.5
 41
0.0
 71
     5
 72
     1
  1
第三角法
  7
CONVERTER_1
 73
     1
 44
0.7202881152461
  0
MTEXT
  5
15E
330
42
100
AcDbEntity
  8
1
 62
     2
100
AcDbMText
 10
101.5
 20
25.00000000000001
 30
0.0
 40
3.0
 41
0.0
 71
     5
 72
     1
  1
承認
  7
CONVERTER_1
 73
     1
 44
0.78031212484994
  0
MTEXT
  5
15F
330
42
100
AcDbEntity
  8
1
 62
     2
100
AcDbMText
 10
29.0
 20
14.25
 30
0.0
 40
3.5
 41
0.0
 71
     5
 72
     1
  1
品番
  7
CONVERTER_1
 73
     1
 44
0.96038415366146
  0
MTEXT
  5
160
330
42
100
AcDbEntity
  8
1
 62
     2
100
AcDbMText
 10
29.0
 20
22.75
 30
0.0
 40
3.5
 41
0.0
 71
     5
 72
     1
  1
品名
  7
CONVERTER_1
 73
     1
 44
0.96038415366146
  0
MTEXT
  5
161
330
42
100
AcDbEntity
  8
1
 62
     2
100
AcDbMText
 10
29.0
 20
34.00000000000001
 30
0.0
 40
3.5
 41
0.0
 71
     5
 72
     1
  1
備考
  7
CONVERTER_1
 73
     1
 44
0.60024009603842
  0
MTEXT
  5
162
330
42
100
AcDbEntity
  8
1
 62
     2
100
AcDbMText
 10
32.5
 20
282.0000000000003
 30
0.0
 40
5.0
 41
0.0
 71
     5
 72
     1
  1
図番
  7
CONVERTER_1
 73
     1
 44
0.60024009603842
  0
MTEXT
  5
163
330
42
100
AcDbEntity
  8
1
 62
     7
100
AcDbMText
 10
171.5
 20
15.0
 30
0.0
 40
2.5
 41
0.0
 71
     5
 72
     1
  1
株式会社
  7
CONVERTER_1
 73
     1
 44
1.32052821128451
  0
MTEXT
  5
164
330
42
100
AcDbEntity
  8
1
 62
     7
100
AcDbMText
 10
188.5
 20
15.0
 30
0.0
 40
3.0
 41
0.0
 71
     5
 72
     1
  1
三栄水栓製作所
  7
CONVERTER_1
 73
     1
 44
1.32052821128451
  0
ENDBLK
  5
44
330
42
100
AcDbEntity
  8
0
100
AcDbBlockEnd
  0
BLOCK
  5
46
330
45
100
AcDbEntity
  8
0
100
AcDbBlockBegin
  2
36-45
 70
     0
 71
     0
 10
1711.088093660643
 20
96.94528158258063
 30
0.0
  3
36-45
  1

  0
LINE
  5
165
330
45
100
AcDbEntity
  8
1
  6
Continuous
 62
     7
100
AcDbLine
 10
297.3218830972141
 20
163.9380585002955
 30
0.0
 11
296.3218830972141
 21
163.9380585002956
 31
0.0
  0
LINE
  5
166
330
45
100
AcDbEntity
  8
1
  6
Continuous
 62
     7
100
AcDbLine
 10
297.3218830972141
 20
167.7880585002956
 30
0.0
 11
297.3218830972141
 21
163.9380585002955
 31
0.0
  0
LINE
  5
167
330
45
100
AcDbEntity
  8
1
  6
Continuous
 62
     7
100
AcDbLine
 10
297.3218830972141
 20
162.1380585002955
 30
0.0
 11
298.8921918090293
 21
162.1380585002956
 31
0.0
  0
LINE
  5
168
330
45
100
AcDbEntity
  8
1
  6
Continuous
 62
     7
100
AcDbLine
 10
297.3218830972141
 20
158.2880585002956
 30
0.0
 11
297.3218830972141
 21
162.1380585002955
 31
0.0
  0
LINE
  5
169
330
45
100
AcDbEntity
  8
1
  6
Continuous
 62
     7
100
AcDbLine
 10
174.6314673373908
 20
162.2880585002956
 30
0.0
 11
184.0122988570369
 21
162.2880585002956
 31
0.0
  0
LINE
  5
16A
330
45
100
AcDbEntity
  8
1
  6
Continuous
 62
     7
100
AcDbLine
 10
174.6314673373908
 20
163.7880585002956
 30
0.0
 11
184.0122988570369
 21
163.7880585002956
 31
0.0
  0
LINE
  5
16B
330
45
100
AcDbEntity
  8
1
  6
Continuous
 62
     7
100
AcDbLine
 10
296.3218830972141
 20
163.9380585002956
 30
0.0
 11
296.3218830972141
 21
166.7880585002956
 31
0.0
  0
LINE
  5
16C
330
45
100
AcDbEntity
  8
1
  6
Continuous
 62
     7
100
AcDbLine
 10
298.8921918090293
 20
163.9380585002956
 30
0.0
 11
297.3218830972141
 21
163.9380585002955
 31
0.0
  0
LINE
  5
16D
330
45
100
AcDbEntity
  8
1
  6
Continuous
 62
     7
100
AcDbLine
 10
297.3218830972141
 20
167.7880585002956
 30
0.0
 11
296.3218830972141
 21
166.7880585002956
 31
0.0
  0
LINE
  5
16E
330
45
100
AcDbEntity
  8
1
  6
Continuous
 62
     7
100
AcDbLine
 10
298.8921918090293
 20
167.7880585002956
 30
0.0
 11
297.3218830972141
 21
167.7880585002956
 31
0.0
  0
LINE
  5
16F
330
45
100
AcDbEntity
  8
1
  6
Continuous
 62
     7
100
AcDbLine
 10
296.3218830972141
 20
159.2880585002956
 30
0.0
 11
296.3218830972141
 21
162.1380585002956
 31
0.0
  0
LINE
  5
170
330
45
100
AcDbEntity
  8
1
  6
Continuous
 62
     7
100
AcDbLine
 10
296.3218830972141
 20
162.1380585002956
 30
0.0
 11
297.3218830972141
 21
162.1380585002955
 31
0.0
  0
LINE
  5
171
330
45
100
AcDbEntity
  8
1
  6
Continuous
 62
     7
100
AcDbLine
 10
296.3218830972141
 20
159.2880585002956
 30
0.0
 11
297.3218830972141
 21
158.2880585002956
 31
0.0
  0
LINE
  5
172
330
45
100
AcDbEntity
  8
1
  6
Continuous
 62
     7
100
AcDbLine
 10
297.3218830972141
 20
158.2880585002956
 30
0.0
 11
298.8921918090293
 21
158.2880585002956
 31
0.0
  0
ARC
  5
173
330
45
100
AcDbEntity
  8
1
  6
Continuous
 62
     7
100
AcDbCircle
 10
179.3218830972138
 20
163.0380585002956
 30
0.0
 40
4.749999999999573
100
AcDbArc
 50
170.9152797126081
 51
-170.9152797126081
  0
ARC
  5
174
330
45
100
AcDbEntity
  8
1
  6
Continuous
 62
     7
100
AcDbCircle
 10
179.3218830972138
 20
163.0380585002956
 30
0.0
 40
4.749999999999686
100
AcDbArc
 50
-9.08472028739169
 51
9.08472028739169
  0
ARC
  5
175
330
45
100
AcDbEntity
  8
1
  6
Continuous
 62
     7
100
AcDbCircle
 10
179.3218830972138
 20
163.0380585002956
 30
0.0
 40
4.749999999999686
100
AcDbArc
 50
9.08472028739169
 51
170.9152797126081
  0
ARC
  5
176
330
45
100
AcDbEntity
  8
1
  6
Continuous
 62
     7
100
AcDbCircle
 10
179.3218830972138
 20
163.0380585002956
 30
0.0
 40
3.750000000000332
100
AcDbArc
 50
11.53695903281445
 51
168.4630409671852
  0
ARC
  5
177
330
45
100
AcDbEntity
  8
1
  6
Continuous
 62
     7
100
AcDbCircle
 10
179.3218830972138
 20
163.0380585002956
 30
0.0
 40
4.749999999999573
100
AcDbArc
 50
-170.9152797126081
 51
-9.08472028739169
  0
ARC
  5
178
330
45
100
AcDbEntity
  8
1
  6
Continuous
 62
     7
100
AcDbCircle
 10
179.3218830972138
 20
163.0380585002956
 30
0.0
 40
3.75000000000022
100
AcDbArc
 50
-168.4630409671852
 51
-11.53695903281445
  0
ENDBLK
  5
47
330
45
100
AcDbEntity
  8
0
100
AcDbBlockEnd
  0
BLOCK
  5
49
330
48
100
AcDbEntity
  8
0
100
AcDbBlockBegin
  2
32-12-M2
 70
     0
 71
     0
 10
316.821883097214
 20
-294.6138900216624
 30
0.0
  3
32-12-M2
  1

  0
LINE
  5
179
330
48
100
AcDbEntity
  8
1
  6
Continuous
 62
     7
100
AcDbLine
 10
189.3145237843333
 20
610.1831134735335
 30
0.0
 11
185.671883097214
 21
608.0800338922638
 31
0.0
  0
LINE
  5
17A
330
48
100
AcDbEntity
  8
1
  6
Continuous
 62
     7
100
AcDbLine
 10
167.821883097214
 20
612.7939363887049
 30
0.0
 11
167.821883097214
 21
622.5918953598375
 31
0.0
  0
LINE
  5
17B
330
48
100
AcDbEntity
  8
1
  6
Continuous
 62
     7
100
AcDbLine
 10
169.3292424100949
 20
625.2027182750092
 30
0.0
 11
177.8145237843333
 21
630.1016977605755
 31
0.0
  0
LINE
  5
17C
330
48
100
AcDbEntity
  8
1
  6
Continuous
 62
     7
100
AcDbLine
 10
180.8292424100949
 20
630.1016977605755
 30
0.0
 11
189.3145237843333
 21
625.2027182750092
 31
0.0
  0
LINE
  5
17D
330
48
100
AcDbEntity
  8
1
  6
Continuous
 62
     7
100
AcDbLine
 10
340.2141879426271
 20
187.5380585002956
 30
0.0
 11
318.4295782518007
 21
187.5380585002956
 31
0.0
  0
LINE
  5
17E
330
48
100
AcDbEntity
  8
1
  6
Continuous
 62
     7
100
AcDbLine
 10
340.2141879426271
 20
199.5380585002956
 30
0.0
 11
318.4295782518007
 21
199.5380585002956
 31
0.0
  0
LINE
  5
17F
330
48
100
AcDbEntity
  8
1
  6
Continuous
 62
     7
100
AcDbLine
 10
169.5570308890817
 20
199.5380585002956
 30
0.0
 11
189.3145237843331
 21
199.5380585002956
 31
0.0
  0
LINE
  5
180
330
48
100
AcDbEntity
  8
1
  6
Continuous
 62
     7
100
AcDbLine
 10
167.8218830972138
 20
198.4125169153835
 30
0.0
 11
167.8218830972138
 21
188.6636000852076
 31
0.0
  0
LINE
  5
181
330
48
100
AcDbEntity
  8
1
  6
Continuous
 62
     7
100
AcDbLine
 10
169.3292424100946
 20
187.5380585002956
 30
0.0
 11
189.3145237843331
 21
187.5380585002956
 31
0.0
  0
LINE
  5
182
330
48
100
AcDbEntity
  8
1
  6
Continuous
 62
     7
100
AcDbLine
 10
190.8218830972138
 20
198.4125169153835
 30
0.0
 11
190.8218830972138
 21
188.6636000852076
 31
0.0
  0
LINE
  5
183
330
48
100
AcDbEntity
  8
1
  6
Continuous
 62
     7
100
AcDbLine
 10
190.821883097214
 20
622.5918953598375
 30
0.0
 11
190.821883097214
 21
612.7939363887049
 31
0.0
  0
LINE
  5
184
330
48
100
AcDbEntity
  8
1
  6
Continuous
 62
     7
100
AcDbLine
 10
172.9718830972139
 20
608.0800338922641
 30
0.0
 11
169.3292424100949
 21
610.1831134735335
 31
0.0
  0
ARC
  5
185
330
48
100
AcDbEntity
  8
1
  6
Continuous
 62
     7
100
AcDbCircle
 10
179.321883097214
 20
617.7701327433636
 30
0.0
 40
10.89230484541341
100
AcDbArc
 50
180.0
 51
-125.6604407724853
  0
ARC
  5
186
330
48
100
AcDbEntity
  8
1
  6
Continuous
 62
     7
100
AcDbCircle
 10
179.321883097214
 20
617.6929158742713
 30
0.0
 40
12.50000000000003
100
AcDbArc
 50
-156.9260819343687
 51
-143.0739180656306
  0
ARC
  5
187
330
48
100
AcDbEntity
  8
1
  6
Continuous
 62
     7
100
AcDbCircle
 10
179.321883097214
 20
617.6929158742713
 30
0.0
 40
12.49999999999983
100
AcDbArc
 50
143.0739180656306
 51
156.9260819343697
  0
ARC
  5
188
330
48
100
AcDbEntity
  8
1
  6
Continuous
 62
     7
100
AcDbCircle
 10
179.321883097214
 20
617.6929158742713
 30
0.0
 40
12.49999999999996
100
AcDbArc
 50
83.07391806563007
 51
96.92608193436904
  0
ARC
  5
189
330
48
100
AcDbEntity
  8
1
  6
Continuous
 62
     7
100
AcDbCircle
 10
179.321883097214
 20
617.7701327433636
 30
0.0
 40
10.89230484541343
100
AcDbArc
 50
-54.33955922751521
 51
180.0
  0
ARC
  5
18A
330
48
100
AcDbEntity
  8
1
  6
Continuous
 62
     7
100
AcDbCircle
 10
179.321883097214
 20
617.7701327433636
 30
0.0
 40
6.70000000000001
100
AcDbArc
 50
-18.60129618818485
 51
180.0
  0
ARC
  5
18B
330
48
100
AcDbEntity
  8
1
  6
Continuous
 62
     7
100
AcDbCircle
 10
179.321883097214
 20
617.7701327433636
 30
0.0
 40
6.699999999999989
100
AcDbArc
 50
180.0
 51
-161.3987038118155
  0
ARC
  5
18C
330
48
100
AcDbEntity
  8
1
  6
Continuous
 62
     7
100
AcDbCircle
 10
328.821883097214
 20
193.5380585002956
 30
0.0
 40
12.0000000000002
100
AcDbArc
 50
164.0379858371526
 51
-150.0000000000001
  0
ARC
  5
18D
330
48
100
AcDbEntity
  8
1
  6
Continuous
 62
     7
100
AcDbCircle
 10
329.821883097214
 20
193.5380585002956
 30
0.0
 40
11.99999999999985
100
AcDbArc
 50
-30.00000000000041
 51
30.00000000000041
  0
ARC
  5
18E
330
48
100
AcDbEntity
  8
0
  6
Continuous
 62
     7
100
AcDbCircle
 10
329.321883097214
 20
193.5769100035058
 30
0.0
 40
4.83560691187764
100
AcDbArc
 50
-2.15882136915017
 51
-177.84117863085
  0
ARC
  5
18F
330
48
100
AcDbEntity
  8
0
  6
Continuous
 62
     7
100
AcDbCircle
 10
329.321883097214
 20
193.2125989930019
 30
0.0
 40
4.835606911877863
100
AcDbArc
 50
177.841178630851
 51
2.15882136914916
  0
ARC
  5
190
330
48
100
AcDbEntity
  8
1
  6
Continuous
 62
     7
100
AcDbCircle
 10
170.6476196389558
 20
195.9565617571163
 30
0.0
 40
3.743862009043045
100
AcDbArc
 50
106.9358291036613
 51
139.0048526480484
  0
ARC
  5
191
330
48
100
AcDbEntity
  8
1
  6
Continuous
 62
     7
100
AcDbCircle
 10
171.6110231479863
 20
192.1660096073776
 30
0.0
 40
5.159889028395389
100
AcDbArc
 50
-137.2519203604478
 51
-116.2452975634023
  0
ARC
  5
192
330
48
100
AcDbEntity
  8
1
  6
Continuous
 62
     7
100
AcDbCircle
 10
187.1073951394237
 20
192.0660332679054
 30
0.0
 40
5.037258416171508
100
AcDbArc
 50
-64.01341503332337
 51
-42.48936704282323
  0
ARC
  5
193
330
48
100
AcDbEntity
  8
1
  6
Continuous
 62
     7
100
AcDbCircle
 10
187.1073951394236
 20
195.0100837326855
 30
0.0
 40
5.037258416171714
100
AcDbArc
 50
42.48936704282424
 51
64.0134150333239
  0
ARC
  5
194
330
48
100
AcDbEntity
  8
1
  6
Continuous
 62
     7
100
AcDbCircle
 10
328.821883097214
 20
193.5380585002956
 30
0.0
 40
12.00000000000005
100
AcDbArc
 50
150.0000000000001
 51
164.0379858371526
  0
ARC
  5
195
330
48
100
AcDbEntity
  8
1
  6
Continuous
 62
     7
100
AcDbCircle
 10
179.321883097214
 20
617.6929158742713
 30
0.0
 40
12.49999999999994
100
AcDbArc
 50
23.07391806563032
 51
36.92608193436892
  0
ARC
  5
196
330
48
100
AcDbEntity
  8
1
  6
Continuous
 62
     7
100
AcDbCircle
 10
179.321883097214
 20
617.6929158742713
 30
0.0
 40
12.49999999999999
100
AcDbArc
 50
-36.92608193436892
 51
-23.07391806563128
  0
SPLINE
  5
197
330
48
100
AcDbEntity
  8
1
  6
Continuous
 62
     7
100
AcDbSpline
210
0.0
220
0.0
230
1.0
 70
    11
 71
     3
 72
    79
 73
    75
 74
    73
 42
0.0000000001
 43
0.0000000001
 44
0.00000001
 40
0.0
 40
0.0
 40
0.0
 40
0.0
 40
0.2251440043914981
 40
0.4498541163683386
 40
0.6980863442792002
 40
0.945809697968927
 40
1.225753246444068
 40
1.50534188225413
 40
1.820037946962549
 40
2.134517093609229
 40
2.48253380261979
 40
2.830421094392807
 40
3.207135646622286
 40
3.583774048987365
 40
3.982383404506563
 40
4.380950216893783
 40
4.793229956183799
 40
5.205490581551421
 40
5.622408661135142
 40
6.039326740718837
 40
6.451587366086454
 40
6.863867105376449
 40
7.262433917763744
 40
7.661043273282942
 40
8.037681675648036
 40
8.414396227877472
 40
8.762283519650389
 40
9.110300228661
 40
9.424779375307574
 40
9.739475440016118
 40
10.01906407582616
 40
10.29900762430124
 40
10.54673097799095
 40
10.79496320590181
 40
11.01967331787869
 40
11.2448173222702
 40
11.46116996799155
 40
11.67752261371284
 40
11.90266661810428
 40
12.12737673008119
 40
12.37560895799217
 40
12.62333231168189
 40
12.90327586015695
 40
13.18286449596697
 40
13.49756056067545
 40
13.81203970732209
 40
14.1600564163327
 40
14.50794370810571
 40
14.88465826033514
 40
15.26129666270021
 40
15.6599060182194
 40
16.0584728306067
 40
16.47075256989672
 40
16.8830131952643
 40
17.29993127484802
 40
17.71684935443168
 40
18.12910997979936
 40
18.54138971908934
 40
18.93995653147657
 40
19.33856588699583
 40
19.7152042893609
 40
20.09191884159031
 40
20.43980613336327
 40
20.7878228423739
 40
21.10230198902059
 40
21.41699805372911
 40
21.69658668953914
 40
21.97653023801414
 40
22.2242535917039
 40
22.47248581961481
 40
22.69719593159165
 40
22.92233993598321
 40
23.1386925817045
 40
23.35504522742573
 40
23.35504522742573
 40
23.35504522742573
 40
23.35504522742573
 10
339.4966879436829
 20
198.3148442319806
 30
0.0
 10
339.5701229986417
 20
198.2984945619045
 30
0.0
 10
339.7168515861882
 20
198.2658267304651
 30
0.0
 10
339.9297399285852
 20
198.1683963611206
 30
0.0
 10
340.1338728131872
 20
198.040777857594
 30
0.0
 10
340.3336718450886
 20
197.8754749249561
 30
0.0
 10
340.5208240235571
 20
197.6814378867582
 30
0.0
 10
340.7018587071627
 20
197.4525804801369
 30
0.0
 10
340.8682179525085
 20
197.198986537694
 30
0.0
 10
341.0257028564037
 20
196.9135506097797
 30
0.0
 10
341.1671663303144
 20
196.6076095119063
 30
0.0
 10
341.2967739956226
 20
196.2741710164254
 30
0.0
 10
341.409354855035
 20
195.924564787142
 30
0.0
 10
341.5074284838955
 20
195.5531415335714
 30
0.0
 10
341.5877187072651
 20
195.1700249340469
 30
0.0
 10
341.6514768752131
 20
194.7717991670974
 30
0.0
 10
341.6969353259821
 20
194.3664914563733
 30
0.0
 10
341.7246051373949
 20
193.9534611876898
 30
0.0
 10
341.7337119255018
 20
193.5380585002985
 30
0.0
 10
341.7246051373965
 20
193.1226558128899
 30
0.0
 10
341.6969353259754
 20
192.7096255442576
 30
0.0
 10
341.6514768752386
 20
192.3043178333486
 30
0.0
 10
341.5877187071721
 20
191.9060920670661
 30
0.0
 10
341.5074284842348
 20
191.5229754651155
 30
0.0
 10
341.4093548538455
 20
191.1515522201225
 30
0.0
 10
341.2967739999273
 20
190.8019459600145
 30
0.0
 10
341.1671663156072
 20
190.4685075711993
 30
0.0
 10
341.0257029092205
 20
190.162566094489
 30
0.0
 10
340.8682177763357
 20
189.8771314512962
 30
0.0
 10
340.7018593362814
 20
189.6235329908531
 30
0.0
 10
340.520821963736
 20
189.3946906702315
 30
0.0
 10
340.3336791981946
 20
189.2006008218434
 30
0.0
 10
340.1338488363518
 20
189.0354736623942
 30
0.0
 10
339.9298263803556
 20
188.9072356113265
 30
0.0
 10
339.7165624880221
 20
188.8119122235721
 30
0.0
 10
339.5006223874805
 20
188.7559250524826
 30
0.0
 10
339.281175240735
 20
188.7355143215756
 30
0.0
 10
339.0617280939896
 20
188.7559250524824
 30
0.0
 10
338.8457879934481
 20
188.8119122235719
 30
0.0
 10
338.6325241011147
 20
188.9072356113265
 30
0.0
 10
338.4285016451183
 20
189.0354736623942
 30
0.0
 10
338.2286712832755
 20
189.2006008218432
 30
0.0
 10
338.041528517734
 20
189.3946906702315
 30
0.0
 10
337.8604911451887
 20
189.623532990853
 30
0.0
 10
337.6941327051346
 20
189.8771314512962
 30
0.0
 10
337.5366475722494
 20
190.1625660944888
 30
0.0
 10
337.3951841658628
 20
190.4685075711991
 30
0.0
 10
337.2655764815427
 20
190.8019459600145
 30
0.0
 10
337.1529956276247
 20
191.1515522201225
 30
0.0
 10
337.0549219972355
 20
191.5229754651156
 30
0.0
 10
336.9746317742981
 20
191.9060920670661
 30
0.0
 10
336.910873606231
 20
192.3043178333487
 30
0.0
 10
336.8654151554949
 20
192.7096255442574
 30
0.0
 10
336.8377453440734
 20
193.1226558128907
 30
0.0
 10
336.8286385559691
 20
193.5380585002958
 30
0.0
 10
336.8377453440734
 20
193.9534611876998
 30
0.0
 10
336.8654151554954
 20
194.3664914563367
 30
0.0
 10
336.9108736062294
 20
194.7717991672324
 30
0.0
 10
336.9746317743044
 20
195.1700249335618
 30
0.0
 10
337.0549219972116
 20
195.5531415353417
 30
0.0
 10
337.1529956277084
 20
195.9245647809383
 30
0.0
 10
337.2655764812398
 20
196.2741710388773
 30
0.0
 10
337.3951841668974
 20
196.607609435198
 30
0.0
 10
337.5366475685332
 20
196.9135508852528
 30
0.0
 10
337.6941327175303
 20
197.1989856188396
 30
0.0
 10
337.8604911009235
 20
197.4525837613924
 30
0.0
 10
338.0415286626648
 20
197.6814271434782
 30
0.0
 10
338.2286707659044
 20
197.875513276095
 30
0.0
 10
338.4285033321496
 20
198.0406528031
 30
0.0
 10
338.632518018292
 20
198.1688472622583
 30
0.0
 10
338.8458083346491
 20
198.2643188990887
 30
0.0
 10
339.0616530208474
 20
198.3197707585056
 30
0.0
 10
339.2814433122432
 20
198.3421066647109
 30
0.0
 10
339.424939733203
 20
198.3239317095573
 30
0.0
 10
339.4966879436828
 20
198.3148442319806
 30
0.0
 11
339.4966879436829
 21
198.3148442319806
 31
0.0
 11
339.7146032248529
 21
198.2582513618817
 31
0.0
 11
339.920249366496
 21
198.1676737771713
 31
0.0
 11
340.1308177413189
 21
198.0362196083594
 31
0.0
 11
340.3223896873913
 21
197.8791621365813
 31
0.0
 11
340.5174386633046
 21
197.6783530547946
 31
0.0
 11
340.6914293982924
 21
197.4594991550977
 31
0.0
 11
340.8648104951227
 21
197.1968727885522
 31
0.0
 11
341.0171405164306
 21
196.9217497282974
 31
0.0
 11
341.1638469093163
 21
196.6061663573207
 31
0.0
 11
341.2901837439646
 21
196.2820297009731
 31
0.0
 11
341.4061423793908
 21
195.9236061404591
 31
0.0
 11
341.5024957501368
 21
195.5595010538673
 31
0.0
 11
341.5845954147935
 21
195.1694381571818
 31
0.0
 11
341.6477075220408
 21
194.77589989239
 31
0.0
 11
341.6938689713737
 21
194.3662125676843
 31
0.0
 11
341.7214308642782
 21
193.9548743062886
 31
0.0
 11
341.7306649835182
 21
193.5380585002956
 31
0.0
 11
341.7214308642782
 21
193.1212426943026
 31
0.0
 11
341.6938689713737
 21
192.7099044329069
 31
0.0
 11
341.6477075220407
 21
192.3002171082012
 31
0.0
 11
341.5845954147935
 21
191.9066788434093
 31
0.0
 11
341.5024957501368
 21
191.5166159467239
 31
0.0
 11
341.4061423793908
 21
191.1525108601321
 31
0.0
 11
341.2901837439646
 21
190.7940872996181
 31
0.0
 11
341.1638469093163
 21
190.4699506432706
 31
0.0
 11
341.0171405164306
 21
190.1543672722938
 31
0.0
 11
340.8648104951228
 21
189.8792442120391
 31
0.0
 11
340.6914293982923
 21
189.6166178454936
 31
0.0
 11
340.5174386633045
 21
189.3977639457967
 31
0.0
 11
340.3223896873912
 21
189.1969548640101
 31
0.0
 11
340.1308177413189
 21
189.0398973922319
 31
0.0
 11
339.920249366496
 21
188.90844322342
 31
0.0
 11
339.7146032248529
 21
188.8178656387096
 31
0.0
 11
339.4966879436829
 21
188.7612727686106
 31
0.0
 11
339.281175240735
 21
188.7422269769829
 31
0.0
 11
339.0656625377872
 21
188.7612727686106
 31
0.0
 11
338.8477472566173
 21
188.8178656387095
 31
0.0
 11
338.6421011149741
 21
188.9084432234199
 31
0.0
 11
338.4315327401511
 21
189.0398973922319
 31
0.0
 11
338.2399607940788
 21
189.19695486401
 31
0.0
 11
338.0449118181655
 21
189.3977639457967
 31
0.0
 11
337.8709210831778
 21
189.6166178454936
 31
0.0
 11
337.6975399863474
 21
189.879244212039
 31
0.0
 11
337.5452099650394
 21
190.1543672722937
 31
0.0
 11
337.3985035721536
 21
190.4699506432704
 31
0.0
 11
337.2721667375054
 21
190.7940872996181
 31
0.0
 11
337.1562081020794
 21
191.1525108601321
 31
0.0
 11
337.0598547313335
 21
191.5166159467239
 31
0.0
 11
336.9777550666767
 21
191.9066788434094
 31
0.0
 11
336.9146429594292
 21
192.3002171082012
 31
0.0
 11
336.8684815100963
 21
192.7099044329069
 31
0.0
 11
336.840919617192
 21
193.1212426943026
 31
0.0
 11
336.831685497952
 21
193.5380585002956
 31
0.0
 11
336.840919617192
 21
193.9548743062886
 31
0.0
 11
336.8684815100964
 21
194.3662125676844
 31
0.0
 11
336.9146429594293
 21
194.77589989239
 31
0.0
 11
336.9777550666766
 21
195.1694381571818
 31
0.0
 11
337.0598547313335
 21
195.5595010538673
 31
0.0
 11
337.1562081020794
 21
195.9236061404591
 31
0.0
 11
337.2721667375054
 21
196.2820297009731
 31
0.0
 11
337.3985035721535
 21
196.6061663573208
 31
0.0
 11
337.5452099650394
 21
196.9217497282975
 31
0.0
 11
337.6975399863474
 21
197.1968727885522
 31
0.0
 11
337.8709210831779
 21
197.4594991550977
 31
0.0
 11
338.0449118181655
 21
197.6783530547947
 31
0.0
 11
338.2399607940788
 21
197.8791621365812
 31
0.0
 11
338.4315327401512
 21
198.0362196083594
 31
0.0
 11
338.6421011149741
 21
198.1676737771713
 31
0.0
 11
338.8477472566172
 21
198.2582513618817
 31
0.0
 11
339.0656625377873
 21
198.3148442319806
 31
0.0
 11
339.2811752407351
 21
198.3338900236083
 31
0.0
 11
339.4966879436828
 21
198.3148442319806
 31
0.0
  0
SPLINE
  5
198
330
48
100
AcDbEntity
  8
1
  6
Continuous
 62
     7
100
AcDbSpline
210
0.0
220
0.0
230
1.0
 70
    11
 71
     3
 72
    79
 73
    75
 74
    73
 42
0.0000000001
 43
0.0000000001
 44
0.00000001
 40
0.0
 40
0.0
 40
0.0
 40
0.0
 40
0.2251440043915531
 40
0.4498541163683937
 40
0.6980863442793035
 40
0.9458096979689423
 40
1.225753246444084
 40
1.505341882254146
 40
1.820037946962627
 40
2.134517093609279
 40
2.48253380261984
 40
2.830421094392857
 40
3.207135646622302
 40
3.58377404898738
 40
3.982383404506579
 40
4.380950216893807
 40
4.793229956183823
 40
5.205490581551445
 40
5.622408661135166
 40
6.039326740718861
 40
6.451587366086479
 40
6.863867105376467
 40
7.262433917763771
 40
7.661043273282981
 40
8.037681675648059
 40
8.414396227877477
 40
8.762283519650413
 40
9.110300228660952
 40
9.424779375307582
 40
9.739475440016095
 40
10.01906407582621
 40
10.29900762430129
 40
10.546730977991
 40
10.79496320590191
 40
11.01967331787868
 40
11.24481732227019
 40
11.46116996799148
 40
11.67752261371277
 40
11.90266661810422
 40
12.12737673008117
 40
12.37560895799216
 40
12.62333231168188
 40
12.90327586015698
 40
13.18286449596696
 40
13.49756056067538
 40
13.81203970732202
 40
14.16005641633262
 40
14.50794370810569
 40
14.88465826033511
 40
15.26129666270019
 40
15.65990601821939
 40
16.05847283060667
 40
16.4707525698967
 40
16.88301319526428
 40
17.299931274848
 40
17.71684935443166
 40
18.12910997979933
 40
18.54138971908933
 40
18.93995653147656
 40
19.33856588699581
 40
19.71520428936088
 40
20.09191884159029
 40
20.43980613336332
 40
20.78782284237388
 40
21.10230198902054
 40
21.41699805372907
 40
21.69658668953909
 40
21.97653023801413
 40
22.22425359170385
 40
22.47248581961481
 40
22.6971959315917
 40
22.9223399359832
 40
23.13869258170449
 40
23.35504522742578
 40
23.35504522742578
 40
23.35504522742578
 40
23.35504522742578
 10
319.1470782507451
 20
198.3148442319806
 30
0.0
 10
319.0736431957863
 20
198.2984945619044
 30
0.0
 10
318.9269146082397
 20
198.2658267304651
 30
0.0
 10
318.714026265843
 20
198.1683963611205
 30
0.0
 10
318.5098933812407
 20
198.040777857594
 30
0.0
 10
318.3100943493394
 20
197.875474924956
 30
0.0
 10
318.1229421708708
 20
197.6814378867582
 30
0.0
 10
317.9419074872653
 20
197.4525804801369
 30
0.0
 10
317.7755482419194
 20
197.198986537694
 30
0.0
 10
317.6180633380242
 20
196.9135506097797
 30
0.0
 10
317.4765998641134
 20
196.6076095119063
 30
0.0
 10
317.3469921988053
 20
196.2741710164254
 30
0.0
 10
317.234411339393
 20
195.924564787142
 30
0.0
 10
317.1363377105326
 20
195.5531415335714
 30
0.0
 10
317.056047487163
 20
195.1700249340469
 30
0.0
 10
316.9922893192149
 20
194.7717991670973
 30
0.0
 10
316.9468308684458
 20
194.3664914563734
 30
0.0
 10
316.9191610570331
 20
193.9534611876898
 30
0.0
 10
316.9100542689262
 20
193.5380585002986
 30
0.0
 10
316.9191610570315
 20
193.1226558128899
 30
0.0
 10
316.9468308684529
 20
192.7096255442576
 30
0.0
 10
316.9922893191891
 20
192.3043178333486
 30
0.0
 10
317.0560474872559
 20
191.9060920670661
 30
0.0
 10
317.1363377101932
 20
191.5229754651155
 30
0.0
 10
317.2344113405825
 20
191.1515522201225
 30
0.0
 10
317.3469921945006
 20
190.8019459600145
 30
0.0
 10
317.4765998788209
 20
190.4685075711993
 30
0.0
 10
317.6180632852074
 20
190.1625660944889
 30
0.0
 10
317.7755484180923
 20
189.8771314512963
 30
0.0
 10
317.9419068581466
 20
189.623532990853
 30
0.0
 10
318.1229442306919
 20
189.3946906702316
 30
0.0
 10
318.3100869962336
 20
189.2006008218434
 30
0.0
 10
318.5099173580762
 20
189.0354736623942
 30
0.0
 10
318.7139398140725
 20
188.9072356113266
 30
0.0
 10
318.9272037064059
 20
188.8119122235721
 30
0.0
 10
319.1431438069475
 20
188.7559250524825
 30
0.0
 10
319.3625909536929
 20
188.7355143215757
 30
0.0
 10
319.5820381004381
 20
188.7559250524824
 30
0.0
 10
319.7979782009799
 20
188.811912223572
 30
0.0
 10
320.0112420933133
 20
188.9072356113264
 30
0.0
 10
320.2152645493096
 20
189.0354736623942
 30
0.0
 10
320.4150949111525
 20
189.2006008218432
 30
0.0
 10
320.602237676694
 20
189.3946906702315
 30
0.0
 10
320.7832750492393
 20
189.623532990853
 30
0.0
 10
320.9496334892932
 20
189.8771314512962
 30
0.0
 10
321.1071186221785
 20
190.1625660944889
 30
0.0
 10
321.248582028565
 20
190.468507571199
 30
0.0
 10
321.3781897128855
 20
190.8019459600145
 30
0.0
 10
321.4907705668031
 20
191.1515522201225
 30
0.0
 10
321.5888441971925
 20
191.5229754651156
 30
0.0
 10
321.66913442013
 20
191.9060920670661
 30
0.0
 10
321.7328925881968
 20
192.3043178333487
 30
0.0
 10
321.7783510389332
 20
192.7096255442573
 30
0.0
 10
321.8060208503545
 20
193.1226558128907
 30
0.0
 10
321.8151276384591
 20
193.5380585002959
 30
0.0
 10
321.8060208503545
 20
193.9534611876997
 30
0.0
 10
321.7783510389328
 20
194.3664914563368
 30
0.0
 10
321.7328925881986
 20
194.7717991672323
 30
0.0
 10
321.6691344201233
 20
195.1700249335618
 30
0.0
 10
321.5888441972164
 20
195.5531415353417
 30
0.0
 10
321.4907705667196
 20
195.9245647809382
 30
0.0
 10
321.3781897131883
 20
196.2741710388775
 30
0.0
 10
321.2485820275303
 20
196.6076094351978
 30
0.0
 10
321.1071186258947
 20
196.9135508852529
 30
0.0
 10
320.9496334768977
 20
197.1989856188396
 30
0.0
 10
320.7832750935045
 20
197.4525837613924
 30
0.0
 10
320.6022375317634
 20
197.6814271434782
 30
0.0
 10
320.4150954285234
 20
197.875513276095
 30
0.0
 10
320.2152628622785
 20
198.0406528031
 30
0.0
 10
320.011248176136
 20
198.1688472622584
 30
0.0
 10
319.7979578597789
 20
198.2643188990886
 30
0.0
 10
319.5821131735806
 20
198.3197707585057
 30
0.0
 10
319.3623228821846
 20
198.3421066647108
 30
0.0
 10
319.218826461225
 20
198.3239317095574
 30
0.0
 10
319.147078250745
 20
198.3148442319806
 30
0.0
 11
319.1470782507451
 21
198.3148442319806
 31
0.0
 11
318.929162969575
 21
198.2582513618817
 31
0.0
 11
318.723516827932
 21
198.1676737771713
 31
0.0
 11
318.512948453109
 21
198.0362196083594
 31
0.0
 11
318.3213765070368
 21
197.8791621365813
 31
0.0
 11
318.1263275311234
 21
197.6783530547946
 31
0.0
 11
317.9523367961356
 21
197.4594991550977
 31
0.0
 11
317.7789556993052
 21
197.1968727885522
 31
0.0
 11
317.6266256779974
 21
196.9217497282974
 31
0.0
 11
317.4799192851117
 21
196.6061663573207
 31
0.0
 11
317.3535824504634
 21
196.2820297009731
 31
0.0
 11
317.2376238150372
 21
195.9236061404591
 31
0.0
 11
317.1412704442913
 21
195.5595010538673
 31
0.0
 11
317.0591707796345
 21
195.1694381571818
 31
0.0
 11
316.9960586723872
 21
194.77589989239
 31
0.0
 11
316.9498972230543
 21
194.3662125676843
 31
0.0
 11
316.9223353301498
 21
193.9548743062886
 31
0.0
 11
316.9131012109097
 21
193.5380585002956
 31
0.0
 11
316.9223353301499
 21
193.1212426943026
 31
0.0
 11
316.9498972230543
 21
192.7099044329069
 31
0.0
 11
316.9960586723872
 21
192.3002171082012
 31
0.0
 11
317.0591707796345
 21
191.9066788434093
 31
0.0
 11
317.1412704442913
 21
191.5166159467239
 31
0.0
 11
317.2376238150372
 21
191.1525108601321
 31
0.0
 11
317.3535824504634
 21
190.7940872996181
 31
0.0
 11
317.4799192851117
 21
190.4699506432706
 31
0.0
 11
317.6266256779973
 21
190.1543672722938
 31
0.0
 11
317.7789556993051
 21
189.8792442120391
 31
0.0
 11
317.9523367961356
 21
189.6166178454936
 31
0.0
 11
318.1263275311235
 21
189.3977639457967
 31
0.0
 11
318.3213765070368
 21
189.1969548640101
 31
0.0
 11
318.5129484531091
 21
189.0398973922319
 31
0.0
 11
318.723516827932
 21
188.90844322342
 31
0.0
 11
318.929162969575
 21
188.8178656387096
 31
0.0
 11
319.147078250745
 21
188.7612727686106
 31
0.0
 11
319.3625909536929
 21
188.7422269769829
 31
0.0
 11
319.5781036566407
 21
188.7612727686106
 31
0.0
 11
319.7960189378106
 21
188.8178656387095
 31
0.0
 11
320.0016650794538
 21
188.9084432234199
 31
0.0
 11
320.2122334542768
 21
189.0398973922319
 31
0.0
 11
320.4038054003491
 21
189.19695486401
 31
0.0
 11
320.5988543762625
 21
189.3977639457967
 31
0.0
 11
320.7728451112502
 21
189.6166178454936
 31
0.0
 11
320.9462262080805
 21
189.879244212039
 31
0.0
 11
321.0985562293885
 21
190.1543672722937
 31
0.0
 11
321.2452626222743
 21
190.4699506432704
 31
0.0
 11
321.3715994569226
 21
190.7940872996181
 31
0.0
 11
321.4875580923485
 21
191.1525108601321
 31
0.0
 11
321.5839114630945
 21
191.5166159467239
 31
0.0
 11
321.6660111277514
 21
191.9066788434094
 31
0.0
 11
321.7291232349987
 21
192.3002171082012
 31
0.0
 11
321.7752846843317
 21
192.7099044329069
 31
0.0
 11
321.802846577236
 21
193.1212426943026
 31
0.0
 11
321.812080696476
 21
193.5380585002956
 31
0.0
 11
321.802846577236
 21
193.9548743062886
 31
0.0
 11
321.7752846843317
 21
194.3662125676844
 31
0.0
 11
321.7291232349987
 21
194.77589989239
 31
0.0
 11
321.6660111277514
 21
195.1694381571818
 31
0.0
 11
321.5839114630945
 21
195.5595010538673
 31
0.0
 11
321.4875580923485
 21
195.9236061404591
 31
0.0
 11
321.3715994569225
 21
196.2820297009731
 31
0.0
 11
321.2452626222743
 21
196.6061663573208
 31
0.0
 11
321.0985562293886
 21
196.9217497282975
 31
0.0
 11
320.9462262080806
 21
197.1968727885522
 31
0.0
 11
320.7728451112502
 21
197.4594991550977
 31
0.0
 11
320.5988543762625
 21
197.6783530547947
 31
0.0
 11
320.4038054003491
 21
197.8791621365812
 31
0.0
 11
320.2122334542768
 21
198.0362196083594
 31
0.0
 11
320.0016650794538
 21
198.1676737771713
 31
0.0
 11
319.7960189378107
 21
198.2582513618817
 31
0.0
 11
319.5781036566407
 21
198.3148442319806
 31
0.0
 11
319.3625909536929
 21
198.3338900236083
 31
0.0
 11
319.147078250745
 21
198.3148442319806
 31
0.0
  0
SPLINE
  5
199
330
48
100
AcDbEntity
  8
1
  6
Continuous
 62
     7
100
AcDbSpline
210
0.0
220
0.0
230
1.0
 70
    11
 71
     3
 72
    79
 73
    75
 74
    73
 42
0.0000000001
 43
0.0000000001
 44
0.00000001
 40
0.0
 40
0.0
 40
0.0
 40
0.0
 40
0.3724305897015708
 40
0.7448259659053279
 40
1.122241116444113
 40
1.499594494002825
 40
1.884512815567079
 40
2.269356005872788
 40
2.663282545184232
 40
3.057133335632653
 40
3.460428049575039
 40
3.863655724149296
 40
4.275562502336029
 40
4.687416446300115
 40
5.106213939220814
 40
5.524975444234576
 40
5.948208199313455
 40
6.371422820826813
 40
6.796179387437197
 40
7.220935954047525
 40
7.644150575560887
 40
8.067383330639789
 40
8.486144835653574
 40
8.904942328574222
 40
9.316796272538308
 40
9.728703050725027
 40
10.13193072529929
 40
10.53522543924172
 40
10.92907622969012
 40
11.32300276900156
 40
11.70784595930727
 40
12.0927642808715
 40
12.47011765843017
 40
12.84753280896893
 40
13.21992818517273
 40
13.59235877487433
 40
13.96303024910131
 40
14.33370172332834
 40
14.70613231302999
 40
15.0785276892337
 40
15.45594283977243
 40
15.83329621733119
 40
16.21821453889542
 40
16.60305772920113
 40
16.99698426851256
 40
17.39083505896102
 40
17.79412977290344
 40
18.19735744747771
 40
18.60926422566442
 40
19.02111816962851
 40
19.43991566254915
 40
19.85867716756298
 40
20.28190992264187
 40
20.70512454415523
 40
21.12988111076564
 40
21.55463767737594
 40
21.97785229888925
 40
22.40108505396819
 40
22.81984655898198
 40
23.23864405190263
 40
23.65049799586674
 40
24.06240477405346
 40
24.46563244862771
 40
24.86892716257009
 40
25.26277795301856
 40
25.65670449233005
 40
26.04154768263577
 40
26.42646600420001
 40
26.80381938175867
 40
27.18123453229746
 40
27.55362990850127
 40
27.92606049820287
 40
28.2967319724299
 40
28.66740344665687
 40
28.66740344665687
 40
28.66740344665687
 40
28.66740344665687
 10
184.7016823158315
 20
188.6822742189044
 30
0.0
 10
184.5784649742481
 20
188.6982569387168
 30
0.0
 10
184.3320419413423
 20
188.7302208671674
 30
0.0
 10
183.969274856619
 20
188.8252564975187
 30
0.0
 10
183.6154485076463
 20
188.9530105599529
 30
0.0
 10
183.2721668044362
 20
189.1171968773325
 30
0.0
 10
182.9436836619306
 20
189.313992898415
 30
0.0
 10
182.6306171357273
 20
189.5439393804994
 30
0.0
 10
182.3372929051475
 20
189.8030854749046
 30
0.0
 10
182.0639608823494
 20
190.091728406095
 30
0.0
 10
181.8145025315789
 20
190.4052000441067
 30
0.0
 10
181.5891124841803
 20
190.7436210160636
 30
0.0
 10
181.390890858586
 20
191.1018975583952
 30
0.0
 10
181.2201445182674
 20
191.4797302389797
 30
0.0
 10
181.0790234105087
 20
191.8720237090026
 30
0.0
 10
180.9679512393269
 20
192.2777771828887
 30
0.0
 10
180.8881334607542
 20
192.6923150264238
 30
0.0
 10
180.839968471784
 20
193.1137138654093
 30
0.0
 10
180.8238696271513
 20
193.5380585002941
 30
0.0
 10
180.8399684717836
 20
193.9624031351875
 30
0.0
 10
180.8881334607562
 20
194.3838019741477
 30
0.0
 10
180.9679512393196
 20
194.7983398177753
 30
0.0
 10
181.0790234105356
 20
195.2040932913201
 30
0.0
 10
181.2201445181671
 20
195.5963867626071
 30
0.0
 10
181.3908908589539
 20
195.9742194385484
 30
0.0
 10
181.5891124828186
 20
196.3324959980285
 30
0.0
 10
181.8145025365423
 20
196.6709169072735
 30
0.0
 10
182.0639608639926
 20
196.9843887764999
 30
0.0
 10
182.3372929718812
 20
197.2730308640386
 30
0.0
 10
182.6306168888521
 20
197.5321800677988
 30
0.0
 10
182.9436845597811
 20
197.762115200207
 30
0.0
 10
183.2721634781218
 20
197.958953102857
 30
0.0
 10
183.6154606517624
 20
198.1229860346817
 30
0.0
 10
183.9692297506951
 20
198.2513077173356
 30
0.0
 10
184.3322078019493
 20
198.3442516658507
 30
0.0
 10
184.7004822114055
 20
198.3998956734442
 30
0.0
 10
185.0718830972142
 20
198.4188125974753
 30
0.0
 10
185.4432839830227
 20
198.3998956734441
 30
0.0
 10
185.8115583924792
 20
198.3442516658508
 30
0.0
 10
186.1745364437331
 20
198.2513077173356
 30
0.0
 10
186.5283055426659
 20
198.1229860346817
 30
0.0
 10
186.8716027163064
 20
197.958953102857
 30
0.0
 10
187.2000816346473
 20
197.762115200207
 30
0.0
 10
187.5131493055762
 20
197.5321800677987
 30
0.0
 10
187.8064732225471
 20
197.2730308640386
 30
0.0
 10
188.0798053304358
 20
196.9843887764999
 30
0.0
 10
188.3292636578863
 20
196.6709169072736
 30
0.0
 10
188.5546537116097
 20
196.3324959980284
 30
0.0
 10
188.7528753354745
 20
195.9742194385484
 30
0.0
 10
188.9236216762614
 20
195.5963867626071
 30
0.0
 10
189.0647427838927
 20
195.20409329132
 30
0.0
 10
189.1758149551088
 20
194.7983398177753
 30
0.0
 10
189.2556327336721
 20
194.3838019741476
 30
0.0
 10
189.3037977226448
 20
193.9624031351872
 30
0.0
 10
189.3198965672768
 20
193.5380585002954
 30
0.0
 10
189.3037977226449
 20
193.1137138654043
 30
0.0
 10
189.255632733672
 20
192.6923150264419
 30
0.0
 10
189.1758149551093
 20
192.277777182821
 30
0.0
 10
189.0647427838909
 20
191.8720237092519
 30
0.0
 10
188.9236216762685
 20
191.4797302380553
 30
0.0
 10
188.7528753354482
 20
191.1018975617814
 30
0.0
 10
188.5546537117073
 20
190.7436210035296
 30
0.0
 10
188.3292636575307
 20
190.4052000897928
 30
0.0
 10
188.0798053317506
 20
190.0917282371274
 30
0.0
 10
187.8064732177672
 20
189.8030860891618
 30
0.0
 10
187.5131493232587
 20
189.5439371081105
 30
0.0
 10
187.2000815703383
 20
189.3140011627766
 30
0.0
 10
186.8716029545552
 20
189.1171662599124
 30
0.0
 10
186.5283046728383
 20
188.9531223417794
 30
0.0
 10
186.174539674465
 20
188.8248413151751
 30
0.0
 10
185.8115465126396
 20
188.7317475490222
 30
0.0
 10
185.4433282552319
 20
188.6766602753324
 30
0.0
 10
185.0717187348718
 20
188.6556747904724
 30
0.0
 10
184.825027788845
 20
188.6734077427604
 30
0.0
 10
184.7016823158315
 20
188.6822742189044
 30
0.0
 11
184.7016823158315
 21
188.6822742189044
 31
0.0
 11
184.3334444959739
 21
188.7380008029729
 31
0.0
 11
183.9726256643077
 21
188.8301316172156
 31
0.0
 11
183.617826177454
 21
188.9588154156695
 31
0.0
 11
183.277219670373
 21
189.1212431808117
 31
0.0
 11
182.9469970834107
 21
189.3190187034016
 31
0.0
 11
182.636652396588
 21
189.5465938700733
 31
0.0
 11
182.3413436427005
 21
189.8073060835412
 31
0.0
 11
182.0703442882741
 21
190.0930993567953
 31
0.0
 11
181.8190932390494
 21
190.4085665287124
 31
0.0
 11
181.5953920497659
 21
190.7440517526131
 31
0.0
 11
181.3958535703116
 21
191.1044010125447
 31
0.0
 11
181.2260946041992
 21
191.4796416880893
 31
0.0
 11
181.0842237090128
 21
191.8736772057469
 31
0.0
 11
180.9735540561546
 21
192.2775502377974
 31
0.0
 11
180.8934646074629
 21
192.693136143694
 31
0.0
 11
180.8453581899884
 21
193.1136077699192
 31
0.0
 11
180.8292424100949
 21
193.5380585002956
 31
0.0
 11
180.8453581899885
 21
193.9625092306719
 31
0.0
 11
180.8934646074629
 21
194.3829808568972
 31
0.0
 11
180.9735540561546
 21
194.7985667627938
 31
0.0
 11
181.0842237090128
 21
195.2024397948443
 31
0.0
 11
181.2260946041992
 21
195.5964753125018
 31
0.0
 11
181.3958535703116
 21
195.9717159880465
 31
0.0
 11
181.5953920497659
 21
196.3320652479781
 31
0.0
 11
181.8190932390494
 21
196.6675504718788
 31
0.0
 11
182.0703442882741
 21
196.9830176437959
 31
0.0
 11
182.3413436427005
 21
197.26881091705
 31
0.0
 11
182.636652396588
 21
197.5295231305179
 31
0.0
 11
182.9469970834107
 21
197.7570982971895
 31
0.0
 11
183.277219670373
 21
197.9548738197794
 31
0.0
 11
183.617826177454
 21
198.1173015849215
 31
0.0
 11
183.9726256643077
 21
198.2459853833754
 31
0.0
 11
184.3334444959739
 21
198.3381161976182
 31
0.0
 11
184.7016823158315
 21
198.3938427816867
 31
0.0
 11
185.0718830972141
 21
198.4125169153835
 31
0.0
 11
185.4420838785968
 21
198.3938427816867
 31
0.0
 11
185.8103216984545
 21
198.3381161976182
 31
0.0
 11
186.1711405301206
 21
198.2459853833755
 31
0.0
 11
186.5259400169742
 21
198.1173015849215
 31
0.0
 11
186.8665465240553
 21
197.9548738197793
 31
0.0
 11
187.1967691110176
 21
197.7570982971895
 31
0.0
 11
187.5071137978403
 21
197.5295231305179
 31
0.0
 11
187.8024225517278
 21
197.26881091705
 31
0.0
 11
188.0734219061543
 21
196.9830176437959
 31
0.0
 11
188.324672955379
 21
196.6675504718788
 31
0.0
 11
188.5483741446625
 21
196.3320652479781
 31
0.0
 11
188.7479126241167
 21
195.9717159880465
 31
0.0
 11
188.9176715902292
 21
195.5964753125018
 31
0.0
 11
189.0595424854156
 21
195.2024397948443
 31
0.0
 11
189.1702121382738
 21
194.7985667627938
 31
0.0
 11
189.2503015869654
 21
194.3829808568971
 31
0.0
 11
189.2984080044398
 21
193.9625092306719
 31
0.0
 11
189.3145237843334
 21
193.5380585002955
 31
0.0
 11
189.2984080044399
 21
193.1136077699192
 31
0.0
 11
189.2503015869654
 21
192.693136143694
 31
0.0
 11
189.1702121382738
 21
192.2775502377973
 31
0.0
 11
189.0595424854157
 21
191.8736772057468
 31
0.0
 11
188.9176715902292
 21
191.4796416880893
 31
0.0
 11
188.7479126241168
 21
191.1044010125446
 31
0.0
 11
188.5483741446625
 21
190.744051752613
 31
0.0
 11
188.324672955379
 21
190.4085665287123
 31
0.0
 11
188.0734219061543
 21
190.0930993567953
 31
0.0
 11
187.8024225517277
 21
189.8073060835412
 31
0.0
 11
187.5071137978403
 21
189.5465938700732
 31
0.0
 11
187.1967691110176
 21
189.3190187034016
 31
0.0
 11
186.8665465240553
 21
189.1212431808117
 31
0.0
 11
186.5259400169744
 21
188.9588154156695
 31
0.0
 11
186.1711405301206
 21
188.8301316172156
 31
0.0
 11
185.8103216984544
 21
188.7380008029729
 31
0.0
 11
185.4420838785967
 21
188.6822742189044
 31
0.0
 11
185.0718830972141
 21
188.6636000852076
 31
0.0
 11
184.7016823158315
 21
188.6822742189044
 31
0.0
  0
SPLINE
  5
19A
330
48
100
AcDbEntity
  8
1
  6
Continuous
 62
     7
100
AcDbSpline
210
0.0
220
0.0
230
1.0
 70
    11
 71
     3
 72
    79
 73
    75
 74
    73
 42
0.0000000001
 43
0.0000000001
 44
0.00000001
 40
0.0
 40
0.0
 40
0.0
 40
0.0
 40
0.3724305897015426
 40
0.7448259659053274
 40
1.122241116444085
 40
1.499594494002824
 40
1.884512815567102
 40
2.269356005872788
 40
2.66328254518421
 40
3.057133335632651
 40
3.460428049575038
 40
3.863655724149294
 40
4.275562502336041
 40
4.687416446300103
 40
5.106213939220822
 40
5.524975444234576
 40
5.948208199313455
 40
6.371422820826813
 40
6.796179387437197
 40
7.220935954047527
 40
7.644150575560885
 40
8.067383330639782
 40
8.486144835653576
 40
8.904942328574235
 40
9.316796272538321
 40
9.728703050725013
 40
10.13193072529929
 40
10.53522543924172
 40
10.92907622969016
 40
11.3230027690016
 40
11.70784595930729
 40
12.09276428087149
 40
12.47011765843022
 40
12.84753280896895
 40
13.21992818517275
 40
13.5923587748743
 40
13.9630302491013
 40
14.33370172332836
 40
14.70613231302995
 40
15.07852768923373
 40
15.45594283977248
 40
15.83329621733116
 40
16.21821453889544
 40
16.60305772920113
 40
16.99698426851256
 40
17.39083505896103
 40
17.79412977290344
 40
18.19735744747773
 40
18.60926422566442
 40
19.02111816962852
 40
19.43991566254917
 40
19.85867716756299
 40
20.28190992264187
 40
20.70512454415523
 40
21.12988111076565
 40
21.55463767737595
 40
21.97785229888925
 40
22.4010850539682
 40
22.81984655898198
 40
23.23864405190263
 40
23.65049799586673
 40
24.06240477405347
 40
24.46563244862772
 40
24.86892716257009
 40
25.26277795301857
 40
25.65670449233005
 40
26.04154768263576
 40
26.42646600420002
 40
26.8038193817587
 40
27.18123453229744
 40
27.55362990850125
 40
27.92606049820285
 40
28.29673197242991
 40
28.66740344665691
 40
28.66740344665691
 40
28.66740344665691
 40
28.66740344665691
 10
173.9420838785965
 20
188.6822742189044
 30
0.0
 10
174.0653012201799
 20
188.6982569387168
 30
0.0
 10
174.3117242530857
 20
188.7302208671674
 30
0.0
 10
174.6744913378089
 20
188.8252564975186
 30
0.0
 10
175.0283176867817
 20
188.953010559953
 30
0.0
 10
175.3715993899917
 20
189.1171968773325
 30
0.0
 10
175.7000825324974
 20
189.3139928984149
 30
0.0
 10
176.0131490587007
 20
189.5439393804994
 30
0.0
 10
176.3064732892804
 20
189.8030854749046
 30
0.0
 10
176.5798053120786
 20
190.0917284060951
 30
0.0
 10
176.8292636628491
 20
190.4052000441068
 30
0.0
 10
177.0546537102476
 20
190.7436210160636
 30
0.0
 10
177.2528753358421
 20
191.1018975583953
 30
0.0
 10
177.4236216761605
 20
191.4797302389797
 30
0.0
 10
177.5647427839194
 20
191.8720237090026
 30
0.0
 10
177.6758149551012
 20
192.2777771828887
 30
0.0
 10
177.7556327336739
 20
192.6923150264238
 30
0.0
 10
177.803797722644
 20
193.1137138654093
 30
0.0
 10
177.8198965672768
 20
193.5380585002942
 30
0.0
 10
177.8037977226444
 20
193.9624031351875
 30
0.0
 10
177.7556327336718
 20
194.3838019741476
 30
0.0
 10
177.6758149551085
 20
194.7983398177753
 30
0.0
 10
177.5647427838924
 20
195.20409329132
 30
0.0
 10
177.4236216762609
 20
195.5963867626071
 30
0.0
 10
177.2528753354741
 20
195.9742194385484
 30
0.0
 10
177.0546537116094
 20
196.3324959980286
 30
0.0
 10
176.8292636578858
 20
196.6709169072734
 30
0.0
 10
176.5798053304355
 20
196.9843887764999
 30
0.0
 10
176.3064732225467
 20
197.2730308640385
 30
0.0
 10
176.0131493055759
 20
197.5321800677987
 30
0.0
 10
175.700081634647
 20
197.7621152002071
 30
0.0
 10
175.3716027163062
 20
197.958953102857
 30
0.0
 10
175.0283055426656
 20
198.1229860346817
 30
0.0
 10
174.6745364437329
 20
198.2513077173356
 30
0.0
 10
174.3115583924789
 20
198.3442516658507
 30
0.0
 10
173.9432839830225
 20
198.3998956734442
 30
0.0
 10
173.5718830972139
 20
198.4188125974753
 30
0.0
 10
173.2004822114053
 20
198.3998956734442
 30
0.0
 10
172.8322078019489
 20
198.3442516658507
 30
0.0
 10
172.4692297506949
 20
198.2513077173357
 30
0.0
 10
172.1154606517621
 20
198.1229860346817
 30
0.0
 10
171.7721634781216
 20
197.9589531028569
 30
0.0
 10
171.4436845597808
 20
197.762115200207
 30
0.0
 10
171.1306168888519
 20
197.5321800677987
 30
0.0
 10
170.8372929718809
 20
197.2730308640385
 30
0.0
 10
170.5639608639923
 20
196.9843887765
 30
0.0
 10
170.3145025365418
 20
196.6709169072734
 30
0.0
 10
170.0891124828182
 20
196.3324959980285
 30
0.0
 10
169.8908908589536
 20
195.9742194385484
 30
0.0
 10
169.7201445181667
 20
195.5963867626071
 30
0.0
 10
169.5790234105352
 20
195.20409329132
 30
0.0
 10
169.4679512393192
 20
194.7983398177752
 30
0.0
 10
169.3881334607559
 20
194.3838019741478
 30
0.0
 10
169.3399684717833
 20
193.9624031351871
 30
0.0
 10
169.323869627151
 20
193.5380585002953
 30
0.0
 10
169.3399684717833
 20
193.1137138654044
 30
0.0
 10
169.388133460756
 20
192.6923150264419
 30
0.0
 10
169.4679512393187
 20
192.2777771828211
 30
0.0
 10
169.5790234105372
 20
191.8720237092518
 30
0.0
 10
169.7201445181595
 20
191.4797302380553
 30
0.0
 10
169.8908908589798
 20
191.1018975617814
 30
0.0
 10
170.0891124827207
 20
190.7436210035296
 30
0.0
 10
170.3145025368973
 20
190.4052000897929
 30
0.0
 10
170.5639608626774
 20
190.0917282371274
 30
0.0
 10
170.8372929766607
 20
189.8030860891618
 30
0.0
 10
171.1306168711693
 20
189.5439371081105
 30
0.0
 10
171.4436846240897
 20
189.3140011627766
 30
0.0
 10
171.7721632398728
 20
189.1171662599124
 30
0.0
 10
172.1154615215897
 20
188.9531223417794
 30
0.0
 10
172.469226519963
 20
188.824841315175
 30
0.0
 10
172.8322196817883
 20
188.7317475490222
 30
0.0
 10
173.2004379391961
 20
188.6766602753324
 30
0.0
 10
173.5720474595562
 20
188.6556747904724
 30
0.0
 10
173.8187384055831
 20
188.6734077427604
 30
0.0
 10
173.9420838785965
 20
188.6822742189044
 30
0.0
 11
173.9420838785965
 21
188.6822742189044
 31
0.0
 11
174.3103216984541
 21
188.7380008029729
 31
0.0
 11
174.6711405301203
 21
188.8301316172156
 31
0.0
 11
175.025940016974
 21
188.9588154156695
 31
0.0
 11
175.366546524055
 21
189.1212431808117
 31
0.0
 11
175.6967691110174
 21
189.3190187034016
 31
0.0
 11
176.00711379784
 21
189.5465938700733
 31
0.0
 11
176.3024225517274
 21
189.8073060835412
 31
0.0
 11
176.5734219061539
 21
190.0930993567953
 31
0.0
 11
176.8246729553786
 21
190.4085665287124
 31
0.0
 11
177.0483741446621
 21
190.7440517526131
 31
0.0
 11
177.2479126241164
 21
191.1044010125447
 31
0.0
 11
177.4176715902288
 21
191.4796416880893
 31
0.0
 11
177.5595424854152
 21
191.8736772057469
 31
0.0
 11
177.6702121382734
 21
192.2775502377974
 31
0.0
 11
177.7503015869652
 21
192.693136143694
 31
0.0
 11
177.7984080044396
 21
193.1136077699192
 31
0.0
 11
177.8145237843331
 21
193.5380585002956
 31
0.0
 11
177.7984080044395
 21
193.9625092306719
 31
0.0
 11
177.7503015869651
 21
194.3829808568972
 31
0.0
 11
177.6702121382734
 21
194.7985667627938
 31
0.0
 11
177.5595424854153
 21
195.2024397948443
 31
0.0
 11
177.4176715902288
 21
195.5964753125018
 31
0.0
 11
177.2479126241164
 21
195.9717159880465
 31
0.0
 11
177.0483741446622
 21
196.3320652479781
 31
0.0
 11
176.8246729553786
 21
196.6675504718788
 31
0.0
 11
176.5734219061539
 21
196.9830176437959
 31
0.0
 11
176.3024225517274
 21
197.26881091705
 31
0.0
 11
176.00711379784
 21
197.5295231305179
 31
0.0
 11
175.6967691110174
 21
197.7570982971895
 31
0.0
 11
175.366546524055
 21
197.9548738197794
 31
0.0
 11
175.025940016974
 21
198.1173015849215
 31
0.0
 11
174.6711405301203
 21
198.2459853833754
 31
0.0
 11
174.3103216984542
 21
198.3381161976182
 31
0.0
 11
173.9420838785965
 21
198.3938427816867
 31
0.0
 11
173.5718830972139
 21
198.4125169153835
 31
0.0
 11
173.2016823158313
 21
198.3938427816867
 31
0.0
 11
172.8334444959736
 21
198.3381161976182
 31
0.0
 11
172.4726256643074
 21
198.2459853833755
 31
0.0
 11
172.1178261774537
 21
198.1173015849215
 31
0.0
 11
171.7772196703728
 21
197.9548738197793
 31
0.0
 11
171.4469970834104
 21
197.7570982971895
 31
0.0
 11
171.1366523965877
 21
197.5295231305179
 31
0.0
 11
170.8413436427003
 21
197.26881091705
 31
0.0
 11
170.5703442882737
 21
196.9830176437959
 31
0.0
 11
170.319093239049
 21
196.6675504718788
 31
0.0
 11
170.0953920497655
 21
196.3320652479781
 31
0.0
 11
169.8958535703113
 21
195.9717159880465
 31
0.0
 11
169.7260946041988
 21
195.5964753125018
 31
0.0
 11
169.5842237090124
 21
195.2024397948443
 31
0.0
 11
169.4735540561542
 21
194.7985667627938
 31
0.0
 11
169.3934646074626
 21
194.3829808568971
 31
0.0
 11
169.3453581899882
 21
193.9625092306719
 31
0.0
 11
169.3292424100946
 21
193.5380585002955
 31
0.0
 11
169.3453581899882
 21
193.1136077699192
 31
0.0
 11
169.3934646074626
 21
192.693136143694
 31
0.0
 11
169.4735540561542
 21
192.2775502377973
 31
0.0
 11
169.5842237090124
 21
191.8736772057468
 31
0.0
 11
169.7260946041988
 21
191.4796416880893
 31
0.0
 11
169.8958535703112
 21
191.1044010125446
 31
0.0
 11
170.0953920497655
 21
190.744051752613
 31
0.0
 11
170.319093239049
 21
190.4085665287123
 31
0.0
 11
170.5703442882737
 21
190.0930993567953
 31
0.0
 11
170.8413436427003
 21
189.8073060835412
 31
0.0
 11
171.1366523965877
 21
189.5465938700732
 31
0.0
 11
171.4469970834103
 21
189.3190187034016
 31
0.0
 11
171.7772196703727
 21
189.1212431808117
 31
0.0
 11
172.1178261774537
 21
188.9588154156695
 31
0.0
 11
172.4726256643074
 21
188.8301316172156
 31
0.0
 11
172.8334444959736
 21
188.7380008029729
 31
0.0
 11
173.2016823158313
 21
188.6822742189044
 31
0.0
 11
173.5718830972139
 21
188.6636000852076
 31
0.0
 11
173.9420838785965
 21
188.6822742189044
 31
0.0
  0
ENDBLK
  5
4A
330
48
100
AcDbEntity
  8
0
100
AcDbBlockEnd
  0
BLOCK
  5
4C
330
4B
100
AcDbEntity
  8
0
100
AcDbBlockBegin
  2
37-1-13
 70
     0
 71
     0
 10
451.8175889873587
 20
-415.9256338759111
 30
0.0
  3
37-1-13
  1

  0
LINE
  5
19B
330
4B
100
AcDbEntity
  8
1
  6
Continuous
 62
     7
100
AcDbLine
 10
166.3218830972137
 20
163.0380585002956
 30
0.0
 11
166.3218830972137
 21
169.4606747896281
 31
0.0
  0
LINE
  5
19C
330
4B
100
AcDbEntity
  8
1
  6
Continuous
 62
     7
100
AcDbLine
 10
167.2597342318921
 20
171.085080604827
 30
0.0
 11
172.8218830972137
 21
174.2963887494932
 31
0.0
  0
LINE
  5
19D
330
4B
100
AcDbEntity
  8
1
  6
Continuous
 62
     7
100
AcDbLine
 10
185.8218830972139
 20
174.2963887494933
 30
0.0
 11
191.3840319625354
 21
171.085080604827
 31
0.0
  0
LINE
  5
19E
330
4B
100
AcDbEntity
  8
1
  6
Continuous
 62
     7
100
AcDbLine
 10
192.3218830972139
 20
169.4606747896281
 30
0.0
 11
192.3218830972139
 21
163.0380585002956
 31
0.0
  0
LINE
  5
19F
330
4B
100
AcDbEntity
  8
1
  6
Continuous
 62
     7
100
AcDbLine
 10
192.3218830972139
 20
163.0380585002956
 30
0.0
 11
192.3218830972139
 21
156.615442210963
 31
0.0
  0
LINE
  5
1A0
330
4B
100
AcDbEntity
  8
1
  6
Continuous
 62
     7
100
AcDbLine
 10
191.3840319625354
 20
154.9910363957641
 30
0.0
 11
185.8218830972139
 21
151.7797282510979
 31
0.0
  0
LINE
  5
1A1
330
4B
100
AcDbEntity
  8
1
  6
Continuous
 62
     7
100
AcDbLine
 10
185.8218830972139
 20
151.7797282510979
 30
0.0
 11
180.2597342318921
 21
148.5684201064315
 31
0.0
  0
LINE
  5
1A2
330
4B
100
AcDbEntity
  8
1
  6
Continuous
 62
     7
100
AcDbLine
 10
178.3840319625354
 20
148.5684201064316
 30
0.0
 11
172.8218830972139
 21
151.7797282510979
 31
0.0
  0
LINE
  5
1A3
330
4B
100
AcDbEntity
  8
1
  6
Continuous
 62
     7
100
AcDbLine
 10
172.8218830972139
 20
151.7797282510979
 30
0.0
 11
167.2597342318921
 21
154.9910363957641
 31
0.0
  0
LINE
  5
1A4
330
4B
100
AcDbEntity
  8
1
  6
Continuous
 62
     7
100
AcDbLine
 10
166.3218830972137
 20
156.6154422109629
 30
0.0
 11
166.3218830972137
 21
163.0380585002956
 31
0.0
  0
LINE
  5
1A5
330
4B
100
AcDbEntity
  8
1
  6
Continuous
 62
     7
100
AcDbLine
 10
172.8218830972137
 20
174.2963887494932
 30
0.0
 11
178.3840319625354
 21
177.5076968941595
 31
0.0
  0
LINE
  5
1A6
330
4B
100
AcDbEntity
  8
1
  6
Continuous
 62
     7
100
AcDbLine
 10
180.2597342318921
 20
177.5076968941595
 30
0.0
 11
185.8218830972139
 21
174.2963887494933
 31
0.0
  0
LINE
  5
1A7
330
4B
100
AcDbEntity
  8
1
  6
Continuous
 62
     7
100
AcDbLine
 10
312.8921918090291
 20
149.9673442860242
 30
0.0
 11
312.8921918090291
 21
176.1087727145671
 31
0.0
  0
LINE
  5
1A8
330
4B
100
AcDbEntity
  8
0
  6
Continuous
 62
     7
100
AcDbLine
 10
305.8214775947578
 20
158.1927117213988
 30
0.0
 11
305.8214775947578
 21
154.3627756937516
 31
0.0
  0
LINE
  5
1A9
330
4B
100
AcDbEntity
  8
0
  6
Continuous
 62
     7
100
AcDbLine
 10
305.8214775947578
 20
171.7133413068396
 30
0.0
 11
305.8214775947578
 21
167.8834052791925
 31
0.0
  0
LINE
  5
1AA
330
4B
100
AcDbEntity
  8
1
  6
Continuous
 62
     7
100
AcDbLine
 10
298.8921918090291
 20
169.0380585002956
 30
0.0
 11
298.8921918090291
 21
157.0380585002957
 31
0.0
  0
LINE
  5
1AB
330
4B
100
AcDbEntity
  8
1
  6
Continuous
 62
     7
100
AcDbLine
 10
166.3217455047093
 20
594.5773819821203
 30
0.0
 11
166.3217455047093
 21
601.3401327433636
 31
0.0
  0
LINE
  5
1AC
330
4B
100
AcDbEntity
  8
1
  6
Continuous
 62
     7
100
AcDbLine
 10
166.3217455047093
 20
601.3401327433636
 30
0.0
 11
172.9718830972139
 21
601.3401327433636
 31
0.0
  0
LINE
  5
1AD
330
4B
100
AcDbEntity
  8
1
  6
Continuous
 62
     7
100
AcDbLine
 10
192.3217455047092
 20
594.5772713448547
 30
0.0
 11
192.3217455047092
 21
601.3401327433636
 31
0.0
  0
LINE
  5
1AE
330
4B
100
AcDbEntity
  8
1
  6
Continuous
 62
     7
100
AcDbLine
 10
191.8217455047089
 20
593.8401327433636
 30
0.0
 11
185.671883097214
 21
593.8401327433636
 31
0.0
  0
LINE
  5
1AF
330
4B
100
AcDbEntity
  8
1
  6
Continuous
 62
     7
100
AcDbLine
 10
192.3217455047092
 20
594.2694185290925
 30
0.0
 11
192.3217455047092
 21
594.5772713448547
 31
0.0
  0
LINE
  5
1B0
330
4B
100
AcDbEntity
  8
1
  6
Continuous
 62
     7
100
AcDbLine
 10
166.3217455047093
 20
594.2694185290919
 30
0.0
 11
166.3217455047093
 21
594.5773819821203
 31
0.0
  0
LINE
  5
1B1
330
4B
100
AcDbEntity
  8
1
  6
Continuous
 62
     7
100
AcDbLine
 10
172.9718830972139
 20
593.8401327433636
 30
0.0
 11
166.8217455047092
 21
593.8401327433636
 31
0.0
  0
LINE
  5
1B2
330
4B
100
AcDbEntity
  8
1
  6
Continuous
 62
     7
100
AcDbLine
 10
185.671883097214
 20
601.3401327433636
 30
0.0
 11
192.3217455047092
 21
601.3401327433636
 31
0.0
  0
ARC
  5
1B3
330
4B
100
AcDbEntity
  8
1
  6
Continuous
 62
     7
100
AcDbCircle
 10
179.3218830972139
 20
163.0380585002955
 30
0.0
 40
14.50000000000009
100
AcDbArc
 50
146.2915552747292
 51
150.0000000000002
  0
ARC
  5
1B4
330
4B
100
AcDbEntity
  8
1
  6
Continuous
 62
     7
100
AcDbCircle
 10
179.3218830972139
 20
163.0380585002955
 30
0.0
 40
14.50000000000027
100
AcDbArc
 50
150.0000000000002
 51
153.7084447252709
  0
ARC
  5
1B5
330
4B
100
AcDbEntity
  8
1
  6
Continuous
 62
     7
100
AcDbCircle
 10
179.3218830972139
 20
163.0380585002955
 30
0.0
 40
14.50000000000001
100
AcDbArc
 50
26.29155527472943
 51
33.70844472527144
  0
ARC
  5
1B6
330
4B
100
AcDbEntity
  8
1
  6
Continuous
 62
     7
100
AcDbCircle
 10
179.3218830972139
 20
163.0380585002955
 30
0.0
 40
14.49999999999982
100
AcDbArc
 50
-30.00000000000003
 51
-26.29155527472912
  0
ARC
  5
1B7
330
4B
100
AcDbEntity
  8
1
  6
Continuous
 62
     7
100
AcDbCircle
 10
179.3218830972139
 20
163.0380585002955
 30
0.0
 40
14.49999999999978
100
AcDbArc
 50
-33.70844472527116
 51
-30.00000000000003
  0
ARC
  5
1B8
330
4B
100
AcDbEntity
  8
1
  6
Continuous
 62
     7
100
AcDbCircle
 10
179.3218830972139
 20
163.0380585002955
 30
0.0
 40
14.49999999999994
100
AcDbArc
 50
-93.70844472527168
 51
-86.2915552747296
  0
ARC
  5
1B9
330
4B
100
AcDbEntity
  8
1
  6
Continuous
 62
     7
100
AcDbCircle
 10
179.3218830972139
 20
163.0380585002955
 30
0.0
 40
14.5000000000002
100
AcDbArc
 50
-153.7084447252708
 51
-146.2915552747296
  0
ARC
  5
1BA
330
4B
100
AcDbEntity
  8
1
  6
Continuous
 62
     7
100
AcDbCircle
 10
179.3218830972139
 20
163.0380585002955
 30
0.0
 40
13.0000000000002
100
AcDbArc
 50
179.9999999999996
 51
-120.0000000000002
  0
ARC
  5
1BB
330
4B
100
AcDbEntity
  8
1
  6
Continuous
 62
     7
100
AcDbCircle
 10
179.3218830972139
 20
163.0380585002955
 30
0.0
 40
13.00000000000008
100
AcDbArc
 50
120.0000000000008
 51
179.9999999999996
  0
ARC
  5
1BC
330
4B
100
AcDbEntity
  8
1
  6
Continuous
 62
     7
100
AcDbCircle
 10
179.3218830972139
 20
163.0380585002955
 30
0.0
 40
13.00000000000008
100
AcDbArc
 50
60.00000000000021
 51
120.0000000000008
  0
ARC
  5
1BD
330
4B
100
AcDbEntity
  8
1
  6
Continuous
 62
     7
100
AcDbCircle
 10
179.3218830972139
 20
163.0380585002955
 30
0.0
 40
13.0
100
AcDbArc
 50
0.00000000000038
 51
60.00000000000021
  0
ARC
  5
1BE
330
4B
100
AcDbEntity
  8
1
  6
Continuous
 62
     7
100
AcDbCircle
 10
179.3218830972139
 20
163.0380585002955
 30
0.0
 40
12.99999999999991
100
AcDbArc
 50
-59.99999999999978
 51
0.00000000000038
  0
ARC
  5
1BF
330
4B
100
AcDbEntity
  8
1
  6
Continuous
 62
     7
100
AcDbCircle
 10
179.3218830972139
 20
163.0380585002955
 30
0.0
 40
12.99999999999991
100
AcDbArc
 50
-120.0000000000002
 51
-59.99999999999978
  0
ARC
  5
1C0
330
4B
100
AcDbEntity
  8
1
  6
Continuous
 62
     7
100
AcDbCircle
 10
179.3218830972139
 20
163.0380585002955
 30
0.0
 40
14.5
100
AcDbArc
 50
86.29155527472959
 51
93.70844472527166
  0
ARC
  5
1C1
330
4B
100
AcDbEntity
  8
1
  6
Continuous
 62
     7
100
AcDbCircle
 10
285.4857366039142
 20
188.9445137054105
 30
0.0
 40
23.99999999999998
100
AcDbArc
 50
-56.04080749990246
 51
-33.95919250009762
  0
ARC
  5
1C2
330
4B
100
AcDbEntity
  8
1
  6
Continuous
 62
     7
100
AcDbCircle
 10
309.3921918090291
 20
172.5380585002956
 30
0.0
 40
5.000000000000057
100
AcDbArc
 50
45.57299599919494
 51
143.1301023541568
  0
ARC
  5
1C3
330
4B
100
AcDbEntity
  8
1
  6
Continuous
 62
     7
100
AcDbCircle
 10
309.3921918090291
 20
153.5380585002956
 30
0.0
 40
4.999999999999881
100
AcDbArc
 50
-143.1301023541578
 51
-45.57299599919402
  0
ARC
  5
1C4
330
4B
100
AcDbEntity
  8
1
  6
Continuous
 62
     7
100
AcDbCircle
 10
285.4857366039142
 20
137.1316032951808
 30
0.0
 40
24.00000000000003
100
AcDbArc
 50
33.95919250009762
 51
56.04080749990246
  0
ARC
  5
1C5
330
4B
100
AcDbEntity
  8
1
  6
Continuous
 62
     7
100
AcDbCircle
 10
188.821745504709
 20
597.8401327433636
 30
0.0
 40
4.999999999999932
100
AcDbArc
 50
-53.13010235415703
 51
-45.57299599919011
  0
ARC
  5
1C6
330
4B
100
AcDbEntity
  8
1
  6
Continuous
 62
     7
100
AcDbCircle
 10
169.821745504709
 20
597.8401327433636
 30
0.0
 40
4.99999999999998
100
AcDbArc
 50
-134.4270040008014
 51
-126.8698976458422
  0
ARC
  5
1C7
330
4B
100
AcDbEntity
  8
1
  6
Continuous
 62
     7
100
AcDbCircle
 10
153.4152902995942
 20
573.9336775382485
 30
0.0
 40
24.00000000000004
100
AcDbArc
 50
35.42667304394998
 51
56.04080749990256
  0
ARC
  5
1C8
330
4B
100
AcDbEntity
  8
1
  6
Continuous
 62
     7
100
AcDbCircle
 10
205.2282007098239
 20
573.9336775382485
 30
0.0
 40
24.00000000000019
100
AcDbArc
 50
123.9591925000975
 51
144.5721936261152
  0
CIRCLE
  5
1C9
330
4B
100
AcDbEntity
  8
1
  6
Continuous
 62
     7
100
AcDbCircle
 10
179.3218830972139
 20
163.0380585002955
 30
0.0
 40
6.000000000000007
  0
CIRCLE
  5
1CA
330
4B
100
AcDbEntity
  8
1
  6
Continuous
 62
     7
100
AcDbCircle
 10
179.3218830972139
 20
163.0380585002955
 30
0.0
 40
5.000000000000048
  0
SPLINE
  5
1CB
330
4B
100
AcDbEntity
  8
1
  6
Continuous
 62
     7
100
AcDbSpline
210
0.0
220
0.0
230
1.0
 70
    11
 71
     3
 72
    79
 73
    75
 74
    73
 42
0.0000000001
 43
0.0000000001
 44
0.00000001
 40
0.0
 40
0.0
 40
0.0
 40
0.0
 40
0.2813091385367387
 40
0.5626019606352051
 40
0.8464226525143908
 40
1.130214060738694
 40
1.41783571126215
 40
1.705420542401936
 40
1.997635978226843
 40
2.289812854371145
 40
2.586839035183123
 40
2.883829792124862
 40
3.185307045384546
 40
3.486755461402689
 40
3.79181298011103
 40
4.096850365689663
 40
4.404220799428604
 40
4.71158093180126
 40
5.019747232346065
 40
5.327913532890758
 40
5.635273665263471
 40
5.942644099002624
 40
6.247681484581249
 40
6.552739003289483
 40
6.854187419307587
 40
7.155664672567284
 40
7.4526554295091
 40
7.749681610321017
 40
8.041858486465339
 40
8.334073922290267
 40
8.621658753430053
 40
8.909280403953614
 40
9.193071812177966
 40
9.476892504057087
 40
9.758185326155513
 40
10.03949446469224
 40
10.31992040211368
 40
10.60034633953511
 40
10.88165547807182
 40
11.1629483001703
 40
11.44676899204949
 40
11.73056040027376
 40
12.01818205079728
 40
12.30576688193701
 40
12.59798231776195
 40
12.89015919390621
 40
13.18718537471825
 40
13.48417613166003
 40
13.78565338491974
 40
14.08710180093786
 40
14.39215931964614
 40
14.69719670522484
 40
15.00456713896389
 40
15.31192727133647
 40
15.62009357188128
 40
15.92825987242608
 40
16.23562000479868
 40
16.54299043853767
 40
16.84802782411631
 40
17.15308534282465
 40
17.45453375884285
 40
17.75601101210247
 40
18.05300176904424
 40
18.35002794985617
 40
18.64220482600049
 40
18.93442026182549
 40
19.2220050929652
 40
19.50962674348868
 40
19.79341815171293
 40
20.07723884359211
 40
20.35853166569055
 40
20.63984080422726
 40
20.92026674164867
 40
21.20069267907008
 40
21.20069267907008
 40
21.20069267907008
 40
21.20069267907008
 10
305.8349995797857
 20
152.0598279874413
 30
0.0
 10
305.8465709832727
 20
152.1529549384622
 30
0.0
 10
305.8697131190844
 20
152.3392034389727
 30
0.0
 10
305.9384752594517
 20
152.6135050240787
 30
0.0
 10
306.0310433862862
 20
152.8812489526557
 30
0.0
 10
306.1498957221166
 20
153.1408615886613
 30
0.0
 10
306.2925576377503
 20
153.3895786855798
 30
0.0
 10
306.4591005386839
 20
153.6264226009557
 30
0.0
 10
306.6470582580072
 20
153.8486380202719
 30
0.0
 10
306.8562204698143
 20
154.0555010722749
 30
0.0
 10
307.0836730462972
 20
154.2445598071462
 30
0.0
 10
307.3290186306503
 20
154.4151997518075
 30
0.0
 10
307.5890471889902
 20
154.5654634806735
 30
0.0
 10
307.8630699350466
 20
154.6947708328003
 30
0.0
 10
308.1478176204296
 20
154.801761634748
 30
0.0
 10
308.4421804699786
 20
154.885893973924
 30
0.0
 10
308.7430709499473
 20
154.946412958129
 30
0.0
 10
309.048857271905
 20
154.9828940961237
 30
0.0
 10
309.3568347018924
 20
154.9951128776568
 30
0.0
 10
309.6648121318856
 20
154.982894096124
 30
0.0
 10
309.9705984538259
 20
154.9464129581276
 30
0.0
 10
310.2714889338582
 20
154.8858939739289
 30
0.0
 10
310.5658517831727
 20
154.8017616347302
 30
0.0
 10
310.8505994694255
 20
154.6947708328665
 30
0.0
 10
311.1246222122736
 20
154.5654634804299
 30
0.0
 10
311.3846507824981
 20
154.4151997527111
 30
0.0
 10
311.6299963231271
 20
154.2445598038293
 30
0.0
 10
311.8574490614114
 20
154.0555010845765
 30
0.0
 10
312.0666106787661
 20
153.8486379751914
 30
0.0
 10
312.2545705975579
 20
153.6264227681888
 30
0.0
 10
312.4211054138165
 20
153.3895780724031
 30
0.0
 10
312.5637972710372
 20
153.1408638657312
 30
0.0
 10
312.6825392781995
 20
152.8812405797539
 30
0.0
 10
312.7755168233327
 20
152.6135361721225
 30
0.0
 10
312.8427639011397
 20
152.339088338778
 30
0.0
 10
312.8830792472343
 20
152.0605495161194
 30
0.0
 10
312.8967409262073
 20
151.779728251098
 30
0.0
 10
312.8830792472343
 20
151.4989069860767
 30
0.0
 10
312.8427639011399
 20
151.220368163418
 30
0.0
 10
312.7755168233327
 20
150.9459203300735
 30
0.0
 10
312.6825392781995
 20
150.6782159224421
 30
0.0
 10
312.5637972710371
 20
150.4185926364648
 30
0.0
 10
312.4211054138164
 20
150.169878429793
 30
0.0
 10
312.2545705975579
 20
149.9330337340073
 30
0.0
 10
312.0666106787661
 20
149.7108185270049
 30
0.0
 10
311.8574490614115
 20
149.5039554176194
 30
0.0
 10
311.6299963231271
 20
149.3148966983669
 30
0.0
 10
311.3846507824981
 20
149.1442567494849
 30
0.0
 10
311.1246222122736
 20
148.9939930217663
 30
0.0
 10
310.8505994694252
 20
148.8646856693297
 30
0.0
 10
310.5658517831727
 20
148.7576948674657
 30
0.0
 10
310.2714889338581
 20
148.6735625282671
 30
0.0
 10
309.970598453826
 20
148.6130435440682
 30
0.0
 10
309.6648121318854
 20
148.576562406072
 30
0.0
 10
309.3568347018933
 20
148.5643436245393
 30
0.0
 10
309.0488572719016
 20
148.5765624060719
 30
0.0
 10
308.7430709499598
 20
148.6130435440684
 30
0.0
 10
308.4421804699323
 20
148.6735625282668
 30
0.0
 10
308.1478176206009
 20
148.757694867467
 30
0.0
 10
307.8630699344106
 20
148.864685669325
 30
0.0
 10
307.5890471913324
 20
148.9939930217837
 30
0.0
 10
307.3290186219597
 20
149.1442567494202
 30
0.0
 10
307.0836730781966
 20
149.3148966986046
 30
0.0
 10
306.8562203515106
 20
149.5039554167377
 30
0.0
 10
306.6470586915439
 20
149.7108185302363
 30
0.0
 10
306.4590989304165
 20
149.9330337220196
 30
0.0
 10
306.2925635346246
 20
150.1698784737473
 30
0.0
 10
306.1498738237055
 20
150.4185924732378
 30
0.0
 10
306.031123907858
 20
150.6782165226366
 30
0.0
 10
305.938175711039
 20
150.9459180972897
 30
0.0
 10
305.8708200290677
 20
151.2203764141403
 30
0.0
 10
305.8309088412681
 20
151.498876223599
 30
0.0
 10
305.8157432630296
 20
151.7798426592713
 30
0.0
 10
305.8285808075337
 20
151.966499544718
 30
0.0
 10
305.8349995797857
 20
152.0598279874413
 30
0.0
 11
305.8349995797857
 21
152.0598279874413
 31
0.0
 11
305.8753548239257
 21
152.3382274947948
 31
0.0
 11
305.9421631664845
 21
152.6114715196676
 31
0.0
 11
306.0352936676737
 21
152.8795776458323
 31
0.0
 11
306.1531842810502
 21
153.1377236639299
 31
0.0
 11
306.2962912945069
 21
153.387216342278
 31
0.0
 11
306.4615715851006
 21
153.6225617493778
 31
0.0
 11
306.6502443776035
 21
153.8457039423927
 31
0.0
 11
306.857874790906
 21
154.0512688674779
 31
0.0
 11
307.0862538736359
 21
154.2411834447467
 31
0.0
 11
307.3299956804478
 21
154.4108697474375
 31
0.0
 11
307.5909918970967
 21
154.5617654369981
 31
0.0
 11
307.863566956975
 21
154.690505423996
 31
0.0
 11
308.1491149255518
 21
154.7978480872858
 31
0.0
 11
308.4423881943503
 21
154.881744430525
 31
0.0
 11
308.7437191575302
 21
154.9423763871645
 31
0.0
 11
309.0489104161106
 21
154.9788256211511
 31
0.0
 11
309.3568347018934
 21
154.9910363957644
 31
0.0
 11
309.664758987676
 21
154.978825621151
 31
0.0
 11
309.9699502462565
 21
154.9423763871644
 31
0.0
 11
310.2712812094367
 21
154.881744430525
 31
0.0
 11
310.5645544782352
 21
154.7978480872859
 31
0.0
 11
310.8501024468118
 21
154.6905054239961
 31
0.0
 11
311.12267750669
 21
154.5617654369981
 31
0.0
 11
311.3836737233389
 21
154.4108697474375
 31
0.0
 11
311.627415530151
 21
154.2411834447468
 31
0.0
 11
311.8557946128808
 21
154.0512688674779
 31
0.0
 11
312.0634250261834
 21
153.8457039423928
 31
0.0
 11
312.2520978186863
 21
153.6225617493778
 31
0.0
 11
312.4173781092799
 21
153.387216342278
 31
0.0
 11
312.5604851227368
 21
153.1377236639299
 31
0.0
 11
312.6783757361134
 21
152.8795776458323
 31
0.0
 11
312.7715062373025
 21
152.6114715196676
 31
0.0
 11
312.8383145798612
 21
152.3382274947949
 31
0.0
 11
312.8786698240011
 21
152.0598279874413
 31
0.0
 11
312.8921918090291
 21
151.779728251098
 31
0.0
 11
312.8786698240012
 21
151.4996285147547
 31
0.0
 11
312.8383145798613
 21
151.2212290074012
 31
0.0
 11
312.7715062373025
 21
150.9479849825285
 31
0.0
 11
312.6783757361134
 21
150.6798788563637
 31
0.0
 11
312.5604851227367
 21
150.4217328382662
 31
0.0
 11
312.4173781092799
 21
150.1722401599181
 31
0.0
 11
312.2520978186863
 21
149.9368947528183
 31
0.0
 11
312.0634250261833
 21
149.7137525598034
 31
0.0
 11
311.8557946128809
 21
149.5081876347182
 31
0.0
 11
311.627415530151
 21
149.3182730574493
 31
0.0
 11
311.3836737233389
 21
149.1485867547586
 31
0.0
 11
311.12267750669
 21
148.997691065198
 31
0.0
 11
310.8501024468118
 21
148.8689510782001
 31
0.0
 11
310.5645544782351
 21
148.7616084149101
 31
0.0
 11
310.2712812094366
 21
148.677712071671
 31
0.0
 11
309.9699502462565
 21
148.6170801150315
 31
0.0
 11
309.6647589876761
 21
148.580630881045
 31
0.0
 11
309.3568347018934
 21
148.5684201064317
 31
0.0
 11
309.0489104161106
 21
148.580630881045
 31
0.0
 11
308.7437191575302
 21
148.6170801150315
 31
0.0
 11
308.4423881943503
 21
148.677712071671
 31
0.0
 11
308.1491149255518
 21
148.7616084149101
 31
0.0
 11
307.863566956975
 21
148.8689510782001
 31
0.0
 11
307.5909918970967
 21
148.997691065198
 31
0.0
 11
307.3299956804479
 21
149.1485867547586
 31
0.0
 11
307.0862538736358
 21
149.3182730574493
 31
0.0
 11
306.8578747909061
 21
149.5081876347182
 31
0.0
 11
306.6502443776036
 21
149.7137525598034
 31
0.0
 11
306.4615715851006
 21
149.9368947528184
 31
0.0
 11
306.296291294507
 21
150.1722401599181
 31
0.0
 11
306.1531842810502
 21
150.4217328382663
 31
0.0
 11
306.0352936676737
 21
150.6798788563638
 31
0.0
 11
305.9421631664846
 21
150.9479849825285
 31
0.0
 11
305.8753548239257
 21
151.2212290074012
 31
0.0
 11
305.8349995797857
 21
151.4996285147547
 31
0.0
 11
305.8214775947578
 21
151.779728251098
 31
0.0
 11
305.8349995797857
 21
152.0598279874413
 31
0.0
  0
SPLINE
  5
1CC
330
4B
100
AcDbEntity
  8
1
  6
Continuous
 62
     7
100
AcDbSpline
210
0.0
220
0.0
230
1.0
 70
    11
 71
     3
 72
    79
 73
    75
 74
    73
 42
0.0000000001
 43
0.0000000001
 44
0.00000001
 40
0.0
 40
0.0
 40
0.0
 40
0.0
 40
0.2813091385367668
 40
0.5626019606352055
 40
0.8464226525143912
 40
1.130214060738669
 40
1.417835711262174
 40
1.705420542401936
 40
1.997635978226865
 40
2.289812854371147
 40
2.586839035183126
 40
2.883829792124865
 40
3.185307045384549
 40
3.486755461402692
 40
3.791812980111022
 40
4.096850365689663
 40
4.404220799428615
 40
4.711580931801262
 40
5.019747232346066
 40
5.327913532890759
 40
5.635273665263465
 40
5.942644099002628
 40
6.247681484581237
 40
6.552739003289492
 40
6.854187419307571
 40
7.155664672567269
 40
7.452655429509085
 40
7.749681610321002
 40
8.041858486465324
 40
8.334073922290253
 40
8.621658753430062
 40
8.909280403953623
 40
9.193071812177948
 40
9.476892504057069
 40
9.758185326155495
 40
10.03949446469225
 40
10.31992040211367
 40
10.6003463395351
 40
10.8816554780718
 40
11.16294830017028
 40
11.44676899204942
 40
11.73056040027375
 40
12.01818205079726
 40
12.30576688193699
 40
12.59798231776195
 40
12.8901591939062
 40
13.18718537471822
 40
13.48417613166003
 40
13.78565338491975
 40
14.08710180093786
 40
14.39215931964614
 40
14.69719670522483
 40
15.00456713896388
 40
15.31192727133647
 40
15.62009357188127
 40
15.92825987242608
 40
16.23562000479867
 40
16.54299043853766
 40
16.8480278241163
 40
17.15308534282462
 40
17.45453375884285
 40
17.75601101210247
 40
18.05300176904427
 40
18.35002794985618
 40
18.64220482600048
 40
18.93442026182548
 40
19.22200509296519
 40
19.50962674348867
 40
19.79341815171295
 40
20.07723884359211
 40
20.35853166569055
 40
20.63984080422729
 40
20.92026674164869
 40
21.20069267907007
 40
21.20069267907007
 40
21.20069267907007
 40
21.20069267907007
 10
305.8349995797857
 20
174.01628901315
 30
0.0
 10
305.8465709832727
 20
173.9231620621291
 30
0.0
 10
305.8697131190843
 20
173.7369135616187
 30
0.0
 10
305.9384752594518
 20
173.4626119765126
 30
0.0
 10
306.0310433862863
 20
173.1948680479357
 30
0.0
 10
306.1498957221166
 20
172.93525541193
 30
0.0
 10
306.2925576377501
 20
172.6865383150114
 30
0.0
 10
306.459100538684
 20
172.4496943996356
 30
0.0
 10
306.6470582580072
 20
172.2274789803194
 30
0.0
 10
306.8562204698143
 20
172.0206159283164
 30
0.0
 10
307.0836730462972
 20
171.8315571934452
 30
0.0
 10
307.3290186306503
 20
171.6609172487838
 30
0.0
 10
307.5890471889902
 20
171.5106535199179
 30
0.0
 10
307.8630699350465
 20
171.381346167791
 30
0.0
 10
308.1478176204297
 20
171.2743553658434
 30
0.0
 10
308.4421804699786
 20
171.1902230266673
 30
0.0
 10
308.7430709499473
 20
171.1297040424623
 30
0.0
 10
309.048857271905
 20
171.0932229044676
 30
0.0
 10
309.3568347018924
 20
171.0810041229345
 30
0.0
 10
309.6648121318857
 20
171.0932229044674
 30
0.0
 10
309.970598453826
 20
171.1297040424636
 30
0.0
 10
310.2714889338582
 20
171.1902230266625
 30
0.0
 10
310.5658517831728
 20
171.274355365861
 30
0.0
 10
310.8505994694254
 20
171.381346167725
 30
0.0
 10
311.1246222122736
 20
171.5106535201613
 30
0.0
 10
311.3846507824982
 20
171.6609172478802
 30
0.0
 10
311.6299963231271
 20
171.831557196762
 30
0.0
 10
311.8574490614114
 20
172.0206159160148
 30
0.0
 10
312.0666106787662
 20
172.2274790253998
 30
0.0
 10
312.2545705975579
 20
172.4496942324025
 30
0.0
 10
312.4211054138164
 20
172.6865389281882
 30
0.0
 10
312.5637972710372
 20
172.9352531348601
 30
0.0
 10
312.6825392781995
 20
173.1948764208374
 30
0.0
 10
312.7755168233327
 20
173.4625808284688
 30
0.0
 10
312.8427639011397
 20
173.7370286618132
 30
0.0
 10
312.8830792472343
 20
174.0155674844719
 30
0.0
 10
312.8967409262073
 20
174.2963887494933
 30
0.0
 10
312.8830792472345
 20
174.5772100145146
 30
0.0
 10
312.8427639011399
 20
174.8557488371734
 30
0.0
 10
312.7755168233327
 20
175.1301966705178
 30
0.0
 10
312.6825392781994
 20
175.3979010781492
 30
0.0
 10
312.5637972710371
 20
175.6575243641265
 30
0.0
 10
312.4211054138164
 20
175.9062385707983
 30
0.0
 10
312.2545705975579
 20
176.143083266584
 30
0.0
 10
312.0666106787661
 20
176.3652984735865
 30
0.0
 10
311.8574490614116
 20
176.5721615829718
 30
0.0
 10
311.6299963231271
 20
176.7612203022244
 30
0.0
 10
311.3846507824981
 20
176.9318602511063
 30
0.0
 10
311.1246222122736
 20
177.0821239788251
 30
0.0
 10
310.8505994694252
 20
177.2114313312615
 30
0.0
 10
310.5658517831727
 20
177.3184221331256
 30
0.0
 10
310.2714889338581
 20
177.4025544723242
 30
0.0
 10
309.970598453826
 20
177.463073456523
 30
0.0
 10
309.6648121318853
 20
177.4995545945193
 30
0.0
 10
309.3568347018934
 20
177.5117733760521
 30
0.0
 10
309.0488572719016
 20
177.4995545945193
 30
0.0
 10
308.7430709499597
 20
177.463073456523
 30
0.0
 10
308.4421804699324
 20
177.4025544723245
 30
0.0
 10
308.1478176206009
 20
177.3184221331242
 30
0.0
 10
307.8630699344106
 20
177.2114313312663
 30
0.0
 10
307.5890471913324
 20
177.0821239788076
 30
0.0
 10
307.3290186219597
 20
176.9318602511711
 30
0.0
 10
307.0836730781965
 20
176.7612203019867
 30
0.0
 10
306.8562203515107
 20
176.5721615838536
 30
0.0
 10
306.6470586915439
 20
176.3652984703549
 30
0.0
 10
306.4590989304165
 20
176.1430832785717
 30
0.0
 10
306.2925635346246
 20
175.906238526844
 30
0.0
 10
306.1498738237054
 20
175.6575245273535
 30
0.0
 10
306.0311239078581
 20
175.3979004779547
 30
0.0
 10
305.9381757110389
 20
175.1301989033016
 30
0.0
 10
305.8708200290677
 20
174.855740586451
 30
0.0
 10
305.8309088412681
 20
174.5772407769924
 30
0.0
 10
305.8157432630296
 20
174.2962743413199
 30
0.0
 10
305.8285808075337
 20
174.1096174558734
 30
0.0
 10
305.8349995797857
 20
174.01628901315
 30
0.0
 11
305.8349995797857
 21
174.01628901315
 31
0.0
 11
305.8753548239257
 21
173.7378895057965
 31
0.0
 11
305.9421631664845
 21
173.4646454809237
 31
0.0
 11
306.0352936676737
 21
173.196539354759
 31
0.0
 11
306.1531842810502
 21
172.9383933366615
 31
0.0
 11
306.2962912945069
 21
172.6889006583133
 31
0.0
 11
306.4615715851006
 21
172.4535552512135
 31
0.0
 11
306.6502443776035
 21
172.2304130581986
 31
0.0
 11
306.857874790906
 21
172.0248481331134
 31
0.0
 11
307.0862538736359
 21
171.8349335558446
 31
0.0
 11
307.3299956804478
 21
171.6652472531538
 31
0.0
 11
307.5909918970967
 21
171.5143515635932
 31
0.0
 11
307.863566956975
 21
171.3856115765953
 31
0.0
 11
308.1491149255518
 21
171.2782689133055
 31
0.0
 11
308.4423881943503
 21
171.1943725700663
 31
0.0
 11
308.7437191575302
 21
171.1337406134268
 31
0.0
 11
309.0489104161106
 21
171.0972913794403
 31
0.0
 11
309.3568347018934
 21
171.085080604827
 31
0.0
 11
309.664758987676
 21
171.0972913794403
 31
0.0
 11
309.9699502462565
 21
171.1337406134269
 31
0.0
 11
310.2712812094367
 21
171.1943725700664
 31
0.0
 11
310.5645544782352
 21
171.2782689133054
 31
0.0
 11
310.8501024468118
 21
171.3856115765953
 31
0.0
 11
311.12267750669
 21
171.5143515635932
 31
0.0
 11
311.3836737233389
 21
171.6652472531538
 31
0.0
 11
311.627415530151
 21
171.8349335558445
 31
0.0
 11
311.8557946128808
 21
172.0248481331134
 31
0.0
 11
312.0634250261834
 21
172.2304130581985
 31
0.0
 11
312.2520978186863
 21
172.4535552512135
 31
0.0
 11
312.4173781092799
 21
172.6889006583133
 31
0.0
 11
312.5604851227368
 21
172.9383933366615
 31
0.0
 11
312.6783757361134
 21
173.196539354759
 31
0.0
 11
312.7715062373025
 21
173.4646454809237
 31
0.0
 11
312.8383145798612
 21
173.7378895057964
 31
0.0
 11
312.8786698240011
 21
174.01628901315
 31
0.0
 11
312.8921918090291
 21
174.2963887494933
 31
0.0
 11
312.8786698240012
 21
174.5764884858366
 31
0.0
 11
312.8383145798613
 21
174.8548879931901
 31
0.0
 11
312.7715062373025
 21
175.1281320180628
 31
0.0
 11
312.6783757361134
 21
175.3962381442275
 31
0.0
 11
312.5604851227367
 21
175.6543841623251
 31
0.0
 11
312.4173781092799
 21
175.9038768406732
 31
0.0
 11
312.2520978186863
 21
176.139222247773
 31
0.0
 11
312.0634250261833
 21
176.3623644407879
 31
0.0
 11
311.8557946128809
 21
176.5679293658731
 31
0.0
 11
311.627415530151
 21
176.757843943142
 31
0.0
 11
311.3836737233389
 21
176.9275302458327
 31
0.0
 11
311.12267750669
 21
177.0784259353933
 31
0.0
 11
310.8501024468118
 21
177.2071659223912
 31
0.0
 11
310.5645544782351
 21
177.3145085856812
 31
0.0
 11
310.2712812094366
 21
177.3984049289203
 31
0.0
 11
309.9699502462565
 21
177.4590368855598
 31
0.0
 11
309.6647589876761
 21
177.4954861195463
 31
0.0
 11
309.3568347018934
 21
177.5076968941596
 31
0.0
 11
309.0489104161106
 21
177.4954861195463
 31
0.0
 11
308.7437191575302
 21
177.4590368855598
 31
0.0
 11
308.4423881943503
 21
177.3984049289203
 31
0.0
 11
308.1491149255518
 21
177.3145085856812
 31
0.0
 11
307.863566956975
 21
177.2071659223913
 31
0.0
 11
307.5909918970967
 21
177.0784259353933
 31
0.0
 11
307.3299956804479
 21
176.9275302458327
 31
0.0
 11
307.0862538736358
 21
176.757843943142
 31
0.0
 11
306.8578747909061
 21
176.5679293658731
 31
0.0
 11
306.6502443776036
 21
176.3623644407879
 31
0.0
 11
306.4615715851006
 21
176.1392222477729
 31
0.0
 11
306.296291294507
 21
175.9038768406732
 31
0.0
 11
306.1531842810502
 21
175.654384162325
 31
0.0
 11
306.0352936676737
 21
175.3962381442275
 31
0.0
 11
305.9421631664846
 21
175.1281320180628
 31
0.0
 11
305.8753548239257
 21
174.8548879931901
 31
0.0
 11
305.8349995797857
 21
174.5764884858366
 31
0.0
 11
305.8214775947578
 21
174.2963887494933
 31
0.0
 11
305.8349995797857
 21
174.01628901315
 31
0.0
  0
SPLINE
  5
1CD
330
4B
100
AcDbEntity
  8
1
  6
Continuous
 62
     7
100
AcDbSpline
210
0.0
220
0.0
230
1.0
 70
    11
 71
     3
 72
    79
 73
    75
 74
    73
 42
0.0000000001
 43
0.0000000001
 44
0.00000001
 40
0.0
 40
0.0
 40
0.0
 40
0.0
 40
0.3219191133369132
 40
0.6433817983662638
 40
0.9928750068868431
 40
1.341795140507055
 40
1.729749028413361
 40
2.117262757272428
 40
2.54790861555697
 40
2.978266915974142
 40
3.450266276154479
 40
3.922086452275896
 40
4.42996287842873
 40
4.93773079756302
 40
5.473111501542457
 40
6.008430500180162
 40
6.561033308980338
 40
7.113608122002704
 40
7.672061093536225
 40
8.230514065069746
 40
8.783088878092093
 40
9.335691686892234
 40
9.871010685529903
 40
10.40639138950931
 40
10.9141593086436
 40
11.42203573479644
 40
11.89385591091783
 40
12.36585527109822
 40
12.79621357151534
 40
13.22685942979989
 40
13.61437315865894
 40
14.00232704656533
 40
14.35124718018547
 40
14.70074038870605
 40
15.02220307373545
 40
15.34412218707231
 40
15.65570035748468
 40
15.96727852789717
 40
16.28919764123415
 40
16.61066032626353
 40
16.96015353478408
 40
17.30907366840421
 40
17.69702755631056
 40
18.08454128516959
 40
18.51518714345417
 40
18.94554544387145
 40
19.41754480405181
 40
19.88936498017316
 40
20.39724140632598
 40
20.90500932546028
 40
21.44039002943968
 40
21.97570902807741
 40
22.52831183687755
 40
23.08088664989993
 40
23.63933962143339
 40
24.19779259296694
 40
24.75036740598934
 40
25.30297021478951
 40
25.83828921342718
 40
26.3736699174066
 40
26.8814378365409
 40
27.38931426269371
 40
27.8611344388151
 40
28.33313379899549
 40
28.76349209941274
 40
29.19413795769728
 40
29.58165168655627
 40
29.9696055744626
 40
30.31852570808286
 40
30.66801891660339
 40
30.98948160163274
 40
31.31140071496972
 40
31.62297888538215
 40
31.93455705579458
 40
31.93455705579458
 40
31.93455705579458
 40
31.93455705579458
 10
309.0462872034381
 20
169.4353527146599
 30
0.0
 10
308.9409682777782
 20
169.4136286977106
 30
0.0
 10
308.7304797513575
 20
169.3702114648916
 30
0.0
 10
308.4239866044139
 20
169.2406180109406
 30
0.0
 10
308.129066894507
 20
169.0701029030561
 30
0.0
 10
307.8408678280376
 20
168.8493240219178
 30
0.0
 10
307.5699128973291
 20
168.5893664839774
 30
0.0
 10
307.3085422751402
 20
168.2831346709085
 30
0.0
 10
307.067694467579
 20
167.9430840245296
 30
0.0
 10
306.8402725571725
 20
167.560893500524
 30
0.0
 10
306.6355943307707
 20
167.1506612501056
 30
0.0
 10
306.4484263675747
 20
166.7040904181092
 30
0.0
 10
306.2856334511363
 20
166.235425796462
 30
0.0
 10
306.1440066892423
 20
165.7379279203737
 30
0.0
 10
306.0279547675536
 20
165.2244656971663
 30
0.0
 10
305.9358840992239
 20
164.6910261166059
 30
0.0
 10
305.8701930317641
 20
164.1479251388361
 30
0.0
 10
305.830240097013
 20
163.5946094353516
 30
0.0
 10
305.8170731635727
 20
163.0380585002991
 30
0.0
 10
305.830240097011
 20
162.4815075652258
 30
0.0
 10
305.8701930317722
 20
161.9281918618033
 30
0.0
 10
305.9358840991951
 20
161.3850908838087
 30
0.0
 10
306.0279547676579
 20
160.8516513040614
 30
0.0
 10
306.1440066888609
 20
160.3381890778912
 30
0.0
 10
306.2856334524785
 20
159.840691212316
 30
0.0
 10
306.4484263627056
 20
159.3720265527856
 30
0.0
 10
306.6355943475173
 20
158.9254558526207
 30
0.0
 10
306.8402724968281
 20
158.5152231320386
 30
0.0
 10
307.0676946708758
 20
158.1330342159299
 30
0.0
 10
307.3085415457306
 20
157.7929778811548
 30
0.0
 10
307.5699153194619
 20
157.4867652887306
 30
0.0
 10
307.8408591310164
 20
157.2267399372321
 30
0.0
 10
308.1290957646921
 20
157.0061901711781
 30
0.0
 10
308.4238819476456
 20
156.8348607083821
 30
0.0
 10
308.7308359107882
 20
156.7080776827733
 30
0.0
 10
309.041587135224
 20
156.6334304250601
 30
0.0
 10
309.3568347018933
 20
156.6065949199311
 30
0.0
 10
309.6720822685628
 20
156.6334304250602
 30
0.0
 10
309.9828334929986
 20
156.7080776827734
 30
0.0
 10
310.2897874561413
 20
156.834860708382
 30
0.0
 10
310.5845736390947
 20
157.0061901711781
 30
0.0
 10
310.8728102727706
 20
157.2267399372321
 30
0.0
 10
311.1437540843249
 20
157.4867652887305
 30
0.0
 10
311.4051278580562
 20
157.7929778811547
 30
0.0
 10
311.6459747329109
 20
158.1330342159299
 30
0.0
 10
311.873396906959
 20
158.5152231320386
 30
0.0
 10
312.0780750562697
 20
158.9254558526208
 30
0.0
 10
312.2652430410813
 20
159.3720265527855
 30
0.0
 10
312.4280359513083
 20
159.8406912123161
 30
0.0
 10
312.5696627149259
 20
160.3381890778911
 30
0.0
 10
312.685714636129
 20
160.8516513040615
 30
0.0
 10
312.777785304592
 20
161.3850908838088
 30
0.0
 10
312.8434763720148
 20
161.9281918618031
 30
0.0
 10
312.8834293067762
 20
162.4815075652266
 30
0.0
 10
312.8965962402137
 20
163.0380585002959
 30
0.0
 10
312.8834293067762
 20
163.5946094353637
 30
0.0
 10
312.8434763720143
 20
164.1479251387915
 30
0.0
 10
312.777785304594
 20
164.6910261167701
 30
0.0
 10
312.6857146361217
 20
165.2244656965748
 30
0.0
 10
312.5696627149529
 20
165.7379279225359
 30
0.0
 10
312.4280359512136
 20
166.2354257888534
 30
0.0
 10
312.2652430414253
 20
166.7040904457086
 30
0.0
 10
312.0780750550871
 20
167.1506611551832
 30
0.0
 10
311.8733969112202
 20
167.5608938425629
 30
0.0
 10
311.6459747185542
 20
167.9430828722195
 30
0.0
 10
311.4051279095664
 20
168.2831388052863
 30
0.0
 10
311.1437539132766
 20
168.5893527550516
 30
0.0
 10
310.8728108869447
 20
168.8493733176303
 30
0.0
 10
310.5845716003136
 20
169.069939263542
 30
0.0
 10
310.2897948468884
 20
169.2412112174813
 30
0.0
 10
309.9828083414073
 20
169.3681927124787
 30
0.0
 10
309.6721752686934
 20
169.4421193858293
 30
0.0
 10
309.3564999585477
 20
169.4715636151968
 30
0.0
 10
309.1496914551412
 20
169.4474230148389
 30
0.0
 10
309.0462872034381
 20
169.4353527146599
 30
0.0
 11
309.0462872034381
 21
169.4353527146599
 31
0.0
 11
308.7333049772658
 21
169.3600264799745
 31
0.0
 11
308.4356458917133
 21
169.2386290885102
 31
0.0
 11
308.1330784510585
 21
169.0637049716549
 31
0.0
 11
307.8552389403624
 21
168.852635158698
 31
0.0
 11
307.5745183177178
 21
168.5848588506278
 31
0.0
 11
307.3222571303326
 21
168.2906970186488
 31
0.0
 11
307.0724419429257
 21
167.9399147109443
 31
0.0
 11
306.8518231316675
 21
167.5704074622238
 31
0.0
 11
306.6402921666272
 21
167.148461912609
 31
0.0
 11
306.4575031816694
 21
166.71348781502
 31
0.0
 11
306.2902263505359
 21
166.2339495725328
 31
0.0
 11
306.1509250563126
 21
165.7456633766091
 31
0.0
 11
306.0324486967253
 21
165.2235562511909
 31
0.0
 11
305.9412566451197
 21
164.6960617583036
 31
0.0
 11
305.8746205526712
 21
164.1474913476204
 31
0.0
 11
305.8348138347069
 21
163.5963522098416
 31
0.0
 11
305.8214775947578
 21
163.0380585002956
 31
0.0
 11
305.8348138347069
 21
162.4797647907496
 31
0.0
 11
305.8746205526713
 21
161.9286256529708
 31
0.0
 11
305.9412566451198
 21
161.3800552422877
 31
0.0
 11
306.0324486967253
 21
160.8525607494004
 31
0.0
 11
306.1509250563126
 21
160.3304536239822
 31
0.0
 11
306.2902263505359
 21
159.8421674280585
 31
0.0
 11
306.4575031816694
 21
159.3626291855713
 31
0.0
 11
306.6402921666272
 21
158.9276550879823
 31
0.0
 11
306.8518231316675
 21
158.5057095383675
 31
0.0
 11
307.0724419429257
 21
158.136202289647
 31
0.0
 11
307.3222571303326
 21
157.7854199819425
 31
0.0
 11
307.5745183177179
 21
157.4912581499636
 31
0.0
 11
307.8552389403625
 21
157.2234818418934
 31
0.0
 11
308.1330784510585
 21
157.0124120289364
 31
0.0
 11
308.4356458917133
 21
156.8374879120811
 31
0.0
 11
308.7333049772659
 21
156.7160905206168
 31
0.0
 11
309.0462872034381
 21
156.6407642859314
 31
0.0
 11
309.3568347018933
 21
156.6154422109631
 31
0.0
 11
309.6673822003487
 21
156.6407642859314
 31
0.0
 11
309.980364426521
 21
156.7160905206168
 31
0.0
 11
310.2780235120736
 21
156.8374879120811
 31
0.0
 11
310.5805909527284
 21
157.0124120289364
 31
0.0
 11
310.8584304634244
 21
157.2234818418933
 31
0.0
 11
311.139151086069
 21
157.4912581499635
 31
0.0
 11
311.3914122734542
 21
157.7854199819425
 31
0.0
 11
311.6412274608611
 21
158.136202289647
 31
0.0
 11
311.8618462721195
 21
158.5057095383675
 31
0.0
 11
312.0733772371598
 21
158.9276550879823
 31
0.0
 11
312.2561662221175
 21
159.3626291855713
 31
0.0
 11
312.4234430532509
 21
159.8421674280585
 31
0.0
 11
312.5627443474742
 21
160.3304536239822
 31
0.0
 11
312.6812207070616
 21
160.8525607494004
 31
0.0
 11
312.7724127586672
 21
161.3800552422877
 31
0.0
 11
312.8390488511157
 21
161.9286256529708
 31
0.0
 11
312.8788555690801
 21
162.4797647907496
 31
0.0
 11
312.8921918090291
 21
163.0380585002956
 31
0.0
 11
312.87885556908
 21
163.5963522098416
 31
0.0
 11
312.8390488511157
 21
164.1474913476205
 31
0.0
 11
312.7724127586672
 21
164.6960617583036
 31
0.0
 11
312.6812207070617
 21
165.2235562511909
 31
0.0
 11
312.5627443474743
 21
165.7456633766091
 31
0.0
 11
312.4234430532511
 21
166.2339495725329
 31
0.0
 11
312.2561662221176
 21
166.71348781502
 31
0.0
 11
312.0733772371598
 21
167.148461912609
 31
0.0
 11
311.8618462721194
 21
167.5704074622238
 31
0.0
 11
311.6412274608611
 21
167.9399147109443
 31
0.0
 11
311.3914122734542
 21
168.2906970186488
 31
0.0
 11
311.139151086069
 21
168.5848588506277
 31
0.0
 11
310.8584304634244
 21
168.8526351586979
 31
0.0
 11
310.5805909527282
 21
169.0637049716549
 31
0.0
 11
310.2780235120735
 21
169.2386290885102
 31
0.0
 11
309.980364426521
 21
169.3600264799745
 31
0.0
 11
309.6673822003487
 21
169.4353527146599
 31
0.0
 11
309.3568347018934
 21
169.4606747896282
 31
0.0
 11
309.0462872034381
 21
169.4353527146599
 31
0.0
  0
SPLINE
  5
1CE
330
4B
100
AcDbEntity
  8
0
  6
Continuous
 62
     7
100
AcDbSpline
210
0.0
220
0.0
230
1.0
 70
     8
 71
     3
 72
    45
 73
    41
 74
    39
 42
0.0000000001
 43
0.0000000001
 44
0.00000001
 40
0.0
 40
0.0
 40
0.0
 40
0.0
 40
0.3169034556555797
 40
0.6340208132350835
 40
1.11346448235567
 40
1.592935515053328
 40
2.059489154761863
 40
2.526101820003929
 40
2.9722045816688
 40
3.418407199072596
 40
3.838096464537049
 40
4.257940912307714
 40
4.647615584432362
 40
5.037518138338612
 40
5.396797438008672
 40
5.756383997609985
 40
6.088948994004956
 40
6.421856510713024
 40
6.735878003128636
 40
7.050143069099327
 40
7.357574974429075
 40
7.665006879759052
 40
7.979271945729515
 40
8.293293438145126
 40
8.62620095485322
 40
8.958765951248253
 40
9.318352510849531
 40
9.677631810519493
 40
10.06753436442579
 40
10.45720903655045
 40
10.8770534843211
 40
11.29674274978563
 40
11.74294536718941
 40
12.18904812885422
 40
12.65566079409631
 40
13.12221443380476
 40
13.60168546650244
 40
14.081129135623
 40
14.39824649320574
 40
14.71514994886459
 40
14.71514994886459
 40
14.71514994886459
 40
14.71514994886459
 10
172.9718830972038
 20
594.3417090795676
 30
0.0
 10
172.8662393768852
 20
594.3410145693366
 30
0.0
 10
172.6548806293733
 20
594.3396250800977
 30
0.0
 10
172.2838890924441
 20
594.3539245646409
 30
0.0
 10
171.8597672862013
 20
594.3886699977242
 30
0.0
 10
171.3888510599399
 20
594.4539552342413
 30
0.0
 10
170.9266376332018
 20
594.5451835582139
 30
0.0
 10
170.4812643431736
 20
594.6604270470175
 30
0.0
 10
170.0502881575069
 20
594.8007870692841
 30
0.0
 10
169.6436149524759
 20
594.9625503512837
 30
0.0
 10
169.2568819599416
 20
595.1480344617748
 30
0.0
 10
168.9008145352233
 20
595.3515888563881
 30
0.0
 10
168.5700496265648
 20
595.5769174798041
 30
0.0
 10
168.2749851267943
 20
595.8165837844701
 30
0.0
 10
168.0103641468755
 20
596.0753721418801
 30
0.0
 10
167.7851746187767
 20
596.3447933335733
 30
0.0
 10
167.5952096216108
 20
596.6296624918552
 30
0.0
 10
167.447460206924
 20
596.9217477290704
 30
0.0
 10
167.3389312215239
 20
597.2241626330484
 30
0.0
 10
167.2747195687055
 20
597.5303845084061
 30
0.0
 10
167.2521182838711
 20
597.8402839407912
 30
0.0
 10
167.2747195687056
 20
598.1501833731759
 30
0.0
 10
167.338931221524
 20
598.4564052485337
 30
0.0
 10
167.447460206924
 20
598.7588201525116
 30
0.0
 10
167.5952096216109
 20
599.0509053897267
 30
0.0
 10
167.7851746187767
 20
599.3357745480089
 30
0.0
 10
168.0103641468754
 20
599.605195739702
 30
0.0
 10
168.2749851267943
 20
599.8639840971116
 30
0.0
 10
168.570049626565
 20
600.1036504017779
 30
0.0
 10
168.9008145352234
 20
600.3289790251938
 30
0.0
 10
169.2568819599416
 20
600.5325334198076
 30
0.0
 10
169.6436149524759
 20
600.7180175302984
 30
0.0
 10
170.0502881575069
 20
600.8797808122981
 30
0.0
 10
170.4812643431736
 20
601.0201408345642
 30
0.0
 10
170.9266376332018
 20
601.1353843233682
 30
0.0
 10
171.3888510599398
 20
601.2266126473404
 30
0.0
 10
171.8597672862013
 20
601.2918978838579
 30
0.0
 10
172.283889092445
 20
601.3266433169417
 30
0.0
 10
172.6548806293765
 20
601.3409428014845
 30
0.0
 10
172.8662393768905
 20
601.3395533122452
 30
0.0
 10
172.9718830972102
 20
601.3388588020143
 30
0.0
 11
172.9718830972038
 21
594.3417090795676
 31
0.0
 11
172.6549797814827
 21
594.3420068905797
 31
0.0
 11
172.3380764657616
 21
594.3536562237441
 31
0.0
 11
171.8602597805151
 21
594.3931207288074
 31
0.0
 11
171.3853515967633
 21
594.4591107901931
 31
0.0
 11
170.9276584878079
 21
594.5496056339138
 31
0.0
 11
170.4760153277197
 21
594.666848268266
 31
0.0
 11
170.0519213710022
 21
594.8052389826971
 31
0.0
 11
169.6375071453646
 21
594.9706403894843
 31
0.0
 11
169.259260634878
 21
595.1524882843053
 31
0.0
 11
168.8951022525813
 21
595.36143333193
 31
0.0
 11
168.5733617845715
 21
595.581272867365
 31
0.0
 11
168.2711959031638
 21
595.8276867096217
 31
0.0
 11
168.0148345645026
 21
596.0794017850766
 31
0.0
 11
167.7847774533308
 21
596.3557642634364
 31
0.0
 11
167.6010033067785
 21
596.6329402722939
 31
0.0
 11
167.451109639806
 21
596.9301932004246
 31
0.0
 11
167.3459096806147
 21
597.2260689619953
 31
0.0
 11
167.2812877555597
 21
597.5336182076321
 31
0.0
 11
167.259596639387
 21
597.840283940791
 31
0.0
 11
167.2812877555597
 21
598.1469496739501
 31
0.0
 11
167.3459096806147
 21
598.4544989195866
 31
0.0
 11
167.451109639806
 21
598.7503746811574
 31
0.0
 11
167.6010033067786
 21
599.047627609288
 31
0.0
 11
167.7847774533308
 21
599.3248036181457
 31
0.0
 11
168.0148345645025
 21
599.6011660965055
 31
0.0
 11
168.2711959031638
 21
599.8528811719601
 31
0.0
 11
168.5733617845716
 21
600.0992950142169
 31
0.0
 11
168.8951022525814
 21
600.319134549652
 31
0.0
 11
169.259260634878
 21
600.5280795972768
 31
0.0
 11
169.6375071453646
 21
600.7099274920979
 31
0.0
 11
170.0519213710022
 21
600.875328898885
 31
0.0
 11
170.4760153277196
 21
601.013719613316
 31
0.0
 11
170.9276584878079
 21
601.1309622476682
 31
0.0
 11
171.3853515967632
 21
601.2214570913889
 31
0.0
 11
171.860259780515
 21
601.2874471527747
 31
0.0
 11
172.3380764657615
 21
601.3269116578381
 31
0.0
 11
172.6549797814858
 21
601.3385609910024
 31
0.0
 11
172.9718830972102
 21
601.3388588020143
 31
0.0
  0
SPLINE
  5
1CF
330
4B
100
AcDbEntity
  8
0
  6
Continuous
 62
     7
100
AcDbSpline
210
0.0
220
0.0
230
1.0
 70
     8
 71
     3
 72
    45
 73
    41
 74
    39
 42
0.0000000001
 43
0.0000000001
 44
0.00000001
 40
0.0
 40
0.0
 40
0.0
 40
0.0
 40
0.3169034556555513
 40
0.6340208132350835
 40
1.113464482355642
 40
1.592935515053384
 40
2.059489154761891
 40
2.526101820003957
 40
2.972204581668774
 40
3.418407199072596
 40
3.838096464537049
 40
4.257940912307714
 40
4.647615584432362
 40
5.037518138338612
 40
5.396797438008672
 40
5.756383997609985
 40
6.088948994004956
 40
6.421856510713036
 40
6.735878003128638
 40
7.050143069099341
 40
7.357574974429091
 40
7.665006879759068
 40
7.979271945729549
 40
8.29329343814516
 40
8.626200954853253
 40
8.958765951248287
 40
9.318352510849582
 40
9.677631810519523
 40
10.06753436442584
 40
10.45720903655048
 40
10.87705348432113
 40
11.29674274978566
 40
11.74294536718941
 40
12.18904812885425
 40
12.65566079409629
 40
13.12221443380479
 40
13.60168546650247
 40
14.08112913562303
 40
14.3982464932058
 40
14.71514994886462
 40
14.71514994886462
 40
14.71514994886462
 40
14.71514994886462
 10
185.6718830972242
 20
594.3417090795676
 30
0.0
 10
185.7775268175428
 20
594.3410145693366
 30
0.0
 10
185.9888855650547
 20
594.3396250800976
 30
0.0
 10
186.359877101984
 20
594.3539245646408
 30
0.0
 10
186.7839989082267
 20
594.3886699977242
 30
0.0
 10
187.2549151344882
 20
594.4539552342415
 30
0.0
 10
187.7171285612262
 20
594.5451835582137
 30
0.0
 10
188.1625018512544
 20
594.6604270470177
 30
0.0
 10
188.593478036921
 20
594.8007870692838
 30
0.0
 10
189.000151241952
 20
594.9625503512839
 30
0.0
 10
189.3868842344865
 20
595.1480344617748
 30
0.0
 10
189.7429516592046
 20
595.3515888563881
 30
0.0
 10
190.0737165678632
 20
595.5769174798041
 30
0.0
 10
190.3687810676337
 20
595.8165837844701
 30
0.0
 10
190.6334020475525
 20
596.0753721418801
 30
0.0
 10
190.8585915756513
 20
596.3447933335732
 30
0.0
 10
191.0485565728171
 20
596.6296624918552
 30
0.0
 10
191.1963059875041
 20
596.9217477290704
 30
0.0
 10
191.3048349729041
 20
597.2241626330487
 30
0.0
 10
191.3690466257225
 20
597.5303845084062
 30
0.0
 10
191.391647910557
 20
597.8402839407913
 30
0.0
 10
191.3690466257226
 20
598.1501833731759
 30
0.0
 10
191.304834972904
 20
598.4564052485334
 30
0.0
 10
191.1963059875041
 20
598.7588201525118
 30
0.0
 10
191.048556572817
 20
599.0509053897264
 30
0.0
 10
190.8585915756514
 20
599.335774548009
 30
0.0
 10
190.6334020475525
 20
599.6051957397021
 30
0.0
 10
190.3687810676336
 20
599.8639840971116
 30
0.0
 10
190.0737165678631
 20
600.1036504017778
 30
0.0
 10
189.7429516592046
 20
600.3289790251939
 30
0.0
 10
189.3868842344864
 20
600.5325334198075
 30
0.0
 10
189.0001512419522
 20
600.7180175302985
 30
0.0
 10
188.5934780369211
 20
600.8797808122981
 30
0.0
 10
188.1625018512543
 20
601.0201408345644
 30
0.0
 10
187.7171285612263
 20
601.1353843233683
 30
0.0
 10
187.2549151344882
 20
601.2266126473405
 30
0.0
 10
186.7839989082268
 20
601.2918978838579
 30
0.0
 10
186.3598771019831
 20
601.3266433169416
 30
0.0
 10
185.9888855650515
 20
601.3409428014844
 30
0.0
 10
185.7775268175375
 20
601.3395533122452
 30
0.0
 10
185.6718830972178
 20
601.3388588020143
 30
0.0
 11
185.6718830972242
 21
594.3417090795676
 31
0.0
 11
185.9887864129453
 21
594.3420068905797
 31
0.0
 11
186.3056897286664
 21
594.3536562237441
 31
0.0
 11
186.7835064139129
 21
594.3931207288074
 31
0.0
 11
187.2584145976648
 21
594.4591107901931
 31
0.0
 11
187.7161077066202
 21
594.5496056339138
 31
0.0
 11
188.1677508667084
 21
594.666848268266
 31
0.0
 11
188.5918448234258
 21
594.8052389826971
 31
0.0
 11
189.0062590490634
 21
594.9706403894843
 31
0.0
 11
189.38450555955
 21
595.1524882843053
 31
0.0
 11
189.7486639418467
 21
595.36143333193
 31
0.0
 11
190.0704044098565
 21
595.581272867365
 31
0.0
 11
190.3725702912642
 21
595.8276867096217
 31
0.0
 11
190.6289316299254
 21
596.0794017850766
 31
0.0
 11
190.8589887410972
 21
596.3557642634364
 31
0.0
 11
191.0427628876495
 21
596.6329402722939
 31
0.0
 11
191.1926565546221
 21
596.9301932004246
 31
0.0
 11
191.2978565138133
 21
597.2260689619953
 31
0.0
 11
191.3624784388684
 21
597.5336182076321
 31
0.0
 11
191.384169555041
 21
597.840283940791
 31
0.0
 11
191.3624784388684
 21
598.1469496739501
 31
0.0
 11
191.2978565138133
 21
598.4544989195866
 31
0.0
 11
191.192656554622
 21
598.7503746811574
 31
0.0
 11
191.0427628876494
 21
599.047627609288
 31
0.0
 11
190.8589887410972
 21
599.3248036181457
 31
0.0
 11
190.6289316299254
 21
599.6011660965055
 31
0.0
 11
190.3725702912642
 21
599.8528811719601
 31
0.0
 11
190.0704044098564
 21
600.0992950142169
 31
0.0
 11
189.7486639418466
 21
600.319134549652
 31
0.0
 11
189.38450555955
 21
600.5280795972768
 31
0.0
 11
189.0062590490634
 21
600.7099274920979
 31
0.0
 11
188.5918448234258
 21
600.875328898885
 31
0.0
 11
188.1677508667084
 21
601.013719613316
 31
0.0
 11
187.7161077066202
 21
601.1309622476682
 31
0.0
 11
187.2584145976648
 21
601.2214570913889
 31
0.0
 11
186.783506413913
 21
601.2874471527747
 31
0.0
 11
186.3056897286666
 21
601.3269116578381
 31
0.0
 11
185.9887864129422
 21
601.3385609910024
 31
0.0
 11
185.6718830972178
 21
601.3388588020143
 31
0.0
  0
ENDBLK
  5
4D
330
4B
100
AcDbEntity
  8
0
100
AcDbBlockEnd
  0
BLOCK
  5
4F
330
4E
100
AcDbEntity
  8
0
100
AcDbBlockBegin
  2
66-6-55-200
 70
     0
 71
     0
 10
213.321883097214
 20
213.8319143780786
 30
0.0
  3
66-6-55-200
  1

  0
LINE
  5
1D0
330
4E
100
AcDbEntity
  8
1
  6
Continuous
 62
     7
100
AcDbLine
 10
172.9718830972141
 20
287.3238159477036
 30
0.0
 11
172.9718830972141
 21
291.3238159477036
 31
0.0
  0
LINE
  5
1D1
330
4E
100
AcDbEntity
  8
1
  6
Continuous
 62
     7
100
AcDbLine
 10
185.6718830972141
 20
291.1702852800786
 30
0.0
 11
185.6718830972141
 21
287.1702852800786
 31
0.0
  0
LINE
  5
1D2
330
4E
100
AcDbEntity
  8
1
  6
Continuous
 62
     7
100
AcDbLine
 10
322.9718830972141
 20
287.3238159477036
 30
0.0
 11
322.9718830972141
 21
291.3238159477036
 31
0.0
  0
LINE
  5
1D3
330
4E
100
AcDbEntity
  8
1
  6
Continuous
 62
     7
100
AcDbLine
 10
335.6718830972141
 20
291.1702852800786
 30
0.0
 11
335.6718830972141
 21
287.1702852800786
 31
0.0
  0
LINE
  5
1D4
330
4E
100
AcDbEntity
  8
1
  6
Continuous
 62
     7
100
AcDbLine
 10
170.3218830972141
 20
563.4701327433645
 30
0.0
 11
170.3218830972141
 21
562.7701327433642
 31
0.0
  0
LINE
  5
1D5
330
4E
100
AcDbEntity
  8
1
  6
Continuous
 62
     7
100
AcDbLine
 10
171.9718830972139
 20
563.4701327433641
 30
0.0
 11
170.3218830972141
 21
563.4701327433645
 31
0.0
  0
LINE
  5
1D6
330
4E
100
AcDbEntity
  8
1
  6
Continuous
 62
     7
100
AcDbLine
 10
172.9718830972139
 20
563.4701327433641
 30
0.0
 11
171.9718830972139
 21
563.4701327433641
 31
0.0
  0
LINE
  5
1D7
330
4E
100
AcDbEntity
  8
1
  6
Continuous
 62
     7
100
AcDbLine
 10
185.671883097214
 20
563.4701327433641
 30
0.0
 11
172.9718830972139
 21
563.4701327433641
 31
0.0
  0
LINE
  5
1D8
330
4E
100
AcDbEntity
  8
1
  6
Continuous
 62
     7
100
AcDbLine
 10
170.3218830972141
 20
562.7701327433642
 30
0.0
 11
188.321883097214
 21
562.7701327433642
 31
0.0
  0
LINE
  5
1D9
330
4E
100
AcDbEntity
  8
1
  6
Continuous
 62
     7
100
AcDbLine
 10
186.671883097214
 20
563.4701327433641
 30
0.0
 11
188.321883097214
 21
563.4701327433641
 31
0.0
  0
LINE
  5
1DA
330
4E
100
AcDbEntity
  8
1
  6
Continuous
 62
     7
100
AcDbLine
 10
188.321883097214
 20
562.7701327433642
 30
0.0
 11
188.321883097214
 21
563.4701327433641
 31
0.0
  0
LINE
  5
1DB
330
4E
100
AcDbEntity
  8
1
  6
Continuous
 62
     7
100
AcDbLine
 10
185.671883097214
 20
563.4701327433641
 30
0.0
 11
186.671883097214
 21
563.4701327433641
 31
0.0
  0
LINE
  5
1DC
330
4E
100
AcDbEntity
  8
1
  6
Continuous
 62
     7
100
AcDbLine
 10
185.671883097214
 20
564.4701327433641
 30
0.0
 11
185.671883097214
 21
617.7701327433642
 31
0.0
  0
LINE
  5
1DD
330
4E
100
AcDbEntity
  8
1
  6
Continuous
 62
     7
100
AcDbLine
 10
172.9718830972139
 20
564.4701327433641
 30
0.0
 11
172.9718830972139
 21
617.7701327433642
 31
0.0
  0
LINE
  5
1DE
330
4E
100
AcDbEntity
  8
1
  6
Continuous
 62
     7
100
AcDbLine
 10
185.671883097214
 20
199.5380585002956
 30
0.0
 11
185.6718830972141
 21
287.1702852800786
 31
0.0
  0
LINE
  5
1DF
330
4E
100
AcDbEntity
  8
1
  6
Continuous
 62
     7
100
AcDbLine
 10
172.9718830972141
 20
536.6601669991806
 30
0.0
 11
172.9718830972141
 21
291.3238159477036
 31
0.0
  0
LINE
  5
1E0
330
4E
100
AcDbEntity
  8
1
  6
Continuous
 62
     7
100
AcDbLine
 10
276.0218830972141
 20
549.3880585002962
 30
0.0
 11
289.3218830972141
 21
549.3880585002962
 31
0.0
  0
LINE
  5
1E1
330
4E
100
AcDbEntity
  8
1
  6
Continuous
 62
     7
100
AcDbLine
 10
275.0218830972141
 20
536.6880585002964
 30
0.0
 11
275.0218830972141
 21
549.3880585002962
 31
0.0
  0
LINE
  5
1E2
330
4E
100
AcDbEntity
  8
1
  6
Continuous
 62
     7
100
AcDbLine
 10
274.3218830972143
 20
551.9380585002964
 30
0.0
 11
274.3218830972143
 21
534.1380585002963
 31
0.0
  0
LINE
  5
1E3
330
4E
100
AcDbEntity
  8
1
  6
Continuous
 62
     7
100
AcDbLine
 10
276.0218830972141
 20
536.6880585002964
 30
0.0
 11
289.3218830972141
 21
536.6880585002964
 31
0.0
  0
LINE
  5
1E4
330
4E
100
AcDbEntity
  8
1
  6
Continuous
 62
     7
100
AcDbLine
 10
275.0218830972141
 20
536.6880585002964
 30
0.0
 11
275.0218830972141
 21
535.6880585002964
 31
0.0
  0
LINE
  5
1E5
330
4E
100
AcDbEntity
  8
1
  6
Continuous
 62
     7
100
AcDbLine
 10
274.3218830972143
 20
534.1380585002963
 30
0.0
 11
275.0218830972141
 21
534.1380585002963
 31
0.0
  0
LINE
  5
1E6
330
4E
100
AcDbEntity
  8
1
  6
Continuous
 62
     7
100
AcDbLine
 10
275.0218830972141
 20
535.6880585002964
 30
0.0
 11
275.0218830972141
 21
534.1380585002963
 31
0.0
  0
LINE
  5
1E7
330
4E
100
AcDbEntity
  8
1
  6
Continuous
 62
     7
100
AcDbLine
 10
275.0218830972141
 20
549.3880585002962
 30
0.0
 11
275.0218830972141
 21
550.3880585002962
 31
0.0
  0
LINE
  5
1E8
330
4E
100
AcDbEntity
  8
1
  6
Continuous
 62
     7
100
AcDbLine
 10
275.0218830972141
 20
550.3880585002962
 30
0.0
 11
275.0218830972143
 21
551.9380585002964
 31
0.0
  0
LINE
  5
1E9
330
4E
100
AcDbEntity
  8
1
  6
Continuous
 62
     7
100
AcDbLine
 10
275.0218830972143
 20
551.9380585002964
 30
0.0
 11
274.3218830972143
 21
551.9380585002964
 31
0.0
  0
LINE
  5
1EA
330
4E
100
AcDbEntity
  8
1
  6
Continuous
 62
     7
100
AcDbLine
 10
335.6718830972141
 20
199.5380585002956
 30
0.0
 11
335.6718830972141
 21
287.1702852800786
 31
0.0
  0
LINE
  5
1EB
330
4E
100
AcDbEntity
  8
1
  6
Continuous
 62
     7
100
AcDbLine
 10
322.9718830972141
 20
503.0380585002959
 30
0.0
 11
322.9718830972141
 21
291.3238159477036
 31
0.0
  0
LINE
  5
1EC
330
4E
100
AcDbEntity
  8
1
  6
Continuous
 62
     7
100
AcDbLine
 10
185.6718830972141
 20
291.1702852800786
 30
0.0
 11
185.6718830972142
 21
536.6601669991808
 31
0.0
  0
LINE
  5
1ED
330
4E
100
AcDbEntity
  8
1
  6
Continuous
 62
     7
100
AcDbLine
 10
172.9718830972141
 20
287.3238159477036
 30
0.0
 11
172.971883097214
 21
199.5380585002956
 31
0.0
  0
LINE
  5
1EE
330
4E
100
AcDbEntity
  8
1
  6
Continuous
 62
     7
100
AcDbLine
 10
322.9718830972141
 20
287.3238159477036
 30
0.0
 11
322.971883097214
 21
199.5380585002956
 31
0.0
  0
LINE
  5
1EF
330
4E
100
AcDbEntity
  8
1
  6
Continuous
 62
     7
100
AcDbLine
 10
335.6718830972141
 20
291.1702852800786
 30
0.0
 11
335.6718830972142
 21
503.0380585002968
 31
0.0
  0
ARC
  5
1F0
330
4E
100
AcDbEntity
  8
1
  6
Continuous
 62
     7
100
AcDbCircle
 10
179.3218830972141
 20
617.7701327433642
 30
0.0
 40
6.349999999999881
100
AcDbArc
 50
0.0
 51
180.0
  0
ARC
  5
1F1
330
4E
100
AcDbEntity
  8
1
  6
Continuous
 62
     7
100
AcDbCircle
 10
289.3218830972141
 20
503.0380585002962
 30
0.0
 40
33.65000000000003
100
AcDbArc
 50
-0.00000000000048
 51
90.0
  0
ARC
  5
1F2
330
4E
100
AcDbEntity
  8
1
  6
Continuous
 62
     7
100
AcDbCircle
 10
289.3218830972141
 20
503.0380585002962
 30
0.0
 40
46.35000000000014
100
AcDbArc
 50
0.00000000000077
 51
90.0
  0
ARC
  5
1F3
330
4E
100
AcDbEntity
  8
1
  6
Continuous
 62
     7
100
AcDbCircle
 10
179.3218830972141
 20
543.0380585002957
 30
0.0
 40
8.999999999999867
100
AcDbArc
 50
-134.8744440318312
 51
-45.1255559681675
  0
ARC
  5
1F4
330
4E
100
AcDbEntity
  8
1
  6
Continuous
 62
     7
100
AcDbCircle
 10
179.3218830972141
 20
543.0380585002957
 30
0.0
 40
8.999999999999748
100
AcDbArc
 50
-45.1255559681675
 51
0.00000000000362
  0
ARC
  5
1F5
330
4E
100
AcDbEntity
  8
1
  6
Continuous
 62
     7
100
AcDbCircle
 10
179.3218830972141
 20
543.0380585002957
 30
0.0
 40
8.999999999999801
100
AcDbArc
 50
0.00000000000362
 51
-134.8744440318312
  0
CIRCLE
  5
1F6
330
4E
100
AcDbEntity
  8
1
  6
Continuous
 62
     7
100
AcDbCircle
 10
179.3218830972141
 20
543.0380585002957
 30
0.0
 40
6.35000000000008
  0
CIRCLE
  5
1F7
330
4E
100
AcDbEntity
  8
1
  6
Continuous
 62
     7
100
AcDbCircle
 10
179.3218830972141
 20
543.0380585002957
 30
0.0
 40
5.649999999999977
  0
ARC
  5
1F8
330
4E
100
AcDbEntity
  8
1
  6
Continuous
 62
     7
100
AcDbCircle
 10
171.9718830972139
 20
564.4701327433643
 30
0.0
 40
1.000000000000227
100
AcDbArc
 50
-90.0
 51
-0.00000000001303
  0
ARC
  5
1F9
330
4E
100
AcDbEntity
  8
1
  6
Continuous
 62
     7
100
AcDbCircle
 10
186.671883097214
 20
564.4701327433641
 30
0.0
 40
1.0
100
AcDbArc
 50
180.0
 51
-90.0
  0
ARC
  5
1FA
330
4E
100
AcDbEntity
  8
1
  6
Continuous
 62
     7
100
AcDbCircle
 10
276.0218830972141
 20
535.6880585002964
 30
0.0
 40
1.0
100
AcDbArc
 50
90.0
 51
180.0
  0
ARC
  5
1FB
330
4E
100
AcDbEntity
  8
1
  6
Continuous
 62
     7
100
AcDbCircle
 10
276.0218830972143
 20
550.3880585002962
 30
0.0
 40
1.000000000000227
100
AcDbArc
 50
180.0
 51
-90.00000000001303
  0
ENDBLK
  5
50
330
4E
100
AcDbEntity
  8
0
100
AcDbBlockEnd
  0
BLOCK
  5
219
330
212
100
AcDbEntity
  8
0
100
AcDbBlockBegin
  2
*D010
 70
     1
 71
     0
 10
0.0
 20
0.0
 30
0.0
  3
*D010
  1

  0
LINE
  5
213
330
212
100
AcDbEntity
  8
1
  6
Continuous
 62
     2
100
AcDbLine
 10
329.321883097214
 20
108.0380585002956
 30
0.0
 11
403.321883097214
 21
108.0380585002956
 31
0.0
  0
LINE
  5
214
330
212
100
AcDbEntity
  8
1
  6
Continuous
 62
     2
100
AcDbLine
 10
403.321883097214
 20
154.2932464981432
 30
0.0
 11
403.321883097214
 21
105.5380585002956
 31
0.0
  0
LINE
  5
215
330
212
100
AcDbEntity
  8
1
  6
Continuous
 62
     2
100
AcDbLine
 10
329.321883097214
 20
145.9177367708506
 30
0.0
 11
329.321883097214
 21
105.5380585002956
 31
0.0
  0
SOLID
  5
216
330
212
100
AcDbEntity
  8
1
 62
     2
100
AcDbTrace
 10
338.071883097214
 20
109.1900178541853
 30
0.0
 11
338.071883097214
 21
106.8860991464059
 31
0.0
 12
329.321883097214
 22
108.0380585002956
 32
0.0
 13
329.321883097214
 23
108.0380585002956
 33
0.0
  0
SOLID
  5
217
330
212
100
AcDbEntity
  8
1
 62
     2
100
AcDbTrace
 10
394.571883097214
 20
106.8860991464059
 30
0.0
 11
394.571883097214
 21
109.1900178541853
 31
0.0
 12
403.321883097214
 22
108.0380585002956
 32
0.0
 13
403.321883097214
 23
108.0380585002956
 33
0.0
  0
MTEXT
  5
218
330
212
100
AcDbEntity
  8
1
 62
     7
100
AcDbMText
 10
359.7593830972141
 20
110.5380585002956
 30
0.0
 40
8.75
 41
0.0
 71
     7
 72
     1
  1
74
  7
CONVERTER_2
 11
0.9999999999970621
 21
2.424068405545307E-6
 31
0.0
 73
     1
 44
0.60024009603842
  0
ENDBLK
  5
21A
330
212
100
AcDbEntity
  8
0
100
AcDbBlockEnd
  0
BLOCK
  5
224
330
21D
100
AcDbEntity
  8
0
100
AcDbBlockBegin
  2
*D111
 70
     1
 71
     0
 10
0.0
 20
0.0
 30
0.0
  3
*D111
  1

  0
LINE
  5
21E
330
21D
100
AcDbEntity
  8
1
  6
Continuous
 62
     2
100
AcDbLine
 10
428.3218830972141
 20
193.0380585002956
 30
0.0
 11
428.3218830972141
 21
133.0380585002955
 31
0.0
  0
LINE
  5
21F
330
21D
100
AcDbEntity
  8
1
  6
Continuous
 62
     2
100
AcDbLine
 10
389.9627668027711
 20
133.0380585002955
 30
0.0
 11
430.8218830972141
 21
133.0380585002955
 31
0.0
  0
LINE
  5
220
330
21D
100
AcDbEntity
  8
1
  6
Continuous
 62
     2
100
AcDbLine
 10
389.9627668027711
 20
193.0380585002956
 30
0.0
 11
430.8218830972141
 21
193.0380585002956
 31
0.0
  0
SOLID
  5
221
330
21D
100
AcDbEntity
  8
1
 62
     2
100
AcDbTrace
 10
429.4738424511038
 20
184.2880585002956
 30
0.0
 11
427.1699237433244
 21
184.2880585002956
 31
0.0
 12
428.3218830972141
 22
193.0380585002956
 32
0.0
 13
428.3218830972141
 23
193.0380585002956
 33
0.0
  0
SOLID
  5
222
330
21D
100
AcDbEntity
  8
1
 62
     2
100
AcDbTrace
 10
427.1699237433244
 20
141.7880585002955
 30
0.0
 11
429.4738424511038
 21
141.7880585002955
 31
0.0
 12
428.3218830972141
 22
133.0380585002955
 32
0.0
 13
428.3218830972141
 23
133.0380585002955
 33
0.0
  0
MTEXT
  5
223
330
21D
100
AcDbEntity
  8
1
 62
     7
100
AcDbMText
 10
425.8218830972141
 20
152.1005585002956
 30
0.0
 40
8.75
 41
0.0
 71
     7
 72
     1
  1
{\Fgdt;n}60
  7
CONVERTER_2
 11
0.0
 21
1.0
 31
0.0
 73
     1
 44
0.60024009603842
  0
ENDBLK
  5
225
330
21D
100
AcDbEntity
  8
0
100
AcDbBlockEnd
  0
BLOCK
  5
231
330
228
100
AcDbEntity
  8
0
100
AcDbBlockBegin
  2
*D212
 70
     1
 71
     0
 10
0.0
 20
0.0
 30
0.0
  3
*D212
  1

  0
LINE
  5
229
330
228
100
AcDbEntity
  8
1
  6
Continuous
 62
     2
100
AcDbLine
 10
356.4627668027712
 20
218.0380585002956
 30
0.0
 11
373.9627668027712
 21
218.0380585002956
 31
0.0
  0
LINE
  5
22A
330
228
100
AcDbEntity
  8
1
  6
Continuous
 62
     2
100
AcDbLine
 10
373.9627668027712
 20
218.0380585002956
 30
0.0
 11
389.9627668027712
 21
218.0380585002956
 31
0.0
  0
LINE
  5
22B
330
228
100
AcDbEntity
  8
1
  6
Continuous
 62
     2
100
AcDbLine
 10
389.9627668027712
 20
218.0380585002956
 30
0.0
 11
407.4627668027712
 21
218.0380585002956
 31
0.0
  0
LINE
  5
22C
330
228
100
AcDbEntity
  8
1
  6
Continuous
 62
     2
100
AcDbLine
 10
389.9627668027712
 20
193.0380585002956
 30
0.0
 11
389.9627668027712
 21
220.5380585002956
 31
0.0
  0
LINE
  5
22D
330
228
100
AcDbEntity
  8
1
  6
Continuous
 62
     2
100
AcDbLine
 10
373.9627668027712
 20
175.2422269769829
 30
0.0
 11
373.9627668027712
 21
220.5380585002956
 31
0.0
  0
SOLID
  5
22E
330
228
100
AcDbEntity
  8
1
 62
     2
100
AcDbTrace
 10
365.2127668027712
 20
216.8860991464059
 30
0.0
 11
365.2127668027712
 21
219.1900178541853
 31
0.0
 12
373.9627668027712
 22
218.0380585002956
 32
0.0
 13
373.9627668027712
 23
218.0380585002956
 33
0.0
  0
SOLID
  5
22F
330
228
100
AcDbEntity
  8
1
 62
     2
100
AcDbTrace
 10
398.7127668027712
 20
219.1900178541853
 30
0.0
 11
398.7127668027712
 21
216.8860991464059
 31
0.0
 12
389.9627668027712
 22
218.0380585002956
 32
0.0
 13
389.9627668027712
 23
218.0380585002956
 33
0.0
  0
MTEXT
  5
230
330
228
100
AcDbEntity
  8
1
 62
     7
100
AcDbMText
 10
376.7127668027712
 20
220.5380585002956
 30
0.0
 40
8.75
 41
0.0
 71
     7
 72
     1
  1
16
  7
CONVERTER_2
 11
0.9999999999970621
 21
2.424068405545307E-6
 31
0.0
 73
     1
 44
0.60024009603842
  0
ENDBLK
  5
232
330
228
100
AcDbEntity
  8
0
100
AcDbBlockEnd
  0
BLOCK
  5
23D
330
235
100
AcDbEntity
  8
0
100
AcDbBlockBegin
  2
*D313
 70
     1
 71
     0
 10
0.0
 20
0.0
 30
0.0
  3
*D313
  1

  0
LINE
  5
236
330
235
100
AcDbEntity
  8
1
  6
Continuous
 62
     2
100
AcDbLine
 10
161.6803721819356
 20
653.5594654725114
 30
0.0
 11
187.6803721819355
 21
653.5594654725114
 31
0.0
  0
LINE
  5
237
330
235
100
AcDbEntity
  8
1
  6
Continuous
 62
     2
100
AcDbLine
 10
138.0104232570953
 20
653.5594654725114
 30
0.0
 11
161.6803721819356
 21
653.5594654725114
 31
0.0
  0
LINE
  5
238
330
235
100
AcDbEntity
  8
1
  6
Continuous
 62
     2
100
AcDbLine
 10
166.3218830972141
 20
645.5201327433636
 30
0.0
 11
160.4303721819356
 21
655.7245289819725
 31
0.0
  0
LINE
  5
239
330
235
100
AcDbEntity
  8
1
  6
Continuous
 62
     2
100
AcDbLine
 10
192.3218830972139
 20
645.5201327433637
 30
0.0
 11
186.4303721819355
 21
655.7245289819725
 31
0.0
  0
SOLID
  5
23A
330
235
100
AcDbEntity
  8
1
 62
     2
100
AcDbTrace
 10
170.4303721819356
 20
654.7114248264012
 30
0.0
 11
170.4303721819356
 21
652.4075061186217
 31
0.0
 12
161.6803721819356
 22
653.5594654725114
 32
0.0
 13
161.6803721819356
 23
653.5594654725114
 33
0.0
  0
SOLID
  5
23B
330
235
100
AcDbEntity
  8
1
 62
     2
100
AcDbTrace
 10
178.9303721819355
 20
652.4075061186217
 30
0.0
 11
178.9303721819355
 21
654.7114248264012
 31
0.0
 12
187.6803721819355
 22
653.5594654725114
 32
0.0
 13
187.6803721819355
 23
653.5594654725114
 33
0.0
  0
MTEXT
  5
23C
330
235
100
AcDbEntity
  8
1
 62
     7
100
AcDbMText
 10
138.0104232570953
 20
656.0594654725114
 30
0.0
 40
8.75
 41
0.0
 71
     7
 72
     1
  1
26
  7
CONVERTER_2
 11
0.9999999999970621
 21
2.424068405545307E-6
 31
0.0
 73
     1
 44
0.60024009603842
  0
ENDBLK
  5
23E
330
235
100
AcDbEntity
  8
0
100
AcDbBlockEnd
  0
BLOCK
  5
249
330
241
100
AcDbEntity
  8
0
100
AcDbBlockBegin
  2
*D414
 70
     1
 71
     0
 10
0.0
 20
0.0
 30
0.0
  3
*D414
  1

  0
LINE
  5
242
330
241
100
AcDbEntity
  8
1
  6
Continuous
 62
     2
100
AcDbLine
 10
296.3218830972141
 20
108.0380585002956
 30
0.0
 11
329.3218830972141
 21
108.0380585002956
 31
0.0
  0
LINE
  5
243
330
241
100
AcDbEntity
  8
1
  6
Continuous
 62
     2
100
AcDbLine
 10
246.968290543341
 20
108.0380585002956
 30
0.0
 11
296.3218830972141
 21
108.0380585002956
 31
0.0
  0
LINE
  5
244
330
241
100
AcDbEntity
  8
1
  6
Continuous
 62
     2
100
AcDbLine
 10
296.3218830972141
 20
159.2880585002956
 30
0.0
 11
296.3218830972141
 21
105.5380585002956
 31
0.0
  0
LINE
  5
245
330
241
100
AcDbEntity
  8
1
  6
Continuous
 62
     2
100
AcDbLine
 10
329.3218830972141
 20
146.7656824008251
 30
0.0
 11
329.3218830972141
 21
105.5380585002956
 31
0.0
  0
SOLID
  5
246
330
241
100
AcDbEntity
  8
1
 62
     2
100
AcDbTrace
 10
305.0718830972141
 20
109.1900178541853
 30
0.0
 11
305.0718830972141
 21
106.8860991464059
 31
0.0
 12
296.3218830972141
 22
108.0380585002956
 32
0.0
 13
296.3218830972141
 23
108.0380585002956
 33
0.0
  0
SOLID
  5
247
330
241
100
AcDbEntity
  8
1
 62
     2
100
AcDbTrace
 10
320.5718830972141
 20
106.8860991464059
 30
0.0
 11
320.5718830972141
 21
109.1900178541853
 31
0.0
 12
329.3218830972141
 22
108.0380585002956
 32
0.0
 13
329.3218830972141
 23
108.0380585002956
 33
0.0
  0
MTEXT
  5
248
330
241
100
AcDbEntity
  8
1
 62
     7
100
AcDbMText
 10
246.968290543341
 20
110.5380585002956
 30
0.0
 40
8.75
 41
0.0
 71
     7
 72
     1
  1
33リフト5
  7
CONVERTER_1
 11
0.9999999999970621
 21
2.424068405545307E-6
 31
0.0
 73
     1
 44
0.60024009603842
  0
ENDBLK
  5
24A
330
241
100
AcDbEntity
  8
0
100
AcDbBlockEnd
  0
BLOCK
  5
256
330
24D
100
AcDbEntity
  8
0
100
AcDbBlockBegin
  2
*D515
 70
     1
 71
     0
 10
0.0
 20
0.0
 30
0.0
  3
*D515
  1

  0
LINE
  5
24E
330
24D
100
AcDbEntity
  8
1
  6
Continuous
 62
     2
100
AcDbLine
 10
178.1057714653232
 20
211.1286285472742
 30
0.0
 11
195.6057714653232
 21
211.1286285472742
 31
0.0
  0
LINE
  5
24F
330
24D
100
AcDbEntity
  8
1
  6
Continuous
 62
     2
100
AcDbLine
 10
155.1057714653232
 20
211.1286285472742
 30
0.0
 11
178.1057714653232
 21
211.1286285472742
 31
0.0
  0
LINE
  5
250
330
24D
100
AcDbEntity
  8
1
  6
Continuous
 62
     2
100
AcDbLine
 10
137.5470482695622
 20
211.1286285472742
 30
0.0
 11
155.1057714653232
 21
211.1286285472742
 31
0.0
  0
LINE
  5
251
330
24D
100
AcDbEntity
  8
1
  6
Continuous
 62
     2
100
AcDbLine
 10
167.8218830972138
 20
198.4125169153836
 30
0.0
 11
153.3380045123569
 21
212.8963955002405
 31
0.0
  0
LINE
  5
252
330
24D
100
AcDbEntity
  8
1
  6
Continuous
 62
     2
100
AcDbLine
 10
190.8218830972138
 20
198.4125169153836
 30
0.0
 11
176.3380045123569
 21
212.8963955002405
 31
0.0
  0
SOLID
  5
253
330
24D
100
AcDbEntity
  8
1
 62
     2
100
AcDbTrace
 10
146.3557714653232
 20
209.9766691933845
 30
0.0
 11
146.3557714653232
 21
212.2805879011639
 31
0.0
 12
155.1057714653232
 22
211.1286285472742
 32
0.0
 13
155.1057714653232
 23
211.1286285472742
 33
0.0
  0
SOLID
  5
254
330
24D
100
AcDbEntity
  8
1
 62
     2
100
AcDbTrace
 10
186.8557714653232
 20
212.2805879011639
 30
0.0
 11
186.8557714653232
 21
209.9766691933845
 31
0.0
 12
178.1057714653232
 22
211.1286285472742
 32
0.0
 13
178.1057714653232
 23
211.1286285472742
 33
0.0
  0
MTEXT
  5
255
330
24D
100
AcDbEntity
  8
1
 62
     7
100
AcDbMText
 10
137.5470482695622
 20
213.6286285472742
 30
0.0
 40
8.75
 41
0.0
 71
     7
 72
     1
  1
23
  7
CONVERTER_2
 11
0.9999999999970621
 21
2.424068405545307E-6
 31
0.0
 73
     1
 44
0.60024009603842
  0
ENDBLK
  5
257
330
24D
100
AcDbEntity
  8
0
100
AcDbBlockEnd
  0
BLOCK
  5
261
330
25A
100
AcDbEntity
  8
0
100
AcDbBlockBegin
  2
*D616
 70
     1
 71
     0
 10
0.0
 20
0.0
 30
0.0
  3
*D616
  1

  0
LINE
  5
25B
330
25A
100
AcDbEntity
  8
0
  6
Continuous
 62
     2
100
AcDbLine
 10
228.0249648807203
 20
163.0380585002957
 30
0.0
 11
228.0249648807203
 21
543.0380585002957
 31
0.0
  0
LINE
  5
25C
330
25A
100
AcDbEntity
  8
0
  6
Continuous
 62
     2
100
AcDbLine
 10
210.6718830972141
 20
163.0380585002956
 30
0.0
 11
230.5249648807203
 21
163.0380585002956
 31
0.0
  0
LINE
  5
25D
330
25A
100
AcDbEntity
  8
0
  6
Continuous
 62
     2
100
AcDbLine
 10
190.2666218220697
 20
543.0380585002957
 30
0.0
 11
230.5249648807203
 21
543.0380585002957
 31
0.0
  0
SOLID
  5
25E
330
25A
100
AcDbEntity
  8
0
 62
     2
100
AcDbTrace
 10
226.8730055268306
 20
171.7880585002957
 30
0.0
 11
229.17692423461
 21
171.7880585002957
 31
0.0
 12
228.0249648807203
 22
163.0380585002957
 32
0.0
 13
228.0249648807203
 23
163.0380585002957
 33
0.0
  0
SOLID
  5
25F
330
25A
100
AcDbEntity
  8
0
 62
     2
100
AcDbTrace
 10
229.17692423461
 20
534.2880585002957
 30
0.0
 11
226.8730055268306
 21
534.2880585002957
 31
0.0
 12
228.0249648807203
 22
543.0380585002957
 32
0.0
 13
228.0249648807203
 23
543.0380585002957
 33
0.0
  0
MTEXT
  5
260
330
25A
100
AcDbEntity
  8
0
 62
     7
100
AcDbMText
 10
225.5249648807203
 20
342.5380585002956
 30
0.0
 40
8.75
 41
0.0
 71
     7
 72
     1
  1
380
  7
CONVERTER_2
 11
0.0
 21
1.0
 31
0.0
 73
     1
 44
0.60024009603842
  0
ENDBLK
  5
262
330
25A
100
AcDbEntity
  8
0
100
AcDbBlockEnd
  0
BLOCK
  5
26C
330
265
100
AcDbEntity
  8
0
100
AcDbBlockBegin
  2
*D717
 70
     1
 71
     0
 10
0.0
 20
0.0
 30
0.0
  3
*D717
  1

  0
LINE
  5
266
330
265
100
AcDbEntity
  8
0
  6
Continuous
 62
     2
100
AcDbLine
 10
274.3218830972143
 20
406.3380585002956
 30
0.0
 11
329.3218830972141
 21
406.3380585002956
 31
0.0
  0
LINE
  5
267
330
265
100
AcDbEntity
  8
0
  6
Continuous
 62
     2
100
AcDbLine
 10
274.3218830972143
 20
551.9380585002964
 30
0.0
 11
274.3218830972143
 21
403.8380585002956
 31
0.0
  0
LINE
  5
268
330
265
100
AcDbEntity
  8
0
  6
Continuous
 62
     2
100
AcDbLine
 10
329.3218830972141
 20
500.8960247913976
 30
0.0
 11
329.3218830972141
 21
403.8380585002956
 31
0.0
  0
SOLID
  5
269
330
265
100
AcDbEntity
  8
0
 62
     2
100
AcDbTrace
 10
283.0718830972143
 20
407.4900178541853
 30
0.0
 11
283.0718830972143
 21
405.1860991464059
 31
0.0
 12
274.3218830972143
 22
406.3380585002956
 32
0.0
 13
274.3218830972143
 23
406.3380585002956
 33
0.0
  0
SOLID
  5
26A
330
265
100
AcDbEntity
  8
0
 62
     2
100
AcDbTrace
 10
320.5718830972141
 20
405.1860991464059
 30
0.0
 11
320.5718830972141
 21
407.4900178541853
 31
0.0
 12
329.3218830972141
 22
406.3380585002956
 32
0.0
 13
329.3218830972141
 23
406.3380585002956
 33
0.0
  0
MTEXT
  5
26B
330
265
100
AcDbEntity
  8
0
 62
     7
100
AcDbMText
 10
295.2593830972142
 20
408.8380585002956
 30
0.0
 40
8.75
 41
0.0
 71
     7
 72
     1
  1
55
  7
CONVERTER_2
 11
0.9999999999970621
 21
2.424068405545307E-6
 31
0.0
 73
     1
 44
0.60024009603842
  0
ENDBLK
  5
26D
330
265
100
AcDbEntity
  8
0
100
AcDbBlockEnd
  0
BLOCK
  5
279
330
270
100
AcDbEntity
  8
0
100
AcDbBlockBegin
  2
*D818
 70
     1
 71
     0
 10
0.0
 20
0.0
 30
0.0
  3
*D818
  1

  0
LINE
  5
271
330
270
100
AcDbEntity
  8
0
  6
Continuous
 62
     2
100
AcDbLine
 10
249.3218830972143
 20
516.6380585002963
 30
0.0
 11
249.3218830972143
 21
534.1380585002963
 31
0.0
  0
LINE
  5
272
330
270
100
AcDbEntity
  8
0
  6
Continuous
 62
     2
100
AcDbLine
 10
249.3218830972143
 20
534.1380585002963
 30
0.0
 11
249.3218830972143
 21
551.9380585002964
 31
0.0
  0
LINE
  5
273
330
270
100
AcDbEntity
  8
0
  6
Continuous
 62
     2
100
AcDbLine
 10
249.3218830972143
 20
551.9380585002964
 30
0.0
 11
249.3218830972143
 21
569.4380585002964
 31
0.0
  0
LINE
  5
274
330
270
100
AcDbEntity
  8
0
  6
Continuous
 62
     2
100
AcDbLine
 10
274.3218830972143
 20
551.9380585002964
 30
0.0
 11
246.8218830972143
 21
551.9380585002964
 31
0.0
  0
LINE
  5
275
330
270
100
AcDbEntity
  8
0
  6
Continuous
 62
     2
100
AcDbLine
 10
274.3218830972143
 20
534.1380585002963
 30
0.0
 11
246.8218830972143
 21
534.1380585002963
 31
0.0
  0
SOLID
  5
276
330
270
100
AcDbEntity
  8
0
 62
     2
100
AcDbTrace
 10
250.473842451104
 20
525.3880585002963
 30
0.0
 11
248.1699237433246
 21
525.3880585002963
 31
0.0
 12
249.3218830972143
 22
534.1380585002963
 32
0.0
 13
249.3218830972143
 23
534.1380585002963
 33
0.0
  0
SOLID
  5
277
330
270
100
AcDbEntity
  8
0
 62
     2
100
AcDbTrace
 10
248.1699237433246
 20
560.6880585002964
 30
0.0
 11
250.473842451104
 21
560.6880585002964
 31
0.0
 12
249.3218830972143
 22
551.9380585002964
 32
0.0
 13
249.3218830972143
 23
551.9380585002964
 33
0.0
  0
MTEXT
  5
278
330
270
100
AcDbEntity
  8
0
 62
     7
100
AcDbMText
 10
245.9468830972143
 20
527.9443085002963
 30
0.0
 40
8.75
 41
0.0
 71
     7
 72
     1
  1
{\Fgdt;n}17,8
  7
CONVERTER_2
 11
0.0
 21
1.0
 31
0.0
 73
     1
 44
0.60024009603842
  0
ENDBLK
  5
27A
330
270
100
AcDbEntity
  8
0
100
AcDbBlockEnd
  0
BLOCK
  5
286
330
27D
100
AcDbEntity
  8
0
100
AcDbBlockBegin
  2
*D919
 70
     1
 71
     0
 10
0.0
 20
0.0
 30
0.0
  3
*D919
  1

  0
LINE
  5
27E
330
27D
100
AcDbEntity
  8
0
  6
Continuous
 62
     2
100
AcDbLine
 10
335.6718830972142
 20
486.8258675430802
 30
0.0
 11
367.0529061998817
 21
486.8258675430802
 31
0.0
  0
LINE
  5
27F
330
27D
100
AcDbEntity
  8
0
  6
Continuous
 62
     2
100
AcDbLine
 10
322.9718830972142
 20
486.8258675430802
 30
0.0
 11
335.6718830972142
 21
486.8258675430802
 31
0.0
  0
LINE
  5
280
330
27D
100
AcDbEntity
  8
0
  6
Continuous
 62
     2
100
AcDbLine
 10
305.4718830972142
 20
486.8258675430802
 30
0.0
 11
322.9718830972142
 21
486.8258675430802
 31
0.0
  0
LINE
  5
281
330
27D
100
AcDbEntity
  8
0
  6
Continuous
 62
     2
100
AcDbLine
 10
322.9718830972142
 20
503.0380585002959
 30
0.0
 11
322.9718830972142
 21
484.3258675430802
 31
0.0
  0
LINE
  5
282
330
27D
100
AcDbEntity
  8
0
  6
Continuous
 62
     2
100
AcDbLine
 10
335.6718830972142
 20
503.0380585002969
 30
0.0
 11
335.6718830972142
 21
484.3258675430802
 31
0.0
  0
SOLID
  5
283
330
27D
100
AcDbEntity
  8
0
 62
     2
100
AcDbTrace
 10
314.2218830972142
 20
485.6739081891905
 30
0.0
 11
314.2218830972142
 21
487.9778268969699
 31
0.0
 12
322.9718830972142
 22
486.8258675430802
 32
0.0
 13
322.9718830972142
 23
486.8258675430802
 33
0.0
  0
SOLID
  5
284
330
27D
100
AcDbEntity
  8
0
 62
     2
100
AcDbTrace
 10
344.4218830972142
 20
487.9778268969699
 30
0.0
 11
344.4218830972142
 21
485.6739081891905
 31
0.0
 12
335.6718830972142
 22
486.8258675430802
 32
0.0
 13
335.6718830972142
 23
486.8258675430802
 33
0.0
  0
MTEXT
  5
285
330
27D
100
AcDbEntity
  8
0
 62
     7
100
AcDbMText
 10
336.8654061998817
 20
490.2008675430802
 30
0.0
 40
8.75
 41
0.0
 71
     7
 72
     1
  1
{\Fgdt;n}12,7
  7
CONVERTER_2
 11
0.9999999999970621
 21
2.424068405545307E-6
 31
0.0
 73
     1
 44
0.60024009603842
  0
ENDBLK
  5
287
330
27D
100
AcDbEntity
  8
0
100
AcDbBlockEnd
  0
ENDSEC
  0
SECTION
  2
ENTITIES
  0
INSERT
  5
51
330
1F
100
AcDbEntity
  8
0
100
AcDbBlockReference
  2
78-167
 10
334.8834491616931
 20
406.7622305915039
 30
0.0
  0
INSERT
  5
52
330
1F
100
AcDbEntity
  8
0
100
AcDbBlockReference
  2
64-7-13-55-M11
 10
191.136286440474
 20
730.2773006344362
 30
0.0
  0
INSERT
  5
53
330
1F
100
AcDbEntity
  8
1
100
AcDbBlockReference
  2
V22-0A-13-__________
 10
61.99999999999999
 20
612.0
 30
0.0
  0
INSERT
  5
54
330
1F
100
AcDbEntity
  8
1
100
AcDbBlockReference
  2
V22-0A-13
 10
195.738570938733
 20
737.777740897449
 30
0.0
  0
INSERT
  5
55
330
1F
100
AcDbEntity
  8
1
100
AcDbBlockReference
  2
_J__A4
 10
0.0
 20
0.0
 30
0.0
 41
2.5
 42
2.5
 43
2.5
  0
INSERT
  5
56
330
1F
100
AcDbEntity
  8
1
100
AcDbBlockReference
  2
36-45
 10
1711.088093660643
 20
96.94528158258063
 30
0.0
  0
INSERT
  5
57
330
1F
100
AcDbEntity
  8
0
100
AcDbBlockReference
  2
32-12-M2
 10
316.821883097214
 20
-294.6138900216624
 30
0.0
  0
INSERT
  5
58
330
1F
100
AcDbEntity
  8
0
100
AcDbBlockReference
  2
37-1-13
 10
451.8175889873587
 20
-415.9256338759111
 30
0.0
  0
INSERT
  5
59
330
1F
100
AcDbEntity
  8
0
100
AcDbBlockReference
  2
66-6-55-200
 10
213.321883097214
 20
213.8319143780786
 30
0.0
  0
LINE
  5
1FC
330
1F
100
AcDbEntity
  8
1
  6
DASH_CENTER
 62
     2
100
AcDbLine
 10
179.321883097214
 20
555.0394323925045
 30
0.0
 11
179.321883097214
 21
128.6880585002956
 31
0.0
  0
LINE
  5
1FD
330
1F
100
AcDbEntity
  8
1
  6
DASH_CENTER
 62
     2
100
AcDbLine
 10
329.3218830972141
 20
146.7656824008251
 30
0.0
 11
329.3218830972141
 21
163.0380585002956
 31
0.0
  0
LINE
  5
1FE
330
1F
100
AcDbEntity
  8
0
  6
DASH_CENTER
 62
     2
100
AcDbLine
 10
286.3218830972141
 20
163.0380585002956
 30
0.0
 11
329.3218830972141
 21
163.0380585002956
 31
0.0
  0
LINE
  5
1FF
330
1F
100
AcDbEntity
  8
1
  6
DASH_CENTER
 62
     2
100
AcDbLine
 10
179.321883097214
 20
559.6983984681024
 30
0.0
 11
179.321883097214
 21
695.2701327433636
 31
0.0
  0
LINE
  5
200
330
1F
100
AcDbEntity
  8
1
  6
DASH_CENTER
 62
     2
100
AcDbLine
 10
195.7286809764392
 20
617.7701327433636
 30
0.0
 11
164.321883097214
 21
617.7701327433636
 31
0.0
  0
LINE
  5
201
330
1F
100
AcDbEntity
  8
1
  6
DASH_CENTER
 62
     2
100
AcDbLine
 10
329.321883097214
 20
190.5952015570736
 30
0.0
 11
329.3218830972141
 21
500.8960247913976
 31
0.0
  0
LINE
  5
202
330
1F
100
AcDbEntity
  8
1
  6
DASH_CENTER
 62
     2
100
AcDbLine
 10
210.671883097214
 20
163.0380585002956
 30
0.0
 11
147.971883097214
 21
163.0380585002956
 31
0.0
  0
LINE
  5
203
330
1F
100
AcDbEntity
  8
1
  6
DASH_CENTER
 62
     2
100
AcDbLine
 10
271.3218830972143
 20
543.0380585002956
 30
0.0
 11
288.6798493883179
 21
543.0380585002956
 31
0.0
  0
LINE
  5
204
330
1F
100
AcDbEntity
  8
0
  6
DASH_CENTER
 62
     2
100
AcDbLine
 10
168.2666218220697
 20
543.0380585002956
 30
0.0
 11
190.2666218220697
 21
543.0380585002956
 31
0.0
  0
LINE
  5
205
330
1F
100
AcDbEntity
  8
1
  6
DASH_CENTER
 62
     2
100
AcDbLine
 10
329.3218830972141
 20
163.0380585002956
 30
0.0
 11
329.321883097214
 21
192.5952015570736
 31
0.0
  0
LINE
  5
206
330
1F
100
AcDbEntity
  8
0
  6
DASH_CENTER
 62
     2
100
AcDbLine
 10
329.3218830972141
 20
163.0380585002956
 30
0.0
 11
405.8218830972143
 21
163.0380585002956
 31
0.0
  0
ARC
  5
207
330
1F
100
AcDbEntity
  8
1
  6
DASH_CENTER
 62
     2
100
AcDbCircle
 10
289.3218830972141
 20
503.0380585002956
 30
0.0
 40
40.00515225921983
100
AcDbArc
 50
-0.91956658187358
 51
90.91956658187107
  0
SOLID
  5
208
330
1F
100
AcDbEntity
  8
0
 62
     2
100
AcDbTrace
 10
400.7672579990708
 20
181.4057101723644
 30
0.0
 11
402.762510128262
 21
180.2537508184747
 31
0.0
 12
397.3898840636664
 22
173.2520082123057
 32
0.0
 13
397.3898840636664
 23
173.2520082123057
 33
0.0
  0
LEADER
  5
209
330
1F
100
AcDbEntity
  8
0
  6
Continuous
 62
     2
100
AcDbLeader
  3
Standard
 71
     0
 76
     3
 10
397.3898840636664
 20
173.2520082123057
 30
0.0
 10
413.6706290034518
 20
201.451085633084
 30
0.0
 10
442.4876564344586
 20
201.451085633084
 30
0.0
  0
MTEXT
  5
20A
330
1F
100
AcDbEntity
  8
1
 62
     7
100
AcDbMText
 10
85.0
 20
78.00000000000001
 30
0.0
 40
8.75
 41
0.0
 71
     4
 72
     1
  1
共用形
  7
CONVERTER_1
 73
     1
 44
0.7202881152461
  0
MTEXT
  5
20B
330
1F
100
AcDbEntity
  8
1
 62
     7
100
AcDbMText
 10
142.5
 20
56.87500000000003
 30
0.0
 40
8.75
 41
0.0
 71
     5
 72
     1
  1
D式L管止水栓
  7
CONVERTER_1
 73
     1
 44
0.7202881152461
  0
MTEXT
  5
20D
330
1F
100
AcDbEntity
  8
0
 62
     7
100
AcDbMText
 10
428.2233923178741
 20
208.951085633084
 30
0.0
 40
8.75
 41
0.0
 71
     5
 72
     1
  1
R1/2
  7
CONVERTER_2
 73
     1
 44
1.32052821128451
  0
MTEXT
  5
20E
330
1F
100
AcDbEntity
  8
0
 62
     7
100
AcDbMText
 10
234.375
 20
42.5
 30
0.0
 40
8.75
 41
0.0
 71
     5
 72
     1
  1
2,5
  7
CONVERTER_2
 73
     1
 44
0.7202881152461
  0
MTEXT
  5
20F
330
1F
100
AcDbEntity
  8
0
 62
     7
100
AcDbMText
 10
213.125
 20
42.5
 30
0.0
 40
8.75
 41
0.0
 71
     5
 72
     1
  1
1
  7
CONVERTER_2
 73
     1
 44
0.7202881152461
  0
MTEXT
  5
210
330
1F
100
AcDbEntity
  8
1
 62
     7
100
AcDbMText
 10
142.5
 20
35.625
 30
0.0
 40
8.75
 41
0.0
 71
     5
 72
     1
  1
V223JD-13
  7
CONVERTER_2
 73
     1
 44
0.7202881152461
  0
MTEXT
  5
211
330
1F
100
AcDbEntity
  8
1
 62
     7
100
AcDbMText
 10
85.0
 20
92.0
 30
0.0
 40
8.75
 41
0.0
 71
     4
 72
     1
  1
JIS
  7
CONVERTER_2
 73
     1
 44
0.7202881152461
  0
DIMENSION
  5
21C
330
1F
100
AcDbEntity
  8
1
100
AcDbDimension
  2
*D010
 10
329.321883097214
 20
108.0380585002956
 30
0.0
 11
366.3218830972141
 21
114.9130585002956
 31
0.0
  1
<>
 71
     5
 42
0.0
 53
0.00013888888889
  3
ME10_DIM_0
100
AcDbAlignedDimension
 13
403.3218830972141
 23
154.2932464981432
 33
0.0
 14
329.3218830972141
 24
145.9177367708506
 34
0.0
100
AcDbRotatedDimension
  0
DIMENSION
  5
227
330
1F
100
AcDbEntity
  8
1
100
AcDbDimension
  2
*D111
 10
428.3218830972141
 20
193.0380585002956
 30
0.0
 11
421.4468830972141
 21
163.0380585002956
 31
0.0
 70
     1
  1
^N1^O60
 71
     5
 42
0.0
 53
90.0
  3
ME10_DIM_1
100
AcDbAlignedDimension
 13
389.9627668027711
 23
133.0380585002955
 33
0.0
 14
389.9627668027711
 24
193.0380585002956
 34
0.0
  0
DIMENSION
  5
234
330
1F
100
AcDbEntity
  8
1
100
AcDbDimension
  2
*D212
 10
373.9627668027712
 20
218.0380585002956
 30
0.0
 11
381.9627668027712
 21
224.9130585002956
 31
0.0
  1
<>
 71
     5
 42
0.0
 53
0.00013888888889
  3
ME10_DIM_2
100
AcDbAlignedDimension
 13
389.9627668027711
 23
193.0380585002956
 33
0.0
 14
373.9627668027711
 24
175.2422269769829
 34
0.0
100
AcDbRotatedDimension
  0
DIMENSION
  5
240
330
1F
100
AcDbEntity
  8
1
100
AcDbDimension
  2
*D313
 10
161.6803721819356
 20
653.5594654725114
 30
0.0
 11
144.5729232570953
 21
660.4344654725114
 31
0.0
 70
     1
  1
<>
 71
     5
 42
0.0
 52
120.0
 53
0.00013888888889
  3
ME10_DIM_3
100
AcDbAlignedDimension
 13
192.321883097214
 23
645.5201327433638
 33
0.0
 14
166.3218830972141
 24
645.5201327433636
 34
0.0
  0
DIMENSION
  5
24C
330
1F
100
AcDbEntity
  8
1
100
AcDbDimension
  2
*D414
 10
296.3218830972141
 20
108.0380585002956
 30
0.0
 11
270.593290543341
 21
114.9130585002956
 31
0.0
  1
33リフト5
 71
     5
 42
0.0
 53
0.00013888888889
  3
ME10_DIM_4
100
AcDbAlignedDimension
 13
329.3218830972141
 23
146.7656824008251
 33
0.0
 14
296.3218830972141
 24
159.2880585002956
 34
0.0
100
AcDbRotatedDimension
  0
DIMENSION
  5
259
330
1F
100
AcDbEntity
  8
1
100
AcDbDimension
  2
*D515
 10
155.1057714653232
 20
211.1286285472742
 30
0.0
 11
144.1095482695622
 21
218.0036285472742
 31
0.0
 70
     1
  1
<>
 71
     5
 42
0.0
 52
135.0
 53
0.00013888888889
  3
ME10_DIM_5
100
AcDbAlignedDimension
 13
190.8218830972138
 23
198.4125169153835
 33
0.0
 14
167.8218830972138
 24
198.4125169153835
 34
0.0
  0
DIMENSION
  5
264
330
1F
100
AcDbEntity
  8
0
100
AcDbDimension
  2
*D616
 10
228.0249648807203
 20
163.0380585002957
 30
0.0
 11
221.1499648807203
 21
353.0380585002956
 31
0.0
  1
<>
 71
     5
 42
0.0
 53
90.0
  3
ME10_DIM_6
100
AcDbAlignedDimension
 13
190.2666218220697
 23
543.0380585002956
 33
0.0
 14
210.671883097214
 24
163.0380585002956
 34
0.0
 50
90.0
100
AcDbRotatedDimension
  0
DIMENSION
  5
26F
330
1F
100
AcDbEntity
  8
0
100
AcDbDimension
  2
*D717
 10
274.3218830972143
 20
406.3380585002956
 30
0.0
 11
301.8218830972142
 21
413.2130585002956
 31
0.0
  1
<>
 71
     5
 42
0.0
 53
0.00013888888889
  3
ME10_DIM_7
100
AcDbAlignedDimension
 13
329.3218830972141
 23
500.8960247913976
 33
0.0
 14
274.3218830972143
 24
551.9380585002964
 34
0.0
100
AcDbRotatedDimension
  0
DIMENSION
  5
27C
330
1F
100
AcDbEntity
  8
0
100
AcDbDimension
  2
*D818
 10
249.3218830972143
 20
534.1380585002963
 30
0.0
 11
242.0093830972143
 21
543.0380585002963
 31
0.0
 70
     1
  1
^N1^O17,8
 71
     5
 42
0.0
 53
90.0
  3
ME10_DIM_8
100
AcDbAlignedDimension
 13
274.3218830972143
 23
551.9380585002964
 33
0.0
 14
274.3218830972143
 24
534.1380585002963
 34
0.0
  0
DIMENSION
  5
289
330
1F
100
AcDbEntity
  8
0
100
AcDbDimension
  2
*D919
 10
322.9718830972142
 20
486.8258675430802
 30
0.0
 11
351.9591561998817
 21
494.1383675430802
 31
0.0
 70
     1
  1
^N1^O12,7
 71
     5
 42
0.0
 53
0.00013888888889
  3
ME10_DIM_9
100
AcDbAlignedDimension
 13
335.6718830972142
 23
503.0380585002968
 33
0.0
 14
322.9718830972141
 24
503.0380585002959
 34
0.0
  0
ENDSEC
  0
SECTION
  2
OBJECTS
  0
DICTIONARY
  5
C
330
0
100
AcDbDictionary
281
     1
  3
ACAD_GROUP
350
D
  3
ACAD_LAYOUT
350
1A
  3
ACAD_MLINESTYLE
350
17
  3
ACAD_PLOTSETTINGS
350
19
  3
ACAD_PLOTSTYLENAME
350
E
  3
ACAD_TABLESTYLE
350
2A
  3
AcDbVariableDictionary
350
2C
  0
DICTIONARY
  5
D
102
{ACAD_REACTORS
330
C
102
}
330
C
100
AcDbDictionary
281
     1
  0
DICTIONARY
  5
1A
102
{ACAD_REACTORS
330
C
102
}
330
C
100
AcDbDictionary
281
     1
  3
Layout1
350
1E
  3
Layout2
350
26
  3
Model
350
22
  0
DICTIONARY
  5
17
102
{ACAD_REACTORS
330
C
102
}
330
C
100
AcDbDictionary
281
     1
  3
Standard
350
18
  0
DICTIONARY
  5
19
102
{ACAD_REACTORS
330
C
102
}
330
C
100
AcDbDictionary
281
     1
  0
ACDBDICTIONARYWDFLT
  5
E
102
{ACAD_REACTORS
330
C
102
}
330
C
100
AcDbDictionary
281
     1
  3
Normal
350
F
100
AcDbDictionaryWithDefault
340
F
  0
DICTIONARY
  5
2A
102
{ACAD_REACTORS
330
C
102
}
330
C
100
AcDbDictionary
281
     1
  3
Standard
350
2B
  0
DICTIONARY
  5
2C
102
{ACAD_REACTORS
330
C
102
}
330
C
100
AcDbDictionary
281
     1
  3
CTABLESTYLE
350
2D
  0
LAYOUT
  5
1E
102
{ACAD_REACTORS
330
1A
102
}
330
1A
100
AcDbPlotSettings
  1

  2

  4

  6

 40
0.0
 41
0.0
 42
0.0
 43
0.0
 44
0.0
 45
0.0
 46
0.0
 47
0.0
 48
0.0
 49
0.0
140
0.0
141
0.0
142
1.0
143
1.0
 70
   688
 72
     0
 73
     0
 74
     5
  7

 75
    16
147
1.0
148
0.0
149
0.0
100
AcDbLayout
  1
Layout1
 70
     1
 71
     1
 10
0.0
 20
0.0
 11
12.0
 21
9.0
 12
0.0
 22
0.0
 32
0.0
 14
1.00000000000000E+20
 24
1.00000000000000E+20
 34
1.00000000000000E+20
 15
-1.00000000000000E+20
 25
-1.00000000000000E+20
 35
-1.00000000000000E+20
146
0.0
 13
0.0
 23
0.0
 33
0.0
 16
1.0
 26
0.0
 36
0.0
 17
0.0
 27
1.0
 37
0.0
 76
     0
330
1B
  0
LAYOUT
  5
26
102
{ACAD_REACTORS
330
1A
102
}
330
1A
100
AcDbPlotSettings
  1

  2

  4

  6

 40
0.0
 41
0.0
 42
0.0
 43
0.0
 44
0.0
 45
0.0
 46
0.0
 47
0.0
 48
0.0
 49
0.0
140
0.0
141
0.0
142
1.0
143
1.0
 70
   688
 72
     0
 73
     0
 74
     5
  7

 75
    16
147
1.0
148
0.0
149
0.0
100
AcDbLayout
  1
Layout2
 70
     1
 71
     2
 10
0.0
 20
0.0
 11
0.0
 21
0.0
 12
0.0
 22
0.0
 32
0.0
 14
0.0
 24
0.0
 34
0.0
 15
0.0
 25
0.0
 35
0.0
146
0.0
 13
0.0
 23
0.0
 33
0.0
 16
1.0
 26
0.0
 36
0.0
 17
0.0
 27
1.0
 37
0.0
 76
     0
330
23
  0
LAYOUT
  5
22
102
{ACAD_REACTORS
330
1A
102
}
330
1A
100
AcDbPlotSettings
  1

  2

  4

  6

 40
0.0
 41
0.0
 42
0.0
 43
0.0
 44
0.0
 45
0.0
 46
0.0
 47
0.0
 48
0.0
 49
0.0
140
0.0
141
0.0
142
1.0
143
1.0
 70
  1712
 72
     0
 73
     0
 74
     0
  7

 75
     0
147
1.0
148
0.0
149
0.0
100
AcDbLayout
  1
Model
 70
     1
 71
     0
 10
0.0
 20
0.0
 11
0.0
 21
0.0
 12
0.0
 22
0.0
 32
0.0
 14
0.0
 24
0.0
 34
0.0
 15
525.0
 25
742.5
 35
0.0
146
0.0
 13
0.0
 23
0.0
 33
0.0
 16
1.0
 26
0.0
 36
0.0
 17
0.0
 27
1.0
 37
0.0
 76
     0
330
1F
  0
MLINESTYLE
  5
18
102
{ACAD_REACTORS
330
17
102
}
330
17
100
AcDbMlineStyle
  2
Standard
 70
     0
  3

 62
   256
 51
90.0
 52
90.0
 71
     2
 49
0.5
 62
   256
  6
BYLAYER
 49
-0.5
 62
   256
  6
BYLAYER
  0
ACDBPLACEHOLDER
  5
F
102
{ACAD_REACTORS
330
E
102
}
330
E
  0
TABLESTYLE
  5
2B
102
{ACAD_REACTORS
330
2A
102
}
330
2A
100
AcDbTableStyle
  3
Standard
 70
     0
 71
     0
 40
0.06
 41
0.06
280
     0
281
     0
  7
Standard
140
0.18
170
     2
 62
     0
 63
     7
283
     0
274
    -2
284
     1
 64
     0
275
    -2
285
     1
 65
     0
276
    -2
286
     1
 66
     0
277
    -2
287
     1
 67
     0
278
    -2
288
     1
 68
     0
279
    -2
289
     1
 69
     0
  7
Standard
140
0.25
170
     5
 62
     0
 63
     7
283
     0
274
    -2
284
     1
 64
     0
275
    -2
285
     1
 65
     0
276
    -2
286
     1
 66
     0
277
    -2
287
     1
 67
     0
278
    -2
288
     1
 68
     0
279
    -2
289
     1
 69
     0
  7
Standard
140
0.18
170
     5
 62
     0
 63
     7
283
     0
274
    -2
284
     1
 64
     0
275
    -2
285
     1
 65
     0
276
    -2
286
     1
 66
     0
277
    -2
287
     1
 67
     0
278
    -2
288
     1
 68
     0
279
    -2
289
     1
 69
     0
  0
DICTIONARYVAR
  5
2D
102
{ACAD_REACTORS
330
2C
102
}
330
2C
100
DictionaryVariables
280
     0
  1
Standard
  0
ENDSEC
  0
EOF
