  0
SECTION
  2
HEADER
  9
$ACADVER
  1
AC1015
  9
$ACADMAINTVER
 70
     6
  9
$DWGCODEPAGE
  3
ANSI_932
  9
$INSBASE
 10
0.0
 20
0.0
 30
0.0
  9
$EXTMIN
 10
0.0
 20
0.0
 30
0.0
  9
$EXTMAX
 10
420.0
 20
594.0
 30
0.0
  9
$LIMMIN
 10
0.0
 20
0.0
  9
$LIMMAX
 10
12.0
 20
9.0
  9
$ORTHOMODE
 70
     0
  9
$REGENMODE
 70
     1
  9
$FILLMODE
 70
     1
  9
$QTEXTMODE
 70
     0
  9
$MIRRTEXT
 70
     1
  9
$LTSCALE
 40
1.0
  9
$ATTMODE
 70
     1
  9
$TEXTSIZE
 40
0.2
  9
$TRACEWID
 40
0.05
  9
$TEXTSTYLE
  7
Standard
  9
$CLAYER
  8
0
  9
$CELTYPE
  6
ByLayer
  9
$CECOLOR
 62
   256
  9
$CELTSCALE
 40
1.0
  9
$DISPSILH
 70
     0
  9
$DIMSCALE
 40
1.0
  9
$DIMASZ
 40
0.18
  9
$DIMEXO
 40
0.0625
  9
$DIMDLI
 40
0.38
  9
$DIMRND
 40
0.0
  9
$DIMDLE
 40
0.0
  9
$DIMEXE
 40
0.18
  9
$DIMTP
 40
0.0
  9
$DIMTM
 40
0.0
  9
$DIMTXT
 40
0.18
  9
$DIMCEN
 40
0.09
  9
$DIMTSZ
 40
0.0
  9
$DIMTOL
 70
     0
  9
$DIMLIM
 70
     0
  9
$DIMTIH
 70
     1
  9
$DIMTOH
 70
     1
  9
$DIMSE1
 70
     0
  9
$DIMSE2
 70
     0
  9
$DIMTAD
 70
     0
  9
$DIMZIN
 70
     0
  9
$DIMBLK
  1

  9
$DIMASO
 70
     1
  9
$DIMSHO
 70
     1
  9
$DIMPOST
  1

  9
$DIMAPOST
  1

  9
$DIMALT
 70
     0
  9
$DIMALTD
 70
     2
  9
$DIMALTF
 40
25.4
  9
$DIMLFAC
 40
1.0
  9
$DIMTOFL
 70
     0
  9
$DIMTVP
 40
0.0
  9
$DIMTIX
 70
     0
  9
$DIMSOXD
 70
     0
  9
$DIMSAH
 70
     0
  9
$DIMBLK1
  1

  9
$DIMBLK2
  1

  9
$DIMSTYLE
  2
Standard
  9
$DIMCLRD
 70
     0
  9
$DIMCLRE
 70
     0
  9
$DIMCLRT
 70
     0
  9
$DIMTFAC
 40
1.0
  9
$DIMGAP
 40
0.09
  9
$DIMJUST
 70
     0
  9
$DIMSD1
 70
     0
  9
$DIMSD2
 70
     0
  9
$DIMTOLJ
 70
     1
  9
$DIMTZIN
 70
     0
  9
$DIMALTZ
 70
     0
  9
$DIMALTTZ
 70
     0
  9
$DIMUPT
 70
     0
  9
$DIMDEC
 70
     4
  9
$DIMTDEC
 70
     4
  9
$DIMALTU
 70
     2
  9
$DIMALTTD
 70
     2
  9
$DIMTXSTY
  7
Standard
  9
$DIMAUNIT
 70
     0
  9
$DIMADEC
 70
     0
  9
$DIMALTRND
 40
0.0
  9
$DIMAZIN
 70
     0
  9
$DIMDSEP
 70
    46
  9
$DIMATFIT
 70
     3
  9
$DIMFRAC
 70
     0
  9
$DIMLDRBLK
  1

  9
$DIMLUNIT
 70
     2
  9
$DIMLWD
 70
    -2
  9
$DIMLWE
 70
    -2
  9
$DIMTMOVE
 70
     0
  9
$LUNITS
 70
     2
  9
$LUPREC
 70
     4
  9
$SKETCHINC
 40
0.1
  9
$FILLETRAD
 40
0.5
  9
$AUNITS
 70
     0
  9
$AUPREC
 70
     0
  9
$MENU
  1
.
  9
$ELEVATION
 40
0.0
  9
$PELEVATION
 40
0.0
  9
$THICKNESS
 40
0.0
  9
$LIMCHECK
 70
     0
  9
$CHAMFERA
 40
0.5
  9
$CHAMFERB
 40
0.5
  9
$CHAMFERC
 40
1.0
  9
$CHAMFERD
 40
0.0
  9
$SKPOLY
 70
     0
  9
$TDCREATE
 40
2456673.468114132
  9
$TDUCREATE
 40
2456673.093114132
  9
$TDUPDATE
 40
2456673.468114861
  9
$TDUUPDATE
 40
2456673.093114861
  9
$TDINDWG
 40
0.0000000116
  9
$TDUSRTIMER
 40
0.0000000116
  9
$USRTIMER
 70
     1
  9
$ANGBASE
 50
0.0
  9
$ANGDIR
 70
     0
  9
$PDMODE
 70
     0
  9
$PDSIZE
 40
0.0
  9
$PLINEWID
 40
0.0
  9
$SPLFRAME
 70
     0
  9
$SPLINETYPE
 70
     6
  9
$SPLINESEGS
 70
     8
  9
$HANDSEED
  5
227
  9
$SURFTAB1
 70
     6
  9
$SURFTAB2
 70
     6
  9
$SURFTYPE
 70
     6
  9
$SURFU
 70
     6
  9
$SURFV
 70
     6
  9
$UCSBASE
  2

  9
$UCSNAME
  2

  9
$UCSORG
 10
0.0
 20
0.0
 30
0.0
  9
$UCSXDIR
 10
1.0
 20
0.0
 30
0.0
  9
$UCSYDIR
 10
0.0
 20
1.0
 30
0.0
  9
$UCSORTHOREF
  2

  9
$UCSORTHOVIEW
 70
     0
  9
$UCSORGTOP
 10
0.0
 20
0.0
 30
0.0
  9
$UCSORGBOTTOM
 10
0.0
 20
0.0
 30
0.0
  9
$UCSORGLEFT
 10
0.0
 20
0.0
 30
0.0
  9
$UCSORGRIGHT
 10
0.0
 20
0.0
 30
0.0
  9
$UCSORGFRONT
 10
0.0
 20
0.0
 30
0.0
  9
$UCSORGBACK
 10
0.0
 20
0.0
 30
0.0
  9
$PUCSBASE
  2

  9
$PUCSNAME
  2

  9
$PUCSORG
 10
0.0
 20
0.0
 30
0.0
  9
$PUCSXDIR
 10
1.0
 20
0.0
 30
0.0
  9
$PUCSYDIR
 10
0.0
 20
1.0
 30
0.0
  9
$PUCSORTHOREF
  2

  9
$PUCSORTHOVIEW
 70
     0
  9
$PUCSORGTOP
 10
0.0
 20
0.0
 30
0.0
  9
$PUCSORGBOTTOM
 10
0.0
 20
0.0
 30
0.0
  9
$PUCSORGLEFT
 10
0.0
 20
0.0
 30
0.0
  9
$PUCSORGRIGHT
 10
0.0
 20
0.0
 30
0.0
  9
$PUCSORGFRONT
 10
0.0
 20
0.0
 30
0.0
  9
$PUCSORGBACK
 10
0.0
 20
0.0
 30
0.0
  9
$USERI1
 70
     0
  9
$USERI2
 70
     0
  9
$USERI3
 70
     0
  9
$USERI4
 70
     0
  9
$USERI5
 70
     0
  9
$USERR1
 40
18.1
  9
$USERR2
 40
0.0
  9
$USERR3
 40
0.0
  9
$USERR4
 40
0.0
  9
$USERR5
 40
0.0
  9
$WORLDVIEW
 70
     1
  9
$SHADEDGE
 70
     3
  9
$SHADEDIF
 70
    70
  9
$TILEMODE
 70
     1
  9
$MAXACTVP
 70
    64
  9
$PINSBASE
 10
0.0
 20
0.0
 30
0.0
  9
$PLIMCHECK
 70
     0
  9
$PEXTMIN
 10
1.00000000000000E+20
 20
1.00000000000000E+20
 30
1.00000000000000E+20
  9
$PEXTMAX
 10
-1.00000000000000E+20
 20
-1.00000000000000E+20
 30
-1.00000000000000E+20
  9
$PLIMMIN
 10
0.0
 20
0.0
  9
$PLIMMAX
 10
12.0
 20
9.0
  9
$UNITMODE
 70
     0
  9
$VISRETAIN
 70
     1
  9
$PLINEGEN
 70
     0
  9
$PSLTSCALE
 70
     1
  9
$TREEDEPTH
 70
  3020
  9
$CMLSTYLE
  2
Standard
  9
$CMLJUST
 70
     0
  9
$CMLSCALE
 40
1.0
  9
$PROXYGRAPHICS
 70
     1
  9
$MEASUREMENT
 70
     1
  9
$CELWEIGHT
370
    -1
  9
$ENDCAPS
280
     0
  9
$JOINSTYLE
280
     0
  9
$LWDISPLAY
290
     0
  9
$INSUNITS
 70
     4
  9
$HYPERLINKBASE
  1

  9
$STYLESHEET
  1

  9
$XEDIT
290
     1
  9
$CEPSNTYPE
380
     0
  9
$PSTYLEMODE
290
     1
  9
$FINGERPRINTGUID
  2
{6D5DFD0F-459E-46C7-AC8D-FBB8CF2552A5}
  9
$VERSIONGUID
  2
{FAEB1C32-E019-11D5-929B-00C0DF256EC4}
  9
$EXTNAMES
290
     1
  9
$PSVPSCALE
 40
0.0
  9
$OLESTARTUP
290
     0
  0
ENDSEC
  0
SECTION
  2
CLASSES
  0
CLASS
  1
ACDBDICTIONARYWDFLT
  2
AcDbDictionaryWithDefault
  3
ObjectDBX Classes
 90
        0
280
     0
281
     0
  0
CLASS
  1
VISUALSTYLE
  2
AcDbVisualStyle
  3
ObjectDBX Classes
 90
     4095
280
     0
281
     0
  0
CLASS
  1
MATERIAL
  2
AcDbMaterial
  3
ObjectDBX Classes
 90
     1153
280
     0
281
     0
  0
CLASS
  1
DICTIONARYVAR
  2
AcDbDictionaryVar
  3
ObjectDBX Classes
 90
        0
280
     0
281
     0
  0
CLASS
  1
ACDBPLACEHOLDER
  2
AcDbPlaceHolder
  3
ObjectDBX Classes
 90
        0
280
     0
281
     0
  0
CLASS
  1
LAYOUT
  2
AcDbLayout
  3
ObjectDBX Classes
 90
        0
280
     0
281
     0
  0
ENDSEC
  0
SECTION
  2
TABLES
  0
TABLE
  2
VPORT
  5
8
330
0
100
AcDbSymbolTable
 70
     1
  0
VPORT
  5
29
330
8
100
AcDbSymbolTableRecord
100
AcDbViewportTableRecord
  2
*Active
 70
     0
 10
0.0
 20
0.0
 11
1.0
 21
1.0
 12
210.0
 22
297.0
 13
0.0
 23
0.0
 14
0.5
 24
0.5
 15
0.5
 25
0.5
 16
0.0
 26
0.0
 36
1.0
 17
0.0
 27
0.0
 37
0.0
 40
653.4000000000001
 41
1.60267857142857
 42
50.0
 43
0.0
 44
0.0
 50
0.0
 51
0.0
 71
     0
 72
   100
 73
     1
 74
     3
 75
     0
 76
     0
 77
     0
 78
     0
281
     0
 65
     1
110
0.0
120
0.0
130
0.0
111
1.0
121
0.0
131
0.0
112
0.0
122
1.0
132
0.0
 79
     0
146
0.0
  0
ENDTAB
  0
TABLE
  2
LTYPE
  5
5
330
0
100
AcDbSymbolTable
 70
     8
  0
LTYPE
  5
14
330
5
100
AcDbSymbolTableRecord
100
AcDbLinetypeTableRecord
  2
ByBlock
 70
     0
  3

 72
    65
 73
     0
 40
0.0
  0
LTYPE
  5
15
330
5
100
AcDbSymbolTableRecord
100
AcDbLinetypeTableRecord
  2
ByLayer
 70
     0
  3

 72
    65
 73
     0
 40
0.0
  0
LTYPE
  5
16
330
5
100
AcDbSymbolTableRecord
100
AcDbLinetypeTableRecord
  2
Continuous
 70
     0
  3
Solid line
 72
    65
 73
     0
 40
0.0
  0
LTYPE
  5
3F
330
5
100
AcDbSymbolTableRecord
100
AcDbLinetypeTableRecord
  2
DASHED
 70
     0
  3
Dashed
 72
    65
 73
     2
 40
15.0
 49
7.0
 74
     0
 49
-8.0
 74
     0
  0
LTYPE
  5
40
330
5
100
AcDbSymbolTableRecord
100
AcDbLinetypeTableRecord
  2
DOTTED
 70
     0
  3
Dotted
 72
    65
 73
     2
 40
1.0
 49
0.0
 74
     0
 49
-1.0
 74
     0
  0
LTYPE
  5
41
330
5
100
AcDbSymbolTableRecord
100
AcDbLinetypeTableRecord
  2
DOT_CENTER
 70
     0
  3
Dot_Center
 72
    65
 73
     4
 40
14.0
 49
12.0
 74
     0
 49
-1.0
 74
     0
 49
0.0
 74
     0
 49
-1.0
 74
     0
  0
LTYPE
  5
42
330
5
100
AcDbSymbolTableRecord
100
AcDbLinetypeTableRecord
  2
LONG_DASHED
 70
     0
  3
Long_Dashed
 72
    65
 73
     2
 40
15.0
 49
10.0
 74
     0
 49
-5.0
 74
     0
  0
LTYPE
  5
43
330
5
100
AcDbSymbolTableRecord
100
AcDbLinetypeTableRecord
  2
DASH_CENTER
 70
     0
  3
Dash_Center
 72
    65
 73
     4
 40
14.0
 49
11.0
 74
     0
 49
-1.0
 74
     0
 49
1.0
 74
     0
 49
-1.0
 74
     0
  0
LTYPE
  5
44
330
5
100
AcDbSymbolTableRecord
100
AcDbLinetypeTableRecord
  2
PHANTOM
 70
     0
  3
Phantom
 72
    65
 73
     6
 40
13.0
 49
10.0
 74
     0
 49
-1.0
 74
     0
 49
0.0
 74
     0
 49
-1.0
 74
     0
 49
0.0
 74
     0
 49
-1.0
 74
     0
  0
LTYPE
  5
45
330
5
100
AcDbSymbolTableRecord
100
AcDbLinetypeTableRecord
  2
CENTER_DASH_DASH
 70
     0
  3
Center_Dash_Dash
 72
    65
 73
     6
 40
14.0
 49
9.0
 74
     0
 49
-1.0
 74
     0
 49
1.0
 74
     0
 49
-1.0
 74
     0
 49
1.0
 74
     0
 49
-1.0
 74
     0
  0
ENDTAB
  0
TABLE
  2
LAYER
  5
2
330
0
100
AcDbSymbolTable
 70
     2
  0
LAYER
  5
10
330
2
100
AcDbSymbolTableRecord
100
AcDbLayerTableRecord
  2
0
 70
     0
 62
     7
  6
Continuous
370
    -3
390
F
  0
LAYER
  5
46
330
2
100
AcDbSymbolTableRecord
100
AcDbLayerTableRecord
  2
1
 70
     0
 62
     7
  6
Continuous
370
    -3
390
F
  0
ENDTAB
  0
TABLE
  2
STYLE
  5
3
330
0
100
AcDbSymbolTable
 70
     3
  0
STYLE
  5
11
330
3
100
AcDbSymbolTableRecord
100
AcDbTextStyleTableRecord
  2
Standard
 70
     0
 40
0.0
 41
1.0
 50
0.0
 71
     0
 42
0.2
  3
txt
  4

  0
STYLE
  5
16A
330
3
100
AcDbSymbolTableRecord
100
AcDbTextStyleTableRecord
  2
CONVERTER_11
 70
     0
 40
0.0
 41
0.89
 50
0.0
 71
     0
 42
0.2
  3
MS Mincho.ttf
  4

1001
ACAD
1000
MS Mincho
1071
    32785
  0
STYLE
  5
1A6
330
3
100
AcDbSymbolTableRecord
100
AcDbTextStyleTableRecord
  2
CONVERTER_12
 70
     0
 40
0.0
 41
0.9
 50
0.0
 71
     0
 42
0.2
  3
txt.shx
  4

  0
ENDTAB
  0
TABLE
  2
VIEW
  5
6
330
0
100
AcDbSymbolTable
 70
     0
  0
ENDTAB
  0
TABLE
  2
UCS
  5
7
330
0
100
AcDbSymbolTable
 70
     0
  0
ENDTAB
  0
TABLE
  2
APPID
  5
9
330
0
100
AcDbSymbolTable
 70
     1
  0
APPID
  5
12
330
9
100
AcDbSymbolTableRecord
100
AcDbRegAppTableRecord
  2
ACAD
 70
     0
  0
ENDTAB
  0
TABLE
  2
DIMSTYLE
  5
A
330
0
100
AcDbSymbolTable
 70
     7
100
AcDbDimStyleTable
  0
DIMSTYLE
105
27
330
A
100
AcDbSymbolTableRecord
100
AcDbDimStyleTableRecord
  2
Standard
 70
     0
178
     0
340
11
  0
DIMSTYLE
105
1B9
102
{ACAD_REACTORS
330
1BA
102
}
330
A
100
AcDbSymbolTableRecord
100
AcDbDimStyleTableRecord
  2
ME10_DIM_10
 70
     0
 41
7.0
 42
0.0
 44
2.0
 73
     0
 74
     0
 77
     1
 78
     8
140
7.0
147
2.0
172
     1
173
     1
174
     1
175
     1
176
     2
177
     2
271
     2
178
     7
271
     2
340
1A6
  0
DIMSTYLE
105
1C4
102
{ACAD_REACTORS
330
1C5
102
}
330
A
100
AcDbSymbolTableRecord
100
AcDbDimStyleTableRecord
  2
ME10_DIM_11
 70
     0
 41
7.0
 42
0.0
 44
2.0
 73
     0
 74
     0
 77
     1
 78
     8
140
7.0
147
2.0
172
     1
173
     1
174
     1
175
     1
176
     2
177
     2
271
     2
178
     7
271
     2
340
1A6
  0
DIMSTYLE
105
1CF
102
{ACAD_REACTORS
330
1D0
102
}
330
A
100
AcDbSymbolTableRecord
100
AcDbDimStyleTableRecord
  2
ME10_DIM_12
 70
     0
 41
7.0
 42
0.0
 44
2.0
 73
     0
 74
     0
 77
     1
 78
     8
140
7.0
147
2.0
172
     1
173
     1
174
     1
175
     1
176
     2
177
     2
271
     2
178
     7
271
     2
340
1A6
  0
DIMSTYLE
105
1DA
102
{ACAD_REACTORS
330
1DB
102
}
330
A
100
AcDbSymbolTableRecord
100
AcDbDimStyleTableRecord
  2
ME10_DIM_13
 70
     0
 41
7.0
 42
0.0
 44
2.0
 73
     0
 74
     0
 77
     1
 78
     8
140
7.0
147
2.0
172
     1
173
     1
174
     1
175
     1
176
     2
177
     2
271
     2
178
     7
271
     2
340
1A6
  0
DIMSTYLE
105
1E7
102
{ACAD_REACTORS
330
1E8
102
}
330
A
100
AcDbSymbolTableRecord
100
AcDbDimStyleTableRecord
  2
ME10_DIM_14
 70
     0
 41
7.0
 42
0.0
 44
2.0
 73
     0
 74
     0
 77
     1
 78
     8
140
7.0
147
2.0
172
     1
173
     1
174
     1
175
     1
176
     2
177
     2
271
     2
178
     7
271
     2
340
1A6
  0
DIMSTYLE
105
1F2
102
{ACAD_REACTORS
330
1F3
102
}
330
A
100
AcDbSymbolTableRecord
100
AcDbDimStyleTableRecord
  2
ME10_DIM_15
 70
     0
 41
7.0
 42
0.0
 44
2.0
 73
     0
 74
     0
 77
     1
 78
     8
140
7.0
147
2.0
172
     1
173
     1
174
     1
175
     1
176
     2
177
     2
271
     2
178
     7
271
     2
340
1A6
  0
ENDTAB
  0
TABLE
  2
BLOCK_RECORD
  5
1
330
0
100
AcDbSymbolTable
 70
    17
  0
BLOCK_RECORD
  5
1F
330
1
100
AcDbSymbolTableRecord
100
AcDbBlockTableRecord
  2
*Model_Space
340
22
  0
BLOCK_RECORD
  5
1B
330
1
100
AcDbSymbolTableRecord
100
AcDbBlockTableRecord
  2
*Paper_Space
340
1E
  0
BLOCK_RECORD
  5
23
330
1
100
AcDbSymbolTableRecord
100
AcDbBlockTableRecord
  2
*Paper_Space0
340
26
  0
BLOCK_RECORD
  5
47
330
1
100
AcDbSymbolTableRecord
100
AcDbBlockTableRecord
  2
V2261-0-13-M1
340
0
102
{BLKREFS
331
64
102
}
  0
BLOCK_RECORD
  5
4A
330
1
100
AcDbSymbolTableRecord
100
AcDbBlockTableRecord
  2
31-81-M1
340
0
102
{BLKREFS
331
65
102
}
  0
BLOCK_RECORD
  5
4D
330
1
100
AcDbSymbolTableRecord
100
AcDbBlockTableRecord
  2
34-160-M11
340
0
102
{BLKREFS
331
66
102
}
  0
BLOCK_RECORD
  5
50
330
1
100
AcDbSymbolTableRecord
100
AcDbBlockTableRecord
  2
37-311-M11
340
0
102
{BLKREFS
331
67
102
}
  0
BLOCK_RECORD
  5
53
330
1
100
AcDbSymbolTableRecord
100
AcDbBlockTableRecord
  2
開示A4
340
0
102
{BLKREFS
331
68
102
}
  0
BLOCK_RECORD
  5
56
330
1
100
AcDbSymbolTableRecord
100
AcDbBlockTableRecord
  2
32-88
340
0
102
{BLKREFS
331
69
102
}
  0
BLOCK_RECORD
  5
59
330
1
100
AcDbSymbolTableRecord
100
AcDbBlockTableRecord
  2
91-1
340
0
102
{BLKREFS
331
60
102
}
  0
BLOCK_RECORD
  5
5C
330
1
100
AcDbSymbolTableRecord
100
AcDbBlockTableRecord
  2
41-7-15-C2
340
0
102
{BLKREFS
331
61
102
}
  0
BLOCK_RECORD
  5
5F
330
1
100
AcDbSymbolTableRecord
100
AcDbBlockTableRecord
  2
P82AT-2-15
340
0
102
{BLKREFS
331
6A
102
}
  0
BLOCK_RECORD
  5
1B0
330
1
100
AcDbSymbolTableRecord
100
AcDbBlockTableRecord
  2
*D10
340
0
  0
BLOCK_RECORD
  5
1BB
330
1
100
AcDbSymbolTableRecord
100
AcDbBlockTableRecord
  2
*D11
340
0
  0
BLOCK_RECORD
  5
1C6
330
1
100
AcDbSymbolTableRecord
100
AcDbBlockTableRecord
  2
*D12
340
0
  0
BLOCK_RECORD
  5
1D1
330
1
100
AcDbSymbolTableRecord
100
AcDbBlockTableRecord
  2
*D13
340
0
  0
BLOCK_RECORD
  5
1DC
330
1
100
AcDbSymbolTableRecord
100
AcDbBlockTableRecord
  2
*D14
340
0
  0
BLOCK_RECORD
  5
1E9
330
1
100
AcDbSymbolTableRecord
100
AcDbBlockTableRecord
  2
*D15
340
0
  0
BLOCK_RECORD
  5
1F4
330
1
100
AcDbSymbolTableRecord
100
AcDbBlockTableRecord
  2
*D16
340
0
102
{BLKREFS
331
1FB
102
}
  0
ENDTAB
  0
ENDSEC
  0
SECTION
  2
BLOCKS
  0
BLOCK
  5
20
330
1F
100
AcDbEntity
  8
0
100
AcDbBlockBegin
  2
*Model_Space
 70
     0
 10
0.0
 20
0.0
 30
0.0
  3
*Model_Space
  1

  0
ENDBLK
  5
21
330
1F
100
AcDbEntity
  8
0
100
AcDbBlockEnd
  0
BLOCK
  5
1C
330
1B
100
AcDbEntity
 67
     1
  8
0
100
AcDbBlockBegin
  2
*Paper_Space
 70
     0
 10
0.0
 20
0.0
 30
0.0
  3
*Paper_Space
  1

  0
ENDBLK
  5
1D
330
1B
100
AcDbEntity
 67
     1
  8
0
100
AcDbBlockEnd
  0
BLOCK
  5
24
330
23
100
AcDbEntity
  8
0
100
AcDbBlockBegin
  2
*Paper_Space0
 70
     0
 10
0.0
 20
0.0
 30
0.0
  3
*Paper_Space0
  1

  0
ENDBLK
  5
25
330
23
100
AcDbEntity
  8
0
100
AcDbBlockEnd
  0
BLOCK
  5
48
330
47
100
AcDbEntity
  8
0
100
AcDbBlockBegin
  2
V2261-0-13-M1
 70
     0
 10
113.3872255649301
 20
411.8443551822621
 30
0.0
  3
V2261-0-13-M1
  1

  0
LINE
  5
6B
330
47
100
AcDbEntity
  8
1
  6
Continuous
 62
     7
100
AcDbLine
 10
141.7117808852661
 20
408.2143115481134
 30
0.0
 11
129.0626702445937
 21
408.2143115481134
 31
0.0
  0
LINE
  5
6C
330
47
100
AcDbEntity
  8
1
  6
Continuous
 62
     7
100
AcDbLine
 10
131.4872255649244
 20
414.9143115481102
 30
0.0
 11
139.2872255649354
 21
414.9143115481102
 31
0.0
  0
LINE
  5
6D
330
47
100
AcDbEntity
  8
1
  6
Continuous
 62
     7
100
AcDbLine
 10
335.9911108467379
 20
265.0143115481223
 30
0.0
 11
335.9911108467379
 21
263.3843115481223
 31
0.0
  0
LINE
  5
6E
330
47
100
AcDbEntity
  8
1
  6
Continuous
 62
     7
100
AcDbLine
 10
335.9911108467379
 20
250.5443115481223
 30
0.0
 11
335.9911108467379
 21
248.9143115481223
 31
0.0
  0
LINE
  5
6F
330
47
100
AcDbEntity
  8
1
  6
Continuous
 62
     7
100
AcDbLine
 10
327.0014738178198
 20
247.9143115481223
 30
0.0
 11
327.0014738178198
 21
242.4943115481223
 31
0.0
  0
LINE
  5
70
330
47
100
AcDbEntity
  8
1
  6
Continuous
 62
     7
100
AcDbLine
 10
327.0014738178198
 20
256.9643115481223
 30
0.0
 11
327.0014738178198
 21
251.5443115481223
 31
0.0
  0
LINE
  5
71
330
47
100
AcDbEntity
  8
1
  6
Continuous
 62
     7
100
AcDbLine
 10
327.0014738178198
 20
271.4343115481223
 30
0.0
 11
327.0014738178198
 21
266.0143115481223
 31
0.0
  0
LINE
  5
72
330
47
100
AcDbEntity
  8
1
  6
Continuous
 62
     7
100
AcDbLine
 10
327.0014738178198
 20
262.3843115481223
 30
0.0
 11
327.0014738178198
 21
256.9643115481223
 31
0.0
  0
LINE
  5
73
330
47
100
AcDbEntity
  8
1
  6
Continuous
 62
     7
100
AcDbLine
 10
335.9911108467379
 20
250.5443115481223
 30
0.0
 11
327.0014738178198
 21
250.5443115481223
 31
0.0
  0
LINE
  5
74
330
47
100
AcDbEntity
  8
1
  6
Continuous
 62
     7
100
AcDbLine
 10
327.0014738178198
 20
248.9143115481223
 30
0.0
 11
335.9911108467379
 21
248.9143115481223
 31
0.0
  0
LINE
  5
75
330
47
100
AcDbEntity
  8
1
  6
Continuous
 62
     7
100
AcDbLine
 10
335.9911108467379
 20
265.0143115481223
 30
0.0
 11
327.0014738178198
 21
265.0143115481223
 31
0.0
  0
LINE
  5
76
330
47
100
AcDbEntity
  8
1
  6
Continuous
 62
     7
100
AcDbLine
 10
327.0014738178198
 20
263.3843115481223
 30
0.0
 11
335.9911108467379
 21
263.3843115481223
 31
0.0
  0
LINE
  5
77
330
47
100
AcDbEntity
  8
1
  6
Continuous
 62
     7
100
AcDbLine
 10
122.3872255649299
 20
389.7143115481219
 30
0.0
 11
122.3872255649299
 21
390.2143115481126
 31
0.0
  0
LINE
  5
78
330
47
100
AcDbEntity
  8
1
  6
PHANTOM
 62
     5
100
AcDbLine
 10
148.3872255649297
 20
436.2502099329716
 30
0.0
 11
148.3872255649297
 21
435.7143115481094
 31
0.0
  0
LINE
  5
79
330
47
100
AcDbEntity
  8
1
  6
PHANTOM
 62
     5
100
AcDbLine
 10
148.6551747573607
 20
435.2502099329717
 30
0.0
 11
148.3872255649297
 21
435.7143115481094
 31
0.0
  0
LINE
  5
7A
330
47
100
AcDbEntity
  8
1
  6
PHANTOM
 62
     5
100
AcDbLine
 10
122.3872255649297
 20
435.7143115481094
 30
0.0
 11
122.1192763724985
 21
435.2502099329716
 31
0.0
  0
LINE
  5
7B
330
47
100
AcDbEntity
  8
1
  6
PHANTOM
 62
     5
100
AcDbLine
 10
122.3872255649297
 20
435.7143115481094
 30
0.0
 11
122.3872255649297
 21
436.2502099329717
 31
0.0
  0
LINE
  5
7C
330
47
100
AcDbEntity
  8
1
  6
Continuous
 62
     7
100
AcDbLine
 10
124.3250887865667
 20
435.7143115481094
 30
0.0
 11
133.4493623432928
 21
435.7143115481094
 31
0.0
  0
LINE
  5
7D
330
47
100
AcDbEntity
  8
1
  6
Continuous
 62
     7
100
AcDbLine
 10
146.4493623432928
 20
435.7143115481094
 30
0.0
 11
137.3250887865667
 21
435.7143115481094
 31
0.0
  0
LINE
  5
7E
330
47
100
AcDbEntity
  8
1
  6
PHANTOM
 62
     4
100
AcDbLine
 10
152.8872255649299
 20
409.7143115481121
 30
0.0
 11
117.8872255649299
 21
409.7143115481121
 31
0.0
  0
LINE
  5
7F
330
47
100
AcDbEntity
  8
1
  6
PHANTOM
 62
     4
100
AcDbLine
 10
135.3872255649299
 20
448.7143115481094
 30
0.0
 11
135.3872255649299
 21
387.4143115481097
 31
0.0
  0
LINE
  5
80
330
47
100
AcDbEntity
  8
1
  6
Continuous
 62
     7
100
AcDbLine
 10
122.3872255649297
 20
445.5699739808121
 30
0.0
 11
122.6372255649299
 21
445.7143115481094
 31
0.0
  0
LINE
  5
81
330
47
100
AcDbEntity
  8
1
  6
Continuous
 62
     7
100
AcDbLine
 10
149.88722556493
 20
390.2143115481123
 30
0.0
 11
149.8872255649297
 21
433.116235336756
 31
0.0
  0
LINE
  5
82
330
47
100
AcDbEntity
  8
1
  6
Continuous
 62
     7
100
AcDbLine
 10
122.3872255649297
 20
444.7039485770277
 30
0.0
 11
122.3872255649297
 21
436.2502099329717
 31
0.0
  0
LINE
  5
83
330
47
100
AcDbEntity
  8
1
  6
Continuous
 62
     7
100
AcDbLine
 10
123.3250887865667
 20
435.7143115481094
 30
0.0
 11
123.3250887865667
 21
444.7039485770277
 31
0.0
  0
LINE
  5
84
330
47
100
AcDbEntity
  8
1
  6
Continuous
 62
     7
100
AcDbLine
 10
134.4493623432928
 20
444.7039485770277
 30
0.0
 11
134.4493623432928
 21
435.7143115481094
 31
0.0
  0
LINE
  5
85
330
47
100
AcDbEntity
  8
1
  6
Continuous
 62
     7
100
AcDbLine
 10
136.3250887865667
 20
435.7143115481094
 30
0.0
 11
136.3250887865667
 21
444.7039485770277
 31
0.0
  0
LINE
  5
86
330
47
100
AcDbEntity
  8
1
  6
Continuous
 62
     7
100
AcDbLine
 10
147.4493623432928
 20
444.7039485770277
 30
0.0
 11
147.4493623432928
 21
435.7143115481094
 31
0.0
  0
LINE
  5
87
330
47
100
AcDbEntity
  8
1
  6
Continuous
 62
     7
100
AcDbLine
 10
148.3872255649297
 20
436.2502099329716
 30
0.0
 11
148.3872255649297
 21
444.7039485770277
 31
0.0
  0
LINE
  5
88
330
47
100
AcDbEntity
  8
1
  6
Continuous
 62
     7
100
AcDbLine
 10
120.8872255649298
 20
390.2143115481126
 30
0.0
 11
120.88722556493
 21
433.1162353367567
 31
0.0
  0
LINE
  5
89
330
47
100
AcDbEntity
  8
1
  6
Continuous
 62
     7
100
AcDbLine
 10
120.88722556493
 20
433.1162353367567
 30
0.0
 11
122.1192763724985
 21
435.2502099329716
 31
0.0
  0
LINE
  5
8A
330
47
100
AcDbEntity
  8
1
  6
Continuous
 62
     7
100
AcDbLine
 10
149.8872255649297
 20
433.116235336756
 30
0.0
 11
148.6551747573607
 21
435.2502099329717
 31
0.0
  0
LINE
  5
8B
330
47
100
AcDbEntity
  8
1
  6
Continuous
 62
     7
100
AcDbLine
 10
136.3250887865667
 20
444.7039485770277
 30
0.0
 11
134.4493623432928
 21
444.7039485770277
 31
0.0
  0
LINE
  5
8C
330
47
100
AcDbEntity
  8
1
  6
Continuous
 62
     7
100
AcDbLine
 10
148.3872255649297
 20
444.7039485770277
 30
0.0
 11
147.4493623432928
 21
444.7039485770277
 31
0.0
  0
LINE
  5
8D
330
47
100
AcDbEntity
  8
1
  6
Continuous
 62
     7
100
AcDbLine
 10
122.3872255649297
 20
444.7039485770277
 30
0.0
 11
123.3250887865667
 21
444.7039485770277
 31
0.0
  0
LINE
  5
8E
330
47
100
AcDbEntity
  8
1
  6
Continuous
 62
     7
100
AcDbLine
 10
122.3872255649297
 20
444.7039485770277
 30
0.0
 11
122.3872255649297
 21
445.5699739808121
 31
0.0
  0
LINE
  5
8F
330
47
100
AcDbEntity
  8
1
  6
Continuous
 62
     7
100
AcDbLine
 10
148.3872255649297
 20
445.5699739808121
 30
0.0
 11
148.3872255649297
 21
444.7039485770277
 31
0.0
  0
LINE
  5
90
330
47
100
AcDbEntity
  8
1
  6
Continuous
 62
     7
100
AcDbLine
 10
122.6372255649299
 20
445.7143115481094
 30
0.0
 11
148.1372255649299
 21
445.7143115481094
 31
0.0
  0
LINE
  5
91
330
47
100
AcDbEntity
  8
1
  6
Continuous
 62
     7
100
AcDbLine
 10
148.1372255649299
 20
445.7143115481094
 30
0.0
 11
148.3872255649297
 21
445.5699739808121
 31
0.0
  0
LINE
  5
92
330
47
100
AcDbEntity
  8
1
  6
Continuous
 62
     7
100
AcDbLine
 10
149.88722556493
 20
390.2143115481123
 30
0.0
 11
148.3872255649299
 21
390.2143115481123
 31
0.0
  0
LINE
  5
93
330
47
100
AcDbEntity
  8
1
  6
Continuous
 62
     7
100
AcDbLine
 10
148.3872255649299
 20
390.2143115481123
 30
0.0
 11
148.3872255649299
 21
389.7143115481219
 31
0.0
  0
LINE
  5
94
330
47
100
AcDbEntity
  8
1
  6
Continuous
 62
     7
100
AcDbLine
 10
148.3872255649299
 20
390.2143115481123
 30
0.0
 11
122.3872255649299
 21
390.2143115481126
 31
0.0
  0
LINE
  5
95
330
47
100
AcDbEntity
  8
1
  6
Continuous
 62
     7
100
AcDbLine
 10
122.3872255649299
 20
390.2143115481126
 30
0.0
 11
120.8872255649298
 21
390.2143115481126
 31
0.0
  0
LINE
  5
96
330
47
100
AcDbEntity
  8
1
  6
Continuous
 62
     7
100
AcDbLine
 10
286.5014738178223
 20
279.964311548122
 30
0.0
 11
315.5014738178223
 21
279.964311548122
 31
0.0
  0
LINE
  5
97
330
47
100
AcDbEntity
  8
1
  6
Continuous
 62
     7
100
AcDbLine
 10
315.5014738178223
 20
279.964311548122
 30
0.0
 11
315.5014738178223
 21
273.464311548122
 31
0.0
  0
LINE
  5
98
330
47
100
AcDbEntity
  8
1
  6
Continuous
 62
     7
100
AcDbLine
 10
317.5014738178223
 20
271.464311548122
 30
0.0
 11
335.991110846738
 21
271.464311548122
 31
0.0
  0
LINE
  5
99
330
47
100
AcDbEntity
  8
1
  6
Continuous
 62
     7
100
AcDbLine
 10
335.991110846738
 20
271.464311548122
 30
0.0
 11
337.0014738178198
 21
269.714311548122
 31
0.0
  0
LINE
  5
9A
330
47
100
AcDbEntity
  8
1
  6
Continuous
 62
     7
100
AcDbLine
 10
335.9911108467378
 20
242.4643115481219
 30
0.0
 11
337.0014738178198
 21
244.2143115481219
 31
0.0
  0
LINE
  5
9B
330
47
100
AcDbEntity
  8
1
  6
Continuous
 62
     7
100
AcDbLine
 10
281.5014738178226
 20
242.4643115481219
 30
0.0
 11
281.5014738178226
 21
256.9643115481223
 31
0.0
  0
LINE
  5
9C
330
47
100
AcDbEntity
  8
1
  6
Continuous
 62
     7
100
AcDbLine
 10
281.5014738178226
 20
256.9643115481223
 30
0.0
 11
281.5014738178226
 21
271.464311548122
 31
0.0
  0
LINE
  5
9D
330
47
100
AcDbEntity
  8
1
  6
Continuous
 62
     7
100
AcDbLine
 10
281.5014738178226
 20
271.464311548122
 30
0.0
 11
284.5014738178223
 21
271.464311548122
 31
0.0
  0
LINE
  5
9E
330
47
100
AcDbEntity
  8
1
  6
Continuous
 62
     7
100
AcDbLine
 10
286.5014738178223
 20
273.464311548122
 30
0.0
 11
286.5014738178223
 21
279.964311548122
 31
0.0
  0
LINE
  5
9F
330
47
100
AcDbEntity
  8
1
  6
Continuous
 62
     7
100
AcDbLine
 10
291.6634738178226
 20
291.9643115481219
 30
0.0
 11
310.3394738178223
 21
291.9643115481219
 31
0.0
  0
LINE
  5
A0
330
47
100
AcDbEntity
  8
1
  6
Continuous
 62
     7
100
AcDbLine
 10
291.6634738178226
 20
291.9643115481219
 30
0.0
 11
290.5014738178223
 21
290.8023115481219
 31
0.0
  0
LINE
  5
A1
330
47
100
AcDbEntity
  8
1
  6
Continuous
 62
     2
100
AcDbLine
 10
310.3394738178223
 20
291.9643115481219
 30
0.0
 11
310.3394738178223
 21
282.964311548122
 31
0.0
  0
LINE
  5
A2
330
47
100
AcDbEntity
  8
1
  6
Continuous
 62
     2
100
AcDbLine
 10
310.3394738178223
 20
282.964311548122
 30
0.0
 11
311.5014738178223
 21
280.9516685097269
 31
0.0
  0
LINE
  5
A3
330
47
100
AcDbEntity
  8
1
  6
Continuous
 62
     7
100
AcDbLine
 10
311.5014738178223
 20
290.8023115481219
 30
0.0
 11
311.5014738178223
 21
282.964311548122
 31
0.0
  0
LINE
  5
A4
330
47
100
AcDbEntity
  8
1
  6
Continuous
 62
     7
100
AcDbLine
 10
310.3394738178223
 20
291.9643115481219
 30
0.0
 11
311.5014738178223
 21
290.8023115481219
 31
0.0
  0
LINE
  5
A5
330
47
100
AcDbEntity
  8
1
  6
Continuous
 62
     7
100
AcDbLine
 10
310.3394738178223
 20
282.964311548122
 30
0.0
 11
311.5014738178223
 21
282.964311548122
 31
0.0
  0
LINE
  5
A6
330
47
100
AcDbEntity
  8
1
  6
Continuous
 62
     7
100
AcDbLine
 10
281.5014738178226
 20
243.964311548121
 30
0.0
 11
281.0014738178246
 21
243.9643115481212
 31
0.0
  0
LINE
  5
A7
330
47
100
AcDbEntity
  8
1
  6
Continuous
 62
     7
100
AcDbLine
 10
337.0014738178198
 20
244.2143115481219
 30
0.0
 11
337.0014738178198
 21
269.714311548122
 31
0.0
  0
LINE
  5
A8
330
47
100
AcDbEntity
  8
1
  6
Continuous
 62
     7
100
AcDbLine
 10
281.5014738178226
 20
242.4643115481219
 30
0.0
 11
335.9911108467378
 21
242.4643115481219
 31
0.0
  0
LINE
  5
A9
330
47
100
AcDbEntity
  8
1
  6
Continuous
 62
     7
100
AcDbLine
 10
290.5014738178223
 20
290.8023115481219
 30
0.0
 11
290.5014738178223
 21
282.964311548122
 31
0.0
  0
LINE
  5
AA
330
47
100
AcDbEntity
  8
1
  6
Continuous
 62
     2
100
AcDbLine
 10
290.5014738178223
 20
280.9516685097269
 30
0.0
 11
291.6634738178225
 21
282.964311548122
 31
0.0
  0
LINE
  5
AB
330
47
100
AcDbEntity
  8
1
  6
Continuous
 62
     7
100
AcDbLine
 10
290.5014738178223
 20
282.964311548122
 30
0.0
 11
290.5014738178223
 21
280.9516685097269
 31
0.0
  0
LINE
  5
AC
330
47
100
AcDbEntity
  8
1
  6
Continuous
 62
     7
100
AcDbLine
 10
290.5014738178223
 20
282.964311548122
 30
0.0
 11
291.6634738178225
 21
282.964311548122
 31
0.0
  0
LINE
  5
AD
330
47
100
AcDbEntity
  8
1
  6
Continuous
 62
     7
100
AcDbLine
 10
290.5014738178223
 20
280.9516685097269
 30
0.0
 11
290.5014738178223
 21
279.964311548122
 31
0.0
  0
LINE
  5
AE
330
47
100
AcDbEntity
  8
1
  6
Continuous
 62
     7
100
AcDbLine
 10
311.5014738178223
 20
282.964311548122
 30
0.0
 11
311.5014738178223
 21
280.9516685097269
 31
0.0
  0
LINE
  5
AF
330
47
100
AcDbEntity
  8
1
  6
Continuous
 62
     7
100
AcDbLine
 10
311.5014738178223
 20
280.9516685097269
 30
0.0
 11
311.5014738178223
 21
279.964311548122
 31
0.0
  0
LINE
  5
B0
330
47
100
AcDbEntity
  8
1
  6
PHANTOM
 62
     4
100
AcDbLine
 10
135.3872255649301
 20
239.4643177301365
 30
0.0
 11
135.3872255649301
 21
294.9643115481223
 31
0.0
  0
LINE
  5
B1
330
47
100
AcDbEntity
  8
1
  6
Continuous
 62
     7
100
AcDbLine
 10
120.8872255649301
 20
256.9643053661081
 30
0.0
 11
120.8872255649301
 21
279.9643115481223
 31
0.0
  0
LINE
  5
B2
330
47
100
AcDbEntity
  8
1
  6
Continuous
 62
     7
100
AcDbLine
 10
120.8872255649301
 20
279.9643115481223
 30
0.0
 11
131.8872255649322
 21
279.9643115481223
 31
0.0
  0
LINE
  5
B3
330
47
100
AcDbEntity
  8
1
  6
Continuous
 62
     7
100
AcDbLine
 10
149.8872255649301
 20
279.9643115481223
 30
0.0
 11
149.8872255649301
 21
256.9643053661081
 31
0.0
  0
LINE
  5
B4
330
47
100
AcDbEntity
  8
1
  6
Continuous
 62
     7
100
AcDbLine
 10
144.7252255649328
 20
290.8023115481223
 30
0.0
 11
126.0492255649329
 21
290.8023115481223
 31
0.0
  0
LINE
  5
B5
330
47
100
AcDbEntity
  8
1
  6
Continuous
 62
     7
100
AcDbLine
 10
126.0492255649329
 20
282.9643115481223
 30
0.0
 11
131.8872255649322
 21
282.9643115481223
 31
0.0
  0
LINE
  5
B6
330
47
100
AcDbEntity
  8
1
  6
Continuous
 62
     7
100
AcDbLine
 10
126.0492255649329
 20
291.9643115481223
 30
0.0
 11
144.7252255649328
 21
291.9643115481223
 31
0.0
  0
LINE
  5
B7
330
47
100
AcDbEntity
  8
1
  6
Continuous
 62
     2
100
AcDbLine
 10
126.0492255649329
 20
282.9643115481223
 30
0.0
 11
126.0492255649329
 21
290.8023115481223
 31
0.0
  0
LINE
  5
B8
330
47
100
AcDbEntity
  8
1
  6
Continuous
 62
     2
100
AcDbLine
 10
126.0492255649329
 20
290.8023115481223
 30
0.0
 11
126.0492255649329
 21
291.9643115481223
 31
0.0
  0
LINE
  5
B9
330
47
100
AcDbEntity
  8
1
  6
Continuous
 62
     2
100
AcDbLine
 10
126.0492255649329
 20
290.8023115481223
 30
0.0
 11
126.0492255649329
 21
291.9643115481223
 31
0.0
  0
LINE
  5
BA
330
47
100
AcDbEntity
  8
1
  6
Continuous
 62
     7
100
AcDbLine
 10
124.8872255649326
 20
290.8023115481223
 30
0.0
 11
126.0492255649329
 21
290.8023115481223
 31
0.0
  0
LINE
  5
BB
330
47
100
AcDbEntity
  8
1
  6
Continuous
 62
     7
100
AcDbLine
 10
126.0492255649329
 20
291.9643115481223
 30
0.0
 11
124.8872255649326
 21
290.8023115481223
 31
0.0
  0
LINE
  5
BC
330
47
100
AcDbEntity
  8
1
  6
Continuous
 62
     2
100
AcDbLine
 10
144.7252255649328
 20
291.9643115481223
 30
0.0
 11
144.7252255649328
 21
290.8023115481223
 31
0.0
  0
LINE
  5
BD
330
47
100
AcDbEntity
  8
1
  6
Continuous
 62
     2
100
AcDbLine
 10
144.7252255649328
 20
290.8023115481223
 30
0.0
 11
144.7252255649328
 21
282.9643115481223
 31
0.0
  0
LINE
  5
BE
330
47
100
AcDbEntity
  8
1
  6
Continuous
 62
     2
100
AcDbLine
 10
144.7252255649328
 20
282.9643115481223
 30
0.0
 11
145.8872255649326
 21
280.9516685097272
 31
0.0
  0
LINE
  5
BF
330
47
100
AcDbEntity
  8
1
  6
Continuous
 62
     7
100
AcDbLine
 10
145.8872255649326
 20
290.8023115481223
 30
0.0
 11
144.7252255649328
 21
290.8023115481223
 31
0.0
  0
LINE
  5
C0
330
47
100
AcDbEntity
  8
1
  6
Continuous
 62
     7
100
AcDbLine
 10
145.8872255649326
 20
290.8023115481223
 30
0.0
 11
145.8872255649326
 21
282.9643115481223
 31
0.0
  0
LINE
  5
C1
330
47
100
AcDbEntity
  8
1
  6
Continuous
 62
     7
100
AcDbLine
 10
144.7252255649328
 20
291.9643115481223
 30
0.0
 11
145.8872255649326
 21
290.8023115481223
 31
0.0
  0
LINE
  5
C2
330
47
100
AcDbEntity
  8
1
  6
Continuous
 62
     7
100
AcDbLine
 10
144.7252255649328
 20
282.9643115481223
 30
0.0
 11
145.8872255649326
 21
282.9643115481223
 31
0.0
  0
LINE
  5
C3
330
47
100
AcDbEntity
  8
1
  6
Continuous
 62
     7
100
AcDbLine
 10
124.8872255649326
 20
290.8023115481223
 30
0.0
 11
124.8872255649321
 21
282.9643115481223
 31
0.0
  0
LINE
  5
C4
330
47
100
AcDbEntity
  8
1
  6
Continuous
 62
     2
100
AcDbLine
 10
124.8872255649326
 20
280.9516685097272
 30
0.0
 11
126.0492255649329
 21
282.9643115481223
 31
0.0
  0
LINE
  5
C5
330
47
100
AcDbEntity
  8
1
  6
Continuous
 62
     7
100
AcDbLine
 10
124.8872255649321
 20
282.9643115481223
 30
0.0
 11
124.8872255649326
 21
280.9516685097272
 31
0.0
  0
LINE
  5
C6
330
47
100
AcDbEntity
  8
1
  6
Continuous
 62
     7
100
AcDbLine
 10
124.8872255649321
 20
282.9643115481223
 30
0.0
 11
126.0492255649329
 21
282.9643115481223
 31
0.0
  0
LINE
  5
C7
330
47
100
AcDbEntity
  8
1
  6
Continuous
 62
     7
100
AcDbLine
 10
124.8872255649326
 20
280.9516685097272
 30
0.0
 11
124.8872255649326
 21
279.9643115481223
 31
0.0
  0
LINE
  5
C8
330
47
100
AcDbEntity
  8
1
  6
Continuous
 62
     7
100
AcDbLine
 10
145.8872255649326
 20
282.9643115481223
 30
0.0
 11
145.8872255649326
 21
280.9516685097272
 31
0.0
  0
LINE
  5
C9
330
47
100
AcDbEntity
  8
1
  6
Continuous
 62
     7
100
AcDbLine
 10
145.8872255649326
 20
280.9516685097272
 30
0.0
 11
145.8872255649329
 21
279.9643115481223
 31
0.0
  0
LINE
  5
CA
330
47
100
AcDbEntity
  8
1
  6
Continuous
 62
     7
100
AcDbLine
 10
138.8872255649301
 20
279.9643115481223
 30
0.0
 11
149.8872255649301
 21
279.9643115481223
 31
0.0
  0
LINE
  5
CB
330
47
100
AcDbEntity
  8
1
  6
Continuous
 62
     7
100
AcDbLine
 10
138.8872255649301
 20
282.9643115481223
 30
0.0
 11
144.7252255649328
 21
282.9643115481223
 31
0.0
  0
LINE
  5
CC
330
47
100
AcDbEntity
  8
1
  6
Continuous
 62
     7
100
AcDbLine
 10
281.0014738178246
 20
269.9643115481222
 30
0.0
 11
281.5014738178226
 21
269.9643115481221
 31
0.0
  0
LINE
  5
CD
330
47
100
AcDbEntity
  8
1
  6
Continuous
 62
     7
100
AcDbLine
 10
291.6634738178225
 20
282.964311548122
 30
0.0
 11
310.3394738178223
 21
282.964311548122
 31
0.0
  0
LINE
  5
CE
330
47
100
AcDbEntity
  8
1
  6
Continuous
 62
     7
100
AcDbLine
 10
311.5014738178223
 20
290.8023115481219
 30
0.0
 11
290.5014738178223
 21
290.8023115481219
 31
0.0
  0
LINE
  5
CF
330
47
100
AcDbEntity
  8
1
  6
Continuous
 62
     2
100
AcDbLine
 10
291.6634738178225
 20
282.964311548122
 30
0.0
 11
291.6634738178226
 21
291.9643115481219
 31
0.0
  0
LINE
  5
D0
330
47
100
AcDbEntity
  8
0
  6
Continuous
 62
     7
100
AcDbLine
 10
307.9014738178219
 20
263.3643115481235
 30
0.0
 11
314.0014738178233
 21
269.4643115481251
 31
0.0
  0
LINE
  5
D1
330
47
100
AcDbEntity
  8
0
  6
Continuous
 62
     7
100
AcDbLine
 10
288.0014738178215
 20
269.4643115481252
 30
0.0
 11
294.1014738178232
 21
263.3643115481235
 31
0.0
  0
ARC
  5
D2
330
47
100
AcDbEntity
  8
1
  6
Continuous
 62
     7
100
AcDbCircle
 10
135.3872255649299
 20
409.7143115481146
 30
0.0
 40
6.499999999999801
100
AcDbArc
 50
126.8698976459061
 51
193.3423637970996
  0
ARC
  5
D3
330
47
100
AcDbEntity
  8
1
  6
Continuous
 62
     7
100
AcDbCircle
 10
135.3872255649299
 20
409.7143115481146
 30
0.0
 40
6.499999999999734
100
AcDbArc
 50
193.3423637970996
 51
346.6576362029004
  0
ARC
  5
D4
330
47
100
AcDbEntity
  8
1
  6
Continuous
 62
     7
100
AcDbCircle
 10
135.3872255649299
 20
409.7143115481146
 30
0.0
 40
6.499999999999784
100
AcDbArc
 50
53.13010235409406
 51
126.8698976459061
  0
ARC
  5
D5
330
47
100
AcDbEntity
  8
1
  6
Continuous
 62
     7
100
AcDbCircle
 10
135.3872255649299
 20
409.7143115481146
 30
0.0
 40
6.499999999999734
100
AcDbArc
 50
346.6576362029004
 51
53.13010235409406
  0
ARC
  5
D6
330
47
100
AcDbEntity
  8
1
  6
Continuous
 62
     7
100
AcDbCircle
 10
310.4200004742622
 20
270.1175996701676
 30
0.0
 40
26.07537603444948
100
AcDbArc
 50
348.7136262939993
 51
1.05692884294381
  0
ARC
  5
D7
330
47
100
AcDbEntity
  8
1
  6
Continuous
 62
     7
100
AcDbCircle
 10
305.0462949842773
 20
243.3300411576126
 30
0.0
 40
31.44464508554546
100
AcDbArc
 50
0.0
 51
10.22944486305594
  0
ARC
  5
D8
330
47
100
AcDbEntity
  8
1
  6
Continuous
 62
     7
100
AcDbCircle
 10
295.0105430290814
 20
256.9643115481223
 30
0.0
 40
41.48039704074134
100
AcDbArc
 50
351.0964323629824
 51
8.90356763701767
  0
ARC
  5
D9
330
47
100
AcDbEntity
  8
1
  6
Continuous
 62
     7
100
AcDbCircle
 10
333.6345355904856
 20
256.9643115481223
 30
0.0
 40
9.23113798401829
100
AcDbArc
 50
180.0
 51
224.0648587606763
  0
ARC
  5
DA
330
47
100
AcDbEntity
  8
1
  6
Continuous
 62
     7
100
AcDbCircle
 10
333.6345355904856
 20
242.4943115481223
 30
0.0
 40
9.231137984019119
100
AcDbArc
 50
135.9351412393237
 51
180.0
  0
ARC
  5
DB
330
47
100
AcDbEntity
  8
1
  6
Continuous
 62
     7
100
AcDbCircle
 10
333.6345355904856
 20
271.4343115481223
 30
0.0
 40
9.23113798401829
100
AcDbArc
 50
180.0
 51
224.0648587606764
  0
ARC
  5
DC
330
47
100
AcDbEntity
  8
1
  6
Continuous
 62
     7
100
AcDbCircle
 10
333.6345355904856
 20
256.9643115481223
 30
0.0
 40
9.231137984019139
100
AcDbArc
 50
135.9351412393236
 51
180.0
  0
ARC
  5
DD
330
47
100
AcDbEntity
  8
1
  6
Continuous
 62
     7
100
AcDbCircle
 10
128.8872255649297
 20
414.0165830358076
 30
0.0
 40
31.18736554122005
100
AcDbArc
 50
79.72657576677587
 51
100.273424233224
  0
ARC
  5
DE
330
47
100
AcDbEntity
  8
1
  6
Continuous
 62
     7
100
AcDbCircle
 10
141.8872255649298
 20
414.0165830358076
 30
0.0
 40
31.18736554122003
100
AcDbArc
 50
79.72657576677602
 51
100.2734242332241
  0
ARC
  5
DF
330
47
100
AcDbEntity
  8
1
  6
Continuous
 62
     7
100
AcDbCircle
 10
141.8872255649298
 20
440.3691722168476
 30
0.0
 40
7.252936880091061
100
AcDbArc
 50
219.9254077315788
 51
320.0745922684208
  0
ARC
  5
E0
330
47
100
AcDbEntity
  8
1
  6
Continuous
 62
     7
100
AcDbCircle
 10
128.8872255649297
 20
440.3691722168463
 30
0.0
 40
7.252936880090203
100
AcDbArc
 50
219.9254077315716
 51
320.0745922684288
  0
CIRCLE
  5
E1
330
47
100
AcDbEntity
  8
1
  6
Continuous
 62
     7
100
AcDbCircle
 10
135.3872255649299
 20
409.7143115481146
 30
0.0
 40
14.5000000000026
  0
CIRCLE
  5
E2
330
47
100
AcDbEntity
  8
1
  6
Continuous
 62
     7
100
AcDbCircle
 10
135.3872255649299
 20
409.7143115481146
 30
0.0
 40
10.4999999999974
  0
CIRCLE
  5
E3
330
47
100
AcDbEntity
  8
1
  6
Continuous
 62
     2
100
AcDbCircle
 10
135.3872255649299
 20
409.7143115481146
 30
0.0
 40
9.337999999997507
  0
CIRCLE
  5
E4
330
47
100
AcDbEntity
  8
1
  6
Continuous
 62
     7
100
AcDbCircle
 10
135.3872255649299
 20
409.7143115481146
 30
0.0
 40
7.0
  0
ARC
  5
E5
330
47
100
AcDbEntity
  8
1
  6
Continuous
 62
     7
100
AcDbCircle
 10
120.3872255649297
 20
436.2502099329717
 30
0.0
 40
1.999999999999999
100
AcDbArc
 50
329.9999999999962
 51
0.0
  0
ARC
  5
E6
330
47
100
AcDbEntity
  8
1
  6
Continuous
 62
     7
100
AcDbCircle
 10
150.3872255649297
 20
436.2502099329716
 30
0.0
 40
2.0
100
AcDbArc
 50
180.0
 51
209.9999999999953
  0
ARC
  5
E7
330
47
100
AcDbEntity
  8
1
  6
Continuous
 62
     7
100
AcDbCircle
 10
317.5014738178223
 20
273.464311548122
 30
0.0
 40
2.0
100
AcDbArc
 50
180.0
 51
270.0
  0
ARC
  5
E8
330
47
100
AcDbEntity
  8
1
  6
Continuous
 62
     7
100
AcDbCircle
 10
284.5014738178223
 20
273.464311548122
 30
0.0
 40
2.0
100
AcDbArc
 50
270.0
 51
0.0
  0
ENDBLK
  5
49
330
47
100
AcDbEntity
  8
0
100
AcDbBlockEnd
  0
BLOCK
  5
4B
330
4A
100
AcDbEntity
  8
0
100
AcDbBlockBegin
  2
31-81-M1
 70
     0
 10
113.3872255649301
 20
411.8443551822621
 30
0.0
  3
31-81-M1
  1

  0
LINE
  5
E9
330
4A
100
AcDbEntity
  8
1
  6
Continuous
 62
     7
100
AcDbLine
 10
149.88722556493
 20
389.714311548122
 30
0.0
 11
120.88722556493
 21
389.714311548122
 31
0.0
  0
LINE
  5
EA
330
4A
100
AcDbEntity
  8
1
  6
Continuous
 62
     7
100
AcDbLine
 10
120.88722556493
 20
362.1143115481224
 30
0.0
 11
120.88722556493
 21
366.8143115481248
 31
0.0
  0
LINE
  5
EB
330
4A
100
AcDbEntity
  8
1
  6
Continuous
 62
     7
100
AcDbLine
 10
120.88722556493
 20
366.8143115481248
 30
0.0
 11
120.88722556493
 21
372.2143115481194
 31
0.0
  0
LINE
  5
EC
330
4A
100
AcDbEntity
  8
1
  6
Continuous
 62
     7
100
AcDbLine
 10
120.88722556493
 20
372.2143115481194
 30
0.0
 11
120.88722556493
 21
389.714311548122
 31
0.0
  0
LINE
  5
ED
330
4A
100
AcDbEntity
  8
1
  6
Continuous
 62
     7
100
AcDbLine
 10
148.98722556493
 20
361.2143115481223
 30
0.0
 11
121.7872255649299
 21
361.2143115481223
 31
0.0
  0
LINE
  5
EE
330
4A
100
AcDbEntity
  8
1
  6
PHANTOM
 62
     4
100
AcDbLine
 10
135.38722556493
 20
359.7143115481223
 30
0.0
 11
135.38722556493
 21
391.3143115481273
 31
0.0
  0
LINE
  5
EF
330
4A
100
AcDbEntity
  8
1
  6
Continuous
 62
     7
100
AcDbLine
 10
149.88722556493
 20
389.714311548122
 30
0.0
 11
149.88722556493
 21
372.2143115481194
 31
0.0
  0
LINE
  5
F0
330
4A
100
AcDbEntity
  8
1
  6
Continuous
 62
     7
100
AcDbLine
 10
149.88722556493
 20
372.2143115481194
 30
0.0
 11
149.88722556493
 21
366.8143115481248
 31
0.0
  0
LINE
  5
F1
330
4A
100
AcDbEntity
  8
1
  6
Continuous
 62
     7
100
AcDbLine
 10
149.88722556493
 20
366.8143115481248
 30
0.0
 11
149.88722556493
 21
362.1143115481224
 31
0.0
  0
LINE
  5
F2
330
4A
100
AcDbEntity
  8
1
  6
Continuous
 62
     7
100
AcDbLine
 10
252.501473817825
 20
243.3643115481222
 30
0.0
 11
252.501473817825
 21
270.5643115481223
 31
0.0
  0
LINE
  5
F3
330
4A
100
AcDbEntity
  8
1
  6
Continuous
 62
     7
100
AcDbLine
 10
258.1014738178274
 20
242.4643115481223
 30
0.0
 11
253.4014738178251
 21
242.4643115481223
 31
0.0
  0
LINE
  5
F4
330
4A
100
AcDbEntity
  8
1
  6
Continuous
 62
     7
100
AcDbLine
 10
263.501473817822
 20
242.4643115481223
 30
0.0
 11
258.1014738178274
 21
242.4643115481223
 31
0.0
  0
LINE
  5
F5
330
4A
100
AcDbEntity
  8
1
  6
Continuous
 62
     7
100
AcDbLine
 10
281.0014738178246
 20
271.4643115481223
 30
0.0
 11
281.0014738178246
 21
242.4643115481223
 31
0.0
  0
LINE
  5
F6
330
4A
100
AcDbEntity
  8
1
  6
Continuous
 62
     7
100
AcDbLine
 10
253.4014738178251
 20
271.4643115481223
 30
0.0
 11
281.0014738178246
 21
271.4643115481223
 31
0.0
  0
LINE
  5
F7
330
4A
100
AcDbEntity
  8
1
  6
Continuous
 62
     7
100
AcDbLine
 10
281.0014738178246
 20
242.4643115481223
 30
0.0
 11
263.501473817822
 21
242.4643115481223
 31
0.0
  0
LINE
  5
F8
330
4A
100
AcDbEntity
  8
1
  6
PHANTOM
 62
     4
100
AcDbLine
 10
251.001473817825
 20
256.9643115481223
 30
0.0
 11
282.6014738178299
 21
256.9643115481223
 31
0.0
  0
LINE
  5
F9
330
4A
100
AcDbEntity
  8
1
  6
PHANTOM
 62
     4
100
AcDbLine
 10
263.0014738178259
 20
263.8643115481216
 30
0.0
 11
263.0014738178259
 21
272.9643115481223
 31
0.0
  0
CIRCLE
  5
FA
330
4A
100
AcDbEntity
  8
1
  6
Continuous
 62
     7
100
AcDbCircle
 10
135.3872255649301
 20
256.9643115481223
 30
0.0
 40
14.5
  0
ARC
  5
FB
330
4A
100
AcDbEntity
  8
1
  6
Continuous
 62
     7
100
AcDbCircle
 10
121.7872255649299
 20
362.1143115481224
 30
0.0
 40
0.899999999999892
100
AcDbArc
 50
180.0
 51
270.0
  0
ARC
  5
FC
330
4A
100
AcDbEntity
  8
1
  6
Continuous
 62
     7
100
AcDbCircle
 10
148.98722556493
 20
362.1143115481224
 30
0.0
 40
0.900000000000091
100
AcDbArc
 50
270.0
 51
0.0
  0
ARC
  5
FD
330
4A
100
AcDbEntity
  8
1
  6
Continuous
 62
     7
100
AcDbCircle
 10
253.4014738178251
 20
270.5643115481223
 30
0.0
 40
0.8999999999999773
100
AcDbArc
 50
90.0
 51
180.0
  0
ARC
  5
FE
330
4A
100
AcDbEntity
  8
1
  6
Continuous
 62
     7
100
AcDbCircle
 10
253.4014738178251
 20
243.3643115481222
 30
0.0
 40
0.900000000000091
100
AcDbArc
 50
180.0
 51
270.0
  0
ENDBLK
  5
4C
330
4A
100
AcDbEntity
  8
0
100
AcDbBlockEnd
  0
BLOCK
  5
4E
330
4D
100
AcDbEntity
  8
0
100
AcDbBlockBegin
  2
34-160-M11
 70
     0
 10
113.3872255649301
 20
411.8443551822621
 30
0.0
  3
34-160-M11
  1

  0
LINE
  5
FF
330
4D
100
AcDbEntity
  8
1
  6
PHANTOM
 62
     4
100
AcDbLine
 10
135.387225564931
 20
281.8643115481223
 30
0.0
 11
135.3872255649313
 21
294.4643115481222
 31
0.0
  0
LINE
  5
100
330
4D
100
AcDbEntity
  8
1
  6
Continuous
 62
     7
100
AcDbLine
 10
138.887225564931
 20
288.6643115481223
 30
0.0
 11
138.6872255649312
 21
288.4643115481223
 31
0.0
  0
LINE
  5
101
330
4D
100
AcDbEntity
  8
1
  6
Continuous
 62
     7
100
AcDbLine
 10
131.887225564931
 20
288.6643115481223
 30
0.0
 11
132.0872255649311
 21
288.4643115481223
 31
0.0
  0
LINE
  5
102
330
4D
100
AcDbEntity
  8
1
  6
Continuous
 62
     7
100
AcDbLine
 10
138.887225564931
 20
288.6643115481223
 30
0.0
 11
138.887225564931
 21
289.9643115481223
 31
0.0
  0
LINE
  5
103
330
4D
100
AcDbEntity
  8
1
  6
Continuous
 62
     7
100
AcDbLine
 10
131.887225564931
 20
288.6643115481223
 30
0.0
 11
131.887225564931
 21
289.9643115481223
 31
0.0
  0
LINE
  5
104
330
4D
100
AcDbEntity
  8
1
  6
Continuous
 62
     7
100
AcDbLine
 10
132.3872255649313
 20
290.4643115481222
 30
0.0
 11
138.3872255649313
 21
290.4643115481222
 31
0.0
  0
LINE
  5
105
330
4D
100
AcDbEntity
  8
1
  6
Continuous
 62
     7
100
AcDbLine
 10
132.0872255649311
 20
288.4643115481223
 30
0.0
 11
138.6872255649312
 21
288.4643115481223
 31
0.0
  0
LINE
  5
106
330
4D
100
AcDbEntity
  8
1
  6
Continuous
 62
     7
100
AcDbLine
 10
265.6514738178269
 20
288.4643115481223
 30
0.0
 11
266.301473817827
 21
288.4643115481223
 31
0.0
  0
LINE
  5
107
330
4D
100
AcDbEntity
  8
1
  6
Continuous
 62
     7
100
AcDbLine
 10
259.701473817827
 20
288.4643115481223
 30
0.0
 11
260.3514738178267
 21
288.4643115481223
 31
0.0
  0
LINE
  5
108
330
4D
100
AcDbEntity
  8
1
  6
Continuous
 62
     7
100
AcDbLine
 10
260.001473817827
 20
290.4643115481222
 30
0.0
 11
266.001473817827
 21
290.4643115481222
 31
0.0
  0
LINE
  5
109
330
4D
100
AcDbEntity
  8
1
  6
Continuous
 62
     7
100
AcDbLine
 10
259.5014738178268
 20
288.6643115481223
 30
0.0
 11
259.501473817827
 21
289.9643115481223
 31
0.0
  0
LINE
  5
10A
330
4D
100
AcDbEntity
  8
1
  6
Continuous
 62
     7
100
AcDbLine
 10
266.5014738178268
 20
288.6643115481223
 30
0.0
 11
266.501473817827
 21
289.9643115481223
 31
0.0
  0
LINE
  5
10B
330
4D
100
AcDbEntity
  8
1
  6
Continuous
 62
     7
100
AcDbLine
 10
259.5014738178268
 20
288.6643115481223
 30
0.0
 11
259.701473817827
 21
288.4643115481223
 31
0.0
  0
LINE
  5
10C
330
4D
100
AcDbEntity
  8
1
  6
Continuous
 62
     7
100
AcDbLine
 10
266.5014738178268
 20
288.6643115481223
 30
0.0
 11
266.301473817827
 21
288.4643115481223
 31
0.0
  0
LINE
  5
10D
330
4D
100
AcDbEntity
  8
1
  6
PHANTOM
 62
     4
100
AcDbLine
 10
263.0014738178268
 20
281.8643115481223
 30
0.0
 11
263.001473817827
 21
293.4643115481222
 31
0.0
  0
CIRCLE
  5
10E
330
4D
100
AcDbEntity
  8
1
  6
Continuous
 62
     7
100
AcDbCircle
 10
135.38722556493
 20
371.7143115481223
 30
0.0
 40
3.5
  0
ARC
  5
10F
330
4D
100
AcDbEntity
  8
1
  6
Continuous
 62
     7
100
AcDbCircle
 10
132.3872255649313
 20
289.9643115481223
 30
0.0
 40
0.4999999999999432
100
AcDbArc
 50
90.0
 51
180.0
  0
ARC
  5
110
330
4D
100
AcDbEntity
  8
1
  6
Continuous
 62
     7
100
AcDbCircle
 10
138.3872255649313
 20
289.9643115481223
 30
0.0
 40
0.4999999999996874
100
AcDbArc
 50
0.0
 51
90.0
  0
ARC
  5
111
330
4D
100
AcDbEntity
  8
1
  6
Continuous
 62
     7
100
AcDbCircle
 10
266.001473817827
 20
289.9643115481223
 30
0.0
 40
0.5
100
AcDbArc
 50
0.0
 51
90.0
  0
ARC
  5
112
330
4D
100
AcDbEntity
  8
1
  6
Continuous
 62
     7
100
AcDbCircle
 10
260.001473817827
 20
289.9643115481223
 30
0.0
 40
0.4999999999999432
100
AcDbArc
 50
90.0
 51
180.0
  0
ENDBLK
  5
4F
330
4D
100
AcDbEntity
  8
0
100
AcDbBlockEnd
  0
BLOCK
  5
51
330
50
100
AcDbEntity
  8
0
100
AcDbBlockBegin
  2
37-311-M11
 70
     0
 10
298.3872255649301
 20
653.8443551822621
 30
0.0
  3
37-311-M11
  1

  0
LINE
  5
113
330
50
100
AcDbEntity
  8
0
  6
PHANTOM
 62
     4
100
AcDbLine
 10
263.0014738178259
 20
260.4643115481224
 30
0.0
 11
263.0014738178259
 21
291.4643115481223
 31
0.0
  0
LINE
  5
114
330
50
100
AcDbEntity
  8
1
  6
Continuous
 62
     7
100
AcDbLine
 10
259.701473817827
 20
288.4643115481223
 30
0.0
 11
259.5014738178271
 21
288.2643115481222
 31
0.0
  0
LINE
  5
115
330
50
100
AcDbEntity
  8
1
  6
Continuous
 62
     7
100
AcDbLine
 10
259.5014738178271
 20
288.2643115481222
 30
0.0
 11
259.5014738178277
 21
271.4643115481223
 31
0.0
  0
LINE
  5
116
330
50
100
AcDbEntity
  8
1
  6
Continuous
 62
     7
100
AcDbLine
 10
259.701473817827
 20
288.4643115481223
 30
0.0
 11
266.3014738178247
 21
288.4643115481223
 31
0.0
  0
LINE
  5
117
330
50
100
AcDbEntity
  8
1
  6
Continuous
 62
     7
100
AcDbLine
 10
266.5014738178246
 20
288.2643115481222
 30
0.0
 11
266.3014738178247
 21
288.4643115481223
 31
0.0
  0
LINE
  5
118
330
50
100
AcDbEntity
  8
1
  6
Continuous
 62
     7
100
AcDbLine
 10
266.5014738178259
 20
271.4643115481223
 30
0.0
 11
266.5014738178246
 21
288.2643115481222
 31
0.0
  0
LINE
  5
119
330
50
100
AcDbEntity
  8
1
  6
Continuous
 62
     7
100
AcDbLine
 10
138.8872255649301
 20
271.0355588275926
 30
0.0
 11
138.8872255649301
 21
288.2643115481222
 31
0.0
  0
LINE
  5
11A
330
50
100
AcDbEntity
  8
1
  6
Continuous
 62
     7
100
AcDbLine
 10
132.0872255649322
 20
288.4643115481223
 30
0.0
 11
138.6872255649299
 21
288.4643115481223
 31
0.0
  0
LINE
  5
11B
330
50
100
AcDbEntity
  8
1
  6
Continuous
 62
     7
100
AcDbLine
 10
138.8872255649301
 20
288.2643115481222
 30
0.0
 11
138.6872255649299
 21
288.4643115481223
 31
0.0
  0
LINE
  5
11C
330
50
100
AcDbEntity
  8
0
  6
PHANTOM
 62
     4
100
AcDbLine
 10
135.3872255649301
 20
260.4643115481224
 30
0.0
 11
135.3872255649313
 21
291.4643115481223
 31
0.0
  0
LINE
  5
11D
330
50
100
AcDbEntity
  8
1
  6
Continuous
 62
     7
100
AcDbLine
 10
132.0872255649322
 20
288.4643115481223
 30
0.0
 11
131.8872255649322
 21
288.2643115481222
 31
0.0
  0
LINE
  5
11E
330
50
100
AcDbEntity
  8
1
  6
Continuous
 62
     7
100
AcDbLine
 10
131.8872255649322
 20
288.2643115481222
 30
0.0
 11
131.887225564932
 21
271.0355588275931
 31
0.0
  0
ENDBLK
  5
52
330
50
100
AcDbEntity
  8
0
100
AcDbBlockEnd
  0
BLOCK
  5
54
330
53
100
AcDbEntity
  8
0
100
AcDbBlockBegin
  2
開示A4
 70
     0
 10
0.0
 20
0.0
 30
0.0
  3
開示A4
  1

  0
POINT
  5
11F
330
53
100
AcDbEntity
  8
1
 62
     4
100
AcDbPoint
 10
34.0
 20
34.00000000000001
 30
0.0
  0
POINT
  5
120
330
53
100
AcDbEntity
  8
1
 62
     4
100
AcDbPoint
 10
57.0
 20
12.25
 30
0.0
  0
POINT
  5
121
330
53
100
AcDbEntity
  8
1
 62
     4
100
AcDbPoint
 10
57.0
 20
20.75000000000001
 30
0.0
  0
POINT
  5
122
330
53
100
AcDbEntity
  8
1
 62
     4
100
AcDbPoint
 10
57.0
 20
24.75000000000001
 30
0.0
  0
POINT
  5
123
330
53
100
AcDbEntity
  8
1
 62
     4
100
AcDbPoint
 10
57.0
 20
16.25
 30
0.0
  0
POINT
  5
124
330
53
100
AcDbEntity
  8
1
 62
     4
100
AcDbPoint
 10
157.5
 20
19.00000000000001
 30
0.0
  0
POINT
  5
125
330
53
100
AcDbEntity
  8
1
 62
     4
100
AcDbPoint
 10
47.5
 20
282.0000000000003
 30
0.0
  0
POINT
  5
126
330
53
100
AcDbEntity
  8
1
 62
     4
100
AcDbPoint
 10
57.0
 20
22.75000000000001
 30
0.0
  0
POINT
  5
127
330
53
100
AcDbEntity
  8
1
 62
     4
100
AcDbPoint
 10
57.0
 20
14.25
 30
0.0
  0
POINT
  5
128
330
53
100
AcDbEntity
  8
1
 62
     4
100
AcDbPoint
 10
157.5
 20
12.5
 30
0.0
  0
POINT
  5
129
330
53
100
AcDbEntity
  8
1
 62
     4
100
AcDbPoint
 10
163.25
 20
12.5
 30
0.0
  0
POINT
  5
12A
330
53
100
AcDbEntity
  8
1
 62
     4
100
AcDbPoint
 10
151.75
 20
12.5
 30
0.0
  0
POINT
  5
12B
330
53
100
AcDbEntity
  8
1
 62
     4
100
AcDbPoint
 10
134.75
 20
12.5
 30
0.0
  0
POINT
  5
12C
330
53
100
AcDbEntity
  8
1
 62
     4
100
AcDbPoint
 10
146.25
 20
12.5
 30
0.0
  0
POINT
  5
12D
330
53
100
AcDbEntity
  8
1
 62
     4
100
AcDbPoint
 10
140.5
 20
12.5
 30
0.0
  0
POINT
  5
12E
330
53
100
AcDbEntity
  8
1
 62
     4
100
AcDbPoint
 10
140.5
 20
19.00000000000001
 30
0.0
  0
POINT
  5
12F
330
53
100
AcDbEntity
  8
1
 62
     4
100
AcDbPoint
 10
117.75
 20
12.5
 30
0.0
  0
POINT
  5
130
330
53
100
AcDbEntity
  8
1
 62
     4
100
AcDbPoint
 10
129.25
 20
12.5
 30
0.0
  0
POINT
  5
131
330
53
100
AcDbEntity
  8
1
 62
     4
100
AcDbPoint
 10
123.5
 20
12.5
 30
0.0
  0
POINT
  5
132
330
53
100
AcDbEntity
  8
1
 62
     4
100
AcDbPoint
 10
123.5
 20
19.00000000000001
 30
0.0
  0
POINT
  5
133
330
53
100
AcDbEntity
  8
1
 62
     4
100
AcDbPoint
 10
100.75
 20
12.5
 30
0.0
  0
POINT
  5
134
330
53
100
AcDbEntity
  8
1
 62
     4
100
AcDbPoint
 10
112.25
 20
12.5
 30
0.0
  0
POINT
  5
135
330
53
100
AcDbEntity
  8
1
 62
     4
100
AcDbPoint
 10
106.5
 20
12.5
 30
0.0
  0
POINT
  5
136
330
53
100
AcDbEntity
  8
1
 62
     4
100
AcDbPoint
 10
106.5
 20
19.00000000000001
 30
0.0
  0
POINT
  5
137
330
53
100
AcDbEntity
  8
1
 62
     4
100
AcDbPoint
 10
85.25
 20
17.0
 30
0.0
  0
POINT
  5
138
330
53
100
AcDbEntity
  8
1
 62
     4
100
AcDbPoint
 10
93.75
 20
17.0
 30
0.0
  0
LINE
  5
139
330
53
100
AcDbEntity
  8
1
  6
Continuous
 62
     2
100
AcDbLine
 10
81.0
 20
27.00000000000001
 30
0.0
 11
81.0
 21
10.0
 31
0.0
  0
LINE
  5
13A
330
53
100
AcDbEntity
  8
1
  6
DOT_CENTER
 62
     2
100
AcDbLine
 10
187.0
 20
26.50000000000001
 30
0.0
 11
187.0
 21
20.50000000000001
 31
0.0
  0
LINE
  5
13B
330
53
100
AcDbEntity
  8
1
  6
DOT_CENTER
 62
     2
100
AcDbLine
 10
184.0
 20
23.50000000000001
 30
0.0
 11
197.0
 21
23.50000000000001
 31
0.0
  0
LINE
  5
13C
330
53
100
AcDbEntity
  8
1
  6
Continuous
 62
     7
100
AcDbLine
 10
196.0
 20
21.50000000000001
 30
0.0
 11
191.0
 21
22.30000000000001
 31
0.0
  0
LINE
  5
13D
330
53
100
AcDbEntity
  8
1
  6
Continuous
 62
     7
100
AcDbLine
 10
196.0
 20
25.50000000000001
 30
0.0
 11
196.0
 21
21.50000000000001
 31
0.0
  0
LINE
  5
13E
330
53
100
AcDbEntity
  8
1
  6
Continuous
 62
     7
100
AcDbLine
 10
191.0
 20
24.70000000000001
 30
0.0
 11
196.0
 21
25.50000000000001
 31
0.0
  0
LINE
  5
13F
330
53
100
AcDbEntity
  8
1
  6
Continuous
 62
     7
100
AcDbLine
 10
191.0
 20
24.70000000000001
 30
0.0
 11
191.0
 21
22.30000000000001
 31
0.0
  0
LINE
  5
140
330
53
100
AcDbEntity
  8
1
  6
Continuous
 62
     2
100
AcDbLine
 10
33.0
 20
27.0
 30
0.0
 11
33.0
 21
10.0
 31
0.0
  0
LINE
  5
141
330
53
100
AcDbEntity
  8
1
  6
Continuous
 62
     2
100
AcDbLine
 10
25.0
 20
18.50000000000001
 30
0.0
 11
81.0
 21
18.50000000000001
 31
0.0
  0
LINE
  5
142
330
53
100
AcDbEntity
  8
1
  6
Continuous
 62
     7
100
AcDbLine
 10
200.0
 20
287.0000000000003
 30
0.0
 11
105.0
 21
287.0000000000003
 31
0.0
  0
LINE
  5
143
330
53
100
AcDbEntity
  8
1
  6
Continuous
 62
     7
100
AcDbLine
 10
200.0
 20
10.0
 30
0.0
 11
200.0
 21
148.5
 31
0.0
  0
LINE
  5
144
330
53
100
AcDbEntity
  8
1
  6
Continuous
 62
     7
100
AcDbLine
 10
25.0
 20
10.0
 30
0.0
 11
105.0
 21
10.0
 31
0.0
  0
LINE
  5
145
330
53
100
AcDbEntity
  8
1
  6
PHANTOM
 62
     4
100
AcDbLine
 10
0.0
 20
297.0
 30
0.0
 11
0.0
 21
0.0
 31
0.0
  0
LINE
  5
146
330
53
100
AcDbEntity
  8
1
  6
PHANTOM
 62
     4
100
AcDbLine
 10
210.0
 20
297.0
 30
0.0
 11
0.0
 21
297.0
 31
0.0
  0
LINE
  5
147
330
53
100
AcDbEntity
  8
1
  6
PHANTOM
 62
     4
100
AcDbLine
 10
210.0
 20
0.0
 30
0.0
 11
210.0
 21
297.0
 31
0.0
  0
LINE
  5
148
330
53
100
AcDbEntity
  8
1
  6
PHANTOM
 62
     4
100
AcDbLine
 10
0.0
 20
0.0
 30
0.0
 11
210.0
 21
0.0
 31
0.0
  0
LINE
  5
149
330
53
100
AcDbEntity
  8
1
  6
Continuous
 62
     7
100
AcDbLine
 10
25.0
 20
41.0
 30
0.0
 11
200.0
 21
41.0
 31
0.0
  0
LINE
  5
14A
330
53
100
AcDbEntity
  8
1
  6
Continuous
 62
     7
100
AcDbLine
 10
200.0
 20
27.00000000000001
 30
0.0
 11
25.0
 21
27.00000000000001
 31
0.0
  0
LINE
  5
14B
330
53
100
AcDbEntity
  8
1
  6
Continuous
 62
     2
100
AcDbLine
 10
33.0
 20
41.00000000000001
 30
0.0
 11
33.0
 21
27.0
 31
0.0
  0
LINE
  5
14C
330
53
100
AcDbEntity
  8
1
  6
Continuous
 62
     2
100
AcDbLine
 10
55.0
 20
287.0000000000003
 30
0.0
 11
55.0
 21
277.0000000000003
 31
0.0
  0
LINE
  5
14D
330
53
100
AcDbEntity
  8
1
  6
Continuous
 62
     2
100
AcDbLine
 10
40.0
 20
287.0000000000003
 30
0.0
 11
40.0
 21
277.0000000000003
 31
0.0
  0
LINE
  5
14E
330
53
100
AcDbEntity
  8
1
  6
Continuous
 62
     7
100
AcDbLine
 10
25.0
 20
10.0
 30
0.0
 11
25.0
 21
148.5
 31
0.0
  0
LINE
  5
14F
330
53
100
AcDbEntity
  8
1
  6
Continuous
 62
     2
100
AcDbLine
 10
55.0
 20
277.0000000000003
 30
0.0
 11
25.0
 21
277.0000000000003
 31
0.0
  0
LINE
  5
150
330
53
100
AcDbEntity
  8
1
  6
Continuous
 62
     2
100
AcDbLine
 10
166.0
 20
27.00000000000001
 30
0.0
 11
166.0
 21
10.0
 31
0.0
  0
LINE
  5
151
330
53
100
AcDbEntity
  8
1
  6
Continuous
 62
     2
100
AcDbLine
 10
132.0
 20
27.00000000000001
 30
0.0
 11
132.0
 21
9.99999999999999
 31
0.0
  0
LINE
  5
152
330
53
100
AcDbEntity
  8
1
  6
Continuous
 62
     2
100
AcDbLine
 10
149.0
 20
27.00000000000001
 30
0.0
 11
149.0
 21
10.0
 31
0.0
  0
LINE
  5
153
330
53
100
AcDbEntity
  8
1
  6
Continuous
 62
     2
100
AcDbLine
 10
115.0
 20
27.00000000000001
 30
0.0
 11
115.0
 21
9.99999999999999
 31
0.0
  0
LINE
  5
154
330
53
100
AcDbEntity
  8
1
  6
Continuous
 62
     2
100
AcDbLine
 10
98.0
 20
27.00000000000001
 30
0.0
 11
98.0
 21
9.99999999999999
 31
0.0
  0
LINE
  5
155
330
53
100
AcDbEntity
  8
1
  6
Continuous
 62
     2
100
AcDbLine
 10
166.0
 20
20.00000000000001
 30
0.0
 11
200.0
 21
20.00000000000001
 31
0.0
  0
LINE
  5
156
330
53
100
AcDbEntity
  8
1
  6
Continuous
 62
     2
100
AcDbLine
 10
105.0
 20
287.0000000000003
 30
0.0
 11
105.0
 21
292.0000000000003
 31
0.0
  0
LINE
  5
157
330
53
100
AcDbEntity
  8
1
  6
Continuous
 62
     7
100
AcDbLine
 10
105.0
 20
287.0000000000003
 30
0.0
 11
25.0
 21
287.0000000000003
 31
0.0
  0
LINE
  5
158
330
53
100
AcDbEntity
  8
1
  6
Continuous
 62
     2
100
AcDbLine
 10
25.0
 20
148.5
 30
0.0
 11
20.0
 21
148.5
 31
0.0
  0
LINE
  5
159
330
53
100
AcDbEntity
  8
1
  6
Continuous
 62
     7
100
AcDbLine
 10
25.0
 20
148.5
 30
0.0
 11
25.0
 21
287.0000000000003
 31
0.0
  0
LINE
  5
15A
330
53
100
AcDbEntity
  8
1
  6
Continuous
 62
     2
100
AcDbLine
 10
200.0
 20
148.5
 30
0.0
 11
205.0
 21
148.5
 31
0.0
  0
LINE
  5
15B
330
53
100
AcDbEntity
  8
1
  6
Continuous
 62
     7
100
AcDbLine
 10
200.0
 20
148.5
 30
0.0
 11
200.0
 21
287.0000000000003
 31
0.0
  0
LINE
  5
15C
330
53
100
AcDbEntity
  8
1
  6
Continuous
 62
     2
100
AcDbLine
 10
105.0
 20
10.0
 30
0.0
 11
105.0
 21
5.0
 31
0.0
  0
LINE
  5
15D
330
53
100
AcDbEntity
  8
1
  6
Continuous
 62
     7
100
AcDbLine
 10
105.0
 20
10.0
 30
0.0
 11
200.0
 21
10.0
 31
0.0
  0
CIRCLE
  5
15E
330
53
100
AcDbEntity
  8
1
  6
DOT_CENTER
 62
     7
100
AcDbCircle
 10
89.5
 20
18.0
 30
0.0
 40
0.1000000000000227
  0
CIRCLE
  5
15F
330
53
100
AcDbEntity
  8
1
  6
DOT_CENTER
 62
     7
100
AcDbCircle
 10
89.5
 20
16.0
 30
0.0
 40
0.1000000000000227
  0
CIRCLE
  5
160
330
53
100
AcDbEntity
  8
1
  6
Continuous
 62
     7
100
AcDbCircle
 10
187.0
 20
23.50000000000001
 30
0.0
 40
2.0
  0
CIRCLE
  5
161
330
53
100
AcDbEntity
  8
1
  6
Continuous
 62
     7
100
AcDbCircle
 10
187.0
 20
23.50000000000001
 30
0.0
 40
1.200000000000102
  0
CIRCLE
  5
162
330
53
100
AcDbEntity
  8
1
  6
Continuous
 62
     7
100
AcDbCircle
 10
154.5
 20
12.5
 30
0.0
 40
0.3000000000000114
  0
CIRCLE
  5
163
330
53
100
AcDbEntity
  8
1
  6
Continuous
 62
     7
100
AcDbCircle
 10
160.5
 20
12.5
 30
0.0
 40
0.3000000000000114
  0
CIRCLE
  5
164
330
53
100
AcDbEntity
  8
1
  6
Continuous
 62
     7
100
AcDbCircle
 10
143.5
 20
12.5
 30
0.0
 40
0.3000000000000114
  0
CIRCLE
  5
165
330
53
100
AcDbEntity
  8
1
  6
Continuous
 62
     7
100
AcDbCircle
 10
137.5
 20
12.5
 30
0.0
 40
0.3000000000000114
  0
CIRCLE
  5
166
330
53
100
AcDbEntity
  8
1
  6
Continuous
 62
     7
100
AcDbCircle
 10
126.5
 20
12.5
 30
0.0
 40
0.2999999999999972
  0
CIRCLE
  5
167
330
53
100
AcDbEntity
  8
1
  6
Continuous
 62
     7
100
AcDbCircle
 10
120.5
 20
12.5
 30
0.0
 40
0.2999999999999972
  0
CIRCLE
  5
168
330
53
100
AcDbEntity
  8
1
  6
Continuous
 62
     7
100
AcDbCircle
 10
109.5
 20
12.5
 30
0.0
 40
0.2999999999999972
  0
CIRCLE
  5
169
330
53
100
AcDbEntity
  8
1
  6
Continuous
 62
     7
100
AcDbCircle
 10
103.5
 20
12.5
 30
0.0
 40
0.2999999999999972
  0
MTEXT
  5
16B
330
53
100
AcDbEntity
  8
1
 62
   250
100
AcDbMText
 10
25.0
 20
5.0
 30
0.0
 40
3.5
 41
0.0
 71
     4
 72
     1
  1
備考欄の文字列 原点位置=4
  7
CONVERTER_11
 73
     1
 44
0.54545454545455
  0
MTEXT
  5
16C
330
53
100
AcDbEntity
  8
1
 62
     2
100
AcDbMText
 10
89.5
 20
24.00000000000001
 30
0.0
 40
3.5
 41
0.0
 71
     5
 72
     1
  1
尺度
  7
CONVERTER_11
 73
     1
 44
0.54545454545455
  0
MTEXT
  5
16D
330
53
100
AcDbEntity
  8
1
 62
     2
100
AcDbMText
 10
135.5
 20
25.00000000000001
 30
0.0
 40
3.0
 41
0.0
 71
     5
 72
     1
  1
製図
  7
CONVERTER_11
 73
     1
 44
0.59090909090909
  0
MTEXT
  5
16E
330
53
100
AcDbEntity
  8
1
 62
     2
100
AcDbMText
 10
152.5
 20
25.00000000000001
 30
0.0
 40
3.0
 41
0.0
 71
     5
 72
     1
  1
設計
  7
CONVERTER_11
 73
     1
 44
0.59090909090909
  0
MTEXT
  5
16F
330
53
100
AcDbEntity
  8
1
 62
     2
100
AcDbMText
 10
118.5
 20
25.00000000000001
 30
0.0
 40
3.0
 41
0.0
 71
     5
 72
     1
  1
検図
  7
CONVERTER_11
 73
     1
 44
0.59090909090909
  0
MTEXT
  5
170
330
53
100
AcDbEntity
  8
1
 62
     2
100
AcDbMText
 10
175.0
 20
23.50000000000001
 30
0.0
 40
3.5
 41
0.0
 71
     5
 72
     1
  1
第三角法
  7
CONVERTER_11
 73
     1
 44
0.54545454545455
  0
MTEXT
  5
171
330
53
100
AcDbEntity
  8
1
 62
     2
100
AcDbMText
 10
101.5
 20
25.00000000000001
 30
0.0
 40
3.0
 41
0.0
 71
     5
 72
     1
  1
承認
  7
CONVERTER_11
 73
     1
 44
0.59090909090909
  0
MTEXT
  5
172
330
53
100
AcDbEntity
  8
1
 62
     2
100
AcDbMText
 10
29.0
 20
14.25
 30
0.0
 40
3.5
 41
0.0
 71
     5
 72
     1
  1
品番
  7
CONVERTER_11
 73
     1
 44
0.72727272727273
  0
MTEXT
  5
173
330
53
100
AcDbEntity
  8
1
 62
     2
100
AcDbMText
 10
29.0
 20
22.75
 30
0.0
 40
3.5
 41
0.0
 71
     5
 72
     1
  1
品名
  7
CONVERTER_11
 73
     1
 44
0.72727272727273
  0
MTEXT
  5
174
330
53
100
AcDbEntity
  8
1
 62
     2
100
AcDbMText
 10
29.0
 20
34.00000000000001
 30
0.0
 40
3.5
 41
0.0
 71
     5
 72
     1
  1
備考
  7
CONVERTER_11
 73
     1
 44
0.45454545454545
  0
MTEXT
  5
175
330
53
100
AcDbEntity
  8
1
 62
     2
100
AcDbMText
 10
32.5
 20
282.0000000000003
 30
0.0
 40
5.0
 41
0.0
 71
     5
 72
     1
  1
図番
  7
CONVERTER_11
 73
     1
 44
0.45454545454545
  0
MTEXT
  5
176
330
53
100
AcDbEntity
  8
1
 62
     7
100
AcDbMText
 10
171.5
 20
15.0
 30
0.0
 40
2.5
 41
0.0
 71
     5
 72
     1
  1
株式会社
  7
CONVERTER_11
 73
     1
 44
1.0
  0
MTEXT
  5
177
330
53
100
AcDbEntity
  8
1
 62
     7
100
AcDbMText
 10
188.5
 20
15.0
 30
0.0
 40
3.0
 41
0.0
 71
     5
 72
     1
  1
三栄水栓製作所
  7
CONVERTER_11
 73
     1
 44
1.0
  0
ENDBLK
  5
55
330
53
100
AcDbEntity
  8
0
100
AcDbBlockEnd
  0
BLOCK
  5
57
330
56
100
AcDbEntity
  8
0
100
AcDbBlockBegin
  2
32-88
 70
     0
 10
0.0
 20
594.0
 30
0.0
  3
32-88
  1

  0
LINE
  5
178
330
56
100
AcDbEntity
  8
1
  6
Continuous
 62
     7
100
AcDbLine
 10
132.3872255649365
 20
414.3143115481106
 30
0.0
 11
132.7522819292024
 21
414.3143115481106
 31
0.0
  0
LINE
  5
179
330
56
100
AcDbEntity
  8
1
  6
Continuous
 62
     7
100
AcDbLine
 10
133.6551747573676
 20
413.8502099329728
 30
0.0
 11
133.6551747573676
 21
411.8143115481106
 31
0.0
  0
LINE
  5
17A
330
56
100
AcDbEntity
  8
1
  6
Continuous
 62
     7
100
AcDbLine
 10
132.3872255649365
 20
414.3143115481106
 30
0.0
 11
131.9231239497987
 21
413.8502099329728
 31
0.0
  0
LINE
  5
17B
330
56
100
AcDbEntity
  8
1
  6
Continuous
 62
     7
100
AcDbLine
 10
131.9231239497987
 20
413.8502099329728
 30
0.0
 11
131.9231239497987
 21
411.8143115481106
 31
0.0
  0
LINE
  5
17C
330
56
100
AcDbEntity
  8
1
  6
Continuous
 62
     7
100
AcDbLine
 10
131.9231239497987
 20
411.8143115481106
 30
0.0
 11
133.6551747573676
 21
411.8143115481106
 31
0.0
  0
LINE
  5
17D
330
56
100
AcDbEntity
  8
1
  6
PHANTOM
 62
     4
100
AcDbLine
 10
135.3872255649365
 20
411.123023069009
 30
0.0
 11
135.3872255649365
 21
411.8143115481106
 31
0.0
  0
LINE
  5
17E
330
56
100
AcDbEntity
  8
1
  6
Continuous
 62
     7
100
AcDbLine
 10
135.3872255649365
 20
414.3143115481106
 30
0.0
 11
132.7962868787096
 21
414.3143115481106
 31
0.0
  0
LINE
  5
17F
330
56
100
AcDbEntity
  8
1
  6
Continuous
 62
     7
100
AcDbLine
 10
135.38722556493
 20
411.8143115481106
 30
0.0
 11
133.6551747573676
 21
411.8143115481106
 31
0.0
  0
LINE
  5
180
330
56
100
AcDbEntity
  8
1
  6
PHANTOM
 62
     4
100
AcDbLine
 10
135.3872255649365
 20
414.3143115481106
 30
0.0
 11
135.3872255649365
 21
414.9876331990183
 31
0.0
  0
LINE
  5
181
330
56
100
AcDbEntity
  8
1
  6
PHANTOM
 62
     4
100
AcDbLine
 10
135.38722556493
 20
414.3143115481106
 30
0.0
 11
135.38722556493
 21
411.8143115481106
 31
0.0
  0
LINE
  5
182
330
56
100
AcDbEntity
  8
1
  6
Continuous
 62
     7
100
AcDbLine
 10
137.1192763724989
 20
411.8143115481106
 30
0.0
 11
135.38722556493
 21
411.8143115481106
 31
0.0
  0
LINE
  5
183
330
56
100
AcDbEntity
  8
1
  6
Continuous
 62
     7
100
AcDbLine
 10
137.9781642511569
 20
414.3143115481106
 30
0.0
 11
135.3872255649365
 21
414.3143115481106
 31
0.0
  0
LINE
  5
184
330
56
100
AcDbEntity
  8
1
  6
Continuous
 62
     7
100
AcDbLine
 10
137.1192763724989
 20
411.8143115481106
 30
0.0
 11
138.8513271800678
 21
411.8143115481106
 31
0.0
  0
LINE
  5
185
330
56
100
AcDbEntity
  8
1
  6
Continuous
 62
     7
100
AcDbLine
 10
138.8513271800678
 20
411.8143115481106
 30
0.0
 11
138.8513271800678
 21
413.8502099329728
 31
0.0
  0
LINE
  5
186
330
56
100
AcDbEntity
  8
1
  6
Continuous
 62
     7
100
AcDbLine
 10
138.8513271800678
 20
413.8502099329728
 30
0.0
 11
138.38722556493
 21
414.3143115481106
 31
0.0
  0
LINE
  5
187
330
56
100
AcDbEntity
  8
1
  6
Continuous
 62
     7
100
AcDbLine
 10
137.1192763724989
 20
411.8143115481106
 30
0.0
 11
137.1192763724989
 21
413.8502099329728
 31
0.0
  0
LINE
  5
188
330
56
100
AcDbEntity
  8
1
  6
Continuous
 62
     7
100
AcDbLine
 10
138.0221692006641
 20
414.3143115481106
 30
0.0
 11
138.38722556493
 21
414.3143115481106
 31
0.0
  0
ARC
  5
189
330
56
100
AcDbEntity
  8
1
  6
Continuous
 62
     7
100
AcDbCircle
 10
132.7891493535832
 20
413.2743029234671
 30
0.0
 40
1.040033116587038
100
AcDbArc
 50
33.62391146796332
 51
123.6239114679716
  0
ARC
  5
18A
330
56
100
AcDbEntity
  8
1
  6
Continuous
 62
     7
100
AcDbCircle
 10
135.331700161152
 20
411.0574335610071
 30
0.0
 40
3.257351269566245
100
AcDbArc
 50
89.02327838810876
 51
120.9767216118898
  0
ARC
  5
18B
330
56
100
AcDbEntity
  8
1
  6
Continuous
 62
     7
100
AcDbCircle
 10
135.4427509687145
 20
411.0574335610071
 30
0.0
 40
3.257351269566174
100
AcDbArc
 50
59.0232783881106
 51
90.97672161189173
  0
ARC
  5
18C
330
56
100
AcDbEntity
  8
1
  6
Continuous
 62
     7
100
AcDbCircle
 10
137.9853017762833
 20
413.2743029234671
 30
0.0
 40
1.040033116587093
100
AcDbArc
 50
56.37608853203494
 51
146.3760885320376
  0
ENDBLK
  5
58
330
56
100
AcDbEntity
  8
0
100
AcDbBlockEnd
  0
BLOCK
  5
5A
330
59
100
AcDbEntity
  8
0
100
AcDbBlockBegin
  2
91-1
 70
     0
 10
1683.539882726349
 20
321.4864299984692
 30
0.0
  3
91-1
  1

  0
LINE
  5
18D
330
59
100
AcDbEntity
  8
1
  6
Continuous
 62
     7
100
AcDbLine
 10
141.5386481646229
 20
411.8143115481106
 30
0.0
 11
129.2358029652369
 21
411.8143115481106
 31
0.0
  0
LINE
  5
18E
330
59
100
AcDbEntity
  8
1
  6
Continuous
 62
     7
100
AcDbLine
 10
128.9498347891583
 20
408.8143115481106
 30
0.0
 11
141.8246163407016
 21
408.8143115481106
 31
0.0
  0
ENDBLK
  5
5B
330
59
100
AcDbEntity
  8
0
100
AcDbBlockEnd
  0
BLOCK
  5
5D
330
5C
100
AcDbEntity
  8
0
100
AcDbBlockBegin
  2
41-7-15-C2
 70
     0
 10
1678.481293097107
 20
287.2911345912538
 30
0.0
  3
41-7-15-C2
  1

  0
LINE
  5
18F
330
5C
100
AcDbEntity
  8
1
  6
Continuous
 62
     7
100
AcDbLine
 10
137.38722556493
 20
414.9143115481102
 30
0.0
 11
137.38722556493
 21
414.3143115481103
 31
0.0
  0
LINE
  5
190
330
5C
100
AcDbEntity
  8
1
  6
Continuous
 62
     2
100
AcDbLine
 10
137.0082255649301
 20
414.9143115481102
 30
0.0
 11
137.0082255649301
 21
414.3143115481103
 31
0.0
  0
LINE
  5
191
330
5C
100
AcDbEntity
  8
1
  6
Continuous
 62
     2
100
AcDbLine
 10
133.7662255649302
 20
414.3143115481103
 30
0.0
 11
133.7662255649302
 21
414.9143115481102
 31
0.0
  0
LINE
  5
192
330
5C
100
AcDbEntity
  8
1
  6
Continuous
 62
     7
100
AcDbLine
 10
133.38722556493
 20
414.3143115481103
 30
0.0
 11
133.38722556493
 21
414.9143115481102
 31
0.0
  0
ENDBLK
  5
5E
330
5C
100
AcDbEntity
  8
0
100
AcDbBlockEnd
  0
BLOCK
  5
62
330
5F
100
AcDbEntity
  8
0
100
AcDbBlockBegin
  2
P82AT-2-15
 70
     0
 10
1681.993646978619
 20
380.9149176073115
 30
0.0
  3
P82AT-2-15
  1

  0
INSERT
  5
60
330
5F
100
AcDbEntity
  8
0
100
AcDbBlockReference
  2
91-1
 10
1683.539882726349
 20
321.4864299984692
 30
0.0
  0
INSERT
  5
61
330
5F
100
AcDbEntity
  8
0
100
AcDbBlockReference
  2
41-7-15-C2
 10
1678.481293097107
 20
287.2911345912538
 30
0.0
  0
ENDBLK
  5
63
330
5F
100
AcDbEntity
  8
0
100
AcDbBlockEnd
  0
BLOCK
  5
1B7
330
1B0
100
AcDbEntity
  8
0
100
AcDbBlockBegin
  2
*D10
 70
     1
 10
0.0
 20
0.0
 30
0.0
  3
*D10
  1

  0
LINE
  5
1B1
330
1B0
100
AcDbEntity
  8
1
  6
Continuous
 62
     2
100
AcDbLine
 10
232.501473817825
 20
291.9643115481219
 30
0.0
 11
232.501473817825
 21
256.9643115481223
 31
0.0
  0
LINE
  5
1B2
330
1B0
100
AcDbEntity
  8
1
  6
Continuous
 62
     2
100
AcDbLine
 10
291.6634738178226
 20
291.9643115481219
 30
0.0
 11
230.501473817825
 21
291.9643115481219
 31
0.0
  0
LINE
  5
1B3
330
1B0
100
AcDbEntity
  8
1
  6
Continuous
 62
     2
100
AcDbLine
 10
246.501473817825
 20
256.9643115481223
 30
0.0
 11
230.501473817825
 21
256.9643115481223
 31
0.0
  0
SOLID
  5
1B4
330
1B0
100
AcDbEntity
  8
1
 62
     2
100
AcDbTrace
 10
233.4230413009368
 20
284.9643115481219
 30
0.0
 11
231.5799063347132
 21
284.9643115481219
 31
0.0
 12
232.501473817825
 22
291.9643115481219
 32
0.0
 13
232.501473817825
 23
291.9643115481219
 33
0.0
  0
SOLID
  5
1B5
330
1B0
100
AcDbEntity
  8
1
 62
     2
100
AcDbTrace
 10
231.5799063347132
 20
263.9643115481223
 30
0.0
 11
233.4230413009368
 21
263.9643115481223
 31
0.0
 12
232.501473817825
 22
256.9643115481223
 32
0.0
 13
232.501473817825
 23
256.9643115481223
 33
0.0
  0
MTEXT
  5
1B6
330
1B0
100
AcDbEntity
  8
1
 62
     7
100
AcDbMText
 10
230.501473817825
 20
269.2143115481221
 30
0.0
 40
7.0
 41
0.0
 71
     7
 72
     1
  1
35
  7
CONVERTER_12
 11
0.0
 21
1.0
 31
0.0
 73
     1
 44
0.60024009603842
  0
ENDBLK
  5
1B8
330
1B0
100
AcDbEntity
  8
0
100
AcDbBlockEnd
  0
BLOCK
  5
1C2
330
1BB
100
AcDbEntity
  8
0
100
AcDbBlockBegin
  2
*D11
 70
     1
 10
0.0
 20
0.0
 30
0.0
  3
*D11
  1

  0
LINE
  5
1BC
330
1BB
100
AcDbEntity
  8
1
  6
Continuous
 62
     2
100
AcDbLine
 10
122.3872255649297
 20
465.7143115481094
 30
0.0
 11
148.3872255649297
 21
465.7143115481094
 31
0.0
  0
LINE
  5
1BD
330
1BB
100
AcDbEntity
  8
1
  6
Continuous
 62
     2
100
AcDbLine
 10
122.3872255649297
 20
445.5699739808121
 30
0.0
 11
122.3872255649297
 21
467.7143115481094
 31
0.0
  0
LINE
  5
1BE
330
1BB
100
AcDbEntity
  8
1
  6
Continuous
 62
     2
100
AcDbLine
 10
148.3872255649297
 20
445.5699739808121
 30
0.0
 11
148.3872255649297
 21
467.7143115481094
 31
0.0
  0
SOLID
  5
1BF
330
1BB
100
AcDbEntity
  8
1
 62
     2
100
AcDbTrace
 10
129.3872255649297
 20
466.6358790312211
 30
0.0
 11
129.3872255649297
 21
464.7927440649976
 31
0.0
 12
122.3872255649297
 22
465.7143115481094
 32
0.0
 13
122.3872255649297
 23
465.7143115481094
 33
0.0
  0
SOLID
  5
1C0
330
1BB
100
AcDbEntity
  8
1
 62
     2
100
AcDbTrace
 10
141.3872255649297
 20
464.7927440649976
 30
0.0
 11
141.3872255649297
 21
466.6358790312211
 31
0.0
 12
148.3872255649297
 22
465.7143115481094
 32
0.0
 13
148.3872255649297
 23
465.7143115481094
 33
0.0
  0
MTEXT
  5
1C1
330
1BB
100
AcDbEntity
  8
1
 62
     7
100
AcDbMText
 10
130.1372255649301
 20
467.7143115481094
 30
0.0
 40
7.0
 41
0.0
 71
     7
 72
     1
  1
26
  7
CONVERTER_12
 11
0.9999999999970619
 21
2.424068405545306E-6
 31
0.0
 73
     1
 44
0.60024009603842
  0
ENDBLK
  5
1C3
330
1BB
100
AcDbEntity
  8
0
100
AcDbBlockEnd
  0
BLOCK
  5
1CD
330
1C6
100
AcDbEntity
  8
0
100
AcDbBlockBegin
  2
*D12
 70
     1
 10
0.0
 20
0.0
 30
0.0
  3
*D12
  1

  0
LINE
  5
1C7
330
1C6
100
AcDbEntity
  8
1
  6
Continuous
 62
     2
100
AcDbLine
 10
252.501473817825
 20
222.4643115481219
 30
0.0
 11
301.0014738178224
 21
222.4643115481219
 31
0.0
  0
LINE
  5
1C8
330
1C6
100
AcDbEntity
  8
1
  6
Continuous
 62
     2
100
AcDbLine
 10
301.0014738178224
 20
236.4643115481219
 30
0.0
 11
301.0014738178224
 21
220.4643115481219
 31
0.0
  0
LINE
  5
1C9
330
1C6
100
AcDbEntity
  8
1
  6
Continuous
 62
     2
100
AcDbLine
 10
252.501473817825
 20
243.3643115481222
 30
0.0
 11
252.501473817825
 21
220.4643115481219
 31
0.0
  0
SOLID
  5
1CA
330
1C6
100
AcDbEntity
  8
1
 62
     2
100
AcDbTrace
 10
259.501473817825
 20
223.3858790312337
 30
0.0
 11
259.501473817825
 21
221.5427440650101
 31
0.0
 12
252.501473817825
 22
222.4643115481219
 32
0.0
 13
252.501473817825
 23
222.4643115481219
 33
0.0
  0
SOLID
  5
1CB
330
1C6
100
AcDbEntity
  8
1
 62
     2
100
AcDbTrace
 10
294.0014738178224
 20
221.5427440650101
 30
0.0
 11
294.0014738178224
 21
223.3858790312337
 31
0.0
 12
301.0014738178224
 22
222.4643115481219
 32
0.0
 13
301.0014738178224
 23
222.4643115481219
 33
0.0
  0
MTEXT
  5
1CC
330
1C6
100
AcDbEntity
  8
1
 62
     7
100
AcDbMText
 10
271.5014738178237
 20
224.4643115481219
 30
0.0
 40
7.0
 41
0.0
 71
     7
 72
     1
  1
49
  7
CONVERTER_12
 11
0.9999999999970619
 21
2.424068405545306E-6
 31
0.0
 73
     1
 44
0.60024009603842
  0
ENDBLK
  5
1CE
330
1C6
100
AcDbEntity
  8
0
100
AcDbBlockEnd
  0
BLOCK
  5
1D8
330
1D1
100
AcDbEntity
  8
0
100
AcDbBlockBegin
  2
*D13
 70
     1
 10
0.0
 20
0.0
 30
0.0
  3
*D13
  1

  0
LINE
  5
1D2
330
1D1
100
AcDbEntity
  8
1
  6
Continuous
 62
     2
100
AcDbLine
 10
120.8872255649301
 20
327.9643115481223
 30
0.0
 11
149.8872255649301
 21
327.9643115481223
 31
0.0
  0
LINE
  5
1D3
330
1D1
100
AcDbEntity
  8
1
  6
Continuous
 62
     2
100
AcDbLine
 10
149.8872255649301
 20
279.9643115481223
 30
0.0
 11
149.8872255649301
 21
329.9643115481223
 31
0.0
  0
LINE
  5
1D4
330
1D1
100
AcDbEntity
  8
1
  6
Continuous
 62
     2
100
AcDbLine
 10
120.8872255649301
 20
279.9643115481223
 30
0.0
 11
120.8872255649301
 21
329.9643115481223
 31
0.0
  0
SOLID
  5
1D5
330
1D1
100
AcDbEntity
  8
1
 62
     2
100
AcDbTrace
 10
127.8872255649301
 20
328.885879031234
 30
0.0
 11
127.8872255649301
 21
327.0427440650105
 31
0.0
 12
120.8872255649301
 22
327.9643115481223
 32
0.0
 13
120.8872255649301
 23
327.9643115481223
 33
0.0
  0
SOLID
  5
1D6
330
1D1
100
AcDbEntity
  8
1
 62
     2
100
AcDbTrace
 10
142.8872255649301
 20
327.0427440650105
 30
0.0
 11
142.8872255649301
 21
328.885879031234
 31
0.0
 12
149.8872255649301
 22
327.9643115481223
 32
0.0
 13
149.8872255649301
 23
327.9643115481223
 33
0.0
  0
MTEXT
  5
1D7
330
1D1
100
AcDbEntity
  8
1
 62
     7
100
AcDbMText
 10
126.6372255649312
 20
329.9643115481223
 30
0.0
 40
7.0
 41
0.0
 71
     7
 72
     1
  1
{\Fgdt;n}29
  7
CONVERTER_12
 11
0.9999999999970619
 21
2.424068405545306E-6
 31
0.0
 73
     1
 44
0.60024009603842
  0
ENDBLK
  5
1D9
330
1D1
100
AcDbEntity
  8
0
100
AcDbBlockEnd
  0
BLOCK
  5
1E5
330
1DC
100
AcDbEntity
  8
0
100
AcDbBlockBegin
  2
*D14
 70
     1
 10
0.0
 20
0.0
 30
0.0
  3
*D14
  1

  0
LINE
  5
1DD
330
1DC
100
AcDbEntity
  8
1
  6
Continuous
 62
     2
100
AcDbLine
 10
117.887225564931
 20
311.9643115481223
 30
0.0
 11
131.887225564931
 21
311.9643115481223
 31
0.0
  0
LINE
  5
1DE
330
1DC
100
AcDbEntity
  8
1
  6
Continuous
 62
     2
100
AcDbLine
 10
131.887225564931
 20
311.9643115481223
 30
0.0
 11
138.887225564931
 21
311.9643115481223
 31
0.0
  0
LINE
  5
1DF
330
1DC
100
AcDbEntity
  8
1
  6
Continuous
 62
     2
100
AcDbLine
 10
138.887225564931
 20
311.9643115481223
 30
0.0
 11
152.887225564931
 21
311.9643115481223
 31
0.0
  0
LINE
  5
1E0
330
1DC
100
AcDbEntity
  8
1
  6
Continuous
 62
     2
100
AcDbLine
 10
138.887225564931
 20
289.9643115481223
 30
0.0
 11
138.887225564931
 21
313.9643115481223
 31
0.0
  0
LINE
  5
1E1
330
1DC
100
AcDbEntity
  8
1
  6
Continuous
 62
     2
100
AcDbLine
 10
131.887225564931
 20
289.9643115481223
 30
0.0
 11
131.887225564931
 21
313.9643115481223
 31
0.0
  0
SOLID
  5
1E2
330
1DC
100
AcDbEntity
  8
1
 62
     2
100
AcDbTrace
 10
124.887225564931
 20
311.0427440650105
 30
0.0
 11
124.887225564931
 21
312.885879031234
 31
0.0
 12
131.887225564931
 22
311.9643115481223
 32
0.0
 13
131.887225564931
 23
311.9643115481223
 33
0.0
  0
SOLID
  5
1E3
330
1DC
100
AcDbEntity
  8
1
 62
     2
100
AcDbTrace
 10
145.887225564931
 20
312.885879031234
 30
0.0
 11
145.887225564931
 21
311.0427440650105
 31
0.0
 12
138.887225564931
 22
311.9643115481223
 32
0.0
 13
138.887225564931
 23
311.9643115481223
 33
0.0
  0
MTEXT
  5
1E4
330
1DC
100
AcDbEntity
  8
1
 62
     7
100
AcDbMText
 10
129.7872255649312
 20
313.9643115481223
 30
0.0
 40
7.0
 41
0.0
 71
     7
 72
     1
  1
{\Fgdt;n}7
  7
CONVERTER_12
 11
0.9999999999970619
 21
2.424068405545306E-6
 31
0.0
 73
     1
 44
0.60024009603842
  0
ENDBLK
  5
1E6
330
1DC
100
AcDbEntity
  8
0
100
AcDbBlockEnd
  0
BLOCK
  5
1F0
330
1E9
100
AcDbEntity
  8
0
100
AcDbBlockBegin
  2
*D15
 70
     1
 10
0.0
 20
0.0
 30
0.0
  3
*D15
  1

  0
LINE
  5
1EA
330
1E9
100
AcDbEntity
  8
1
  6
Continuous
 62
     2
100
AcDbLine
 10
301.0014738178224
 20
222.4643115481219
 30
0.0
 11
337.0014738178198
 21
222.4643115481219
 31
0.0
  0
LINE
  5
1EB
330
1E9
100
AcDbEntity
  8
1
  6
Continuous
 62
     2
100
AcDbLine
 10
337.0014738178198
 20
244.2143115481219
 30
0.0
 11
337.0014738178198
 21
220.4643115481219
 31
0.0
  0
LINE
  5
1EC
330
1E9
100
AcDbEntity
  8
1
  6
Continuous
 62
     2
100
AcDbLine
 10
301.0014738178224
 20
236.4643115481219
 30
0.0
 11
301.0014738178224
 21
220.4643115481219
 31
0.0
  0
SOLID
  5
1ED
330
1E9
100
AcDbEntity
  8
1
 62
     2
100
AcDbTrace
 10
308.0014738178224
 20
223.3858790312337
 30
0.0
 11
308.0014738178224
 21
221.5427440650101
 31
0.0
 12
301.0014738178224
 22
222.4643115481219
 32
0.0
 13
301.0014738178224
 23
222.4643115481219
 33
0.0
  0
SOLID
  5
1EE
330
1E9
100
AcDbEntity
  8
1
 62
     2
100
AcDbTrace
 10
330.0014738178198
 20
221.5427440650101
 30
0.0
 11
330.0014738178198
 21
223.3858790312337
 31
0.0
 12
337.0014738178198
 22
222.4643115481219
 32
0.0
 13
337.0014738178198
 23
222.4643115481219
 33
0.0
  0
MTEXT
  5
1EF
330
1E9
100
AcDbEntity
  8
1
 62
     7
100
AcDbMText
 10
313.7514738178211
 20
224.4643115481219
 30
0.0
 40
7.0
 41
0.0
 71
     7
 72
     1
  1
36
  7
CONVERTER_12
 11
0.9999999999970619
 21
2.424068405545306E-6
 31
0.0
 73
     1
 44
0.60024009603842
  0
ENDBLK
  5
1F1
330
1E9
100
AcDbEntity
  8
0
100
AcDbBlockEnd
  0
BLOCK
  5
1F9
330
1F4
100
AcDbEntity
  8
0
100
AcDbBlockBegin
  2
*D16
 70
     1
 10
0.0
 20
0.0
 30
0.0
  3
*D16
  1

  0
LINE
  5
1F5
330
1F4
100
AcDbEntity
  8
1
  6
Continuous
 62
     2
100
AcDbLine
 10
124.8217690214126
 20
279.6220062240385
 30
0.0
 11
152.471207484273
 21
220.3275940922315
 31
0.0
  0
SOLID
  5
1F6
330
1F4
100
AcDbEntity
  8
1
 62
     2
100
AcDbTrace
 10
145.3087419785791
 20
237.8681653746238
 30
0.0
 11
143.6382944061312
 21
237.0892228790449
 31
0.0
 12
141.5151903601703
 22
243.8228486360909
 32
0.0
 13
141.5151903601703
 23
243.8228486360909
 33
0.0
  0
SOLID
  5
1F7
330
1F4
100
AcDbEntity
  8
1
 62
     2
100
AcDbTrace
 10
125.4657091512811
 20
276.0604577216209
 30
0.0
 11
127.1361567237291
 21
276.8394002171997
 31
0.0
 12
129.2592607696899
 22
270.1057744601537
 32
0.0
 13
129.2592607696899
 23
270.1057744601537
 33
0.0
  0
MTEXT
  5
1F8
330
1F4
100
AcDbEntity
  8
1
 62
     7
100
AcDbMText
 10
146.888003477884
 20
237.0332168888542
 30
0.0
 40
7.0
 41
0.0
 71
     7
 72
     1
  1
{\Fgdt;n}29
  7
CONVERTER_12
 11
0.4226182617407004
 21
-0.9063077870366495
 31
0.0
 73
     1
 44
0.60024009603842
  0
ENDBLK
  5
1FA
330
1F4
100
AcDbEntity
  8
0
100
AcDbBlockEnd
  0
ENDSEC
  0
SECTION
  2
ENTITIES
  0
INSERT
  5
64
330
1F
100
AcDbEntity
  8
1
100
AcDbBlockReference
  2
V2261-0-13-M1
 10
113.3872255649301
 20
411.8443551822621
 30
0.0
  0
INSERT
  5
65
330
1F
100
AcDbEntity
  8
1
100
AcDbBlockReference
  2
31-81-M1
 10
113.3872255649301
 20
411.8443551822621
 30
0.0
  0
INSERT
  5
66
330
1F
100
AcDbEntity
  8
1
100
AcDbBlockReference
  2
34-160-M11
 10
113.3872255649301
 20
411.8443551822621
 30
0.0
  0
INSERT
  5
67
330
1F
100
AcDbEntity
  8
1
100
AcDbBlockReference
  2
37-311-M11
 10
298.3872255649301
 20
653.8443551822621
 30
0.0
  0
INSERT
  5
68
330
1F
100
AcDbEntity
  8
1
100
AcDbBlockReference
  2
開示A4
 10
0.0
 20
0.0
 30
0.0
 41
2.0
 42
2.0
 43
2.0
  0
INSERT
  5
69
330
1F
100
AcDbEntity
  8
1
100
AcDbBlockReference
  2
32-88
 10
0.0
 20
594.0
 30
0.0
  0
INSERT
  5
6A
330
1F
100
AcDbEntity
  8
1
100
AcDbBlockReference
  2
P82AT-2-15
 10
1681.993646978619
 20
380.9149176073115
 30
0.0
  0
LINE
  5
193
330
1F
100
AcDbEntity
  8
1
  6
DASH_CENTER
 62
     2
100
AcDbLine
 10
135.38722556493
 20
355.2143115481223
 30
0.0
 11
135.38722556493
 21
451.7143115481094
 31
0.0
  0
LINE
  5
194
330
1F
100
AcDbEntity
  8
1
  6
DASH_CENTER
 62
     2
100
AcDbLine
 10
155.8872255649325
 20
409.7143115481121
 30
0.0
 11
114.8872255649273
 21
409.7143115481121
 31
0.0
  0
LINE
  5
195
330
1F
100
AcDbEntity
  8
1
  6
DASH_CENTER
 62
     2
100
AcDbLine
 10
155.8872255649301
 20
256.9643115481223
 30
0.0
 11
114.8872255649301
 21
256.9643115481223
 31
0.0
  0
LINE
  5
196
330
1F
100
AcDbEntity
  8
1
  6
DASH_CENTER
 62
     2
100
AcDbLine
 10
135.3872255649301
 20
297.9643115481223
 30
0.0
 11
135.3872255649301
 21
236.4643115481223
 31
0.0
  0
LINE
  5
197
330
1F
100
AcDbEntity
  8
1
  6
DASH_CENTER
 62
     2
100
AcDbLine
 10
263.0014738178256
 20
236.4643115481219
 30
0.0
 11
263.0014738178271
 21
296.4643115481222
 31
0.0
  0
LINE
  5
198
330
1F
100
AcDbEntity
  8
1
  6
DASH_CENTER
 62
     2
100
AcDbLine
 10
301.0014738178224
 20
297.9643115481219
 30
0.0
 11
301.0014738178224
 21
236.4643115481219
 31
0.0
  0
LINE
  5
199
330
1F
100
AcDbEntity
  8
1
  6
DASH_CENTER
 62
     2
100
AcDbLine
 10
343.0014738178198
 20
256.9643115481223
 30
0.0
 11
246.501473817825
 21
256.9643115481223
 31
0.0
  0
LINE
  5
19A
330
1F
100
AcDbEntity
  8
1
  6
Continuous
 62
     2
100
AcDbLine
 10
162.5970668903859
 20
272.9643115481223
 30
0.0
 11
170.5970668903859
 21
272.9643115481223
 31
0.0
  0
LINE
  5
19B
330
1F
100
AcDbEntity
  8
1
  6
Continuous
 62
     2
100
AcDbLine
 10
170.5970668903859
 20
232.9643115481223
 30
0.0
 11
162.5970668903859
 21
232.9643115481223
 31
0.0
  0
ARC
  5
19C
330
1F
100
AcDbEntity
  8
1
  6
Continuous
 62
     2
100
AcDbCircle
 10
161.3872255649301
 20
256.9643115481223
 30
0.0
 40
18.00000000000003
100
AcDbArc
 50
311.8103148957785
 51
48.18968510422143
  0
SOLID
  5
19D
330
1F
100
AcDbEntity
  8
1
 62
     2
100
AcDbTrace
 10
286.2033729661459
 20
292.8657056330574
 30
0.0
 11
287.7995746694988
 21
293.7872731161692
 31
0.0
 12
290.5014738178224
 22
287.2643115481223
 32
0.0
 13
290.5014738178224
 23
287.2643115481223
 33
0.0
  0
LEADER
  5
19E
330
1F
100
AcDbEntity
  8
1
  6
Continuous
 62
     2
100
AcDbLeader
  3
Standard
 71
     0
 76
     3
 10
290.5014738178224
 20
287.2643115481223
 30
0.0
 10
276.2409221688388
 20
311.9643115481219
 30
0.0
 10
247.6286731136275
 20
311.9643115481219
 30
0.0
  0
SOLID
  5
19F
330
1F
100
AcDbEntity
  8
1
 62
     2
100
AcDbTrace
 10
178.9598553375961
 20
266.0453896629491
 30
0.0
 11
177.6479066765515
 21
264.7508097254793
 31
0.0
 12
173.3872255649301
 22
270.380719413121
 32
0.0
 13
173.3872255649301
 23
270.380719413121
 33
0.0
  0
LEADER
  5
1A0
330
1F
100
AcDbEntity
  8
1
  6
Continuous
 62
     2
100
AcDbLeader
  3
Standard
 71
     0
 76
     2
 10
173.3872255649301
 20
270.380719413121
 30
0.0
 10
175.0609103967159
 20
268.6845795993342
 30
0.0
  0
SOLID
  5
1A1
330
1F
100
AcDbEntity
  8
1
 62
     2
100
AcDbTrace
 10
177.5509688921176
 20
249.2498794925453
 30
0.0
 11
178.8848727128915
 21
247.9779333063248
 31
0.0
 12
173.3872255649301
 22
243.5479036831235
 32
0.0
 13
173.3872255649301
 23
243.5479036831235
 33
0.0
  0
LEADER
  5
1A2
330
1F
100
AcDbEntity
  8
1
  6
Continuous
 62
     2
100
AcDbLeader
  3
Standard
 71
     0
 76
     2
 10
173.3872255649301
 20
243.5479036831235
 30
0.0
 10
174.4947946125153
 20
244.7094234080537
 30
0.0
  0
SOLID
  5
1A3
330
1F
100
AcDbEntity
  8
1
 62
     2
100
AcDbTrace
 10
339.7033729661434
 20
273.8872731161691
 30
0.0
 11
341.2995746694963
 21
272.9657056330573
 31
0.0
 12
337.0014738178198
 22
267.3643115481222
 32
0.0
 13
337.0014738178198
 23
267.3643115481222
 33
0.0
  0
LEADER
  5
1A4
330
1F
100
AcDbEntity
  8
1
  6
Continuous
 62
     2
100
AcDbLeader
  3
Standard
 71
     0
 76
     3
 10
337.0014738178198
 20
267.3643115481222
 30
0.0
 10
345.1421126133934
 20
281.464311548122
 30
0.0
 10
380.4641016151377
 20
281.464311548122
 30
0.0
  0
MTEXT
  5
1A5
330
1F
100
AcDbEntity
  8
1
 62
     7
100
AcDbMText
 10
68.0
 20
61.00000000000001
 30
0.0
 40
7.0
 41
0.0
 71
     4
 72
     1
  1
共用形
  7
CONVERTER_11
 73
     1
 44
0.54545454545455
  0
MTEXT
  5
1A7
330
1F
100
AcDbEntity
  8
1
 62
     7
100
AcDbMText
 10
261.6286731136275
 20
317.9643115481219
 30
0.0
 40
7.0
 41
0.0
 71
     5
 72
     1
  1
PJ1/2
  7
CONVERTER_12
 73
     1
 44
0.7202881152461
  0
MTEXT
  5
1A8
330
1F
100
AcDbEntity
  8
1
 62
     7
100
AcDbMText
 10
114.0
 20
28.5
 30
0.0
 40
7.0
 41
0.0
 71
     5
 72
     1
  1
V2261-X3-13
  7
CONVERTER_12
 73
     1
 44
0.7202881152461
  0
MTEXT
  5
1A9
330
1F
100
AcDbEntity
  8
1
 62
     7
100
AcDbMText
 10
114.0
 20
45.50000000000002
 30
0.0
 40
7.0
 41
0.0
 71
     5
 72
     1
  1
止水栓本体
  7
CONVERTER_11
 73
     1
 44
0.54545454545455
  0
MTEXT
  5
1AA
330
1F
100
AcDbEntity
  8
0
 62
     7
100
AcDbMText
 10
166.5970668903859
 20
279.9643115481223
 30
0.0
 40
10.0
 41
0.0
 71
     5
 72
     1
  1
開
  7
CONVERTER_11
 73
     1
 44
1.0
  0
MTEXT
  5
1AB
330
1F
100
AcDbEntity
  8
0
 62
     7
100
AcDbMText
 10
166.5970668903859
 20
239.9643115481223
 30
0.0
 40
10.0
 41
0.0
 71
     5
 72
     1
  1
閉
  7
CONVERTER_11
 73
     1
 44
1.0
  0
MTEXT
  5
1AC
330
1F
100
AcDbEntity
  8
1
 62
     7
100
AcDbMText
 10
68.0
 20
75.0
 30
0.0
 40
7.0
 41
0.0
 71
     4
 72
     1
  1
JIS
  7
CONVERTER_12
 73
     1
 44
0.7202881152461
  0
MTEXT
  5
1AD
330
1F
100
AcDbEntity
  8
1
 62
     7
100
AcDbMText
 10
170.5
 20
34.0
 30
0.0
 40
7.0
 41
0.0
 71
     5
 72
     1
  1
1
  7
CONVERTER_12
 73
     1
 44
0.7202881152461
  0
MTEXT
  5
1AE
330
1F
100
AcDbEntity
  8
1
 62
     7
100
AcDbMText
 10
187.5
 20
34.0
 30
0.0
 40
7.0
 41
0.0
 71
     5
 72
     1
  1
2
  7
CONVERTER_12
 73
     1
 44
0.7202881152461
  0
MTEXT
  5
1AF
330
1F
100
AcDbEntity
  8
1
 62
     7
100
AcDbMText
 10
364.4641016151377
 20
287.464311548122
 30
0.0
 40
7.0
 41
0.0
 71
     5
 72
     1
  1
Rc1/2
  7
CONVERTER_12
 73
     1
 44
0.7202881152461
  0
DIMENSION
  5
1BA
330
1F
100
AcDbEntity
  8
1
100
AcDbDimension
  2
*D10
 10
232.501473817825
 20
291.9643115481219
 30
0.0
 11
227.001473817825
 21
274.4643115481221
 31
0.0
 70
    32
  1
<>
 71
     5
 42
-1.0
 53
90.0
  3
ME10_DIM_10
100
AcDbAlignedDimension
 13
246.501473817825
 23
256.9643115481223
 33
0.0
 14
291.6634738178226
 24
291.9643115481219
 34
0.0
 50
90.0
100
AcDbRotatedDimension
  0
DIMENSION
  5
1C5
330
1F
100
AcDbEntity
  8
1
100
AcDbDimension
  2
*D11
 10
122.3872255649297
 20
465.7143115481094
 30
0.0
 11
135.3872255649301
 21
471.2143115481094
 31
0.0
 70
    32
  1
<>
 71
     5
 42
-1.0
 53
0.00013888888889
  3
ME10_DIM_11
100
AcDbAlignedDimension
 13
148.3872255649297
 23
445.5699739808121
 33
0.0
 14
122.3872255649297
 24
445.5699739808121
 34
0.0
100
AcDbRotatedDimension
  0
DIMENSION
  5
1D0
330
1F
100
AcDbEntity
  8
1
100
AcDbDimension
  2
*D12
 10
252.501473817825
 20
222.4643115481219
 30
0.0
 11
276.7514738178237
 21
227.9643115481219
 31
0.0
 70
    32
  1
49
 71
     5
 42
-1.0
 53
0.00013888888889
  3
ME10_DIM_12
100
AcDbAlignedDimension
 13
301.0014738178224
 23
236.4643115481219
 33
0.0
 14
252.501473817825
 24
243.3643115481222
 34
0.0
100
AcDbRotatedDimension
  0
DIMENSION
  5
1DB
330
1F
100
AcDbEntity
  8
1
100
AcDbDimension
  2
*D13
 10
120.8872255649301
 20
327.9643115481223
 30
0.0
 11
135.3872255649312
 21
333.4643115481223
 31
0.0
 70
    32
  1
29
 71
     5
 42
-1.0
 53
0.00013888888889
  3
ME10_DIM_13
100
AcDbAlignedDimension
 13
149.8872255649301
 23
279.9643115481223
 33
0.0
 14
120.8872255649301
 24
279.9643115481223
 34
0.0
100
AcDbRotatedDimension
  0
DIMENSION
  5
1E8
330
1F
100
AcDbEntity
  8
1
100
AcDbDimension
  2
*D14
 10
131.887225564931
 20
311.9643115481223
 30
0.0
 11
135.3872255649312
 21
317.4643115481223
 31
0.0
 70
    32
  1
7
 71
     5
 42
-1.0
 53
0.00013888888889
  3
ME10_DIM_14
100
AcDbAlignedDimension
 13
138.887225564931
 23
289.9643115481223
 33
0.0
 14
131.887225564931
 24
289.9643115481223
 34
0.0
100
AcDbRotatedDimension
  0
DIMENSION
  5
1F3
330
1F
100
AcDbEntity
  8
1
100
AcDbDimension
  2
*D15
 10
301.0014738178224
 20
222.4643115481219
 30
0.0
 11
319.0014738178211
 21
227.9643115481219
 31
0.0
 70
    32
  1
<>
 71
     5
 42
-1.0
 53
0.00013888888889
  3
ME10_DIM_15
100
AcDbAlignedDimension
 13
337.0014738178198
 23
244.2143115481219
 33
0.0
 14
301.0014738178224
 24
236.4643115481219
 34
0.0
100
AcDbRotatedDimension
  0
INSERT
  5
1FB
330
1F
100
AcDbEntity
  8
1
100
AcDbBlockReference
  2
*D16
 10
0.0
 20
0.0
 30
0.0
  0
ENDSEC
  0
SECTION
  2
OBJECTS
  0
DICTIONARY
  5
C
330
0
100
AcDbDictionary
281
     1
  3
ACAD_GROUP
350
D
  3
ACAD_LAYOUT
350
1A
  3
ACAD_MATERIAL
350
3B
  3
ACAD_MLEADERSTYLE
350
1FE
  3
ACAD_MLINESTYLE
350
17
  3
ACAD_PLOTSETTINGS
350
19
  3
ACAD_PLOTSTYLENAME
350
E
  3
ACAD_VISUALSTYLE
350
2A
  3
AcDbVariableDictionary
350
1FC
  0
DICTIONARY
  5
D
102
{ACAD_REACTORS
330
C
102
}
330
C
100
AcDbDictionary
281
     1
  0
DICTIONARY
  5
1A
102
{ACAD_REACTORS
330
C
102
}
330
C
100
AcDbDictionary
281
     1
  3
Layout1
350
1E
  3
Layout2
350
26
  3
Model
350
22
  0
DICTIONARY
  5
3B
102
{ACAD_REACTORS
330
C
102
}
330
C
100
AcDbDictionary
281
     1
  3
ByBlock
350
3D
  3
ByLayer
350
3C
  3
Global
350
3E
  0
DICTIONARY
  5
1FE
102
{ACAD_REACTORS
330
C
102
}
330
C
100
AcDbDictionary
281
     1
  0
DICTIONARY
  5
17
102
{ACAD_REACTORS
330
C
102
}
330
C
100
AcDbDictionary
281
     1
  3
Standard
350
18
  0
DICTIONARY
  5
19
102
{ACAD_REACTORS
330
C
102
}
330
C
100
AcDbDictionary
281
     1
  0
ACDBDICTIONARYWDFLT
  5
E
102
{ACAD_REACTORS
330
C
102
}
330
C
100
AcDbDictionary
281
     1
  3
Normal
350
F
100
AcDbDictionaryWithDefault
340
F
  0
DICTIONARY
  5
2A
102
{ACAD_REACTORS
330
C
102
}
330
C
100
AcDbDictionary
281
     1
  3
2dWireframe
350
2F
  3
3D Hidden
350
31
  3
3dWireframe
350
30
  3
Basic
350
32
  3
Brighten
350
36
  3
ColorChange
350
3A
  3
Conceptual
350
34
  3
Dim
350
35
  3
Facepattern
350
39
  3
Flat
350
2B
  3
FlatWithEdges
350
2C
  3
Gouraud
350
2D
  3
GouraudWithEdges
350
2E
  3
Linepattern
350
38
  3
Realistic
350
33
  3
Thicken
350
37
  0
DICTIONARY
  5
1FC
102
{ACAD_REACTORS
330
C
102
}
330
C
100
AcDbDictionary
281
     1
  3
DIMASSOC
350
1FF
  3
HIDETEXT
350
200
  0
LAYOUT
  5
1E
102
{ACAD_REACTORS
330
1A
102
}
330
1A
100
AcDbPlotSettings
  1

  2
none_device
  4

  6

 40
0.0
 41
0.0
 42
0.0
 43
0.0
 44
0.0
 45
0.0
 46
0.0
 47
0.0
 48
0.0
 49
0.0
140
0.0
141
0.0
142
1.0
143
1.0
 70
   688
 72
     0
 73
     0
 74
     5
  7

 75
    16
147
1.0
148
0.0
149
0.0
100
AcDbLayout
  1
Layout1
 70
     1
 71
     1
 10
0.0
 20
0.0
 11
12.0
 21
9.0
 12
0.0
 22
0.0
 32
0.0
 14
1.00000000000000E+20
 24
1.00000000000000E+20
 34
1.00000000000000E+20
 15
-1.00000000000000E+20
 25
-1.00000000000000E+20
 35
-1.00000000000000E+20
146
0.0
 13
0.0
 23
0.0
 33
0.0
 16
1.0
 26
0.0
 36
0.0
 17
0.0
 27
1.0
 37
0.0
 76
     0
330
1B
  0
LAYOUT
  5
26
102
{ACAD_REACTORS
330
1A
102
}
330
1A
100
AcDbPlotSettings
  1

  2
none_device
  4

  6

 40
0.0
 41
0.0
 42
0.0
 43
0.0
 44
0.0
 45
0.0
 46
0.0
 47
0.0
 48
0.0
 49
0.0
140
0.0
141
0.0
142
1.0
143
1.0
 70
   688
 72
     0
 73
     0
 74
     5
  7

 75
    16
147
1.0
148
0.0
149
0.0
100
AcDbLayout
  1
Layout2
 70
     1
 71
     2
 10
0.0
 20
0.0
 11
0.0
 21
0.0
 12
0.0
 22
0.0
 32
0.0
 14
0.0
 24
0.0
 34
0.0
 15
0.0
 25
0.0
 35
0.0
146
0.0
 13
0.0
 23
0.0
 33
0.0
 16
1.0
 26
0.0
 36
0.0
 17
0.0
 27
1.0
 37
0.0
 76
     0
330
23
  0
LAYOUT
  5
22
102
{ACAD_REACTORS
330
1A
102
}
330
1A
100
AcDbPlotSettings
  1

  2
none_device
  4

  6

 40
0.0
 41
0.0
 42
0.0
 43
0.0
 44
0.0
 45
0.0
 46
0.0
 47
0.0
 48
0.0
 49
0.0
140
0.0
141
0.0
142
1.0
143
1.0
 70
  1712
 72
     0
 73
     0
 74
     0
  7

 75
     0
147
1.0
148
0.0
149
0.0
100
AcDbLayout
  1
Model
 70
     1
 71
     0
 10
0.0
 20
0.0
 11
12.0
 21
9.0
 12
0.0
 22
0.0
 32
0.0
 14
0.0
 24
0.0
 34
0.0
 15
420.0
 25
594.0
 35
0.0
146
0.0
 13
0.0
 23
0.0
 33
0.0
 16
1.0
 26
0.0
 36
0.0
 17
0.0
 27
1.0
 37
0.0
 76
     0
330
1F
331
29
  0
MATERIAL
  5
3D
102
{ACAD_REACTORS
330
3B
102
}
102
{ACAD_XDICTIONARY
360
223
102
}
330
3B
100
AcDbMaterial
  1
ByBlock
  0
MATERIAL
  5
3C
102
{ACAD_REACTORS
330
3B
102
}
102
{ACAD_XDICTIONARY
360
221
102
}
330
3B
100
AcDbMaterial
  1
ByLayer
  0
MATERIAL
  5
3E
102
{ACAD_REACTORS
330
3B
102
}
102
{ACAD_XDICTIONARY
360
225
102
}
330
3B
100
AcDbMaterial
  1
Global
  0
MLINESTYLE
  5
18
102
{ACAD_REACTORS
330
17
102
}
330
17
100
AcDbMlineStyle
  2
Standard
 70
     0
  3

 62
   256
 51
90.0
 52
90.0
 71
     2
 49
0.5
 62
   256
  6
BYLAYER
 49
-0.5
 62
   256
  6
BYLAYER
  0
ACDBPLACEHOLDER
  5
F
102
{ACAD_REACTORS
330
E
102
}
330
E
  0
VISUALSTYLE
  5
2F
102
{ACAD_REACTORS
330
2A
102
}
102
{ACAD_XDICTIONARY
360
209
102
}
330
2A
100
AcDbVisualStyle
  2
2dWireframe
 70
     4
 71
     0
 72
     2
 73
     0
 90
        0
 40
-0.6
 41
-30.0
 62
     5
 63
     7
 74
     1
 91
        4
 64
     7
 65
   257
 75
     1
175
     1
 42
1.0
 92
        0
 66
   257
 43
1.0
 76
     1
 77
     6
 78
     2
 67
     7
 79
     5
170
     0
171
     0
290
     0
174
     0
 93
        1
 44
0.0
173
     0
291
     0
 45
0.0
1001
ACAD
1000
AcDbSavedByObjectVersion
1070
     0
  0
VISUALSTYLE
  5
31
102
{ACAD_REACTORS
330
2A
102
}
102
{ACAD_XDICTIONARY
360
20D
102
}
330
2A
100
AcDbVisualStyle
  2
3D Hidden
 70
     6
 71
     1
 72
     2
 73
     2
 90
        0
 40
-0.6
 41
-30.0
 62
     5
 63
     7
 74
     2
 91
        2
 64
     7
 65
   257
 75
     2
175
     1
 42
40.0
 92
        0
 66
   257
 43
1.0
 76
     1
 77
     6
 78
     2
 67
     7
 79
     3
170
     0
171
     0
290
     0
174
     0
 93
        1
 44
0.0
173
     0
291
     0
 45
0.0
1001
ACAD
1000
AcDbSavedByObjectVersion
1070
     0
  0
VISUALSTYLE
  5
30
102
{ACAD_REACTORS
330
2A
102
}
102
{ACAD_XDICTIONARY
360
20B
102
}
330
2A
100
AcDbVisualStyle
  2
3dWireframe
 70
     5
 71
     0
 72
     2
 73
     0
 90
        0
 40
-0.6
 41
-30.0
 62
     5
 63
     7
 74
     1
 91
        4
 64
     7
 65
   257
 75
     1
175
     1
 42
1.0
 92
        0
 66
   257
 43
1.0
 76
     1
 77
     6
 78
     2
 67
     7
 79
     5
170
     0
171
     0
290
     0
174
     0
 93
        1
 44
0.0
173
     0
291
     0
 45
0.0
1001
ACAD
1000
AcDbSavedByObjectVersion
1070
     0
  0
VISUALSTYLE
  5
32
102
{ACAD_REACTORS
330
2A
102
}
102
{ACAD_XDICTIONARY
360
20F
102
}
330
2A
100
AcDbVisualStyle
  2
Basic
 70
     7
 71
     1
 72
     0
 73
     1
 90
        0
 40
-0.6
 41
-30.0
 62
     5
 63
     7
 74
     0
 91
        4
 64
     7
 65
   257
 75
     1
175
     1
 42
1.0
 92
        8
 66
     7
 43
1.0
 76
     1
 77
     6
 78
     2
 67
     7
 79
     5
170
     0
171
     0
290
     0
174
     0
 93
        1
 44
0.0
173
     0
291
     1
 45
0.0
1001
ACAD
1000
AcDbSavedByObjectVersion
1070
     0
  0
VISUALSTYLE
  5
36
102
{ACAD_REACTORS
330
2A
102
}
102
{ACAD_XDICTIONARY
360
217
102
}
330
2A
100
AcDbVisualStyle
  2
Brighten
 70
    12
 71
     2
 72
     2
 73
     0
 90
        0
 40
-0.6
 41
-30.0
 62
     5
 63
     7
 74
     1
 91
        4
 64
     7
 65
   257
 75
     1
175
     1
 42
1.0
 92
        8
 66
     7
 43
1.0
 76
     1
 77
     6
 78
     2
 67
     7
 79
     5
170
     0
171
     0
290
     0
174
     0
 93
        1
 44
50.0
173
     0
291
     1
 45
0.0
1001
ACAD
1000
AcDbSavedByObjectVersion
1070
     0
  0
VISUALSTYLE
  5
3A
102
{ACAD_REACTORS
330
2A
102
}
102
{ACAD_XDICTIONARY
360
21F
102
}
330
2A
100
AcDbVisualStyle
  2
ColorChange
 70
    16
 71
     2
 72
     2
 73
     3
 90
        0
 40
-0.6
 41
-30.0
 62
     5
 63
     8
 74
     1
 91
        4
 64
     7
 65
   257
 75
     1
175
     1
 42
1.0
 92
        8
 66
     8
 43
1.0
 76
     1
 77
     6
 78
     2
 67
     7
 79
     5
170
     0
171
     0
290
     0
174
     0
 93
        1
 44
0.0
173
     0
291
     1
 45
0.0
1001
ACAD
1000
AcDbSavedByObjectVersion
1070
     0
  0
VISUALSTYLE
  5
34
102
{ACAD_REACTORS
330
2A
102
}
102
{ACAD_XDICTIONARY
360
213
102
}
330
2A
100
AcDbVisualStyle
  2
Conceptual
 70
     9
 71
     3
 72
     2
 73
     0
 90
        0
 40
-0.6
 41
-30.0
 62
     5
 63
     7
 74
     2
 91
        2
 64
     7
 65
   257
 75
     1
175
     1
 42
40.0
 92
        8
 66
     7
 43
1.0
 76
     1
 77
     6
 78
     2
 67
     7
 79
     3
170
     0
171
     0
290
     0
174
     0
 93
        1
 44
0.0
173
     0
291
     0
 45
0.0
1001
ACAD
1000
AcDbSavedByObjectVersion
1070
     0
  0
VISUALSTYLE
  5
35
102
{ACAD_REACTORS
330
2A
102
}
102
{ACAD_XDICTIONARY
360
215
102
}
330
2A
100
AcDbVisualStyle
  2
Dim
 70
    11
 71
     2
 72
     2
 73
     0
 90
        0
 40
-0.6
 41
-30.0
 62
     5
 63
     7
 74
     1
 91
        4
 64
     7
 65
   257
 75
     1
175
     1
 42
1.0
 92
        8
 66
     7
 43
1.0
 76
     1
 77
     6
 78
     2
 67
     7
 79
     5
170
     0
171
     0
290
     0
174
     0
 93
        1
 44
-50.0
173
     0
291
     1
 45
0.0
1001
ACAD
1000
AcDbSavedByObjectVersion
1070
     0
  0
VISUALSTYLE
  5
39
102
{ACAD_REACTORS
330
2A
102
}
102
{ACAD_XDICTIONARY
360
21D
102
}
330
2A
100
AcDbVisualStyle
  2
Facepattern
 70
    15
 71
     2
 72
     2
 73
     0
 90
        0
 40
-0.6
 41
-30.0
 62
     5
 63
     7
 74
     1
 91
        4
 64
     7
 65
   257
 75
     1
175
     1
 42
1.0
 92
        8
 66
     7
 43
1.0
 76
     1
 77
     6
 78
     2
 67
     7
 79
     5
170
     0
171
     0
290
     0
174
     0
 93
        1
 44
0.0
173
     0
291
     1
 45
0.0
1001
ACAD
1000
AcDbSavedByObjectVersion
1070
     0
  0
VISUALSTYLE
  5
2B
102
{ACAD_REACTORS
330
2A
102
}
102
{ACAD_XDICTIONARY
360
201
102
}
330
2A
100
AcDbVisualStyle
  2
Flat
 70
     0
 71
     2
 72
     1
 73
     1
 90
        2
 40
-0.6
 41
30.0
 62
     5
 63
     7
 74
     0
 91
        4
 64
     7
 65
   257
 75
     1
175
     1
 42
1.0
 92
        8
 66
     7
 43
1.0
 76
     1
 77
     6
 78
     2
 67
     7
 79
     5
170
     0
171
     0
290
     0
174
     0
 93
       13
 44
0.0
173
     0
291
     1
 45
0.0
1001
ACAD
1000
AcDbSavedByObjectVersion
1070
     0
  0
VISUALSTYLE
  5
2C
102
{ACAD_REACTORS
330
2A
102
}
102
{ACAD_XDICTIONARY
360
203
102
}
330
2A
100
AcDbVisualStyle
  2
FlatWithEdges
 70
     1
 71
     2
 72
     1
 73
     1
 90
        2
 40
-0.6
 41
30.0
 62
     5
 63
     7
 74
     1
 91
        4
 64
     7
 65
   257
 75
     1
175
     1
 42
1.0
 92
        0
 66
   257
 43
1.0
 76
     1
 77
     6
 78
     2
 67
     7
 79
     5
170
     0
171
     0
290
     0
174
     0
 93
       13
 44
0.0
173
     0
291
     1
 45
0.0
1001
ACAD
1000
AcDbSavedByObjectVersion
1070
     0
  0
VISUALSTYLE
  5
2D
102
{ACAD_REACTORS
330
2A
102
}
102
{ACAD_XDICTIONARY
360
205
102
}
330
2A
100
AcDbVisualStyle
  2
Gouraud
 70
     2
 71
     2
 72
     2
 73
     1
 90
        2
 40
-0.6
 41
30.0
 62
     5
 63
     7
 74
     0
 91
        4
 64
     7
 65
   257
 75
     1
175
     1
 42
1.0
 92
        0
 66
     7
 43
1.0
 76
     1
 77
     6
 78
     2
 67
     7
 79
     5
170
     0
171
     0
290
     0
174
     0
 93
       13
 44
0.0
173
     0
291
     1
 45
0.0
1001
ACAD
1000
AcDbSavedByObjectVersion
1070
     0
  0
VISUALSTYLE
  5
2E
102
{ACAD_REACTORS
330
2A
102
}
102
{ACAD_XDICTIONARY
360
207
102
}
330
2A
100
AcDbVisualStyle
  2
GouraudWithEdges
 70
     3
 71
     2
 72
     2
 73
     1
 90
        2
 40
-0.6
 41
30.0
 62
     5
 63
     7
 74
     1
 91
        4
 64
     7
 65
   257
 75
     1
175
     1
 42
1.0
 92
        0
 66
   257
 43
1.0
 76
     1
 77
     6
 78
     2
 67
     7
 79
     5
170
     0
171
     0
290
     0
174
     0
 93
       13
 44
0.0
173
     0
291
     1
 45
0.0
1001
ACAD
1000
AcDbSavedByObjectVersion
1070
     0
  0
VISUALSTYLE
  5
38
102
{ACAD_REACTORS
330
2A
102
}
102
{ACAD_XDICTIONARY
360
21B
102
}
330
2A
100
AcDbVisualStyle
  2
Linepattern
 70
    14
 71
     2
 72
     2
 73
     0
 90
        0
 40
-0.6
 41
-30.0
 62
     5
 63
     7
 74
     1
 91
        4
 64
     7
 65
   257
 75
     7
175
     7
 42
1.0
 92
        8
 66
     7
 43
1.0
 76
     1
 77
     6
 78
     2
 67
     7
 79
     5
170
     0
171
     0
290
     0
174
     0
 93
        1
 44
0.0
173
     0
291
     1
 45
0.0
1001
ACAD
1000
AcDbSavedByObjectVersion
1070
     0
  0
VISUALSTYLE
  5
33
102
{ACAD_REACTORS
330
2A
102
}
102
{ACAD_XDICTIONARY
360
211
102
}
330
2A
100
AcDbVisualStyle
  2
Realistic
 70
     8
 71
     2
 72
     2
 73
     0
 90
        0
 40
-0.6
 41
-30.0
 62
     5
 63
     7
 74
     1
 91
        0
 64
     7
 65
   257
 75
     1
175
     1
 42
1.0
 92
        8
 66
     8
 43
1.0
 76
     1
 77
     6
 78
     2
 67
     7
 79
     5
170
     0
171
     0
290
     0
174
     0
 93
       13
 44
0.0
173
     0
291
     0
 45
0.0
1001
ACAD
1000
AcDbSavedByObjectVersion
1070
     0
  0
VISUALSTYLE
  5
37
102
{ACAD_REACTORS
330
2A
102
}
102
{ACAD_XDICTIONARY
360
219
102
}
330
2A
100
AcDbVisualStyle
  2
Thicken
 70
    13
 71
     2
 72
     2
 73
     0
 90
        0
 40
-0.6
 41
-30.0
 62
     5
 63
     7
 74
     1
 91
        4
 64
     7
 65
   257
 75
     1
175
     1
 42
1.0
 92
       12
 66
     7
 43
1.0
 76
     1
 77
     6
 78
     2
 67
     7
 79
     5
170
     0
171
     0
290
     0
174
     0
 93
        1
 44
0.0
173
     0
291
     1
 45
0.0
1001
ACAD
1000
AcDbSavedByObjectVersion
1070
     0
  0
DICTIONARYVAR
  5
1FF
102
{ACAD_REACTORS
330
1FC
102
}
330
1FC
100
DictionaryVariables
280
     0
  1
2
  0
DICTIONARYVAR
  5
200
102
{ACAD_REACTORS
330
1FC
102
}
330
1FC
100
DictionaryVariables
280
     0
  1
1
  0
DICTIONARY
  5
223
330
3D
100
AcDbDictionary
280
     1
281
     1
  3
ACAD_XREC_ROUNDTRIP
360
224
  0
DICTIONARY
  5
221
330
3C
100
AcDbDictionary
280
     1
281
     1
  3
ACAD_XREC_ROUNDTRIP
360
222
  0
DICTIONARY
  5
225
330
3E
100
AcDbDictionary
280
     1
281
     1
  3
ACAD_XREC_ROUNDTRIP
360
226
  0
DICTIONARY
  5
209
330
2F
100
AcDbDictionary
280
     1
281
     1
  3
ACAD_XREC_ROUNDTRIP
360
20A
  0
DICTIONARY
  5
20D
330
31
100
AcDbDictionary
280
     1
281
     1
  3
ACAD_XREC_ROUNDTRIP
360
20E
  0
DICTIONARY
  5
20B
330
30
100
AcDbDictionary
280
     1
281
     1
  3
ACAD_XREC_ROUNDTRIP
360
20C
  0
DICTIONARY
  5
20F
330
32
100
AcDbDictionary
280
     1
281
     1
  3
ACAD_XREC_ROUNDTRIP
360
210
  0
DICTIONARY
  5
217
330
36
100
AcDbDictionary
280
     1
281
     1
  3
ACAD_XREC_ROUNDTRIP
360
218
  0
DICTIONARY
  5
21F
330
3A
100
AcDbDictionary
280
     1
281
     1
  3
ACAD_XREC_ROUNDTRIP
360
220
  0
DICTIONARY
  5
213
330
34
100
AcDbDictionary
280
     1
281
     1
  3
ACAD_XREC_ROUNDTRIP
360
214
  0
DICTIONARY
  5
215
330
35
100
AcDbDictionary
280
     1
281
     1
  3
ACAD_XREC_ROUNDTRIP
360
216
  0
DICTIONARY
  5
21D
330
39
100
AcDbDictionary
280
     1
281
     1
  3
ACAD_XREC_ROUNDTRIP
360
21E
  0
DICTIONARY
  5
201
330
2B
100
AcDbDictionary
280
     1
281
     1
  3
ACAD_XREC_ROUNDTRIP
360
202
  0
DICTIONARY
  5
203
330
2C
100
AcDbDictionary
280
     1
281
     1
  3
ACAD_XREC_ROUNDTRIP
360
204
  0
DICTIONARY
  5
205
330
2D
100
AcDbDictionary
280
     1
281
     1
  3
ACAD_XREC_ROUNDTRIP
360
206
  0
DICTIONARY
  5
207
330
2E
100
AcDbDictionary
280
     1
281
     1
  3
ACAD_XREC_ROUNDTRIP
360
208
  0
DICTIONARY
  5
21B
330
38
100
AcDbDictionary
280
     1
281
     1
  3
ACAD_XREC_ROUNDTRIP
360
21C
  0
DICTIONARY
  5
211
330
33
100
AcDbDictionary
280
     1
281
     1
  3
ACAD_XREC_ROUNDTRIP
360
212
  0
DICTIONARY
  5
219
330
37
100
AcDbDictionary
280
     1
281
     1
  3
ACAD_XREC_ROUNDTRIP
360
21A
  0
XRECORD
  5
224
102
{ACAD_REACTORS
330
223
102
}
330
223
100
AcDbXrecord
280
     1
102
MATERIAL
148
0.0
149
0.0
149
0.0
 93
        0
 94
      127
282
     0
 72
     1
 77
     1
171
     1
175
     1
179
     1
273
     0
  0
XRECORD
  5
222
102
{ACAD_REACTORS
330
221
102
}
330
221
100
AcDbXrecord
280
     1
102
MATERIAL
148
0.0
149
0.0
149
0.0
 93
        0
 94
      127
282
     0
 72
     1
 77
     1
171
     1
175
     1
179
     1
273
     0
  0
XRECORD
  5
226
102
{ACAD_REACTORS
330
225
102
}
330
225
100
AcDbXrecord
280
     1
102
MATERIAL
148
0.0
149
0.0
149
0.0
 93
        0
 94
      127
282
     0
 72
     1
 77
     1
171
     1
175
     1
179
     1
273
     0
  0
XRECORD
  5
20A
102
{ACAD_REACTORS
330
209
102
}
330
209
100
AcDbXrecord
280
     1
102
RTVSPropertyOp0
 70
     1
102
RTVSPropertyOp1
 70
     1
102
RTVSPropertyOp2
 70
     1
102
RTVSPropertyOp3
 70
     1
102
RTVSPropertyOp4
 70
     1
102
RTVSPropertyOp5
 70
     1
102
RTVSPropertyOp6
 70
     1
102
RTVSPropertyOp7
 70
     1
102
RTVSPropertyOp8
 70
     1
102
RTVSPropertyOp9
 70
     1
102
RTVSPropertyOp10
 70
     1
102
RTVSPropertyOp11
 70
     1
102
RTVSPropertyOp12
 70
     1
102
RTVSPropertyOp13
 70
     1
102
RTVSPropertyOp14
 70
     1
102
RTVSPropertyOp15
 70
     1
102
RTVSPropertyOp16
 70
     1
102
RTVSPropertyOp17
 70
     1
102
RTVSPropertyOp18
 70
     1
102
RTVSPropertyOp19
 70
     1
102
RTVSPropertyOp20
 70
     1
102
RTVSPropertyOp21
 70
     1
102
RTVSPropertyOp22
 70
     1
102
RTVSPropertyOp23
 70
     1
102
RTVSPropertyOp24
 70
     1
102
RTVSPropertyOp25
 70
     1
102
RTVSPropertyOp26
 70
     1
102
RTVSPropertyOp27
 70
     1
102
RTVSPropertyOp28
 70
     1
102
RTVSPropertyOp29
 70
     1
102
RTVSPropertyOp30
 70
     1
102
RTVSPropertyOp31
 70
     1
102
RTVSPropertyOp32
 70
     1
  0
XRECORD
  5
20E
102
{ACAD_REACTORS
330
20D
102
}
330
20D
100
AcDbXrecord
280
     1
102
RTVSPropertyOp0
 70
     1
102
RTVSPropertyOp1
 70
     1
102
RTVSPropertyOp2
 70
     1
102
RTVSPropertyOp3
 70
     1
102
RTVSPropertyOp4
 70
     1
102
RTVSPropertyOp5
 70
     1
102
RTVSPropertyOp6
 70
     1
102
RTVSPropertyOp7
 70
     1
102
RTVSPropertyOp8
 70
     1
102
RTVSPropertyOp9
 70
     1
102
RTVSPropertyOp10
 70
     1
102
RTVSPropertyOp11
 70
     1
102
RTVSPropertyOp12
 70
     1
102
RTVSPropertyOp13
 70
     1
102
RTVSPropertyOp14
 70
     1
102
RTVSPropertyOp15
 70
     1
102
RTVSPropertyOp16
 70
     1
102
RTVSPropertyOp17
 70
     1
102
RTVSPropertyOp18
 70
     1
102
RTVSPropertyOp19
 70
     1
102
RTVSPropertyOp20
 70
     1
102
RTVSPropertyOp21
 70
     1
102
RTVSPropertyOp22
 70
     1
102
RTVSPropertyOp23
 70
     1
102
RTVSPropertyOp24
 70
     1
102
RTVSPropertyOp25
 70
     1
102
RTVSPropertyOp26
 70
     1
102
RTVSPropertyOp27
 70
     1
102
RTVSPropertyOp28
 70
     1
102
RTVSPropertyOp29
 70
     1
102
RTVSPropertyOp30
 70
     1
102
RTVSPropertyOp31
 70
     1
102
RTVSPropertyOp32
 70
     1
  0
XRECORD
  5
20C
102
{ACAD_REACTORS
330
20B
102
}
330
20B
100
AcDbXrecord
280
     1
102
RTVSPropertyOp0
 70
     1
102
RTVSPropertyOp1
 70
     1
102
RTVSPropertyOp2
 70
     1
102
RTVSPropertyOp3
 70
     1
102
RTVSPropertyOp4
 70
     1
102
RTVSPropertyOp5
 70
     1
102
RTVSPropertyOp6
 70
     1
102
RTVSPropertyOp7
 70
     1
102
RTVSPropertyOp8
 70
     1
102
RTVSPropertyOp9
 70
     1
102
RTVSPropertyOp10
 70
     1
102
RTVSPropertyOp11
 70
     1
102
RTVSPropertyOp12
 70
     1
102
RTVSPropertyOp13
 70
     1
102
RTVSPropertyOp14
 70
     1
102
RTVSPropertyOp15
 70
     1
102
RTVSPropertyOp16
 70
     1
102
RTVSPropertyOp17
 70
     1
102
RTVSPropertyOp18
 70
     1
102
RTVSPropertyOp19
 70
     1
102
RTVSPropertyOp20
 70
     1
102
RTVSPropertyOp21
 70
     1
102
RTVSPropertyOp22
 70
     1
102
RTVSPropertyOp23
 70
     1
102
RTVSPropertyOp24
 70
     1
102
RTVSPropertyOp25
 70
     1
102
RTVSPropertyOp26
 70
     1
102
RTVSPropertyOp27
 70
     1
102
RTVSPropertyOp28
 70
     1
102
RTVSPropertyOp29
 70
     1
102
RTVSPropertyOp30
 70
     1
102
RTVSPropertyOp31
 70
     1
102
RTVSPropertyOp32
 70
     1
  0
XRECORD
  5
210
102
{ACAD_REACTORS
330
20F
102
}
330
20F
100
AcDbXrecord
280
     1
102
RTVSPropertyOp0
 70
     1
102
RTVSPropertyOp1
 70
     1
102
RTVSPropertyOp2
 70
     1
102
RTVSPropertyOp3
 70
     1
102
RTVSPropertyOp4
 70
     1
102
RTVSPropertyOp5
 70
     1
102
RTVSPropertyOp6
 70
     1
102
RTVSPropertyOp7
 70
     1
102
RTVSPropertyOp8
 70
     1
102
RTVSPropertyOp9
 70
     1
102
RTVSPropertyOp10
 70
     1
102
RTVSPropertyOp11
 70
     1
102
RTVSPropertyOp12
 70
     1
102
RTVSPropertyOp13
 70
     1
102
RTVSPropertyOp14
 70
     1
102
RTVSPropertyOp15
 70
     1
102
RTVSPropertyOp16
 70
     1
102
RTVSPropertyOp17
 70
     1
102
RTVSPropertyOp18
 70
     1
102
RTVSPropertyOp19
 70
     1
102
RTVSPropertyOp20
 70
     1
102
RTVSPropertyOp21
 70
     1
102
RTVSPropertyOp22
 70
     1
102
RTVSPropertyOp23
 70
     1
102
RTVSPropertyOp24
 70
     1
102
RTVSPropertyOp25
 70
     1
102
RTVSPropertyOp26
 70
     1
102
RTVSPropertyOp27
 70
     1
102
RTVSPropertyOp28
 70
     1
102
RTVSPropertyOp29
 70
     1
102
RTVSPropertyOp30
 70
     1
102
RTVSPropertyOp31
 70
     1
102
RTVSPropertyOp32
 70
     1
  0
XRECORD
  5
218
102
{ACAD_REACTORS
330
217
102
}
330
217
100
AcDbXrecord
280
     1
102
RTVSPropertyOp0
 70
     1
102
RTVSPropertyOp1
 70
     1
102
RTVSPropertyOp2
 70
     1
102
RTVSPropertyOp3
 70
     1
102
RTVSPropertyOp4
 70
     1
102
RTVSPropertyOp5
 70
     1
102
RTVSPropertyOp6
 70
     1
102
RTVSPropertyOp7
 70
     1
102
RTVSPropertyOp8
 70
     1
102
RTVSPropertyOp9
 70
     1
102
RTVSPropertyOp10
 70
     1
102
RTVSPropertyOp11
 70
     1
102
RTVSPropertyOp12
 70
     1
102
RTVSPropertyOp13
 70
     1
102
RTVSPropertyOp14
 70
     1
102
RTVSPropertyOp15
 70
     1
102
RTVSPropertyOp16
 70
     1
102
RTVSPropertyOp17
 70
     1
102
RTVSPropertyOp18
 70
     1
102
RTVSPropertyOp19
 70
     1
102
RTVSPropertyOp20
 70
     1
102
RTVSPropertyOp21
 70
     1
102
RTVSPropertyOp22
 70
     1
102
RTVSPropertyOp23
 70
     1
102
RTVSPropertyOp24
 70
     1
102
RTVSPropertyOp25
 70
     1
102
RTVSPropertyOp26
 70
     1
102
RTVSPropertyOp27
 70
     1
102
RTVSPropertyOp28
 70
     1
102
RTVSPropertyOp29
 70
     1
102
RTVSPropertyOp30
 70
     1
102
RTVSPropertyOp31
 70
     1
102
RTVSPropertyOp32
 70
     1
  0
XRECORD
  5
220
102
{ACAD_REACTORS
330
21F
102
}
330
21F
100
AcDbXrecord
280
     1
102
RTVSPropertyOp0
 70
     1
102
RTVSPropertyOp1
 70
     1
102
RTVSPropertyOp2
 70
     1
102
RTVSPropertyOp3
 70
     1
102
RTVSPropertyOp4
 70
     1
102
RTVSPropertyOp5
 70
     1
102
RTVSPropertyOp6
 70
     1
102
RTVSPropertyOp7
 70
     1
102
RTVSPropertyOp8
 70
     1
102
RTVSPropertyOp9
 70
     1
102
RTVSPropertyOp10
 70
     1
102
RTVSPropertyOp11
 70
     1
102
RTVSPropertyOp12
 70
     1
102
RTVSPropertyOp13
 70
     1
102
RTVSPropertyOp14
 70
     1
102
RTVSPropertyOp15
 70
     1
102
RTVSPropertyOp16
 70
     1
102
RTVSPropertyOp17
 70
     1
102
RTVSPropertyOp18
 70
     1
102
RTVSPropertyOp19
 70
     1
102
RTVSPropertyOp20
 70
     1
102
RTVSPropertyOp21
 70
     1
102
RTVSPropertyOp22
 70
     1
102
RTVSPropertyOp23
 70
     1
102
RTVSPropertyOp24
 70
     1
102
RTVSPropertyOp25
 70
     1
102
RTVSPropertyOp26
 70
     1
102
RTVSPropertyOp27
 70
     1
102
RTVSPropertyOp28
 70
     1
102
RTVSPropertyOp29
 70
     1
102
RTVSPropertyOp30
 70
     1
102
RTVSPropertyOp31
 70
     1
102
RTVSPropertyOp32
 70
     1
  0
XRECORD
  5
214
102
{ACAD_REACTORS
330
213
102
}
330
213
100
AcDbXrecord
280
     1
102
RTVSPropertyOp0
 70
     1
102
RTVSPropertyOp1
 70
     1
102
RTVSPropertyOp2
 70
     1
102
RTVSPropertyOp3
 70
     1
102
RTVSPropertyOp4
 70
     1
102
RTVSPropertyOp5
 70
     1
102
RTVSPropertyOp6
 70
     1
102
RTVSPropertyOp7
 70
     1
102
RTVSPropertyOp8
 70
     1
102
RTVSPropertyOp9
 70
     1
102
RTVSPropertyOp10
 70
     1
102
RTVSPropertyOp11
 70
     1
102
RTVSPropertyOp12
 70
     1
102
RTVSPropertyOp13
 70
     1
102
RTVSPropertyOp14
 70
     1
102
RTVSPropertyOp15
 70
     1
102
RTVSPropertyOp16
 70
     1
102
RTVSPropertyOp17
 70
     1
102
RTVSPropertyOp18
 70
     1
102
RTVSPropertyOp19
 70
     1
102
RTVSPropertyOp20
 70
     1
102
RTVSPropertyOp21
 70
     1
102
RTVSPropertyOp22
 70
     1
102
RTVSPropertyOp23
 70
     1
102
RTVSPropertyOp24
 70
     1
102
RTVSPropertyOp25
 70
     1
102
RTVSPropertyOp26
 70
     1
102
RTVSPropertyOp27
 70
     1
102
RTVSPropertyOp28
 70
     1
102
RTVSPropertyOp29
 70
     1
102
RTVSPropertyOp30
 70
     1
102
RTVSPropertyOp31
 70
     1
102
RTVSPropertyOp32
 70
     1
  0
XRECORD
  5
216
102
{ACAD_REACTORS
330
215
102
}
330
215
100
AcDbXrecord
280
     1
102
RTVSPropertyOp0
 70
     1
102
RTVSPropertyOp1
 70
     1
102
RTVSPropertyOp2
 70
     1
102
RTVSPropertyOp3
 70
     1
102
RTVSPropertyOp4
 70
     1
102
RTVSPropertyOp5
 70
     1
102
RTVSPropertyOp6
 70
     1
102
RTVSPropertyOp7
 70
     1
102
RTVSPropertyOp8
 70
     1
102
RTVSPropertyOp9
 70
     1
102
RTVSPropertyOp10
 70
     1
102
RTVSPropertyOp11
 70
     1
102
RTVSPropertyOp12
 70
     1
102
RTVSPropertyOp13
 70
     1
102
RTVSPropertyOp14
 70
     1
102
RTVSPropertyOp15
 70
     1
102
RTVSPropertyOp16
 70
     1
102
RTVSPropertyOp17
 70
     1
102
RTVSPropertyOp18
 70
     1
102
RTVSPropertyOp19
 70
     1
102
RTVSPropertyOp20
 70
     1
102
RTVSPropertyOp21
 70
     1
102
RTVSPropertyOp22
 70
     1
102
RTVSPropertyOp23
 70
     1
102
RTVSPropertyOp24
 70
     1
102
RTVSPropertyOp25
 70
     1
102
RTVSPropertyOp26
 70
     1
102
RTVSPropertyOp27
 70
     1
102
RTVSPropertyOp28
 70
     1
102
RTVSPropertyOp29
 70
     1
102
RTVSPropertyOp30
 70
     1
102
RTVSPropertyOp31
 70
     1
102
RTVSPropertyOp32
 70
     1
  0
XRECORD
  5
21E
102
{ACAD_REACTORS
330
21D
102
}
330
21D
100
AcDbXrecord
280
     1
102
RTVSPropertyOp0
 70
     1
102
RTVSPropertyOp1
 70
     1
102
RTVSPropertyOp2
 70
     1
102
RTVSPropertyOp3
 70
     1
102
RTVSPropertyOp4
 70
     1
102
RTVSPropertyOp5
 70
     1
102
RTVSPropertyOp6
 70
     1
102
RTVSPropertyOp7
 70
     1
102
RTVSPropertyOp8
 70
     1
102
RTVSPropertyOp9
 70
     1
102
RTVSPropertyOp10
 70
     1
102
RTVSPropertyOp11
 70
     1
102
RTVSPropertyOp12
 70
     1
102
RTVSPropertyOp13
 70
     1
102
RTVSPropertyOp14
 70
     1
102
RTVSPropertyOp15
 70
     1
102
RTVSPropertyOp16
 70
     1
102
RTVSPropertyOp17
 70
     1
102
RTVSPropertyOp18
 70
     1
102
RTVSPropertyOp19
 70
     1
102
RTVSPropertyOp20
 70
     1
102
RTVSPropertyOp21
 70
     1
102
RTVSPropertyOp22
 70
     1
102
RTVSPropertyOp23
 70
     1
102
RTVSPropertyOp24
 70
     1
102
RTVSPropertyOp25
 70
     1
102
RTVSPropertyOp26
 70
     1
102
RTVSPropertyOp27
 70
     1
102
RTVSPropertyOp28
 70
     1
102
RTVSPropertyOp29
 70
     1
102
RTVSPropertyOp30
 70
     1
102
RTVSPropertyOp31
 70
     1
102
RTVSPropertyOp32
 70
     1
  0
XRECORD
  5
202
102
{ACAD_REACTORS
330
201
102
}
330
201
100
AcDbXrecord
280
     1
102
RTVSPropertyOp0
 70
     1
102
RTVSPropertyOp1
 70
     1
102
RTVSPropertyOp2
 70
     1
102
RTVSPropertyOp3
 70
     1
102
RTVSPropertyOp4
 70
     1
102
RTVSPropertyOp5
 70
     1
102
RTVSPropertyOp6
 70
     1
102
RTVSPropertyOp7
 70
     1
102
RTVSPropertyOp8
 70
     1
102
RTVSPropertyOp9
 70
     1
102
RTVSPropertyOp10
 70
     1
102
RTVSPropertyOp11
 70
     1
102
RTVSPropertyOp12
 70
     1
102
RTVSPropertyOp13
 70
     1
102
RTVSPropertyOp14
 70
     1
102
RTVSPropertyOp15
 70
     1
102
RTVSPropertyOp16
 70
     1
102
RTVSPropertyOp17
 70
     1
102
RTVSPropertyOp18
 70
     1
102
RTVSPropertyOp19
 70
     1
102
RTVSPropertyOp20
 70
     1
102
RTVSPropertyOp21
 70
     1
102
RTVSPropertyOp22
 70
     1
102
RTVSPropertyOp23
 70
     1
102
RTVSPropertyOp24
 70
     1
102
RTVSPropertyOp25
 70
     1
102
RTVSPropertyOp26
 70
     1
102
RTVSPropertyOp27
 70
     1
102
RTVSPropertyOp28
 70
     1
102
RTVSPropertyOp29
 70
     1
102
RTVSPropertyOp30
 70
     1
102
RTVSPropertyOp31
 70
     1
102
RTVSPropertyOp32
 70
     1
  0
XRECORD
  5
204
102
{ACAD_REACTORS
330
203
102
}
330
203
100
AcDbXrecord
280
     1
102
RTVSPropertyOp0
 70
     1
102
RTVSPropertyOp1
 70
     1
102
RTVSPropertyOp2
 70
     1
102
RTVSPropertyOp3
 70
     1
102
RTVSPropertyOp4
 70
     1
102
RTVSPropertyOp5
 70
     1
102
RTVSPropertyOp6
 70
     1
102
RTVSPropertyOp7
 70
     1
102
RTVSPropertyOp8
 70
     1
102
RTVSPropertyOp9
 70
     1
102
RTVSPropertyOp10
 70
     1
102
RTVSPropertyOp11
 70
     1
102
RTVSPropertyOp12
 70
     1
102
RTVSPropertyOp13
 70
     1
102
RTVSPropertyOp14
 70
     1
102
RTVSPropertyOp15
 70
     1
102
RTVSPropertyOp16
 70
     1
102
RTVSPropertyOp17
 70
     1
102
RTVSPropertyOp18
 70
     1
102
RTVSPropertyOp19
 70
     1
102
RTVSPropertyOp20
 70
     1
102
RTVSPropertyOp21
 70
     1
102
RTVSPropertyOp22
 70
     1
102
RTVSPropertyOp23
 70
     1
102
RTVSPropertyOp24
 70
     1
102
RTVSPropertyOp25
 70
     1
102
RTVSPropertyOp26
 70
     1
102
RTVSPropertyOp27
 70
     1
102
RTVSPropertyOp28
 70
     1
102
RTVSPropertyOp29
 70
     1
102
RTVSPropertyOp30
 70
     1
102
RTVSPropertyOp31
 70
     1
102
RTVSPropertyOp32
 70
     1
  0
XRECORD
  5
206
102
{ACAD_REACTORS
330
205
102
}
330
205
100
AcDbXrecord
280
     1
102
RTVSPropertyOp0
 70
     1
102
RTVSPropertyOp1
 70
     1
102
RTVSPropertyOp2
 70
     1
102
RTVSPropertyOp3
 70
     1
102
RTVSPropertyOp4
 70
     1
102
RTVSPropertyOp5
 70
     1
102
RTVSPropertyOp6
 70
     1
102
RTVSPropertyOp7
 70
     1
102
RTVSPropertyOp8
 70
     1
102
RTVSPropertyOp9
 70
     1
102
RTVSPropertyOp10
 70
     1
102
RTVSPropertyOp11
 70
     1
102
RTVSPropertyOp12
 70
     1
102
RTVSPropertyOp13
 70
     1
102
RTVSPropertyOp14
 70
     1
102
RTVSPropertyOp15
 70
     1
102
RTVSPropertyOp16
 70
     1
102
RTVSPropertyOp17
 70
     1
102
RTVSPropertyOp18
 70
     1
102
RTVSPropertyOp19
 70
     1
102
RTVSPropertyOp20
 70
     1
102
RTVSPropertyOp21
 70
     1
102
RTVSPropertyOp22
 70
     1
102
RTVSPropertyOp23
 70
     1
102
RTVSPropertyOp24
 70
     1
102
RTVSPropertyOp25
 70
     1
102
RTVSPropertyOp26
 70
     1
102
RTVSPropertyOp27
 70
     1
102
RTVSPropertyOp28
 70
     1
102
RTVSPropertyOp29
 70
     1
102
RTVSPropertyOp30
 70
     1
102
RTVSPropertyOp31
 70
     1
102
RTVSPropertyOp32
 70
     1
  0
XRECORD
  5
208
102
{ACAD_REACTORS
330
207
102
}
330
207
100
AcDbXrecord
280
     1
102
RTVSPropertyOp0
 70
     1
102
RTVSPropertyOp1
 70
     1
102
RTVSPropertyOp2
 70
     1
102
RTVSPropertyOp3
 70
     1
102
RTVSPropertyOp4
 70
     1
102
RTVSPropertyOp5
 70
     1
102
RTVSPropertyOp6
 70
     1
102
RTVSPropertyOp7
 70
     1
102
RTVSPropertyOp8
 70
     1
102
RTVSPropertyOp9
 70
     1
102
RTVSPropertyOp10
 70
     1
102
RTVSPropertyOp11
 70
     1
102
RTVSPropertyOp12
 70
     1
102
RTVSPropertyOp13
 70
     1
102
RTVSPropertyOp14
 70
     1
102
RTVSPropertyOp15
 70
     1
102
RTVSPropertyOp16
 70
     1
102
RTVSPropertyOp17
 70
     1
102
RTVSPropertyOp18
 70
     1
102
RTVSPropertyOp19
 70
     1
102
RTVSPropertyOp20
 70
     1
102
RTVSPropertyOp21
 70
     1
102
RTVSPropertyOp22
 70
     1
102
RTVSPropertyOp23
 70
     1
102
RTVSPropertyOp24
 70
     1
102
RTVSPropertyOp25
 70
     1
102
RTVSPropertyOp26
 70
     1
102
RTVSPropertyOp27
 70
     1
102
RTVSPropertyOp28
 70
     1
102
RTVSPropertyOp29
 70
     1
102
RTVSPropertyOp30
 70
     1
102
RTVSPropertyOp31
 70
     1
102
RTVSPropertyOp32
 70
     1
  0
XRECORD
  5
21C
102
{ACAD_REACTORS
330
21B
102
}
330
21B
100
AcDbXrecord
280
     1
102
RTVSPropertyOp0
 70
     1
102
RTVSPropertyOp1
 70
     1
102
RTVSPropertyOp2
 70
     1
102
RTVSPropertyOp3
 70
     1
102
RTVSPropertyOp4
 70
     1
102
RTVSPropertyOp5
 70
     1
102
RTVSPropertyOp6
 70
     1
102
RTVSPropertyOp7
 70
     1
102
RTVSPropertyOp8
 70
     1
102
RTVSPropertyOp9
 70
     1
102
RTVSPropertyOp10
 70
     1
102
RTVSPropertyOp11
 70
     1
102
RTVSPropertyOp12
 70
     1
102
RTVSPropertyOp13
 70
     1
102
RTVSPropertyOp14
 70
     1
102
RTVSPropertyOp15
 70
     1
102
RTVSPropertyOp16
 70
     1
102
RTVSPropertyOp17
 70
     1
102
RTVSPropertyOp18
 70
     1
102
RTVSPropertyOp19
 70
     1
102
RTVSPropertyOp20
 70
     1
102
RTVSPropertyOp21
 70
     1
102
RTVSPropertyOp22
 70
     1
102
RTVSPropertyOp23
 70
     1
102
RTVSPropertyOp24
 70
     1
102
RTVSPropertyOp25
 70
     1
102
RTVSPropertyOp26
 70
     1
102
RTVSPropertyOp27
 70
     1
102
RTVSPropertyOp28
 70
     1
102
RTVSPropertyOp29
 70
     1
102
RTVSPropertyOp30
 70
     1
102
RTVSPropertyOp31
 70
     1
102
RTVSPropertyOp32
 70
     1
  0
XRECORD
  5
212
102
{ACAD_REACTORS
330
211
102
}
330
211
100
AcDbXrecord
280
     1
102
RTVSPropertyOp0
 70
     1
102
RTVSPropertyOp1
 70
     1
102
RTVSPropertyOp2
 70
     1
102
RTVSPropertyOp3
 70
     1
102
RTVSPropertyOp4
 70
     1
102
RTVSPropertyOp5
 70
     1
102
RTVSPropertyOp6
 70
     1
102
RTVSPropertyOp7
 70
     1
102
RTVSPropertyOp8
 70
     1
102
RTVSPropertyOp9
 70
     1
102
RTVSPropertyOp10
 70
     1
102
RTVSPropertyOp11
 70
     1
102
RTVSPropertyOp12
 70
     1
102
RTVSPropertyOp13
 70
     1
102
RTVSPropertyOp14
 70
     1
102
RTVSPropertyOp15
 70
     1
102
RTVSPropertyOp16
 70
     1
102
RTVSPropertyOp17
 70
     1
102
RTVSPropertyOp18
 70
     1
102
RTVSPropertyOp19
 70
     1
102
RTVSPropertyOp20
 70
     1
102
RTVSPropertyOp21
 70
     1
102
RTVSPropertyOp22
 70
     1
102
RTVSPropertyOp23
 70
     1
102
RTVSPropertyOp24
 70
     1
102
RTVSPropertyOp25
 70
     1
102
RTVSPropertyOp26
 70
     1
102
RTVSPropertyOp27
 70
     1
102
RTVSPropertyOp28
 70
     1
102
RTVSPropertyOp29
 70
     1
102
RTVSPropertyOp30
 70
     1
102
RTVSPropertyOp31
 70
     1
102
RTVSPropertyOp32
 70
     1
  0
XRECORD
  5
21A
102
{ACAD_REACTORS
330
219
102
}
330
219
100
AcDbXrecord
280
     1
102
RTVSPropertyOp0
 70
     1
102
RTVSPropertyOp1
 70
     1
102
RTVSPropertyOp2
 70
     1
102
RTVSPropertyOp3
 70
     1
102
RTVSPropertyOp4
 70
     1
102
RTVSPropertyOp5
 70
     1
102
RTVSPropertyOp6
 70
     1
102
RTVSPropertyOp7
 70
     1
102
RTVSPropertyOp8
 70
     1
102
RTVSPropertyOp9
 70
     1
102
RTVSPropertyOp10
 70
     1
102
RTVSPropertyOp11
 70
     1
102
RTVSPropertyOp12
 70
     1
102
RTVSPropertyOp13
 70
     1
102
RTVSPropertyOp14
 70
     1
102
RTVSPropertyOp15
 70
     1
102
RTVSPropertyOp16
 70
     1
102
RTVSPropertyOp17
 70
     1
102
RTVSPropertyOp18
 70
     1
102
RTVSPropertyOp19
 70
     1
102
RTVSPropertyOp20
 70
     1
102
RTVSPropertyOp21
 70
     1
102
RTVSPropertyOp22
 70
     1
102
RTVSPropertyOp23
 70
     1
102
RTVSPropertyOp24
 70
     1
102
RTVSPropertyOp25
 70
     1
102
RTVSPropertyOp26
 70
     1
102
RTVSPropertyOp27
 70
     1
102
RTVSPropertyOp28
 70
     1
102
RTVSPropertyOp29
 70
     1
102
RTVSPropertyOp30
 70
     1
102
RTVSPropertyOp31
 70
     1
102
RTVSPropertyOp32
 70
     1
  0
ENDSEC
  0
EOF
