  0
SECTION
  2
HEADER
  9
$ACADVER
  1
AC1015
  9
$ACADMAINTVER
 70
     6
  9
$DWGCODEPAGE
  3
DOS932
  9
$INSBASE
 10
0.0
 20
0.0
 30
0.0
  9
$EXTMIN
 10
0.0
 20
0.0
 30
0.0
  9
$EXTMAX
 10
420.0
 20
594.0
 30
0.0
  9
$LIMMIN
 10
0.0
 20
0.0
  9
$LIMMAX
 10
12.0
 20
9.0
  9
$ORTHOMODE
 70
     0
  9
$REGENMODE
 70
     1
  9
$FILLMODE
 70
     1
  9
$QTEXTMODE
 70
     0
  9
$MIRRTEXT
 70
     1
  9
$LTSCALE
 40
1.0
  9
$ATTMODE
 70
     1
  9
$TEXTSIZE
 40
0.2
  9
$TRACEWID
 40
0.05
  9
$TEXTSTYLE
  7
Standard
  9
$CLAYER
  8
0
  9
$CELTYPE
  6
ByLayer
  9
$CECOLOR
 62
   256
  9
$CELTSCALE
 40
1.0
  9
$DISPSILH
 70
     0
  9
$DIMSCALE
 40
1.0
  9
$DIMASZ
 40
0.18
  9
$DIMEXO
 40
0.0625
  9
$DIMDLI
 40
0.38
  9
$DIMRND
 40
0.0
  9
$DIMDLE
 40
0.0
  9
$DIMEXE
 40
0.18
  9
$DIMTP
 40
0.0
  9
$DIMTM
 40
0.0
  9
$DIMTXT
 40
0.18
  9
$DIMCEN
 40
0.09
  9
$DIMTSZ
 40
0.0
  9
$DIMTOL
 70
     0
  9
$DIMLIM
 70
     0
  9
$DIMTIH
 70
     1
  9
$DIMTOH
 70
     1
  9
$DIMSE1
 70
     0
  9
$DIMSE2
 70
     0
  9
$DIMTAD
 70
     0
  9
$DIMZIN
 70
     0
  9
$DIMBLK
  1

  9
$DIMASO
 70
     1
  9
$DIMSHO
 70
     1
  9
$DIMPOST
  1

  9
$DIMAPOST
  1

  9
$DIMALT
 70
     0
  9
$DIMALTD
 70
     2
  9
$DIMALTF
 40
25.4
  9
$DIMLFAC
 40
1.0
  9
$DIMTOFL
 70
     0
  9
$DIMTVP
 40
0.0
  9
$DIMTIX
 70
     0
  9
$DIMSOXD
 70
     0
  9
$DIMSAH
 70
     0
  9
$DIMBLK1
  1

  9
$DIMBLK2
  1

  9
$DIMSTYLE
  2
Standard
  9
$DIMCLRD
 70
     0
  9
$DIMCLRE
 70
     0
  9
$DIMCLRT
 70
     0
  9
$DIMTFAC
 40
1.0
  9
$DIMGAP
 40
0.09
  9
$DIMJUST
 70
     0
  9
$DIMSD1
 70
     0
  9
$DIMSD2
 70
     0
  9
$DIMTOLJ
 70
     1
  9
$DIMTZIN
 70
     0
  9
$DIMALTZ
 70
     0
  9
$DIMALTTZ
 70
     0
  9
$DIMUPT
 70
     0
  9
$DIMDEC
 70
     4
  9
$DIMTDEC
 70
     4
  9
$DIMALTU
 70
     2
  9
$DIMALTTD
 70
     2
  9
$DIMTXSTY
  7
Standard
  9
$DIMAUNIT
 70
     0
  9
$DIMADEC
 70
     0
  9
$DIMALTRND
 40
0.0
  9
$DIMAZIN
 70
     0
  9
$DIMDSEP
 70
    46
  9
$DIMATFIT
 70
     3
  9
$DIMFRAC
 70
     0
  9
$DIMLDRBLK
  1

  9
$DIMLUNIT
 70
     2
  9
$DIMLWD
 70
    -2
  9
$DIMLWE
 70
    -2
  9
$DIMTMOVE
 70
     0
  9
$LUNITS
 70
     2
  9
$LUPREC
 70
     4
  9
$SKETCHINC
 40
0.1
  9
$FILLETRAD
 40
0.5
  9
$AUNITS
 70
     0
  9
$AUPREC
 70
     0
  9
$MENU
  1
.
  9
$ELEVATION
 40
0.0
  9
$PELEVATION
 40
0.0
  9
$THICKNESS
 40
0.0
  9
$LIMCHECK
 70
     0
  9
$CHAMFERA
 40
0.5
  9
$CHAMFERB
 40
0.5
  9
$CHAMFERC
 40
1.0
  9
$CHAMFERD
 40
0.0
  9
$SKPOLY
 70
     0
  9
$TDCREATE
 40
2456143.41323169
  9
$TDUCREATE
 40
2456143.03823169
  9
$TDUPDATE
 40
2456143.413231702
  9
$TDUUPDATE
 40
2456143.038231702
  9
$TDINDWG
 40
0.0000000116
  9
$TDUSRTIMER
 40
0.0000000116
  9
$USRTIMER
 70
     1
  9
$ANGBASE
 50
0.0
  9
$ANGDIR
 70
     0
  9
$PDMODE
 70
     0
  9
$PDSIZE
 40
0.0
  9
$PLINEWID
 40
0.0
  9
$SPLFRAME
 70
     0
  9
$SPLINETYPE
 70
     6
  9
$SPLINESEGS
 70
     8
  9
$HANDSEED
  5
26B
  9
$SURFTAB1
 70
     6
  9
$SURFTAB2
 70
     6
  9
$SURFTYPE
 70
     6
  9
$SURFU
 70
     6
  9
$SURFV
 70
     6
  9
$UCSBASE
  2

  9
$UCSNAME
  2

  9
$UCSORG
 10
0.0
 20
0.0
 30
0.0
  9
$UCSXDIR
 10
1.0
 20
0.0
 30
0.0
  9
$UCSYDIR
 10
0.0
 20
1.0
 30
0.0
  9
$UCSORTHOREF
  2

  9
$UCSORTHOVIEW
 70
     0
  9
$UCSORGTOP
 10
0.0
 20
0.0
 30
0.0
  9
$UCSORGBOTTOM
 10
0.0
 20
0.0
 30
0.0
  9
$UCSORGLEFT
 10
0.0
 20
0.0
 30
0.0
  9
$UCSORGRIGHT
 10
0.0
 20
0.0
 30
0.0
  9
$UCSORGFRONT
 10
0.0
 20
0.0
 30
0.0
  9
$UCSORGBACK
 10
0.0
 20
0.0
 30
0.0
  9
$PUCSBASE
  2

  9
$PUCSNAME
  2

  9
$PUCSORG
 10
0.0
 20
0.0
 30
0.0
  9
$PUCSXDIR
 10
1.0
 20
0.0
 30
0.0
  9
$PUCSYDIR
 10
0.0
 20
1.0
 30
0.0
  9
$PUCSORTHOREF
  2

  9
$PUCSORTHOVIEW
 70
     0
  9
$PUCSORGTOP
 10
0.0
 20
0.0
 30
0.0
  9
$PUCSORGBOTTOM
 10
0.0
 20
0.0
 30
0.0
  9
$PUCSORGLEFT
 10
0.0
 20
0.0
 30
0.0
  9
$PUCSORGRIGHT
 10
0.0
 20
0.0
 30
0.0
  9
$PUCSORGFRONT
 10
0.0
 20
0.0
 30
0.0
  9
$PUCSORGBACK
 10
0.0
 20
0.0
 30
0.0
  9
$USERI1
 70
     0
  9
$USERI2
 70
     0
  9
$USERI3
 70
     0
  9
$USERI4
 70
     0
  9
$USERI5
 70
     0
  9
$USERR1
 40
13.2
  9
$USERR2
 40
0.0
  9
$USERR3
 40
0.0
  9
$USERR4
 40
0.0
  9
$USERR5
 40
0.0
  9
$WORLDVIEW
 70
     1
  9
$SHADEDGE
 70
     3
  9
$SHADEDIF
 70
    70
  9
$TILEMODE
 70
     1
  9
$MAXACTVP
 70
    64
  9
$PINSBASE
 10
0.0
 20
0.0
 30
0.0
  9
$PLIMCHECK
 70
     0
  9
$PEXTMIN
 10
1.00000000000000E+20
 20
1.00000000000000E+20
 30
1.00000000000000E+20
  9
$PEXTMAX
 10
-1.00000000000000E+20
 20
-1.00000000000000E+20
 30
-1.00000000000000E+20
  9
$PLIMMIN
 10
0.0
 20
0.0
  9
$PLIMMAX
 10
12.0
 20
9.0
  9
$UNITMODE
 70
     0
  9
$VISRETAIN
 70
     1
  9
$PLINEGEN
 70
     0
  9
$PSLTSCALE
 70
     1
  9
$TREEDEPTH
 70
  3020
  9
$CMLSTYLE
  2
Standard
  9
$CMLJUST
 70
     0
  9
$CMLSCALE
 40
1.0
  9
$PROXYGRAPHICS
 70
     1
  9
$MEASUREMENT
 70
     1
  9
$CELWEIGHT
370
    -1
  9
$ENDCAPS
280
     0
  9
$JOINSTYLE
280
     0
  9
$LWDISPLAY
290
     0
  9
$INSUNITS
 70
     1
  9
$HYPERLINKBASE
  1

  9
$STYLESHEET
  1

  9
$XEDIT
290
     1
  9
$CEPSNTYPE
380
     0
  9
$PSTYLEMODE
290
     0
  9
$FINGERPRINTGUID
  2
{FAEB1C30-E019-11D5-929B-00C0DF256EC4}
  9
$VERSIONGUID
  2
{FAEB1C32-E019-11D5-929B-00C0DF256EC4}
  9
$EXTNAMES
290
     1
  9
$PSVPSCALE
 40
0.0
  9
$OLESTARTUP
290
     0
  0
ENDSEC
  0
SECTION
  2
CLASSES
  0
CLASS
  1
ACDBDICTIONARYWDFLT
  2
AcDbDictionaryWithDefault
  3
ObjectDBX Classes
 90
        0
280
     0
281
     0
  0
CLASS
  1
TABLESTYLE
  2
AcDbTableStyle
  3
ObjectDBX Classes
 90
     2047
280
     0
281
     0
  0
CLASS
  1
DICTIONARYVAR
  2
AcDbDictionaryVar
  3
ObjectDBX Classes
 90
        0
280
     0
281
     0
  0
CLASS
  1

  2
exOdDbSpline
  3

 90
        0
280
     0
281
     1
  0
CLASS
  1

  2
exOdDbCircle
  3

 90
        0
280
     0
281
     1
  0
CLASS
  1
ACDBPLACEHOLDER
  2
AcDbPlaceHolder
  3
ObjectDBX Classes
 90
        0
280
     0
281
     0
  0
CLASS
  1
LAYOUT
  2
AcDbLayout
  3
ObjectDBX Classes
 90
        0
280
     0
281
     0
  0
ENDSEC
  0
SECTION
  2
TABLES
  0
TABLE
  2
VPORT
  5
8
330
0
100
AcDbSymbolTable
 70
     2
  0
VPORT
  5
29
330
8
100
AcDbSymbolTableRecord
100
AcDbViewportTableRecord
  2
*Active
 70
     0
 10
0.0
 20
0.0
 11
1.0
 21
1.0
 12
210.0
 22
297.0
 13
0.0
 23
0.0
 14
0.5
 24
0.5
 15
0.5
 25
0.5
 16
0.0
 26
0.0
 36
1.0
 17
0.0
 27
0.0
 37
0.0
 40
653.4000000000001
 41
1.60267857142857
 42
50.0
 43
0.0
 44
0.0
 50
0.0
 51
0.0
 71
     0
 72
   100
 73
     1
 74
     3
 75
     0
 76
     0
 77
     0
 78
     0
281
     0
 65
     1
110
0.0
120
0.0
130
0.0
111
1.0
121
0.0
131
0.0
112
0.0
122
1.0
132
0.0
 79
     0
146
0.0
  0
ENDTAB
  0
TABLE
  2
LTYPE
  5
5
330
0
100
AcDbSymbolTable
 70
     8
  0
LTYPE
  5
14
330
5
100
AcDbSymbolTableRecord
100
AcDbLinetypeTableRecord
  2
ByBlock
 70
     0
  3

 72
    65
 73
     0
 40
0.0
  0
LTYPE
  5
15
330
5
100
AcDbSymbolTableRecord
100
AcDbLinetypeTableRecord
  2
ByLayer
 70
     0
  3

 72
    65
 73
     0
 40
0.0
  0
LTYPE
  5
16
330
5
100
AcDbSymbolTableRecord
100
AcDbLinetypeTableRecord
  2
Continuous
 70
     0
  3
Solid line
 72
    65
 73
     0
 40
0.0
  0
LTYPE
  5
2E
330
5
100
AcDbSymbolTableRecord
100
AcDbLinetypeTableRecord
  2
DASHED
 70
     0
  3
Dashed
 72
    65
 73
     2
 40
15.0
 49
7.0
 74
     0
 49
-8.0
 74
     0
  0
LTYPE
  5
2F
330
5
100
AcDbSymbolTableRecord
100
AcDbLinetypeTableRecord
  2
DOTTED
 70
     0
  3
Dotted
 72
    65
 73
     2
 40
1.0
 49
0.0
 74
     0
 49
-1.0
 74
     0
  0
LTYPE
  5
30
330
5
100
AcDbSymbolTableRecord
100
AcDbLinetypeTableRecord
  2
DOT_CENTER
 70
     0
  3
Dot_Center
 72
    65
 73
     4
 40
14.0
 49
12.0
 74
     0
 49
-1.0
 74
     0
 49
0.0
 74
     0
 49
-1.0
 74
     0
  0
LTYPE
  5
31
330
5
100
AcDbSymbolTableRecord
100
AcDbLinetypeTableRecord
  2
LONG_DASHED
 70
     0
  3
Long_Dashed
 72
    65
 73
     2
 40
15.0
 49
10.0
 74
     0
 49
-5.0
 74
     0
  0
LTYPE
  5
32
330
5
100
AcDbSymbolTableRecord
100
AcDbLinetypeTableRecord
  2
DASH_CENTER
 70
     0
  3
Dash_Center
 72
    65
 73
     4
 40
14.0
 49
11.0
 74
     0
 49
-1.0
 74
     0
 49
1.0
 74
     0
 49
-1.0
 74
     0
  0
LTYPE
  5
33
330
5
100
AcDbSymbolTableRecord
100
AcDbLinetypeTableRecord
  2
PHANTOM
 70
     0
  3
Phantom
 72
    65
 73
     6
 40
13.0
 49
10.0
 74
     0
 49
-1.0
 74
     0
 49
0.0
 74
     0
 49
-1.0
 74
     0
 49
0.0
 74
     0
 49
-1.0
 74
     0
  0
LTYPE
  5
34
330
5
100
AcDbSymbolTableRecord
100
AcDbLinetypeTableRecord
  2
CENTER_DASH_DASH
 70
     0
  3
Center_Dash_Dash
 72
    65
 73
     6
 40
14.0
 49
9.0
 74
     0
 49
-1.0
 74
     0
 49
1.0
 74
     0
 49
-1.0
 74
     0
 49
1.0
 74
     0
 49
-1.0
 74
     0
  0
ENDTAB
  0
TABLE
  2
LAYER
  5
2
330
0
100
AcDbSymbolTable
 70
     2
  0
LAYER
  5
10
330
2
100
AcDbSymbolTableRecord
100
AcDbLayerTableRecord
  2
0
 70
     0
 62
     7
  6
Continuous
370
    -3
390
F
  0
LAYER
  5
35
330
2
100
AcDbSymbolTableRecord
100
AcDbLayerTableRecord
  2
1
 70
     0
 62
     7
  6
Continuous
370
    -3
390
F
  0
ENDTAB
  0
TABLE
  2
STYLE
  5
3
330
0
100
AcDbSymbolTable
 70
     3
  0
STYLE
  5
11
330
3
100
AcDbSymbolTableRecord
100
AcDbTextStyleTableRecord
  2
Standard
 70
     0
 40
0.0
 41
1.0
 50
0.0
 71
     0
 42
0.2
  3
txt
  4

  0
STYLE
  5
1F8
330
3
100
AcDbSymbolTableRecord
100
AcDbTextStyleTableRecord
  2
CONVERTER_1
 70
     0
 40
0.0
 41
0.89
 50
0.0
 71
     0
 42
0.2
  3
msmincho.ttc
  4

1001
ACAD
1000
MS Mincho
1071
    32785
  0
STYLE
  5
213
330
3
100
AcDbSymbolTableRecord
100
AcDbTextStyleTableRecord
  2
CONVERTER_2
 70
     0
 40
0.0
 41
0.9
 50
0.0
 71
     0
 42
0.2
  3
txt.shx
  4

  0
ENDTAB
  0
TABLE
  2
VIEW
  5
6
330
0
100
AcDbSymbolTable
 70
     0
  0
ENDTAB
  0
TABLE
  2
UCS
  5
7
330
0
100
AcDbSymbolTable
 70
     0
  0
ENDTAB
  0
TABLE
  2
APPID
  5
9
330
0
100
AcDbSymbolTable
 70
     1
  0
APPID
  5
12
330
9
100
AcDbSymbolTableRecord
100
AcDbRegAppTableRecord
  2
ACAD
 70
     0
  0
ENDTAB
  0
TABLE
  2
DIMSTYLE
  5
A
330
0
100
AcDbSymbolTable
 70
     8
100
AcDbDimStyleTable
  0
DIMSTYLE
105
27
330
A
100
AcDbSymbolTableRecord
100
AcDbDimStyleTableRecord
  2
Standard
 70
     0
340
11
  0
DIMSTYLE
105
224
102
{ACAD_REACTORS
330
225
102
}
330
A
100
AcDbSymbolTableRecord
100
AcDbDimStyleTableRecord
  2
ME10_DIM_0
 70
     0
 41
7.0
 42
0.0
 44
2.0
 73
     0
 74
     0
 77
     1
 78
     8
140
7.0
147
0.625
172
     1
173
     1
176
     2
177
     2
178
     7
271
     2
340
213
  0
DIMSTYLE
105
22F
102
{ACAD_REACTORS
330
230
102
}
330
A
100
AcDbSymbolTableRecord
100
AcDbDimStyleTableRecord
  2
ME10_DIM_1
 70
     0
 41
7.0
 42
0.0
 44
2.0
 73
     0
 74
     0
 77
     1
 78
     8
140
7.0
147
0.625
172
     1
173
     1
176
     2
177
     2
178
     7
271
     2
340
213
  0
DIMSTYLE
105
23A
102
{ACAD_REACTORS
330
23B
102
}
330
A
100
AcDbSymbolTableRecord
100
AcDbDimStyleTableRecord
  2
ME10_DIM_2
 70
     0
 41
7.0
 42
0.0
 44
2.0
 73
     0
 74
     0
 77
     1
 78
     8
140
7.0
147
0.625
172
     1
173
     1
176
     2
177
     2
178
     7
271
     2
340
1F8
  0
DIMSTYLE
105
245
102
{ACAD_REACTORS
330
246
102
}
330
A
100
AcDbSymbolTableRecord
100
AcDbDimStyleTableRecord
  2
ME10_DIM_3
 70
     0
 41
7.0
 42
0.0
 44
2.0
 73
     0
 74
     0
 77
     1
 78
     8
140
7.0
147
0.625
172
     1
173
     1
176
     2
177
     2
178
     7
271
     2
340
213
  0
DIMSTYLE
105
252
102
{ACAD_REACTORS
330
253
102
}
330
A
100
AcDbSymbolTableRecord
100
AcDbDimStyleTableRecord
  2
ME10_DIM_4
 70
     0
 41
7.0
 42
0.0
 44
2.0
 73
     0
 74
     0
 77
     1
 78
     8
140
7.0
147
0.625
172
     1
173
     1
176
     2
177
     2
178
     7
271
     2
340
213
  0
DIMSTYLE
105
25E
102
{ACAD_REACTORS
330
25F
102
}
330
A
100
AcDbSymbolTableRecord
100
AcDbDimStyleTableRecord
  2
ME10_DIM_5
 70
     0
 41
7.0
 42
0.0
 44
2.0
 73
     0
 74
     0
 77
     1
 78
     8
140
7.0
147
0.625
172
     1
173
     1
176
     2
177
     2
178
     7
271
     2
340
213
  0
DIMSTYLE
105
269
102
{ACAD_REACTORS
330
26A
102
}
330
A
100
AcDbSymbolTableRecord
100
AcDbDimStyleTableRecord
  2
ME10_DIM_6
 70
     0
 41
7.0
 42
0.0
 44
2.0
 73
     0
 74
     0
 77
     1
 78
     8
140
7.0
147
0.625
172
     1
173
     1
176
     2
177
     2
178
     7
271
     2
340
213
  0
ENDTAB
  0
TABLE
  2
BLOCK_RECORD
  5
1
330
0
100
AcDbSymbolTable
 70
    19
  0
BLOCK_RECORD
  5
1F
330
1
100
AcDbSymbolTableRecord
100
AcDbBlockTableRecord
  2
*Model_Space
340
22
  0
BLOCK_RECORD
  5
1B
330
1
100
AcDbSymbolTableRecord
100
AcDbBlockTableRecord
  2
*Paper_Space
340
1E
  0
BLOCK_RECORD
  5
23
330
1
100
AcDbSymbolTableRecord
100
AcDbBlockTableRecord
  2
*Paper_Space0
340
26
  0
BLOCK_RECORD
  5
36
330
1
100
AcDbSymbolTableRecord
100
AcDbBlockTableRecord
  2
V22-0A-13
340
0
102
{BLKREFS
331
59
102
}
  0
BLOCK_RECORD
  5
39
330
1
100
AcDbSymbolTableRecord
100
AcDbBlockTableRecord
  2
64-7-13-75-M11
340
0
102
{BLKREFS
331
5A
102
}
  0
BLOCK_RECORD
  5
3C
330
1
100
AcDbSymbolTableRecord
100
AcDbBlockTableRecord
  2
78-167
340
0
102
{BLKREFS
331
5B
102
}
  0
BLOCK_RECORD
  5
3F
330
1
100
AcDbSymbolTableRecord
100
AcDbBlockTableRecord
  2
V22-0A-13-__________
340
0
102
{BLKREFS
331
5C
102
}
  0
BLOCK_RECORD
  5
42
330
1
100
AcDbSymbolTableRecord
100
AcDbBlockTableRecord
  2
36-1A-13
340
0
102
{BLKREFS
331
5D
102
}
  0
BLOCK_RECORD
  5
45
330
1
100
AcDbSymbolTableRecord
100
AcDbBlockTableRecord
  2
32-12
340
0
102
{BLKREFS
331
5E
102
}
  0
BLOCK_RECORD
  5
48
330
1
100
AcDbSymbolTableRecord
100
AcDbBlockTableRecord
  2
37-1-13
340
0
102
{BLKREFS
331
5F
102
}
  0
BLOCK_RECORD
  5
4B
330
1
100
AcDbSymbolTableRecord
100
AcDbBlockTableRecord
  2
42-15
340
0
102
{BLKREFS
331
52
102
}
  0
BLOCK_RECORD
  5
4E
330
1
100
AcDbSymbolTableRecord
100
AcDbBlockTableRecord
  2
21-1A
340
0
102
{BLKREFS
331
53
102
}
  0
BLOCK_RECORD
  5
51
330
1
100
AcDbSymbolTableRecord
100
AcDbBlockTableRecord
  2
R10A
340
0
102
{BLKREFS
331
60
102
}
  0
BLOCK_RECORD
  5
56
330
1
100
AcDbSymbolTableRecord
100
AcDbBlockTableRecord
  2
_J__A4
340
0
102
{BLKREFS
331
61
102
}
  0
BLOCK_RECORD
  5
21B
330
1
100
AcDbSymbolTableRecord
100
AcDbBlockTableRecord
  2
*D012
340
0
  0
BLOCK_RECORD
  5
226
330
1
100
AcDbSymbolTableRecord
100
AcDbBlockTableRecord
  2
*D113
340
0
  0
BLOCK_RECORD
  5
231
330
1
100
AcDbSymbolTableRecord
100
AcDbBlockTableRecord
  2
*D214
340
0
  0
BLOCK_RECORD
  5
23C
330
1
100
AcDbSymbolTableRecord
100
AcDbBlockTableRecord
  2
*D315
340
0
  0
BLOCK_RECORD
  5
247
330
1
100
AcDbSymbolTableRecord
100
AcDbBlockTableRecord
  2
*D416
340
0
  0
BLOCK_RECORD
  5
254
330
1
100
AcDbSymbolTableRecord
100
AcDbBlockTableRecord
  2
*D517
340
0
  0
BLOCK_RECORD
  5
260
330
1
100
AcDbSymbolTableRecord
100
AcDbBlockTableRecord
  2
*D618
340
0
  0
ENDTAB
  0
ENDSEC
  0
SECTION
  2
BLOCKS
  0
BLOCK
  5
20
330
1F
100
AcDbEntity
  8
0
100
AcDbBlockBegin
  2
*Model_Space
 70
     0
 71
     0
 10
0.0
 20
0.0
 30
0.0
  3
*Model_Space
  1

  0
ENDBLK
  5
21
330
1F
100
AcDbEntity
  8
0
100
AcDbBlockEnd
  0
BLOCK
  5
1C
330
1B
100
AcDbEntity
 67
     1
  8
0
100
AcDbBlockBegin
  2
*Paper_Space
 70
     0
 71
     0
 10
0.0
 20
0.0
 30
0.0
  3
*Paper_Space
  1

  0
ENDBLK
  5
1D
330
1B
100
AcDbEntity
 67
     1
  8
0
100
AcDbBlockEnd
  0
BLOCK
  5
24
330
23
100
AcDbEntity
  8
0
100
AcDbBlockBegin
  2
*Paper_Space0
 70
     0
 71
     0
 10
0.0
 20
0.0
 30
0.0
  3
*Paper_Space0
  1

  0
ENDBLK
  5
25
330
23
100
AcDbEntity
  8
0
100
AcDbBlockEnd
  0
BLOCK
  5
37
330
36
100
AcDbEntity
  8
0
100
AcDbBlockBegin
  2
V22-0A-13
 70
     0
 71
     0
 10
133.7385709387331
 20
1759.277740897449
 30
0.0
  3
V22-0A-13
  1

  0
LINE
  5
62
330
36
100
AcDbEntity
  8
1
  6
Continuous
 62
     7
100
AcDbLine
 10
96.13709254803185
 20
342.8907514923188
 30
0.0
 11
118.511092548032
 21
342.8907514923188
 31
0.0
  0
LINE
  5
63
330
36
100
AcDbEntity
  8
1
  6
Continuous
 62
     2
100
AcDbLine
 10
96.13709254803185
 20
341.460751492319
 30
0.0
 11
96.13709254803185
 21
342.8907514923188
 31
0.0
  0
LINE
  5
64
330
36
100
AcDbEntity
  8
1
  6
Continuous
 62
     7
100
AcDbLine
 10
119.3240925480319
 20
341.460751492319
 30
0.0
 11
119.3240925480319
 21
342.8907514923188
 31
0.0
  0
LINE
  5
65
330
36
100
AcDbEntity
  8
1
  6
Continuous
 62
     7
100
AcDbLine
 10
263.5375011125197
 20
223.319815648546
 30
0.0
 11
263.5375011125197
 21
219.819815648546
 31
0.0
  0
LINE
  5
66
330
36
100
AcDbEntity
  8
1
  6
Continuous
 62
     2
100
AcDbLine
 10
262.3755011125197
 20
223.319815648546
 30
0.0
 11
262.3755011125197
 21
219.819815648546
 31
0.0
  0
LINE
  5
67
330
36
100
AcDbEntity
  8
1
  6
Continuous
 62
     7
100
AcDbLine
 10
242.5375011125197
 20
223.319815648546
 30
0.0
 11
242.5375011125197
 21
219.819815648546
 31
0.0
  0
LINE
  5
68
330
36
100
AcDbEntity
  8
1
  6
Continuous
 62
     7
100
AcDbLine
 10
236.5375011125198
 20
186.819815648546
 30
0.0
 11
238.0375011125197
 21
186.819815648546
 31
0.0
  0
LINE
  5
69
330
36
100
AcDbEntity
  8
1
  6
Continuous
 62
     2
100
AcDbLine
 10
236.5375011125198
 20
210.0068156485461
 30
0.0
 11
238.0375011125197
 21
210.0068156485461
 31
0.0
  0
LINE
  5
6A
330
36
100
AcDbEntity
  8
1
  6
PHANTOM
 62
     4
100
AcDbLine
 10
107.3240925480319
 20
391.8907514923188
 30
0.0
 11
107.3240925480319
 21
330.8907514923188
 31
0.0
  0
LINE
  5
6B
330
36
100
AcDbEntity
  8
1
  6
Continuous
 62
     7
100
AcDbLine
 10
107.3240925480319
 20
378.8907514923188
 30
0.0
 11
107.3240925480319
 21
383.6296444933886
 31
0.0
  0
LINE
  5
6C
330
36
100
AcDbEntity
  8
1
  6
Continuous
 62
     7
100
AcDbLine
 10
238.0375011125197
 20
187.6328156485458
 30
0.0
 11
238.0375011125197
 21
210.0068156485461
 31
0.0
  0
LINE
  5
6D
330
36
100
AcDbEntity
  8
1
  6
Continuous
 62
     7
100
AcDbLine
 10
243.6995011125197
 20
219.819815648546
 30
0.0
 11
262.3755011125197
 21
219.819815648546
 31
0.0
  0
LINE
  5
6E
330
36
100
AcDbEntity
  8
1
  6
Continuous
 62
     7
100
AcDbLine
 10
278.7763941135895
 20
191.3142621490808
 30
0.0
 11
274.0375011125197
 21
191.3142621490808
 31
0.0
  0
LINE
  5
6F
330
36
100
AcDbEntity
  8
1
  6
Continuous
 62
     7
100
AcDbLine
 10
278.7763941135895
 20
206.3253691480111
 30
0.0
 11
274.0375011125197
 21
206.3253691480111
 31
0.0
  0
LINE
  5
70
330
36
100
AcDbEntity
  8
1
  6
PHANTOM
 62
     4
100
AcDbLine
 10
284.0375011125197
 20
198.819815648546
 30
0.0
 11
229.0375011125197
 21
198.819815648546
 31
0.0
  0
LINE
  5
71
330
36
100
AcDbEntity
  8
1
  6
PHANTOM
 62
     4
100
AcDbLine
 10
91.82409254803184
 20
357.8907514923188
 30
0.0
 11
122.8240925480319
 21
357.8907514923188
 31
0.0
  0
LINE
  5
72
330
36
100
AcDbEntity
  8
1
  6
Continuous
 62
     7
100
AcDbLine
 10
263.5375011125197
 20
217.8071726101509
 30
0.0
 11
263.5375011125197
 21
216.3198156485461
 31
0.0
  0
LINE
  5
73
330
36
100
AcDbEntity
  8
1
  6
Continuous
 62
     7
100
AcDbLine
 10
263.5375011125197
 20
219.819815648546
 30
0.0
 11
263.5375011125197
 21
217.8071726101509
 31
0.0
  0
LINE
  5
74
330
36
100
AcDbEntity
  8
1
  6
Continuous
 62
     7
100
AcDbLine
 10
242.5375011125197
 20
219.819815648546
 30
0.0
 11
242.5375011125197
 21
217.8071726101509
 31
0.0
  0
LINE
  5
75
330
36
100
AcDbEntity
  8
1
  6
Continuous
 62
     7
100
AcDbLine
 10
278.7763941135894
 20
183.8087086496157
 30
0.0
 11
274.0375011125197
 21
183.8087086496157
 31
0.0
  0
LINE
  5
76
330
36
100
AcDbEntity
  8
1
  6
Continuous
 62
     7
100
AcDbLine
 10
281.0375011125197
 20
186.069815648546
 30
0.0
 11
278.7763941135894
 21
183.8087086496157
 31
0.0
  0
LINE
  5
77
330
36
100
AcDbEntity
  8
1
  6
Continuous
 62
     7
100
AcDbLine
 10
278.7763941135894
 20
213.8309226474762
 30
0.0
 11
274.0375011125197
 21
213.8309226474762
 31
0.0
  0
LINE
  5
78
330
36
100
AcDbEntity
  8
1
  6
Continuous
 62
     7
100
AcDbLine
 10
278.7763941135894
 20
213.8309226474762
 30
0.0
 11
281.0375011125197
 21
211.569815648546
 31
0.0
  0
LINE
  5
79
330
36
100
AcDbEntity
  8
1
  6
Continuous
 62
     7
100
AcDbLine
 10
238.0375011125197
 20
210.8198156485461
 30
0.0
 11
236.5375011125198
 21
210.8198156485461
 31
0.0
  0
LINE
  5
7A
330
36
100
AcDbEntity
  8
1
  6
Continuous
 62
     7
100
AcDbLine
 10
238.0375011125197
 20
210.0068156485461
 30
0.0
 11
238.0375011125197
 21
210.8198156485461
 31
0.0
  0
LINE
  5
7B
330
36
100
AcDbEntity
  8
1
  6
Continuous
 62
     7
100
AcDbLine
 10
239.4456584190732
 20
210.8198156485461
 30
0.0
 11
238.0375011125197
 21
210.8198156485461
 31
0.0
  0
LINE
  5
7C
330
36
100
AcDbEntity
  8
1
  6
Continuous
 62
     7
100
AcDbLine
 10
242.5375011125197
 20
219.819815648546
 30
0.0
 11
243.6995011125197
 21
219.819815648546
 31
0.0
  0
LINE
  5
7D
330
36
100
AcDbEntity
  8
1
  6
Continuous
 62
     7
100
AcDbLine
 10
262.3755011125197
 20
219.819815648546
 30
0.0
 11
263.5375011125197
 21
219.819815648546
 31
0.0
  0
LINE
  5
7E
330
36
100
AcDbEntity
  8
1
  6
Continuous
 62
     7
100
AcDbLine
 10
238.0375011125197
 20
186.819815648546
 30
0.0
 11
239.4456584190732
 21
186.819815648546
 31
0.0
  0
LINE
  5
7F
330
36
100
AcDbEntity
  8
1
  6
Continuous
 62
     7
100
AcDbLine
 10
238.0375011125197
 20
186.819815648546
 30
0.0
 11
238.0375011125197
 21
187.6328156485458
 31
0.0
  0
LINE
  5
80
330
36
100
AcDbEntity
  8
1
  6
Continuous
 62
     2
100
AcDbLine
 10
239.4456584190732
 20
210.8198156485461
 30
0.0
 11
238.0375011125197
 21
210.0068156485461
 31
0.0
  0
LINE
  5
81
330
36
100
AcDbEntity
  8
1
  6
Continuous
 62
     2
100
AcDbLine
 10
243.6995011125197
 20
219.819815648546
 30
0.0
 11
243.6995011125197
 21
223.319815648546
 31
0.0
  0
LINE
  5
82
330
36
100
AcDbEntity
  8
1
  6
Continuous
 62
     2
100
AcDbLine
 10
242.5375011125197
 20
217.8071726101509
 30
0.0
 11
243.6995011125197
 21
219.819815648546
 31
0.0
  0
LINE
  5
83
330
36
100
AcDbEntity
  8
1
  6
Continuous
 62
     2
100
AcDbLine
 10
262.3755011125197
 20
219.819815648546
 30
0.0
 11
263.5375011125197
 21
217.8071726101509
 31
0.0
  0
LINE
  5
84
330
36
100
AcDbEntity
  8
1
  6
Continuous
 62
     2
100
AcDbLine
 10
238.0375011125197
 20
187.6328156485458
 30
0.0
 11
236.5375011125198
 21
187.6328156485458
 31
0.0
  0
LINE
  5
85
330
36
100
AcDbEntity
  8
1
  6
Continuous
 62
     2
100
AcDbLine
 10
238.0375011125197
 20
187.6328156485458
 30
0.0
 11
239.4456584190732
 21
186.819815648546
 31
0.0
  0
LINE
  5
86
330
36
100
AcDbEntity
  8
1
  6
Continuous
 62
     7
100
AcDbLine
 10
281.0375011125197
 20
186.069815648546
 30
0.0
 11
281.0375011125197
 21
211.569815648546
 31
0.0
  0
LINE
  5
87
330
36
100
AcDbEntity
  8
1
  6
PHANTOM
 62
     4
100
AcDbLine
 10
253.0375011125197
 20
231.819815648546
 30
0.0
 11
253.0375011125197
 21
181.699493919101
 31
0.0
  0
LINE
  5
88
330
36
100
AcDbEntity
  8
1
  6
Continuous
 62
     7
100
AcDbLine
 10
274.0375011125197
 20
183.8087086496157
 30
0.0
 11
272.9908602076568
 21
184.8553495544786
 31
0.0
  0
LINE
  5
89
330
36
100
AcDbEntity
  8
1
  6
Continuous
 62
     7
100
AcDbLine
 10
274.0375011125197
 20
213.8309226474762
 30
0.0
 11
272.9908602076567
 21
212.7842817426133
 31
0.0
  0
LINE
  5
8A
330
36
100
AcDbEntity
  8
1
  6
Continuous
 62
     7
100
AcDbLine
 10
268.5375011125197
 20
211.3198156485461
 30
0.0
 11
269.455326301724
 21
211.3198156485461
 31
0.0
  0
LINE
  5
8B
330
36
100
AcDbEntity
  8
1
  6
Continuous
 62
     7
100
AcDbLine
 10
239.4456584190732
 20
210.8198156485461
 30
0.0
 11
239.9456584190731
 21
211.319815648546
 31
0.0
  0
LINE
  5
8C
330
36
100
AcDbEntity
  8
1
  6
Continuous
 62
     7
100
AcDbLine
 10
239.4456584190732
 20
186.819815648546
 30
0.0
 11
239.9456584190732
 21
186.319815648546
 31
0.0
  0
LINE
  5
8D
330
36
100
AcDbEntity
  8
1
  6
Continuous
 62
     7
100
AcDbLine
 10
239.9456584190732
 20
186.319815648546
 30
0.0
 11
269.455326301724
 21
186.319815648546
 31
0.0
  0
LINE
  5
8E
330
36
100
AcDbEntity
  8
1
  6
Continuous
 62
     7
100
AcDbLine
 10
119.8240925480319
 20
344.7989087988725
 30
0.0
 11
119.8240925480319
 21
374.3085766815231
 31
0.0
  0
LINE
  5
8F
330
36
100
AcDbEntity
  8
1
  6
Continuous
 62
     7
100
AcDbLine
 10
119.3240925480319
 20
344.2989087988725
 30
0.0
 11
119.8240925480319
 21
344.7989087988725
 31
0.0
  0
LINE
  5
90
330
36
100
AcDbEntity
  8
1
  6
Continuous
 62
     7
100
AcDbLine
 10
95.32409254803184
 20
344.2989087988725
 30
0.0
 11
94.82409254803194
 21
344.7989087988723
 31
0.0
  0
LINE
  5
91
330
36
100
AcDbEntity
  8
1
  6
Continuous
 62
     7
100
AcDbLine
 10
94.82409254803194
 20
344.7989087988723
 30
0.0
 11
94.82409254803184
 21
374.3085766815231
 31
0.0
  0
LINE
  5
92
330
36
100
AcDbEntity
  8
1
  6
Continuous
 62
     2
100
AcDbLine
 10
118.511092548032
 20
342.8907514923188
 30
0.0
 11
119.3240925480319
 21
344.2989087988725
 31
0.0
  0
LINE
  5
93
330
36
100
AcDbEntity
  8
1
  6
Continuous
 62
     2
100
AcDbLine
 10
118.511092548032
 20
342.8907514923188
 30
0.0
 11
118.511092548032
 21
341.460751492319
 31
0.0
  0
LINE
  5
94
330
36
100
AcDbEntity
  8
1
  6
Continuous
 62
     2
100
AcDbLine
 10
95.32409254803184
 20
344.2989087988725
 30
0.0
 11
96.13709254803185
 21
342.8907514923188
 31
0.0
  0
LINE
  5
95
330
36
100
AcDbEntity
  8
1
  6
Continuous
 62
     7
100
AcDbLine
 10
119.3240925480319
 20
342.8907514923188
 30
0.0
 11
118.511092548032
 21
342.8907514923188
 31
0.0
  0
LINE
  5
96
330
36
100
AcDbEntity
  8
1
  6
Continuous
 62
     7
100
AcDbLine
 10
119.3240925480319
 20
342.8907514923188
 30
0.0
 11
119.3240925480319
 21
344.2989087988725
 31
0.0
  0
LINE
  5
97
330
36
100
AcDbEntity
  8
1
  6
Continuous
 62
     7
100
AcDbLine
 10
95.32409254803184
 20
344.2989087988725
 30
0.0
 11
95.32409254803184
 21
342.8907514923188
 31
0.0
  0
LINE
  5
98
330
36
100
AcDbEntity
  8
1
  6
Continuous
 62
     7
100
AcDbLine
 10
96.13709254803185
 20
342.8907514923188
 30
0.0
 11
95.32409254803184
 21
342.8907514923188
 31
0.0
  0
LINE
  5
99
330
36
100
AcDbEntity
  8
1
  6
Continuous
 62
     7
100
AcDbLine
 10
95.32409254803184
 20
342.8907514923188
 30
0.0
 11
95.32409254803184
 21
341.460751492319
 31
0.0
  0
LINE
  5
9A
330
36
100
AcDbEntity
  8
1
  6
Continuous
 62
     7
100
AcDbLine
 10
94.32409254803194
 20
385.6407514923188
 30
0.0
 11
94.57409254803194
 21
385.8907514923188
 31
0.0
  0
LINE
  5
9B
330
36
100
AcDbEntity
  8
1
  6
Continuous
 62
     7
100
AcDbLine
 10
94.32409254803194
 20
385.6407514923188
 30
0.0
 11
94.32409254803194
 21
383.6296444933886
 31
0.0
  0
LINE
  5
9C
330
36
100
AcDbEntity
  8
1
  6
Continuous
 62
     7
100
AcDbLine
 10
120.0740925480319
 20
385.8907514923188
 30
0.0
 11
120.3240925480318
 21
385.6407514923191
 31
0.0
  0
LINE
  5
9D
330
36
100
AcDbEntity
  8
1
  6
Continuous
 62
     7
100
AcDbLine
 10
120.3240925480318
 20
385.6407514923191
 30
0.0
 11
120.3240925480318
 21
376.4880261532934
 31
0.0
  0
LINE
  5
9E
330
36
100
AcDbEntity
  8
1
  6
Continuous
 62
     7
100
AcDbLine
 10
120.0740925480319
 20
385.8907514923188
 30
0.0
 11
94.57409254803194
 21
385.8907514923188
 31
0.0
  0
LINE
  5
9F
330
36
100
AcDbEntity
  8
1
  6
Continuous
 62
     7
100
AcDbLine
 10
94.32409254803194
 20
383.6296444933886
 30
0.0
 11
94.32409254803194
 21
376.4880261532934
 31
0.0
  0
LINE
  5
A0
330
36
100
AcDbEntity
  8
1
  6
Continuous
 62
     7
100
AcDbLine
 10
101.8925391323072
 20
353.8907514923188
 30
0.0
 11
112.7556459637554
 21
353.8907514923188
 31
0.0
  0
ARC
  5
A1
330
36
100
AcDbEntity
  8
1
  6
Continuous
 62
     7
100
AcDbCircle
 10
233.1226841912893
 20
217.8071726101509
 30
0.0
 40
9.414816921230363
100
AcDbArc
 50
-43.55560474847115
 51
0.0
  0
SPLINE
  5
A2
330
36
100
AcDbEntity
  8
1
  6
Continuous
 62
     7
100
AcDbSpline
210
0.0
220
0.0
230
1.0
 70
     8
 71
     3
 72
    33
 73
    29
 74
    27
 42
0.0000000001
 43
0.0000000001
 44
0.00000001
 40
0.0
 40
0.0
 40
0.0
 40
0.0
 40
0.4133569006800738
 40
0.8267148991712554
 40
1.047477429691547
 40
1.268240273686073
 40
1.504227369535129
 40
1.740225682305844
 40
2.001195139144804
 40
2.262139231593038
 40
2.573023665195219
 40
2.88414797581711
 40
3.395079514214133
 40
3.905704156216001
 40
4.367715781294333
 40
4.829727406372673
 40
5.3403520483746
 40
5.851283586771615
 40
6.162407897393379
 40
6.473292330995585
 40
6.734236423443873
 40
6.995205880282793
 40
7.23120419305353
 40
7.467191288902551
 40
7.687954132897091
 40
7.908716663417345
 40
8.322074661908548
 40
8.73543156258858
 40
8.73543156258858
 40
8.73543156258858
 40
8.73543156258858
 10
274.0375011125197
 20
183.8087086496157
 30
0.0
 10
273.9408846588004
 20
183.9069588513204
 30
0.0
 10
273.7476514947637
 20
184.1034595156668
 30
0.0
 10
273.5133745394325
 20
184.36251338428
 30
0.0
 10
273.3282814616525
 20
184.5791961907792
 30
0.0
 10
273.1856595818005
 20
184.7543311880879
 30
0.0
 10
273.0445151796401
 20
184.9371278766757
 30
0.0
 10
272.9010067841314
 20
185.1349041599735
 30
0.0
 10
272.7597238946864
 20
185.3444202053216
 30
0.0
 10
272.6138930911973
 20
185.5807186156934
 30
0.0
 10
272.4716709809567
 20
185.8385891675469
 30
0.0
 10
272.3098446853293
 20
186.1800549514631
 30
0.0
 10
272.1566806168964
 20
186.5982617576328
 30
0.0
 10
272.0493859575229
 20
187.0828459261342
 30
0.0
 10
272.0160701732388
 20
187.5614853993483
 30
0.0
 10
272.0493859575232
 20
188.0401248725624
 30
0.0
 10
272.1566806168963
 20
188.5247090410638
 30
0.0
 10
272.3098446853293
 20
188.9429158472335
 30
0.0
 10
272.4716709809568
 20
189.2843816311497
 30
0.0
 10
272.6138930911972
 20
189.5422521830032
 30
0.0
 10
272.7597238946865
 20
189.7785505933749
 30
0.0
 10
272.9010067841314
 20
189.9880666387231
 30
0.0
 10
273.0445151796401
 20
190.1858429220208
 30
0.0
 10
273.1856595818005
 20
190.3686396106087
 30
0.0
 10
273.3282814616526
 20
190.5437746079173
 30
0.0
 10
273.5133745394322
 20
190.7604574144166
 30
0.0
 10
273.7476514947638
 20
191.0195112830297
 30
0.0
 10
273.9408846588004
 20
191.2160119473762
 30
0.0
 10
274.0375011125197
 20
191.3142621490808
 30
0.0
 11
274.0375011125197
 21
183.8087086496157
 31
0.0
 11
273.7497346376051
 21
184.1054482378999
 31
0.0
 11
273.4722243627872
 21
184.4118024157515
 31
0.0
 11
273.3289443178222
 21
184.5797515854326
 31
0.0
 11
273.1895859879209
 21
184.750969251506
 31
0.0
 11
273.0454556420586
 21
184.9378284305926
 31
0.0
 11
272.9069476130546
 21
185.1289062407435
 31
0.0
 11
272.7611938791364
 21
185.3453800415872
 31
0.0
 11
272.6243092381883
 21
185.5675385760983
 31
0.0
 11
272.4745434967776
 21
185.8399708681561
 31
0.0
 11
272.3416708633221
 21
186.1212948805307
 31
0.0
 11
272.1675333165782
 21
186.6016355427099
 31
0.0
 11
272.0590324884557
 21
187.1005995647759
 31
0.0
 11
272.0267991330916
 21
187.5614853993483
 31
0.0
 11
272.0590324884558
 21
188.0223712339207
 31
0.0
 11
272.1675333165782
 21
188.5213352559868
 31
0.0
 11
272.3416708633221
 21
189.001675918166
 31
0.0
 11
272.4745434967776
 21
189.2829999305405
 31
0.0
 11
272.6243092381883
 21
189.5554322225983
 31
0.0
 11
272.7611938791364
 21
189.7775907571094
 31
0.0
 11
272.9069476130546
 21
189.9940645579532
 31
0.0
 11
273.0454556420587
 21
190.185142368104
 31
0.0
 11
273.1895859879209
 21
190.3720015471905
 31
0.0
 11
273.3289443178223
 21
190.543219213264
 31
0.0
 11
273.4722243627872
 21
190.7111683829451
 31
0.0
 11
273.7497346376051
 21
191.0175225607967
 31
0.0
 11
274.0375011125197
 21
191.3142621490808
 31
0.0
  0
SPLINE
  5
A3
330
36
100
AcDbEntity
  8
1
  6
Continuous
 62
     7
100
AcDbSpline
210
0.0
220
0.0
230
1.0
 70
     8
 71
     3
 72
    33
 73
    29
 74
    27
 42
0.0000000001
 43
0.0000000001
 44
0.00000001
 40
0.0
 40
0.0
 40
0.0
 40
0.0
 40
0.4133569006801529
 40
0.8267148991712965
 40
1.047477429691551
 40
1.268240273686113
 40
1.504227369535169
 40
1.740225682305918
 40
2.001195139144878
 40
2.262139231593111
 40
2.573023665195265
 40
2.884147975817181
 40
3.395079514214242
 40
3.905704156216062
 40
4.367715781294398
 40
4.829727406372733
 40
5.340352048374636
 40
5.851283586771651
 40
6.162407897393464
 40
6.473292330995671
 40
6.734236423443958
 40
6.995205880282878
 40
7.231204193053615
 40
7.46719128890267
 40
7.687954132897139
 40
7.908716663417393
 40
8.322074661908596
 40
8.735431562588669
 40
8.735431562588669
 40
8.735431562588669
 40
8.735431562588669
 10
278.7763941135894
 20
183.8087086496157
 30
0.0
 10
278.8730105673087
 20
183.9069588513204
 30
0.0
 10
279.0662437313455
 20
184.1034595156669
 30
0.0
 10
279.3005206866767
 20
184.3625133842798
 30
0.0
 10
279.4856137644566
 20
184.5791961907793
 30
0.0
 10
279.6282356443086
 20
184.7543311880879
 30
0.0
 10
279.7693800464692
 20
184.9371278766757
 30
0.0
 10
279.9128884419778
 20
185.1349041599736
 30
0.0
 10
280.0541713314227
 20
185.3444202053216
 30
0.0
 10
280.2000021349119
 20
185.5807186156933
 30
0.0
 10
280.3422242451523
 20
185.838589167547
 30
0.0
 10
280.50405054078
 20
186.1800549514631
 30
0.0
 10
280.657214609213
 20
186.5982617576328
 30
0.0
 10
280.7645092685861
 20
187.0828459261343
 30
0.0
 10
280.7978250528703
 20
187.5614853993483
 30
0.0
 10
280.7645092685861
 20
188.0401248725624
 30
0.0
 10
280.6572146092129
 20
188.5247090410638
 30
0.0
 10
280.5040505407801
 20
188.9429158472336
 30
0.0
 10
280.3422242451525
 20
189.2843816311496
 30
0.0
 10
280.2000021349119
 20
189.5422521830032
 30
0.0
 10
280.0541713314227
 20
189.7785505933749
 30
0.0
 10
279.9128884419779
 20
189.9880666387232
 30
0.0
 10
279.7693800464691
 20
190.1858429220209
 30
0.0
 10
279.6282356443086
 20
190.3686396106086
 30
0.0
 10
279.4856137644567
 20
190.5437746079174
 30
0.0
 10
279.3005206866769
 20
190.7604574144166
 30
0.0
 10
279.0662437313455
 20
191.0195112830297
 30
0.0
 10
278.8730105673088
 20
191.2160119473762
 30
0.0
 10
278.7763941135895
 20
191.3142621490808
 30
0.0
 11
278.7763941135894
 21
183.8087086496157
 31
0.0
 11
279.0641605885041
 21
184.1054482378999
 31
0.0
 11
279.341670863322
 21
184.4118024157515
 31
0.0
 11
279.4849509082869
 21
184.5797515854326
 31
0.0
 11
279.6243092381883
 21
184.750969251506
 31
0.0
 11
279.7684395840505
 21
184.9378284305926
 31
0.0
 11
279.9069476130546
 21
185.1289062407435
 31
0.0
 11
280.0527013469728
 21
185.3453800415872
 31
0.0
 11
280.1895859879209
 21
185.5675385760983
 31
0.0
 11
280.3393517293316
 21
185.8399708681561
 31
0.0
 11
280.4722243627871
 21
186.1212948805307
 31
0.0
 11
280.6463619095311
 21
186.6016355427099
 31
0.0
 11
280.7548627376534
 21
187.1005995647759
 31
0.0
 11
280.7870960930175
 21
187.5614853993483
 31
0.0
 11
280.7548627376534
 21
188.0223712339207
 31
0.0
 11
280.6463619095311
 21
188.5213352559868
 31
0.0
 11
280.4722243627872
 21
189.001675918166
 31
0.0
 11
280.3393517293316
 21
189.2829999305405
 31
0.0
 11
280.1895859879209
 21
189.5554322225983
 31
0.0
 11
280.0527013469728
 21
189.7775907571094
 31
0.0
 11
279.9069476130546
 21
189.9940645579532
 31
0.0
 11
279.7684395840505
 21
190.185142368104
 31
0.0
 11
279.6243092381883
 21
190.3720015471905
 31
0.0
 11
279.484950908287
 21
190.543219213264
 31
0.0
 11
279.3416708633221
 21
190.7111683829451
 31
0.0
 11
279.0641605885041
 21
191.0175225607967
 31
0.0
 11
278.7763941135895
 21
191.3142621490808
 31
0.0
  0
SPLINE
  5
A4
330
36
100
AcDbEntity
  8
1
  6
Continuous
 62
     7
100
AcDbSpline
210
0.0
220
0.0
230
1.0
 70
     8
 71
     3
 72
    33
 73
    29
 74
    27
 42
0.0000000001
 43
0.0000000001
 44
0.00000001
 40
0.0
 40
0.0
 40
0.0
 40
0.0
 40
0.6660942076092064
 40
1.332190222770962
 40
1.699632944385116
 40
2.067077053321496
 40
2.47058921376449
 40
2.874107007989215
 40
3.334983200372769
 40
3.795855500931686
 40
4.367402403401279
 40
4.939051291210307
 40
5.929102491977434
 40
6.919199823136878
 40
7.841546055180272
 40
8.763892287223667
 40
9.753989618383287
 40
10.7440408191504
 40
11.31568970695949
 40
11.88723660942908
 40
12.34810890998793
 40
12.80898510237143
 40
13.21250289659617
 40
13.61601505703921
 40
13.98345916597557
 40
14.3509018875897
 40
15.01699790275137
 40
15.68309211036066
 40
15.68309211036066
 40
15.68309211036066
 40
15.68309211036066
 10
278.7763941135895
 20
206.3253691480111
 30
0.0
 10
278.8743320272331
 20
206.1260928695784
 30
0.0
 10
279.0702081202904
 20
205.7275397719451
 30
0.0
 10
279.3034035866051
 20
205.211092838787
 30
0.0
 10
279.486782436256
 20
204.7815974565965
 30
0.0
 10
279.6298353852867
 20
204.4301061526091
 30
0.0
 10
279.7707568731961
 20
204.0648302788127
 30
0.0
 10
279.9148251144048
 20
203.667476349154
 30
0.0
 10
280.0558425372628
 20
203.2487821253677
 30
0.0
 10
280.2024668842988
 20
202.7730454358925
 30
0.0
 10
280.3442655764389
 20
202.2573790751025
 30
0.0
 10
280.5078987726282
 20
201.5652373709412
 30
0.0
 10
280.65997438818
 20
200.7276216673363
 30
0.0
 10
280.7649161342391
 20
199.7649465487269
 30
0.0
 10
280.7982639004397
 20
198.819815648546
 30
0.0
 10
280.7649161342391
 20
197.8746847483651
 30
0.0
 10
280.6599743881798
 20
196.9120096297557
 30
0.0
 10
280.5078987726281
 20
196.0743939261506
 30
0.0
 10
280.3442655764391
 20
195.3822522219893
 30
0.0
 10
280.2024668842988
 20
194.8665858611993
 30
0.0
 10
280.0558425372626
 20
194.3908491717241
 30
0.0
 10
279.9148251144046
 20
193.9721549479379
 30
0.0
 10
279.7707568731961
 20
193.5748010182793
 30
0.0
 10
279.6298353852867
 20
193.2095251444828
 30
0.0
 10
279.4867824362561
 20
192.8580338404954
 30
0.0
 10
279.303403586605
 20
192.4285384583049
 30
0.0
 10
279.0702081202904
 20
191.9120915251469
 30
0.0
 10
278.8743320272331
 20
191.5135384275135
 30
0.0
 10
278.7763941135895
 20
191.3142621490808
 30
0.0
 11
278.7763941135895
 21
206.3253691480111
 31
0.0
 11
279.0669341064685
 21
205.7259794534481
 31
0.0
 11
279.3416708633221
 21
205.1191816157393
 31
0.0
 11
279.4858211218242
 21
204.781195141689
 31
0.0
 11
279.6243092381883
 21
204.4408479442303
 31
0.0
 11
279.7694730393278
 21
204.0643515505369
 31
0.0
 11
279.9069476130547
 21
203.6849739657555
 31
0.0
 11
280.0539491068349
 21
203.248170319328
 31
0.0
 11
280.1895859879209
 21
202.8077092950458
 31
0.0
 11
280.3409152367506
 21
202.2565602043533
 31
0.0
 11
280.4722243627871
 21
201.7001966861812
 31
0.0
 11
280.6483686163631
 21
200.7259407741783
 31
0.0
 11
280.7548627376534
 21
199.7415873176904
 31
0.0
 11
280.787413647432
 21
198.819815648546
 31
0.0
 11
280.7548627376534
 21
197.8980439794016
 31
0.0
 11
280.6483686163631
 21
196.9136905229136
 31
0.0
 11
280.4722243627871
 21
195.9394346109107
 31
0.0
 11
280.3409152367506
 21
195.3830710927385
 31
0.0
 11
280.1895859879209
 21
194.831922002046
 31
0.0
 11
280.0539491068349
 21
194.3914609777638
 31
0.0
 11
279.9069476130546
 21
193.9546573313364
 31
0.0
 11
279.7694730393278
 21
193.575279746555
 31
0.0
 11
279.6243092381883
 21
193.1987833528615
 31
0.0
 11
279.4858211218242
 21
192.8584361554029
 31
0.0
 11
279.3416708633221
 21
192.5204496813526
 31
0.0
 11
279.0669341064685
 21
191.913651843644
 31
0.0
 11
278.7763941135895
 21
191.3142621490808
 31
0.0
  0
SPLINE
  5
A5
330
36
100
AcDbEntity
  8
1
  6
Continuous
 62
     7
100
AcDbSpline
210
0.0
220
0.0
230
1.0
 70
     8
 71
     3
 72
    33
 73
    29
 74
    27
 42
0.0000000001
 43
0.0000000001
 44
0.00000001
 40
0.0
 40
0.0
 40
0.0
 40
0.0
 40
0.6660942076092064
 40
1.332190222770939
 40
1.699632944385092
 40
2.067077053321516
 40
2.470589213764489
 40
2.874107007989156
 40
3.334983200372728
 40
3.795855500931679
 40
4.367402403401257
 40
4.939051291210298
 40
5.929102491977425
 40
6.919199823136869
 40
7.841546055180263
 40
8.763892287223658
 40
9.753989618383271
 40
10.7440408191504
 40
11.31568970695949
 40
11.88723660942906
 40
12.34810890998793
 40
12.80898510237144
 40
13.21250289659618
 40
13.6160150570392
 40
13.98345916597556
 40
14.35090188758973
 40
15.01699790275138
 40
15.68309211036064
 40
15.68309211036064
 40
15.68309211036064
 40
15.68309211036064
 10
274.0375011125197
 20
206.3253691480111
 30
0.0
 10
273.9395631988761
 20
206.1260928695784
 30
0.0
 10
273.7436871058189
 20
205.7275397719452
 30
0.0
 10
273.510491639504
 20
205.2110928387869
 30
0.0
 10
273.3271127898532
 20
204.7815974565965
 30
0.0
 10
273.1840598408224
 20
204.4301061526091
 30
0.0
 10
273.0431383529131
 20
204.0648302788127
 30
0.0
 10
272.8990701117047
 20
203.667476349154
 30
0.0
 10
272.7580526888465
 20
203.2487821253677
 30
0.0
 10
272.6114283418104
 20
202.7730454358926
 30
0.0
 10
272.4696296496703
 20
202.2573790751025
 30
0.0
 10
272.305996453481
 20
201.5652373709413
 30
0.0
 10
272.1539208379292
 20
200.7276216673362
 30
0.0
 10
272.0489790918701
 20
199.7649465487269
 30
0.0
 10
272.0156313256695
 20
198.819815648546
 30
0.0
 10
272.0489790918702
 20
197.874684748365
 30
0.0
 10
272.1539208379292
 20
196.9120096297556
 30
0.0
 10
272.3059964534811
 20
196.0743939261507
 30
0.0
 10
272.4696296496703
 20
195.3822522219893
 30
0.0
 10
272.6114283418104
 20
194.8665858611993
 30
0.0
 10
272.7580526888464
 20
194.3908491717241
 30
0.0
 10
272.8990701117047
 20
193.972154947938
 30
0.0
 10
273.0431383529132
 20
193.5748010182793
 30
0.0
 10
273.1840598408224
 20
193.2095251444828
 30
0.0
 10
273.3271127898531
 20
192.8580338404954
 30
0.0
 10
273.5104916395043
 20
192.428538458305
 30
0.0
 10
273.7436871058189
 20
191.9120915251469
 30
0.0
 10
273.9395631988761
 20
191.5135384275135
 30
0.0
 10
274.0375011125197
 20
191.3142621490808
 30
0.0
 11
274.0375011125197
 21
206.3253691480111
 31
0.0
 11
273.7469611196407
 21
205.7259794534481
 31
0.0
 11
273.4722243627872
 21
205.1191816157393
 31
0.0
 11
273.328074104285
 21
204.781195141689
 31
0.0
 11
273.1895859879209
 21
204.4408479442303
 31
0.0
 11
273.0444221867815
 21
204.0643515505369
 31
0.0
 11
272.9069476130547
 21
203.6849739657555
 31
0.0
 11
272.7599461192744
 21
203.248170319328
 31
0.0
 11
272.6243092381884
 21
202.8077092950458
 31
0.0
 11
272.4729799893587
 21
202.2565602043533
 31
0.0
 11
272.3416708633221
 21
201.7001966861812
 31
0.0
 11
272.1655266097461
 21
200.7259407741783
 31
0.0
 11
272.0590324884558
 21
199.7415873176904
 31
0.0
 11
272.0264815786773
 21
198.819815648546
 31
0.0
 11
272.0590324884558
 21
197.8980439794016
 31
0.0
 11
272.1655266097461
 21
196.9136905229136
 31
0.0
 11
272.3416708633221
 21
195.9394346109107
 31
0.0
 11
272.4729799893587
 21
195.3830710927385
 31
0.0
 11
272.6243092381883
 21
194.831922002046
 31
0.0
 11
272.7599461192743
 21
194.3914609777638
 31
0.0
 11
272.9069476130546
 21
193.9546573313364
 31
0.0
 11
273.0444221867815
 21
193.575279746555
 31
0.0
 11
273.1895859879209
 21
193.1987833528615
 31
0.0
 11
273.328074104285
 21
192.8584361554029
 31
0.0
 11
273.4722243627872
 21
192.5204496813526
 31
0.0
 11
273.7469611196407
 21
191.913651843644
 31
0.0
 11
274.0375011125197
 21
191.3142621490808
 31
0.0
  0
SPLINE
  5
A6
330
36
100
AcDbEntity
  8
1
  6
Continuous
 62
     7
100
AcDbSpline
210
0.0
220
0.0
230
1.0
 70
     8
 71
     3
 72
    33
 73
    29
 74
    27
 42
0.0000000001
 43
0.0000000001
 44
0.00000001
 40
0.0
 40
0.0
 40
0.0
 40
0.0
 40
0.413356900680033
 40
0.8267148991712147
 40
1.047477429691571
 40
1.268240273686075
 40
1.504227369535176
 40
1.740225682305868
 40
2.001195139144804
 40
2.262139231593038
 40
2.573023665195243
 40
2.884147975817058
 40
3.395079514214081
 40
3.905704156216088
 40
4.367715781294306
 40
4.829727406372617
 40
5.340352048374545
 40
5.851283586771613
 40
6.162407897393429
 40
6.47329233099561
 40
6.734236423443922
 40
6.995205880282866
 40
7.231204193053602
 40
7.4671912889026
 40
7.687954132897052
 40
7.908716663417306
 40
8.322074661908424
 40
8.735431562588579
 40
8.735431562588579
 40
8.735431562588579
 40
8.735431562588579
 10
274.0375011125197
 20
213.8309226474762
 30
0.0
 10
273.9408846588005
 20
213.7326724457716
 30
0.0
 10
273.7476514947638
 20
213.5361717814251
 30
0.0
 10
273.5133745394323
 20
213.2771179128121
 30
0.0
 10
273.3282814616526
 20
213.0604351063127
 30
0.0
 10
273.1856595818005
 20
212.885300109004
 30
0.0
 10
273.0445151796401
 20
212.7025034204162
 30
0.0
 10
272.9010067841314
 20
212.5047271371183
 30
0.0
 10
272.7597238946865
 20
212.2952110917703
 30
0.0
 10
272.6138930911972
 20
212.0589126813985
 30
0.0
 10
272.4716709809568
 20
211.801042129545
 30
0.0
 10
272.3098446853291
 20
211.4595763456288
 30
0.0
 10
272.1566806168964
 20
211.0413695394591
 30
0.0
 10
272.0493859575229
 20
210.5567853709577
 30
0.0
 10
272.0160701732388
 20
210.0781458977436
 30
0.0
 10
272.049385957523
 20
209.5995064245296
 30
0.0
 10
272.1566806168964
 20
209.1149222560282
 30
0.0
 10
272.3098446853293
 20
208.6967154498584
 30
0.0
 10
272.4716709809568
 20
208.3552496659422
 30
0.0
 10
272.6138930911973
 20
208.0973791140887
 30
0.0
 10
272.7597238946865
 20
207.861080703717
 30
0.0
 10
272.9010067841314
 20
207.6515646583687
 30
0.0
 10
273.0445151796401
 20
207.453788375071
 30
0.0
 10
273.1856595818003
 20
207.2709916864831
 30
0.0
 10
273.3282814616527
 20
207.0958566891747
 30
0.0
 10
273.5133745394322
 20
206.8791738826752
 30
0.0
 10
273.7476514947639
 20
206.6201200140624
 30
0.0
 10
273.9408846588004
 20
206.4236193497158
 30
0.0
 10
274.0375011125197
 20
206.3253691480111
 30
0.0
 11
274.0375011125197
 21
213.8309226474762
 31
0.0
 11
273.7497346376051
 21
213.5341830591921
 31
0.0
 11
273.4722243627872
 21
213.2278288813405
 31
0.0
 11
273.3289443178222
 21
213.0598797116593
 31
0.0
 11
273.1895859879209
 21
212.8886620455859
 31
0.0
 11
273.0454556420586
 21
212.7018028664992
 31
0.0
 11
272.9069476130546
 21
212.5107250563484
 31
0.0
 11
272.7611938791364
 21
212.2942512555048
 31
0.0
 11
272.6243092381883
 21
212.0720927209936
 31
0.0
 11
272.4745434967776
 21
211.7996604289358
 31
0.0
 11
272.3416708633221
 21
211.5183364165613
 31
0.0
 11
272.1675333165782
 21
211.0379957543821
 31
0.0
 11
272.0590324884557
 21
210.5390317323159
 31
0.0
 11
272.0267991330916
 21
210.0781458977436
 31
0.0
 11
272.0590324884558
 21
209.6172600631713
 31
0.0
 11
272.1675333165782
 21
209.1182960411052
 31
0.0
 11
272.3416708633221
 21
208.6379553789259
 31
0.0
 11
272.4745434967776
 21
208.3566313665514
 31
0.0
 11
272.6243092381883
 21
208.0841990744936
 31
0.0
 11
272.7611938791364
 21
207.8620405399824
 31
0.0
 11
272.9069476130546
 21
207.6455667391387
 31
0.0
 11
273.0454556420587
 21
207.4544889289879
 31
0.0
 11
273.1895859879209
 21
207.2676297499013
 31
0.0
 11
273.3289443178223
 21
207.096412083828
 31
0.0
 11
273.4722243627872
 21
206.9284629141469
 31
0.0
 11
273.7497346376051
 21
206.6221087362954
 31
0.0
 11
274.0375011125197
 21
206.3253691480111
 31
0.0
  0
SPLINE
  5
A7
330
36
100
AcDbEntity
  8
1
  6
Continuous
 62
     7
100
AcDbSpline
210
0.0
220
0.0
230
1.0
 70
     8
 71
     3
 72
    33
 73
    29
 74
    27
 42
0.0000000001
 43
0.0000000001
 44
0.00000001
 40
0.0
 40
0.0
 40
0.0
 40
0.0
 40
0.4133569006801121
 40
0.8267148991712556
 40
1.047477429691575
 40
1.268240273686115
 40
1.504227369535216
 40
1.740225682305942
 40
2.001195139144878
 40
2.262139231593111
 40
2.57302366519529
 40
2.884147975817129
 40
3.39507951421419
 40
3.905704156216149
 40
4.367715781294371
 40
4.829727406372678
 40
5.340352048374581
 40
5.85128358677165
 40
6.162407897393514
 40
6.473292330995696
 40
6.734236423444007
 40
6.995205880282951
 40
7.231204193053688
 40
7.467191288902721
 40
7.687954132897101
 40
7.908716663417355
 40
8.322074661908474
 40
8.735431562588669
 40
8.735431562588669
 40
8.735431562588669
 40
8.735431562588669
 10
278.7763941135894
 20
213.8309226474762
 30
0.0
 10
278.8730105673087
 20
213.7326724457716
 30
0.0
 10
279.0662437313454
 20
213.5361717814251
 30
0.0
 10
279.3005206866768
 20
213.277117912812
 30
0.0
 10
279.4856137644565
 20
213.0604351063126
 30
0.0
 10
279.6282356443087
 20
212.8853001090041
 30
0.0
 10
279.7693800464692
 20
212.7025034204162
 30
0.0
 10
279.9128884419777
 20
212.5047271371183
 30
0.0
 10
280.0541713314228
 20
212.2952110917703
 30
0.0
 10
280.200002134912
 20
212.0589126813986
 30
0.0
 10
280.3422242451524
 20
211.8010421295449
 30
0.0
 10
280.50405054078
 20
211.4595763456289
 30
0.0
 10
280.6572146092132
 20
211.0413695394591
 30
0.0
 10
280.764509268586
 20
210.5567853709577
 30
0.0
 10
280.7978250528704
 20
210.0781458977436
 30
0.0
 10
280.764509268586
 20
209.5995064245296
 30
0.0
 10
280.657214609213
 20
209.1149222560281
 30
0.0
 10
280.50405054078
 20
208.6967154498583
 30
0.0
 10
280.3422242451525
 20
208.3552496659423
 30
0.0
 10
280.2000021349119
 20
208.0973791140886
 30
0.0
 10
280.0541713314227
 20
207.8610807037169
 30
0.0
 10
279.9128884419778
 20
207.6515646583687
 30
0.0
 10
279.7693800464691
 20
207.4537883750709
 30
0.0
 10
279.6282356443086
 20
207.2709916864832
 30
0.0
 10
279.4856137644567
 20
207.0958566891746
 30
0.0
 10
279.3005206866769
 20
206.8791738826753
 30
0.0
 10
279.0662437313455
 20
206.6201200140624
 30
0.0
 10
278.8730105673088
 20
206.4236193497158
 30
0.0
 10
278.7763941135895
 20
206.3253691480111
 30
0.0
 11
278.7763941135894
 21
213.8309226474762
 31
0.0
 11
279.0641605885041
 21
213.5341830591921
 31
0.0
 11
279.341670863322
 21
213.2278288813405
 31
0.0
 11
279.4849509082869
 21
213.0598797116593
 31
0.0
 11
279.6243092381883
 21
212.8886620455859
 31
0.0
 11
279.7684395840505
 21
212.7018028664992
 31
0.0
 11
279.9069476130546
 21
212.5107250563484
 31
0.0
 11
280.0527013469728
 21
212.2942512555048
 31
0.0
 11
280.1895859879209
 21
212.0720927209936
 31
0.0
 11
280.3393517293316
 21
211.7996604289358
 31
0.0
 11
280.4722243627871
 21
211.5183364165613
 31
0.0
 11
280.6463619095311
 21
211.0379957543821
 31
0.0
 11
280.7548627376534
 21
210.5390317323159
 31
0.0
 11
280.7870960930175
 21
210.0781458977436
 31
0.0
 11
280.7548627376534
 21
209.6172600631713
 31
0.0
 11
280.6463619095311
 21
209.1182960411052
 31
0.0
 11
280.4722243627872
 21
208.6379553789259
 31
0.0
 11
280.3393517293316
 21
208.3566313665514
 31
0.0
 11
280.1895859879209
 21
208.0841990744936
 31
0.0
 11
280.0527013469728
 21
207.8620405399824
 31
0.0
 11
279.9069476130546
 21
207.6455667391387
 31
0.0
 11
279.7684395840505
 21
207.4544889289879
 31
0.0
 11
279.6243092381883
 21
207.2676297499013
 31
0.0
 11
279.484950908287
 21
207.096412083828
 31
0.0
 11
279.3416708633221
 21
206.9284629141469
 31
0.0
 11
279.0641605885041
 21
206.6221087362954
 31
0.0
 11
278.7763941135895
 21
206.3253691480111
 31
0.0
  0
SPLINE
  5
A8
330
36
100
AcDbEntity
  8
1
  6
Continuous
 62
     7
100
AcDbSpline
210
0.0
220
0.0
230
1.0
 70
     8
 71
     3
 72
    33
 73
    29
 74
    27
 42
0.0000000001
 43
0.0000000001
 44
0.00000001
 40
0.0
 40
0.0
 40
0.0
 40
0.0
 40
0.5939249141922411
 40
1.187851599377325
 40
1.513819741513137
 40
1.839789281990919
 40
2.196317437918411
 40
2.552851935104923
 40
2.958199561199032
 40
3.363541512548701
 40
3.863542578220931
 40
4.36366270681118
 40
5.224160052688752
 40
6.084683379167897
 40
6.883623439069154
 40
7.682563498970373
 40
8.543086825449441
 40
9.403584171327053
 40
9.903704299917314
 40
10.40370536558963
 40
10.80904731693933
 40
11.2143949430335
 40
11.57092944021999
 40
11.92745759614746
 40
12.25342713662526
 40
12.57939527876106
 40
13.1733219639461
 40
13.76724687813831
 40
13.76724687813831
 40
13.76724687813831
 40
13.76724687813831
 10
107.3240925480319
 20
383.6296444933886
 30
0.0
 10
107.1519043528137
 20
383.7273681246086
 30
0.0
 10
106.8075274489384
 20
383.9228156784456
 30
0.0
 10
106.3600049056671
 20
384.1562030709433
 30
0.0
 10
105.9875176901313
 20
384.3398539072225
 30
0.0
 10
105.6832673436405
 20
384.4828466724143
 30
0.0
 10
105.366875760645
 20
384.6238061590865
 30
0.0
 10
105.0229682943271
 20
384.7678001422768
 30
0.0
 10
104.6603084984117
 20
384.9088617214338
 30
0.0
 10
104.24865193091
 20
385.0553887062649
 30
0.0
 10
103.8020226964881
 20
385.197253793162
 30
0.0
 10
103.2035718800526
 20
385.3606763042088
 30
0.0
 10
102.478188981721
 20
385.512885526284
 30
0.0
 10
101.6437939137228
 20
385.6181210188705
 30
0.0
 10
100.8240925480319
 20
385.6514808202446
 30
0.0
 10
100.0043911823412
 20
385.6181210188704
 30
0.0
 10
99.16999611434289
 20
385.5128855262842
 30
0.0
 10
98.44461321601142
 20
385.3606763042087
 30
0.0
 10
97.84616239957578
 20
385.197253793162
 30
0.0
 10
97.39953316515383
 20
385.055388706265
 30
0.0
 10
96.98787659765216
 20
384.9088617214338
 30
0.0
 10
96.62521680173666
 20
384.7678001422767
 30
0.0
 10
96.28130933541875
 20
384.6238061590865
 30
0.0
 10
95.96491775242332
 20
384.4828466724144
 30
0.0
 10
95.66066740593251
 20
384.3398539072223
 30
0.0
 10
95.2881801903967
 20
384.1562030709433
 30
0.0
 10
94.84065764712548
 20
383.9228156784453
 30
0.0
 10
94.49628074325021
 20
383.7273681246086
 30
0.0
 10
94.32409254803194
 20
383.6296444933886
 30
0.0
 11
107.3240925480319
 21
383.6296444933886
 31
0.0
 11
106.8058326180964
 21
383.9197366317196
 31
0.0
 11
106.2795035033566
 21
384.1949212431211
 31
0.0
 11
105.9870752343514
 21
384.3389383850665
 31
0.0
 11
105.6920493115874
 21
384.4775596179874
 31
0.0
 11
105.36634457043
 21
384.6225725400209
 31
0.0
 11
105.0374432441685
 21
384.7601979928538
 31
0.0
 11
104.6596230581057
 21
384.907026481178
 31
0.0
 11
104.2777097534914
 21
385.04283636772
 31
0.0
 11
103.8010956534468
 21
385.1939656676987
 31
0.0
 11
103.3185756992031
 21
385.3254747425864
 31
0.0
 11
102.4762471434536
 21
385.501367569135
 31
0.0
 11
101.62237023
 21
385.6081131174527
 31
0.0
 11
100.8240925480319
 21
385.6406394419719
 31
0.0
 11
100.0258148660639
 21
385.6081131174526
 31
0.0
 11
99.17193795261035
 21
385.501367569135
 31
0.0
 11
98.32960939686079
 21
385.3254747425864
 31
0.0
 11
97.84708944261709
 21
385.1939656676988
 31
0.0
 11
97.37047534257242
 21
385.04283636772
 31
0.0
 11
96.98856203795812
 21
384.907026481178
 31
0.0
 11
96.61074185189524
 21
384.7601979928537
 31
0.0
 11
96.28184052563373
 21
384.6225725400209
 31
0.0
 11
95.95613578447642
 21
384.4775596179874
 31
0.0
 11
95.66110986171235
 21
384.3389383850665
 31
0.0
 11
95.36868159270719
 21
384.1949212431211
 31
0.0
 11
94.84235247796751
 21
383.9197366317195
 31
0.0
 11
94.32409254803194
 21
383.6296444933886
 31
0.0
  0
SPLINE
  5
A9
330
36
100
AcDbEntity
  8
1
  6
Continuous
 62
     7
100
AcDbSpline
210
0.0
220
0.0
230
1.0
 70
     8
 71
     3
 72
    33
 73
    29
 74
    27
 42
0.0000000001
 43
0.0000000001
 44
0.00000001
 40
0.0
 40
0.0
 40
0.0
 40
0.0
 40
0.5939249141923403
 40
1.187851599377323
 40
1.513819741513021
 40
1.839789281990739
 40
2.196317437918257
 40
2.552851935104887
 40
2.958199561199102
 40
3.363541512548758
 40
3.863542578221
 40
4.363662706811249
 40
5.224160052688821
 40
6.084683379167952
 40
6.88362343906918
 40
7.682563498970399
 40
8.543086825449496
 40
9.403584171327065
 40
9.903704299917338
 40
10.40370536558964
 40
10.80904731693937
 40
11.21439494303351
 40
11.57092944021999
 40
11.9274575961474
 40
12.25342713662525
 40
12.57939527876103
 40
13.17332196394609
 40
13.76724687813835
 40
13.76724687813835
 40
13.76724687813835
 40
13.76724687813835
 10
107.3240925480319
 20
383.6296444933886
 30
0.0
 10
107.4962807432502
 20
383.7273681246087
 30
0.0
 10
107.8406576471254
 20
383.9228156784456
 30
0.0
 10
108.2881801903967
 20
384.1562030709432
 30
0.0
 10
108.6606674059324
 20
384.3398539072225
 30
0.0
 10
108.9649177524232
 20
384.4828466724144
 30
0.0
 10
109.2813093354187
 20
384.6238061590863
 30
0.0
 10
109.6252168017367
 20
384.7678001422769
 30
0.0
 10
109.9878765976522
 20
384.9088617214337
 30
0.0
 10
110.3995331651538
 20
385.0553887062649
 30
0.0
 10
110.8461623995758
 20
385.197253793162
 30
0.0
 10
111.4446132160113
 20
385.3606763042087
 30
0.0
 10
112.1699961143429
 20
385.512885526284
 30
0.0
 10
113.0043911823411
 20
385.6181210188705
 30
0.0
 10
113.8240925480319
 20
385.6514808202446
 30
0.0
 10
114.6437939137227
 20
385.6181210188704
 30
0.0
 10
115.478188981721
 20
385.5128855262842
 30
0.0
 10
116.2035718800524
 20
385.3606763042085
 30
0.0
 10
116.802022696488
 20
385.1972537931621
 30
0.0
 10
117.24865193091
 20
385.055388706265
 30
0.0
 10
117.6603084984117
 20
384.9088617214337
 30
0.0
 10
118.0229682943272
 20
384.7678001422769
 30
0.0
 10
118.366875760645
 20
384.6238061590862
 30
0.0
 10
118.6832673436405
 20
384.4828466724145
 30
0.0
 10
118.9875176901312
 20
384.3398539072223
 30
0.0
 10
119.3600049056671
 20
384.1562030709432
 30
0.0
 10
119.8075274489383
 20
383.9228156784454
 30
0.0
 10
120.1519043528136
 20
383.7273681246086
 30
0.0
 10
120.3240925480319
 20
383.6296444933886
 30
0.0
 11
107.3240925480319
 21
383.6296444933886
 31
0.0
 11
107.8423524779676
 21
383.9197366317196
 31
0.0
 11
108.3686815927072
 21
384.1949212431211
 31
0.0
 11
108.6611098617122
 21
384.3389383850665
 31
0.0
 11
108.9561357844763
 21
384.4775596179874
 31
0.0
 11
109.2818405256336
 21
384.6225725400209
 31
0.0
 11
109.6107418518952
 21
384.7601979928538
 31
0.0
 11
109.9885620379582
 21
384.907026481178
 31
0.0
 11
110.3704753425725
 21
385.04283636772
 31
0.0
 11
110.8470894426171
 21
385.1939656676987
 31
0.0
 11
111.3296093968607
 21
385.3254747425864
 31
0.0
 11
112.1719379526103
 21
385.501367569135
 31
0.0
 11
113.0258148660639
 21
385.6081131174527
 31
0.0
 11
113.8240925480319
 21
385.6406394419719
 31
0.0
 11
114.6223702299999
 21
385.6081131174526
 31
0.0
 11
115.4762471434535
 21
385.501367569135
 31
0.0
 11
116.318575699203
 21
385.3254747425864
 31
0.0
 11
116.8010956534467
 21
385.1939656676988
 31
0.0
 11
117.2777097534914
 21
385.04283636772
 31
0.0
 11
117.6596230581057
 21
384.907026481178
 31
0.0
 11
118.0374432441686
 21
384.7601979928537
 31
0.0
 11
118.3663445704301
 21
384.6225725400209
 31
0.0
 11
118.6920493115873
 21
384.4775596179874
 31
0.0
 11
118.9870752343514
 21
384.3389383850665
 31
0.0
 11
119.2795035033566
 21
384.1949212431211
 31
0.0
 11
119.8058326180963
 21
383.9197366317195
 31
0.0
 11
120.3240925480319
 21
383.6296444933886
 31
0.0
  0
SPLINE
  5
AA
330
36
100
AcDbEntity
  8
1
  6
Continuous
 62
     7
100
AcDbSpline
210
0.0
220
0.0
230
1.0
 70
     8
 71
     3
 72
    33
 73
    29
 74
    27
 42
0.0000000001
 43
0.0000000001
 44
0.00000001
 40
0.0
 40
0.0
 40
0.0
 40
0.0
 40
0.5939249141922967
 40
1.187851599377328
 40
1.51381974151309
 40
1.83978928199092
 40
2.196317437918389
 40
2.552851935104901
 40
2.958199561199031
 40
3.363541512548719
 40
3.863542578220982
 40
4.363662706811186
 40
5.224160052688746
 40
6.084683379167871
 40
6.883623439069132
 40
7.682563498970346
 40
8.543086825449436
 40
9.403584171327012
 40
9.903704299917287
 40
10.40370536558957
 40
10.80904731693931
 40
11.21439494303345
 40
11.57092944021997
 40
11.92745759614742
 40
12.25342713662524
 40
12.57939527876099
 40
13.17332196394604
 40
13.76724687813827
 40
13.76724687813827
 40
13.76724687813827
 40
13.76724687813827
 10
107.3240925480319
 20
378.8907514923188
 30
0.0
 10
107.1519043528137
 20
378.7930278610987
 30
0.0
 10
106.8075274489385
 20
378.5975803072617
 30
0.0
 10
106.3600049056671
 20
378.364192914764
 30
0.0
 10
105.9875176901312
 20
378.1805420784852
 30
0.0
 10
105.6832673436405
 20
378.037549313293
 30
0.0
 10
105.3668757606449
 20
377.8965898266211
 30
0.0
 10
105.0229682943271
 20
377.7525958434306
 30
0.0
 10
104.6603084984117
 20
377.6115342642737
 30
0.0
 10
104.24865193091
 20
377.4650072794425
 30
0.0
 10
103.8020226964881
 20
377.3231421925453
 30
0.0
 10
103.2035718800525
 20
377.1597196814987
 30
0.0
 10
102.478188981721
 20
377.0075104594235
 30
0.0
 10
101.6437939137228
 20
376.9022749668372
 30
0.0
 10
100.8240925480319
 20
376.8689151654628
 30
0.0
 10
100.0043911823411
 20
376.902274966837
 30
0.0
 10
99.16999611434297
 20
377.0075104594235
 30
0.0
 10
98.44461321601133
 20
377.1597196814987
 30
0.0
 10
97.84616239957583
 20
377.3231421925456
 30
0.0
 10
97.39953316515377
 20
377.4650072794422
 30
0.0
 10
96.98787659765219
 20
377.6115342642738
 30
0.0
 10
96.62521680173666
 20
377.7525958434305
 30
0.0
 10
96.2813093354188
 20
377.8965898266212
 30
0.0
 10
95.96491775242328
 20
378.0375493132929
 30
0.0
 10
95.66066740593253
 20
378.1805420784852
 30
0.0
 10
95.28818019039667
 20
378.364192914764
 30
0.0
 10
94.84065764712547
 20
378.5975803072618
 30
0.0
 10
94.49628074325021
 20
378.7930278610989
 30
0.0
 10
94.32409254803194
 20
378.8907514923188
 30
0.0
 11
107.3240925480319
 21
378.8907514923188
 31
0.0
 11
106.8058326180964
 21
378.6006593539877
 31
0.0
 11
106.2795035033566
 21
378.3254747425863
 31
0.0
 11
105.9870752343514
 21
378.181457600641
 31
0.0
 11
105.6920493115874
 21
378.04283636772
 31
0.0
 11
105.36634457043
 21
377.8978234456866
 31
0.0
 11
105.0374432441685
 21
377.7601979928537
 31
0.0
 11
104.6596230581057
 21
377.6133695045294
 31
0.0
 11
104.2777097534914
 21
377.4775596179874
 31
0.0
 11
103.8010956534468
 21
377.3264303180086
 31
0.0
 11
103.3185756992031
 21
377.194921243121
 31
0.0
 11
102.4762471434536
 21
377.0190284165725
 31
0.0
 11
101.62237023
 21
376.9122828682549
 31
0.0
 11
100.8240925480319
 21
376.8797565437357
 31
0.0
 11
100.0258148660639
 21
376.9122828682548
 31
0.0
 11
99.17193795261035
 21
377.0190284165726
 31
0.0
 11
98.32960939686079
 21
377.194921243121
 31
0.0
 11
97.84708944261709
 21
377.3264303180087
 31
0.0
 11
97.37047534257242
 21
377.4775596179873
 31
0.0
 11
96.98856203795812
 21
377.6133695045295
 31
0.0
 11
96.61074185189524
 21
377.7601979928537
 31
0.0
 11
96.28184052563373
 21
377.8978234456866
 31
0.0
 11
95.95613578447642
 21
378.04283636772
 31
0.0
 11
95.66110986171235
 21
378.181457600641
 31
0.0
 11
95.36868159270719
 21
378.3254747425863
 31
0.0
 11
94.84235247796751
 21
378.6006593539879
 31
0.0
 11
94.32409254803194
 21
378.8907514923188
 31
0.0
  0
SPLINE
  5
AB
330
36
100
AcDbEntity
  8
1
  6
Continuous
 62
     7
100
AcDbSpline
210
0.0
220
0.0
230
1.0
 70
     8
 71
     3
 72
    33
 73
    29
 74
    27
 42
0.0000000001
 43
0.0000000001
 44
0.00000001
 40
0.0
 40
0.0
 40
0.0
 40
0.0
 40
0.5939249141923959
 40
1.187851599377326
 40
1.513819741512974
 40
1.83978928199074
 40
2.196317437918235
 40
2.552851935104865
 40
2.9581995611991
 40
3.363541512548775
 40
3.863542578221051
 40
4.363662706811256
 40
5.224160052688815
 40
6.084683379167926
 40
6.883623439069159
 40
7.682563498970373
 40
8.543086825449491
 40
9.403584171327026
 40
9.903704299917315
 40
10.40370536558958
 40
10.80904731693935
 40
11.21439494303347
 40
11.57092944021997
 40
11.92745759614736
 40
12.25342713662523
 40
12.57939527876097
 40
13.17332196394603
 40
13.76724687813831
 40
13.76724687813831
 40
13.76724687813831
 40
13.76724687813831
 10
107.3240925480319
 20
378.8907514923188
 30
0.0
 10
107.4962807432502
 20
378.7930278610987
 30
0.0
 10
107.8406576471254
 20
378.5975803072618
 30
0.0
 10
108.2881801903967
 20
378.3641929147641
 30
0.0
 10
108.6606674059325
 20
378.1805420784852
 30
0.0
 10
108.9649177524231
 20
378.0375493132929
 30
0.0
 10
109.2813093354187
 20
377.8965898266212
 30
0.0
 10
109.6252168017367
 20
377.7525958434306
 30
0.0
 10
109.9878765976522
 20
377.6115342642737
 30
0.0
 10
110.3995331651539
 20
377.4650072794425
 30
0.0
 10
110.8461623995758
 20
377.3231421925452
 30
0.0
 10
111.4446132160114
 20
377.1597196814989
 30
0.0
 10
112.1699961143428
 20
377.0075104594233
 30
0.0
 10
113.0043911823411
 20
376.9022749668372
 30
0.0
 10
113.8240925480319
 20
376.8689151654629
 30
0.0
 10
114.6437939137227
 20
376.902274966837
 30
0.0
 10
115.4781889817209
 20
377.0075104594235
 30
0.0
 10
116.2035718800525
 20
377.1597196814988
 30
0.0
 10
116.802022696488
 20
377.3231421925455
 30
0.0
 10
117.24865193091
 20
377.4650072794423
 30
0.0
 10
117.6603084984116
 20
377.6115342642738
 30
0.0
 10
118.0229682943272
 20
377.7525958434305
 30
0.0
 10
118.366875760645
 20
377.8965898266212
 30
0.0
 10
118.6832673436405
 20
378.0375493132929
 30
0.0
 10
118.9875176901312
 20
378.1805420784851
 30
0.0
 10
119.3600049056672
 20
378.3641929147641
 30
0.0
 10
119.8075274489383
 20
378.597580307262
 30
0.0
 10
120.1519043528136
 20
378.7930278610987
 30
0.0
 10
120.3240925480319
 20
378.8907514923188
 30
0.0
 11
107.3240925480319
 21
378.8907514923188
 31
0.0
 11
107.8423524779676
 21
378.6006593539877
 31
0.0
 11
108.3686815927072
 21
378.3254747425863
 31
0.0
 11
108.6611098617122
 21
378.181457600641
 31
0.0
 11
108.9561357844763
 21
378.04283636772
 31
0.0
 11
109.2818405256336
 21
377.8978234456866
 31
0.0
 11
109.6107418518952
 21
377.7601979928537
 31
0.0
 11
109.9885620379582
 21
377.6133695045294
 31
0.0
 11
110.3704753425725
 21
377.4775596179874
 31
0.0
 11
110.8470894426171
 21
377.3264303180086
 31
0.0
 11
111.3296093968607
 21
377.194921243121
 31
0.0
 11
112.1719379526103
 21
377.0190284165725
 31
0.0
 11
113.0258148660639
 21
376.9122828682549
 31
0.0
 11
113.8240925480319
 21
376.8797565437357
 31
0.0
 11
114.6223702299999
 21
376.9122828682548
 31
0.0
 11
115.4762471434535
 21
377.0190284165726
 31
0.0
 11
116.318575699203
 21
377.194921243121
 31
0.0
 11
116.8010956534467
 21
377.3264303180087
 31
0.0
 11
117.2777097534914
 21
377.4775596179873
 31
0.0
 11
117.6596230581057
 21
377.6133695045295
 31
0.0
 11
118.0374432441686
 21
377.7601979928537
 31
0.0
 11
118.3663445704301
 21
377.8978234456866
 31
0.0
 11
118.6920493115873
 21
378.04283636772
 31
0.0
 11
118.9870752343514
 21
378.181457600641
 31
0.0
 11
119.2795035033566
 21
378.3254747425863
 31
0.0
 11
119.8058326180963
 21
378.6006593539879
 31
0.0
 11
120.3240925480319
 21
378.8907514923188
 31
0.0
  0
ARC
  5
AC
330
36
100
AcDbEntity
  8
1
  6
Continuous
 62
     7
100
AcDbCircle
 10
269.455326301724
 20
216.3198156485461
 30
0.0
 40
5.0
100
AcDbArc
 50
-90.0
 51
-45.00000000000115
  0
ARC
  5
AD
330
36
100
AcDbEntity
  8
1
  6
Continuous
 62
     7
100
AcDbCircle
 10
268.5375011125197
 20
216.3198156485461
 30
0.0
 40
5.0
100
AcDbArc
 50
180.0
 51
-90.0
  0
ARC
  5
AE
330
36
100
AcDbEntity
  8
1
  6
Continuous
 62
     7
100
AcDbCircle
 10
269.455326301724
 20
181.319815648546
 30
0.0
 40
4.99999999999992
100
AcDbArc
 50
44.99999999999862
 51
90.0
  0
ARC
  5
AF
330
36
100
AcDbEntity
  8
1
  6
Continuous
 62
     7
100
AcDbCircle
 10
124.8240925480319
 20
374.3085766815231
 30
0.0
 40
5.000000000000066
100
AcDbArc
 50
154.1580672368339
 51
180.0
  0
ARC
  5
B0
330
36
100
AcDbEntity
  8
1
  6
Continuous
 62
     7
100
AcDbCircle
 10
89.82409254803181
 20
374.3085766815231
 30
0.0
 40
5.000000000000028
100
AcDbArc
 50
0.0
 51
25.84193276316594
  0
ENDBLK
  5
38
330
36
100
AcDbEntity
  8
0
100
AcDbBlockEnd
  0
BLOCK
  5
3A
330
39
100
AcDbEntity
  8
0
100
AcDbBlockBegin
  2
64-7-13-75-M11
 70
     0
 71
     0
 10
117.8035983667644
 20
890.0391616975921
 30
0.0
  3
64-7-13-75-M11
  1

  0
LINE
  5
B1
330
39
100
AcDbEntity
  8
1
  6
Continuous
 62
     7
100
AcDbLine
 10
98.58098110166054
 20
451.9679683614111
 30
0.0
 11
98.57928054587944
 21
451.9679683614111
 31
0.0
  0
LINE
  5
B2
330
39
100
AcDbEntity
  8
1
  6
Continuous
 62
     7
100
AcDbLine
 10
99.0740925480319
 20
451.9679683614111
 30
0.0
 11
98.58098110166054
 21
451.9679683614111
 31
0.0
  0
LINE
  5
B3
330
39
100
AcDbEntity
  8
1
  6
Continuous
 62
     7
100
AcDbLine
 10
97.0791412274624
 20
437.9679683614111
 30
0.0
 11
97.35448378749754
 21
450.8076664321111
 31
0.0
  0
LINE
  5
B4
330
39
100
AcDbEntity
  8
1
  6
Continuous
 62
     7
100
AcDbLine
 10
98.24153711909037
 20
438.4679683614111
 30
0.0
 11
97.0791412274624
 21
438.4679683614111
 31
0.0
  0
LINE
  5
B5
330
39
100
AcDbEntity
  8
1
  6
Continuous
 62
     7
100
AcDbLine
 10
97.35448378749754
 20
450.8076664321111
 30
0.0
 11
98.57928054587944
 21
451.9679683614111
 31
0.0
  0
LINE
  5
B6
330
39
100
AcDbEntity
  8
1
  6
Continuous
 62
     2
100
AcDbLine
 10
98.25366011846802
 20
438.4679683614111
 30
0.0
 11
98.58098110166054
 21
451.9679683614111
 31
0.0
  0
LINE
  5
B7
330
39
100
AcDbEntity
  8
1
  6
Continuous
 62
     2
100
AcDbLine
 10
98.24153711909037
 20
438.4679683614111
 30
0.0
 11
97.07651002690545
 21
436.4500822455522
 31
0.0
  0
LINE
  5
B8
330
39
100
AcDbEntity
  8
1
  6
Continuous
 62
     2
100
AcDbLine
 10
97.02409254803195
 20
392.5766442138834
 30
0.0
 11
98.24153711909037
 21
390.4679683614111
 31
0.0
  0
LINE
  5
B9
330
39
100
AcDbEntity
  8
1
  6
Continuous
 62
     7
100
AcDbLine
 10
97.0791412274624
 20
390.9679683614111
 30
0.0
 11
97.02409254803195
 21
393.0766442138834
 31
0.0
  0
LINE
  5
BA
330
39
100
AcDbEntity
  8
1
  6
Continuous
 62
     7
100
AcDbLine
 10
97.0791412274624
 20
390.4679683614111
 30
0.0
 11
98.24153711909037
 21
390.4679683614111
 31
0.0
  0
LINE
  5
BB
330
39
100
AcDbEntity
  8
1
  6
Continuous
 62
     7
100
AcDbLine
 10
97.02409254803195
 20
393.0766442138834
 30
0.0
 11
97.02409254803195
 21
414.4679683614111
 31
0.0
  0
LINE
  5
BC
330
39
100
AcDbEntity
  8
1
  6
Continuous
 62
     7
100
AcDbLine
 10
97.02409254803195
 20
414.4679683614111
 30
0.0
 11
97.02409254803195
 21
420.450082550421
 31
0.0
  0
LINE
  5
BD
330
39
100
AcDbEntity
  8
1
  6
Continuous
 62
     7
100
AcDbLine
 10
115.5740925480319
 20
451.9679683614111
 30
0.0
 11
99.0740925480319
 21
451.9679683614111
 31
0.0
  0
LINE
  5
BE
330
39
100
AcDbEntity
  8
1
  6
PHANTOM
 62
     4
100
AcDbLine
 10
107.3240925480319
 20
374.1676086491809
 30
0.0
 11
107.3240925480319
 21
454.6496230376699
 31
0.0
  0
LINE
  5
BF
330
39
100
AcDbEntity
  8
1
  6
Continuous
 62
     7
100
AcDbLine
 10
117.6240925480317
 20
414.4679683614111
 30
0.0
 11
117.6240925480317
 21
393.0766442138834
 31
0.0
  0
LINE
  5
C0
330
39
100
AcDbEntity
  8
1
  6
Continuous
 62
     7
100
AcDbLine
 10
117.5690438686014
 20
390.9679683614111
 30
0.0
 11
117.46182072421
 21
385.9679683614111
 31
0.0
  0
LINE
  5
C1
330
39
100
AcDbEntity
  8
1
  6
Continuous
 62
     7
100
AcDbLine
 10
98.24153711909037
 20
390.4679683614111
 30
0.0
 11
117.5690438686014
 21
390.4679683614111
 31
0.0
  0
LINE
  5
C2
330
39
100
AcDbEntity
  8
1
  6
Continuous
 62
     7
100
AcDbLine
 10
117.6240925480317
 20
393.0766442138834
 30
0.0
 11
117.5690438686014
 21
390.9679683614111
 31
0.0
  0
LINE
  5
C3
330
39
100
AcDbEntity
  8
1
  6
Continuous
 62
     2
100
AcDbLine
 10
116.3945249775958
 20
390.4679683614111
 30
0.0
 11
116.2854179831983
 21
385.967968361411
 31
0.0
  0
LINE
  5
C4
330
39
100
AcDbEntity
  8
1
  6
Continuous
 62
     2
100
AcDbLine
 10
116.4066479769734
 20
390.4679683614111
 30
0.0
 11
117.6240925480317
 21
392.5766442138834
 31
0.0
  0
LINE
  5
C5
330
39
100
AcDbEntity
  8
1
  6
Continuous
 62
     2
100
AcDbLine
 10
116.0672039944031
 20
451.9679683614111
 30
0.0
 11
116.3945249775958
 21
438.4679683614111
 31
0.0
  0
LINE
  5
C6
330
39
100
AcDbEntity
  8
1
  6
Continuous
 62
     7
100
AcDbLine
 10
117.5690438686014
 20
437.9679683614111
 30
0.0
 11
117.6086726269904
 21
436.449962720894
 31
0.0
  0
LINE
  5
C7
330
39
100
AcDbEntity
  8
1
  6
Continuous
 62
     7
100
AcDbLine
 10
116.0689045501842
 20
451.9679683614111
 30
0.0
 11
117.2937013085661
 21
450.8076664321111
 31
0.0
  0
LINE
  5
C8
330
39
100
AcDbEntity
  8
1
  6
Continuous
 62
     7
100
AcDbLine
 10
117.5690438686014
 20
438.4679683614111
 30
0.0
 11
98.24153711909037
 21
438.4679683614111
 31
0.0
  0
LINE
  5
C9
330
39
100
AcDbEntity
  8
1
  6
Continuous
 62
     7
100
AcDbLine
 10
117.2937013085661
 20
450.8076664321111
 30
0.0
 11
117.5690438686014
 21
437.9679683614111
 31
0.0
  0
LINE
  5
CA
330
39
100
AcDbEntity
  8
1
  6
Continuous
 62
     7
100
AcDbLine
 10
116.0672039944031
 20
451.9679683614111
 30
0.0
 11
115.5740925480319
 21
451.9679683614111
 31
0.0
  0
LINE
  5
CB
330
39
100
AcDbEntity
  8
1
  6
Continuous
 62
     7
100
AcDbLine
 10
116.0689045501842
 20
451.9679683614111
 30
0.0
 11
116.0672039944031
 21
451.9679683614111
 31
0.0
  0
LINE
  5
CC
330
39
100
AcDbEntity
  8
1
  6
Continuous
 62
     2
100
AcDbLine
 10
117.2937013085661
 20
450.8076664321111
 30
0.0
 11
97.35448378749754
 21
450.8076664321111
 31
0.0
  0
LINE
  5
CD
330
39
100
AcDbEntity
  8
1
  6
Continuous
 62
     2
100
AcDbLine
 10
98.36276711286553
 20
385.967968361411
 30
0.0
 11
98.25366011846802
 21
390.4679683614111
 31
0.0
  0
LINE
  5
CE
330
39
100
AcDbEntity
  8
1
  6
Continuous
 62
     7
100
AcDbLine
 10
97.18636437185376
 20
385.9679683614111
 30
0.0
 11
97.0791412274624
 21
390.9679683614111
 31
0.0
  0
LINE
  5
CF
330
39
100
AcDbEntity
  8
1
  6
Continuous
 62
     7
100
AcDbLine
 10
97.03951559498273
 20
436.4500824609093
 30
0.0
 11
97.0791412274624
 21
437.9679683614111
 31
0.0
  0
LINE
  5
D0
330
39
100
AcDbEntity
  8
1
  6
Continuous
 62
     2
100
AcDbLine
 10
117.5717439526363
 20
436.4499629358683
 30
0.0
 11
116.4066479769734
 21
438.4679683614111
 31
0.0
  0
LINE
  5
D1
330
39
100
AcDbEntity
  8
1
  6
Continuous
 62
     7
100
AcDbLine
 10
117.6240925480317
 20
420.4499626308584
 30
0.0
 11
117.6240925480317
 21
414.4679683614111
 31
0.0
  0
LINE
  5
D2
330
39
100
AcDbEntity
  8
1
  6
Continuous
 62
     7
100
AcDbLine
 10
315.519495381967
 20
188.5198156485461
 30
0.0
 11
309.5375011125198
 21
188.5198156485461
 31
0.0
  0
LINE
  5
D3
330
39
100
AcDbEntity
  8
1
  6
Continuous
 62
     2
100
AcDbLine
 10
331.519495686977
 20
188.5721642439415
 30
0.0
 11
333.5375011125198
 21
189.7372602196044
 31
0.0
  0
LINE
  5
D4
330
39
100
AcDbEntity
  8
1
  6
Continuous
 62
     7
100
AcDbLine
 10
331.519615212018
 20
209.104392601595
 30
0.0
 11
333.0375011125198
 21
209.0647669691154
 31
0.0
  0
LINE
  5
D5
330
39
100
AcDbEntity
  8
1
  6
Continuous
 62
     7
100
AcDbLine
 10
281.0375011125198
 20
208.9575438247241
 30
0.0
 11
286.0375011125198
 21
209.0647669691154
 31
0.0
  0
LINE
  5
D6
330
39
100
AcDbEntity
  8
1
  6
Continuous
 62
     2
100
AcDbLine
 10
281.0375011125197
 20
207.7811410837123
 30
0.0
 11
285.5375011125198
 21
207.8902480781098
 31
0.0
  0
LINE
  5
D7
330
39
100
AcDbEntity
  8
1
  6
Continuous
 62
     2
100
AcDbLine
 10
345.8771991832198
 20
188.8502068880117
 30
0.0
 11
345.8771991832198
 21
208.7894244090803
 31
0.0
  0
LINE
  5
D8
330
39
100
AcDbEntity
  8
1
  6
Continuous
 62
     7
100
AcDbLine
 10
347.0375011125198
 20
190.0750036463936
 30
0.0
 11
347.0375011125198
 21
190.0767042021747
 31
0.0
  0
LINE
  5
D9
330
39
100
AcDbEntity
  8
1
  6
Continuous
 62
     7
100
AcDbLine
 10
347.0375011125198
 20
190.0767042021747
 30
0.0
 11
347.0375011125198
 21
190.5698156485459
 31
0.0
  0
LINE
  5
DA
330
39
100
AcDbEntity
  8
1
  6
Continuous
 62
     7
100
AcDbLine
 10
345.8771991832198
 20
188.8502068880117
 30
0.0
 11
333.0375011125198
 21
188.5748643279764
 31
0.0
  0
LINE
  5
DB
330
39
100
AcDbEntity
  8
1
  6
Continuous
 62
     7
100
AcDbLine
 10
333.5375011125198
 20
188.5748643279764
 30
0.0
 11
333.5375011125198
 21
207.9023710774874
 31
0.0
  0
LINE
  5
DC
330
39
100
AcDbEntity
  8
1
  6
Continuous
 62
     7
100
AcDbLine
 10
347.0375011125198
 20
190.0750036463936
 30
0.0
 11
345.8771991832198
 21
188.8502068880117
 31
0.0
  0
LINE
  5
DD
330
39
100
AcDbEntity
  8
1
  6
Continuous
 62
     7
100
AcDbLine
 10
333.0375011125198
 20
188.5748643279764
 30
0.0
 11
331.5194954720027
 21
188.5352355695875
 31
0.0
  0
LINE
  5
DE
330
39
100
AcDbEntity
  8
1
  6
Continuous
 62
     2
100
AcDbLine
 10
347.0375011125198
 20
190.0767042021747
 30
0.0
 11
333.5375011125198
 21
189.749383218982
 31
0.0
  0
LINE
  5
DF
330
39
100
AcDbEntity
  8
1
  6
Continuous
 62
     2
100
AcDbLine
 10
285.5375011125198
 20
189.7372602196044
 30
0.0
 11
287.646176964992
 21
188.5198156485461
 31
0.0
  0
LINE
  5
E0
330
39
100
AcDbEntity
  8
1
  6
Continuous
 62
     2
100
AcDbLine
 10
285.5375011125198
 20
189.749383218982
 30
0.0
 11
281.0375011125197
 21
189.8584902133796
 31
0.0
  0
LINE
  5
E1
330
39
100
AcDbEntity
  8
1
  6
Continuous
 62
     7
100
AcDbLine
 10
288.146176964992
 20
188.5198156485461
 30
0.0
 11
286.0375011125198
 21
188.5748643279764
 31
0.0
  0
LINE
  5
E2
330
39
100
AcDbEntity
  8
1
  6
Continuous
 62
     7
100
AcDbLine
 10
285.5375011125198
 20
207.9023710774874
 30
0.0
 11
285.5375011125198
 21
188.5748643279764
 31
0.0
  0
LINE
  5
E3
330
39
100
AcDbEntity
  8
1
  6
Continuous
 62
     7
100
AcDbLine
 10
286.0375011125198
 20
188.5748643279764
 30
0.0
 11
281.0375011125198
 21
188.6820874723678
 31
0.0
  0
LINE
  5
E4
330
39
100
AcDbEntity
  8
1
  6
Continuous
 62
     7
100
AcDbLine
 10
309.5375011125198
 20
188.5198156485461
 30
0.0
 11
288.146176964992
 21
188.5198156485461
 31
0.0
  0
LINE
  5
E5
330
39
100
AcDbEntity
  8
1
  6
PHANTOM
 62
     4
100
AcDbLine
 10
269.2371414002896
 20
198.8198156485459
 30
0.0
 11
349.7191557887786
 21
198.8198156485459
 31
0.0
  0
LINE
  5
E6
330
39
100
AcDbEntity
  8
1
  6
Continuous
 62
     7
100
AcDbLine
 10
347.0375011125198
 20
190.5698156485459
 30
0.0
 11
347.0375011125198
 21
207.0698156485459
 31
0.0
  0
LINE
  5
E7
330
39
100
AcDbEntity
  8
1
  6
Continuous
 62
     7
100
AcDbLine
 10
309.5375011125198
 20
209.1198156485459
 30
0.0
 11
315.5196153015297
 21
209.1198156485459
 31
0.0
  0
LINE
  5
E8
330
39
100
AcDbEntity
  8
1
  6
Continuous
 62
     7
100
AcDbLine
 10
288.146176964992
 20
209.1198156485459
 30
0.0
 11
309.5375011125198
 21
209.1198156485459
 31
0.0
  0
LINE
  5
E9
330
39
100
AcDbEntity
  8
1
  6
Continuous
 62
     7
100
AcDbLine
 10
285.5375011125198
 20
209.0647669691154
 30
0.0
 11
285.5375011125198
 21
207.9023710774874
 31
0.0
  0
LINE
  5
EA
330
39
100
AcDbEntity
  8
1
  6
Continuous
 62
     7
100
AcDbLine
 10
286.0375011125198
 20
209.0647669691154
 30
0.0
 11
288.146176964992
 21
209.1198156485459
 31
0.0
  0
LINE
  5
EB
330
39
100
AcDbEntity
  8
1
  6
Continuous
 62
     2
100
AcDbLine
 10
287.646176964992
 20
209.1198156485459
 30
0.0
 11
285.5375011125198
 21
207.9023710774874
 31
0.0
  0
LINE
  5
EC
330
39
100
AcDbEntity
  8
1
  6
Continuous
 62
     2
100
AcDbLine
 10
333.5375011125198
 20
207.9023710774874
 30
0.0
 11
331.5196149966609
 21
209.0673981696723
 31
0.0
  0
LINE
  5
ED
330
39
100
AcDbEntity
  8
1
  6
Continuous
 62
     2
100
AcDbLine
 10
333.5375011125198
 20
207.8902480781098
 30
0.0
 11
347.0375011125198
 21
207.5629270949173
 31
0.0
  0
LINE
  5
EE
330
39
100
AcDbEntity
  8
1
  6
Continuous
 62
     7
100
AcDbLine
 10
345.8771991832198
 20
208.7894244090803
 30
0.0
 11
347.0375011125198
 21
207.5646276506984
 31
0.0
  0
LINE
  5
EF
330
39
100
AcDbEntity
  8
1
  6
Continuous
 62
     7
100
AcDbLine
 10
333.5375011125198
 20
207.9023710774874
 30
0.0
 11
333.5375011125198
 21
209.0647669691154
 31
0.0
  0
LINE
  5
F0
330
39
100
AcDbEntity
  8
1
  6
Continuous
 62
     7
100
AcDbLine
 10
333.0375011125198
 20
209.0647669691154
 30
0.0
 11
345.8771991832198
 21
208.7894244090803
 31
0.0
  0
LINE
  5
F1
330
39
100
AcDbEntity
  8
1
  6
Continuous
 62
     7
100
AcDbLine
 10
347.0375011125198
 20
207.0698156485459
 30
0.0
 11
347.0375011125198
 21
207.5629270949173
 31
0.0
  0
LINE
  5
F2
330
39
100
AcDbEntity
  8
1
  6
Continuous
 62
     7
100
AcDbLine
 10
347.0375011125198
 20
207.5629270949173
 30
0.0
 11
347.0375011125198
 21
207.5646276506984
 31
0.0
  0
ENDBLK
  5
3B
330
39
100
AcDbEntity
  8
0
100
AcDbBlockEnd
  0
BLOCK
  5
3D
330
3C
100
AcDbEntity
  8
0
100
AcDbBlockBegin
  2
78-167
 70
     0
 71
     0
 10
278.5990671769985
 20
442.8028885126713
 30
0.0
  3
78-167
  1

  0
LINE
  5
F3
330
3C
100
AcDbEntity
  8
1
  6
Continuous
 62
     7
100
AcDbLine
 10
329.5193806992539
 20
168.8193704211662
 30
0.0
 11
331.5193806992201
 21
168.8193587784902
 31
0.0
  0
LINE
  5
F4
330
3C
100
AcDbEntity
  8
1
  6
Continuous
 62
     7
100
AcDbLine
 10
331.5197299794996
 20
228.8193587774736
 30
0.0
 11
329.5197299795335
 21
228.8193704201496
 31
0.0
  0
LINE
  5
F5
330
3C
100
AcDbEntity
  8
1
  6
Continuous
 62
     7
100
AcDbLine
 10
331.5197299794996
 20
228.8193587774736
 30
0.0
 11
331.5193806992201
 21
168.8193587784902
 31
0.0
  0
LINE
  5
F6
330
3C
100
AcDbEntity
  8
1
  6
Continuous
 62
     7
100
AcDbLine
 10
315.5196263842206
 20
211.0236203958703
 30
0.0
 11
315.5194842950414
 21
186.6152834429093
 31
0.0
  0
LINE
  5
F7
330
3C
100
AcDbEntity
  8
1
  6
Continuous
 62
     7
100
AcDbLine
 10
95.1199240713446
 20
420.450022589581
 30
0.0
 11
119.5282610247192
 21
420.450022589581
 31
0.0
  0
LINE
  5
F8
330
3C
100
AcDbEntity
  8
1
  6
Continuous
 62
     7
100
AcDbLine
 10
77.3240925480319
 20
436.450022589581
 30
0.0
 11
137.3240925480319
 21
436.450022589581
 31
0.0
  0
LINE
  5
F9
330
3C
100
AcDbEntity
  8
1
  6
Continuous
 62
     7
100
AcDbLine
 10
77.3240925480319
 20
436.450022589581
 30
0.0
 11
77.3240925480319
 21
434.450022589581
 31
0.0
  0
LINE
  5
FA
330
3C
100
AcDbEntity
  8
1
  6
Continuous
 62
     7
100
AcDbLine
 10
137.3240925480319
 20
434.450022589581
 30
0.0
 11
137.3240925480319
 21
436.450022589581
 31
0.0
  0
ARC
  5
FB
330
3C
100
AcDbEntity
  8
1
  6
Continuous
 62
     7
100
AcDbCircle
 10
340.5194842946178
 20
186.6151379094595
 30
0.0
 40
25.0
100
AcDbArc
 50
179.999666461902
 51
-156.4438692289968
  0
ARC
  5
FC
330
3C
100
AcDbEntity
  8
1
  6
Continuous
 62
     7
100
AcDbCircle
 10
329.5194563766478
 20
181.8193704209459
 30
0.0
 40
13.00000000000007
100
AcDbArc
 50
-156.4438692289966
 51
-90.00033353809812
  0
ARC
  5
FD
330
3C
100
AcDbEntity
  8
1
  6
Continuous
 62
     7
100
AcDbCircle
 10
329.5196543021395
 20
215.8193704203698
 30
0.0
 40
13.00000000000006
100
AcDbArc
 50
89.99966646190138
 51
156.4432021528002
  0
ARC
  5
FE
330
3C
100
AcDbEntity
  8
1
  6
Continuous
 62
     7
100
AcDbCircle
 10
340.519626383797
 20
211.0234748624205
 30
0.0
 40
25.00000000000005
100
AcDbArc
 50
156.4432021528008
 51
179.999666461902
  0
ARC
  5
FF
330
3C
100
AcDbEntity
  8
1
  6
Continuous
 62
     7
100
AcDbCircle
 10
107.3240925480317
 20
198.8198156485459
 30
0.0
 40
29.99999999999995
100
AcDbArc
 50
112.776025145467
 51
143.0568890861862
  0
ARC
  5
100
330
3C
100
AcDbEntity
  8
1
  6
Continuous
 62
     7
100
AcDbCircle
 10
107.3240925480317
 20
198.8198156485459
 30
0.0
 40
30.00000000000012
100
AcDbArc
 50
36.94311091381368
 51
67.69500242638631
  0
ARC
  5
101
330
3C
100
AcDbEntity
  8
1
  6
Continuous
 62
     7
100
AcDbCircle
 10
107.3240925480317
 20
198.8198156485459
 30
0.0
 40
30.0
100
AcDbArc
 50
0.0
 51
23.05688908618595
  0
ARC
  5
102
330
3C
100
AcDbEntity
  8
1
  6
Continuous
 62
     7
100
AcDbCircle
 10
107.3240925480317
 20
198.8198156485459
 30
0.0
 40
30.00000000000003
100
AcDbArc
 50
-83.0568890861862
 51
0.0
  0
ARC
  5
103
330
3C
100
AcDbEntity
  8
1
  6
Continuous
 62
     7
100
AcDbCircle
 10
107.3240925480317
 20
198.8198156485459
 30
0.0
 40
29.99999999999984
100
AcDbArc
 50
156.9431109138133
 51
-96.94311091381343
  0
ARC
  5
104
330
3C
100
AcDbEntity
  8
1
  6
Continuous
 62
     7
100
AcDbCircle
 10
95.1199240713446
 20
445.450022589581
 30
0.0
 40
25.00000000000002
100
AcDbArc
 50
-113.5564643091012
 51
-90.0
  0
ARC
  5
105
330
3C
100
AcDbEntity
  8
1
  6
Continuous
 62
     7
100
AcDbCircle
 10
90.3240925480319
 20
434.450022589581
 30
0.0
 40
13.0
100
AcDbArc
 50
180.0
 51
-113.5564643091013
  0
ARC
  5
106
330
3C
100
AcDbEntity
  8
1
  6
Continuous
 62
     7
100
AcDbCircle
 10
124.3240925480319
 20
434.450022589581
 30
0.0
 40
13.00000000000004
100
AcDbArc
 50
-66.44353569089854
 51
0.0
  0
ARC
  5
107
330
3C
100
AcDbEntity
  8
1
  6
Continuous
 62
     7
100
AcDbCircle
 10
119.5282610247192
 20
445.450022589581
 30
0.0
 40
25.0
100
AcDbArc
 50
-90.0
 51
-66.4435356908987
  0
ENDBLK
  5
3E
330
3C
100
AcDbEntity
  8
0
100
AcDbBlockEnd
  0
BLOCK
  5
40
330
3F
100
AcDbEntity
  8
0
100
AcDbBlockBegin
  2
V22-0A-13-__________
 70
     0
 71
     0
 10
0.00000000000004
 20
1633.5
 30
0.0
  3
V22-0A-13-__________
  1

  0
LINE
  5
108
330
3F
100
AcDbEntity
  8
1
  6
Continuous
 62
     7
100
AcDbLine
 10
118.3484617123106
 20
190.1736311542579
 30
0.0
 11
120.3240925480318
 21
191.3142621490808
 31
0.0
  0
LINE
  5
109
330
3F
100
AcDbEntity
  8
1
  6
Continuous
 62
     7
100
AcDbLine
 10
94.32409254803184
 20
193.5955241387272
 30
0.0
 11
94.32409254803184
 21
191.3142621490808
 31
0.0
  0
LINE
  5
10A
330
3F
100
AcDbEntity
  8
1
  6
Continuous
 62
     7
100
AcDbLine
 10
96.82409254803184
 20
223.6066663694895
 30
0.0
 11
96.82409254803184
 21
219.819815648546
 31
0.0
  0
LINE
  5
10B
330
3F
100
AcDbEntity
  8
1
  6
Continuous
 62
     2
100
AcDbLine
 10
116.6620925480318
 20
223.319815648546
 30
0.0
 11
116.6620925480318
 21
219.819815648546
 31
0.0
  0
LINE
  5
10C
330
3F
100
AcDbEntity
  8
1
  6
Continuous
 62
     7
100
AcDbLine
 10
117.8240925480318
 20
223.6044983594736
 30
0.0
 11
117.8240925480318
 21
219.819815648546
 31
0.0
  0
LINE
  5
10D
330
3F
100
AcDbEntity
  8
1
  6
Continuous
 62
     7
100
AcDbLine
 10
97.98609254803185
 20
219.819815648546
 30
0.0
 11
116.6620925480318
 21
219.819815648546
 31
0.0
  0
LINE
  5
10E
330
3F
100
AcDbEntity
  8
1
  6
PHANTOM
 62
     4
100
AcDbLine
 10
91.32409254803184
 20
198.819815648546
 30
0.0
 11
122.3240925480318
 21
198.819815648546
 31
0.0
  0
LINE
  5
10F
330
3F
100
AcDbEntity
  8
1
  6
Continuous
 62
     7
100
AcDbLine
 10
96.82409254803184
 20
219.819815648546
 30
0.0
 11
97.98609254803185
 21
219.819815648546
 31
0.0
  0
LINE
  5
110
330
3F
100
AcDbEntity
  8
1
  6
Continuous
 62
     7
100
AcDbLine
 10
117.8240925480318
 20
219.819815648546
 30
0.0
 11
117.8240925480318
 21
217.807172610151
 31
0.0
  0
LINE
  5
111
330
3F
100
AcDbEntity
  8
1
  6
Continuous
 62
     7
100
AcDbLine
 10
116.6620925480318
 20
219.819815648546
 30
0.0
 11
117.8240925480318
 21
219.819815648546
 31
0.0
  0
LINE
  5
112
330
3F
100
AcDbEntity
  8
1
  6
Continuous
 62
     7
100
AcDbLine
 10
96.82409254803184
 20
219.819815648546
 30
0.0
 11
96.82409254803184
 21
217.807172610151
 31
0.0
  0
LINE
  5
113
330
3F
100
AcDbEntity
  8
1
  6
Continuous
 62
     2
100
AcDbLine
 10
97.98609254803185
 20
219.819815648546
 30
0.0
 11
97.98609254803185
 21
223.319815648546
 31
0.0
  0
LINE
  5
114
330
3F
100
AcDbEntity
  8
1
  6
Continuous
 62
     2
100
AcDbLine
 10
96.82409254803184
 20
217.807172610151
 30
0.0
 11
97.98609254803185
 21
219.819815648546
 31
0.0
  0
LINE
  5
115
330
3F
100
AcDbEntity
  8
1
  6
Continuous
 62
     2
100
AcDbLine
 10
116.6620925480318
 20
219.819815648546
 30
0.0
 11
117.8240925480318
 21
217.807172610151
 31
0.0
  0
LINE
  5
116
330
3F
100
AcDbEntity
  8
1
  6
Continuous
 62
     7
100
AcDbLine
 10
94.32409254803184
 20
191.3142621490808
 30
0.0
 11
96.29972338375343
 21
190.1736311542577
 31
0.0
  0
LINE
  5
117
330
3F
100
AcDbEntity
  8
1
  6
PHANTOM
 62
     4
100
AcDbLine
 10
107.3240925480318
 20
230.819815648546
 30
0.0
 11
107.3240925480318
 21
181.569815648546
 31
0.0
  0
LINE
  5
118
330
3F
100
AcDbEntity
  8
1
  6
Continuous
 62
     7
100
AcDbLine
 10
120.3240925480318
 20
191.3142621490808
 30
0.0
 11
120.3240925480318
 21
193.5955241387267
 31
0.0
  0
ARC
  5
119
330
3F
100
AcDbEntity
  8
1
  6
Continuous
 62
     7
100
AcDbCircle
 10
196.4540236448846
 20
217.8071726101512
 30
0.0
 40
78.62993109685279
100
AcDbArc
 50
-179.9999999999999
 51
-177.6343734436085
  0
ARC
  5
11A
330
3F
100
AcDbEntity
  8
1
  6
Continuous
 62
     7
100
AcDbCircle
 10
18.19416145117907
 20
217.8071726101512
 30
0.0
 40
78.62993109685277
100
AcDbArc
 50
-2.36562655639149
 51
-0.00000000000014
  0
ENDBLK
  5
41
330
3F
100
AcDbEntity
  8
0
100
AcDbBlockEnd
  0
BLOCK
  5
43
330
42
100
AcDbEntity
  8
0
100
AcDbBlockBegin
  2
36-1A-13
 70
     0
 71
     0
 10
356.6066271219559
 20
66.43768963910969
 30
0.0
  3
36-1A-13
  1

  0
LINE
  5
11B
330
42
100
AcDbEntity
  8
1
  6
Continuous
 62
     7
100
AcDbLine
 10
102.5740925480318
 20
324.4679683614111
 30
0.0
 11
102.574092548032
 21
327.4679683614111
 31
0.0
  0
LINE
  5
11C
330
42
100
AcDbEntity
  8
1
  6
Continuous
 62
     7
100
AcDbLine
 10
112.074092548032
 20
327.4679683614111
 30
0.0
 11
112.0740925480318
 21
324.4679683614111
 31
0.0
  0
LINE
  5
11D
330
42
100
AcDbEntity
  8
1
  6
Continuous
 62
     7
100
AcDbLine
 10
102.5740925480318
 20
324.4679683614111
 30
0.0
 11
102.574092548032
 21
327.4679683614111
 31
0.0
  0
LINE
  5
11E
330
42
100
AcDbEntity
  8
1
  6
Continuous
 62
     7
100
AcDbLine
 10
112.074092548032
 20
327.4679683614111
 30
0.0
 11
112.0740925480318
 21
324.4679683614111
 31
0.0
  0
LINE
  5
11F
330
42
100
AcDbEntity
  8
1
  6
Continuous
 62
     7
100
AcDbLine
 10
219.5375011125198
 20
203.569815648546
 30
0.0
 11
222.5375011125198
 21
203.5698156485459
 31
0.0
  0
LINE
  5
120
330
42
100
AcDbEntity
  8
1
  6
Continuous
 62
     7
100
AcDbLine
 10
222.5375011125198
 20
194.0698156485459
 30
0.0
 11
219.5375011125198
 21
194.069815648546
 31
0.0
  0
ENDBLK
  5
44
330
42
100
AcDbEntity
  8
0
100
AcDbBlockEnd
  0
BLOCK
  5
46
330
45
100
AcDbEntity
  8
0
100
AcDbBlockBegin
  2
32-12
 70
     0
 71
     0
 10
240.5375011125197
 20
202.6303292860237
 30
0.0
  3
32-12
  1

  0
LINE
  5
121
330
45
100
AcDbEntity
  8
1
  6
Continuous
 62
     7
100
AcDbLine
 10
117.3167332351513
 20
350.3809490915808
 30
0.0
 11
108.8314518609128
 21
345.4819696060146
 31
0.0
  0
LINE
  5
122
330
45
100
AcDbEntity
  8
1
  6
Continuous
 62
     7
100
AcDbLine
 10
118.8240925480321
 20
362.7897309778851
 30
0.0
 11
118.8240925480321
 21
352.9917720067522
 31
0.0
  0
LINE
  5
123
330
45
100
AcDbEntity
  8
1
  6
Continuous
 62
     7
100
AcDbLine
 10
108.8314518609128
 20
370.299533378623
 30
0.0
 11
117.3167332351513
 21
365.4005538930566
 31
0.0
  0
LINE
  5
124
330
45
100
AcDbEntity
  8
1
  6
Continuous
 62
     7
100
AcDbLine
 10
97.33145186091275
 20
365.4005538930566
 30
0.0
 11
105.8167332351513
 21
370.299533378623
 31
0.0
  0
LINE
  5
125
330
45
100
AcDbEntity
  8
1
  6
Continuous
 62
     7
100
AcDbLine
 10
105.8167332351513
 20
345.4819696060146
 30
0.0
 11
97.33145186091275
 21
350.3809490915808
 31
0.0
  0
LINE
  5
126
330
45
100
AcDbEntity
  8
1
  6
Continuous
 62
     7
100
AcDbLine
 10
95.82409254803196
 20
352.9917720067522
 30
0.0
 11
95.82409254803196
 21
362.7897309778851
 31
0.0
  0
LINE
  5
127
330
45
100
AcDbEntity
  8
1
  6
Continuous
 62
     7
100
AcDbLine
 10
263.9221108033449
 20
235.3198156485459
 30
0.0
 11
242.1375011125182
 21
235.3198156485459
 31
0.0
  0
LINE
  5
128
330
45
100
AcDbEntity
  8
1
  6
Continuous
 62
     7
100
AcDbLine
 10
263.9221108033449
 20
223.3198156485459
 30
0.0
 11
242.1375011125182
 21
223.3198156485459
 31
0.0
  0
LINE
  5
129
330
45
100
AcDbEntity
  8
1
  6
Continuous
 62
     7
100
AcDbLine
 10
118.7101983085383
 20
234.1942740636338
 30
0.0
 11
118.7101983085383
 21
224.4453572334579
 31
0.0
  0
LINE
  5
12A
330
45
100
AcDbEntity
  8
1
  6
Continuous
 62
     7
100
AcDbLine
 10
97.44534610040635
 20
235.3198156485459
 30
0.0
 11
117.2028389956576
 21
235.3198156485459
 31
0.0
  0
LINE
  5
12B
330
45
100
AcDbEntity
  8
1
  6
Continuous
 62
     7
100
AcDbLine
 10
95.71019830853835
 20
234.1942740636338
 30
0.0
 11
95.71019830853835
 21
224.4453572334579
 31
0.0
  0
LINE
  5
12C
330
45
100
AcDbEntity
  8
1
  6
Continuous
 62
     7
100
AcDbLine
 10
97.21755762141915
 20
223.3198156485459
 30
0.0
 11
117.2028389956576
 21
223.3198156485459
 31
0.0
  0
ARC
  5
12D
330
45
100
AcDbEntity
  8
1
  6
Continuous
 62
     7
100
AcDbCircle
 10
252.5298059579317
 20
229.3198156485459
 30
0.0
 40
12.0000000000002
100
AcDbArc
 50
164.037985837152
 51
-177.6119845367313
  0
ARC
  5
12E
330
45
100
AcDbEntity
  8
1
  6
Continuous
 62
     7
100
AcDbCircle
 10
107.324092548032
 20
357.8907514923188
 30
0.0
 40
6.699999999999989
100
AcDbArc
 50
90.0
 51
-90.0
  0
ARC
  5
12F
330
45
100
AcDbEntity
  8
1
  6
Continuous
 62
     7
100
AcDbCircle
 10
107.324092548032
 20
357.8907514923188
 30
0.0
 40
6.700000000000102
100
AcDbArc
 50
-90.0
 51
90.0
  0
ARC
  5
130
330
45
100
AcDbEntity
  8
1
  6
Continuous
 62
     7
100
AcDbCircle
 10
107.324092548032
 20
357.8907514923188
 30
0.0
 40
10.89230484541355
100
AcDbArc
 50
-90.0
 51
90.0
  0
ARC
  5
131
330
45
100
AcDbEntity
  8
1
  6
Continuous
 62
     7
100
AcDbCircle
 10
107.324092548032
 20
357.8907514923188
 30
0.0
 40
12.49999999999999
100
AcDbArc
 50
-96.92608193436894
 51
-83.07391806563061
  0
ARC
  5
132
330
45
100
AcDbEntity
  8
1
  6
Continuous
 62
     7
100
AcDbCircle
 10
107.324092548032
 20
357.8907514923188
 30
0.0
 40
12.5000000000001
100
AcDbArc
 50
-36.9260819343695
 51
-23.07391806563182
  0
ARC
  5
133
330
45
100
AcDbEntity
  8
1
  6
Continuous
 62
     7
100
AcDbCircle
 10
107.324092548032
 20
357.8907514923188
 30
0.0
 40
12.50000000000005
100
AcDbArc
 50
23.07391806563038
 51
36.92608193436867
  0
ARC
  5
134
330
45
100
AcDbEntity
  8
1
  6
Continuous
 62
     7
100
AcDbCircle
 10
107.324092548032
 20
357.8907514923188
 30
0.0
 40
12.49999999999994
100
AcDbArc
 50
83.07391806563058
 51
96.92608193436898
  0
ARC
  5
135
330
45
100
AcDbEntity
  8
1
  6
Continuous
 62
     7
100
AcDbCircle
 10
107.324092548032
 20
357.8907514923188
 30
0.0
 40
12.49999999999992
100
AcDbArc
 50
143.0739180656312
 51
156.9260819343695
  0
ARC
  5
136
330
45
100
AcDbEntity
  8
1
  6
Continuous
 62
     7
100
AcDbCircle
 10
107.324092548032
 20
357.8907514923188
 30
0.0
 40
12.50000000000014
100
AcDbArc
 50
-156.9260819343681
 51
-143.0739180656304
  0
ARC
  5
137
330
45
100
AcDbEntity
  8
1
  6
Continuous
 62
     7
100
AcDbCircle
 10
107.324092548032
 20
357.8907514923188
 30
0.0
 40
10.89230484541338
100
AcDbArc
 50
90.0
 51
-90.0
  0
ARC
  5
138
330
45
100
AcDbEntity
  8
0
  6
Continuous
 62
     7
100
AcDbCircle
 10
253.0298059579317
 20
228.9943561412523
 30
0.0
 40
4.835606911877835
100
AcDbArc
 50
177.841178630851
 51
2.15882136914912
  0
ARC
  5
139
330
45
100
AcDbEntity
  8
0
  6
Continuous
 62
     7
100
AcDbCircle
 10
253.0298059579317
 20
229.3586671517561
 30
0.0
 40
4.835606911877721
100
AcDbArc
 50
-2.15882136914912
 51
-177.841178630851
  0
ARC
  5
13A
330
45
100
AcDbEntity
  8
1
  6
Continuous
 62
     7
100
AcDbCircle
 10
253.5298059579317
 20
229.3198156485459
 30
0.0
 40
11.99999999999993
100
AcDbArc
 50
-30.0000000000002
 51
30.0000000000002
  0
ARC
  5
13B
330
45
100
AcDbEntity
  8
1
  6
Continuous
 62
     7
100
AcDbCircle
 10
252.5298059579317
 20
229.3198156485459
 30
0.0
 40
12.00000000000021
100
AcDbArc
 50
-177.6119845367313
 51
-150.0000000000005
  0
ARC
  5
13C
330
45
100
AcDbEntity
  8
1
  6
Continuous
 62
     7
100
AcDbCircle
 10
252.5298059579317
 20
229.3198156485459
 30
0.0
 40
12.0000000000002
100
AcDbArc
 50
150.0000000000005
 51
164.037985837152
  0
ARC
  5
13D
330
45
100
AcDbEntity
  8
1
  6
Continuous
 62
     7
100
AcDbCircle
 10
114.9957103507481
 20
230.7918408809358
 30
0.0
 40
5.037258416171714
100
AcDbArc
 50
42.48936704282424
 51
64.01341503332375
  0
ARC
  5
13E
330
45
100
AcDbEntity
  8
1
  6
Continuous
 62
     7
100
AcDbCircle
 10
114.9957103507482
 20
227.8477904161557
 30
0.0
 40
5.037258416171508
100
AcDbArc
 50
-64.01341503332337
 51
-42.48936704282334
  0
ARC
  5
13F
330
45
100
AcDbEntity
  8
1
  6
Continuous
 62
     7
100
AcDbCircle
 10
98.53593485028036
 20
231.7383189053666
 30
0.0
 40
3.743862009043012
100
AcDbArc
 50
106.9358291036596
 51
139.0048526480484
  0
ARC
  5
140
330
45
100
AcDbEntity
  8
1
  6
Continuous
 62
     7
100
AcDbCircle
 10
99.49933835931095
 20
227.9477667556279
 30
0.0
 40
5.159889028395472
100
AcDbArc
 50
-137.2519203604487
 51
-116.2452975634035
  0
SPLINE
  5
141
330
45
100
AcDbEntity
  8
1
  6
Continuous
 62
     7
100
AcDbSpline
210
0.0
220
0.0
230
1.0
 70
    11
 71
     3
 72
    79
 73
    75
 74
    73
 42
0.0000000001
 43
0.0000000001
 44
0.00000001
 40
0.0
 40
0.0
 40
0.0
 40
0.0
 40
0.2251440043915674
 40
0.4498541163684485
 40
0.6980863442793102
 40
0.9458096979690029
 40
1.225753246444065
 40
1.505341882254096
 40
1.820037946962561
 40
2.134517093609265
 40
2.482533802619829
 40
2.830421094392851
 40
3.207135646622251
 40
3.583774048987372
 40
3.982383404506593
 40
4.38095021689386
 40
4.793229956183785
 40
5.20549058155135
 40
5.622408661135015
 40
6.039326740718737
 40
6.451587366086448
 40
6.863867105376508
 40
7.262433917763673
 40
7.661043273282883
 40
8.037681675647976
 40
8.414396227877385
 40
8.762283519650433
 40
9.11030022866102
 40
9.424779375307724
 40
9.739475440016182
 40
10.0190640758262
 40
10.29900762430125
 40
10.54673097799096
 40
10.79496320590182
 40
11.01967331787879
 40
11.24481732227035
 40
11.46116996799158
 40
11.67752261371286
 40
11.90266661810436
 40
12.12737673008128
 40
12.37560895799227
 40
12.62333231168201
 40
12.90327586015707
 40
13.18286449596713
 40
13.49756056067555
 40
13.81203970732218
 40
14.16005641633271
 40
14.50794370810574
 40
14.88465826033518
 40
15.26129666270029
 40
15.65990601821958
 40
16.05847283060678
 40
16.47075256989673
 40
16.88301319526444
 40
17.29993127484813
 40
17.71684935443183
 40
18.1291099797994
 40
18.54138971908938
 40
18.93995653147661
 40
19.33856588699585
 40
19.71520428936096
 40
20.09191884159045
 40
20.43980613336357
 40
20.78782284237406
 40
21.10230198902064
 40
21.41699805372913
 40
21.6965866895392
 40
21.97653023801426
 40
22.22425359170397
 40
22.47248581961495
 40
22.69719593159184
 40
22.92233993598335
 40
23.13869258170458
 40
23.35504522742587
 40
23.35504522742587
 40
23.35504522742587
 40
23.35504522742587
 10
262.7889757076811
 20
224.5430299168609
 30
0.0
 10
262.7155406527223
 20
224.5593795869371
 30
0.0
 10
262.5688120651757
 20
224.5920474183765
 30
0.0
 10
262.3559237227788
 20
224.689477787721
 30
0.0
 10
262.1517908381765
 20
224.8170962912475
 30
0.0
 10
261.9519918062754
 20
224.9823992238856
 30
0.0
 10
261.7648396278071
 20
225.1764362620835
 30
0.0
 10
261.5838049442014
 20
225.4052936687047
 30
0.0
 10
261.4174456988553
 20
225.6588876111474
 30
0.0
 10
261.2599607949602
 20
225.9443235390619
 30
0.0
 10
261.1184973210494
 20
226.2502646369352
 30
0.0
 10
260.9888896557415
 20
226.5837031324163
 30
0.0
 10
260.8763087963291
 20
226.9333093616995
 30
0.0
 10
260.7782351674687
 20
227.3047326152702
 30
0.0
 10
260.6979449440988
 20
227.6878492147947
 30
0.0
 10
260.634186776151
 20
228.0860749817443
 30
0.0
 10
260.588728325382
 20
228.4913826924683
 30
0.0
 10
260.5610585139692
 20
228.9044129611517
 30
0.0
 10
260.5519517258622
 20
229.3198156485429
 30
0.0
 10
260.5610585139674
 20
229.7352183359516
 30
0.0
 10
260.588728325389
 20
230.148248604584
 30
0.0
 10
260.6341867761251
 20
230.5535563154929
 30
0.0
 10
260.6979449441917
 20
230.9517820817755
 30
0.0
 10
260.7782351671291
 20
231.334898683726
 30
0.0
 10
260.8763087975184
 20
231.706321928719
 30
0.0
 10
260.9888896514366
 20
232.055928188827
 30
0.0
 10
261.1184973357568
 20
232.3893665776424
 30
0.0
 10
261.2599607421433
 20
232.6953080543527
 30
0.0
 10
261.4174458750283
 20
232.9807426975454
 30
0.0
 10
261.5838043150826
 20
233.2343411579888
 30
0.0
 10
261.7648416876278
 20
233.46318347861
 30
0.0
 10
261.9519844531695
 20
233.6572733269983
 30
0.0
 10
262.1518148150121
 20
233.8224004864474
 30
0.0
 10
262.3558372710083
 20
233.9506385375151
 30
0.0
 10
262.569101163342
 20
234.0459619252696
 30
0.0
 10
262.7850412638834
 20
234.1019490963592
 30
0.0
 10
263.0044884106289
 20
234.1223598272658
 30
0.0
 10
263.2239355573743
 20
234.1019490963592
 30
0.0
 10
263.4398756579159
 20
234.0459619252697
 30
0.0
 10
263.6531395502494
 20
233.9506385375151
 30
0.0
 10
263.8571620062456
 20
233.8224004864474
 30
0.0
 10
264.0569923680884
 20
233.6572733269982
 30
0.0
 10
264.2441351336301
 20
233.4631834786101
 30
0.0
 10
264.4251725061754
 20
233.2343411579886
 30
0.0
 10
264.5915309462295
 20
232.9807426975454
 30
0.0
 10
264.7490160791144
 20
232.6953080543527
 30
0.0
 10
264.890479485501
 20
232.3893665776425
 30
0.0
 10
265.0200871698212
 20
232.0559281888271
 30
0.0
 10
265.1326680237393
 20
231.706321928719
 30
0.0
 10
265.2307416541286
 20
231.334898683726
 30
0.0
 10
265.3110318770663
 20
230.9517820817755
 30
0.0
 10
265.3747900451329
 20
230.5535563154929
 30
0.0
 10
265.420248495869
 20
230.1482486045842
 30
0.0
 10
265.4479183072907
 20
229.7352183359509
 30
0.0
 10
265.4570250953953
 20
229.3198156485458
 30
0.0
 10
265.4479183072908
 20
228.9044129611418
 30
0.0
 10
265.4202484958686
 20
228.4913826925049
 30
0.0
 10
265.3747900451346
 20
228.0860749816094
 30
0.0
 10
265.3110318770596
 20
227.6878492152796
 30
0.0
 10
265.2307416541527
 20
227.3047326135
 30
0.0
 10
265.1326680236555
 20
226.9333093679034
 30
0.0
 10
265.020087170124
 20
226.5837031099642
 30
0.0
 10
264.890479484466
 20
226.2502647136437
 30
0.0
 10
264.7490160828307
 20
225.9443232635887
 30
0.0
 10
264.5915309338337
 20
225.658888530002
 30
0.0
 10
264.4251725504406
 20
225.4052903874491
 30
0.0
 10
264.2441349886993
 20
225.1764470053634
 30
0.0
 10
264.0569928854594
 20
224.9823608727465
 30
0.0
 10
263.8571603192145
 20
224.8172213457415
 30
0.0
 10
263.6531456330719
 20
224.6890268865832
 30
0.0
 10
263.4398553167149
 20
224.5935552497529
 30
0.0
 10
263.2240106305166
 20
224.5381033903358
 30
0.0
 10
263.0042203391208
 20
224.5157674841307
 30
0.0
 10
262.8607239181609
 20
224.5339424392841
 30
0.0
 10
262.7889757076811
 20
224.5430299168609
 30
0.0
 11
262.7889757076811
 21
224.5430299168609
 31
0.0
 11
262.571060426511
 21
224.5996227869599
 31
0.0
 11
262.3654142848679
 21
224.6902003716703
 31
0.0
 11
262.154845910045
 21
224.8216545404822
 31
0.0
 11
261.9632739639727
 21
224.9787120122604
 31
0.0
 11
261.7682249880594
 21
225.179521094047
 31
0.0
 11
261.5942342530717
 21
225.3983749937439
 31
0.0
 11
261.4208531562412
 21
225.6610013602893
 31
0.0
 11
261.2685231349333
 21
225.9361244205441
 31
0.0
 11
261.1218167420477
 21
226.2517077915208
 31
0.0
 11
260.9954799073994
 21
226.5758444478685
 31
0.0
 11
260.8795212719733
 21
226.9342680083825
 31
0.0
 11
260.7831679012273
 21
227.2983730949743
 31
0.0
 11
260.7010682365705
 21
227.6884359916598
 31
0.0
 11
260.6379561293232
 21
228.0819742564516
 31
0.0
 11
260.5917946799904
 21
228.4916615811572
 31
0.0
 11
260.5642327870859
 21
228.9029998425528
 31
0.0
 11
260.5549986678458
 21
229.3198156485458
 31
0.0
 11
260.5642327870859
 21
229.7366314545389
 31
0.0
 11
260.5917946799904
 21
230.1479697159347
 31
0.0
 11
260.6379561293232
 21
230.5576570406404
 31
0.0
 11
260.7010682365703
 21
230.9511953054322
 31
0.0
 11
260.7831679012272
 21
231.3412582021177
 31
0.0
 11
260.8795212719732
 21
231.7053632887095
 31
0.0
 11
260.9954799073993
 21
232.0637868492234
 31
0.0
 11
261.1218167420476
 21
232.3879235055711
 31
0.0
 11
261.2685231349333
 21
232.7035068765478
 31
0.0
 11
261.4208531562412
 21
232.9786299368026
 31
0.0
 11
261.5942342530716
 21
233.2412563033481
 31
0.0
 11
261.7682249880594
 21
233.4601102030449
 31
0.0
 11
261.9632739639727
 21
233.6609192848315
 31
0.0
 11
262.154845910045
 21
233.8179767566097
 31
0.0
 11
262.3654142848679
 21
233.9494309254216
 31
0.0
 11
262.5710604265111
 21
234.0400085101321
 31
0.0
 11
262.7889757076811
 21
234.0966013802311
 31
0.0
 11
263.0044884106289
 21
234.1156471718587
 31
0.0
 11
263.2200011135767
 21
234.0966013802311
 31
0.0
 11
263.4379163947467
 21
234.0400085101321
 31
0.0
 11
263.6435625363898
 21
233.9494309254217
 31
0.0
 11
263.8541309112128
 21
233.8179767566096
 31
0.0
 11
264.0457028572852
 21
233.6609192848315
 31
0.0
 11
264.2407518331985
 21
233.4601102030449
 31
0.0
 11
264.4147425681863
 21
233.241256303348
 31
0.0
 11
264.5881236650166
 21
232.9786299368026
 31
0.0
 11
264.7404536863245
 21
232.7035068765478
 31
0.0
 11
264.8871600792102
 21
232.3879235055711
 31
0.0
 11
265.0134969138584
 21
232.0637868492235
 31
0.0
 11
265.1294555492845
 21
231.7053632887095
 31
0.0
 11
265.2258089200305
 21
231.3412582021177
 31
0.0
 11
265.3079085846876
 21
230.9511953054322
 31
0.0
 11
265.3710206919348
 21
230.5576570406404
 31
0.0
 11
265.4171821412676
 21
230.1479697159347
 31
0.0
 11
265.4447440341721
 21
229.736631454539
 31
0.0
 11
265.4539781534123
 21
229.3198156485459
 31
0.0
 11
265.4447440341721
 21
228.9029998425529
 31
0.0
 11
265.4171821412676
 21
228.4916615811573
 31
0.0
 11
265.3710206919347
 21
228.0819742564516
 31
0.0
 11
265.3079085846875
 21
227.6884359916598
 31
0.0
 11
265.2258089200306
 21
227.2983730949743
 31
0.0
 11
265.1294555492846
 21
226.9342680083825
 31
0.0
 11
265.0134969138584
 21
226.5758444478685
 31
0.0
 11
264.8871600792101
 21
226.2517077915207
 31
0.0
 11
264.7404536863245
 21
225.9361244205441
 31
0.0
 11
264.5881236650166
 21
225.6610013602894
 31
0.0
 11
264.4147425681862
 21
225.3983749937439
 31
0.0
 11
264.2407518331985
 21
225.1795210940469
 31
0.0
 11
264.0457028572852
 21
224.9787120122603
 31
0.0
 11
263.8541309112129
 21
224.8216545404822
 31
0.0
 11
263.6435625363898
 21
224.6902003716702
 31
0.0
 11
263.4379163947467
 21
224.5996227869599
 31
0.0
 11
263.2200011135767
 21
224.5430299168609
 31
0.0
 11
263.0044884106289
 21
224.5239841252332
 31
0.0
 11
262.7889757076811
 21
224.5430299168609
 31
0.0
  0
SPLINE
  5
142
330
45
100
AcDbEntity
  8
1
  6
Continuous
 62
     7
100
AcDbSpline
210
0.0
220
0.0
230
1.0
 70
    11
 71
     3
 72
    79
 73
    75
 74
    73
 42
0.0000000001
 43
0.0000000001
 44
0.00000001
 40
0.0
 40
0.0
 40
0.0
 40
0.0
 40
0.2251440043916225
 40
0.4498541163686076
 40
0.6980863442795174
 40
0.9458096979691664
 40
1.225753246444228
 40
1.505341882254241
 40
1.820037946962707
 40
2.134517093609425
 40
2.48253380262
 40
2.830421094392992
 40
3.207135646622409
 40
3.58377404898753
 40
3.98238340450674
 40
4.380950216894006
 40
4.793229956183925
 40
5.205490581551494
 40
5.622408661135161
 40
6.039326740718885
 40
6.451587366086594
 40
6.863867105376654
 40
7.262433917763818
 40
7.661043273283029
 40
8.037681675648114
 40
8.414396227877523
 40
8.762283519650572
 40
9.110300228661135
 40
9.424779375307853
 40
9.739475440016358
 40
10.01906407582633
 40
10.29900762430139
 40
10.5467309779911
 40
10.79496320590196
 40
11.01967331787893
 40
11.2448173222705
 40
11.46116996799175
 40
11.67752261371301
 40
11.90266661810453
 40
12.12737673008138
 40
12.37560895799238
 40
12.62333231168211
 40
12.90327586015721
 40
13.18286449596723
 40
13.49756056067568
 40
13.81203970732231
 40
14.16005641633284
 40
14.50794370810589
 40
14.88465826033534
 40
15.26129666270046
 40
15.65990601821972
 40
16.05847283060692
 40
16.47075256989687
 40
16.88301319526457
 40
17.29993127484827
 40
17.71684935443197
 40
18.12910997979953
 40
18.54138971908951
 40
18.93995653147675
 40
19.33856588699597
 40
19.7152042893611
 40
20.09191884159057
 40
20.43980613336367
 40
20.78782284237421
 40
21.10230198902076
 40
21.41699805372926
 40
21.69658668953928
 40
21.97653023801438
 40
22.2242535917041
 40
22.47248581961512
 40
22.69719593159202
 40
22.92233993598341
 40
23.1386925817047
 40
23.35504522742596
 40
23.35504522742596
 40
23.35504522742596
 40
23.35504522742596
 10
243.2860265173582
 20
224.5430299168609
 30
0.0
 10
243.359461572317
 20
224.5593795869371
 30
0.0
 10
243.5061901598636
 20
224.5920474183765
 30
0.0
 10
243.7190785022607
 20
224.6894777877211
 30
0.0
 10
243.9232113868629
 20
224.8170962912475
 30
0.0
 10
244.123010418764
 20
224.9823992238856
 30
0.0
 10
244.3101625972324
 20
225.1764362620835
 30
0.0
 10
244.4911972808382
 20
225.4052936687048
 30
0.0
 10
244.657556526184
 20
225.6588876111475
 30
0.0
 10
244.8150414300794
 20
225.9443235390619
 30
0.0
 10
244.95650490399
 20
226.2502646369352
 30
0.0
 10
245.0861125692981
 20
226.5837031324163
 30
0.0
 10
245.1986934287102
 20
226.9333093616993
 30
0.0
 10
245.2967670575708
 20
227.3047326152703
 30
0.0
 10
245.3770572809405
 20
227.6878492147946
 30
0.0
 10
245.4408154488884
 20
228.0860749817443
 30
0.0
 10
245.4862738996575
 20
228.4913826924683
 30
0.0
 10
245.5139437110701
 20
228.9044129611516
 30
0.0
 10
245.5230504991773
 20
229.319815648543
 30
0.0
 10
245.5139437110719
 20
229.7352183359516
 30
0.0
 10
245.4862738996503
 20
230.148248604584
 30
0.0
 10
245.4408154489143
 20
230.553556315493
 30
0.0
 10
245.3770572808476
 20
230.9517820817754
 30
0.0
 10
245.2967670579103
 20
231.3348986837261
 30
0.0
 10
245.198693427521
 20
231.706321928719
 30
0.0
 10
245.0861125736028
 20
232.055928188827
 30
0.0
 10
244.9565048892827
 20
232.3893665776424
 30
0.0
 10
244.8150414828961
 20
232.6953080543527
 30
0.0
 10
244.6575563500111
 20
232.9807426975455
 30
0.0
 10
244.4911979099568
 20
233.2343411579886
 30
0.0
 10
244.3101605374116
 20
233.4631834786101
 30
0.0
 10
244.1230177718699
 20
233.6572733269982
 30
0.0
 10
243.9231874100273
 20
233.8224004864474
 30
0.0
 10
243.719164954031
 20
233.950638537515
 30
0.0
 10
243.5059010616975
 20
234.0459619252696
 30
0.0
 10
243.2899609611559
 20
234.1019490963592
 30
0.0
 10
243.0705138144105
 20
234.1223598272658
 30
0.0
 10
242.8510666676651
 20
234.1019490963592
 30
0.0
 10
242.6351265671235
 20
234.0459619252697
 30
0.0
 10
242.4218626747901
 20
233.9506385375152
 30
0.0
 10
242.2178402187938
 20
233.8224004864473
 30
0.0
 10
242.018009856951
 20
233.6572733269983
 30
0.0
 10
241.8308670914093
 20
233.4631834786101
 30
0.0
 10
241.6498297188641
 20
233.2343411579886
 30
0.0
 10
241.48347127881
 20
232.9807426975453
 30
0.0
 10
241.325986145925
 20
232.6953080543527
 30
0.0
 10
241.1845227395384
 20
232.3893665776425
 30
0.0
 10
241.0549150552182
 20
232.055928188827
 30
0.0
 10
240.9423342013001
 20
231.7063219287191
 30
0.0
 10
240.8442605709106
 20
231.334898683726
 30
0.0
 10
240.7639703479732
 20
230.9517820817755
 30
0.0
 10
240.7002121799065
 20
230.5535563154929
 30
0.0
 10
240.6547537291704
 20
230.1482486045842
 30
0.0
 10
240.6270839177488
 20
229.735218335951
 30
0.0
 10
240.6179771296441
 20
229.3198156485458
 30
0.0
 10
240.6270839177486
 20
228.9044129611418
 30
0.0
 10
240.654753729171
 20
228.491382692505
 30
0.0
 10
240.7002121799048
 20
228.0860749816093
 30
0.0
 10
240.7639703479798
 20
227.6878492152798
 30
0.0
 10
240.8442605708868
 20
227.3047326134999
 30
0.0
 10
240.9423342013839
 20
226.9333093679035
 30
0.0
 10
241.0549150549154
 20
226.5837031099641
 30
0.0
 10
241.1845227405732
 20
226.2502647136437
 30
0.0
 10
241.3259861422088
 20
225.9443232635887
 30
0.0
 10
241.4834712912057
 20
225.6588885300019
 30
0.0
 10
241.6498296745988
 20
225.4052903874492
 30
0.0
 10
241.8308672363399
 20
225.1764470053633
 30
0.0
 10
242.01800933958
 20
224.9823608727467
 30
0.0
 10
242.2178419058249
 20
224.8172213457414
 30
0.0
 10
242.4218565919676
 20
224.6890268865832
 30
0.0
 10
242.6351469083245
 20
224.5935552497529
 30
0.0
 10
242.8509915945228
 20
224.5381033903358
 30
0.0
 10
243.0707818859187
 20
224.5157674841307
 30
0.0
 10
243.2142783068784
 20
224.5339424392842
 30
0.0
 10
243.2860265173582
 20
224.5430299168609
 30
0.0
 11
243.2860265173582
 21
224.5430299168609
 31
0.0
 11
243.5039417985283
 21
224.5996227869599
 31
0.0
 11
243.7095879401716
 21
224.6902003716703
 31
0.0
 11
243.9201563149945
 21
224.8216545404822
 31
0.0
 11
244.1117282610667
 21
224.9787120122604
 31
0.0
 11
244.30677723698
 21
225.179521094047
 31
0.0
 11
244.4807679719678
 21
225.3983749937439
 31
0.0
 11
244.6541490687983
 21
225.6610013602893
 31
0.0
 11
244.8064790901062
 21
225.9361244205441
 31
0.0
 11
244.9531854829918
 21
226.2517077915208
 31
0.0
 11
245.07952231764
 21
226.5758444478685
 31
0.0
 11
245.1954809530661
 21
226.9342680083825
 31
0.0
 11
245.2918343238121
 21
227.2983730949743
 31
0.0
 11
245.3739339884689
 21
227.6884359916598
 31
0.0
 11
245.4370460957161
 21
228.0819742564516
 31
0.0
 11
245.483207545049
 21
228.4916615811572
 31
0.0
 11
245.5107694379535
 21
228.9029998425528
 31
0.0
 11
245.5200035571937
 21
229.3198156485458
 31
0.0
 11
245.5107694379535
 21
229.7366314545389
 31
0.0
 11
245.4832075450489
 21
230.1479697159347
 31
0.0
 11
245.4370460957161
 21
230.5576570406404
 31
0.0
 11
245.373933988469
 21
230.9511953054322
 31
0.0
 11
245.2918343238122
 21
231.3412582021177
 31
0.0
 11
245.1954809530662
 21
231.7053632887095
 31
0.0
 11
245.0795223176401
 21
232.0637868492234
 31
0.0
 11
244.9531854829918
 21
232.3879235055711
 31
0.0
 11
244.8064790901062
 21
232.7035068765478
 31
0.0
 11
244.6541490687983
 21
232.9786299368026
 31
0.0
 11
244.4807679719677
 21
233.2412563033481
 31
0.0
 11
244.30677723698
 21
233.4601102030449
 31
0.0
 11
244.1117282610667
 21
233.6609192848315
 31
0.0
 11
243.9201563149944
 21
233.8179767566097
 31
0.0
 11
243.7095879401715
 21
233.9494309254216
 31
0.0
 11
243.5039417985283
 21
234.0400085101321
 31
0.0
 11
243.2860265173583
 21
234.0966013802311
 31
0.0
 11
243.0705138144105
 21
234.1156471718587
 31
0.0
 11
242.8550011114627
 21
234.0966013802311
 31
0.0
 11
242.6370858302927
 21
234.0400085101321
 31
0.0
 11
242.4314396886496
 21
233.9494309254217
 31
0.0
 11
242.2208713138266
 21
233.8179767566096
 31
0.0
 11
242.0292993677543
 21
233.6609192848315
 31
0.0
 11
241.8342503918409
 21
233.4601102030449
 31
0.0
 11
241.6602596568532
 21
233.241256303348
 31
0.0
 11
241.4868785600228
 21
232.9786299368026
 31
0.0
 11
241.3345485387149
 21
232.7035068765478
 31
0.0
 11
241.1878421458292
 21
232.3879235055711
 31
0.0
 11
241.061505311181
 21
232.0637868492235
 31
0.0
 11
240.9455466757548
 21
231.7053632887095
 31
0.0
 11
240.8491933050087
 21
231.3412582021177
 31
0.0
 11
240.7670936403518
 21
230.9511953054322
 31
0.0
 11
240.7039815331046
 21
230.5576570406404
 31
0.0
 11
240.6578200837718
 21
230.1479697159347
 31
0.0
 11
240.6302581908673
 21
229.736631454539
 31
0.0
 11
240.6210240716271
 21
229.3198156485459
 31
0.0
 11
240.6302581908673
 21
228.9029998425529
 31
0.0
 11
240.6578200837718
 21
228.4916615811573
 31
0.0
 11
240.7039815331047
 21
228.0819742564516
 31
0.0
 11
240.7670936403519
 21
227.6884359916598
 31
0.0
 11
240.8491933050088
 21
227.2983730949743
 31
0.0
 11
240.9455466757549
 21
226.9342680083825
 31
0.0
 11
241.061505311181
 21
226.5758444478685
 31
0.0
 11
241.1878421458293
 21
226.2517077915207
 31
0.0
 11
241.334548538715
 21
225.9361244205441
 31
0.0
 11
241.4868785600228
 21
225.6610013602894
 31
0.0
 11
241.6602596568532
 21
225.3983749937439
 31
0.0
 11
241.8342503918408
 21
225.1795210940469
 31
0.0
 11
242.0292993677542
 21
224.9787120122603
 31
0.0
 11
242.2208713138265
 21
224.8216545404822
 31
0.0
 11
242.4314396886496
 21
224.6902003716702
 31
0.0
 11
242.6370858302927
 21
224.5996227869599
 31
0.0
 11
242.8550011114626
 21
224.5430299168609
 31
0.0
 11
243.0705138144105
 21
224.5239841252332
 31
0.0
 11
243.2860265173582
 21
224.5430299168609
 31
0.0
  0
SPLINE
  5
143
330
45
100
AcDbEntity
  8
1
  6
Continuous
 62
     7
100
AcDbSpline
210
0.0
220
0.0
230
1.0
 70
    11
 71
     3
 72
    79
 73
    75
 74
    73
 42
0.0000000001
 43
0.0000000001
 44
0.00000001
 40
0.0
 40
0.0
 40
0.0
 40
0.0
 40
0.3309121830106525
 40
0.6617395879479219
 40
1.002062878929888
 40
1.342248281310936
 40
1.696492432186598
 40
2.050585837125725
 40
2.421204131650813
 40
2.791687053036137
 40
3.178989778789683
 40
3.566184852314304
 40
3.968551627184647
 40
4.370840691274868
 40
4.785090884167361
 40
5.199291423012816
 40
5.621117805957277
 40
6.042920115075567
 40
6.467339077807944
 40
6.891758040540464
 40
7.313560349658866
 40
7.735386732603216
 40
8.149587271448663
 40
8.563837464341148
 40
8.966126528431364
 40
9.368493303301744
 40
9.755688376826345
 40
10.1429911025798
 40
10.51347402396508
 40
10.88409231849025
 40
11.2381857234294
 40
11.59242987430513
 40
11.93261527668615
 40
12.27293856766812
 40
12.6037659726054
 40
12.93467815561607
 40
13.26222834999572
 40
13.5897785443754
 40
13.92069072738612
 40
14.25151813232344
 40
14.59184142330541
 40
14.93202682568642
 40
15.28627097656207
 40
15.64036438150126
 40
16.01098267602642
 40
16.38146559741169
 40
16.76876832316519
 40
17.15596339668974
 40
17.55833017156007
 40
17.96061923565034
 40
18.37486942854277
 40
18.78906996738824
 40
19.21089635033264
 40
19.63269865945101
 40
20.05711762218347
 40
20.48153658491594
 40
20.90333889403431
 40
21.32516527697874
 40
21.73936581582416
 40
22.1536160087166
 40
22.55590507280687
 40
22.95827184767719
 40
23.34546692120178
 40
23.73276964695528
 40
24.10325256834059
 40
24.47387086286573
 40
24.82796426780486
 40
25.18220841868045
 40
25.52239382106152
 40
25.86271711204349
 40
26.19354451698083
 40
26.52445669999157
 40
26.85200689437117
 40
27.17955708875082
 40
27.17955708875082
 40
27.17955708875082
 40
27.17955708875082
 10
101.5149981876501
 20
234.1754944463117
 30
0.0
 10
101.6242468793843
 20
234.1594135032181
 30
0.0
 10
101.8427162738754
 20
234.1272557368893
 30
0.0
 10
102.1637916780458
 20
234.031468935135
 30
0.0
 10
102.4761323288963
 20
233.9033159867461
 30
0.0
 10
102.7797028002651
 20
233.7381757021929
 30
0.0
 10
103.069046376141
 20
233.5411228914417
 30
0.0
 10
103.3455479420257
 20
233.3103019340981
 30
0.0
 10
103.6035022637393
 20
233.0512613526102
 30
0.0
 10
103.8446340793249
 20
232.7619981155447
 30
0.0
 10
104.0638093120989
 20
232.4490052891925
 30
0.0
 10
104.2624714099413
 20
232.1102819943833
 30
0.0
 10
104.4365685681032
 20
231.7527426166256
 30
0.0
 10
104.5869718113365
 20
231.3749220357777
 30
0.0
 10
104.7109148816762
 20
230.9834769231632
 30
0.0
 10
104.8087154007294
 20
230.5780174487768
 30
0.0
 10
104.8788165432242
 20
230.1643105050012
 30
0.0
 10
104.9212340457306
 20
229.7434437052352
 30
0.0
 10
104.9353387121058
 20
229.3198156485476
 30
0.0
 10
104.9212340457313
 20
228.89618759185
 30
0.0
 10
104.8788165432216
 20
228.4753207921139
 30
0.0
 10
104.8087154007393
 20
228.0616138482286
 30
0.0
 10
104.71091488164
 20
227.6561543742443
 30
0.0
 10
104.5869718114703
 20
227.2647092601499
 30
0.0
 10
104.4365685676202
 20
226.886888684672
 30
0.0
 10
104.2624714117173
 20
226.5293492872439
 30
0.0
 10
104.0638093057467
 20
226.1906260632069
 30
0.0
 10
103.8446341026332
 20
225.877632978601
 30
0.0
 10
103.6035021809266
 20
225.5883706655338
 30
0.0
 10
103.3455482458386
 20
225.3293267176845
 30
0.0
 10
103.0690452981344
 20
225.0985177918897
 30
0.0
 10
102.7797067639038
 20
224.901421083364
 30
0.0
 10
102.4761181846706
 20
224.7364384645922
 30
0.0
 10
102.1638439370829
 20
224.607707340774
 30
0.0
 10
101.8425272527202
 20
224.514021373718
 30
0.0
 10
101.5168114040613
 20
224.4581767831291
 30
0.0
 10
101.1879867875256
 20
224.438980185762
 30
0.0
 10
100.8591621709899
 20
224.4581767831291
 30
0.0
 10
100.5334463223309
 20
224.514021373718
 30
0.0
 10
100.2121296379682
 20
224.607707340774
 30
0.0
 10
99.89985539038047
 20
224.7364384645922
 30
0.0
 10
99.59626681114725
 20
224.9014210833639
 30
0.0
 10
99.30692827691675
 20
225.0985177918897
 30
0.0
 10
99.03042532921253
 20
225.3293267176845
 30
0.0
 10
98.77247139412449
 20
225.5883706655338
 30
0.0
 10
98.53133947241794
 20
225.877632978601
 30
0.0
 10
98.31216426930443
 20
226.1906260632069
 30
0.0
 10
98.11350216333379
 20
226.5293492872439
 30
0.0
 10
97.93940500743092
 20
226.886888684672
 30
0.0
 10
97.78900176358089
 20
227.2647092601498
 30
0.0
 10
97.6650586934112
 20
227.6561543742441
 30
0.0
 10
97.56725817431197
 20
228.0616138482286
 30
0.0
 10
97.4971570318297
 20
228.4753207921139
 30
0.0
 10
97.45473952931999
 20
228.8961875918504
 30
0.0
 10
97.44063486294569
 20
229.319815648546
 30
0.0
 10
97.45473952931999
 20
229.7434437052409
 30
0.0
 10
97.49715703182994
 20
230.1643105049797
 30
0.0
 10
97.56725817431131
 20
230.578017448857
 30
0.0
 10
97.66505869341373
 20
230.9834769228702
 30
0.0
 10
97.78900176357138
 20
231.3749220368589
 30
0.0
 10
97.93940500746541
 20
231.7527426127202
 30
0.0
 10
98.11350216320692
 20
232.1102820087433
 30
0.0
 10
98.31216426975807
 20
232.4490052378354
 30
0.0
 10
98.53133947075305
 20
232.761998303995
 30
0.0
 10
98.77247140003946
 20
233.0512606830611
 30
0.0
 10
99.03042530751189
 20
233.3103043904596
 30
0.0
 10
99.30692835391602
 20
233.5411141756375
 30
0.0
 10
99.59626652803453
 20
233.7382077486556
 30
0.0
 10
99.89985640066693
 20
233.9032016290972
 30
0.0
 10
100.2121259052368
 20
234.0318914553
 30
0.0
 10
100.5334598236363
 20
234.1257274796903
 30
0.0
 10
100.8591119377675
 20
234.1810171316155
 30
0.0
 10
101.1881721523187
 20
234.2022650887783
 30
0.0
 10
101.4060561758729
 20
234.1844179938005
 30
0.0
 10
101.5149981876501
 20
234.1754944463117
 30
0.0
 11
101.5149981876501
 21
234.1754944463117
 31
0.0
 11
101.8411342296628
 21
234.1194752088558
 31
0.0
 11
102.1588615159105
 21
234.0273006818366
 31
0.0
 11
102.4735428731454
 21
233.897702897158
 31
0.0
 11
102.772675060951
 21
233.7356965941578
 31
0.0
 11
103.065600449139
 21
233.5364890757642
 31
0.0
 11
103.3377258130326
 21
233.309927989637
 31
0.0
 11
103.599486249241
 21
233.0475553647832
 31
0.0
 11
103.8370060146168
 21
232.7632281657781
 31
0.0
 11
104.0594496159669
 21
232.4461757322683
 31
0.0
 11
104.2555937862174
 21
232.1123382127495
 31
0.0
 11
104.4320164503616
 21
231.7507112432134
 31
0.0
 11
104.5809996147445
 21
231.3770262049566
 31
0.0
 11
104.7062627930661
 21
230.9821688149178
 31
0.0
 11
104.8035034315427
 21
230.5795444929891
 31
0.0
 11
104.8741184336038
 21
230.1636706914195
 31
0.0
 11
104.9164473261809
 21
229.7439976605601
 31
0.0
 11
104.9306274746449
 21
229.319815648546
 31
0.0
 11
104.9164473261809
 21
228.8956336365317
 31
0.0
 11
104.8741184336038
 21
228.4759606056722
 31
0.0
 11
104.8035034315427
 21
228.0600868041027
 31
0.0
 11
104.7062627930661
 21
227.6574624821741
 31
0.0
 11
104.5809996147446
 21
227.2626050921353
 31
0.0
 11
104.4320164503617
 21
226.8889200538784
 31
0.0
 11
104.2555937862174
 21
226.5272930843424
 31
0.0
 11
104.0594496159668
 21
226.1934555648236
 31
0.0
 11
103.8370060146167
 21
225.8764031313139
 31
0.0
 11
103.599486249241
 21
225.5920759323088
 31
0.0
 11
103.3377258130326
 21
225.3297033074549
 31
0.0
 11
103.065600449139
 21
225.1031422213277
 31
0.0
 11
102.772675060951
 21
224.9039347029339
 31
0.0
 11
102.4735428731455
 21
224.7419283999336
 31
0.0
 11
102.1588615159105
 21
224.6123306152552
 31
0.0
 11
101.8411342296629
 21
224.520156088236
 31
0.0
 11
101.5149981876501
 21
224.4641368507801
 31
0.0
 11
101.1879867875256
 21
224.445357233458
 31
0.0
 11
100.8609753874011
 21
224.4641368507801
 31
0.0
 11
100.5348393453883
 21
224.520156088236
 31
0.0
 11
100.2171120591405
 21
224.6123306152552
 31
0.0
 11
99.90243070190556
 21
224.7419283999336
 31
0.0
 11
99.60329851410003
 21
224.9039347029338
 31
0.0
 11
99.31037312591215
 21
225.1031422213276
 31
0.0
 11
99.03824776201849
 21
225.3297033074549
 31
0.0
 11
98.77648732581008
 21
225.5920759323088
 31
0.0
 11
98.53896756043443
 21
225.8764031313138
 31
0.0
 11
98.31652395908429
 21
226.1934555648236
 31
0.0
 11
98.1203797888338
 21
226.5272930843423
 31
0.0
 11
97.94395712468946
 21
226.8889200538783
 31
0.0
 11
97.79497396030655
 21
227.2626050921352
 31
0.0
 11
97.66971078198509
 21
227.657462482174
 31
0.0
 11
97.57247014350854
 21
228.0600868041027
 31
0.0
 11
97.50185514144755
 21
228.4759606056722
 31
0.0
 11
97.45952624887042
 21
228.8956336365317
 31
0.0
 11
97.4453461004064
 21
229.3198156485459
 31
0.0
 11
97.45952624887045
 21
229.7439976605601
 31
0.0
 11
97.50185514144758
 21
230.1636706914196
 31
0.0
 11
97.57247014350855
 21
230.5795444929892
 31
0.0
 11
97.66971078198506
 21
230.9821688149178
 31
0.0
 11
97.79497396030655
 21
231.3770262049566
 31
0.0
 11
97.94395712468945
 21
231.7507112432135
 31
0.0
 11
98.12037978883377
 21
232.1123382127495
 31
0.0
 11
98.31652395908425
 21
232.4461757322683
 31
0.0
 11
98.53896756043437
 21
232.7632281657781
 31
0.0
 11
98.77648732581002
 21
233.0475553647832
 31
0.0
 11
99.03824776201847
 21
233.309927989637
 31
0.0
 11
99.31037312591215
 21
233.5364890757642
 31
0.0
 11
99.60329851410003
 21
233.7356965941578
 31
0.0
 11
99.90243070190563
 21
233.897702897158
 31
0.0
 11
100.2171120591406
 21
234.0273006818365
 31
0.0
 11
100.5348393453883
 21
234.1194752088557
 31
0.0
 11
100.8609753874012
 21
234.1754944463116
 31
0.0
 11
101.1879867875256
 21
234.1942740636338
 31
0.0
 11
101.5149981876501
 21
234.1754944463117
 31
0.0
  0
SPLINE
  5
144
330
45
100
AcDbEntity
  8
1
  6
Continuous
 62
     7
100
AcDbSpline
210
0.0
220
0.0
230
1.0
 70
    11
 71
     3
 72
    79
 73
    75
 74
    73
 42
0.0000000001
 43
0.0000000001
 44
0.00000001
 40
0.0
 40
0.0
 40
0.0
 40
0.0
 40
0.3309121830107085
 40
0.6617395879479779
 40
1.002062878929931
 40
1.342248281310941
 40
1.696492432186568
 40
2.050585837125738
 40
2.421204131650847
 40
2.79168705303618
 40
3.178989778789726
 40
3.566184852314319
 40
3.968551627184661
 40
4.370840691274893
 40
4.785090884167394
 40
5.199291423012835
 40
5.621117805957295
 40
6.042920115075587
 40
6.467339077807965
 40
6.891758040540486
 40
7.313560349658893
 40
7.735386732603248
 40
8.149587271448691
 40
8.563837464341171
 40
8.966126528431392
 40
9.368493303301747
 40
9.755688376826312
 40
10.14299110257978
 40
10.51347402396507
 40
10.88409231849025
 40
11.23818572342946
 40
11.59242987430517
 40
11.93261527668622
 40
12.27293856766818
 40
12.60376597260545
 40
12.93467815561609
 40
13.26222834999569
 40
13.58977854437536
 40
13.92069072738611
 40
14.25151813232345
 40
14.59184142330541
 40
14.93202682568644
 40
15.28627097656209
 40
15.64036438150125
 40
16.01098267602642
 40
16.3814655974117
 40
16.76876832316521
 40
17.15596339668975
 40
17.55833017156008
 40
17.96061923565034
 40
18.37486942854278
 40
18.78906996738824
 40
19.21089635033264
 40
19.63269865945101
 40
20.05711762218348
 40
20.48153658491594
 40
20.90333889403432
 40
21.32516527697875
 40
21.73936581582418
 40
22.15361600871662
 40
22.55590507280688
 40
22.95827184767719
 40
23.34546692120178
 40
23.73276964695528
 40
24.10325256834058
 40
24.47387086286572
 40
24.82796426780487
 40
25.18220841868048
 40
25.52239382106153
 40
25.86271711204348
 40
26.19354451698079
 40
26.52445669999149
 40
26.85200689437114
 40
27.17955708875081
 40
27.17955708875081
 40
27.17955708875081
 40
27.17955708875081
 10
113.133186908414
 20
234.1754944463117
 30
0.0
 10
113.0239382166797
 20
234.1594135032181
 30
0.0
 10
112.8054688221886
 20
234.1272557368894
 30
0.0
 10
112.4843934180182
 20
234.0314689351349
 30
0.0
 10
112.1720527671677
 20
233.9033159867462
 30
0.0
 10
111.868482295799
 20
233.738175702193
 30
0.0
 10
111.5791387199231
 20
233.5411228914416
 30
0.0
 10
111.3026371540384
 20
233.3103019340982
 30
0.0
 10
111.0446828323247
 20
233.0512613526101
 30
0.0
 10
110.8035510167391
 20
232.7619981155447
 30
0.0
 10
110.5843757839651
 20
232.4490052891924
 30
0.0
 10
110.3857136861228
 20
232.1102819943833
 30
0.0
 10
110.2116165279609
 20
231.7527426166255
 30
0.0
 10
110.0612132847275
 20
231.3749220357778
 30
0.0
 10
109.9372702143877
 20
230.9834769231632
 30
0.0
 10
109.8394696953347
 20
230.5780174487768
 30
0.0
 10
109.7693685528398
 20
230.1643105050013
 30
0.0
 10
109.7269510503334
 20
229.7434437052351
 30
0.0
 10
109.7128463839582
 20
229.3198156485477
 30
0.0
 10
109.7269510503328
 20
228.8961875918499
 30
0.0
 10
109.7693685528425
 20
228.475320792114
 30
0.0
 10
109.8394696953248
 20
228.0616138482286
 30
0.0
 10
109.9372702144241
 20
227.6561543742443
 30
0.0
 10
110.0612132845938
 20
227.2647092601498
 30
0.0
 10
110.2116165284439
 20
226.8868886846721
 30
0.0
 10
110.3857136843467
 20
226.529349287244
 30
0.0
 10
110.5843757903173
 20
226.1906260632069
 30
0.0
 10
110.8035509934308
 20
225.877632978601
 30
0.0
 10
111.0446829151373
 20
225.5883706655337
 30
0.0
 10
111.3026368502255
 20
225.3293267176846
 30
0.0
 10
111.5791397979297
 20
225.0985177918896
 30
0.0
 10
111.8684783321603
 20
224.901421083364
 30
0.0
 10
112.1720669113935
 20
224.7364384645923
 30
0.0
 10
112.4843411589811
 20
224.607707340774
 30
0.0
 10
112.8056578433439
 20
224.514021373718
 30
0.0
 10
113.1313736920028
 20
224.4581767831291
 30
0.0
 10
113.4601983085384
 20
224.438980185762
 30
0.0
 10
113.7890229250741
 20
224.4581767831291
 30
0.0
 10
114.1147387737331
 20
224.514021373718
 30
0.0
 10
114.4360554580959
 20
224.607707340774
 30
0.0
 10
114.7483297056836
 20
224.7364384645922
 30
0.0
 10
115.0519182849168
 20
224.9014210833639
 30
0.0
 10
115.3412568191473
 20
225.0985177918896
 30
0.0
 10
115.6177597668515
 20
225.3293267176845
 30
0.0
 10
115.8757137019396
 20
225.5883706655338
 30
0.0
 10
116.1168456236461
 20
225.8776329786009
 30
0.0
 10
116.3360208267597
 20
226.190626063207
 30
0.0
 10
116.5346829327302
 20
226.5293492872438
 30
0.0
 10
116.7087800886331
 20
226.886888684672
 30
0.0
 10
116.8591833324831
 20
227.2647092601499
 30
0.0
 10
116.9831264026528
 20
227.6561543742441
 30
0.0
 10
117.0809269217521
 20
228.0616138482287
 30
0.0
 10
117.1510280642343
 20
228.4753207921139
 30
0.0
 10
117.193445566744
 20
228.8961875918503
 30
0.0
 10
117.2075502331184
 20
229.319815648546
 30
0.0
 10
117.1934455667441
 20
229.7434437052409
 30
0.0
 10
117.1510280642341
 20
230.1643105049797
 30
0.0
 10
117.0809269217528
 20
230.578017448857
 30
0.0
 10
116.9831264026502
 20
230.9834769228702
 30
0.0
 10
116.8591833324927
 20
231.3749220368588
 30
0.0
 10
116.7087800885986
 20
231.7527426127203
 30
0.0
 10
116.5346829328571
 20
232.1102820087432
 30
0.0
 10
116.336020826306
 20
232.4490052378355
 30
0.0
 10
116.116845625311
 20
232.761998303995
 30
0.0
 10
115.8757136960246
 20
233.0512606830611
 30
0.0
 10
115.6177597885521
 20
233.3103043904596
 30
0.0
 10
115.341256742148
 20
233.5411141756376
 30
0.0
 10
115.0519185680294
 20
233.7382077486556
 30
0.0
 10
114.7483286953971
 20
233.9032016290973
 30
0.0
 10
114.4360591908273
 20
234.0318914552998
 30
0.0
 10
114.1147252724278
 20
234.1257274796903
 30
0.0
 10
113.7890731582966
 20
234.1810171316155
 30
0.0
 10
113.4600129437454
 20
234.2022650887783
 30
0.0
 10
113.2421289201911
 20
234.1844179938006
 30
0.0
 10
113.133186908414
 20
234.1754944463117
 30
0.0
 11
113.133186908414
 21
234.1754944463117
 31
0.0
 11
112.8070508664012
 21
234.1194752088558
 31
0.0
 11
112.4893235801535
 21
234.0273006818366
 31
0.0
 11
112.1746422229186
 21
233.897702897158
 31
0.0
 11
111.875510035113
 21
233.7356965941578
 31
0.0
 11
111.5825846469251
 21
233.5364890757642
 31
0.0
 11
111.3104592830314
 21
233.309927989637
 31
0.0
 11
111.048698846823
 21
233.0475553647832
 31
0.0
 11
110.8111790814473
 21
232.7632281657781
 31
0.0
 11
110.5887354800971
 21
232.4461757322683
 31
0.0
 11
110.3925913098467
 21
232.1123382127495
 31
0.0
 11
110.2161686457024
 21
231.7507112432134
 31
0.0
 11
110.0671854813195
 21
231.3770262049566
 31
0.0
 11
109.9419223029979
 21
230.9821688149178
 31
0.0
 11
109.8446816645213
 21
230.5795444929891
 31
0.0
 11
109.7740666624603
 21
230.1636706914195
 31
0.0
 11
109.7317377698832
 21
229.7439976605601
 31
0.0
 11
109.7175576214191
 21
229.319815648546
 31
0.0
 11
109.7317377698832
 21
228.8956336365317
 31
0.0
 11
109.7740666624603
 21
228.4759606056722
 31
0.0
 11
109.8446816645214
 21
228.0600868041027
 31
0.0
 11
109.941922302998
 21
227.6574624821741
 31
0.0
 11
110.0671854813195
 21
227.2626050921353
 31
0.0
 11
110.2161686457024
 21
226.8889200538784
 31
0.0
 11
110.3925913098467
 21
226.5272930843424
 31
0.0
 11
110.5887354800971
 21
226.1934555648236
 31
0.0
 11
110.8111790814473
 21
225.8764031313139
 31
0.0
 11
111.048698846823
 21
225.5920759323088
 31
0.0
 11
111.3104592830314
 21
225.3297033074549
 31
0.0
 11
111.5825846469251
 21
225.1031422213277
 31
0.0
 11
111.8755100351131
 21
224.9039347029339
 31
0.0
 11
112.1746422229186
 21
224.7419283999336
 31
0.0
 11
112.4893235801536
 21
224.6123306152552
 31
0.0
 11
112.8070508664012
 21
224.520156088236
 31
0.0
 11
113.133186908414
 21
224.4641368507801
 31
0.0
 11
113.4601983085384
 21
224.445357233458
 31
0.0
 11
113.7872097086629
 21
224.4641368507801
 31
0.0
 11
114.1133457506758
 21
224.520156088236
 31
0.0
 11
114.4310730369235
 21
224.6123306152552
 31
0.0
 11
114.7457543941585
 21
224.7419283999336
 31
0.0
 11
115.044886581964
 21
224.9039347029338
 31
0.0
 11
115.3378119701519
 21
225.1031422213276
 31
0.0
 11
115.6099373340455
 21
225.3297033074549
 31
0.0
 11
115.871697770254
 21
225.5920759323088
 31
0.0
 11
116.1092175356296
 21
225.8764031313138
 31
0.0
 11
116.3316611369798
 21
226.1934555648236
 31
0.0
 11
116.5278053072302
 21
226.5272930843423
 31
0.0
 11
116.7042279713746
 21
226.8889200538783
 31
0.0
 11
116.8532111357575
 21
227.2626050921352
 31
0.0
 11
116.978474314079
 21
227.657462482174
 31
0.0
 11
117.0757149525555
 21
228.0600868041027
 31
0.0
 11
117.1463299546165
 21
228.4759606056722
 31
0.0
 11
117.1886588471936
 21
228.8956336365317
 31
0.0
 11
117.2028389956577
 21
229.3198156485459
 31
0.0
 11
117.1886588471936
 21
229.7439976605601
 31
0.0
 11
117.1463299546165
 21
230.1636706914196
 31
0.0
 11
117.0757149525555
 21
230.5795444929892
 31
0.0
 11
116.9784743140789
 21
230.9821688149178
 31
0.0
 11
116.8532111357575
 21
231.3770262049566
 31
0.0
 11
116.7042279713746
 21
231.7507112432135
 31
0.0
 11
116.5278053072303
 21
232.1123382127495
 31
0.0
 11
116.3316611369798
 21
232.4461757322683
 31
0.0
 11
116.1092175356297
 21
232.7632281657781
 31
0.0
 11
115.871697770254
 21
233.0475553647832
 31
0.0
 11
115.6099373340456
 21
233.309927989637
 31
0.0
 11
115.3378119701519
 21
233.5364890757642
 31
0.0
 11
115.044886581964
 21
233.7356965941578
 31
0.0
 11
114.7457543941584
 21
233.897702897158
 31
0.0
 11
114.4310730369235
 21
234.0273006818365
 31
0.0
 11
114.1133457506758
 21
234.1194752088557
 31
0.0
 11
113.787209708663
 21
234.1754944463116
 31
0.0
 11
113.4601983085385
 21
234.1942740636338
 31
0.0
 11
113.133186908414
 21
234.1754944463117
 31
0.0
  0
ENDBLK
  5
47
330
45
100
AcDbEntity
  8
0
100
AcDbBlockEnd
  0
BLOCK
  5
49
330
48
100
AcDbEntity
  8
0
100
AcDbBlockBegin
  2
37-1-13
 70
     0
 71
     0
 10
1714.210563554359
 20
-329.0466441246867
 30
0.0
  3
37-1-13
  1

  0
LINE
  5
145
330
48
100
AcDbEntity
  8
1
  6
Continuous
 62
     7
100
AcDbLine
 10
110.3701190032485
 20
341.4679683614111
 30
0.0
 11
120.3239549555274
 21
341.4679683614111
 31
0.0
  0
LINE
  5
146
330
48
100
AcDbEntity
  8
1
  6
Continuous
 62
     7
100
AcDbLine
 10
94.32395495552737
 20
334.7052176001677
 30
0.0
 11
94.32395495552737
 21
341.4679683614111
 31
0.0
  0
LINE
  5
147
330
48
100
AcDbEntity
  8
1
  6
Continuous
 62
     7
100
AcDbLine
 10
94.32395495552737
 20
341.4679683614111
 30
0.0
 11
110.3701190032485
 21
341.4679683614111
 31
0.0
  0
LINE
  5
148
330
48
100
AcDbEntity
  8
1
  6
Continuous
 62
     7
100
AcDbLine
 10
120.3239549555274
 20
334.7051069629022
 30
0.0
 11
120.3239549555274
 21
341.4679683614111
 31
0.0
  0
LINE
  5
149
330
48
100
AcDbEntity
  8
1
  6
Continuous
 62
     7
100
AcDbLine
 10
119.823954955527
 20
333.967968361411
 30
0.0
 11
107.323954955527
 21
333.9679683614111
 31
0.0
  0
LINE
  5
14A
330
48
100
AcDbEntity
  8
1
  6
Continuous
 62
     7
100
AcDbLine
 10
107.323954955527
 20
333.9679683614111
 30
0.0
 11
94.82395495552737
 21
333.967968361411
 31
0.0
  0
LINE
  5
14B
330
48
100
AcDbEntity
  8
1
  6
Continuous
 62
     7
100
AcDbLine
 10
120.3239549555274
 20
334.3972541471397
 30
0.0
 11
120.3239549555274
 21
334.7051069629022
 31
0.0
  0
LINE
  5
14C
330
48
100
AcDbEntity
  8
1
  6
Continuous
 62
     7
100
AcDbLine
 10
94.32395495552737
 20
334.3972541471392
 30
0.0
 11
94.32395495552737
 21
334.7052176001677
 31
0.0
  0
LINE
  5
14D
330
48
100
AcDbEntity
  8
1
  6
Continuous
 62
     7
100
AcDbLine
 10
113.323954955527
 20
327.4679683614111
 30
0.0
 11
101.323954955527
 21
327.4679683614111
 31
0.0
  0
LINE
  5
14E
330
48
100
AcDbEntity
  8
1
  6
Continuous
 62
     7
100
AcDbLine
 10
236.5375011125198
 20
185.7491014342745
 30
0.0
 11
236.5375011125198
 21
211.8905298628174
 31
0.0
  0
LINE
  5
14F
330
48
100
AcDbEntity
  8
0
  6
Continuous
 62
     7
100
AcDbLine
 10
229.4667868982483
 20
193.9744688696491
 30
0.0
 11
229.4667868982483
 21
190.1445328420019
 31
0.0
  0
LINE
  5
150
330
48
100
AcDbEntity
  8
0
  6
Continuous
 62
     7
100
AcDbLine
 10
229.4667868982483
 20
207.4950984550899
 30
0.0
 11
229.4667868982483
 21
203.6651624274428
 31
0.0
  0
LINE
  5
151
330
48
100
AcDbEntity
  8
1
  6
Continuous
 62
     7
100
AcDbLine
 10
222.5375011125198
 20
204.8198156485459
 30
0.0
 11
222.5375011125198
 21
192.819815648546
 31
0.0
  0
ARC
  5
152
330
48
100
AcDbEntity
  8
1
  6
Continuous
 62
     7
100
AcDbCircle
 10
116.823954955527
 20
337.9679683614111
 30
0.0
 40
5.000000000000091
100
AcDbArc
 50
-53.13010235415676
 51
-45.57299599919122
  0
ARC
  5
153
330
48
100
AcDbEntity
  8
1
  6
Continuous
 62
     7
100
AcDbCircle
 10
97.82395495552703
 20
337.9679683614111
 30
0.0
 40
5.000000000000102
100
AcDbArc
 50
-134.4270040007991
 51
-126.8698976458401
  0
ARC
  5
154
330
48
100
AcDbEntity
  8
1
  6
Continuous
 62
     7
100
AcDbCircle
 10
81.41749975041232
 20
314.061513156296
 30
0.0
 40
23.99999999999993
100
AcDbArc
 50
33.95919250009828
 51
56.0408074999024
  0
ARC
  5
155
330
48
100
AcDbEntity
  8
1
  6
Continuous
 62
     7
100
AcDbCircle
 10
133.2304101606421
 20
314.061513156296
 30
0.0
 40
24.00000000000019
100
AcDbArc
 50
123.9591925000977
 51
146.0408074999023
  0
ARC
  5
156
330
48
100
AcDbEntity
  8
1
  6
Continuous
 62
     7
100
AcDbCircle
 10
209.1310459074047
 20
224.7262708536608
 30
0.0
 40
24.00000000000008
100
AcDbArc
 50
-56.04080749990213
 51
-33.95919250009738
  0
ARC
  5
157
330
48
100
AcDbEntity
  8
1
  6
Continuous
 62
     7
100
AcDbCircle
 10
233.0375011125198
 20
208.3198156485459
 30
0.0
 40
5.000000000000057
100
AcDbArc
 50
45.57299599919494
 51
143.1301023541568
  0
ARC
  5
158
330
48
100
AcDbEntity
  8
1
  6
Continuous
 62
     7
100
AcDbCircle
 10
233.0375011125198
 20
189.3198156485459
 30
0.0
 40
4.999999999999881
100
AcDbArc
 50
-143.1301023541578
 51
-45.57299599919402
  0
ARC
  5
159
330
48
100
AcDbEntity
  8
1
  6
Continuous
 62
     7
100
AcDbCircle
 10
209.1310459074047
 20
172.9133604434311
 30
0.0
 40
24.00000000000019
100
AcDbArc
 50
33.95919250009744
 51
56.04080749990217
  0
SPLINE
  5
15A
330
48
100
AcDbEntity
  8
1
  6
Continuous
 62
     7
100
AcDbSpline
210
0.0
220
0.0
230
1.0
 70
    11
 71
     3
 72
    79
 73
    75
 74
    73
 42
0.0000000001
 43
0.0000000001
 44
0.00000001
 40
0.0
 40
0.0
 40
0.0
 40
0.0
 40
0.2813091385367424
 40
0.5626019606351731
 40
0.8464226525142794
 40
1.130214060738632
 40
1.417835711262124
 40
1.70542054240186
 40
1.997635978226865
 40
2.289812854371087
 40
2.58683903518304
 40
2.883829792124769
 40
3.185307045384552
 40
3.486755461402772
 40
3.791812980111122
 40
4.096850365689736
 40
4.404220799428705
 40
4.71158093180133
 40
5.019747232346134
 40
5.327913532890829
 40
5.635273665263447
 40
5.94264409900246
 40
6.247681484581148
 40
6.552739003289475
 40
6.85418741930763
 40
7.155664672567251
 40
7.452655429508988
 40
7.749681610320959
 40
8.041858486465342
 40
8.334073922290298
 40
8.621658753430006
 40
8.909280403953522
 40
9.193071812177825
 40
9.476892504056957
 40
9.758185326155436
 40
10.03949446469217
 40
10.31992040211355
 40
10.60034633953499
 40
10.8816554780717
 40
11.16294830017011
 40
11.44676899204921
 40
11.73056040027358
 40
12.01818205079717
 40
12.30576688193698
 40
12.59798231776201
 40
12.89015919390632
 40
13.18718537471821
 40
13.48417613165999
 40
13.78565338491962
 40
14.08710180093779
 40
14.39215931964611
 40
14.69719670522476
 40
15.00456713896379
 40
15.31192727133638
 40
15.62009357188111
 40
15.92825987242583
 40
16.23562000479842
 40
16.54299043853747
 40
16.84802782411613
 40
17.15308534282452
 40
17.45453375884271
 40
17.75601101210244
 40
18.05300176904412
 40
18.35002794985601
 40
18.64220482600031
 40
18.9344202618253
 40
19.22200509296507
 40
19.50962674348852
 40
19.79341815171285
 40
20.07723884359212
 40
20.35853166569065
 40
20.63984080422727
 40
20.92026674164861
 40
21.20069267907005
 40
21.20069267907005
 40
21.20069267907005
 40
21.20069267907005
 10
229.4803088832762
 20
210.3582456340866
 30
0.0
 10
229.4918802867631
 20
210.4513725851076
 30
0.0
 10
229.5150224225745
 20
210.637621085618
 30
0.0
 10
229.5837845629423
 20
210.9119226707239
 30
0.0
 10
229.6763526897768
 20
211.1796665993009
 30
0.0
 10
229.7952050256073
 20
211.4392792353065
 30
0.0
 10
229.9378669412408
 20
211.687996332225
 30
0.0
 10
230.1044098421746
 20
211.924840247601
 30
0.0
 10
230.2923675614977
 20
212.1470556669171
 30
0.0
 10
230.5015297733048
 20
212.3539187189201
 30
0.0
 10
230.7289823497877
 20
212.5429774537915
 30
0.0
 10
230.9743279341408
 20
212.7136173984527
 30
0.0
 10
231.2343564924807
 20
212.8638811273187
 30
0.0
 10
231.5083792385372
 20
212.9931884794456
 30
0.0
 10
231.7931269239204
 20
213.1001792813933
 30
0.0
 10
232.0874897734693
 20
213.1843116205694
 30
0.0
 10
232.388380253438
 20
213.2448306047743
 30
0.0
 10
232.6941665753956
 20
213.2813117427691
 30
0.0
 10
233.0021440053831
 20
213.2935305243022
 30
0.0
 10
233.3101214353762
 20
213.2813117427691
 30
0.0
 10
233.6159077573165
 20
213.2448306047729
 30
0.0
 10
233.9167982373487
 20
213.1843116205742
 30
0.0
 10
234.2111610866632
 20
213.1001792813755
 30
0.0
 10
234.4959087729158
 20
212.9931884795116
 30
0.0
 10
234.7699315157641
 20
212.8638811270751
 30
0.0
 10
235.0299600859887
 20
212.7136173993563
 30
0.0
 10
235.2753056266175
 20
212.5429774504744
 30
0.0
 10
235.502758364902
 20
212.3539187312217
 30
0.0
 10
235.7119199822566
 20
212.1470556218366
 30
0.0
 10
235.8998799010484
 20
211.9248404148339
 30
0.0
 10
236.0664147173071
 20
211.6879957190485
 30
0.0
 10
236.2091065745277
 20
211.4392815123765
 30
0.0
 10
236.3278485816898
 20
211.1796582263991
 30
0.0
 10
236.4208261268231
 20
210.9119538187677
 30
0.0
 10
236.4880732046306
 20
210.6375059854234
 30
0.0
 10
236.528388550725
 20
210.3589671627646
 30
0.0
 10
236.542050229698
 20
210.0781458977434
 30
0.0
 10
236.5283885507249
 20
209.7973246327219
 30
0.0
 10
236.4880732046304
 20
209.5187858100633
 30
0.0
 10
236.4208261268231
 20
209.2443379767189
 30
0.0
 10
236.3278485816899
 20
208.9766335690875
 30
0.0
 10
236.2091065745277
 20
208.7170102831102
 30
0.0
 10
236.0664147173072
 20
208.4682960764381
 30
0.0
 10
235.8998799010486
 20
208.2314513806524
 30
0.0
 10
235.7119199822565
 20
208.00923617365
 30
0.0
 10
235.5027583649019
 20
207.8023730642647
 30
0.0
 10
235.2753056266176
 20
207.613314345012
 30
0.0
 10
235.0299600859887
 20
207.4426743961302
 30
0.0
 10
234.7699315157641
 20
207.2924106684114
 30
0.0
 10
234.4959087729158
 20
207.1631033159749
 30
0.0
 10
234.2111610866633
 20
207.056112514111
 30
0.0
 10
233.9167982373486
 20
206.9719801749124
 30
0.0
 10
233.6159077573166
 20
206.9114611907138
 30
0.0
 10
233.3101214353759
 20
206.8749800527173
 30
0.0
 10
233.002144005384
 20
206.8627612711847
 30
0.0
 10
232.6941665753923
 20
206.8749800527172
 30
0.0
 10
232.3883802534505
 20
206.9114611907137
 30
0.0
 10
232.087489773423
 20
206.971980174912
 30
0.0
 10
231.7931269240915
 20
207.0561125141124
 30
0.0
 10
231.5083792379012
 20
207.1631033159702
 30
0.0
 10
231.234356494823
 20
207.292410668429
 30
0.0
 10
230.9743279254502
 20
207.4426743960653
 30
0.0
 10
230.728982381687
 20
207.6133143452497
 30
0.0
 10
230.5015296550012
 20
207.8023730633829
 30
0.0
 10
230.2923679950345
 20
208.0092361768814
 30
0.0
 10
230.1044082339071
 20
208.2314513686648
 30
0.0
 10
229.9378728381151
 20
208.4682961203925
 30
0.0
 10
229.7951831271961
 20
208.7170101198831
 30
0.0
 10
229.6764332113488
 20
208.976634169282
 30
0.0
 10
229.5834850145294
 20
209.244335743935
 30
0.0
 10
229.5161293325578
 20
209.5187940607856
 30
0.0
 10
229.4762181447586
 20
209.7972938702443
 30
0.0
 10
229.4610525665202
 20
210.0782603059166
 30
0.0
 10
229.4738901110242
 20
210.2649171913632
 30
0.0
 10
229.4803088832762
 20
210.3582456340866
 30
0.0
 11
229.4803088832762
 21
210.3582456340866
 31
0.0
 11
229.520664127416
 21
210.6366451414401
 31
0.0
 11
229.587472469975
 21
210.9098891663128
 31
0.0
 11
229.6806029711643
 21
211.1779952924774
 31
0.0
 11
229.7984935845408
 21
211.436141310575
 31
0.0
 11
229.9416005979976
 21
211.6856339889232
 31
0.0
 11
230.1068808885912
 21
211.920979396023
 31
0.0
 11
230.2955536810941
 21
212.144121589038
 31
0.0
 11
230.5031840943965
 21
212.3496865141231
 31
0.0
 11
230.7315631771263
 21
212.539601091392
 31
0.0
 11
230.9753049839383
 21
212.7092873940828
 31
0.0
 11
231.2363012005873
 21
212.8601830836434
 31
0.0
 11
231.5088762604657
 21
212.9889230706413
 31
0.0
 11
231.7944242290425
 21
213.0962657339311
 31
0.0
 11
232.0876974978409
 21
213.1801620771703
 31
0.0
 11
232.3890284610208
 21
213.2407940338098
 31
0.0
 11
232.6942197196013
 21
213.2772432677963
 31
0.0
 11
233.002144005384
 21
213.2894540424096
 31
0.0
 11
233.3100682911667
 21
213.2772432677962
 31
0.0
 11
233.6152595497471
 21
213.2407940338097
 31
0.0
 11
233.9165905129271
 21
213.1801620771703
 31
0.0
 11
234.2098637817256
 21
213.0962657339312
 31
0.0
 11
234.4954117503024
 21
212.9889230706412
 31
0.0
 11
234.7679868101806
 21
212.8601830836433
 31
0.0
 11
235.0289830268295
 21
212.7092873940827
 31
0.0
 11
235.2727248336415
 21
212.539601091392
 31
0.0
 11
235.5011039163713
 21
212.3496865141231
 31
0.0
 11
235.7087343296738
 21
212.1441215890378
 31
0.0
 11
235.8974071221768
 21
211.920979396023
 31
0.0
 11
236.0626874127705
 21
211.6856339889233
 31
0.0
 11
236.2057944262273
 21
211.4361413105751
 31
0.0
 11
236.3236850396038
 21
211.1779952924775
 31
0.0
 11
236.4168155407929
 21
210.9098891663128
 31
0.0
 11
236.4836238833519
 21
210.6366451414401
 31
0.0
 11
236.5239791274918
 21
210.3582456340866
 31
0.0
 11
236.5375011125198
 21
210.0781458977433
 31
0.0
 11
236.5239791274918
 21
209.7980461614
 31
0.0
 11
236.4836238833518
 21
209.5196466540465
 31
0.0
 11
236.4168155407929
 21
209.2464026291738
 31
0.0
 11
236.3236850396038
 21
208.9782965030092
 31
0.0
 11
236.2057944262273
 21
208.7201504849115
 31
0.0
 11
236.0626874127706
 21
208.4706578065632
 31
0.0
 11
235.8974071221768
 21
208.2353123994635
 31
0.0
 11
235.7087343296738
 21
208.0121702064486
 31
0.0
 11
235.5011039163713
 21
207.8066052813634
 31
0.0
 11
235.2727248336415
 21
207.6166907040945
 31
0.0
 11
235.0289830268295
 21
207.4470044014038
 31
0.0
 11
234.7679868101806
 21
207.2961087118432
 31
0.0
 11
234.4954117503023
 21
207.1673687248453
 31
0.0
 11
234.2098637817256
 21
207.0600260615553
 31
0.0
 11
233.9165905129271
 21
206.9761297183163
 31
0.0
 11
233.6152595497471
 21
206.9154977616769
 31
0.0
 11
233.3100682911667
 21
206.8790485276903
 31
0.0
 11
233.002144005384
 21
206.866837753077
 31
0.0
 11
232.6942197196013
 21
206.8790485276903
 31
0.0
 11
232.3890284610209
 21
206.9154977616768
 31
0.0
 11
232.0876974978409
 21
206.9761297183163
 31
0.0
 11
231.7944242290424
 21
207.0600260615554
 31
0.0
 11
231.5088762604656
 21
207.1673687248453
 31
0.0
 11
231.2363012005873
 21
207.2961087118432
 31
0.0
 11
230.9753049839383
 21
207.4470044014038
 31
0.0
 11
230.7315631771263
 21
207.6166907040944
 31
0.0
 11
230.5031840943966
 21
207.8066052813633
 31
0.0
 11
230.2955536810942
 21
208.0121702064486
 31
0.0
 11
230.1068808885912
 21
208.2353123994635
 31
0.0
 11
229.9416005979976
 21
208.4706578065633
 31
0.0
 11
229.798493584541
 21
208.7201504849115
 31
0.0
 11
229.6806029711644
 21
208.9782965030091
 31
0.0
 11
229.587472469975
 21
209.2464026291738
 31
0.0
 11
229.5206641274159
 21
209.5196466540466
 31
0.0
 11
229.4803088832761
 21
209.7980461614
 31
0.0
 11
229.4667868982484
 21
210.0781458977432
 31
0.0
 11
229.4803088832762
 21
210.3582456340866
 31
0.0
  0
SPLINE
  5
15B
330
48
100
AcDbEntity
  8
1
  6
Continuous
 62
     7
100
AcDbSpline
210
0.0
220
0.0
230
1.0
 70
    11
 71
     3
 72
    79
 73
    75
 74
    73
 42
0.0000000001
 43
0.0000000001
 44
0.00000001
 40
0.0
 40
0.0
 40
0.0
 40
0.0
 40
0.2813091385367986
 40
0.562601960635257
 40
0.8464226525143902
 40
1.130214060738691
 40
1.417835711262183
 40
1.705420542401896
 40
1.997635978226858
 40
2.28981285437112
 40
2.586839035183054
 40
2.883829792124784
 40
3.185307045384566
 40
3.486755461402786
 40
3.791812980111156
 40
4.09685036568977
 40
4.404220799428744
 40
4.711580931801366
 40
5.01974723234617
 40
5.327913532890863
 40
5.635273665263488
 40
5.942644099002512
 40
6.247681484581185
 40
6.552739003289513
 40
6.854187419307667
 40
7.155664672567288
 40
7.452655429509058
 40
7.74968161032101
 40
8.041858486465394
 40
8.334073922290349
 40
8.621658753430058
 40
8.909280403953549
 40
9.193071812177879
 40
9.476892504057037
 40
9.758185326155516
 40
10.03949446469225
 40
10.31992040211366
 40
10.60034633953504
 40
10.88165547807175
 40
11.16294830017016
 40
11.44676899204924
 40
11.73056040027356
 40
12.01818205079712
 40
12.30576688193693
 40
12.59798231776199
 40
12.89015919390633
 40
13.18718537471824
 40
13.48417613166
 40
13.78565338491966
 40
14.08710180093783
 40
14.39215931964615
 40
14.69719670522478
 40
15.00456713896382
 40
15.31192727133641
 40
15.62009357188114
 40
15.92825987242586
 40
16.23562000479844
 40
16.5429904385375
 40
16.84802782411616
 40
17.15308534282455
 40
17.45453375884272
 40
17.75601101210245
 40
18.05300176904415
 40
18.35002794985605
 40
18.64220482600037
 40
18.93442026182533
 40
19.22200509296506
 40
19.50962674348851
 40
19.79341815171286
 40
20.07723884359214
 40
20.35853166569063
 40
20.63984080422732
 40
20.92026674164866
 40
21.20069267907006
 40
21.20069267907006
 40
21.20069267907006
 40
21.20069267907006
 10
229.4803088832762
 20
187.281385663005
 30
0.0
 10
229.4918802867632
 20
187.1882587119841
 30
0.0
 10
229.5150224225745
 20
187.0020102114737
 30
0.0
 10
229.5837845629423
 20
186.7277086263675
 30
0.0
 10
229.6763526897768
 20
186.4599646977908
 30
0.0
 10
229.7952050256073
 20
186.200352061785
 30
0.0
 10
229.9378669412408
 20
185.9516349648666
 30
0.0
 10
230.1044098421745
 20
185.7147910494906
 30
0.0
 10
230.2923675614978
 20
185.4925756301746
 30
0.0
 10
230.5015297733048
 20
185.2857125781713
 30
0.0
 10
230.7289823497876
 20
185.0966538433002
 30
0.0
 10
230.9743279341408
 20
184.9260138986389
 30
0.0
 10
231.2343564924807
 20
184.775750169773
 30
0.0
 10
231.5083792385372
 20
184.6464428176461
 30
0.0
 10
231.7931269239203
 20
184.5394520156983
 30
0.0
 10
232.0874897734693
 20
184.4553196765222
 30
0.0
 10
232.3883802534379
 20
184.3948006923172
 30
0.0
 10
232.6941665753957
 20
184.3583195543226
 30
0.0
 10
233.002144005383
 20
184.3461007727895
 30
0.0
 10
233.3101214353762
 20
184.3583195543223
 30
0.0
 10
233.6159077573165
 20
184.3948006923186
 30
0.0
 10
233.9167982373486
 20
184.4553196765175
 30
0.0
 10
234.2111610866632
 20
184.539452015716
 30
0.0
 10
234.4959087729159
 20
184.64644281758
 30
0.0
 10
234.7699315157641
 20
184.7757501700164
 30
0.0
 10
235.0299600859888
 20
184.9260138977353
 30
0.0
 10
235.2753056266175
 20
185.0966538466171
 30
0.0
 10
235.5027583649021
 20
185.2857125658699
 30
0.0
 10
235.7119199822566
 20
185.4925756752552
 30
0.0
 10
235.8998799010485
 20
185.7147908822576
 30
0.0
 10
236.0664147173072
 20
185.9516355780432
 30
0.0
 10
236.2091065745276
 20
186.2003497847151
 30
0.0
 10
236.3278485816898
 20
186.4599730706925
 30
0.0
 10
236.4208261268232
 20
186.7276774783238
 30
0.0
 10
236.4880732046305
 20
187.0021253116683
 30
0.0
 10
236.528388550725
 20
187.280664134327
 30
0.0
 10
236.5420502296979
 20
187.5614853993483
 30
0.0
 10
236.528388550725
 20
187.8423066643696
 30
0.0
 10
236.4880732046304
 20
188.1208454870283
 30
0.0
 10
236.4208261268231
 20
188.3952933203727
 30
0.0
 10
236.3278485816899
 20
188.662997728004
 30
0.0
 10
236.2091065745277
 20
188.9226210139814
 30
0.0
 10
236.0664147173071
 20
189.1713352206534
 30
0.0
 10
235.8998799010485
 20
189.408179916439
 30
0.0
 10
235.7119199822566
 20
189.6303951234415
 30
0.0
 10
235.5027583649019
 20
189.8372582328268
 30
0.0
 10
235.2753056266176
 20
190.0263169520796
 30
0.0
 10
235.0299600859887
 20
190.1969569009613
 30
0.0
 10
234.7699315157642
 20
190.3472206286802
 30
0.0
 10
234.4959087729158
 20
190.4765279811167
 30
0.0
 10
234.2111610866633
 20
190.5835187829807
 30
0.0
 10
233.9167982373486
 20
190.6676511221791
 30
0.0
 10
233.6159077573167
 20
190.728170106378
 30
0.0
 10
233.3101214353759
 20
190.7646512443742
 30
0.0
 10
233.002144005384
 20
190.776870025907
 30
0.0
 10
232.6941665753923
 20
190.7646512443743
 30
0.0
 10
232.3883802534505
 20
190.728170106378
 30
0.0
 10
232.0874897734229
 20
190.6676511221795
 30
0.0
 10
231.7931269240915
 20
190.5835187829793
 30
0.0
 10
231.5083792379012
 20
190.4765279811214
 30
0.0
 10
231.2343564948229
 20
190.3472206286627
 30
0.0
 10
230.9743279254502
 20
190.1969569010263
 30
0.0
 10
230.728982381687
 20
190.0263169518419
 30
0.0
 10
230.5015296550012
 20
189.8372582337088
 30
0.0
 10
230.2923679950345
 20
189.63039512021
 30
0.0
 10
230.104408233907
 20
189.4081799284268
 30
0.0
 10
229.9378728381152
 20
189.1713351766992
 30
0.0
 10
229.7951831271961
 20
188.9226211772085
 30
0.0
 10
229.6764332113487
 20
188.6629971278097
 30
0.0
 10
229.5834850145294
 20
188.3952955531565
 30
0.0
 10
229.5161293325578
 20
188.1208372363061
 30
0.0
 10
229.4762181447585
 20
187.8423374268473
 30
0.0
 10
229.4610525665202
 20
187.561370991175
 30
0.0
 10
229.4738901110243
 20
187.3747141057284
 30
0.0
 10
229.4803088832762
 20
187.281385663005
 30
0.0
 11
229.4803088832762
 21
187.281385663005
 31
0.0
 11
229.520664127416
 21
187.0029861556514
 31
0.0
 11
229.587472469975
 21
186.7297421307787
 31
0.0
 11
229.6806029711643
 21
186.4616360046141
 31
0.0
 11
229.7984935845408
 21
186.2034899865166
 31
0.0
 11
229.9416005979976
 21
185.9539973081684
 31
0.0
 11
230.1068808885912
 21
185.7186519010686
 31
0.0
 11
230.2955536810941
 21
185.4955097080537
 31
0.0
 11
230.5031840943965
 21
185.2899447829685
 31
0.0
 11
230.7315631771263
 21
185.1000302056996
 31
0.0
 11
230.9753049839383
 21
184.9303439030089
 31
0.0
 11
231.2363012005873
 21
184.7794482134483
 31
0.0
 11
231.5088762604657
 21
184.6507082264504
 31
0.0
 11
231.7944242290425
 21
184.5433655631605
 31
0.0
 11
232.0876974978409
 21
184.4594692199213
 31
0.0
 11
232.3890284610208
 21
184.3988372632818
 31
0.0
 11
232.6942197196013
 21
184.3623880292952
 31
0.0
 11
233.002144005384
 21
184.350177254682
 31
0.0
 11
233.3100682911667
 21
184.3623880292953
 31
0.0
 11
233.6152595497471
 21
184.3988372632819
 31
0.0
 11
233.9165905129271
 21
184.4594692199214
 31
0.0
 11
234.2098637817256
 21
184.5433655631604
 31
0.0
 11
234.4954117503024
 21
184.6507082264504
 31
0.0
 11
234.7679868101806
 21
184.7794482134483
 31
0.0
 11
235.0289830268295
 21
184.9303439030089
 31
0.0
 11
235.2727248336415
 21
185.1000302056996
 31
0.0
 11
235.5011039163713
 21
185.2899447829685
 31
0.0
 11
235.7087343296738
 21
185.4955097080538
 31
0.0
 11
235.8974071221768
 21
185.7186519010686
 31
0.0
 11
236.0626874127705
 21
185.9539973081683
 31
0.0
 11
236.2057944262273
 21
186.2034899865165
 31
0.0
 11
236.3236850396038
 21
186.4616360046141
 31
0.0
 11
236.4168155407929
 21
186.7297421307788
 31
0.0
 11
236.4836238833519
 21
187.0029861556515
 31
0.0
 11
236.5239791274918
 21
187.281385663005
 31
0.0
 11
236.5375011125198
 21
187.5614853993483
 31
0.0
 11
236.5239791274918
 21
187.8415851356916
 31
0.0
 11
236.4836238833518
 21
188.1199846430451
 31
0.0
 11
236.4168155407929
 21
188.3932286679178
 31
0.0
 11
236.3236850396038
 21
188.6613347940824
 31
0.0
 11
236.2057944262273
 21
188.91948081218
 31
0.0
 11
236.0626874127706
 21
189.1689734905283
 31
0.0
 11
235.8974071221768
 21
189.404318897628
 31
0.0
 11
235.7087343296738
 21
189.627461090643
 31
0.0
 11
235.5011039163713
 21
189.8330260157282
 31
0.0
 11
235.2727248336415
 21
190.0229405929971
 31
0.0
 11
235.0289830268295
 21
190.1926268956878
 31
0.0
 11
234.7679868101806
 21
190.3435225852484
 31
0.0
 11
234.4954117503023
 21
190.4722625722463
 31
0.0
 11
234.2098637817256
 21
190.5796052355363
 31
0.0
 11
233.9165905129271
 21
190.6635015787753
 31
0.0
 11
233.6152595497471
 21
190.7241335354147
 31
0.0
 11
233.3100682911667
 21
190.7605827694013
 31
0.0
 11
233.002144005384
 21
190.7727935440146
 31
0.0
 11
232.6942197196013
 21
190.7605827694013
 31
0.0
 11
232.3890284610209
 21
190.7241335354148
 31
0.0
 11
232.0876974978409
 21
190.6635015787753
 31
0.0
 11
231.7944242290424
 21
190.5796052355362
 31
0.0
 11
231.5088762604656
 21
190.4722625722463
 31
0.0
 11
231.2363012005873
 21
190.3435225852484
 31
0.0
 11
230.9753049839383
 21
190.1926268956879
 31
0.0
 11
230.7315631771263
 21
190.0229405929972
 31
0.0
 11
230.5031840943966
 21
189.8330260157283
 31
0.0
 11
230.2955536810942
 21
189.627461090643
 31
0.0
 11
230.1068808885912
 21
189.4043188976281
 31
0.0
 11
229.9416005979976
 21
189.1689734905283
 31
0.0
 11
229.798493584541
 21
188.9194808121801
 31
0.0
 11
229.6806029711644
 21
188.6613347940825
 31
0.0
 11
229.587472469975
 21
188.3932286679178
 31
0.0
 11
229.5206641274159
 21
188.1199846430451
 31
0.0
 11
229.4803088832761
 21
187.8415851356916
 31
0.0
 11
229.4667868982484
 21
187.5614853993483
 31
0.0
 11
229.4803088832762
 21
187.281385663005
 31
0.0
  0
SPLINE
  5
15C
330
48
100
AcDbEntity
  8
1
  6
Continuous
 62
     7
100
AcDbSpline
210
0.0
220
0.0
230
1.0
 70
     8
 71
     3
 72
    79
 73
    75
 74
    73
 42
0.0000000001
 43
0.0000000001
 44
0.00000001
 40
0.0
 40
0.0
 40
0.0
 40
0.0
 40
0.3219191133368446
 40
0.6433817983662216
 40
0.9928750068867762
 40
1.341795140507022
 40
1.729749028413369
 40
2.117262757272338
 40
2.54790861555685
 40
2.978266915974125
 40
3.45026627615459
 40
3.922086452275991
 40
4.429962878428763
 40
4.937730797563057
 40
5.473111501542441
 40
6.008430500180128
 40
6.561033308980314
 40
7.113608122002686
 40
7.672061093536152
 40
8.230514065069675
 40
8.783088878092023
 40
9.335691686892202
 40
9.871010685529932
 40
10.40639138950928
 40
10.91415930864357
 40
11.4220357347964
 40
11.89385591091784
 40
12.36585527109832
 40
12.79621357151558
 40
13.2268594298001
 40
13.61437315865907
 40
14.00232704656539
 40
14.35124718018563
 40
14.70074038870617
 40
15.02220307373559
 40
15.3441221870725
 40
15.6557003574849
 40
15.96727852789722
 40
16.2891976412341
 40
16.61066032626342
 40
16.96015353478402
 40
17.30907366840427
 40
17.69702755631068
 40
18.08454128516971
 40
18.51518714345424
 40
18.94554544387145
 40
19.41754480405189
 40
19.88936498017323
 40
20.39724140632605
 40
20.90500932546037
 40
21.44039002943975
 40
21.9757090280775
 40
22.52831183687767
 40
23.08088664990001
 40
23.6393396214335
 40
24.19779259296704
 40
24.75036740598943
 40
25.30297021478956
 40
25.83828921342725
 40
26.37366991740661
 40
26.88143783654092
 40
27.38931426269378
 40
27.86113443881516
 40
28.33313379899557
 40
28.76349209941273
 40
29.19413795769727
 40
29.58165168655628
 40
29.96960557446267
 40
30.31852570808291
 40
30.66801891660345
 40
30.98948160163284
 40
31.31140071496974
 40
31.46783158279184
 40
31.62323432622708
 40
31.62323432622708
 40
31.62323432622708
 40
31.62323432622708
 10
233.3126915038393
 20
192.4225214341817
 30
0.0
 10
233.4180104294991
 20
192.4442454511311
 30
0.0
 10
233.6284989559199
 20
192.48766268395
 30
0.0
 10
233.9349921028633
 20
192.6172561379009
 30
0.0
 10
234.2299118127704
 20
192.7877712457855
 30
0.0
 10
234.5181108792397
 20
193.0085501269239
 30
0.0
 10
234.7890658099484
 20
193.2685076648642
 30
0.0
 10
235.0504364321369
 20
193.5747394779331
 30
0.0
 10
235.2912842396983
 20
193.9147901243119
 30
0.0
 10
235.5187061501048
 20
194.2969806483176
 30
0.0
 10
235.7233843765069
 20
194.707212898736
 30
0.0
 10
235.9105523397027
 20
195.1537837307324
 30
0.0
 10
236.0733452561414
 20
195.6224483523796
 30
0.0
 10
236.2149720180352
 20
196.1199462284679
 30
0.0
 10
236.3310239397236
 20
196.6334084516753
 30
0.0
 10
236.4230946080535
 20
197.1668480322357
 30
0.0
 10
236.4887856755133
 20
197.7099490100054
 30
0.0
 10
236.5287386102645
 20
198.2632647134899
 30
0.0
 10
236.541905543705
 20
198.8198156485424
 30
0.0
 10
236.5287386102665
 20
199.3763665836157
 30
0.0
 10
236.4887856755054
 20
199.9296822870381
 30
0.0
 10
236.4230946080825
 20
200.4727832650329
 30
0.0
 10
236.3310239396193
 20
201.00622284478
 30
0.0
 10
236.2149720184166
 20
201.5196850709504
 30
0.0
 10
236.0733452547991
 20
202.0171829365255
 30
0.0
 10
235.910552344572
 20
202.485847596056
 30
0.0
 10
235.72338435976
 20
202.9324182962207
 30
0.0
 10
235.5187062104494
 20
203.342651016803
 30
0.0
 10
235.2912840364014
 20
203.7248399329117
 30
0.0
 10
235.0504371615467
 20
204.0648962676869
 30
0.0
 10
234.7890633878154
 20
204.371108860111
 30
0.0
 10
234.5181195762611
 20
204.6311342116095
 30
0.0
 10
234.2298829425852
 20
204.8516839776635
 30
0.0
 10
233.9350967596319
 20
205.0230134404595
 30
0.0
 10
233.628142796489
 20
205.1497964660683
 30
0.0
 10
233.3173915720532
 20
205.2244437237813
 30
0.0
 10
233.0021440053839
 20
205.2512792289106
 30
0.0
 10
232.6868964387147
 20
205.2244437237815
 30
0.0
 10
232.3761452142789
 20
205.1497964660683
 30
0.0
 10
232.0691912511363
 20
205.0230134404596
 30
0.0
 10
231.7744050681829
 20
204.8516839776635
 30
0.0
 10
231.4861684345068
 20
204.6311342116095
 30
0.0
 10
231.2152246229525
 20
204.3711088601112
 30
0.0
 10
230.9538508492211
 20
204.0648962676869
 30
0.0
 10
230.7130039743664
 20
203.7248399329118
 30
0.0
 10
230.4855818003186
 20
203.3426510168029
 30
0.0
 10
230.2809036510079
 20
202.9324182962208
 30
0.0
 10
230.0937356661961
 20
202.485847596056
 30
0.0
 10
229.930942755969
 20
202.0171829365256
 30
0.0
 10
229.7893159923513
 20
201.5196850709505
 30
0.0
 10
229.6732640711485
 20
201.0062228447801
 30
0.0
 10
229.5811934026853
 20
200.4727832650328
 30
0.0
 10
229.5155023352625
 20
199.9296822870384
 30
0.0
 10
229.4755494005014
 20
199.376366583615
 30
0.0
 10
229.4623824670638
 20
198.8198156485457
 30
0.0
 10
229.4755494005016
 20
198.2632647134778
 30
0.0
 10
229.5155023352615
 20
197.70994901005
 30
0.0
 10
229.5811934026887
 20
197.1668480320712
 30
0.0
 10
229.6732640711365
 20
196.6334084522678
 30
0.0
 10
229.7893159923954
 20
196.1199462263022
 30
0.0
 10
229.9309427558146
 20
195.622448360001
 30
0.0
 10
230.0937356667567
 20
195.153783703087
 30
0.0
 10
230.2809036490794
 20
194.7072129938167
 30
0.0
 10
230.4855818072675
 20
194.2969803057083
 30
0.0
 10
230.7130039509555
 20
193.9147912785437
 30
0.0
 10
230.9538509332168
 20
193.5747353366604
 30
0.0
 10
231.2152243440301
 20
193.2685214166858
 30
0.0
 10
231.4861694360176
 20
193.0085007490005
 30
0.0
 10
231.774401743619
 20
192.7879351582026
 30
0.0
 10
232.0692033029507
 20
192.6166619420651
 30
0.0
 10
232.3761042005205
 20
192.4896848030525
 30
0.0
 10
232.6365306789573
 20
192.4277553600048
 30
0.0
 10
232.8463421842262
 20
192.4008572550092
 30
0.0
 10
232.9503243423889
 20
192.3984159748216
 30
0.0
 10
233.0021440053869
 20
192.3971993592134
 30
0.0
 11
233.3126915038393
 21
192.4225214341817
 31
0.0
 11
233.6256737300115
 21
192.497847668867
 31
0.0
 11
233.923332815564
 21
192.6192450603313
 31
0.0
 11
234.2259002562188
 21
192.7941691771867
 31
0.0
 11
234.5037397669149
 21
193.0052389901437
 31
0.0
 11
234.7844603895595
 21
193.2730152982138
 31
0.0
 11
235.0367215769447
 21
193.5671771301927
 31
0.0
 11
235.2865367643516
 21
193.9179594378972
 31
0.0
 11
235.5071555756098
 21
194.2874666866178
 31
0.0
 11
235.7186865406503
 21
194.7094122362327
 31
0.0
 11
235.9014755256081
 21
195.1443863338216
 31
0.0
 11
236.0687523567417
 21
195.6239245763087
 31
0.0
 11
236.2080536509648
 21
196.1122107722325
 31
0.0
 11
236.3265300105521
 21
196.6343178976507
 31
0.0
 11
236.4177220621577
 21
197.161812390538
 31
0.0
 11
236.4843581546063
 21
197.7103828012211
 31
0.0
 11
236.5241648725707
 21
198.2615219389999
 31
0.0
 11
236.5375011125198
 21
198.8198156485459
 31
0.0
 11
236.5241648725706
 21
199.3781093580919
 31
0.0
 11
236.4843581546062
 21
199.9292484958707
 31
0.0
 11
236.4177220621576
 21
200.4778189065538
 31
0.0
 11
236.3265300105521
 21
201.0053133994412
 31
0.0
 11
236.2080536509649
 21
201.5274205248593
 31
0.0
 11
236.0687523567418
 21
202.0157067207831
 31
0.0
 11
235.9014755256082
 21
202.4952449632702
 31
0.0
 11
235.7186865406502
 21
202.9302190608592
 31
0.0
 11
235.5071555756098
 21
203.3521646104741
 31
0.0
 11
235.2865367643516
 21
203.7216718591947
 31
0.0
 11
235.0367215769447
 21
204.0724541668992
 31
0.0
 11
234.7844603895595
 21
204.3666159988781
 31
0.0
 11
234.503739766915
 21
204.6343923069482
 31
0.0
 11
234.2259002562188
 21
204.8454621199053
 31
0.0
 11
233.923332815564
 21
205.0203862367605
 31
0.0
 11
233.6256737300115
 21
205.1417836282248
 31
0.0
 11
233.3126915038392
 21
205.2171098629102
 31
0.0
 11
233.0021440053839
 21
205.2424319378785
 31
0.0
 11
232.6915965069287
 21
205.2171098629102
 31
0.0
 11
232.3786142807565
 21
205.1417836282248
 31
0.0
 11
232.080955195204
 21
205.0203862367605
 31
0.0
 11
231.7783877545492
 21
204.8454621199052
 31
0.0
 11
231.500548243853
 21
204.6343923069483
 31
0.0
 11
231.2198276212083
 21
204.3666159988781
 31
0.0
 11
230.9675664338231
 21
204.0724541668992
 31
0.0
 11
230.7177512464162
 21
203.7216718591947
 31
0.0
 11
230.4971324351581
 21
203.3521646104741
 31
0.0
 11
230.2856014701177
 21
202.9302190608592
 31
0.0
 11
230.1028124851599
 21
202.4952449632703
 31
0.0
 11
229.9355356540264
 21
202.0157067207831
 31
0.0
 11
229.7962343598031
 21
201.5274205248593
 31
0.0
 11
229.6777580002158
 21
201.0053133994412
 31
0.0
 11
229.5865659486101
 21
200.4778189065539
 31
0.0
 11
229.5199298561617
 21
199.9292484958708
 31
0.0
 11
229.4801231381974
 21
199.3781093580919
 31
0.0
 11
229.4667868982484
 21
198.819815648546
 31
0.0
 11
229.4801231381974
 21
198.2615219389999
 31
0.0
 11
229.5199298561616
 21
197.710382801221
 31
0.0
 11
229.5865659486102
 21
197.161812390538
 31
0.0
 11
229.6777580002158
 21
196.6343178976507
 31
0.0
 11
229.7962343598032
 21
196.1122107722326
 31
0.0
 11
229.9355356540264
 21
195.6239245763088
 31
0.0
 11
230.1028124851599
 21
195.1443863338216
 31
0.0
 11
230.2856014701177
 21
194.7094122362327
 31
0.0
 11
230.497132435158
 21
194.2874666866177
 31
0.0
 11
230.7177512464162
 21
193.9179594378973
 31
0.0
 11
230.9675664338231
 21
193.5671771301928
 31
0.0
 11
231.2198276212083
 21
193.2730152982138
 31
0.0
 11
231.500548243853
 21
193.0052389901437
 31
0.0
 11
231.7783877545492
 21
192.7941691771868
 31
0.0
 11
232.0809551952039
 21
192.6192450603314
 31
0.0
 11
232.3786142807564
 21
192.497847668867
 31
0.0
 11
232.6915965069287
 21
192.4225214341817
 31
0.0
 11
232.8468702561578
 21
192.4035298779554
 31
0.0
 11
233.0021440053869
 21
192.3971993592134
 31
0.0
  0
SPLINE
  5
15D
330
48
100
AcDbEntity
  8
1
  6
Continuous
 62
     2
100
AcDbSpline
210
0.0
220
0.0
230
1.0
 70
     8
 71
     3
 72
     9
 73
     5
 74
     3
 42
0.0000000001
 43
0.0000000001
 44
0.00000001
 40
0.0
 40
0.0
 40
0.0
 40
0.0
 40
0.1554027434323513
 40
0.3118336112515008
 40
0.3118336112515008
 40
0.3118336112515008
 40
0.3118336112515008
 10
233.0021440053869
 20
192.3971993592134
 30
0.0
 10
233.0539866846851
 20
192.398268291683
 30
0.0
 10
233.1580150277208
 20
192.4004132285406
 30
0.0
 10
233.2610194755905
 20
192.415135851997
 30
0.0
 10
233.3126915038393
 20
192.4225214341817
 30
0.0
 11
233.0021440053869
 21
192.3971993592134
 31
0.0
 11
233.1574177546131
 21
192.4035298779556
 31
0.0
 11
233.3126915038393
 21
192.4225214341817
 31
0.0
  0
SPLINE
  5
15E
330
48
100
AcDbEntity
  8
1
  6
Continuous
 62
     7
100
AcDbSpline
210
0.0
220
0.0
230
1.0
 70
    11
 71
     3
 72
    79
 73
    75
 74
    73
 42
0.0000000001
 43
0.0000000001
 44
0.00000001
 40
0.0
 40
0.0
 40
0.0
 40
0.0
 40
0.3142650659705299
 40
0.6282865583859616
 40
0.9611940750940163
 40
1.293759071489027
 40
1.653345631090411
 40
2.012624930760413
 40
2.402527484666729
 40
2.792202156791342
 40
3.212046604561884
 40
3.631735870026333
 40
4.077938487430149
 40
4.524041249095044
 40
4.990653914337206
 40
5.457207554045713
 40
5.936678586743387
 40
6.41612225586402
 40
6.899971960151107
 40
7.38382166443818
 40
7.863265333558705
 40
8.342736366256331
 40
8.809290005964879
 40
9.27590267120711
 40
9.722005432872017
 40
10.16820805027588
 40
10.58789731574029
 40
11.00774176351081
 40
11.39741643563537
 40
11.78731898954161
 40
12.14659828921156
 40
12.506184848813
 40
12.83874984520803
 40
13.17165736191612
 40
13.4856788543316
 40
13.79994392030218
 40
14.10737582563216
 40
14.41480773096219
 40
14.72907279693272
 40
15.0430942893481
 40
15.37600180605615
 40
15.70856680245121
 40
16.06815336205268
 40
16.42743266172257
 40
16.81733521562874
 40
17.20700988775344
 40
17.62685433552401
 40
18.04654360098845
 40
18.49274621839228
 40
18.93884898005716
 40
19.40546164529933
 40
19.87201528500791
 40
20.35148631770558
 40
20.83092998682614
 40
21.3147796911132
 40
21.79862939540028
 40
22.27807306452087
 40
22.75754409721854
 40
23.22409773692701
 40
23.69071040216917
 40
24.13681316383404
 40
24.58301578123789
 40
25.00270504670237
 40
25.42254949447297
 40
25.81222416659759
 40
26.20212672050377
 40
26.56140602017369
 40
26.92099257977504
 40
27.25355757617022
 40
27.58646509287828
 40
27.90048658529367
 40
28.21475165126437
 40
28.52218355659434
 40
28.82961546192432
 40
28.82961546192432
 40
28.82961546192432
 40
28.82961546192432
 10
106.3644127046757
 20
337.6614538256793
 30
0.0
 10
106.3458201689971
 20
337.5581864471247
 30
0.0
 10
106.3086495079276
 20
337.3517317281911
 30
0.0
 10
106.1977028510452
 20
337.0496595223855
 30
0.0
 10
106.0506378164333
 20
336.7574772762142
 30
0.0
 10
105.8604829067348
 20
336.4726350374783
 30
0.0
 10
105.6353481510599
 20
336.2032060820452
 30
0.0
 10
105.3707118609932
 20
335.9444198944236
 30
0.0
 10
105.0756517929846
 20
335.704752963113
 30
0.0
 10
104.7448856459416
 20
335.4794245092236
 30
0.0
 10
104.388818576738
 20
335.2758700883202
 30
0.0
 10
104.0020854876721
 20
335.0903858983107
 30
0.0
 10
103.5954123008578
 20
334.9286229826521
 30
0.0
 10
103.1644361454451
 20
334.7882615410499
 30
0.0
 10
102.7190627094662
 20
334.6730235864236
 30
0.0
 10
102.2568498450938
 20
334.581774227851
 30
0.0
 10
101.7859314625405
 20
334.516569566145
 30
0.0
 10
101.3064000250893
 20
334.4769808226359
 30
0.0
 10
100.8239549555291
 20
334.4638958034701
 30
0.0
 10
100.3415098859537
 20
334.4769808226346
 30
0.0
 10
99.86197844854763
 20
334.5165695661499
 30
0.0
 10
99.39106006583089
 20
334.581774227833
 30
0.0
 10
98.92884720205221
 20
334.6730235864897
 30
0.0
 10
98.48347376390231
 20
334.7882615408083
 30
0.0
 10
98.05249761625115
 20
334.9286229835104
 30
0.0
 10
97.64582440130899
 20
335.0903858951823
 30
0.0
 10
97.25909141127869
 20
335.2758700992297
 30
0.0
 10
96.90302398591302
 20
335.4794244696482
 30
0.0
 10
96.57225907741602
 20
335.704753099098
 30
0.0
 10
96.27719457760389
 20
335.9444194022125
 30
0.0
 10
96.01257359769511
 20
336.2032077600061
 30
0.0
 10
95.78738406959378
 20
336.4726289516011
 30
0.0
 10
95.59741907242875
 20
336.7574981099077
 30
0.0
 10
95.44966965774185
 20
337.0495833471165
 30
0.0
 10
95.34114067234187
 20
337.3519982510961
 30
0.0
 10
95.27692901952344
 20
337.6582201264536
 30
0.0
 10
95.25432773468897
 20
337.9681195588385
 30
0.0
 10
95.27692901952339
 20
338.2780189912234
 30
0.0
 10
95.34114067234182
 20
338.5842408665808
 30
0.0
 10
95.44966965774188
 20
338.8866557705603
 30
0.0
 10
95.59741907242882
 20
339.178741007769
 30
0.0
 10
95.78738406959377
 20
339.4636101660759
 30
0.0
 10
96.01257359769502
 20
339.7330313576706
 30
0.0
 10
96.27719457760392
 20
339.9918197154642
 30
0.0
 10
96.57225907741612
 20
340.2314860185785
 30
0.0
 10
96.90302398591294
 20
340.4568146480287
 30
0.0
 10
97.25909141127858
 20
340.6603690184473
 30
0.0
 10
97.64582440130894
 20
340.8458532224948
 30
0.0
 10
98.05249761625122
 20
341.0076161341663
 30
0.0
 10
98.4834737639023
 20
341.1479775768685
 30
0.0
 10
98.92884720205218
 20
341.2632155311873
 30
0.0
 10
99.39106006583093
 20
341.3544648898438
 30
0.0
 10
99.86197844854748
 20
341.4196695515267
 30
0.0
 10
100.3415098859544
 20
341.4592582950422
 30
0.0
 10
100.8239549555268
 20
341.4723433142065
 30
0.0
 10
101.3064000250981
 20
341.4592582950423
 30
0.0
 10
101.7859314625082
 20
341.4196695515265
 30
0.0
 10
102.2568498452131
 20
341.3544648898453
 30
0.0
 10
102.719062709034
 20
341.2632155311825
 30
0.0
 10
103.1644361470297
 20
341.147977576886
 30
0.0
 10
103.5954122952318
 20
341.0076161341053
 30
0.0
 10
104.0020855081769
 20
340.8458532227168
 30
0.0
 10
104.3888185052392
 20
340.6603690176727
 30
0.0
 10
104.7448859053163
 20
340.4568146508387
 30
0.0
 10
105.0756509017534
 20
340.2314860089232
 30
0.0
 10
105.370715086895
 20
339.9918197504126
 30
0.0
 10
105.6353371538685
 20
339.7330312385305
 30
0.0
 10
105.8605227929719
 20
339.4636105981905
 30
0.0
 10
106.0505012744666
 20
339.1787395285176
 30
0.0
 10
106.1982020962225
 20
338.8866611792209
 30
0.0
 10
106.3069027431717
 20
338.5842219426967
 30
0.0
 10
106.3704858277564
 20
338.2780891651292
 30
0.0
 10
106.3953853181274
 20
337.9678639685343
 30
0.0
 10
106.3747369091596
 20
337.7635905399642
 30
0.0
 10
106.3644127046757
 20
337.6614538256793
 30
0.0
 11
106.3644127046757
 21
337.6614538256793
 31
0.0
 11
106.2997907796207
 21
337.3539045800426
 31
0.0
 11
106.1945908204294
 21
337.0580288184721
 31
0.0
 11
106.0446971534569
 21
336.7607758903414
 31
0.0
 11
105.8609230069047
 21
336.4835998814838
 31
0.0
 11
105.6308658957329
 21
336.2072374031239
 31
0.0
 11
105.3745045570716
 21
335.9555223276692
 31
0.0
 11
105.0723386756638
 21
335.7091084854125
 31
0.0
 11
104.750598207654
 21
335.4892689499775
 31
0.0
 11
104.3864398253574
 21
335.2803239023527
 31
0.0
 11
104.008193314871
 21
335.0984760075315
 31
0.0
 11
103.5937790892334
 21
334.9330746007443
 31
0.0
 11
103.1696851325159
 21
334.7946838863132
 31
0.0
 11
102.7180419724276
 21
334.677441251961
 31
0.0
 11
102.2603488634722
 21
334.5869464082404
 31
0.0
 11
101.7854406797204
 21
334.5209563468545
 31
0.0
 11
101.3076239944738
 21
334.4814918417914
 31
0.0
 11
100.8239549555265
 21
334.4682707562659
 31
0.0
 11
100.3402859165792
 21
334.4814918417914
 31
0.0
 11
99.8624692313328
 21
334.5209563468546
 31
0.0
 11
99.38756104758102
 21
334.5869464082405
 31
0.0
 11
98.92986793862561
 21
334.6774412519611
 31
0.0
 11
98.47822477853723
 21
334.7946838863133
 31
0.0
 11
98.05413082181971
 21
334.9330746007444
 31
0.0
 11
97.63971659618207
 21
335.0984760075316
 31
0.0
 11
97.26147008569565
 21
335.2803239023529
 31
0.0
 11
96.89731170339913
 21
335.4892689499776
 31
0.0
 11
96.57557123538936
 21
335.7091084854125
 31
0.0
 11
96.27340535398155
 21
335.9555223276691
 31
0.0
 11
96.01704401532021
 21
336.2072374031237
 31
0.0
 11
95.78698690414841
 21
336.4835998814837
 31
0.0
 11
95.6032127575963
 21
336.7607758903413
 31
0.0
 11
95.45331909062381
 21
337.0580288184721
 31
0.0
 11
95.34811913143257
 21
337.3539045800427
 31
0.0
 11
95.28349720637758
 21
337.6614538256794
 31
0.0
 11
95.26180609020489
 21
337.9681195588385
 31
0.0
 11
95.28349720637756
 21
338.2747852919976
 31
0.0
 11
95.34811913143254
 21
338.5823345376342
 31
0.0
 11
95.45331909062381
 21
338.8782102992047
 31
0.0
 11
95.60321275759632
 21
339.1754632273354
 31
0.0
 11
95.78698690414841
 21
339.4526392361931
 31
0.0
 11
96.01704401532018
 21
339.7290017145532
 31
0.0
 11
96.27340535398155
 21
339.9807167900077
 31
0.0
 11
96.57557123538936
 21
340.2271306322641
 31
0.0
 11
96.89731170339911
 21
340.4469701676993
 31
0.0
 11
97.26147008569559
 21
340.6559152153242
 31
0.0
 11
97.63971659618207
 21
340.8377631101454
 31
0.0
 11
98.05413082181977
 21
341.0031645169324
 31
0.0
 11
98.47822477853725
 21
341.1415552313635
 31
0.0
 11
98.92986793862558
 21
341.2587978657157
 31
0.0
 11
99.38756104758102
 21
341.3492927094363
 31
0.0
 11
99.86246923133284
 21
341.4152827708222
 31
0.0
 11
100.3402859165793
 21
341.4547472758854
 31
0.0
 11
100.8239549555266
 21
341.467968361411
 31
0.0
 11
101.3076239944739
 21
341.4547472758854
 31
0.0
 11
101.7854406797204
 21
341.4152827708223
 31
0.0
 11
102.2603488634722
 21
341.3492927094364
 31
0.0
 11
102.7180419724275
 21
341.2587978657158
 31
0.0
 11
103.1696851325158
 21
341.1415552313636
 31
0.0
 11
103.5937790892333
 21
341.0031645169324
 31
0.0
 11
104.008193314871
 21
340.8377631101453
 31
0.0
 11
104.3864398253575
 21
340.6559152153242
 31
0.0
 11
104.750598207654
 21
340.4469701676992
 31
0.0
 11
105.0723386756637
 21
340.2271306322641
 31
0.0
 11
105.3745045570716
 21
339.9807167900077
 31
0.0
 11
105.6308658957329
 21
339.7290017145531
 31
0.0
 11
105.8609230069047
 21
339.4526392361933
 31
0.0
 11
106.0446971534568
 21
339.1754632273354
 31
0.0
 11
106.1945908204294
 21
338.8782102992047
 31
0.0
 11
106.2997907796207
 21
338.5823345376342
 31
0.0
 11
106.3644127046757
 21
338.2747852919974
 31
0.0
 11
106.3861038208483
 21
337.9681195588383
 31
0.0
 11
106.3644127046757
 21
337.6614538256793
 31
0.0
  0
SPLINE
  5
15F
330
48
100
AcDbEntity
  8
1
  6
Continuous
 62
     7
100
AcDbSpline
210
0.0
220
0.0
230
1.0
 70
    11
 71
     3
 72
    79
 73
    75
 74
    73
 42
0.0000000001
 43
0.0000000001
 44
0.00000001
 40
0.0
 40
0.0
 40
0.0
 40
0.0
 40
0.314265065970527
 40
0.6282865583859634
 40
0.9611940750940118
 40
1.29375907148903
 40
1.653345631090414
 40
2.012624930760416
 40
2.402527484666733
 40
2.792202156791334
 40
3.212046604561901
 40
3.631735870026337
 40
4.077938487430154
 40
4.524041249095048
 40
4.990653914337224
 40
5.457207554045702
 40
5.936678586743404
 40
6.416122255864023
 40
6.899971960151124
 40
7.383821664438154
 40
7.863265333558679
 40
8.342736366256318
 40
8.809290005964867
 40
9.275902671207057
 40
9.722005432871978
 40
10.16820805027586
 40
10.58789731574028
 40
11.00774176351078
 40
11.39741643563536
 40
11.78731898954158
 40
12.14659828921157
 40
12.50618484881299
 40
12.83874984520802
 40
13.17165736191611
 40
13.4856788543316
 40
13.79994392030219
 40
14.10737582563216
 40
14.4148077309622
 40
14.72907279693273
 40
15.0430942893481
 40
15.37600180605615
 40
15.70856680245123
 40
16.06815336205268
 40
16.42743266172259
 40
16.81733521562876
 40
17.20700988775345
 40
17.62685433552402
 40
18.04654360098848
 40
18.49274621839231
 40
18.93884898005718
 40
19.40546164529934
 40
19.87201528500789
 40
20.35148631770557
 40
20.83092998682612
 40
21.31477969111323
 40
21.79862939540029
 40
22.27807306452087
 40
22.75754409721854
 40
23.22409773692704
 40
23.69071040216918
 40
24.13681316383407
 40
24.58301578123793
 40
25.00270504670236
 40
25.42254949447299
 40
25.81222416659762
 40
26.20212672050378
 40
26.56140602017371
 40
26.92099257977505
 40
27.25355757617023
 40
27.5864650928783
 40
27.90048658529369
 40
28.21475165126438
 40
28.52218355659436
 40
28.82961546192434
 40
28.82961546192434
 40
28.82961546192434
 40
28.82961546192434
 10
108.2834972063783
 20
337.6614538256793
 30
0.0
 10
108.3020897420569
 20
337.5581864471247
 30
0.0
 10
108.3392604031264
 20
337.3517317281911
 30
0.0
 10
108.4502070600088
 20
337.0496595223853
 30
0.0
 10
108.5972720946207
 20
336.7574772762143
 30
0.0
 10
108.7874270043192
 20
336.4726350374783
 30
0.0
 10
109.0125617599941
 20
336.2032060820452
 30
0.0
 10
109.2771980500608
 20
335.9444198944237
 30
0.0
 10
109.5722581180694
 20
335.704752963113
 30
0.0
 10
109.9030242651123
 20
335.4794245092236
 30
0.0
 10
110.259091334316
 20
335.2758700883202
 30
0.0
 10
110.6458244233819
 20
335.0903858983108
 30
0.0
 10
111.0524976101963
 20
334.9286229826521
 30
0.0
 10
111.4834737656088
 20
334.7882615410499
 30
0.0
 10
111.9288472015878
 20
334.6730235864236
 30
0.0
 10
112.3910600659602
 20
334.5817742278512
 30
0.0
 10
112.8619784485135
 20
334.516569566145
 30
0.0
 10
113.3415098859647
 20
334.4769808226359
 30
0.0
 10
113.8239549555249
 20
334.4638958034701
 30
0.0
 10
114.3064000251003
 20
334.4769808226347
 30
0.0
 10
114.7859314625064
 20
334.5165695661501
 30
0.0
 10
115.2568498452231
 20
334.5817742278329
 30
0.0
 10
115.7190627090018
 20
334.6730235864898
 30
0.0
 10
116.1644361471516
 20
334.7882615408081
 30
0.0
 10
116.5954122948028
 20
334.9286229835107
 30
0.0
 10
117.002085509745
 20
335.0903858951822
 30
0.0
 10
117.3888184997753
 20
335.2758700992297
 30
0.0
 10
117.7448859251409
 20
335.4794244696482
 30
0.0
 10
118.075650833638
 20
335.704753099098
 30
0.0
 10
118.3707153334501
 20
335.9444194022125
 30
0.0
 10
118.6353363133589
 20
336.2032077600062
 30
0.0
 10
118.8605258414602
 20
336.472628951601
 30
0.0
 10
119.0504908386252
 20
336.7574981099077
 30
0.0
 10
119.1982402533121
 20
337.0495833471165
 30
0.0
 10
119.3067692387122
 20
337.351998251096
 30
0.0
 10
119.3709808915306
 20
337.6582201264536
 30
0.0
 10
119.3935821763651
 20
337.9681195588385
 30
0.0
 10
119.3709808915306
 20
338.2780189912234
 30
0.0
 10
119.3067692387122
 20
338.5842408665807
 30
0.0
 10
119.1982402533122
 20
338.8866557705603
 30
0.0
 10
119.0504908386252
 20
339.178741007769
 30
0.0
 10
118.8605258414602
 20
339.4636101660757
 30
0.0
 10
118.635336313359
 20
339.7330313576708
 30
0.0
 10
118.3707153334501
 20
339.9918197154643
 30
0.0
 10
118.0756508336379
 20
340.2314860185786
 30
0.0
 10
117.744885925141
 20
340.4568146480287
 30
0.0
 10
117.3888184997754
 20
340.6603690184475
 30
0.0
 10
117.002085509745
 20
340.8458532224947
 30
0.0
 10
116.5954122948028
 20
341.0076161341663
 30
0.0
 10
116.1644361471517
 20
341.1479775768686
 30
0.0
 10
115.7190627090018
 20
341.2632155311871
 30
0.0
 10
115.2568498452231
 20
341.3544648898438
 30
0.0
 10
114.7859314625065
 20
341.4196695515269
 30
0.0
 10
114.3064000250996
 20
341.4592582950421
 30
0.0
 10
113.8239549555272
 20
341.4723433142065
 30
0.0
 10
113.3415098859559
 20
341.4592582950422
 30
0.0
 10
112.8619784485458
 20
341.4196695515266
 30
0.0
 10
112.3910600658409
 20
341.3544648898452
 30
0.0
 10
111.92884720202
 20
341.2632155311826
 30
0.0
 10
111.4834737640244
 20
341.1479775768859
 30
0.0
 10
111.0524976158222
 20
341.0076161341053
 30
0.0
 10
110.6458244028771
 20
340.8458532227168
 30
0.0
 10
110.2590914058148
 20
340.6603690176728
 30
0.0
 10
109.9030240057378
 20
340.4568146508386
 30
0.0
 10
109.5722590093006
 20
340.2314860089234
 30
0.0
 10
109.277194824159
 20
339.9918197504126
 30
0.0
 10
109.0125727571855
 20
339.7330312385305
 30
0.0
 10
108.7873871180821
 20
339.4636105981905
 30
0.0
 10
108.5974086365874
 20
339.1787395285176
 30
0.0
 10
108.4497078148315
 20
338.886661179221
 30
0.0
 10
108.3410071678823
 20
338.5842219426967
 30
0.0
 10
108.2774240832977
 20
338.2780891651292
 30
0.0
 10
108.2525245929266
 20
337.9678639685342
 30
0.0
 10
108.2731730018944
 20
337.7635905399642
 30
0.0
 10
108.2834972063783
 20
337.6614538256793
 30
0.0
 11
108.2834972063783
 21
337.6614538256793
 31
0.0
 11
108.3481191314333
 21
337.3539045800426
 31
0.0
 11
108.4533190906246
 21
337.0580288184721
 31
0.0
 11
108.6032127575971
 21
336.7607758903414
 31
0.0
 11
108.7869869041493
 21
336.4835998814838
 31
0.0
 11
109.0170440153212
 21
336.2072374031239
 31
0.0
 11
109.2734053539824
 21
335.9555223276692
 31
0.0
 11
109.5755712353902
 21
335.7091084854125
 31
0.0
 11
109.8973117034
 21
335.4892689499775
 31
0.0
 11
110.2614700856966
 21
335.2803239023527
 31
0.0
 11
110.639716596183
 21
335.0984760075315
 31
0.0
 11
111.0541308218206
 21
334.9330746007443
 31
0.0
 11
111.4782247785381
 21
334.7946838863132
 31
0.0
 11
111.9298679386264
 21
334.677441251961
 31
0.0
 11
112.3875610475818
 21
334.5869464082404
 31
0.0
 11
112.8624692313337
 21
334.5209563468545
 31
0.0
 11
113.3402859165802
 21
334.4814918417914
 31
0.0
 11
113.8239549555275
 21
334.4682707562659
 31
0.0
 11
114.3076239944748
 21
334.4814918417914
 31
0.0
 11
114.7854406797212
 21
334.5209563468546
 31
0.0
 11
115.260348863473
 21
334.5869464082405
 31
0.0
 11
115.7180419724284
 21
334.6774412519611
 31
0.0
 11
116.1696851325167
 21
334.7946838863133
 31
0.0
 11
116.5937790892343
 21
334.9330746007444
 31
0.0
 11
117.0081933148719
 21
335.0984760075316
 31
0.0
 11
117.3864398253583
 21
335.2803239023529
 31
0.0
 11
117.7505982076549
 21
335.4892689499776
 31
0.0
 11
118.0723386756646
 21
335.7091084854125
 31
0.0
 11
118.3745045570724
 21
335.9555223276691
 31
0.0
 11
118.6308658957338
 21
336.2072374031237
 31
0.0
 11
118.8609230069056
 21
336.4835998814837
 31
0.0
 11
119.0446971534577
 21
336.7607758903413
 31
0.0
 11
119.1945908204302
 21
337.0580288184721
 31
0.0
 11
119.2997907796215
 21
337.3539045800427
 31
0.0
 11
119.3644127046765
 21
337.6614538256794
 31
0.0
 11
119.3861038208491
 21
337.9681195588385
 31
0.0
 11
119.3644127046765
 21
338.2747852919976
 31
0.0
 11
119.2997907796215
 21
338.5823345376342
 31
0.0
 11
119.1945908204302
 21
338.8782102992047
 31
0.0
 11
119.0446971534577
 21
339.1754632273354
 31
0.0
 11
118.8609230069056
 21
339.4526392361931
 31
0.0
 11
118.6308658957338
 21
339.7290017145532
 31
0.0
 11
118.3745045570724
 21
339.9807167900077
 31
0.0
 11
118.0723386756646
 21
340.2271306322641
 31
0.0
 11
117.7505982076549
 21
340.4469701676993
 31
0.0
 11
117.3864398253584
 21
340.6559152153242
 31
0.0
 11
117.0081933148719
 21
340.8377631101454
 31
0.0
 11
116.5937790892342
 21
341.0031645169324
 31
0.0
 11
116.1696851325167
 21
341.1415552313635
 31
0.0
 11
115.7180419724284
 21
341.2587978657157
 31
0.0
 11
115.260348863473
 21
341.3492927094363
 31
0.0
 11
114.7854406797212
 21
341.4152827708222
 31
0.0
 11
114.3076239944747
 21
341.4547472758854
 31
0.0
 11
113.8239549555274
 21
341.467968361411
 31
0.0
 11
113.3402859165801
 21
341.4547472758854
 31
0.0
 11
112.8624692313336
 21
341.4152827708223
 31
0.0
 11
112.3875610475818
 21
341.3492927094364
 31
0.0
 11
111.9298679386264
 21
341.2587978657158
 31
0.0
 11
111.4782247785382
 21
341.1415552313636
 31
0.0
 11
111.0541308218207
 21
341.0031645169324
 31
0.0
 11
110.639716596183
 21
340.8377631101453
 31
0.0
 11
110.2614700856965
 21
340.6559152153242
 31
0.0
 11
109.8973117034
 21
340.4469701676992
 31
0.0
 11
109.5755712353903
 21
340.2271306322641
 31
0.0
 11
109.2734053539825
 21
339.9807167900077
 31
0.0
 11
109.0170440153211
 21
339.7290017145531
 31
0.0
 11
108.7869869041493
 21
339.4526392361933
 31
0.0
 11
108.6032127575972
 21
339.1754632273354
 31
0.0
 11
108.4533190906246
 21
338.8782102992047
 31
0.0
 11
108.3481191314334
 21
338.5823345376342
 31
0.0
 11
108.2834972063783
 21
338.2747852919974
 31
0.0
 11
108.2618060902057
 21
337.9681195588383
 31
0.0
 11
108.2834972063783
 21
337.6614538256793
 31
0.0
  0
ENDBLK
  5
4A
330
48
100
AcDbEntity
  8
0
100
AcDbBlockEnd
  0
BLOCK
  5
4C
330
4B
100
AcDbEntity
  8
0
100
AcDbBlockBegin
  2
42-15
 70
     0
 71
     0
 10
207.3271501221045
 20
80.7155555619424
 30
0.0
  3
42-15
  1

  0
LINE
  5
160
330
4B
100
AcDbEntity
  8
1
  6
Continuous
 62
     7
100
AcDbLine
 10
205.7375011125197
 20
205.8198156485459
 30
0.0
 11
205.4077353923159
 21
204.5698156485459
 31
0.0
  0
LINE
  5
161
330
4B
100
AcDbEntity
  8
1
  6
Continuous
 62
     7
100
AcDbLine
 10
205.7375011125197
 20
205.8198156485459
 30
0.0
 11
208.5375011125196
 21
205.8198156485459
 31
0.0
  0
LINE
  5
162
330
4B
100
AcDbEntity
  8
1
  6
Continuous
 62
     2
100
AcDbLine
 10
206.4511809542979
 20
197.3198156485459
 30
0.0
 11
207.5999072841505
 21
197.3198156485459
 31
0.0
  0
LINE
  5
163
330
4B
100
AcDbEntity
  8
1
  6
Continuous
 62
     2
100
AcDbLine
 10
206.2059579852337
 20
196.3198156485459
 30
0.0
 11
207.9239519218423
 21
196.3198156485459
 31
0.0
  0
LINE
  5
164
330
4B
100
AcDbEntity
  8
1
  6
Continuous
 62
     2
100
AcDbLine
 10
206.0132827952548
 20
195.3198156485459
 30
0.0
 11
208.2830284122576
 21
195.3198156485459
 31
0.0
  0
LINE
  5
165
330
4B
100
AcDbEntity
  8
1
  6
Continuous
 62
     2
100
AcDbLine
 10
205.8819133475419
 20
194.3198156485459
 30
0.0
 11
208.4319137863323
 21
194.3198156485459
 31
0.0
  0
LINE
  5
166
330
4B
100
AcDbEntity
  8
1
  6
Continuous
 62
     7
100
AcDbLine
 10
208.5375011125198
 20
191.8198156485459
 30
0.0
 11
208.5375011125196
 21
205.8198156485459
 31
0.0
  0
LINE
  5
167
330
4B
100
AcDbEntity
  8
1
  6
Continuous
 62
     2
100
AcDbLine
 10
205.7375011125197
 20
193.3198156485459
 30
0.0
 11
208.5375011125198
 21
193.3198156485459
 31
0.0
  0
LINE
  5
168
330
4B
100
AcDbEntity
  8
1
  6
Continuous
 62
     2
100
AcDbLine
 10
205.7375011125197
 20
192.3198156485459
 30
0.0
 11
208.5375011125198
 21
192.3198156485459
 31
0.0
  0
LINE
  5
169
330
4B
100
AcDbEntity
  8
1
  6
Continuous
 62
     7
100
AcDbLine
 10
208.5375011125198
 20
191.8198156485459
 30
0.0
 11
205.7375011125197
 21
191.8198156485459
 31
0.0
  0
LINE
  5
16A
330
4B
100
AcDbEntity
  8
1
  6
Continuous
 62
     7
100
AcDbLine
 10
205.7375011125197
 20
191.8198156485459
 30
0.0
 11
205.4681789134964
 21
192.8198156485458
 31
0.0
  0
LINE
  5
16B
330
4B
100
AcDbEntity
  8
1
  6
Continuous
 62
     2
100
AcDbLine
 10
205.7375011125197
 20
192.8198156485459
 30
0.0
 11
208.5375011125198
 21
192.8198156485459
 31
0.0
  0
LINE
  5
16C
330
4B
100
AcDbEntity
  8
1
  6
Continuous
 62
     2
100
AcDbLine
 10
205.7375011125197
 20
193.8198156485459
 30
0.0
 11
208.5375011125198
 21
193.8198156485459
 31
0.0
  0
LINE
  5
16D
330
4B
100
AcDbEntity
  8
1
  6
Continuous
 62
     2
100
AcDbLine
 10
205.927427520972
 20
194.8198156485459
 30
0.0
 11
208.3714528000681
 21
194.8198156485459
 31
0.0
  0
LINE
  5
16E
330
4B
100
AcDbEntity
  8
1
  6
Continuous
 62
     2
100
AcDbLine
 10
206.0409746188472
 20
195.8198156485459
 30
0.0
 11
208.176800632282
 21
195.8198156485459
 31
0.0
  0
LINE
  5
16F
330
4B
100
AcDbEntity
  8
1
  6
Continuous
 62
     2
100
AcDbLine
 10
206.2518478006157
 20
196.8198156485459
 30
0.0
 11
207.8199383246738
 21
196.8198156485459
 31
0.0
  0
LINE
  5
170
330
4B
100
AcDbEntity
  8
1
  6
Continuous
 62
     2
100
AcDbLine
 10
206.4951630103485
 20
197.8198156485459
 30
0.0
 11
207.5604021009588
 21
197.8198156485459
 31
0.0
  0
LINE
  5
171
330
4B
100
AcDbEntity
  8
1
  6
Continuous
 62
     7
100
AcDbLine
 10
205.7375011125197
 20
205.8198156485459
 30
0.0
 11
205.7375011125197
 21
191.8198156485459
 31
0.0
  0
LINE
  5
172
330
4B
100
AcDbEntity
  8
1
  6
Continuous
 62
     7
100
AcDbLine
 10
100.324092548032
 20
310.6679683614111
 30
0.0
 11
101.574092548032
 21
310.3382026412073
 31
0.0
  0
LINE
  5
173
330
4B
100
AcDbEntity
  8
1
  6
Continuous
 62
     7
100
AcDbLine
 10
100.324092548032
 20
310.6679683614111
 30
0.0
 11
100.324092548032
 21
313.4679683614111
 31
0.0
  0
LINE
  5
174
330
4B
100
AcDbEntity
  8
1
  6
Continuous
 62
     2
100
AcDbLine
 10
108.824092548032
 20
311.3816482031892
 30
0.0
 11
108.824092548032
 21
312.5303745330418
 31
0.0
  0
LINE
  5
175
330
4B
100
AcDbEntity
  8
1
  6
Continuous
 62
     2
100
AcDbLine
 10
109.824092548032
 20
311.1364252341251
 30
0.0
 11
109.824092548032
 21
312.8544191707338
 31
0.0
  0
LINE
  5
176
330
4B
100
AcDbEntity
  8
1
  6
Continuous
 62
     2
100
AcDbLine
 10
110.824092548032
 20
310.9437500441462
 30
0.0
 11
110.824092548032
 21
313.2134956611488
 31
0.0
  0
LINE
  5
177
330
4B
100
AcDbEntity
  8
1
  6
Continuous
 62
     2
100
AcDbLine
 10
111.824092548032
 20
310.8123805964332
 30
0.0
 11
111.824092548032
 21
313.3623810352236
 31
0.0
  0
LINE
  5
178
330
4B
100
AcDbEntity
  8
1
  6
Continuous
 62
     7
100
AcDbLine
 10
114.324092548032
 20
313.4679683614111
 30
0.0
 11
100.324092548032
 21
313.4679683614111
 31
0.0
  0
LINE
  5
179
330
4B
100
AcDbEntity
  8
1
  6
Continuous
 62
     2
100
AcDbLine
 10
112.824092548032
 20
310.6679683614111
 30
0.0
 11
112.824092548032
 21
313.4679683614111
 31
0.0
  0
LINE
  5
17A
330
4B
100
AcDbEntity
  8
1
  6
Continuous
 62
     2
100
AcDbLine
 10
113.824092548032
 20
310.6679683614111
 30
0.0
 11
113.824092548032
 21
313.4679683614111
 31
0.0
  0
LINE
  5
17B
330
4B
100
AcDbEntity
  8
1
  6
Continuous
 62
     7
100
AcDbLine
 10
114.324092548032
 20
313.4679683614111
 30
0.0
 11
114.324092548032
 21
310.6679683614111
 31
0.0
  0
LINE
  5
17C
330
4B
100
AcDbEntity
  8
1
  6
Continuous
 62
     7
100
AcDbLine
 10
114.324092548032
 20
310.6679683614111
 30
0.0
 11
113.3240925480321
 21
310.3986461623878
 31
0.0
  0
LINE
  5
17D
330
4B
100
AcDbEntity
  8
1
  6
Continuous
 62
     2
100
AcDbLine
 10
113.324092548032
 20
310.6679683614111
 30
0.0
 11
113.324092548032
 21
313.4679683614111
 31
0.0
  0
LINE
  5
17E
330
4B
100
AcDbEntity
  8
1
  6
Continuous
 62
     2
100
AcDbLine
 10
112.324092548032
 20
310.6679683614111
 30
0.0
 11
112.324092548032
 21
313.4679683614111
 31
0.0
  0
LINE
  5
17F
330
4B
100
AcDbEntity
  8
1
  6
Continuous
 62
     2
100
AcDbLine
 10
111.324092548032
 20
310.8578947698633
 30
0.0
 11
111.324092548032
 21
313.3019200489596
 31
0.0
  0
LINE
  5
180
330
4B
100
AcDbEntity
  8
1
  6
Continuous
 62
     2
100
AcDbLine
 10
110.324092548032
 20
310.9714418677386
 30
0.0
 11
110.324092548032
 21
313.1072678811732
 31
0.0
  0
LINE
  5
181
330
4B
100
AcDbEntity
  8
1
  6
Continuous
 62
     2
100
AcDbLine
 10
109.324092548032
 20
311.1823150495071
 30
0.0
 11
109.324092548032
 21
312.7504055735652
 31
0.0
  0
LINE
  5
182
330
4B
100
AcDbEntity
  8
1
  6
Continuous
 62
     2
100
AcDbLine
 10
108.324092548032
 20
311.4256302592398
 30
0.0
 11
108.324092548032
 21
312.4908693498502
 31
0.0
  0
LINE
  5
183
330
4B
100
AcDbEntity
  8
1
  6
Continuous
 62
     7
100
AcDbLine
 10
100.324092548032
 20
310.6679683614111
 30
0.0
 11
114.324092548032
 21
310.6679683614111
 31
0.0
  0
ARC
  5
184
330
4B
100
AcDbEntity
  8
1
  6
Continuous
 62
     7
100
AcDbCircle
 10
229.7375011125197
 20
198.8198156485459
 30
0.0
 40
25.00000000000008
100
AcDbArc
 50
166.702928252791
 51
180.0
  0
ARC
  5
185
330
4B
100
AcDbEntity
  8
1
  6
Continuous
 62
     7
100
AcDbCircle
 10
229.7375011125197
 20
198.8198156485459
 30
0.0
 40
25.00000000000008
100
AcDbArc
 50
-166.702928252791
 51
-166.1134596373709
  0
ARC
  5
186
330
4B
100
AcDbEntity
  8
1
  6
Continuous
 62
     7
100
AcDbCircle
 10
229.7375011125197
 20
198.8198156485459
 30
0.0
 40
25.0
100
AcDbArc
 50
180.0
 51
-166.702928252791
  0
ARC
  5
187
330
4B
100
AcDbEntity
  8
1
  6
Continuous
 62
     7
100
AcDbCircle
 10
107.324092548032
 20
334.6679683614109
 30
0.0
 40
24.99999999999985
100
AcDbArc
 50
-103.2970717472092
 51
-90.0
  0
ARC
  5
188
330
4B
100
AcDbEntity
  8
1
  6
Continuous
 62
     7
100
AcDbCircle
 10
107.324092548032
 20
334.6679683614109
 30
0.0
 40
24.99999999999985
100
AcDbArc
 50
-76.70292825279087
 51
-76.11345963737071
  0
ARC
  5
189
330
4B
100
AcDbEntity
  8
1
  6
Continuous
 62
     7
100
AcDbCircle
 10
107.324092548032
 20
334.6679683614109
 30
0.0
 40
25.0
100
AcDbArc
 50
-90.0
 51
-76.70292825279087
  0
CIRCLE
  5
18A
330
4B
100
AcDbEntity
  8
0
  6
Continuous
 62
     7
100
AcDbCircle
 10
107.3240925480318
 20
198.8198156485459
 30
0.0
 40
7.0
  0
ENDBLK
  5
4D
330
4B
100
AcDbEntity
  8
0
100
AcDbBlockEnd
  0
BLOCK
  5
4F
330
4E
100
AcDbEntity
  8
0
100
AcDbBlockBegin
  2
21-1A
 70
     0
 71
     0
 10
1451.773773155131
 20
-497.9210058096197
 30
0.0
  3
21-1A
  1

  0
LINE
  5
18B
330
4E
100
AcDbEntity
  8
1
  6
Continuous
 62
     7
100
AcDbLine
 10
219.5375011125198
 20
216.7445899364716
 30
0.0
 11
219.5375011125198
 21
168.3949998521565
 31
0.0
  0
LINE
  5
18C
330
4E
100
AcDbEntity
  8
1
  6
Continuous
 62
     7
100
AcDbLine
 10
215.7524213571691
 20
168.351773916778
 30
0.0
 11
218.9679145620397
 21
167.8998658177855
 31
0.0
  0
LINE
  5
18D
330
4E
100
AcDbEntity
  8
1
  6
Continuous
 62
     7
100
AcDbLine
 10
214.5784245067761
 20
216.622501502897
 30
0.0
 11
218.9678791798071
 21
217.2397189969046
 31
0.0
  0
LINE
  5
18E
330
4E
100
AcDbEntity
  8
1
  6
Continuous
 62
     7
100
AcDbLine
 10
217.5992863260912
 20
185.8941460743636
 30
0.0
 11
211.2722752332147
 21
185.8941460743636
 31
0.0
  0
LINE
  5
18F
330
4E
100
AcDbEntity
  8
1
  6
Continuous
 62
     7
100
AcDbLine
 10
217.2603393032586
 20
197.1013394764643
 30
0.0
 11
210.9333282103821
 21
197.1013394764643
 31
0.0
  0
LINE
  5
190
330
4E
100
AcDbEntity
  8
1
  6
Continuous
 62
     7
100
AcDbLine
 10
100.824092548032
 20
323.1190722768888
 30
0.0
 11
100.824092548032
 21
316.7920611840122
 31
0.0
  0
LINE
  5
191
330
4E
100
AcDbEntity
  8
1
  6
Continuous
 62
     7
100
AcDbLine
 10
113.824092548032
 20
323.4580192997214
 30
0.0
 11
113.824092548032
 21
317.1310082068448
 31
0.0
  0
LINE
  5
192
330
4E
100
AcDbEntity
  8
1
  6
Continuous
 62
     7
100
AcDbLine
 10
79.67832341905012
 20
323.898381810931
 30
0.0
 11
80.13023151804252
 21
320.6828886060605
 31
0.0
  0
LINE
  5
193
330
4E
100
AcDbEntity
  8
1
  6
Continuous
 62
     7
100
AcDbLine
 10
134.4747276426427
 20
324.4679683614111
 30
0.0
 11
80.17345745342082
 21
324.4679683614111
 31
0.0
  0
LINE
  5
194
330
4E
100
AcDbEntity
  8
1
  6
Continuous
 62
     7
100
AcDbLine
 10
134.5179535780213
 20
320.6828886060605
 30
0.0
 11
134.9698616770138
 21
323.898381810931
 31
0.0
  0
LINE
  5
195
330
4E
100
AcDbEntity
  8
1
  6
Continuous
 62
     7
100
AcDbLine
 10
87.22637172403601
 20
217.1153706062804
 30
0.0
 11
100.8536164204689
 21
213.4639613948099
 31
0.0
  0
LINE
  5
196
330
4E
100
AcDbEntity
  8
1
  6
Continuous
 62
     7
100
AcDbLine
 10
127.4218133720276
 20
217.1153706062803
 30
0.0
 11
113.794568675595
 21
213.4639613948098
 31
0.0
  0
LINE
  5
197
330
4E
100
AcDbEntity
  8
1
  6
Continuous
 62
     7
100
AcDbLine
 10
133.2173683297621
 20
207.0771749614266
 30
0.0
 11
123.2415328447998
 21
197.1013394764642
 31
0.0
  0
LINE
  5
198
330
4E
100
AcDbEntity
  8
1
  6
Continuous
 62
     7
100
AcDbLine
 10
113.1196475057663
 20
172.2669013779307
 30
0.0
 11
116.7710567172368
 21
185.8941460743636
 31
0.0
  0
LINE
  5
199
330
4E
100
AcDbEntity
  8
1
  6
Continuous
 62
     7
100
AcDbLine
 10
101.5285375902975
 20
172.2669013779308
 30
0.0
 11
97.87712837882691
 21
185.8941460743636
 31
0.0
  0
LINE
  5
19A
330
4E
100
AcDbEntity
  8
1
  6
Continuous
 62
     7
100
AcDbLine
 10
81.43081676630172
 20
207.0771749614266
 30
0.0
 11
91.40665225126401
 21
197.1013394764644
 31
0.0
  0
ARC
  5
19B
330
4E
100
AcDbEntity
  8
1
  6
Continuous
 62
     7
100
AcDbCircle
 10
358.5375011125196
 20
198.8198156485458
 30
0.0
 40
150.0533238552213
100
AcDbArc
 50
-178.4724745577871
 51
-170.1970982062322
  0
ARC
  5
19C
330
4E
100
AcDbEntity
  8
1
  6
Continuous
 62
     7
100
AcDbCircle
 10
283.4493221212189
 20
199.1840113137926
 30
0.0
 40
75.00000000000003
100
AcDbArc
 50
170.4085075173349
 51
177.2213610340375
  0
ARC
  5
19D
330
4E
100
AcDbEntity
  8
1
  6
Continuous
 62
     7
100
AcDbCircle
 10
108.961182898921
 20
440.8381209017355
 30
0.0
 40
127.4948334081408
100
AcDbArc
 50
-100.8094932463522
 51
-92.53411689479725
  0
ARC
  5
19E
330
4E
100
AcDbEntity
  8
1
  6
Continuous
 62
     7
100
AcDbCircle
 10
105.6870021971425
 20
440.8381209017355
 30
0.0
 40
127.4948334081409
100
AcDbArc
 50
-87.46588310520254
 51
-79.19050675364773
  0
ARC
  5
19F
330
4E
100
AcDbEntity
  8
1
  6
Continuous
 62
     7
100
AcDbCircle
 10
85.67345745342092
 20
211.319815648546
 30
0.0
 40
5.999999999999978
100
AcDbArc
 50
75.00000000000028
 51
-134.9999999999987
  0
ARC
  5
1A0
330
4E
100
AcDbEntity
  8
1
  6
Continuous
 62
     7
100
AcDbCircle
 10
128.9747276426429
 20
211.3198156485459
 30
0.0
 40
5.999999999999948
100
AcDbArc
 50
-45.00000000000058
 51
105.0000000000017
  0
ARC
  5
1A1
330
4E
100
AcDbEntity
  8
1
  6
Continuous
 62
     7
100
AcDbCircle
 10
107.3240925480318
 20
173.8198156485459
 30
0.0
 40
5.999999999999885
100
AcDbArc
 50
-164.9999999999999
 51
-15.00000000000039
  0
ARC
  5
1A2
330
4E
100
AcDbEntity
  8
1
  6
Continuous
 62
     7
100
AcDbCircle
 10
216.5874599629293
 20
174.2933823292274
 30
0.0
 40
5.999999999999925
100
AcDbArc
 50
-170.197098206231
 51
-97.99999999999811
  0
ARC
  5
1A3
330
4E
100
AcDbEntity
  8
1
  6
Continuous
 62
     7
100
AcDbCircle
 10
215.4138876993276
 20
210.6809527776999
 30
0.0
 40
5.999999999999965
100
AcDbArc
 50
98.00409437170214
 51
170.4085075173348
  0
ARC
  5
1A4
330
4E
100
AcDbEntity
  8
1
  6
Continuous
 62
     7
100
AcDbCircle
 10
219.0375011125198
 20
168.3949998521565
 30
0.0
 40
0.5000000000002273
100
AcDbArc
 50
-98.0000000000037
 51
0.0
  0
ARC
  5
1A5
330
4E
100
AcDbEntity
  8
1
  6
Continuous
 62
     7
100
AcDbCircle
 10
219.0375011125198
 20
216.7445899364716
 30
0.0
 40
0.5
100
AcDbArc
 50
0.0
 51
98.00409437171133
  0
ARC
  5
1A6
330
4E
100
AcDbEntity
  8
1
  6
Continuous
 62
     7
100
AcDbCircle
 10
80.17345745342082
 20
323.9679683614111
 30
0.0
 40
0.5
100
AcDbArc
 50
90.0
 51
-171.9999999999915
  0
ARC
  5
1A7
330
4E
100
AcDbEntity
  8
1
  6
Continuous
 62
     7
100
AcDbCircle
 10
86.07183993049192
 20
321.5179272118208
 30
0.0
 40
5.999999999999964
100
AcDbArc
 50
-172.0000000000008
 51
-99.80290179376799
  0
ARC
  5
1A8
330
4E
100
AcDbEntity
  8
1
  6
Continuous
 62
     7
100
AcDbCircle
 10
128.5763451655718
 20
321.5179272118208
 30
0.0
 40
5.999999999999921
100
AcDbArc
 50
-80.19709820623122
 51
-7.99999999999907
  0
ARC
  5
1A9
330
4E
100
AcDbEntity
  8
1
  6
Continuous
 62
     7
100
AcDbCircle
 10
134.4747276426427
 20
323.9679683614111
 30
0.0
 40
0.5000000000003118
100
AcDbArc
 50
-8.00000000000234
 51
90.0
  0
ARC
  5
1AA
330
4E
100
AcDbEntity
  8
1
  6
Continuous
 62
     7
100
AcDbCircle
 10
107.3240925480318
 20
237.6121070520366
 30
0.0
 40
24.99999999999997
100
AcDbArc
 50
-104.9999999999998
 51
-74.99999999999966
  0
ARC
  5
1AB
330
4E
100
AcDbEntity
  8
1
  6
Continuous
 62
     7
100
AcDbCircle
 10
140.9192023744634
 20
179.4236699468005
 30
0.0
 40
24.99999999999995
100
AcDbArc
 50
134.9999999999998
 51
164.9999999999998
  0
ARC
  5
1AC
330
4E
100
AcDbEntity
  8
1
  6
Continuous
 62
     7
100
AcDbCircle
 10
73.72898272160032
 20
179.4236699468006
 30
0.0
 40
24.99999999999988
100
AcDbArc
 50
15.0
 51
45.00000000000019
  0
ENDBLK
  5
50
330
4E
100
AcDbEntity
  8
0
100
AcDbBlockEnd
  0
BLOCK
  5
54
330
51
100
AcDbEntity
  8
0
100
AcDbBlockBegin
  2
R10A
 70
     0
 71
     0
 10
1408.773773155131
 20
-542.9210058096198
 30
0.0
  3
R10A
  1

  0
INSERT
  5
52
330
51
100
AcDbEntity
  8
0
100
AcDbBlockReference
  2
42-15
 10
207.3271501221045
 20
80.7155555619424
 30
0.0
  0
INSERT
  5
53
330
51
100
AcDbEntity
  8
0
100
AcDbBlockReference
  2
21-1A
 10
1451.773773155131
 20
-497.9210058096197
 30
0.0
  0
ENDBLK
  5
55
330
51
100
AcDbEntity
  8
0
100
AcDbBlockEnd
  0
BLOCK
  5
57
330
56
100
AcDbEntity
  8
0
100
AcDbBlockBegin
  2
_J__A4
 70
     0
 71
     0
 10
0.0
 20
0.0
 30
0.0
  3
_J__A4
  1

  0
POINT
  5
1AD
330
56
100
AcDbEntity
  8
1
 62
     4
100
AcDbPoint
 10
93.75
 20
17.0
 30
0.0
  0
POINT
  5
1AE
330
56
100
AcDbEntity
  8
1
 62
     4
100
AcDbPoint
 10
85.25
 20
17.0
 30
0.0
  0
POINT
  5
1AF
330
56
100
AcDbEntity
  8
1
 62
     4
100
AcDbPoint
 10
106.5
 20
19.00000000000001
 30
0.0
  0
POINT
  5
1B0
330
56
100
AcDbEntity
  8
1
 62
     4
100
AcDbPoint
 10
106.5
 20
12.5
 30
0.0
  0
POINT
  5
1B1
330
56
100
AcDbEntity
  8
1
 62
     4
100
AcDbPoint
 10
112.25
 20
12.5
 30
0.0
  0
POINT
  5
1B2
330
56
100
AcDbEntity
  8
1
 62
     4
100
AcDbPoint
 10
100.75
 20
12.5
 30
0.0
  0
POINT
  5
1B3
330
56
100
AcDbEntity
  8
1
 62
     4
100
AcDbPoint
 10
123.5
 20
19.00000000000001
 30
0.0
  0
POINT
  5
1B4
330
56
100
AcDbEntity
  8
1
 62
     4
100
AcDbPoint
 10
123.5
 20
12.5
 30
0.0
  0
POINT
  5
1B5
330
56
100
AcDbEntity
  8
1
 62
     4
100
AcDbPoint
 10
129.25
 20
12.5
 30
0.0
  0
POINT
  5
1B6
330
56
100
AcDbEntity
  8
1
 62
     4
100
AcDbPoint
 10
117.75
 20
12.5
 30
0.0
  0
POINT
  5
1B7
330
56
100
AcDbEntity
  8
1
 62
     4
100
AcDbPoint
 10
140.5
 20
19.00000000000001
 30
0.0
  0
POINT
  5
1B8
330
56
100
AcDbEntity
  8
1
 62
     4
100
AcDbPoint
 10
140.5
 20
12.5
 30
0.0
  0
POINT
  5
1B9
330
56
100
AcDbEntity
  8
1
 62
     4
100
AcDbPoint
 10
146.25
 20
12.5
 30
0.0
  0
POINT
  5
1BA
330
56
100
AcDbEntity
  8
1
 62
     4
100
AcDbPoint
 10
134.75
 20
12.5
 30
0.0
  0
POINT
  5
1BB
330
56
100
AcDbEntity
  8
1
 62
     4
100
AcDbPoint
 10
151.75
 20
12.5
 30
0.0
  0
POINT
  5
1BC
330
56
100
AcDbEntity
  8
1
 62
     4
100
AcDbPoint
 10
163.25
 20
12.5
 30
0.0
  0
POINT
  5
1BD
330
56
100
AcDbEntity
  8
1
 62
     4
100
AcDbPoint
 10
157.5
 20
12.5
 30
0.0
  0
POINT
  5
1BE
330
56
100
AcDbEntity
  8
1
 62
     4
100
AcDbPoint
 10
57.0
 20
14.25
 30
0.0
  0
POINT
  5
1BF
330
56
100
AcDbEntity
  8
1
 62
     4
100
AcDbPoint
 10
57.0
 20
22.75000000000001
 30
0.0
  0
POINT
  5
1C0
330
56
100
AcDbEntity
  8
1
 62
     4
100
AcDbPoint
 10
47.5
 20
282.0000000000003
 30
0.0
  0
POINT
  5
1C1
330
56
100
AcDbEntity
  8
1
 62
     4
100
AcDbPoint
 10
157.5
 20
19.00000000000001
 30
0.0
  0
POINT
  5
1C2
330
56
100
AcDbEntity
  8
1
 62
     4
100
AcDbPoint
 10
57.0
 20
16.25
 30
0.0
  0
POINT
  5
1C3
330
56
100
AcDbEntity
  8
1
 62
     4
100
AcDbPoint
 10
57.0
 20
24.75000000000001
 30
0.0
  0
POINT
  5
1C4
330
56
100
AcDbEntity
  8
1
 62
     4
100
AcDbPoint
 10
57.0
 20
20.75000000000001
 30
0.0
  0
POINT
  5
1C5
330
56
100
AcDbEntity
  8
1
 62
     4
100
AcDbPoint
 10
57.0
 20
12.25
 30
0.0
  0
POINT
  5
1C6
330
56
100
AcDbEntity
  8
1
 62
     4
100
AcDbPoint
 10
34.0
 20
34.00000000000001
 30
0.0
  0
LINE
  5
1C7
330
56
100
AcDbEntity
  8
1
  6
Continuous
 62
     7
100
AcDbLine
 10
105.0
 20
10.0
 30
0.0
 11
200.0
 21
10.0
 31
0.0
  0
LINE
  5
1C8
330
56
100
AcDbEntity
  8
1
  6
Continuous
 62
     2
100
AcDbLine
 10
105.0
 20
10.0
 30
0.0
 11
105.0
 21
5.0
 31
0.0
  0
LINE
  5
1C9
330
56
100
AcDbEntity
  8
1
  6
Continuous
 62
     7
100
AcDbLine
 10
200.0
 20
148.5
 30
0.0
 11
200.0
 21
287.0000000000003
 31
0.0
  0
LINE
  5
1CA
330
56
100
AcDbEntity
  8
1
  6
Continuous
 62
     2
100
AcDbLine
 10
200.0
 20
148.5
 30
0.0
 11
205.0
 21
148.5
 31
0.0
  0
LINE
  5
1CB
330
56
100
AcDbEntity
  8
1
  6
Continuous
 62
     7
100
AcDbLine
 10
25.0
 20
148.5
 30
0.0
 11
25.0
 21
287.0000000000003
 31
0.0
  0
LINE
  5
1CC
330
56
100
AcDbEntity
  8
1
  6
Continuous
 62
     2
100
AcDbLine
 10
25.0
 20
148.5
 30
0.0
 11
20.0
 21
148.5
 31
0.0
  0
LINE
  5
1CD
330
56
100
AcDbEntity
  8
1
  6
Continuous
 62
     7
100
AcDbLine
 10
105.0
 20
287.0000000000003
 30
0.0
 11
25.0
 21
287.0000000000003
 31
0.0
  0
LINE
  5
1CE
330
56
100
AcDbEntity
  8
1
  6
Continuous
 62
     2
100
AcDbLine
 10
105.0
 20
287.0000000000003
 30
0.0
 11
105.0
 21
292.0000000000003
 31
0.0
  0
LINE
  5
1CF
330
56
100
AcDbEntity
  8
1
  6
Continuous
 62
     2
100
AcDbLine
 10
166.0
 20
20.00000000000001
 30
0.0
 11
200.0
 21
20.00000000000001
 31
0.0
  0
LINE
  5
1D0
330
56
100
AcDbEntity
  8
1
  6
Continuous
 62
     2
100
AcDbLine
 10
98.0
 20
27.00000000000001
 30
0.0
 11
98.0
 21
9.99999999999999
 31
0.0
  0
LINE
  5
1D1
330
56
100
AcDbEntity
  8
1
  6
Continuous
 62
     2
100
AcDbLine
 10
115.0
 20
27.00000000000001
 30
0.0
 11
115.0
 21
9.99999999999999
 31
0.0
  0
LINE
  5
1D2
330
56
100
AcDbEntity
  8
1
  6
Continuous
 62
     2
100
AcDbLine
 10
149.0
 20
27.00000000000001
 30
0.0
 11
149.0
 21
10.0
 31
0.0
  0
LINE
  5
1D3
330
56
100
AcDbEntity
  8
1
  6
Continuous
 62
     2
100
AcDbLine
 10
132.0
 20
27.00000000000001
 30
0.0
 11
132.0
 21
9.99999999999999
 31
0.0
  0
LINE
  5
1D4
330
56
100
AcDbEntity
  8
1
  6
Continuous
 62
     2
100
AcDbLine
 10
166.0
 20
27.00000000000001
 30
0.0
 11
166.0
 21
10.0
 31
0.0
  0
LINE
  5
1D5
330
56
100
AcDbEntity
  8
1
  6
Continuous
 62
     2
100
AcDbLine
 10
55.0
 20
277.0000000000003
 30
0.0
 11
25.0
 21
277.0000000000003
 31
0.0
  0
LINE
  5
1D6
330
56
100
AcDbEntity
  8
1
  6
Continuous
 62
     7
100
AcDbLine
 10
25.0
 20
10.0
 30
0.0
 11
25.0
 21
148.5
 31
0.0
  0
LINE
  5
1D7
330
56
100
AcDbEntity
  8
1
  6
Continuous
 62
     2
100
AcDbLine
 10
40.0
 20
287.0000000000003
 30
0.0
 11
40.0
 21
277.0000000000003
 31
0.0
  0
LINE
  5
1D8
330
56
100
AcDbEntity
  8
1
  6
Continuous
 62
     2
100
AcDbLine
 10
55.0
 20
287.0000000000003
 30
0.0
 11
55.0
 21
277.0000000000003
 31
0.0
  0
LINE
  5
1D9
330
56
100
AcDbEntity
  8
1
  6
Continuous
 62
     2
100
AcDbLine
 10
33.0
 20
41.00000000000001
 30
0.0
 11
33.0
 21
27.0
 31
0.0
  0
LINE
  5
1DA
330
56
100
AcDbEntity
  8
1
  6
Continuous
 62
     7
100
AcDbLine
 10
200.0
 20
27.00000000000001
 30
0.0
 11
25.0
 21
27.00000000000001
 31
0.0
  0
LINE
  5
1DB
330
56
100
AcDbEntity
  8
1
  6
Continuous
 62
     7
100
AcDbLine
 10
25.0
 20
41.0
 30
0.0
 11
200.0
 21
41.0
 31
0.0
  0
LINE
  5
1DC
330
56
100
AcDbEntity
  8
1
  6
PHANTOM
 62
     4
100
AcDbLine
 10
0.0
 20
0.0
 30
0.0
 11
210.0
 21
0.0
 31
0.0
  0
LINE
  5
1DD
330
56
100
AcDbEntity
  8
1
  6
PHANTOM
 62
     4
100
AcDbLine
 10
210.0
 20
0.0
 30
0.0
 11
210.0
 21
297.0
 31
0.0
  0
LINE
  5
1DE
330
56
100
AcDbEntity
  8
1
  6
PHANTOM
 62
     4
100
AcDbLine
 10
210.0
 20
297.0
 30
0.0
 11
0.0
 21
297.0
 31
0.0
  0
LINE
  5
1DF
330
56
100
AcDbEntity
  8
1
  6
PHANTOM
 62
     4
100
AcDbLine
 10
0.0
 20
297.0
 30
0.0
 11
0.0
 21
0.0
 31
0.0
  0
LINE
  5
1E0
330
56
100
AcDbEntity
  8
1
  6
Continuous
 62
     7
100
AcDbLine
 10
25.0
 20
10.0
 30
0.0
 11
105.0
 21
10.0
 31
0.0
  0
LINE
  5
1E1
330
56
100
AcDbEntity
  8
1
  6
Continuous
 62
     7
100
AcDbLine
 10
200.0
 20
10.0
 30
0.0
 11
200.0
 21
148.5
 31
0.0
  0
LINE
  5
1E2
330
56
100
AcDbEntity
  8
1
  6
Continuous
 62
     7
100
AcDbLine
 10
200.0
 20
287.0000000000003
 30
0.0
 11
105.0
 21
287.0000000000003
 31
0.0
  0
LINE
  5
1E3
330
56
100
AcDbEntity
  8
1
  6
Continuous
 62
     2
100
AcDbLine
 10
25.0
 20
18.50000000000001
 30
0.0
 11
81.0
 21
18.50000000000001
 31
0.0
  0
LINE
  5
1E4
330
56
100
AcDbEntity
  8
1
  6
Continuous
 62
     2
100
AcDbLine
 10
33.0
 20
27.0
 30
0.0
 11
33.0
 21
10.0
 31
0.0
  0
LINE
  5
1E5
330
56
100
AcDbEntity
  8
1
  6
Continuous
 62
     7
100
AcDbLine
 10
191.0
 20
24.70000000000001
 30
0.0
 11
191.0
 21
22.30000000000001
 31
0.0
  0
LINE
  5
1E6
330
56
100
AcDbEntity
  8
1
  6
Continuous
 62
     7
100
AcDbLine
 10
191.0
 20
24.70000000000001
 30
0.0
 11
196.0
 21
25.50000000000001
 31
0.0
  0
LINE
  5
1E7
330
56
100
AcDbEntity
  8
1
  6
Continuous
 62
     7
100
AcDbLine
 10
196.0
 20
25.50000000000001
 30
0.0
 11
196.0
 21
21.50000000000001
 31
0.0
  0
LINE
  5
1E8
330
56
100
AcDbEntity
  8
1
  6
Continuous
 62
     7
100
AcDbLine
 10
196.0
 20
21.50000000000001
 30
0.0
 11
191.0
 21
22.30000000000001
 31
0.0
  0
LINE
  5
1E9
330
56
100
AcDbEntity
  8
1
  6
DOT_CENTER
 62
     2
100
AcDbLine
 10
184.0
 20
23.50000000000001
 30
0.0
 11
197.0
 21
23.50000000000001
 31
0.0
  0
LINE
  5
1EA
330
56
100
AcDbEntity
  8
1
  6
DOT_CENTER
 62
     2
100
AcDbLine
 10
187.0
 20
26.50000000000001
 30
0.0
 11
187.0
 21
20.50000000000001
 31
0.0
  0
LINE
  5
1EB
330
56
100
AcDbEntity
  8
1
  6
Continuous
 62
     2
100
AcDbLine
 10
81.0
 20
27.00000000000001
 30
0.0
 11
81.0
 21
10.0
 31
0.0
  0
CIRCLE
  5
1EC
330
56
100
AcDbEntity
  8
1
  6
Continuous
 62
     7
100
AcDbCircle
 10
103.5
 20
12.5
 30
0.0
 40
0.2999999999999972
  0
CIRCLE
  5
1ED
330
56
100
AcDbEntity
  8
1
  6
Continuous
 62
     7
100
AcDbCircle
 10
109.5
 20
12.5
 30
0.0
 40
0.2999999999999972
  0
CIRCLE
  5
1EE
330
56
100
AcDbEntity
  8
1
  6
Continuous
 62
     7
100
AcDbCircle
 10
120.5
 20
12.5
 30
0.0
 40
0.2999999999999972
  0
CIRCLE
  5
1EF
330
56
100
AcDbEntity
  8
1
  6
Continuous
 62
     7
100
AcDbCircle
 10
126.5
 20
12.5
 30
0.0
 40
0.2999999999999972
  0
CIRCLE
  5
1F0
330
56
100
AcDbEntity
  8
1
  6
Continuous
 62
     7
100
AcDbCircle
 10
137.5
 20
12.5
 30
0.0
 40
0.3000000000000114
  0
CIRCLE
  5
1F1
330
56
100
AcDbEntity
  8
1
  6
Continuous
 62
     7
100
AcDbCircle
 10
143.5
 20
12.5
 30
0.0
 40
0.3000000000000114
  0
CIRCLE
  5
1F2
330
56
100
AcDbEntity
  8
1
  6
Continuous
 62
     7
100
AcDbCircle
 10
160.5
 20
12.5
 30
0.0
 40
0.3000000000000114
  0
CIRCLE
  5
1F3
330
56
100
AcDbEntity
  8
1
  6
Continuous
 62
     7
100
AcDbCircle
 10
154.5
 20
12.5
 30
0.0
 40
0.3000000000000114
  0
CIRCLE
  5
1F4
330
56
100
AcDbEntity
  8
1
  6
Continuous
 62
     7
100
AcDbCircle
 10
187.0
 20
23.50000000000001
 30
0.0
 40
1.200000000000102
  0
CIRCLE
  5
1F5
330
56
100
AcDbEntity
  8
1
  6
Continuous
 62
     7
100
AcDbCircle
 10
187.0
 20
23.50000000000001
 30
0.0
 40
2.0
  0
CIRCLE
  5
1F6
330
56
100
AcDbEntity
  8
1
  6
DOT_CENTER
 62
     7
100
AcDbCircle
 10
89.5
 20
16.0
 30
0.0
 40
0.1000000000000227
  0
CIRCLE
  5
1F7
330
56
100
AcDbEntity
  8
1
  6
DOT_CENTER
 62
     7
100
AcDbCircle
 10
89.5
 20
18.0
 30
0.0
 40
0.1000000000000227
  0
MTEXT
  5
1F9
330
56
100
AcDbEntity
  8
1
 62
     7
100
AcDbMText
 10
188.5
 20
15.0
 30
0.0
 40
3.0
 41
0.0
 71
     5
 72
     1
  1
三栄水栓製作所
  7
CONVERTER_1
 73
     1
 44
1.32052821128451
  0
MTEXT
  5
1FA
330
56
100
AcDbEntity
  8
1
 62
     7
100
AcDbMText
 10
171.5
 20
15.0
 30
0.0
 40
2.5
 41
0.0
 71
     5
 72
     1
  1
株式会社
  7
CONVERTER_1
 73
     1
 44
1.32052821128451
  0
MTEXT
  5
1FB
330
56
100
AcDbEntity
  8
1
 62
     2
100
AcDbMText
 10
32.5
 20
282.0000000000003
 30
0.0
 40
5.0
 41
0.0
 71
     5
 72
     1
  1
図番
  7
CONVERTER_1
 73
     1
 44
0.60024009603842
  0
MTEXT
  5
1FC
330
56
100
AcDbEntity
  8
1
 62
     2
100
AcDbMText
 10
29.0
 20
34.00000000000001
 30
0.0
 40
3.5
 41
0.0
 71
     5
 72
     1
  1
備考
  7
CONVERTER_1
 73
     1
 44
0.60024009603842
  0
MTEXT
  5
1FD
330
56
100
AcDbEntity
  8
1
 62
     2
100
AcDbMText
 10
29.0
 20
22.75
 30
0.0
 40
3.5
 41
0.0
 71
     5
 72
     1
  1
品名
  7
CONVERTER_1
 73
     1
 44
0.96038415366146
  0
MTEXT
  5
1FE
330
56
100
AcDbEntity
  8
1
 62
     2
100
AcDbMText
 10
29.0
 20
14.25
 30
0.0
 40
3.5
 41
0.0
 71
     5
 72
     1
  1
品番
  7
CONVERTER_1
 73
     1
 44
0.96038415366146
  0
MTEXT
  5
1FF
330
56
100
AcDbEntity
  8
1
 62
     2
100
AcDbMText
 10
101.5
 20
25.00000000000001
 30
0.0
 40
3.0
 41
0.0
 71
     5
 72
     1
  1
承認
  7
CONVERTER_1
 73
     1
 44
0.78031212484994
  0
MTEXT
  5
200
330
56
100
AcDbEntity
  8
1
 62
     2
100
AcDbMText
 10
175.0
 20
23.50000000000001
 30
0.0
 40
3.5
 41
0.0
 71
     5
 72
     1
  1
第三角法
  7
CONVERTER_1
 73
     1
 44
0.7202881152461
  0
MTEXT
  5
201
330
56
100
AcDbEntity
  8
1
 62
     2
100
AcDbMText
 10
118.5
 20
25.00000000000001
 30
0.0
 40
3.0
 41
0.0
 71
     5
 72
     1
  1
検図
  7
CONVERTER_1
 73
     1
 44
0.78031212484994
  0
MTEXT
  5
202
330
56
100
AcDbEntity
  8
1
 62
     2
100
AcDbMText
 10
152.5
 20
25.00000000000001
 30
0.0
 40
3.0
 41
0.0
 71
     5
 72
     1
  1
設計
  7
CONVERTER_1
 73
     1
 44
0.78031212484994
  0
MTEXT
  5
203
330
56
100
AcDbEntity
  8
1
 62
     2
100
AcDbMText
 10
135.5
 20
25.00000000000001
 30
0.0
 40
3.0
 41
0.0
 71
     5
 72
     1
  1
製図
  7
CONVERTER_1
 73
     1
 44
0.78031212484994
  0
MTEXT
  5
204
330
56
100
AcDbEntity
  8
1
 62
     2
100
AcDbMText
 10
89.5
 20
24.00000000000001
 30
0.0
 40
3.5
 41
0.0
 71
     5
 72
     1
  1
尺度
  7
CONVERTER_1
 73
     1
 44
0.7202881152461
  0
MTEXT
  5
205
330
56
100
AcDbEntity
  8
1
 62
   250
100
AcDbMText
 10
25.0
 20
5.0
 30
0.0
 40
3.5
 41
0.0
 71
     4
 72
     1
  1
備考欄の文字列 原点位置=4
  7
CONVERTER_1
 73
     1
 44
0.7202881152461
  0
ENDBLK
  5
58
330
56
100
AcDbEntity
  8
0
100
AcDbBlockEnd
  0
BLOCK
  5
222
330
21B
100
AcDbEntity
  8
0
100
AcDbBlockBegin
  2
*D012
 70
     1
 71
     0
 10
0.0
 20
0.0
 30
0.0
  3
*D012
  1

  0
LINE
  5
21C
330
21B
100
AcDbEntity
  8
1
  6
Continuous
 62
     2
100
AcDbLine
 10
367.0375011125198
 20
228.8193587774736
 30
0.0
 11
367.0375011125198
 21
168.8193587784902
 31
0.0
  0
LINE
  5
21D
330
21B
100
AcDbEntity
  8
1
  6
Continuous
 62
     2
100
AcDbLine
 10
331.5197299794997
 20
228.8193587774736
 30
0.0
 11
369.0375011125198
 21
228.8193587774736
 31
0.0
  0
LINE
  5
21E
330
21B
100
AcDbEntity
  8
1
  6
Continuous
 62
     2
100
AcDbLine
 10
331.5193806992201
 20
168.8193587784902
 30
0.0
 11
369.0375011125198
 21
168.8193587784902
 31
0.0
  0
SOLID
  5
21F
330
21B
100
AcDbEntity
  8
1
 62
     2
100
AcDbTrace
 10
367.9590685956316
 20
221.8193587774736
 30
0.0
 11
366.1159336294081
 21
221.8193587774736
 31
0.0
 12
367.0375011125198
 22
228.8193587774736
 32
0.0
 13
367.0375011125198
 23
228.8193587774736
 33
0.0
  0
SOLID
  5
220
330
21B
100
AcDbEntity
  8
1
 62
     2
100
AcDbTrace
 10
366.1159336294081
 20
175.8193587784902
 30
0.0
 11
367.9590685956316
 21
175.8193587784902
 31
0.0
 12
367.0375011125198
 22
168.8193587784902
 32
0.0
 13
367.0375011125198
 23
168.8193587784902
 33
0.0
  0
MTEXT
  5
221
330
21B
100
AcDbEntity
  8
1
 62
     7
100
AcDbMText
 10
365.0375011125198
 20
191.096857266366
 30
0.0
 40
7.0
 41
0.0
 71
     7
 72
     1
  1
{\Fgdt;n}60
  7
CONVERTER_2
 11
0.0
 21
1.0
 31
0.0
 73
     1
 44
0.60024009603842
  0
ENDBLK
  5
223
330
21B
100
AcDbEntity
  8
0
100
AcDbBlockEnd
  0
BLOCK
  5
22D
330
226
100
AcDbEntity
  8
0
100
AcDbBlockBegin
  2
*D113
 70
     1
 71
     0
 10
0.0
 20
0.0
 30
0.0
  3
*D113
  1

  0
LINE
  5
227
330
226
100
AcDbEntity
  8
1
  6
Continuous
 62
     2
100
AcDbLine
 10
253.0375011125197
 20
148.8193704211662
 30
0.0
 11
347.0375011125198
 21
148.8193704211662
 31
0.0
  0
LINE
  5
228
330
226
100
AcDbEntity
  8
1
  6
Continuous
 62
     2
100
AcDbLine
 10
253.0375011125197
 20
180.319815648546
 30
0.0
 11
253.0375011125197
 21
146.8193704211662
 31
0.0
  0
LINE
  5
229
330
226
100
AcDbEntity
  8
1
  6
Continuous
 62
     2
100
AcDbLine
 10
347.0375011125198
 20
190.5698156485459
 30
0.0
 11
347.0375011125198
 21
146.8193704211662
 31
0.0
  0
SOLID
  5
22A
330
226
100
AcDbEntity
  8
1
 62
     2
100
AcDbTrace
 10
260.0375011125197
 20
149.740937904278
 30
0.0
 11
260.0375011125197
 21
147.8978029380544
 31
0.0
 12
253.0375011125197
 22
148.8193704211662
 32
0.0
 13
253.0375011125197
 23
148.8193704211662
 33
0.0
  0
SOLID
  5
22B
330
226
100
AcDbEntity
  8
1
 62
     2
100
AcDbTrace
 10
340.0375011125198
 20
147.8978029380544
 30
0.0
 11
340.0375011125198
 21
149.740937904278
 31
0.0
 12
347.0375011125198
 22
148.8193704211662
 32
0.0
 13
347.0375011125198
 23
148.8193704211662
 33
0.0
  0
MTEXT
  5
22C
330
226
100
AcDbEntity
  8
1
 62
     7
100
AcDbMText
 10
294.838779306356
 20
150.8193704211662
 30
0.0
 40
7.0
 41
0.0
 71
     7
 72
     1
  1
94
  7
CONVERTER_2
 11
0.9999999999970621
 21
2.424068405545307E-6
 31
0.0
 73
     1
 44
0.60024009603842
  0
ENDBLK
  5
22E
330
226
100
AcDbEntity
  8
0
100
AcDbBlockEnd
  0
BLOCK
  5
238
330
231
100
AcDbEntity
  8
0
100
AcDbBlockBegin
  2
*D214
 70
     1
 71
     0
 10
0.0
 20
0.0
 30
0.0
  3
*D214
  1

  0
LINE
  5
232
330
231
100
AcDbEntity
  8
1
  6
Continuous
 62
     2
100
AcDbLine
 10
204.7375011125197
 20
148.8193704211662
 30
0.0
 11
253.0375011125197
 21
148.8193704211662
 31
0.0
  0
LINE
  5
233
330
231
100
AcDbEntity
  8
1
  6
Continuous
 62
     2
100
AcDbLine
 10
204.7375011125197
 20
198.8198156485459
 30
0.0
 11
204.7375011125197
 21
146.8193704211662
 31
0.0
  0
LINE
  5
234
330
231
100
AcDbEntity
  8
1
  6
Continuous
 62
     2
100
AcDbLine
 10
253.0375011125197
 20
180.319815648546
 30
0.0
 11
253.0375011125197
 21
146.8193704211662
 31
0.0
  0
SOLID
  5
235
330
231
100
AcDbEntity
  8
1
 62
     2
100
AcDbTrace
 10
211.7375011125197
 20
149.740937904278
 30
0.0
 11
211.7375011125197
 21
147.8978029380544
 31
0.0
 12
204.7375011125197
 22
148.8193704211662
 32
0.0
 13
204.7375011125197
 23
148.8193704211662
 33
0.0
  0
SOLID
  5
236
330
231
100
AcDbEntity
  8
1
 62
     2
100
AcDbTrace
 10
246.0375011125197
 20
147.8978029380544
 30
0.0
 11
246.0375011125197
 21
149.740937904278
 31
0.0
 12
253.0375011125197
 22
148.8193704211662
 32
0.0
 13
253.0375011125197
 23
148.8193704211662
 33
0.0
  0
MTEXT
  5
237
330
231
100
AcDbEntity
  8
1
 62
     7
100
AcDbMText
 10
210.108498365613
 20
150.8193704211662
 30
0.0
 40
7.0
 41
0.0
 71
     7
 72
     1
  1
49リフト5
  7
CONVERTER_1
 11
0.9999999999970621
 21
2.424068405545307E-6
 31
0.0
 73
     1
 44
0.60024009603842
  0
ENDBLK
  5
239
330
231
100
AcDbEntity
  8
0
100
AcDbBlockEnd
  0
BLOCK
  5
243
330
23C
100
AcDbEntity
  8
0
100
AcDbBlockBegin
  2
*D315
 70
     1
 71
     0
 10
0.0
 20
0.0
 30
0.0
  3
*D315
  1

  0
LINE
  5
23D
330
23C
100
AcDbEntity
  8
1
  6
Continuous
 62
     2
100
AcDbLine
 10
184.7375011125197
 20
228.8198156485459
 30
0.0
 11
184.7375011125197
 21
198.819815648546
 31
0.0
  0
LINE
  5
23E
330
23C
100
AcDbEntity
  8
1
  6
Continuous
 62
     2
100
AcDbLine
 10
240.5402271496497
 20
228.8198156485459
 30
0.0
 11
182.7375011125197
 21
228.8198156485459
 31
0.0
  0
LINE
  5
23F
330
23C
100
AcDbEntity
  8
1
  6
Continuous
 62
     2
100
AcDbLine
 10
198.7375011125197
 20
198.819815648546
 30
0.0
 11
182.7375011125197
 21
198.819815648546
 31
0.0
  0
SOLID
  5
240
330
23C
100
AcDbEntity
  8
1
 62
     2
100
AcDbTrace
 10
185.6590685956315
 20
221.8198156485459
 30
0.0
 11
183.8159336294079
 21
221.8198156485459
 31
0.0
 12
184.7375011125197
 22
228.8198156485459
 32
0.0
 13
184.7375011125197
 23
228.8198156485459
 33
0.0
  0
SOLID
  5
241
330
23C
100
AcDbEntity
  8
1
 62
     2
100
AcDbTrace
 10
183.8159336294079
 20
205.819815648546
 30
0.0
 11
185.6590685956315
 21
205.819815648546
 31
0.0
 12
184.7375011125197
 22
198.819815648546
 32
0.0
 13
184.7375011125197
 23
198.819815648546
 33
0.0
  0
MTEXT
  5
242
330
23C
100
AcDbEntity
  8
1
 62
     7
100
AcDbMText
 10
182.7375011125197
 20
206.347980360185
 30
0.0
 40
7.0
 41
0.0
 71
     7
 72
     1
  1
30
  7
CONVERTER_2
 11
0.0
 21
1.0
 31
0.0
 73
     1
 44
0.60024009603842
  0
ENDBLK
  5
244
330
23C
100
AcDbEntity
  8
0
100
AcDbBlockEnd
  0
BLOCK
  5
250
330
247
100
AcDbEntity
  8
0
100
AcDbBlockBegin
  2
*D416
 70
     1
 71
     0
 10
0.0
 20
0.0
 30
0.0
  3
*D416
  1

  0
LINE
  5
248
330
247
100
AcDbEntity
  8
1
  6
Continuous
 62
     2
100
AcDbLine
 10
157.3240925480319
 20
420.450022589581
 30
0.0
 11
157.3240925480319
 21
406.450022589581
 31
0.0
  0
LINE
  5
249
330
247
100
AcDbEntity
  8
1
  6
Continuous
 62
     2
100
AcDbLine
 10
157.3240925480319
 20
436.450022589581
 30
0.0
 11
157.3240925480319
 21
420.450022589581
 31
0.0
  0
LINE
  5
24A
330
247
100
AcDbEntity
  8
1
  6
Continuous
 62
     2
100
AcDbLine
 10
157.3240925480319
 20
450.450022589581
 30
0.0
 11
157.3240925480319
 21
436.450022589581
 31
0.0
  0
LINE
  5
24B
330
247
100
AcDbEntity
  8
1
  6
Continuous
 62
     2
100
AcDbLine
 10
137.3240925480319
 20
436.450022589581
 30
0.0
 11
159.3240925480319
 21
436.450022589581
 31
0.0
  0
LINE
  5
24C
330
247
100
AcDbEntity
  8
1
  6
Continuous
 62
     2
100
AcDbLine
 10
119.5282610247192
 20
420.450022589581
 30
0.0
 11
159.3240925480319
 21
420.450022589581
 31
0.0
  0
SOLID
  5
24D
330
247
100
AcDbEntity
  8
1
 62
     2
100
AcDbTrace
 10
156.4025250649201
 20
443.450022589581
 30
0.0
 11
158.2456600311437
 21
443.450022589581
 31
0.0
 12
157.3240925480319
 22
436.450022589581
 32
0.0
 13
157.3240925480319
 23
436.450022589581
 33
0.0
  0
SOLID
  5
24E
330
247
100
AcDbEntity
  8
1
 62
     2
100
AcDbTrace
 10
158.2456600311437
 20
413.450022589581
 30
0.0
 11
156.4025250649201
 21
413.450022589581
 31
0.0
 12
157.3240925480319
 22
420.450022589581
 32
0.0
 13
157.3240925480319
 23
420.450022589581
 33
0.0
  0
MTEXT
  5
24F
330
247
100
AcDbEntity
  8
1
 62
     7
100
AcDbMText
 10
155.3240925480319
 20
424.246160852214
 30
0.0
 40
7.0
 41
0.0
 71
     7
 72
     1
  1
16
  7
CONVERTER_2
 11
0.0
 21
1.0
 31
0.0
 73
     1
 44
0.60024009603842
  0
ENDBLK
  5
251
330
247
100
AcDbEntity
  8
0
100
AcDbBlockEnd
  0
BLOCK
  5
25C
330
254
100
AcDbEntity
  8
0
100
AcDbBlockBegin
  2
*D517
 70
     1
 71
     0
 10
0.0
 20
0.0
 30
0.0
  3
*D517
  1

  0
LINE
  5
255
330
254
100
AcDbEntity
  8
1
  6
Continuous
 62
     2
100
AcDbLine
 10
89.32622501261774
 20
394.2973119931553
 30
0.0
 11
115.3262250126178
 21
394.2973119931553
 31
0.0
  0
LINE
  5
256
330
254
100
AcDbEntity
  8
1
  6
Continuous
 62
     2
100
AcDbLine
 10
67.76263270791313
 20
394.2973119931553
 30
0.0
 11
89.32622501261774
 21
394.2973119931553
 31
0.0
  0
LINE
  5
257
330
254
100
AcDbEntity
  8
1
  6
Continuous
 62
     2
100
AcDbLine
 10
94.32409254803196
 20
385.6407514923188
 30
0.0
 11
88.32622501261773
 21
396.0293628007242
 31
0.0
  0
LINE
  5
258
330
254
100
AcDbEntity
  8
1
  6
Continuous
 62
     2
100
AcDbLine
 10
120.3240925480318
 20
385.6407514923191
 30
0.0
 11
114.3262250126178
 21
396.0293628007242
 31
0.0
  0
SOLID
  5
259
330
254
100
AcDbEntity
  8
1
 62
     2
100
AcDbTrace
 10
96.32622501261774
 20
395.218879476267
 30
0.0
 11
96.32622501261774
 21
393.3757445100436
 31
0.0
 12
89.32622501261774
 22
394.2973119931553
 32
0.0
 13
89.32622501261774
 23
394.2973119931553
 33
0.0
  0
SOLID
  5
25A
330
254
100
AcDbEntity
  8
1
 62
     2
100
AcDbTrace
 10
108.3262250126178
 20
393.3757445100436
 30
0.0
 11
108.3262250126178
 21
395.218879476267
 31
0.0
 12
115.3262250126178
 22
394.2973119931553
 32
0.0
 13
115.3262250126178
 23
394.2973119931553
 33
0.0
  0
MTEXT
  5
25B
330
254
100
AcDbEntity
  8
1
 62
     7
100
AcDbMText
 10
67.76263270791313
 20
396.2973119931553
 30
0.0
 40
7.0
 41
0.0
 71
     7
 72
     1
  1
26
  7
CONVERTER_2
 11
0.9999999999970621
 21
2.424068405545307E-6
 31
0.0
 73
     1
 44
0.60024009603842
  0
ENDBLK
  5
25D
330
254
100
AcDbEntity
  8
0
100
AcDbBlockEnd
  0
BLOCK
  5
267
330
260
100
AcDbEntity
  8
0
100
AcDbBlockBegin
  2
*D618
 70
     1
 71
     0
 10
0.0
 20
0.0
 30
0.0
  3
*D618
  1

  0
LINE
  5
261
330
260
100
AcDbEntity
  8
1
  6
Continuous
 62
     2
100
AcDbLine
 10
95.71019830853832
 20
255.4646023449001
 30
0.0
 11
118.7101983085383
 21
255.4646023449001
 31
0.0
  0
LINE
  5
262
330
260
100
AcDbEntity
  8
1
  6
Continuous
 62
     2
100
AcDbLine
 10
118.7101983085383
 20
234.1942740636338
 30
0.0
 11
118.7101983085383
 21
257.4646023449001
 31
0.0
  0
LINE
  5
263
330
260
100
AcDbEntity
  8
1
  6
Continuous
 62
     2
100
AcDbLine
 10
95.71019830853832
 20
234.1942740636338
 30
0.0
 11
95.71019830853832
 21
257.4646023449001
 31
0.0
  0
SOLID
  5
264
330
260
100
AcDbEntity
  8
1
 62
     2
100
AcDbTrace
 10
102.7101983085383
 20
256.3861698280118
 30
0.0
 11
102.7101983085383
 21
254.5430348617883
 31
0.0
 12
95.71019830853832
 22
255.4646023449001
 32
0.0
 13
95.71019830853832
 23
255.4646023449001
 33
0.0
  0
SOLID
  5
265
330
260
100
AcDbEntity
  8
1
 62
     2
100
AcDbTrace
 10
111.7101983085383
 20
254.5430348617883
 30
0.0
 11
111.7101983085383
 21
256.3861698280118
 31
0.0
 12
118.7101983085383
 22
255.4646023449001
 32
0.0
 13
118.7101983085383
 23
255.4646023449001
 33
0.0
  0
MTEXT
  5
266
330
260
100
AcDbEntity
  8
1
 62
     7
100
AcDbMText
 10
102.2967665759819
 20
257.4646023449001
 30
0.0
 40
7.0
 41
0.0
 71
     7
 72
     1
  1
23
  7
CONVERTER_2
 11
0.9999999999970621
 21
2.424068405545307E-6
 31
0.0
 73
     1
 44
0.60024009603842
  0
ENDBLK
  5
268
330
260
100
AcDbEntity
  8
0
100
AcDbBlockEnd
  0
ENDSEC
  0
SECTION
  2
ENTITIES
  0
INSERT
  5
59
330
1F
100
AcDbEntity
  8
1
100
AcDbBlockReference
  2
V22-0A-13
 10
133.7385709387331
 20
1759.277740897449
 30
0.0
  0
INSERT
  5
5A
330
1F
100
AcDbEntity
  8
1
100
AcDbBlockReference
  2
64-7-13-75-M11
 10
117.8035983667644
 20
890.0391616975921
 30
0.0
  0
INSERT
  5
5B
330
1F
100
AcDbEntity
  8
0
100
AcDbBlockReference
  2
78-167
 10
278.5990671769985
 20
442.8028885126713
 30
0.0
  0
INSERT
  5
5C
330
1F
100
AcDbEntity
  8
1
100
AcDbBlockReference
  2
V22-0A-13-__________
 10
0.00000000000004
 20
1633.5
 30
0.0
  0
INSERT
  5
5D
330
1F
100
AcDbEntity
  8
0
100
AcDbBlockReference
  2
36-1A-13
 10
356.6066271219559
 20
66.43768963910969
 30
0.0
  0
INSERT
  5
5E
330
1F
100
AcDbEntity
  8
0
100
AcDbBlockReference
  2
32-12
 10
240.5375011125197
 20
202.6303292860237
 30
0.0
  0
INSERT
  5
5F
330
1F
100
AcDbEntity
  8
0
100
AcDbBlockReference
  2
37-1-13
 10
1714.210563554359
 20
-329.0466441246867
 30
0.0
  0
INSERT
  5
60
330
1F
100
AcDbEntity
  8
0
100
AcDbBlockReference
  2
R10A
 10
1408.773773155131
 20
-542.9210058096198
 30
0.0
  0
INSERT
  5
61
330
1F
100
AcDbEntity
  8
1
100
AcDbBlockReference
  2
_J__A4
 10
0.0
 20
0.0
 30
0.0
 41
2.0
 42
2.0
 43
2.0
  0
LINE
  5
206
330
1F
100
AcDbEntity
  8
1
  6
DASH_CENTER
 62
     2
100
AcDbLine
 10
253.0375011125197
 20
180.319815648546
 30
0.0
 11
253.0375011125197
 21
241.3198156485459
 31
0.0
  0
LINE
  5
207
330
1F
100
AcDbEntity
  8
1
  6
DASH_CENTER
 62
     2
100
AcDbLine
 10
198.7375011125197
 20
198.819815648546
 30
0.0
 11
353.0375011125198
 21
198.819815648546
 31
0.0
  0
LINE
  5
208
330
1F
100
AcDbEntity
  8
1
  6
DASH_CENTER
 62
     2
100
AcDbLine
 10
71.32409254803167
 20
198.819815648546
 30
0.0
 11
143.3240925480317
 21
198.819815648546
 31
0.0
  0
LINE
  5
209
330
1F
100
AcDbEntity
  8
1
  6
DASH_CENTER
 62
     2
100
AcDbLine
 10
89.1279401253253
 20
188.3142621490808
 30
0.0
 11
139.3670324880562
 21
217.3198156485459
 31
0.0
  0
LINE
  5
20A
330
1F
100
AcDbEntity
  8
1
  6
DASH_CENTER
 62
     2
100
AcDbLine
 10
75.28115260800765
 20
217.319815648546
 30
0.0
 11
125.5202449707385
 21
188.3142621490808
 31
0.0
  0
LINE
  5
20B
330
1F
100
AcDbEntity
  8
1
  6
DASH_CENTER
 62
     2
100
AcDbLine
 10
107.324092548032
 20
241.3198156485459
 30
0.0
 11
107.324092548032
 21
161.8198156485458
 31
0.0
  0
LINE
  5
20C
330
1F
100
AcDbEntity
  8
1
  6
DASH_CENTER
 62
     2
100
AcDbLine
 10
88.8240925480319
 20
357.8907514923188
 30
0.0
 11
125.8240925480319
 21
357.8907514923188
 31
0.0
  0
LINE
  5
20D
330
1F
100
AcDbEntity
  8
1
  6
DASH_CENTER
 62
     2
100
AcDbLine
 10
107.324092548032
 20
303.6679683614109
 30
0.0
 11
107.324092548032
 21
457.9679683614111
 31
0.0
  0
SOLID
  5
20E
330
1F
100
AcDbEntity
  8
1
 62
     2
100
AcDbTrace
 10
238.2394002608434
 20
226.7974549373492
 30
0.0
 11
239.8356019641963
 21
227.719022420461
 31
0.0
 12
242.5375011125198
 22
221.196060852414
 32
0.0
 13
242.5375011125198
 23
221.196060852414
 33
0.0
  0
LEADER
  5
20F
330
1F
100
AcDbEntity
  8
1
  6
Continuous
 62
     2
100
AcDbLeader
  3
Standard
 71
     0
 76
     3
 10
242.5375011125198
 20
221.196060852414
 30
0.0
 10
231.3296775306703
 20
240.608580738446
 30
0.0
 10
202.591014711652
 20
240.608580738446
 30
0.0
  0
SOLID
  5
210
330
1F
100
AcDbEntity
  8
1
 62
     2
100
AcDbTrace
 10
341.6048402355966
 20
215.8334792373033
 30
0.0
 11
343.2010419389496
 21
214.9119117541915
 31
0.0
 12
338.9029410872731
 22
209.3105176692563
 32
0.0
 13
338.9029410872731
 23
209.3105176692563
 33
0.0
  0
LEADER
  5
211
330
1F
100
AcDbEntity
  8
1
  6
Continuous
 62
     2
100
AcDbLeader
  3
Standard
 71
     0
 76
     3
 10
338.9029410872731
 20
209.3105176692563
 30
0.0
 10
356.9728862253837
 20
240.608580738446
 30
0.0
 10
383.859971684444
 20
240.608580738446
 30
0.0
  0
MTEXT
  5
212
330
1F
100
AcDbEntity
  8
1
 62
     7
100
AcDbMText
 10
68.0
 20
61.00000000000001
 30
0.0
 40
7.0
 41
0.0
 71
     4
 72
     1
  1
共用形
  7
CONVERTER_1
 73
     1
 44
0.7202881152461
  0
MTEXT
  5
214
330
1F
100
AcDbEntity
  8
1
 62
     7
100
AcDbMText
 10
216.9603461211611
 20
246.608580738446
 30
0.0
 40
7.0
 41
0.0
 71
     5
 72
     1
  1
PJ1/2
  7
CONVERTER_2
 73
     1
 44
0.7202881152461
  0
MTEXT
  5
215
330
1F
100
AcDbEntity
  8
0
 62
     7
100
AcDbMText
 10
370.4164289549138
 20
246.608580738446
 30
0.0
 40
7.0
 41
0.0
 71
     5
 72
     1
  1
R1/2
  7
CONVERTER_2
 73
     1
 44
1.32052821128451
  0
MTEXT
  5
216
330
1F
100
AcDbEntity
  8
1
 62
     7
100
AcDbMText
 10
68.0
 20
74.99999999999999
 30
0.0
 40
7.0
 41
0.0
 71
     4
 72
     1
  1
JIS
  7
CONVERTER_2
 73
     1
 44
1.32052821128451
  0
MTEXT
  5
217
330
1F
100
AcDbEntity
  8
1
 62
     7
100
AcDbMText
 10
114.0
 20
45.50000000000001
 30
0.0
 40
7.0
 41
0.0
 71
     5
 72
     1
  1
止水栓本体
  7
CONVERTER_1
 73
     1
 44
1.32052821128451
  0
MTEXT
  5
218
330
1F
100
AcDbEntity
  8
1
 62
     7
100
AcDbMText
 10
114.0
 20
28.50000000000001
 30
0.0
 40
7.0
 41
0.0
 71
     5
 72
     1
  1
V22A-X-13
  7
CONVERTER_2
 73
     1
 44
0.78031212484994
  0
MTEXT
  5
219
330
1F
100
AcDbEntity
  8
0
 62
     7
100
AcDbMText
 10
170.5
 20
34.0
 30
0.0
 40
7.0
 41
0.0
 71
     5
 72
     1
  1
1
  7
CONVERTER_2
 73
     1
 44
0.7202881152461
  0
MTEXT
  5
21A
330
1F
100
AcDbEntity
  8
0
 62
     7
100
AcDbMText
 10
187.5
 20
34.0
 30
0.0
 40
7.0
 41
0.0
 71
     5
 72
     1
  1
2
  7
CONVERTER_2
 73
     1
 44
0.7202881152461
  0
DIMENSION
  5
225
330
1F
100
AcDbEntity
  8
1
100
AcDbDimension
  2
*D012
 10
367.0375011125198
 20
228.8193587774736
 30
0.0
 11
361.5375011125198
 21
199.846857266366
 31
0.0
  1
^N1^O60
 71
     5
 42
0.0
 53
90.0
  3
ME10_DIM_0
100
AcDbAlignedDimension
 13
331.5193806992201
 23
168.8193587784902
 33
0.0
 14
331.5197299794996
 24
228.8193587774736
 34
0.0
 50
90.0
100
AcDbRotatedDimension
  0
DIMENSION
  5
230
330
1F
100
AcDbEntity
  8
1
100
AcDbDimension
  2
*D113
 10
253.0375011125197
 20
148.8193704211662
 30
0.0
 11
300.088779306356
 21
154.3193704211662
 31
0.0
  1
<>
 71
     5
 42
0.0
 53
0.00013888888889
  3
ME10_DIM_1
100
AcDbAlignedDimension
 13
347.0375011125198
 23
190.5698156485459
 33
0.0
 14
253.0375011125197
 24
180.319815648546
 34
0.0
100
AcDbRotatedDimension
  0
DIMENSION
  5
23B
330
1F
100
AcDbEntity
  8
1
100
AcDbDimension
  2
*D214
 10
204.7375011125197
 20
148.8193704211662
 30
0.0
 11
229.008498365613
 21
154.3193704211662
 31
0.0
  1
49リフト5
 71
     5
 42
0.0
 53
0.00013888888889
  3
ME10_DIM_2
100
AcDbAlignedDimension
 13
253.0375011125197
 23
180.319815648546
 33
0.0
 14
204.7375011125197
 24
198.8198156485459
 34
0.0
100
AcDbRotatedDimension
  0
DIMENSION
  5
246
330
1F
100
AcDbEntity
  8
1
100
AcDbDimension
  2
*D315
 10
184.7375011125197
 20
228.8198156485459
 30
0.0
 11
179.2375011125197
 21
211.597980360185
 31
0.0
  1
<>
 71
     5
 42
0.0
 53
90.0
  3
ME10_DIM_3
100
AcDbAlignedDimension
 13
198.7375011125197
 23
198.819815648546
 33
0.0
 14
240.5402271496497
 24
228.8198156485459
 34
0.0
 50
90.0
100
AcDbRotatedDimension
  0
DIMENSION
  5
253
330
1F
100
AcDbEntity
  8
1
100
AcDbDimension
  2
*D416
 10
157.3240925480319
 20
436.450022589581
 30
0.0
 11
151.8240925480319
 21
428.446160852214
 31
0.0
  1
<>
 71
     5
 42
0.0
 53
90.0
  3
ME10_DIM_4
100
AcDbAlignedDimension
 13
119.5282610247192
 23
420.450022589581
 33
0.0
 14
137.3240925480319
 24
436.450022589581
 34
0.0
 50
90.0
100
AcDbRotatedDimension
  0
DIMENSION
  5
25F
330
1F
100
AcDbEntity
  8
1
100
AcDbDimension
  2
*D517
 10
89.32622501261774
 20
394.2973119931553
 30
0.0
 11
73.01263270791313
 21
399.7973119931553
 31
0.0
 70
     1
  1
<>
 71
     5
 42
0.0
 52
120.0
 53
0.00013888888889
  3
ME10_DIM_5
100
AcDbAlignedDimension
 13
120.3240925480318
 23
385.6407514923191
 33
0.0
 14
94.32409254803194
 24
385.6407514923188
 34
0.0
  0
DIMENSION
  5
26A
330
1F
100
AcDbEntity
  8
1
100
AcDbDimension
  2
*D618
 10
95.71019830853832
 20
255.4646023449001
 30
0.0
 11
107.5467665759819
 21
260.9646023449001
 31
0.0
  1
<>
 71
     5
 42
0.0
 53
0.00013888888889
  3
ME10_DIM_6
100
AcDbAlignedDimension
 13
118.7101983085383
 23
234.1942740636338
 33
0.0
 14
95.71019830853835
 24
234.1942740636338
 34
0.0
100
AcDbRotatedDimension
  0
ENDSEC
  0
SECTION
  2
OBJECTS
  0
DICTIONARY
  5
C
330
0
100
AcDbDictionary
281
     1
  3
ACAD_GROUP
350
D
  3
ACAD_LAYOUT
350
1A
  3
ACAD_MLINESTYLE
350
17
  3
ACAD_PLOTSETTINGS
350
19
  3
ACAD_PLOTSTYLENAME
350
E
  3
ACAD_TABLESTYLE
350
2A
  3
AcDbVariableDictionary
350
2C
  0
DICTIONARY
  5
D
102
{ACAD_REACTORS
330
C
102
}
330
C
100
AcDbDictionary
281
     1
  0
DICTIONARY
  5
1A
102
{ACAD_REACTORS
330
C
102
}
330
C
100
AcDbDictionary
281
     1
  3
Layout1
350
1E
  3
Layout2
350
26
  3
Model
350
22
  0
DICTIONARY
  5
17
102
{ACAD_REACTORS
330
C
102
}
330
C
100
AcDbDictionary
281
     1
  3
Standard
350
18
  0
DICTIONARY
  5
19
102
{ACAD_REACTORS
330
C
102
}
330
C
100
AcDbDictionary
281
     1
  0
ACDBDICTIONARYWDFLT
  5
E
102
{ACAD_REACTORS
330
C
102
}
330
C
100
AcDbDictionary
281
     1
  3
Normal
350
F
100
AcDbDictionaryWithDefault
340
F
  0
DICTIONARY
  5
2A
102
{ACAD_REACTORS
330
C
102
}
330
C
100
AcDbDictionary
281
     1
  3
Standard
350
2B
  0
DICTIONARY
  5
2C
102
{ACAD_REACTORS
330
C
102
}
330
C
100
AcDbDictionary
281
     1
  3
CTABLESTYLE
350
2D
  0
LAYOUT
  5
1E
102
{ACAD_REACTORS
330
1A
102
}
330
1A
100
AcDbPlotSettings
  1

  2

  4

  6

 40
0.0
 41
0.0
 42
0.0
 43
0.0
 44
0.0
 45
0.0
 46
0.0
 47
0.0
 48
0.0
 49
0.0
140
0.0
141
0.0
142
1.0
143
1.0
 70
   688
 72
     0
 73
     0
 74
     5
  7

 75
    16
147
1.0
148
0.0
149
0.0
100
AcDbLayout
  1
Layout1
 70
     1
 71
     1
 10
0.0
 20
0.0
 11
12.0
 21
9.0
 12
0.0
 22
0.0
 32
0.0
 14
1.00000000000000E+20
 24
1.00000000000000E+20
 34
1.00000000000000E+20
 15
-1.00000000000000E+20
 25
-1.00000000000000E+20
 35
-1.00000000000000E+20
146
0.0
 13
0.0
 23
0.0
 33
0.0
 16
1.0
 26
0.0
 36
0.0
 17
0.0
 27
1.0
 37
0.0
 76
     0
330
1B
  0
LAYOUT
  5
26
102
{ACAD_REACTORS
330
1A
102
}
330
1A
100
AcDbPlotSettings
  1

  2

  4

  6

 40
0.0
 41
0.0
 42
0.0
 43
0.0
 44
0.0
 45
0.0
 46
0.0
 47
0.0
 48
0.0
 49
0.0
140
0.0
141
0.0
142
1.0
143
1.0
 70
   688
 72
     0
 73
     0
 74
     5
  7

 75
    16
147
1.0
148
0.0
149
0.0
100
AcDbLayout
  1
Layout2
 70
     1
 71
     2
 10
0.0
 20
0.0
 11
0.0
 21
0.0
 12
0.0
 22
0.0
 32
0.0
 14
0.0
 24
0.0
 34
0.0
 15
0.0
 25
0.0
 35
0.0
146
0.0
 13
0.0
 23
0.0
 33
0.0
 16
1.0
 26
0.0
 36
0.0
 17
0.0
 27
1.0
 37
0.0
 76
     0
330
23
  0
LAYOUT
  5
22
102
{ACAD_REACTORS
330
1A
102
}
330
1A
100
AcDbPlotSettings
  1

  2

  4

  6

 40
0.0
 41
0.0
 42
0.0
 43
0.0
 44
0.0
 45
0.0
 46
0.0
 47
0.0
 48
0.0
 49
0.0
140
0.0
141
0.0
142
1.0
143
1.0
 70
  1712
 72
     0
 73
     0
 74
     0
  7

 75
     0
147
1.0
148
0.0
149
0.0
100
AcDbLayout
  1
Model
 70
     1
 71
     0
 10
0.0
 20
0.0
 11
0.0
 21
0.0
 12
0.0
 22
0.0
 32
0.0
 14
0.0
 24
0.0
 34
0.0
 15
420.0
 25
594.0
 35
0.0
146
0.0
 13
0.0
 23
0.0
 33
0.0
 16
1.0
 26
0.0
 36
0.0
 17
0.0
 27
1.0
 37
0.0
 76
     0
330
1F
  0
MLINESTYLE
  5
18
102
{ACAD_REACTORS
330
17
102
}
330
17
100
AcDbMlineStyle
  2
Standard
 70
     0
  3

 62
   256
 51
90.0
 52
90.0
 71
     2
 49
0.5
 62
   256
  6
BYLAYER
 49
-0.5
 62
   256
  6
BYLAYER
  0
ACDBPLACEHOLDER
  5
F
102
{ACAD_REACTORS
330
E
102
}
330
E
  0
TABLESTYLE
  5
2B
102
{ACAD_REACTORS
330
2A
102
}
330
2A
100
AcDbTableStyle
  3
Standard
 70
     0
 71
     0
 40
0.06
 41
0.06
280
     0
281
     0
  7
Standard
140
0.18
170
     2
 62
     0
 63
     7
283
     0
274
    -2
284
     1
 64
     0
275
    -2
285
     1
 65
     0
276
    -2
286
     1
 66
     0
277
    -2
287
     1
 67
     0
278
    -2
288
     1
 68
     0
279
    -2
289
     1
 69
     0
  7
Standard
140
0.25
170
     5
 62
     0
 63
     7
283
     0
274
    -2
284
     1
 64
     0
275
    -2
285
     1
 65
     0
276
    -2
286
     1
 66
     0
277
    -2
287
     1
 67
     0
278
    -2
288
     1
 68
     0
279
    -2
289
     1
 69
     0
  7
Standard
140
0.18
170
     5
 62
     0
 63
     7
283
     0
274
    -2
284
     1
 64
     0
275
    -2
285
     1
 65
     0
276
    -2
286
     1
 66
     0
277
    -2
287
     1
 67
     0
278
    -2
288
     1
 68
     0
279
    -2
289
     1
 69
     0
  0
DICTIONARYVAR
  5
2D
102
{ACAD_REACTORS
330
2C
102
}
330
2C
100
DictionaryVariables
280
     0
  1
Standard
  0
ENDSEC
  0
EOF
