  0
SECTION
  2
HEADER
  9
$ACADVER
  1
AC1015
  9
$ACADMAINTVER
 70
     6
  9
$DWGCODEPAGE
  3
ANSI_932
  9
$INSBASE
 10
0.0
 20
0.0
 30
0.0
  9
$EXTMIN
 10
0.00000000000004
 20
0.0
 30
0.0
  9
$EXTMAX
 10
315.0000000000002
 20
445.5
 30
0.0
  9
$LIMMIN
 10
0.0
 20
0.0
  9
$LIMMAX
 10
12.0
 20
9.0
  9
$ORTHOMODE
 70
     0
  9
$REGENMODE
 70
     1
  9
$FILLMODE
 70
     1
  9
$QTEXTMODE
 70
     0
  9
$MIRRTEXT
 70
     1
  9
$LTSCALE
 40
1.0
  9
$ATTMODE
 70
     1
  9
$TEXTSIZE
 40
0.2
  9
$TRACEWID
 40
0.05
  9
$TEXTSTYLE
  7
Standard
  9
$CLAYER
  8
0
  9
$CELTYPE
  6
ByLayer
  9
$CECOLOR
 62
   256
  9
$CELTSCALE
 40
1.0
  9
$DISPSILH
 70
     0
  9
$DIMSCALE
 40
1.0
  9
$DIMASZ
 40
0.18
  9
$DIMEXO
 40
0.0625
  9
$DIMDLI
 40
0.38
  9
$DIMRND
 40
0.0
  9
$DIMDLE
 40
0.0
  9
$DIMEXE
 40
0.18
  9
$DIMTP
 40
0.0
  9
$DIMTM
 40
0.0
  9
$DIMTXT
 40
0.18
  9
$DIMCEN
 40
0.09
  9
$DIMTSZ
 40
0.0
  9
$DIMTOL
 70
     0
  9
$DIMLIM
 70
     0
  9
$DIMTIH
 70
     1
  9
$DIMTOH
 70
     1
  9
$DIMSE1
 70
     0
  9
$DIMSE2
 70
     0
  9
$DIMTAD
 70
     0
  9
$DIMZIN
 70
     0
  9
$DIMBLK
  1

  9
$DIMASO
 70
     1
  9
$DIMSHO
 70
     1
  9
$DIMPOST
  1

  9
$DIMAPOST
  1

  9
$DIMALT
 70
     0
  9
$DIMALTD
 70
     2
  9
$DIMALTF
 40
25.4
  9
$DIMLFAC
 40
1.0
  9
$DIMTOFL
 70
     0
  9
$DIMTVP
 40
0.0
  9
$DIMTIX
 70
     0
  9
$DIMSOXD
 70
     0
  9
$DIMSAH
 70
     0
  9
$DIMBLK1
  1

  9
$DIMBLK2
  1

  9
$DIMSTYLE
  2
Standard
  9
$DIMCLRD
 70
     0
  9
$DIMCLRE
 70
     0
  9
$DIMCLRT
 70
     0
  9
$DIMTFAC
 40
1.0
  9
$DIMGAP
 40
0.09
  9
$DIMJUST
 70
     0
  9
$DIMSD1
 70
     0
  9
$DIMSD2
 70
     0
  9
$DIMTOLJ
 70
     1
  9
$DIMTZIN
 70
     0
  9
$DIMALTZ
 70
     0
  9
$DIMALTTZ
 70
     0
  9
$DIMUPT
 70
     0
  9
$DIMDEC
 70
     4
  9
$DIMTDEC
 70
     4
  9
$DIMALTU
 70
     2
  9
$DIMALTTD
 70
     2
  9
$DIMTXSTY
  7
Standard
  9
$DIMAUNIT
 70
     0
  9
$DIMADEC
 70
     0
  9
$DIMALTRND
 40
0.0
  9
$DIMAZIN
 70
     0
  9
$DIMDSEP
 70
    46
  9
$DIMATFIT
 70
     3
  9
$DIMFRAC
 70
     0
  9
$DIMLDRBLK
  1

  9
$DIMLUNIT
 70
     2
  9
$DIMLWD
 70
    -2
  9
$DIMLWE
 70
    -2
  9
$DIMTMOVE
 70
     0
  9
$LUNITS
 70
     2
  9
$LUPREC
 70
     4
  9
$SKETCHINC
 40
0.1
  9
$FILLETRAD
 40
0.5
  9
$AUNITS
 70
     0
  9
$AUPREC
 70
     0
  9
$MENU
  1
.
  9
$ELEVATION
 40
0.0
  9
$PELEVATION
 40
0.0
  9
$THICKNESS
 40
0.0
  9
$LIMCHECK
 70
     0
  9
$CHAMFERA
 40
0.5
  9
$CHAMFERB
 40
0.5
  9
$CHAMFERC
 40
1.0
  9
$CHAMFERD
 40
0.0
  9
$SKPOLY
 70
     0
  9
$TDCREATE
 40
2457206.728881215
  9
$TDUCREATE
 40
2457206.353881215
  9
$TDUPDATE
 40
2457206.728882477
  9
$TDUUPDATE
 40
2457206.353882477
  9
$TDINDWG
 40
0.0000000116
  9
$TDUSRTIMER
 40
0.0000000116
  9
$USRTIMER
 70
     1
  9
$ANGBASE
 50
0.0
  9
$ANGDIR
 70
     0
  9
$PDMODE
 70
     0
  9
$PDSIZE
 40
0.0
  9
$PLINEWID
 40
0.0
  9
$SPLFRAME
 70
     0
  9
$SPLINETYPE
 70
     6
  9
$SPLINESEGS
 70
     8
  9
$HANDSEED
  5
270
  9
$SURFTAB1
 70
     6
  9
$SURFTAB2
 70
     6
  9
$SURFTYPE
 70
     6
  9
$SURFU
 70
     6
  9
$SURFV
 70
     6
  9
$UCSBASE
  2

  9
$UCSNAME
  2

  9
$UCSORG
 10
0.0
 20
0.0
 30
0.0
  9
$UCSXDIR
 10
1.0
 20
0.0
 30
0.0
  9
$UCSYDIR
 10
0.0
 20
1.0
 30
0.0
  9
$UCSORTHOREF
  2

  9
$UCSORTHOVIEW
 70
     0
  9
$UCSORGTOP
 10
0.0
 20
0.0
 30
0.0
  9
$UCSORGBOTTOM
 10
0.0
 20
0.0
 30
0.0
  9
$UCSORGLEFT
 10
0.0
 20
0.0
 30
0.0
  9
$UCSORGRIGHT
 10
0.0
 20
0.0
 30
0.0
  9
$UCSORGFRONT
 10
0.0
 20
0.0
 30
0.0
  9
$UCSORGBACK
 10
0.0
 20
0.0
 30
0.0
  9
$PUCSBASE
  2

  9
$PUCSNAME
  2

  9
$PUCSORG
 10
0.0
 20
0.0
 30
0.0
  9
$PUCSXDIR
 10
1.0
 20
0.0
 30
0.0
  9
$PUCSYDIR
 10
0.0
 20
1.0
 30
0.0
  9
$PUCSORTHOREF
  2

  9
$PUCSORTHOVIEW
 70
     0
  9
$PUCSORGTOP
 10
0.0
 20
0.0
 30
0.0
  9
$PUCSORGBOTTOM
 10
0.0
 20
0.0
 30
0.0
  9
$PUCSORGLEFT
 10
0.0
 20
0.0
 30
0.0
  9
$PUCSORGRIGHT
 10
0.0
 20
0.0
 30
0.0
  9
$PUCSORGFRONT
 10
0.0
 20
0.0
 30
0.0
  9
$PUCSORGBACK
 10
0.0
 20
0.0
 30
0.0
  9
$USERI1
 70
     0
  9
$USERI2
 70
     0
  9
$USERI3
 70
     0
  9
$USERI4
 70
     0
  9
$USERI5
 70
     0
  9
$USERR1
 40
18.1
  9
$USERR2
 40
0.0
  9
$USERR3
 40
0.0
  9
$USERR4
 40
0.0
  9
$USERR5
 40
0.0
  9
$WORLDVIEW
 70
     1
  9
$SHADEDGE
 70
     3
  9
$SHADEDIF
 70
    70
  9
$TILEMODE
 70
     1
  9
$MAXACTVP
 70
    64
  9
$PINSBASE
 10
0.0
 20
0.0
 30
0.0
  9
$PLIMCHECK
 70
     0
  9
$PEXTMIN
 10
1.00000000000000E+20
 20
1.00000000000000E+20
 30
1.00000000000000E+20
  9
$PEXTMAX
 10
-1.00000000000000E+20
 20
-1.00000000000000E+20
 30
-1.00000000000000E+20
  9
$PLIMMIN
 10
0.0
 20
0.0
  9
$PLIMMAX
 10
12.0
 20
9.0
  9
$UNITMODE
 70
     0
  9
$VISRETAIN
 70
     1
  9
$PLINEGEN
 70
     0
  9
$PSLTSCALE
 70
     1
  9
$TREEDEPTH
 70
  3020
  9
$CMLSTYLE
  2
Standard
  9
$CMLJUST
 70
     0
  9
$CMLSCALE
 40
1.0
  9
$PROXYGRAPHICS
 70
     1
  9
$MEASUREMENT
 70
     1
  9
$CELWEIGHT
370
    -1
  9
$ENDCAPS
280
     0
  9
$JOINSTYLE
280
     0
  9
$LWDISPLAY
290
     0
  9
$INSUNITS
 70
     4
  9
$HYPERLINKBASE
  1

  9
$STYLESHEET
  1

  9
$XEDIT
290
     1
  9
$CEPSNTYPE
380
     0
  9
$PSTYLEMODE
290
     1
  9
$FINGERPRINTGUID
  2
{4227C40A-63CE-4FF5-AA2E-C9A44B2011A3}
  9
$VERSIONGUID
  2
{FAEB1C32-E019-11D5-929B-00C0DF256EC4}
  9
$EXTNAMES
290
     1
  9
$PSVPSCALE
 40
0.0
  9
$OLESTARTUP
290
     0
  0
ENDSEC
  0
SECTION
  2
CLASSES
  0
CLASS
  1
ACDBDICTIONARYWDFLT
  2
AcDbDictionaryWithDefault
  3
ObjectDBX Classes
 90
        0
280
     0
281
     0
  0
CLASS
  1
VISUALSTYLE
  2
AcDbVisualStyle
  3
ObjectDBX Classes
 90
     4095
280
     0
281
     0
  0
CLASS
  1
MATERIAL
  2
AcDbMaterial
  3
ObjectDBX Classes
 90
     1153
280
     0
281
     0
  0
CLASS
  1
DICTIONARYVAR
  2
AcDbDictionaryVar
  3
ObjectDBX Classes
 90
        0
280
     0
281
     0
  0
CLASS
  1
ACDBPLACEHOLDER
  2
AcDbPlaceHolder
  3
ObjectDBX Classes
 90
        0
280
     0
281
     0
  0
CLASS
  1
LAYOUT
  2
AcDbLayout
  3
ObjectDBX Classes
 90
        0
280
     0
281
     0
  0
ENDSEC
  0
SECTION
  2
TABLES
  0
TABLE
  2
VPORT
  5
8
330
0
100
AcDbSymbolTable
 70
     1
  0
VPORT
  5
29
330
8
100
AcDbSymbolTableRecord
100
AcDbViewportTableRecord
  2
*Active
 70
     0
 10
0.0
 20
0.0
 11
1.0
 21
1.0
 12
157.5000000000001
 22
222.75
 13
0.0
 23
0.0
 14
0.5
 24
0.5
 15
0.5
 25
0.5
 16
0.0
 26
0.0
 36
1.0
 17
0.0
 27
0.0
 37
0.0
 40
490.05
 41
1.60267857142857
 42
50.0
 43
0.0
 44
0.0
 50
0.0
 51
0.0
 71
     0
 72
   100
 73
     1
 74
     3
 75
     0
 76
     0
 77
     0
 78
     0
281
     0
 65
     1
110
0.0
120
0.0
130
0.0
111
1.0
121
0.0
131
0.0
112
0.0
122
1.0
132
0.0
 79
     0
146
0.0
  0
ENDTAB
  0
TABLE
  2
LTYPE
  5
5
330
0
100
AcDbSymbolTable
 70
     8
  0
LTYPE
  5
14
330
5
100
AcDbSymbolTableRecord
100
AcDbLinetypeTableRecord
  2
ByBlock
 70
     0
  3

 72
    65
 73
     0
 40
0.0
  0
LTYPE
  5
15
330
5
100
AcDbSymbolTableRecord
100
AcDbLinetypeTableRecord
  2
ByLayer
 70
     0
  3

 72
    65
 73
     0
 40
0.0
  0
LTYPE
  5
16
330
5
100
AcDbSymbolTableRecord
100
AcDbLinetypeTableRecord
  2
Continuous
 70
     0
  3
Solid line
 72
    65
 73
     0
 40
0.0
  0
LTYPE
  5
3F
330
5
100
AcDbSymbolTableRecord
100
AcDbLinetypeTableRecord
  2
DASHED
 70
     0
  3
Dashed
 72
    65
 73
     2
 40
15.0
 49
7.0
 74
     0
 49
-8.0
 74
     0
  0
LTYPE
  5
40
330
5
100
AcDbSymbolTableRecord
100
AcDbLinetypeTableRecord
  2
DOTTED
 70
     0
  3
Dotted
 72
    65
 73
     2
 40
1.0
 49
0.0
 74
     0
 49
-1.0
 74
     0
  0
LTYPE
  5
41
330
5
100
AcDbSymbolTableRecord
100
AcDbLinetypeTableRecord
  2
DOT_CENTER
 70
     0
  3
Dot_Center
 72
    65
 73
     4
 40
14.0
 49
12.0
 74
     0
 49
-1.0
 74
     0
 49
0.0
 74
     0
 49
-1.0
 74
     0
  0
LTYPE
  5
42
330
5
100
AcDbSymbolTableRecord
100
AcDbLinetypeTableRecord
  2
LONG_DASHED
 70
     0
  3
Long_Dashed
 72
    65
 73
     2
 40
15.0
 49
10.0
 74
     0
 49
-5.0
 74
     0
  0
LTYPE
  5
43
330
5
100
AcDbSymbolTableRecord
100
AcDbLinetypeTableRecord
  2
DASH_CENTER
 70
     0
  3
Dash_Center
 72
    65
 73
     4
 40
14.0
 49
11.0
 74
     0
 49
-1.0
 74
     0
 49
1.0
 74
     0
 49
-1.0
 74
     0
  0
LTYPE
  5
44
330
5
100
AcDbSymbolTableRecord
100
AcDbLinetypeTableRecord
  2
PHANTOM
 70
     0
  3
Phantom
 72
    65
 73
     6
 40
13.0
 49
10.0
 74
     0
 49
-1.0
 74
     0
 49
0.0
 74
     0
 49
-1.0
 74
     0
 49
0.0
 74
     0
 49
-1.0
 74
     0
  0
LTYPE
  5
45
330
5
100
AcDbSymbolTableRecord
100
AcDbLinetypeTableRecord
  2
CENTER_DASH_DASH
 70
     0
  3
Center_Dash_Dash
 72
    65
 73
     6
 40
14.0
 49
9.0
 74
     0
 49
-1.0
 74
     0
 49
1.0
 74
     0
 49
-1.0
 74
     0
 49
1.0
 74
     0
 49
-1.0
 74
     0
  0
ENDTAB
  0
TABLE
  2
LAYER
  5
2
330
0
100
AcDbSymbolTable
 70
     2
  0
LAYER
  5
10
330
2
100
AcDbSymbolTableRecord
100
AcDbLayerTableRecord
  2
0
 70
     0
 62
     7
  6
Continuous
370
    -3
390
F
  0
LAYER
  5
46
330
2
100
AcDbSymbolTableRecord
100
AcDbLayerTableRecord
  2
1
 70
     0
 62
     7
  6
Continuous
370
    -3
390
F
  0
ENDTAB
  0
TABLE
  2
STYLE
  5
3
330
0
100
AcDbSymbolTable
 70
     3
  0
STYLE
  5
11
330
3
100
AcDbSymbolTableRecord
100
AcDbTextStyleTableRecord
  2
Standard
 70
     0
 40
0.0
 41
1.0
 50
0.0
 71
     0
 42
0.2
  3
txt
  4

  0
STYLE
  5
AE
330
3
100
AcDbSymbolTableRecord
100
AcDbTextStyleTableRecord
  2
CONVERTER_11
 70
     0
 40
0.0
 41
0.89
 50
0.0
 71
     0
 42
0.2
  3
MS Mincho.ttf
  4

1001
ACAD
1000
MS Mincho
1071
    32785
  0
STYLE
  5
1EE
330
3
100
AcDbSymbolTableRecord
100
AcDbTextStyleTableRecord
  2
CONVERTER_12
 70
     0
 40
0.0
 41
0.9
 50
0.0
 71
     0
 42
0.2
  3
txt.shx
  4

  0
ENDTAB
  0
TABLE
  2
VIEW
  5
6
330
0
100
AcDbSymbolTable
 70
     0
  0
ENDTAB
  0
TABLE
  2
UCS
  5
7
330
0
100
AcDbSymbolTable
 70
     0
  0
ENDTAB
  0
TABLE
  2
APPID
  5
9
330
0
100
AcDbSymbolTable
 70
     1
  0
APPID
  5
12
330
9
100
AcDbSymbolTableRecord
100
AcDbRegAppTableRecord
  2
ACAD
 70
     0
  0
ENDTAB
  0
TABLE
  2
DIMSTYLE
  5
A
330
0
100
AcDbSymbolTable
 70
     8
100
AcDbDimStyleTable
  0
DIMSTYLE
105
27
330
A
100
AcDbSymbolTableRecord
100
AcDbDimStyleTableRecord
  2
Standard
 70
     0
178
     0
340
11
  0
DIMSTYLE
105
200
102
{ACAD_REACTORS
330
201
102
}
330
A
100
AcDbSymbolTableRecord
100
AcDbDimStyleTableRecord
  2
ME10_DIM_10
 70
     0
 41
5.25
 42
0.0
 44
1.5
 73
     0
 74
     0
 77
     1
 78
     8
140
5.25
147
1.5
172
     1
173
     1
174
     1
175
     1
176
     2
177
     2
271
     2
178
     7
271
     2
340
1EE
  0
DIMSTYLE
105
20B
102
{ACAD_REACTORS
330
20C
102
}
330
A
100
AcDbSymbolTableRecord
100
AcDbDimStyleTableRecord
  2
ME10_DIM_11
 70
     0
 41
5.25
 42
0.0
 44
1.5
 73
     0
 74
     0
 77
     1
 78
     8
140
5.25
147
1.5
172
     1
173
     1
174
     1
175
     1
176
     2
177
     2
271
     2
178
     7
271
     2
340
1EE
  0
DIMSTYLE
105
216
102
{ACAD_REACTORS
330
217
102
}
330
A
100
AcDbSymbolTableRecord
100
AcDbDimStyleTableRecord
  2
ME10_DIM_12
 70
     0
 41
5.25
 42
0.0
 44
1.5
 73
     0
 74
     0
 77
     1
 78
     8
140
5.25
147
1.5
172
     1
173
     1
174
     1
175
     1
176
     2
177
     2
271
     2
178
     7
271
     2
340
1EE
  0
DIMSTYLE
105
221
102
{ACAD_REACTORS
330
222
102
}
330
A
100
AcDbSymbolTableRecord
100
AcDbDimStyleTableRecord
  2
ME10_DIM_13
 70
     0
 41
5.25
 42
0.0
 44
1.5
 73
     0
 74
     0
 77
     1
 78
     8
140
5.25
147
1.5
172
     1
173
     1
174
     1
175
     1
176
     2
177
     2
271
     2
178
     7
271
     2
340
1EE
  0
DIMSTYLE
105
22C
102
{ACAD_REACTORS
330
22D
102
}
330
A
100
AcDbSymbolTableRecord
100
AcDbDimStyleTableRecord
  2
ME10_DIM_14
 70
     0
 41
5.25
 42
0.0
 44
1.5
 73
     0
 74
     0
 77
     1
 78
     8
140
5.25
147
1.5
172
     1
173
     1
174
     1
175
     1
176
     2
177
     2
271
     2
178
     7
271
     2
340
AE
  0
DIMSTYLE
105
238
102
{ACAD_REACTORS
330
239
102
}
330
A
100
AcDbSymbolTableRecord
100
AcDbDimStyleTableRecord
  2
ME10_DIM_15
 70
     0
 41
5.25
 42
0.0
 44
1.5
 73
     0
 74
     0
 77
     1
 78
     8
140
5.25
147
1.5
172
     1
173
     1
174
     1
175
     1
176
     2
177
     2
271
     2
178
     7
271
     2
340
1EE
  0
DIMSTYLE
105
243
102
{ACAD_REACTORS
330
244
102
}
330
A
100
AcDbSymbolTableRecord
100
AcDbDimStyleTableRecord
  2
ME10_DIM_16
 70
     0
 41
5.25
 42
0.0
 44
1.5
 73
     0
 74
     0
 77
     1
 78
     8
140
5.25
147
1.5
172
     1
173
     1
174
     1
175
     1
176
     2
177
     2
271
     2
178
     7
271
     2
340
1EE
  0
ENDTAB
  0
TABLE
  2
BLOCK_RECORD
  5
1
330
0
100
AcDbSymbolTable
 70
    15
  0
BLOCK_RECORD
  5
1F
330
1
100
AcDbSymbolTableRecord
100
AcDbBlockTableRecord
  2
*Model_Space
340
22
  0
BLOCK_RECORD
  5
1B
330
1
100
AcDbSymbolTableRecord
100
AcDbBlockTableRecord
  2
*Paper_Space
340
1E
  0
BLOCK_RECORD
  5
23
330
1
100
AcDbSymbolTableRecord
100
AcDbBlockTableRecord
  2
*Paper_Space0
340
26
  0
BLOCK_RECORD
  5
47
330
1
100
AcDbSymbolTableRecord
100
AcDbBlockTableRecord
  2
開示A4
340
0
102
{BLKREFS
331
5C
102
}
  0
BLOCK_RECORD
  5
4A
330
1
100
AcDbSymbolTableRecord
100
AcDbBlockTableRecord
  2
V22-0A-13
340
0
102
{BLKREFS
331
5D
102
}
  0
BLOCK_RECORD
  5
4D
330
1
100
AcDbSymbolTableRecord
100
AcDbBlockTableRecord
  2
64-7-13-55
340
0
102
{BLKREFS
331
5E
102
}
  0
BLOCK_RECORD
  5
50
330
1
100
AcDbSymbolTableRecord
100
AcDbBlockTableRecord
  2
78-167
340
0
102
{BLKREFS
331
5F
102
}
  0
BLOCK_RECORD
  5
53
330
1
100
AcDbSymbolTableRecord
100
AcDbBlockTableRecord
  2
36-3-13
340
0
102
{BLKREFS
331
60
102
}
  0
BLOCK_RECORD
  5
56
330
1
100
AcDbSymbolTableRecord
100
AcDbBlockTableRecord
  2
37-1-13
340
0
102
{BLKREFS
331
61
102
}
  0
BLOCK_RECORD
  5
59
330
1
100
AcDbSymbolTableRecord
100
AcDbBlockTableRecord
  2
32-12
340
0
102
{BLKREFS
331
62
102
}
  0
BLOCK_RECORD
  5
1F7
330
1
100
AcDbSymbolTableRecord
100
AcDbBlockTableRecord
  2
*D8
340
0
  0
BLOCK_RECORD
  5
202
330
1
100
AcDbSymbolTableRecord
100
AcDbBlockTableRecord
  2
*D9
340
0
  0
BLOCK_RECORD
  5
20D
330
1
100
AcDbSymbolTableRecord
100
AcDbBlockTableRecord
  2
*D10
340
0
  0
BLOCK_RECORD
  5
218
330
1
100
AcDbSymbolTableRecord
100
AcDbBlockTableRecord
  2
*D11
340
0
  0
BLOCK_RECORD
  5
223
330
1
100
AcDbSymbolTableRecord
100
AcDbBlockTableRecord
  2
*D12
340
0
  0
BLOCK_RECORD
  5
22E
330
1
100
AcDbSymbolTableRecord
100
AcDbBlockTableRecord
  2
*D13
340
0
  0
BLOCK_RECORD
  5
23A
330
1
100
AcDbSymbolTableRecord
100
AcDbBlockTableRecord
  2
*D14
340
0
  0
ENDTAB
  0
ENDSEC
  0
SECTION
  2
BLOCKS
  0
BLOCK
  5
20
330
1F
100
AcDbEntity
  8
0
100
AcDbBlockBegin
  2
*Model_Space
 70
     0
 10
0.0
 20
0.0
 30
0.0
  3
*Model_Space
  1

  0
ENDBLK
  5
21
330
1F
100
AcDbEntity
  8
0
100
AcDbBlockEnd
  0
BLOCK
  5
1C
330
1B
100
AcDbEntity
 67
     1
  8
0
100
AcDbBlockBegin
  2
*Paper_Space
 70
     0
 10
0.0
 20
0.0
 30
0.0
  3
*Paper_Space
  1

  0
ENDBLK
  5
1D
330
1B
100
AcDbEntity
 67
     1
  8
0
100
AcDbBlockEnd
  0
BLOCK
  5
24
330
23
100
AcDbEntity
  8
0
100
AcDbBlockBegin
  2
*Paper_Space0
 70
     0
 10
0.0
 20
0.0
 30
0.0
  3
*Paper_Space0
  1

  0
ENDBLK
  5
25
330
23
100
AcDbEntity
  8
0
100
AcDbBlockEnd
  0
BLOCK
  5
48
330
47
100
AcDbEntity
  8
0
100
AcDbBlockBegin
  2
開示A4
 70
     0
 10
0.00000000000003
 20
0.0
 30
0.0
  3
開示A4
  1

  0
POINT
  5
63
330
47
100
AcDbEntity
  8
1
 62
     4
100
AcDbPoint
 10
34.00000000000003
 20
34.00000000000001
 30
0.0
  0
POINT
  5
64
330
47
100
AcDbEntity
  8
1
 62
     4
100
AcDbPoint
 10
57.00000000000006
 20
12.25
 30
0.0
  0
POINT
  5
65
330
47
100
AcDbEntity
  8
1
 62
     4
100
AcDbPoint
 10
57.00000000000006
 20
20.75000000000001
 30
0.0
  0
POINT
  5
66
330
47
100
AcDbEntity
  8
1
 62
     4
100
AcDbPoint
 10
57.00000000000006
 20
24.75000000000001
 30
0.0
  0
POINT
  5
67
330
47
100
AcDbEntity
  8
1
 62
     4
100
AcDbPoint
 10
57.00000000000006
 20
16.25
 30
0.0
  0
POINT
  5
68
330
47
100
AcDbEntity
  8
1
 62
     4
100
AcDbPoint
 10
157.5000000000001
 20
19.00000000000001
 30
0.0
  0
POINT
  5
69
330
47
100
AcDbEntity
  8
1
 62
     4
100
AcDbPoint
 10
47.50000000000006
 20
282.0000000000003
 30
0.0
  0
POINT
  5
6A
330
47
100
AcDbEntity
  8
1
 62
     4
100
AcDbPoint
 10
57.00000000000006
 20
22.75000000000001
 30
0.0
  0
POINT
  5
6B
330
47
100
AcDbEntity
  8
1
 62
     4
100
AcDbPoint
 10
57.00000000000006
 20
14.25
 30
0.0
  0
POINT
  5
6C
330
47
100
AcDbEntity
  8
1
 62
     4
100
AcDbPoint
 10
157.5000000000001
 20
12.5
 30
0.0
  0
POINT
  5
6D
330
47
100
AcDbEntity
  8
1
 62
     4
100
AcDbPoint
 10
163.2500000000001
 20
12.5
 30
0.0
  0
POINT
  5
6E
330
47
100
AcDbEntity
  8
1
 62
     4
100
AcDbPoint
 10
151.7500000000001
 20
12.5
 30
0.0
  0
POINT
  5
6F
330
47
100
AcDbEntity
  8
1
 62
     4
100
AcDbPoint
 10
134.7500000000001
 20
12.5
 30
0.0
  0
POINT
  5
70
330
47
100
AcDbEntity
  8
1
 62
     4
100
AcDbPoint
 10
146.2500000000001
 20
12.5
 30
0.0
  0
POINT
  5
71
330
47
100
AcDbEntity
  8
1
 62
     4
100
AcDbPoint
 10
140.5000000000001
 20
12.5
 30
0.0
  0
POINT
  5
72
330
47
100
AcDbEntity
  8
1
 62
     4
100
AcDbPoint
 10
140.5000000000001
 20
19.00000000000001
 30
0.0
  0
POINT
  5
73
330
47
100
AcDbEntity
  8
1
 62
     4
100
AcDbPoint
 10
117.7500000000001
 20
12.5
 30
0.0
  0
POINT
  5
74
330
47
100
AcDbEntity
  8
1
 62
     4
100
AcDbPoint
 10
129.2500000000001
 20
12.5
 30
0.0
  0
POINT
  5
75
330
47
100
AcDbEntity
  8
1
 62
     4
100
AcDbPoint
 10
123.5000000000001
 20
12.5
 30
0.0
  0
POINT
  5
76
330
47
100
AcDbEntity
  8
1
 62
     4
100
AcDbPoint
 10
123.5000000000001
 20
19.00000000000001
 30
0.0
  0
POINT
  5
77
330
47
100
AcDbEntity
  8
1
 62
     4
100
AcDbPoint
 10
100.7500000000001
 20
12.5
 30
0.0
  0
POINT
  5
78
330
47
100
AcDbEntity
  8
1
 62
     4
100
AcDbPoint
 10
112.2500000000001
 20
12.5
 30
0.0
  0
POINT
  5
79
330
47
100
AcDbEntity
  8
1
 62
     4
100
AcDbPoint
 10
106.5000000000001
 20
12.5
 30
0.0
  0
POINT
  5
7A
330
47
100
AcDbEntity
  8
1
 62
     4
100
AcDbPoint
 10
106.5000000000001
 20
19.00000000000001
 30
0.0
  0
POINT
  5
7B
330
47
100
AcDbEntity
  8
1
 62
     4
100
AcDbPoint
 10
85.25000000000006
 20
17.0
 30
0.0
  0
POINT
  5
7C
330
47
100
AcDbEntity
  8
1
 62
     4
100
AcDbPoint
 10
93.75000000000006
 20
17.0
 30
0.0
  0
LINE
  5
7D
330
47
100
AcDbEntity
  8
1
  6
Continuous
 62
     2
100
AcDbLine
 10
81.00000000000006
 20
27.00000000000001
 30
0.0
 11
81.00000000000006
 21
10.0
 31
0.0
  0
LINE
  5
7E
330
47
100
AcDbEntity
  8
1
  6
DOT_CENTER
 62
     2
100
AcDbLine
 10
187.0000000000001
 20
26.50000000000001
 30
0.0
 11
187.0000000000001
 21
20.50000000000001
 31
0.0
  0
LINE
  5
7F
330
47
100
AcDbEntity
  8
1
  6
DOT_CENTER
 62
     2
100
AcDbLine
 10
184.0000000000001
 20
23.50000000000001
 30
0.0
 11
197.0000000000001
 21
23.50000000000001
 31
0.0
  0
LINE
  5
80
330
47
100
AcDbEntity
  8
1
  6
Continuous
 62
     7
100
AcDbLine
 10
196.0000000000001
 20
21.50000000000001
 30
0.0
 11
191.0000000000001
 21
22.30000000000001
 31
0.0
  0
LINE
  5
81
330
47
100
AcDbEntity
  8
1
  6
Continuous
 62
     7
100
AcDbLine
 10
196.0000000000001
 20
25.50000000000001
 30
0.0
 11
196.0000000000001
 21
21.50000000000001
 31
0.0
  0
LINE
  5
82
330
47
100
AcDbEntity
  8
1
  6
Continuous
 62
     7
100
AcDbLine
 10
191.0000000000001
 20
24.70000000000001
 30
0.0
 11
196.0000000000001
 21
25.50000000000001
 31
0.0
  0
LINE
  5
83
330
47
100
AcDbEntity
  8
1
  6
Continuous
 62
     7
100
AcDbLine
 10
191.0000000000001
 20
24.70000000000001
 30
0.0
 11
191.0000000000001
 21
22.30000000000001
 31
0.0
  0
LINE
  5
84
330
47
100
AcDbEntity
  8
1
  6
Continuous
 62
     2
100
AcDbLine
 10
33.00000000000003
 20
27.0
 30
0.0
 11
33.00000000000003
 21
10.0
 31
0.0
  0
LINE
  5
85
330
47
100
AcDbEntity
  8
1
  6
Continuous
 62
     2
100
AcDbLine
 10
25.00000000000003
 20
18.50000000000001
 30
0.0
 11
81.00000000000006
 21
18.50000000000001
 31
0.0
  0
LINE
  5
86
330
47
100
AcDbEntity
  8
1
  6
Continuous
 62
     7
100
AcDbLine
 10
200.0000000000001
 20
287.0000000000003
 30
0.0
 11
105.0000000000001
 21
287.0000000000003
 31
0.0
  0
LINE
  5
87
330
47
100
AcDbEntity
  8
1
  6
Continuous
 62
     7
100
AcDbLine
 10
200.0000000000001
 20
10.0
 30
0.0
 11
200.0000000000001
 21
148.5
 31
0.0
  0
LINE
  5
88
330
47
100
AcDbEntity
  8
1
  6
Continuous
 62
     7
100
AcDbLine
 10
25.00000000000003
 20
10.0
 30
0.0
 11
105.0000000000001
 21
10.0
 31
0.0
  0
LINE
  5
89
330
47
100
AcDbEntity
  8
1
  6
PHANTOM
 62
     4
100
AcDbLine
 10
0.00000000000003
 20
297.0
 30
0.0
 11
0.00000000000003
 21
0.0
 31
0.0
  0
LINE
  5
8A
330
47
100
AcDbEntity
  8
1
  6
PHANTOM
 62
     4
100
AcDbLine
 10
210.0000000000001
 20
297.0
 30
0.0
 11
0.00000000000003
 21
297.0
 31
0.0
  0
LINE
  5
8B
330
47
100
AcDbEntity
  8
1
  6
PHANTOM
 62
     4
100
AcDbLine
 10
210.0000000000001
 20
0.0
 30
0.0
 11
210.0000000000001
 21
297.0
 31
0.0
  0
LINE
  5
8C
330
47
100
AcDbEntity
  8
1
  6
PHANTOM
 62
     4
100
AcDbLine
 10
0.00000000000003
 20
0.0
 30
0.0
 11
210.0000000000001
 21
0.0
 31
0.0
  0
LINE
  5
8D
330
47
100
AcDbEntity
  8
1
  6
Continuous
 62
     7
100
AcDbLine
 10
25.00000000000003
 20
41.0
 30
0.0
 11
200.0000000000001
 21
41.0
 31
0.0
  0
LINE
  5
8E
330
47
100
AcDbEntity
  8
1
  6
Continuous
 62
     7
100
AcDbLine
 10
200.0000000000001
 20
27.00000000000001
 30
0.0
 11
25.00000000000003
 21
27.00000000000001
 31
0.0
  0
LINE
  5
8F
330
47
100
AcDbEntity
  8
1
  6
Continuous
 62
     2
100
AcDbLine
 10
33.00000000000003
 20
41.00000000000001
 30
0.0
 11
33.00000000000003
 21
27.0
 31
0.0
  0
LINE
  5
90
330
47
100
AcDbEntity
  8
1
  6
Continuous
 62
     2
100
AcDbLine
 10
55.00000000000006
 20
287.0000000000003
 30
0.0
 11
55.00000000000006
 21
277.0000000000003
 31
0.0
  0
LINE
  5
91
330
47
100
AcDbEntity
  8
1
  6
Continuous
 62
     2
100
AcDbLine
 10
40.00000000000003
 20
287.0000000000003
 30
0.0
 11
40.00000000000003
 21
277.0000000000003
 31
0.0
  0
LINE
  5
92
330
47
100
AcDbEntity
  8
1
  6
Continuous
 62
     7
100
AcDbLine
 10
25.00000000000003
 20
10.0
 30
0.0
 11
25.00000000000003
 21
148.5
 31
0.0
  0
LINE
  5
93
330
47
100
AcDbEntity
  8
1
  6
Continuous
 62
     2
100
AcDbLine
 10
55.00000000000006
 20
277.0000000000003
 30
0.0
 11
25.00000000000003
 21
277.0000000000003
 31
0.0
  0
LINE
  5
94
330
47
100
AcDbEntity
  8
1
  6
Continuous
 62
     2
100
AcDbLine
 10
166.0000000000001
 20
27.00000000000001
 30
0.0
 11
166.0000000000001
 21
10.0
 31
0.0
  0
LINE
  5
95
330
47
100
AcDbEntity
  8
1
  6
Continuous
 62
     2
100
AcDbLine
 10
132.0000000000001
 20
27.00000000000001
 30
0.0
 11
132.0000000000001
 21
9.99999999999999
 31
0.0
  0
LINE
  5
96
330
47
100
AcDbEntity
  8
1
  6
Continuous
 62
     2
100
AcDbLine
 10
149.0000000000001
 20
27.00000000000001
 30
0.0
 11
149.0000000000001
 21
10.0
 31
0.0
  0
LINE
  5
97
330
47
100
AcDbEntity
  8
1
  6
Continuous
 62
     2
100
AcDbLine
 10
115.0000000000001
 20
27.00000000000001
 30
0.0
 11
115.0000000000001
 21
9.99999999999999
 31
0.0
  0
LINE
  5
98
330
47
100
AcDbEntity
  8
1
  6
Continuous
 62
     2
100
AcDbLine
 10
98.00000000000006
 20
27.00000000000001
 30
0.0
 11
98.00000000000006
 21
9.99999999999999
 31
0.0
  0
LINE
  5
99
330
47
100
AcDbEntity
  8
1
  6
Continuous
 62
     2
100
AcDbLine
 10
166.0000000000001
 20
20.00000000000001
 30
0.0
 11
200.0000000000001
 21
20.00000000000001
 31
0.0
  0
LINE
  5
9A
330
47
100
AcDbEntity
  8
1
  6
Continuous
 62
     2
100
AcDbLine
 10
105.0000000000001
 20
287.0000000000003
 30
0.0
 11
105.0000000000001
 21
292.0000000000003
 31
0.0
  0
LINE
  5
9B
330
47
100
AcDbEntity
  8
1
  6
Continuous
 62
     7
100
AcDbLine
 10
105.0000000000001
 20
287.0000000000003
 30
0.0
 11
25.00000000000003
 21
287.0000000000003
 31
0.0
  0
LINE
  5
9C
330
47
100
AcDbEntity
  8
1
  6
Continuous
 62
     2
100
AcDbLine
 10
25.00000000000003
 20
148.5
 30
0.0
 11
20.00000000000003
 21
148.5
 31
0.0
  0
LINE
  5
9D
330
47
100
AcDbEntity
  8
1
  6
Continuous
 62
     7
100
AcDbLine
 10
25.00000000000003
 20
148.5
 30
0.0
 11
25.00000000000003
 21
287.0000000000003
 31
0.0
  0
LINE
  5
9E
330
47
100
AcDbEntity
  8
1
  6
Continuous
 62
     2
100
AcDbLine
 10
200.0000000000001
 20
148.5
 30
0.0
 11
205.0000000000001
 21
148.5
 31
0.0
  0
LINE
  5
9F
330
47
100
AcDbEntity
  8
1
  6
Continuous
 62
     7
100
AcDbLine
 10
200.0000000000001
 20
148.5
 30
0.0
 11
200.0000000000001
 21
287.0000000000003
 31
0.0
  0
LINE
  5
A0
330
47
100
AcDbEntity
  8
1
  6
Continuous
 62
     2
100
AcDbLine
 10
105.0000000000001
 20
10.0
 30
0.0
 11
105.0000000000001
 21
5.0
 31
0.0
  0
LINE
  5
A1
330
47
100
AcDbEntity
  8
1
  6
Continuous
 62
     7
100
AcDbLine
 10
105.0000000000001
 20
10.0
 30
0.0
 11
200.0000000000001
 21
10.0
 31
0.0
  0
CIRCLE
  5
A2
330
47
100
AcDbEntity
  8
1
  6
DOT_CENTER
 62
     7
100
AcDbCircle
 10
89.50000000000006
 20
18.0
 30
0.0
 40
0.1000000000000227
  0
CIRCLE
  5
A3
330
47
100
AcDbEntity
  8
1
  6
DOT_CENTER
 62
     7
100
AcDbCircle
 10
89.50000000000006
 20
16.0
 30
0.0
 40
0.1000000000000227
  0
CIRCLE
  5
A4
330
47
100
AcDbEntity
  8
1
  6
Continuous
 62
     7
100
AcDbCircle
 10
187.0000000000001
 20
23.50000000000001
 30
0.0
 40
2.0
  0
CIRCLE
  5
A5
330
47
100
AcDbEntity
  8
1
  6
Continuous
 62
     7
100
AcDbCircle
 10
187.0000000000001
 20
23.50000000000001
 30
0.0
 40
1.199999999999989
  0
CIRCLE
  5
A6
330
47
100
AcDbEntity
  8
1
  6
Continuous
 62
     7
100
AcDbCircle
 10
154.5000000000001
 20
12.5
 30
0.0
 40
0.2999999999998977
  0
CIRCLE
  5
A7
330
47
100
AcDbEntity
  8
1
  6
Continuous
 62
     7
100
AcDbCircle
 10
160.5000000000001
 20
12.5
 30
0.0
 40
0.2999999999998977
  0
CIRCLE
  5
A8
330
47
100
AcDbEntity
  8
1
  6
Continuous
 62
     7
100
AcDbCircle
 10
143.5000000000001
 20
12.5
 30
0.0
 40
0.2999999999998977
  0
CIRCLE
  5
A9
330
47
100
AcDbEntity
  8
1
  6
Continuous
 62
     7
100
AcDbCircle
 10
137.5000000000001
 20
12.5
 30
0.0
 40
0.2999999999998977
  0
CIRCLE
  5
AA
330
47
100
AcDbEntity
  8
1
  6
Continuous
 62
     7
100
AcDbCircle
 10
126.5000000000001
 20
12.5
 30
0.0
 40
0.2999999999998977
  0
CIRCLE
  5
AB
330
47
100
AcDbEntity
  8
1
  6
Continuous
 62
     7
100
AcDbCircle
 10
120.5000000000001
 20
12.5
 30
0.0
 40
0.2999999999998977
  0
CIRCLE
  5
AC
330
47
100
AcDbEntity
  8
1
  6
Continuous
 62
     7
100
AcDbCircle
 10
109.5000000000001
 20
12.5
 30
0.0
 40
0.2999999999998977
  0
CIRCLE
  5
AD
330
47
100
AcDbEntity
  8
1
  6
Continuous
 62
     7
100
AcDbCircle
 10
103.5000000000001
 20
12.5
 30
0.0
 40
0.2999999999998977
  0
MTEXT
  5
AF
330
47
100
AcDbEntity
  8
1
 62
   250
100
AcDbMText
 10
25.00000000000003
 20
5.0
 30
0.0
 40
3.5
 41
0.0
 71
     4
 72
     1
  1
備考欄の文字列 原点位置=4
  7
CONVERTER_11
 73
     1
 44
0.54545454545455
  0
MTEXT
  5
B0
330
47
100
AcDbEntity
  8
1
 62
     2
100
AcDbMText
 10
89.50000000000006
 20
24.00000000000001
 30
0.0
 40
3.5
 41
0.0
 71
     5
 72
     1
  1
尺度
  7
CONVERTER_11
 73
     1
 44
0.54545454545455
  0
MTEXT
  5
B1
330
47
100
AcDbEntity
  8
1
 62
     2
100
AcDbMText
 10
135.5000000000001
 20
25.00000000000001
 30
0.0
 40
3.0
 41
0.0
 71
     5
 72
     1
  1
製図
  7
CONVERTER_11
 73
     1
 44
0.59090909090909
  0
MTEXT
  5
B2
330
47
100
AcDbEntity
  8
1
 62
     2
100
AcDbMText
 10
152.5000000000001
 20
25.00000000000001
 30
0.0
 40
3.0
 41
0.0
 71
     5
 72
     1
  1
設計
  7
CONVERTER_11
 73
     1
 44
0.59090909090909
  0
MTEXT
  5
B3
330
47
100
AcDbEntity
  8
1
 62
     2
100
AcDbMText
 10
118.5000000000001
 20
25.00000000000001
 30
0.0
 40
3.0
 41
0.0
 71
     5
 72
     1
  1
検図
  7
CONVERTER_11
 73
     1
 44
0.59090909090909
  0
MTEXT
  5
B4
330
47
100
AcDbEntity
  8
1
 62
     2
100
AcDbMText
 10
175.0000000000001
 20
23.50000000000001
 30
0.0
 40
3.5
 41
0.0
 71
     5
 72
     1
  1
第三角法
  7
CONVERTER_11
 73
     1
 44
0.54545454545455
  0
MTEXT
  5
B5
330
47
100
AcDbEntity
  8
1
 62
     2
100
AcDbMText
 10
101.5000000000001
 20
25.00000000000001
 30
0.0
 40
3.0
 41
0.0
 71
     5
 72
     1
  1
承認
  7
CONVERTER_11
 73
     1
 44
0.59090909090909
  0
MTEXT
  5
B6
330
47
100
AcDbEntity
  8
1
 62
     2
100
AcDbMText
 10
29.00000000000003
 20
14.25
 30
0.0
 40
3.5
 41
0.0
 71
     5
 72
     1
  1
品番
  7
CONVERTER_11
 73
     1
 44
0.72727272727273
  0
MTEXT
  5
B7
330
47
100
AcDbEntity
  8
1
 62
     2
100
AcDbMText
 10
29.00000000000003
 20
22.75
 30
0.0
 40
3.5
 41
0.0
 71
     5
 72
     1
  1
品名
  7
CONVERTER_11
 73
     1
 44
0.72727272727273
  0
MTEXT
  5
B8
330
47
100
AcDbEntity
  8
1
 62
     2
100
AcDbMText
 10
29.00000000000003
 20
34.00000000000001
 30
0.0
 40
3.5
 41
0.0
 71
     5
 72
     1
  1
備考
  7
CONVERTER_11
 73
     1
 44
0.45454545454545
  0
MTEXT
  5
B9
330
47
100
AcDbEntity
  8
1
 62
     2
100
AcDbMText
 10
32.50000000000003
 20
282.0000000000003
 30
0.0
 40
5.0
 41
0.0
 71
     5
 72
     1
  1
図番
  7
CONVERTER_11
 73
     1
 44
0.45454545454545
  0
MTEXT
  5
BA
330
47
100
AcDbEntity
  8
1
 62
     7
100
AcDbMText
 10
171.5000000000001
 20
15.0
 30
0.0
 40
2.5
 41
0.0
 71
     5
 72
     1
  1
株式会社
  7
CONVERTER_11
 73
     1
 44
1.0
  0
MTEXT
  5
BB
330
47
100
AcDbEntity
  8
1
 62
     7
100
AcDbMText
 10
188.5000000000001
 20
15.0
 30
0.0
 40
3.0
 41
0.0
 71
     5
 72
     1
  1
三栄水栓製作所
  7
CONVERTER_11
 73
     1
 44
1.0
  0
ENDBLK
  5
49
330
47
100
AcDbEntity
  8
0
100
AcDbBlockEnd
  0
BLOCK
  5
4B
330
4A
100
AcDbEntity
  8
0
100
AcDbBlockBegin
  2
V22-0A-13
 70
     0
 10
133.7385709387331
 20
1165.277740897449
 30
0.0
  3
V22-0A-13
  1

  0
LINE
  5
BC
330
4A
100
AcDbEntity
  8
1
  6
Continuous
 62
     7
100
AcDbLine
 10
68.63709254803216
 20
288.5
 30
0.0
 11
91.01109254803227
 21
288.5
 31
0.0
  0
LINE
  5
BD
330
4A
100
AcDbEntity
  8
1
  6
Continuous
 62
     2
100
AcDbLine
 10
68.63709254803216
 20
287.0700000000001
 30
0.0
 11
68.63709254803216
 21
288.5
 31
0.0
  0
LINE
  5
BE
330
4A
100
AcDbEntity
  8
1
  6
Continuous
 62
     7
100
AcDbLine
 10
91.82409254803225
 20
287.0700000000001
 30
0.0
 11
91.82409254803225
 21
288.5
 31
0.0
  0
LINE
  5
BF
330
4A
100
AcDbEntity
  8
1
  6
Continuous
 62
     7
100
AcDbLine
 10
204.0375011125199
 20
193.819815648546
 30
0.0
 11
204.0375011125199
 21
190.319815648546
 31
0.0
  0
LINE
  5
C0
330
4A
100
AcDbEntity
  8
1
  6
Continuous
 62
     2
100
AcDbLine
 10
202.8755011125199
 20
193.819815648546
 30
0.0
 11
202.8755011125199
 21
190.319815648546
 31
0.0
  0
LINE
  5
C1
330
4A
100
AcDbEntity
  8
1
  6
Continuous
 62
     7
100
AcDbLine
 10
183.0375011125199
 20
193.819815648546
 30
0.0
 11
183.0375011125199
 21
190.319815648546
 31
0.0
  0
LINE
  5
C2
330
4A
100
AcDbEntity
  8
1
  6
Continuous
 62
     7
100
AcDbLine
 10
177.1078098243349
 20
157.319815648546
 30
0.0
 11
178.5375011125199
 21
157.319815648546
 31
0.0
  0
LINE
  5
C3
330
4A
100
AcDbEntity
  8
1
  6
Continuous
 62
     2
100
AcDbLine
 10
177.1078098243349
 20
180.5068156485461
 30
0.0
 11
178.5375011125199
 21
180.5068156485461
 31
0.0
  0
LINE
  5
C4
330
4A
100
AcDbEntity
  8
1
  6
PHANTOM
 62
     4
100
AcDbLine
 10
79.82409254803225
 20
337.5
 30
0.0
 11
79.82409254803225
 21
276.5
 31
0.0
  0
LINE
  5
C5
330
4A
100
AcDbEntity
  8
1
  6
Continuous
 62
     7
100
AcDbLine
 10
79.82409254803225
 20
324.5
 30
0.0
 11
79.82409254803225
 21
329.2388930010698
 31
0.0
  0
LINE
  5
C6
330
4A
100
AcDbEntity
  8
1
  6
Continuous
 62
     7
100
AcDbLine
 10
178.5375011125199
 20
158.1328156485459
 30
0.0
 11
178.5375011125199
 21
180.5068156485461
 31
0.0
  0
LINE
  5
C7
330
4A
100
AcDbEntity
  8
1
  6
Continuous
 62
     7
100
AcDbLine
 10
184.1995011125199
 20
190.319815648546
 30
0.0
 11
202.8755011125199
 21
190.319815648546
 31
0.0
  0
LINE
  5
C8
330
4A
100
AcDbEntity
  8
1
  6
Continuous
 62
     7
100
AcDbLine
 10
219.2763941135897
 20
161.8142621490808
 30
0.0
 11
214.5375011125199
 21
161.8142621490808
 31
0.0
  0
LINE
  5
C9
330
4A
100
AcDbEntity
  8
1
  6
Continuous
 62
     7
100
AcDbLine
 10
219.2763941135897
 20
176.8253691480111
 30
0.0
 11
214.5375011125199
 21
176.8253691480111
 31
0.0
  0
LINE
  5
CA
330
4A
100
AcDbEntity
  8
1
  6
PHANTOM
 62
     4
100
AcDbLine
 10
224.5375011125199
 20
169.319815648546
 30
0.0
 11
169.5375011125199
 21
169.319815648546
 31
0.0
  0
LINE
  5
CB
330
4A
100
AcDbEntity
  8
1
  6
PHANTOM
 62
     4
100
AcDbLine
 10
64.32409254803216
 20
303.5
 30
0.0
 11
95.32409254803225
 21
303.5
 31
0.0
  0
LINE
  5
CC
330
4A
100
AcDbEntity
  8
1
  6
Continuous
 62
     7
100
AcDbLine
 10
204.0375011125199
 20
188.3071726101509
 30
0.0
 11
204.0375011125199
 21
186.8198156485461
 31
0.0
  0
LINE
  5
CD
330
4A
100
AcDbEntity
  8
1
  6
Continuous
 62
     7
100
AcDbLine
 10
204.0375011125199
 20
190.319815648546
 30
0.0
 11
204.0375011125199
 21
188.3071726101509
 31
0.0
  0
LINE
  5
CE
330
4A
100
AcDbEntity
  8
1
  6
Continuous
 62
     7
100
AcDbLine
 10
183.0375011125199
 20
190.319815648546
 30
0.0
 11
183.0375011125199
 21
188.3071726101509
 31
0.0
  0
LINE
  5
CF
330
4A
100
AcDbEntity
  8
1
  6
Continuous
 62
     7
100
AcDbLine
 10
219.2763941135896
 20
154.3087086496157
 30
0.0
 11
214.5375011125199
 21
154.3087086496157
 31
0.0
  0
LINE
  5
D0
330
4A
100
AcDbEntity
  8
1
  6
Continuous
 62
     7
100
AcDbLine
 10
221.5375011125199
 20
156.569815648546
 30
0.0
 11
219.2763941135896
 21
154.3087086496157
 31
0.0
  0
LINE
  5
D1
330
4A
100
AcDbEntity
  8
1
  6
Continuous
 62
     7
100
AcDbLine
 10
219.2763941135896
 20
184.3309226474762
 30
0.0
 11
214.5375011125199
 21
184.3309226474762
 31
0.0
  0
LINE
  5
D2
330
4A
100
AcDbEntity
  8
1
  6
Continuous
 62
     7
100
AcDbLine
 10
219.2763941135896
 20
184.3309226474762
 30
0.0
 11
221.5375011125199
 21
182.069815648546
 31
0.0
  0
LINE
  5
D3
330
4A
100
AcDbEntity
  8
1
  6
Continuous
 62
     7
100
AcDbLine
 10
178.5375011125199
 20
181.3198156485461
 30
0.0
 11
177.1078098243349
 21
181.3198156485461
 31
0.0
  0
LINE
  5
D4
330
4A
100
AcDbEntity
  8
1
  6
Continuous
 62
     7
100
AcDbLine
 10
178.5375011125199
 20
180.5068156485461
 30
0.0
 11
178.5375011125199
 21
181.3198156485461
 31
0.0
  0
LINE
  5
D5
330
4A
100
AcDbEntity
  8
1
  6
Continuous
 62
     7
100
AcDbLine
 10
179.9456584190734
 20
181.3198156485461
 30
0.0
 11
178.5375011125199
 21
181.3198156485461
 31
0.0
  0
LINE
  5
D6
330
4A
100
AcDbEntity
  8
1
  6
Continuous
 62
     7
100
AcDbLine
 10
183.0375011125199
 20
190.319815648546
 30
0.0
 11
184.1995011125199
 21
190.319815648546
 31
0.0
  0
LINE
  5
D7
330
4A
100
AcDbEntity
  8
1
  6
Continuous
 62
     7
100
AcDbLine
 10
202.8755011125199
 20
190.319815648546
 30
0.0
 11
204.0375011125199
 21
190.319815648546
 31
0.0
  0
LINE
  5
D8
330
4A
100
AcDbEntity
  8
1
  6
Continuous
 62
     7
100
AcDbLine
 10
178.5375011125199
 20
157.319815648546
 30
0.0
 11
179.9456584190734
 21
157.319815648546
 31
0.0
  0
LINE
  5
D9
330
4A
100
AcDbEntity
  8
1
  6
Continuous
 62
     7
100
AcDbLine
 10
178.5375011125199
 20
157.319815648546
 30
0.0
 11
178.5375011125199
 21
158.1328156485459
 31
0.0
  0
LINE
  5
DA
330
4A
100
AcDbEntity
  8
1
  6
Continuous
 62
     2
100
AcDbLine
 10
179.9456584190734
 20
181.3198156485461
 30
0.0
 11
178.5375011125199
 21
180.5068156485461
 31
0.0
  0
LINE
  5
DB
330
4A
100
AcDbEntity
  8
1
  6
Continuous
 62
     2
100
AcDbLine
 10
184.1995011125199
 20
190.319815648546
 30
0.0
 11
184.1995011125199
 21
193.819815648546
 31
0.0
  0
LINE
  5
DC
330
4A
100
AcDbEntity
  8
1
  6
Continuous
 62
     2
100
AcDbLine
 10
183.0375011125199
 20
188.3071726101509
 30
0.0
 11
184.1995011125199
 21
190.319815648546
 31
0.0
  0
LINE
  5
DD
330
4A
100
AcDbEntity
  8
1
  6
Continuous
 62
     2
100
AcDbLine
 10
202.8755011125199
 20
190.319815648546
 30
0.0
 11
204.0375011125199
 21
188.3071726101509
 31
0.0
  0
LINE
  5
DE
330
4A
100
AcDbEntity
  8
1
  6
Continuous
 62
     2
100
AcDbLine
 10
178.5375011125199
 20
158.1328156485459
 30
0.0
 11
177.1078098243349
 21
158.1328156485459
 31
0.0
  0
LINE
  5
DF
330
4A
100
AcDbEntity
  8
1
  6
Continuous
 62
     2
100
AcDbLine
 10
178.5375011125199
 20
158.1328156485459
 30
0.0
 11
179.9456584190734
 21
157.319815648546
 31
0.0
  0
LINE
  5
E0
330
4A
100
AcDbEntity
  8
1
  6
Continuous
 62
     7
100
AcDbLine
 10
221.5375011125199
 20
156.569815648546
 30
0.0
 11
221.5375011125199
 21
182.069815648546
 31
0.0
  0
LINE
  5
E1
330
4A
100
AcDbEntity
  8
1
  6
PHANTOM
 62
     4
100
AcDbLine
 10
193.5375011125199
 20
202.319815648546
 30
0.0
 11
193.5375011125199
 21
152.199493919101
 31
0.0
  0
LINE
  5
E2
330
4A
100
AcDbEntity
  8
1
  6
Continuous
 62
     7
100
AcDbLine
 10
214.5375011125199
 20
154.3087086496157
 30
0.0
 11
213.490860207657
 21
155.3553495544786
 31
0.0
  0
LINE
  5
E3
330
4A
100
AcDbEntity
  8
1
  6
Continuous
 62
     7
100
AcDbLine
 10
214.5375011125199
 20
184.3309226474762
 30
0.0
 11
213.4908602076569
 21
183.2842817426133
 31
0.0
  0
LINE
  5
E4
330
4A
100
AcDbEntity
  8
1
  6
Continuous
 62
     7
100
AcDbLine
 10
209.0375011125199
 20
181.8198156485461
 30
0.0
 11
209.9553263017242
 21
181.8198156485461
 31
0.0
  0
LINE
  5
E5
330
4A
100
AcDbEntity
  8
1
  6
Continuous
 62
     7
100
AcDbLine
 10
179.9456584190734
 20
181.3198156485461
 30
0.0
 11
180.4456584190733
 21
181.819815648546
 31
0.0
  0
LINE
  5
E6
330
4A
100
AcDbEntity
  8
1
  6
Continuous
 62
     7
100
AcDbLine
 10
179.9456584190734
 20
157.319815648546
 30
0.0
 11
180.4456584190734
 21
156.819815648546
 31
0.0
  0
LINE
  5
E7
330
4A
100
AcDbEntity
  8
1
  6
Continuous
 62
     7
100
AcDbLine
 10
180.4456584190734
 20
156.819815648546
 30
0.0
 11
209.9553263017242
 21
156.819815648546
 31
0.0
  0
LINE
  5
E8
330
4A
100
AcDbEntity
  8
1
  6
Continuous
 62
     7
100
AcDbLine
 10
92.32409254803225
 20
290.4081573065536
 30
0.0
 11
92.32409254803225
 21
319.9178251892043
 31
0.0
  0
LINE
  5
E9
330
4A
100
AcDbEntity
  8
1
  6
Continuous
 62
     7
100
AcDbLine
 10
91.82409254803225
 20
289.9081573065536
 30
0.0
 11
92.32409254803225
 21
290.4081573065536
 31
0.0
  0
LINE
  5
EA
330
4A
100
AcDbEntity
  8
1
  6
Continuous
 62
     7
100
AcDbLine
 10
67.82409254803216
 20
289.9081573065536
 30
0.0
 11
67.32409254803225
 21
290.4081573065535
 31
0.0
  0
LINE
  5
EB
330
4A
100
AcDbEntity
  8
1
  6
Continuous
 62
     7
100
AcDbLine
 10
67.32409254803225
 20
290.4081573065535
 30
0.0
 11
67.32409254803216
 21
319.9178251892043
 31
0.0
  0
LINE
  5
EC
330
4A
100
AcDbEntity
  8
1
  6
Continuous
 62
     2
100
AcDbLine
 10
91.01109254803227
 20
288.5
 30
0.0
 11
91.82409254803225
 21
289.9081573065536
 31
0.0
  0
LINE
  5
ED
330
4A
100
AcDbEntity
  8
1
  6
Continuous
 62
     2
100
AcDbLine
 10
91.01109254803227
 20
288.5
 30
0.0
 11
91.01109254803227
 21
287.0700000000001
 31
0.0
  0
LINE
  5
EE
330
4A
100
AcDbEntity
  8
1
  6
Continuous
 62
     2
100
AcDbLine
 10
67.82409254803216
 20
289.9081573065536
 30
0.0
 11
68.63709254803216
 21
288.5
 31
0.0
  0
LINE
  5
EF
330
4A
100
AcDbEntity
  8
1
  6
Continuous
 62
     7
100
AcDbLine
 10
91.82409254803225
 20
288.5
 30
0.0
 11
91.01109254803227
 21
288.5
 31
0.0
  0
LINE
  5
F0
330
4A
100
AcDbEntity
  8
1
  6
Continuous
 62
     7
100
AcDbLine
 10
91.82409254803225
 20
288.5
 30
0.0
 11
91.82409254803225
 21
289.9081573065536
 31
0.0
  0
LINE
  5
F1
330
4A
100
AcDbEntity
  8
1
  6
Continuous
 62
     7
100
AcDbLine
 10
67.82409254803216
 20
289.9081573065536
 30
0.0
 11
67.82409254803216
 21
288.5
 31
0.0
  0
LINE
  5
F2
330
4A
100
AcDbEntity
  8
1
  6
Continuous
 62
     7
100
AcDbLine
 10
68.63709254803216
 20
288.5
 30
0.0
 11
67.82409254803216
 21
288.5
 31
0.0
  0
LINE
  5
F3
330
4A
100
AcDbEntity
  8
1
  6
Continuous
 62
     7
100
AcDbLine
 10
67.82409254803216
 20
288.5
 30
0.0
 11
67.82409254803216
 21
287.0700000000001
 31
0.0
  0
LINE
  5
F4
330
4A
100
AcDbEntity
  8
1
  6
Continuous
 62
     7
100
AcDbLine
 10
66.82409254803225
 20
331.25
 30
0.0
 11
67.07409254803225
 21
331.5
 31
0.0
  0
LINE
  5
F5
330
4A
100
AcDbEntity
  8
1
  6
Continuous
 62
     7
100
AcDbLine
 10
66.82409254803225
 20
331.25
 30
0.0
 11
66.82409254803225
 21
329.2388930010698
 31
0.0
  0
LINE
  5
F6
330
4A
100
AcDbEntity
  8
1
  6
Continuous
 62
     7
100
AcDbLine
 10
92.57409254803225
 20
331.5
 30
0.0
 11
92.82409254803214
 21
331.2500000000002
 31
0.0
  0
LINE
  5
F7
330
4A
100
AcDbEntity
  8
1
  6
Continuous
 62
     7
100
AcDbLine
 10
92.82409254803214
 20
331.2500000000002
 30
0.0
 11
92.82409254803214
 21
322.0972746609746
 31
0.0
  0
LINE
  5
F8
330
4A
100
AcDbEntity
  8
1
  6
Continuous
 62
     7
100
AcDbLine
 10
92.57409254803225
 20
331.5
 30
0.0
 11
67.07409254803225
 21
331.5
 31
0.0
  0
LINE
  5
F9
330
4A
100
AcDbEntity
  8
1
  6
Continuous
 62
     7
100
AcDbLine
 10
66.82409254803225
 20
329.2388930010698
 30
0.0
 11
66.82409254803225
 21
322.0972746609746
 31
0.0
  0
LINE
  5
FA
330
4A
100
AcDbEntity
  8
1
  6
Continuous
 62
     7
100
AcDbLine
 10
74.39253913230749
 20
299.5
 30
0.0
 11
85.25564596375573
 21
299.5
 31
0.0
  0
LINE
  5
FB
330
4A
100
AcDbEntity
  8
1
  6
Continuous
 62
     7
100
AcDbLine
 10
92.8240925480321
 20
161.8142621490809
 30
0.0
 11
92.8240925480321
 21
176.8253691480111
 31
0.0
  0
LINE
  5
FC
330
4A
100
AcDbEntity
  8
1
  6
PHANTOM
 62
     4
100
AcDbLine
 10
79.82409254803213
 20
201.319815648546
 30
0.0
 11
79.82409254803213
 21
152.069815648546
 31
0.0
  0
LINE
  5
FD
330
4A
100
AcDbEntity
  8
1
  6
Continuous
 62
     7
100
AcDbLine
 10
66.82409254803213
 20
176.8253691480111
 30
0.0
 11
66.82409254803213
 21
161.8142621490809
 31
0.0
  0
LINE
  5
FE
330
4A
100
AcDbEntity
  8
1
  6
Continuous
 62
     7
100
AcDbLine
 10
66.82409254803213
 20
161.8142621490809
 30
0.0
 11
79.82409254803213
 21
154.3087086496158
 31
0.0
  0
LINE
  5
FF
330
4A
100
AcDbEntity
  8
1
  6
Continuous
 62
     7
100
AcDbLine
 10
79.82409254803213
 20
154.3087086496158
 30
0.0
 11
92.8240925480321
 21
161.8142621490809
 31
0.0
  0
LINE
  5
100
330
4A
100
AcDbEntity
  8
1
  6
Continuous
 62
     2
100
AcDbLine
 10
89.16209254803212
 20
190.319815648546
 30
0.0
 11
90.32409254803213
 21
188.307172610151
 31
0.0
  0
LINE
  5
101
330
4A
100
AcDbEntity
  8
1
  6
Continuous
 62
     2
100
AcDbLine
 10
69.32409254803213
 20
188.307172610151
 30
0.0
 11
70.48609254803213
 21
190.319815648546
 31
0.0
  0
LINE
  5
102
330
4A
100
AcDbEntity
  8
1
  6
Continuous
 62
     2
100
AcDbLine
 10
70.48609254803213
 20
190.319815648546
 30
0.0
 11
70.48609254803213
 21
193.819815648546
 31
0.0
  0
LINE
  5
103
330
4A
100
AcDbEntity
  8
1
  6
Continuous
 62
     7
100
AcDbLine
 10
69.32409254803213
 20
190.319815648546
 30
0.0
 11
69.32409254803213
 21
188.307172610151
 31
0.0
  0
LINE
  5
104
330
4A
100
AcDbEntity
  8
1
  6
Continuous
 62
     7
100
AcDbLine
 10
89.16209254803212
 20
190.319815648546
 30
0.0
 11
90.32409254803213
 21
190.319815648546
 31
0.0
  0
LINE
  5
105
330
4A
100
AcDbEntity
  8
1
  6
Continuous
 62
     7
100
AcDbLine
 10
90.32409254803213
 20
190.319815648546
 30
0.0
 11
90.32409254803213
 21
188.307172610151
 31
0.0
  0
LINE
  5
106
330
4A
100
AcDbEntity
  8
1
  6
Continuous
 62
     7
100
AcDbLine
 10
69.32409254803213
 20
190.319815648546
 30
0.0
 11
70.48609254803213
 21
190.319815648546
 31
0.0
  0
LINE
  5
107
330
4A
100
AcDbEntity
  8
1
  6
PHANTOM
 62
     4
100
AcDbLine
 10
63.82409254803212
 20
169.319815648546
 30
0.0
 11
94.8240925480321
 21
169.319815648546
 31
0.0
  0
LINE
  5
108
330
4A
100
AcDbEntity
  8
1
  6
Continuous
 62
     7
100
AcDbLine
 10
92.8240925480321
 20
176.8253691480111
 30
0.0
 11
91.0203057111743
 21
177.8667859638317
 31
0.0
  0
LINE
  5
109
330
4A
100
AcDbEntity
  8
1
  6
Continuous
 62
     7
100
AcDbLine
 10
70.48609254803213
 20
190.319815648546
 30
0.0
 11
89.16209254803212
 21
190.319815648546
 31
0.0
  0
LINE
  5
10A
330
4A
100
AcDbEntity
  8
1
  6
Continuous
 62
     7
100
AcDbLine
 10
68.62787938489001
 20
177.8667859638317
 30
0.0
 11
66.82409254803213
 21
176.8253691480111
 31
0.0
  0
LINE
  5
10B
330
4A
100
AcDbEntity
  8
1
  6
Continuous
 62
     7
100
AcDbLine
 10
90.32409254803213
 20
194.1044983594736
 30
0.0
 11
90.32409254803213
 21
190.319815648546
 31
0.0
  0
LINE
  5
10C
330
4A
100
AcDbEntity
  8
1
  6
Continuous
 62
     2
100
AcDbLine
 10
89.16209254803212
 20
193.819815648546
 30
0.0
 11
89.16209254803212
 21
190.319815648546
 31
0.0
  0
LINE
  5
10D
330
4A
100
AcDbEntity
  8
1
  6
Continuous
 62
     7
100
AcDbLine
 10
69.32409254803213
 20
194.1066663694895
 30
0.0
 11
69.32409254803213
 21
190.319815648546
 31
0.0
  0
ARC
  5
10E
330
4A
100
AcDbEntity
  8
1
  6
Continuous
 62
     7
100
AcDbCircle
 10
173.6226841912895
 20
188.3071726101509
 30
0.0
 40
9.414816921230363
100
AcDbArc
 50
316.4443952515289
 51
0.0
  0
ARC
  5
10F
330
4A
100
AcDbEntity
  8
1
  6
Continuous
 62
     7
100
AcDbCircle
 10
-9.30583854882065
 20
188.3071726101511
 30
0.0
 40
78.6299310968528
100
AcDbArc
 50
352.3698027158716
 51
359.9999999999999
  0
ARC
  5
110
330
4A
100
AcDbEntity
  8
1
  6
Continuous
 62
     7
100
AcDbCircle
 10
168.9540236448849
 20
188.3071726101511
 30
0.0
 40
78.62993109685277
100
AcDbArc
 50
180.0
 51
187.6301972841284
  0
SPLINE
  5
111
330
4A
100
AcDbEntity
  8
1
  6
Continuous
 62
     7
100
AcDbSpline
210
0.0
220
0.0
230
1.0
 70
     8
 71
     3
 72
    33
 73
    29
 74
    27
 42
0.000000001
 43
0.0000000001
 44
0.00000001
 40
0.0
 40
0.0
 40
0.0
 40
0.0
 40
0.4133568979874516
 40
0.8267148958294027
 40
1.047477426098064
 40
1.268240269860651
 40
1.504227365470632
 40
1.7402256780036
 40
2.001195134575679
 40
2.262139226749207
 40
2.573023660009595
 40
2.884147970269442
 40
3.395079508021752
 40
3.905704149328067
 40
4.367715773750068
 40
4.829727398172096
 40
5.340352039478502
 40
5.851283577230802
 40
6.162407887490573
 40
6.473292320750935
 40
6.734236412924551
 40
6.995205869496614
 40
7.231204182029535
 40
7.467191277639534
 40
7.687954121402082
 40
7.908716651670743
 40
8.322074649512713
 40
8.735431547500124
 40
8.735431547500124
 40
8.735431547500124
 40
8.735431547500124
 10
214.5375011125199
 20
154.3087086496157
 30
0.0
 10
214.4408846594299
 20
154.4069588506803
 30
0.0
 10
214.2476515064226
 20
154.6034595241683
 30
0.0
 10
214.0133745480062
 20
154.8625133881305
 30
0.0
 10
213.8282814709319
 20
155.0791961947972
 30
0.0
 10
213.6856595910647
 20
155.2543311917656
 30
0.0
 10
213.5445151890258
 20
155.437127880155
 30
0.0
 10
213.4010067935955
 20
155.6349041632011
 30
0.0
 10
213.2597239042374
 20
155.8444202082953
 30
0.0
 10
213.1138931008348
 20
156.080718618374
 30
0.0
 10
212.9716709906802
 20
156.3385891699025
 30
0.0
 10
212.8098446951552
 20
156.6800549533695
 30
0.0
 10
212.6566806268183
 20
157.0982617589696
 30
0.0
 10
212.5493859675094
 20
157.5828459268036
 30
0.0
 10
212.516070183246
 20
158.0614853993483
 30
0.0
 10
212.5493859675094
 20
158.540124871893
 30
0.0
 10
212.6566806268183
 20
159.024709039727
 30
0.0
 10
212.809844695155
 20
159.4429158453271
 30
0.0
 10
212.9716709906803
 20
159.7843816287941
 30
0.0
 10
213.1138931008348
 20
160.0422521803225
 30
0.0
 10
213.2597239042375
 20
160.2785505904013
 30
0.0
 10
213.4010067935955
 20
160.4880666354955
 30
0.0
 10
213.5445151890257
 20
160.6858429185416
 30
0.0
 10
213.6856595910648
 20
160.868639606931
 30
0.0
 10
213.8282814709318
 20
161.0437746038993
 30
0.0
 10
214.0133745480063
 20
161.2604574105661
 30
0.0
 10
214.2476515064225
 20
161.5195112745283
 30
0.0
 10
214.44088465943
 20
161.7160119480161
 30
0.0
 10
214.5375011125199
 20
161.8142621490808
 30
0.0
 11
214.5375011125199
 21
154.3087086496157
 31
0.0
 11
214.2497346376053
 21
154.6054482378999
 31
0.0
 11
213.9722243627874
 21
154.9118024157515
 31
0.0
 11
213.8289443178224
 21
155.0797515854325
 31
0.0
 11
213.689585987921
 21
155.250969251506
 31
0.0
 11
213.5454556420589
 21
155.4378284305926
 31
0.0
 11
213.4069476130548
 21
155.6289062407435
 31
0.0
 11
213.2611938791366
 21
155.8453800415872
 31
0.0
 11
213.1243092381885
 21
156.0675385760983
 31
0.0
 11
212.9745434967778
 21
156.3399708681561
 31
0.0
 11
212.8416708633223
 21
156.6212948805307
 31
0.0
 11
212.6675333165784
 21
157.1016355427099
 31
0.0
 11
212.559032488456
 21
157.6005995647759
 31
0.0
 11
212.5267991330919
 21
158.0614853993483
 31
0.0
 11
212.559032488456
 21
158.5223712339207
 31
0.0
 11
212.6675333165784
 21
159.0213352559867
 31
0.0
 11
212.8416708633223
 21
159.501675918166
 31
0.0
 11
212.9745434967778
 21
159.7829999305405
 31
0.0
 11
213.1243092381885
 21
160.0554322225983
 31
0.0
 11
213.2611938791366
 21
160.2775907571095
 31
0.0
 11
213.4069476130548
 21
160.4940645579532
 31
0.0
 11
213.5454556420589
 21
160.685142368104
 31
0.0
 11
213.689585987921
 21
160.8720015471906
 31
0.0
 11
213.8289443178224
 21
161.043219213264
 31
0.0
 11
213.9722243627874
 21
161.2111683829451
 31
0.0
 11
214.2497346376053
 21
161.5175225607966
 31
0.0
 11
214.5375011125199
 21
161.8142621490808
 31
0.0
  0
SPLINE
  5
112
330
4A
100
AcDbEntity
  8
1
  6
Continuous
 62
     7
100
AcDbSpline
210
0.0
220
0.0
230
1.0
 70
     8
 71
     3
 72
    33
 73
    29
 74
    27
 42
0.000000001
 43
0.0000000001
 44
0.00000001
 40
0.0
 40
0.0
 40
0.0
 40
0.0
 40
0.4133568979875308
 40
0.8267148958294628
 40
1.047477426098105
 40
1.268240269860693
 40
1.504227365470674
 40
1.740225678003675
 40
2.001195134575738
 40
2.262139226749281
 40
2.573023660009668
 40
2.884147970269539
 40
3.395079508021859
 40
3.905704149328151
 40
4.367715773750157
 40
4.829727398172188
 40
5.340352039478574
 40
5.851283577230894
 40
6.1624078874907
 40
6.47329232075105
 40
6.734236412924665
 40
6.995205869496728
 40
7.231204182029667
 40
7.467191277639682
 40
7.687954121402176
 40
7.908716651670837
 40
8.32207464951277
 40
8.73543154750024
 40
8.73543154750024
 40
8.73543154750024
 40
8.73543154750024
 10
219.2763941135896
 20
154.3087086496157
 30
0.0
 10
219.3730105666796
 20
154.4069588506804
 30
0.0
 10
219.5662437196872
 20
154.6034595241683
 30
0.0
 10
219.8005206781033
 20
154.8625133881304
 30
0.0
 10
219.9856137551777
 20
155.0791961947973
 30
0.0
 10
220.1282356350448
 20
155.2543311917656
 30
0.0
 10
220.2693800370837
 20
155.437127880155
 30
0.0
 10
220.4128884325141
 20
155.6349041632011
 30
0.0
 10
220.5541713218721
 20
155.8444202082954
 30
0.0
 10
220.7000021252748
 20
156.080718618374
 30
0.0
 10
220.8422242354293
 20
156.3385891699025
 30
0.0
 10
221.0040505309545
 20
156.6800549533695
 30
0.0
 10
221.1572145992914
 20
157.0982617589696
 30
0.0
 10
221.2645092586001
 20
157.5828459268036
 30
0.0
 10
221.2978250428637
 20
158.0614853993483
 30
0.0
 10
221.2645092586001
 20
158.540124871893
 30
0.0
 10
221.1572145992914
 20
159.0247090397271
 30
0.0
 10
221.0040505309546
 20
159.4429158453271
 30
0.0
 10
220.8422242354292
 20
159.7843816287941
 30
0.0
 10
220.7000021252748
 20
160.0422521803225
 30
0.0
 10
220.5541713218721
 20
160.2785505904013
 30
0.0
 10
220.4128884325141
 20
160.4880666354955
 30
0.0
 10
220.2693800370838
 20
160.6858429185416
 30
0.0
 10
220.1282356350447
 20
160.8686396069309
 30
0.0
 10
219.9856137551777
 20
161.0437746038994
 30
0.0
 10
219.8005206781035
 20
161.2604574105661
 30
0.0
 10
219.5662437196871
 20
161.5195112745282
 30
0.0
 10
219.3730105666796
 20
161.7160119480162
 30
0.0
 10
219.2763941135897
 20
161.8142621490808
 30
0.0
 11
219.2763941135896
 21
154.3087086496157
 31
0.0
 11
219.5641605885043
 21
154.6054482378999
 31
0.0
 11
219.8416708633222
 21
154.9118024157515
 31
0.0
 11
219.9849509082871
 21
155.0797515854325
 31
0.0
 11
220.1243092381885
 21
155.250969251506
 31
0.0
 11
220.2684395840507
 21
155.4378284305926
 31
0.0
 11
220.4069476130548
 21
155.6289062407435
 31
0.0
 11
220.552701346973
 21
155.8453800415872
 31
0.0
 11
220.6895859879211
 21
156.0675385760983
 31
0.0
 11
220.8393517293318
 21
156.3399708681561
 31
0.0
 11
220.9722243627874
 21
156.6212948805307
 31
0.0
 11
221.1463619095313
 21
157.1016355427099
 31
0.0
 11
221.2548627376536
 21
157.6005995647759
 31
0.0
 11
221.2870960930178
 21
158.0614853993483
 31
0.0
 11
221.2548627376536
 21
158.5223712339207
 31
0.0
 11
221.1463619095313
 21
159.0213352559867
 31
0.0
 11
220.9722243627874
 21
159.501675918166
 31
0.0
 11
220.8393517293318
 21
159.7829999305405
 31
0.0
 11
220.6895859879211
 21
160.0554322225983
 31
0.0
 11
220.552701346973
 21
160.2775907571095
 31
0.0
 11
220.4069476130548
 21
160.4940645579532
 31
0.0
 11
220.2684395840507
 21
160.685142368104
 31
0.0
 11
220.1243092381885
 21
160.8720015471906
 31
0.0
 11
219.9849509082872
 21
161.043219213264
 31
0.0
 11
219.8416708633223
 21
161.2111683829451
 31
0.0
 11
219.5641605885043
 21
161.5175225607966
 31
0.0
 11
219.2763941135897
 21
161.8142621490808
 31
0.0
  0
SPLINE
  5
113
330
4A
100
AcDbEntity
  8
1
  6
Continuous
 62
     7
100
AcDbSpline
210
0.0
220
0.0
230
1.0
 70
     8
 71
     3
 72
    33
 73
    29
 74
    27
 42
0.000000001
 43
0.0000000001
 44
0.00000001
 40
0.0
 40
0.0
 40
0.0
 40
0.0
 40
0.6660942065947836
 40
1.332190221276446
 40
1.699632942691423
 40
2.067077051446506
 40
2.470589211701901
 40
2.87410700574556
 40
3.334983197926081
 40
3.795855498283471
 40
4.367402400501943
 40
4.939051288057358
 40
5.929102488372051
 40
6.919199819071072
 40
7.841546050681655
 40
8.76389228229224
 40
9.75398961299143
 40
10.74404081330612
 40
11.31568970086156
 40
11.88723660308007
 40
12.34810890343743
 40
12.80898509561787
 40
13.21250288966158
 40
13.61601504991694
 40
13.98345915867203
 40
14.35090188008693
 40
15.01699789476854
 40
15.68309210136341
 40
15.68309210136341
 40
15.68309210136341
 40
15.68309210136341
 10
219.2763941135897
 20
176.8253691480111
 30
0.0
 10
219.3743320270841
 20
176.6260928698819
 30
0.0
 10
219.5702081067065
 20
176.2275397662903
 30
0.0
 10
219.8034035776772
 20
175.711092836015
 30
0.0
 10
219.9867824265344
 20
175.2815974537567
 30
0.0
 10
220.1298353756657
 20
174.9301061500265
 30
0.0
 10
220.2707568634838
 20
174.5648302763869
 30
0.0
 10
220.4148251046603
 20
174.1674763469209
 30
0.0
 10
220.5558425274724
 20
173.7487821233245
 30
0.0
 10
220.7024668744667
 20
173.2730454340654
 30
0.0
 10
220.8442655665658
 20
172.7573790735082
 30
0.0
 10
221.0078987627077
 20
172.0652373696637
 30
0.0
 10
221.1599743782161
 20
171.2276216664461
 30
0.0
 10
221.2649161242457
 20
170.264946548285
 30
0.0
 10
221.2982638904367
 20
169.319815648546
 30
0.0
 10
221.2649161242457
 20
168.3746847488071
 30
0.0
 10
221.1599743782161
 20
167.4120096306459
 30
0.0
 10
221.0078987627078
 20
166.5743939274282
 30
0.0
 10
220.8442655665658
 20
165.8822522235835
 30
0.0
 10
220.7024668744667
 20
165.3665858630263
 30
0.0
 10
220.5558425274723
 20
164.8908491737674
 30
0.0
 10
220.4148251046602
 20
164.472154950171
 30
0.0
 10
220.2707568634839
 20
164.0748010207049
 30
0.0
 10
220.1298353756656
 20
163.7095251470653
 30
0.0
 10
219.9867824265345
 20
163.3580338433352
 30
0.0
 10
219.8034035776772
 20
162.9285384610769
 30
0.0
 10
219.5702081067066
 20
162.4120915308017
 30
0.0
 10
219.3743320270841
 20
162.01353842721
 30
0.0
 10
219.2763941135897
 20
161.8142621490808
 30
0.0
 11
219.2763941135897
 21
176.8253691480111
 31
0.0
 11
219.5669341064687
 21
176.225979453448
 31
0.0
 11
219.8416708633222
 21
175.6191816157394
 31
0.0
 11
219.9858211218245
 21
175.281195141689
 31
0.0
 11
220.1243092381885
 21
174.9408479442303
 31
0.0
 11
220.269473039328
 21
174.5643515505369
 31
0.0
 11
220.4069476130549
 21
174.1849739657555
 31
0.0
 11
220.5539491068351
 21
173.748170319328
 31
0.0
 11
220.6895859879211
 21
173.3077092950458
 31
0.0
 11
220.8409152367508
 21
172.7565602043533
 31
0.0
 11
220.9722243627873
 21
172.2001966861812
 31
0.0
 11
221.1483686163633
 21
171.2259407741783
 31
0.0
 11
221.2548627376536
 21
170.2415873176904
 31
0.0
 11
221.2874136474321
 21
169.319815648546
 31
0.0
 11
221.2548627376536
 21
168.3980439794016
 31
0.0
 11
221.1483686163633
 21
167.4136905229136
 31
0.0
 11
220.9722243627873
 21
166.4394346109107
 31
0.0
 11
220.8409152367508
 21
165.8830710927386
 31
0.0
 11
220.6895859879211
 21
165.331922002046
 31
0.0
 11
220.553949106835
 21
164.8914609777638
 31
0.0
 11
220.4069476130548
 21
164.4546573313364
 31
0.0
 11
220.2694730393279
 21
164.0752797465549
 31
0.0
 11
220.1243092381885
 21
163.6987833528616
 31
0.0
 11
219.9858211218244
 21
163.3584361554029
 31
0.0
 11
219.8416708633223
 21
163.0204496813526
 31
0.0
 11
219.5669341064687
 21
162.4136518436439
 31
0.0
 11
219.2763941135897
 21
161.8142621490808
 31
0.0
  0
SPLINE
  5
114
330
4A
100
AcDbEntity
  8
1
  6
Continuous
 62
     7
100
AcDbSpline
210
0.0
220
0.0
230
1.0
 70
     8
 71
     3
 72
    33
 73
    29
 74
    27
 42
0.000000001
 43
0.0000000001
 44
0.00000001
 40
0.0
 40
0.0
 40
0.0
 40
0.0
 40
0.666094206594796
 40
1.332190221276458
 40
1.699632942691424
 40
2.067077051446517
 40
2.470589211701903
 40
2.874107005745532
 40
3.334983197926044
 40
3.795855498283459
 40
4.367402400501923
 40
4.939051288057351
 40
5.929102488372044
 40
6.919199819071062
 40
7.841546050681644
 40
8.763892282292225
 40
9.753989612991408
 40
10.74404081330612
 40
11.31568970086156
 40
11.88723660308006
 40
12.34810890343741
 40
12.80898509561789
 40
13.21250288966157
 40
13.61601504991693
 40
13.98345915867202
 40
14.35090188008694
 40
15.01699789476854
 40
15.6830921013634
 40
15.6830921013634
 40
15.6830921013634
 40
15.6830921013634
 10
214.5375011125199
 20
176.8253691480111
 30
0.0
 10
214.4395631990255
 20
176.6260928698819
 30
0.0
 10
214.2436871194031
 20
176.2275397662903
 30
0.0
 10
214.0104916484324
 20
175.711092836015
 30
0.0
 10
213.8271127995751
 20
175.2815974537567
 30
0.0
 10
213.6840598504439
 20
174.9301061500265
 30
0.0
 10
213.5431383626257
 20
174.564830276387
 30
0.0
 10
213.3990701214494
 20
174.1674763469209
 30
0.0
 10
213.2580526986374
 20
173.7487821233245
 30
0.0
 10
213.1114283516428
 20
173.2730454340655
 30
0.0
 10
212.969629659544
 20
172.7573790735083
 30
0.0
 10
212.8059964634018
 20
172.0652373696636
 30
0.0
 10
212.6539208478935
 20
171.2276216664461
 30
0.0
 10
212.5489791018639
 20
170.2649465482849
 30
0.0
 10
212.5156313356729
 20
169.319815648546
 30
0.0
 10
212.548979101864
 20
168.3746847488071
 30
0.0
 10
212.6539208478933
 20
167.4120096306458
 30
0.0
 10
212.8059964634019
 20
166.5743939274282
 30
0.0
 10
212.9696296595439
 20
165.8822522235836
 30
0.0
 10
213.1114283516429
 20
165.3665858630264
 30
0.0
 10
213.2580526986373
 20
164.8908491737673
 30
0.0
 10
213.3990701214494
 20
164.472154950171
 30
0.0
 10
213.5431383626257
 20
164.0748010207049
 30
0.0
 10
213.684059850444
 20
163.7095251470654
 30
0.0
 10
213.827112799575
 20
163.3580338433351
 30
0.0
 10
214.0104916484325
 20
162.928538461077
 30
0.0
 10
214.243687119403
 20
162.4120915308016
 30
0.0
 10
214.4395631990255
 20
162.0135384272101
 30
0.0
 10
214.5375011125199
 20
161.8142621490808
 30
0.0
 11
214.5375011125199
 21
176.8253691480111
 31
0.0
 11
214.2469611196409
 21
176.225979453448
 31
0.0
 11
213.9722243627873
 21
175.6191816157394
 31
0.0
 11
213.8280741042851
 21
175.281195141689
 31
0.0
 11
213.689585987921
 21
174.9408479442303
 31
0.0
 11
213.5444221867816
 21
174.5643515505369
 31
0.0
 11
213.4069476130548
 21
174.1849739657555
 31
0.0
 11
213.2599461192746
 21
173.748170319328
 31
0.0
 11
213.1243092381885
 21
173.3077092950458
 31
0.0
 11
212.9729799893589
 21
172.7565602043533
 31
0.0
 11
212.8416708633223
 21
172.2001966861812
 31
0.0
 11
212.6655266097463
 21
171.2259407741783
 31
0.0
 11
212.559032488456
 21
170.2415873176904
 31
0.0
 11
212.5264815786775
 21
169.319815648546
 31
0.0
 11
212.559032488456
 21
168.3980439794016
 31
0.0
 11
212.6655266097462
 21
167.4136905229136
 31
0.0
 11
212.8416708633223
 21
166.4394346109107
 31
0.0
 11
212.9729799893589
 21
165.8830710927386
 31
0.0
 11
213.1243092381885
 21
165.331922002046
 31
0.0
 11
213.2599461192745
 21
164.8914609777638
 31
0.0
 11
213.4069476130549
 21
164.4546573313364
 31
0.0
 11
213.5444221867816
 21
164.0752797465549
 31
0.0
 11
213.6895859879211
 21
163.6987833528616
 31
0.0
 11
213.8280741042852
 21
163.3584361554029
 31
0.0
 11
213.9722243627874
 21
163.0204496813526
 31
0.0
 11
214.2469611196409
 21
162.4136518436439
 31
0.0
 11
214.5375011125199
 21
161.8142621490808
 31
0.0
  0
SPLINE
  5
115
330
4A
100
AcDbEntity
  8
1
  6
Continuous
 62
     7
100
AcDbSpline
210
0.0
220
0.0
230
1.0
 70
     8
 71
     3
 72
    33
 73
    29
 74
    27
 42
0.000000001
 43
0.0000000001
 44
0.00000001
 40
0.0
 40
0.0
 40
0.0
 40
0.0
 40
0.4133568979874312
 40
0.8267148958293823
 40
1.047477426098087
 40
1.268240269860674
 40
1.504227365470677
 40
1.740225678003645
 40
2.001195134575676
 40
2.262139226749229
 40
2.573023660009591
 40
2.884147970269387
 40
3.395079508021697
 40
3.905704149328124
 40
4.367715773750067
 40
4.829727398172068
 40
5.340352039478473
 40
5.851283577230801
 40
6.162407887490597
 40
6.473292320750959
 40
6.734236412924551
 40
6.995205869496614
 40
7.231204182029605
 40
7.467191277639536
 40
7.687954121402061
 40
7.908716651670701
 40
8.32207464951263
 40
8.735431547500122
 40
8.735431547500122
 40
8.735431547500122
 40
8.735431547500122
 10
214.5375011125199
 20
184.3309226474762
 30
0.0
 10
214.4408846594299
 20
184.2326724464115
 30
0.0
 10
214.2476515064225
 20
184.0361717729236
 30
0.0
 10
214.0133745480062
 20
183.7771179089615
 30
0.0
 10
213.8282814709319
 20
183.5604351022947
 30
0.0
 10
213.6856595910648
 20
183.3853001053263
 30
0.0
 10
213.5445151890257
 20
183.2025034169368
 30
0.0
 10
213.4010067935955
 20
183.0047271338907
 30
0.0
 10
213.2597239042374
 20
182.7952110887965
 30
0.0
 10
213.1138931008348
 20
182.5589126787178
 30
0.0
 10
212.9716709906803
 20
182.3010421271894
 30
0.0
 10
212.8098446951551
 20
181.9595763437225
 30
0.0
 10
212.6566806268183
 20
181.5413695381223
 30
0.0
 10
212.5493859675094
 20
181.0567853702884
 30
0.0
 10
212.516070183246
 20
180.5781458977436
 30
0.0
 10
212.5493859675094
 20
180.0995064251989
 30
0.0
 10
212.6566806268183
 20
179.6149222573648
 30
0.0
 10
212.8098446951551
 20
179.1967154517648
 30
0.0
 10
212.9716709906803
 20
178.8552496682978
 30
0.0
 10
213.1138931008348
 20
178.5973791167693
 30
0.0
 10
213.2597239042375
 20
178.3610807066906
 30
0.0
 10
213.4010067935955
 20
178.1515646615964
 30
0.0
 10
213.5445151890257
 20
177.9537883785503
 30
0.0
 10
213.6856595910648
 20
177.7709916901609
 30
0.0
 10
213.8282814709318
 20
177.5958566931926
 30
0.0
 10
214.0133745480062
 20
177.3791738865259
 30
0.0
 10
214.2476515064226
 20
177.1201200225638
 30
0.0
 10
214.44088465943
 20
176.9236193490758
 30
0.0
 10
214.5375011125199
 20
176.8253691480111
 30
0.0
 11
214.5375011125199
 21
184.3309226474762
 31
0.0
 11
214.2497346376053
 21
184.034183059192
 31
0.0
 11
213.9722243627874
 21
183.7278288813405
 31
0.0
 11
213.8289443178224
 21
183.5598797116593
 31
0.0
 11
213.689585987921
 21
183.3886620455859
 31
0.0
 11
213.5454556420589
 21
183.2018028664992
 31
0.0
 11
213.4069476130548
 21
183.0107250563484
 31
0.0
 11
213.2611938791366
 21
182.7942512555047
 31
0.0
 11
213.1243092381885
 21
182.5720927209936
 31
0.0
 11
212.9745434967778
 21
182.2996604289358
 31
0.0
 11
212.8416708633223
 21
182.0183364165613
 31
0.0
 11
212.6675333165784
 21
181.5379957543821
 31
0.0
 11
212.559032488456
 21
181.0390317323159
 31
0.0
 11
212.5267991330919
 21
180.5781458977436
 31
0.0
 11
212.559032488456
 21
180.1172600631713
 31
0.0
 11
212.6675333165784
 21
179.6182960411052
 31
0.0
 11
212.8416708633223
 21
179.1379553789259
 31
0.0
 11
212.9745434967778
 21
178.8566313665514
 31
0.0
 11
213.1243092381885
 21
178.5841990744936
 31
0.0
 11
213.2611938791366
 21
178.3620405399824
 31
0.0
 11
213.4069476130548
 21
178.1455667391388
 31
0.0
 11
213.5454556420589
 21
177.9544889289879
 31
0.0
 11
213.689585987921
 21
177.7676297499013
 31
0.0
 11
213.8289443178224
 21
177.5964120838279
 31
0.0
 11
213.9722243627874
 21
177.4284629141469
 31
0.0
 11
214.2497346376053
 21
177.1221087362954
 31
0.0
 11
214.5375011125199
 21
176.8253691480111
 31
0.0
  0
SPLINE
  5
116
330
4A
100
AcDbEntity
  8
1
  6
Continuous
 62
     7
100
AcDbSpline
210
0.0
220
0.0
230
1.0
 70
     8
 71
     3
 72
    33
 73
    29
 74
    27
 42
0.000000001
 43
0.0000000001
 44
0.00000001
 40
0.0
 40
0.0
 40
0.0
 40
0.0
 40
0.4133568979875104
 40
0.8267148958294424
 40
1.047477426098128
 40
1.268240269860716
 40
1.504227365470719
 40
1.74022567800372
 40
2.001195134575736
 40
2.262139226749303
 40
2.573023660009666
 40
2.884147970269486
 40
3.395079508021805
 40
3.905704149328208
 40
4.367715773750157
 40
4.829727398172159
 40
5.340352039478546
 40
5.851283577230892
 40
6.162407887490724
 40
6.473292320751073
 40
6.734236412924664
 40
6.995205869496727
 40
7.231204182029735
 40
7.467191277639683
 40
7.687954121402155
 40
7.908716651670794
 40
8.322074649512684
 40
8.735431547500237
 40
8.735431547500237
 40
8.735431547500237
 40
8.735431547500237
 10
219.2763941135896
 20
184.3309226474762
 30
0.0
 10
219.3730105666796
 20
184.2326724464116
 30
0.0
 10
219.5662437196871
 20
184.0361717729237
 30
0.0
 10
219.8005206781033
 20
183.7771179089614
 30
0.0
 10
219.9856137551777
 20
183.5604351022947
 30
0.0
 10
220.1282356350447
 20
183.3853001053263
 30
0.0
 10
220.2693800370837
 20
183.2025034169368
 30
0.0
 10
220.4128884325141
 20
183.0047271338908
 30
0.0
 10
220.5541713218721
 20
182.7952110887965
 30
0.0
 10
220.7000021252748
 20
182.5589126787178
 30
0.0
 10
220.8422242354293
 20
182.3010421271894
 30
0.0
 10
221.0040505309545
 20
181.9595763437224
 30
0.0
 10
221.1572145992914
 20
181.5413695381224
 30
0.0
 10
221.2645092586001
 20
181.0567853702883
 30
0.0
 10
221.2978250428637
 20
180.5781458977436
 30
0.0
 10
221.2645092586002
 20
180.0995064251989
 30
0.0
 10
221.1572145992914
 20
179.6149222573648
 30
0.0
 10
221.0040505309546
 20
179.1967154517648
 30
0.0
 10
220.8422242354292
 20
178.8552496682979
 30
0.0
 10
220.7000021252749
 20
178.5973791167694
 30
0.0
 10
220.554171321872
 20
178.3610807066906
 30
0.0
 10
220.4128884325141
 20
178.1515646615964
 30
0.0
 10
220.2693800370839
 20
177.9537883785502
 30
0.0
 10
220.1282356350447
 20
177.770991690161
 30
0.0
 10
219.9856137551778
 20
177.5958566931926
 30
0.0
 10
219.8005206781034
 20
177.3791738865259
 30
0.0
 10
219.5662437196872
 20
177.1201200225638
 30
0.0
 10
219.3730105666797
 20
176.9236193490759
 30
0.0
 10
219.2763941135897
 20
176.8253691480111
 30
0.0
 11
219.2763941135896
 21
184.3309226474762
 31
0.0
 11
219.5641605885043
 21
184.034183059192
 31
0.0
 11
219.8416708633222
 21
183.7278288813405
 31
0.0
 11
219.9849509082871
 21
183.5598797116593
 31
0.0
 11
220.1243092381885
 21
183.3886620455859
 31
0.0
 11
220.2684395840507
 21
183.2018028664992
 31
0.0
 11
220.4069476130548
 21
183.0107250563484
 31
0.0
 11
220.552701346973
 21
182.7942512555047
 31
0.0
 11
220.6895859879211
 21
182.5720927209936
 31
0.0
 11
220.8393517293318
 21
182.2996604289358
 31
0.0
 11
220.9722243627874
 21
182.0183364165613
 31
0.0
 11
221.1463619095313
 21
181.5379957543821
 31
0.0
 11
221.2548627376536
 21
181.0390317323159
 31
0.0
 11
221.2870960930178
 21
180.5781458977436
 31
0.0
 11
221.2548627376536
 21
180.1172600631713
 31
0.0
 11
221.1463619095313
 21
179.6182960411052
 31
0.0
 11
220.9722243627874
 21
179.1379553789259
 31
0.0
 11
220.8393517293318
 21
178.8566313665514
 31
0.0
 11
220.6895859879211
 21
178.5841990744936
 31
0.0
 11
220.552701346973
 21
178.3620405399824
 31
0.0
 11
220.4069476130548
 21
178.1455667391388
 31
0.0
 11
220.2684395840507
 21
177.9544889289879
 31
0.0
 11
220.1243092381885
 21
177.7676297499013
 31
0.0
 11
219.9849509082872
 21
177.5964120838279
 31
0.0
 11
219.8416708633223
 21
177.4284629141469
 31
0.0
 11
219.5641605885043
 21
177.1221087362954
 31
0.0
 11
219.2763941135897
 21
176.8253691480111
 31
0.0
  0
SPLINE
  5
117
330
4A
100
AcDbEntity
  8
1
  6
Continuous
 62
     7
100
AcDbSpline
210
0.0
220
0.0
230
1.0
 70
     8
 71
     3
 72
    33
 73
    29
 74
    27
 42
0.000000001
 43
0.0000000001
 44
0.00000001
 40
0.0
 40
0.0
 40
0.0
 40
0.0
 40
0.5939249129343394
 40
1.187851597589208
 40
1.513819739508832
 40
1.839789279790133
 40
2.196317435514579
 40
2.552851932504506
 40
2.958199558378143
 40
3.363541509507911
 40
3.863542574906156
 40
4.363662703217898
 40
5.224160048598762
 40
6.084683374568851
 40
6.883623433991346
 40
7.682563493413801
 40
8.54308681938382
 40
9.403584164764709
 40
9.903704293076476
 40
10.40370535847482
 40
10.80904730960455
 40
11.21439493547826
 40
11.57092943246819
 40
11.92745758819263
 40
12.25342712847387
 40
12.57939527039354
 40
13.17332195504834
 40
13.76724686798269
 40
13.76724686798269
 40
13.76724686798269
 40
13.76724686798269
 10
79.82409254803225
 20
329.2388930010698
 30
0.0
 10
79.6519043531787
 20
329.3366166320829
 30
0.0
 10
79.30752744266557
 20
329.5320641728397
 30
0.0
 10
78.86000490264058
 20
329.7654515697733
 30
0.0
 10
78.48751768702243
 20
329.9491024052667
 30
0.0
 10
78.18326734081126
 20
330.0920951705434
 30
0.0
 10
77.86687575798467
 20
330.2330546571171
 30
0.0
 10
77.52296829187523
 20
330.377048640266
 30
0.0
 10
77.16030849616587
 20
330.5181102193687
 30
0.0
 10
76.74865192889933
 20
330.6646372041496
 30
0.0
 10
76.30202269473172
 20
330.806502290997
 30
0.0
 10
75.70357187864316
 20
330.9699248019864
 30
0.0
 10
74.97818898073808
 20
331.1221340240089
 30
0.0
 10
74.14379391323422
 20
331.2273695165595
 30
0.0
 10
73.32409254803224
 20
331.2607293179219
 30
0.0
 10
72.50439118283036
 20
331.2273695165593
 30
0.0
 10
71.66999611532646
 20
331.122134024009
 30
0.0
 10
70.94461321742148
 20
330.9699248019864
 30
0.0
 10
70.3461624013328
 20
330.8065022909971
 30
0.0
 10
69.89953316716523
 20
330.6646372041495
 30
0.0
 10
69.48787659989856
 20
330.5181102193686
 30
0.0
 10
69.12521680418922
 20
330.3770486402661
 30
0.0
 10
68.78130933807974
 20
330.233054657117
 30
0.0
 10
68.46491775525323
 20
330.0920951705433
 30
0.0
 10
68.16066740904199
 20
329.9491024052668
 30
0.0
 10
67.78818019342393
 20
329.7654515697734
 30
0.0
 10
67.34065765339889
 20
329.5320641728397
 30
0.0
 10
66.99628074288583
 20
329.3366166320829
 30
0.0
 10
66.82409254803225
 20
329.2388930010698
 30
0.0
 11
79.82409254803225
 21
329.2388930010698
 31
0.0
 11
79.30583261809666
 21
329.5289851394007
 31
0.0
 11
78.77950350335695
 21
329.8041697508023
 31
0.0
 11
78.4870752343518
 21
329.9481868927476
 31
0.0
 11
78.19204931158771
 21
330.0868081256686
 31
0.0
 11
77.86634457043039
 21
330.2318210477021
 31
0.0
 11
77.53744324416887
 21
330.3694465005349
 31
0.0
 11
77.15962305810604
 21
330.5162749888592
 31
0.0
 11
76.77770975349175
 21
330.6520848754012
 31
0.0
 11
76.30109565344715
 21
330.8032141753798
 31
0.0
 11
75.81857569920349
 21
330.9347232502675
 31
0.0
 11
74.97624714345395
 21
331.1106160768161
 31
0.0
 11
74.12237023000033
 21
331.2173616251338
 31
0.0
 11
73.32409254803225
 21
331.249887949653
 31
0.0
 11
72.52581486606422
 21
331.2173616251338
 31
0.0
 11
71.67193795261066
 21
331.1106160768161
 31
0.0
 11
70.8296093968611
 21
330.9347232502675
 31
0.0
 11
70.3470894426174
 21
330.8032141753799
 31
0.0
 11
69.87047534257273
 21
330.6520848754012
 31
0.0
 11
69.48856203795845
 21
330.5162749888592
 31
0.0
 11
69.11074185189555
 21
330.3694465005349
 31
0.0
 11
68.78184052563404
 21
330.2318210477021
 31
0.0
 11
68.45613578447674
 21
330.0868081256685
 31
0.0
 11
68.16110986171266
 21
329.9481868927477
 31
0.0
 11
67.8686815927075
 21
329.8041697508023
 31
0.0
 11
67.34235247796784
 21
329.5289851394008
 31
0.0
 11
66.82409254803225
 21
329.2388930010698
 31
0.0
  0
SPLINE
  5
118
330
4A
100
AcDbEntity
  8
1
  6
Continuous
 62
     7
100
AcDbSpline
210
0.0
220
0.0
230
1.0
 70
     8
 71
     3
 72
    33
 73
    29
 74
    27
 42
0.000000001
 43
0.0000000001
 44
0.00000001
 40
0.0
 40
0.0
 40
0.0
 40
0.0
 40
0.593924912934327
 40
1.187851597589183
 40
1.513819739508718
 40
1.839789279789941
 40
2.1963174355144
 40
2.552851932504406
 40
2.958199558378149
 40
3.363541509507957
 40
3.86354257490623
 40
4.363662703217972
 40
5.224160048598808
 40
6.084683374568897
 40
6.883623433991335
 40
7.682563493413762
 40
8.543086819383795
 40
9.403584164764629
 40
9.903704293076437
 40
10.40370535847481
 40
10.80904730960457
 40
11.21439493547825
 40
11.57092943246816
 40
11.92745758819256
 40
12.2534271284738
 40
12.57939527039347
 40
13.17332195504829
 40
13.7672468679827
 40
13.7672468679827
 40
13.7672468679827
 40
13.7672468679827
 10
79.82409254803225
 20
329.2388930010698
 30
0.0
 10
79.99628074288583
 20
329.3366166320829
 30
0.0
 10
80.34065765339892
 20
329.5320641728396
 30
0.0
 10
80.7881801934239
 20
329.7654515697733
 30
0.0
 10
81.16066740904193
 20
329.9491024052667
 30
0.0
 10
81.46491775525308
 20
330.0920951705434
 30
0.0
 10
81.78130933807965
 20
330.233054657117
 30
0.0
 10
82.12521680418915
 20
330.377048640266
 30
0.0
 10
82.48787659989864
 20
330.5181102193687
 30
0.0
 10
82.89953316716522
 20
330.6646372041496
 30
0.0
 10
83.34616240133289
 20
330.8065022909969
 30
0.0
 10
83.94461321742142
 20
330.9699248019864
 30
0.0
 10
84.66999611532648
 20
331.122134024009
 30
0.0
 10
85.50439118283032
 20
331.2273695165594
 30
0.0
 10
86.32409254803223
 20
331.260729317922
 30
0.0
 10
87.14379391323413
 20
331.2273695165593
 30
0.0
 10
87.97818898073797
 20
331.122134024009
 30
0.0
 10
88.703571878643
 20
330.9699248019864
 30
0.0
 10
89.30202269473166
 20
330.8065022909969
 30
0.0
 10
89.74865192889928
 20
330.6646372041495
 30
0.0
 10
90.16030849616591
 20
330.5181102193687
 30
0.0
 10
90.52296829187529
 20
330.3770486402661
 30
0.0
 10
90.86687575798472
 20
330.2330546571171
 30
0.0
 10
91.18326734081118
 20
330.0920951705432
 30
0.0
 10
91.48751768702243
 20
329.9491024052667
 30
0.0
 10
91.86000490264051
 20
329.7654515697733
 30
0.0
 10
92.30752744266557
 20
329.5320641728397
 30
0.0
 10
92.65190435317865
 20
329.3366166320829
 30
0.0
 10
92.82409254803225
 20
329.2388930010698
 30
0.0
 11
79.82409254803225
 21
329.2388930010698
 31
0.0
 11
80.34235247796784
 21
329.5289851394007
 31
0.0
 11
80.86868159270753
 21
329.8041697508023
 31
0.0
 11
81.16110986171257
 21
329.9481868927476
 31
0.0
 11
81.45613578447659
 21
330.0868081256686
 31
0.0
 11
81.78184052563392
 21
330.2318210477021
 31
0.0
 11
82.11074185189553
 21
330.3694465005349
 31
0.0
 11
82.48856203795847
 21
330.5162749888592
 31
0.0
 11
82.8704753425728
 21
330.6520848754012
 31
0.0
 11
83.34708944261743
 21
330.8032141753798
 31
0.0
 11
83.82960939686109
 21
330.9347232502675
 31
0.0
 11
84.6719379526106
 21
331.1106160768161
 31
0.0
 11
85.52581486606422
 21
331.2173616251338
 31
0.0
 11
86.32409254803224
 21
331.249887949653
 31
0.0
 11
87.12237023000024
 21
331.2173616251338
 31
0.0
 11
87.97624714345382
 21
331.1106160768161
 31
0.0
 11
88.81857569920332
 21
330.9347232502675
 31
0.0
 11
89.30109565344706
 21
330.8032141753799
 31
0.0
 11
89.77770975349176
 21
330.6520848754012
 31
0.0
 11
90.15962305810608
 21
330.5162749888592
 31
0.0
 11
90.53744324416894
 21
330.3694465005349
 31
0.0
 11
90.86634457043043
 21
330.2318210477021
 31
0.0
 11
91.19204931158768
 21
330.0868081256685
 31
0.0
 11
91.48707523435176
 21
329.9481868927477
 31
0.0
 11
91.77950350335693
 21
329.8041697508023
 31
0.0
 11
92.30583261809662
 21
329.5289851394008
 31
0.0
 11
92.82409254803225
 21
329.2388930010698
 31
0.0
  0
SPLINE
  5
119
330
4A
100
AcDbEntity
  8
1
  6
Continuous
 62
     7
100
AcDbSpline
210
0.0
220
0.0
230
1.0
 70
     8
 71
     3
 72
    33
 73
    29
 74
    27
 42
0.000000001
 43
0.0000000001
 44
0.00000001
 40
0.0
 40
0.0
 40
0.0
 40
0.0
 40
0.5939249129344504
 40
1.187851597589266
 40
1.51381973950884
 40
1.839789279790141
 40
2.196317435514587
 40
2.552851932504514
 40
2.958199558378151
 40
3.363541509507919
 40
3.863542574906199
 40
4.363662703217941
 40
5.224160048598805
 40
6.084683374568873
 40
6.883623433991369
 40
7.68256349341382
 40
8.543086819383845
 40
9.40358416476471
 40
9.903704293076494
 40
10.40370535847483
 40
10.80904730960461
 40
11.2143949354783
 40
11.57092943246821
 40
11.92745758819263
 40
12.25342712847391
 40
12.5793952703935
 40
13.17332195504836
 40
13.76724686798274
 40
13.76724686798274
 40
13.76724686798274
 40
13.76724686798274
 10
79.82409254803225
 20
324.5
 30
0.0
 10
79.65190435317868
 20
324.4022763689869
 30
0.0
 10
79.30752744266566
 20
324.20682882823
 30
0.0
 10
78.8600049026406
 20
323.9734414312964
 30
0.0
 10
78.4875176870224
 20
323.7897905958031
 30
0.0
 10
78.18326734081126
 20
323.6467978305265
 30
0.0
 10
77.86687575798466
 20
323.5058383439527
 30
0.0
 10
77.52296829187523
 20
323.3618443608038
 30
0.0
 10
77.16030849616587
 20
323.2207827817012
 30
0.0
 10
76.74865192889928
 20
323.0742557969202
 30
0.0
 10
76.30202269473175
 20
322.9323907100728
 30
0.0
 10
75.70357187864313
 20
322.7689681990833
 30
0.0
 10
74.97818898073811
 20
322.6167589770606
 30
0.0
 10
74.14379391323419
 20
322.5115234845105
 30
0.0
 10
73.32409254803228
 20
322.4781636831479
 30
0.0
 10
72.50439118283035
 20
322.5115234845103
 30
0.0
 10
71.66999611532648
 20
322.6167589770608
 30
0.0
 10
70.94461321742142
 20
322.7689681990833
 30
0.0
 10
70.34616240133285
 20
322.9323907100728
 30
0.0
 10
69.89953316716515
 20
323.07425579692
 30
0.0
 10
69.48787659989864
 20
323.2207827817013
 30
0.0
 10
69.12521680418922
 20
323.3618443608037
 30
0.0
 10
68.78130933807975
 20
323.5058383439528
 30
0.0
 10
68.4649177552532
 20
323.6467978305262
 30
0.0
 10
68.16066740904205
 20
323.7897905958032
 30
0.0
 10
67.78818019342383
 20
323.9734414312961
 30
0.0
 10
67.34065765339894
 20
324.2068288282302
 30
0.0
 10
66.99628074288583
 20
324.4022763689869
 30
0.0
 10
66.82409254803225
 20
324.5
 30
0.0
 11
79.82409254803225
 21
324.5
 31
0.0
 11
79.30583261809666
 21
324.2099078616689
 31
0.0
 11
78.77950350335695
 21
323.9347232502674
 31
0.0
 11
78.4870752343518
 21
323.7907061083222
 31
0.0
 11
78.19204931158771
 21
323.6520848754012
 31
0.0
 11
77.86634457043039
 21
323.5070719533678
 31
0.0
 11
77.53744324416887
 21
323.3694465005349
 31
0.0
 11
77.15962305810604
 21
323.2226180122107
 31
0.0
 11
76.77770975349175
 21
323.0868081256686
 31
0.0
 11
76.30109565344715
 21
322.9356788256899
 31
0.0
 11
75.81857569920349
 21
322.8041697508022
 31
0.0
 11
74.97624714345395
 21
322.6282769242536
 31
0.0
 11
74.12237023000033
 21
322.521531375936
 31
0.0
 11
73.32409254803225
 21
322.4890050514168
 31
0.0
 11
72.52581486606422
 21
322.521531375936
 31
0.0
 11
71.67193795261066
 21
322.6282769242537
 31
0.0
 11
70.8296093968611
 21
322.8041697508022
 31
0.0
 11
70.3470894426174
 21
322.9356788256899
 31
0.0
 11
69.87047534257273
 21
323.0868081256685
 31
0.0
 11
69.48856203795845
 21
323.2226180122107
 31
0.0
 11
69.11074185189555
 21
323.3694465005349
 31
0.0
 11
68.78184052563404
 21
323.5070719533677
 31
0.0
 11
68.45613578447674
 21
323.6520848754012
 31
0.0
 11
68.16110986171266
 21
323.7907061083221
 31
0.0
 11
67.8686815927075
 21
323.9347232502674
 31
0.0
 11
67.34235247796784
 21
324.209907861669
 31
0.0
 11
66.82409254803225
 21
324.5
 31
0.0
  0
SPLINE
  5
11A
330
4A
100
AcDbEntity
  8
1
  6
Continuous
 62
     7
100
AcDbSpline
210
0.0
220
0.0
230
1.0
 70
     8
 71
     3
 72
    33
 73
    29
 74
    27
 42
0.000000001
 43
0.0000000001
 44
0.00000001
 40
0.0
 40
0.0
 40
0.0
 40
0.0
 40
0.593924912934438
 40
1.187851597589241
 40
1.513819739508726
 40
1.83978927978995
 40
2.196317435514409
 40
2.552851932504415
 40
2.958199558378158
 40
3.363541509507966
 40
3.863542574906273
 40
4.363662703218015
 40
5.224160048598852
 40
6.084683374568919
 40
6.883623433991358
 40
7.682563493413781
 40
8.54308681938382
 40
9.40358416476463
 40
9.903704293076455
 40
10.40370535847481
 40
10.80904730960463
 40
11.21439493547829
 40
11.57092943246817
 40
11.92745758819255
 40
12.25342712847384
 40
12.57939527039344
 40
13.1733219550483
 40
13.76724686798274
 40
13.76724686798274
 40
13.76724686798274
 40
13.76724686798274
 10
79.82409254803225
 20
324.5
 30
0.0
 10
79.99628074288583
 20
324.4022763689869
 30
0.0
 10
80.34065765339885
 20
324.2068288282298
 30
0.0
 10
80.78818019342384
 20
323.9734414312964
 30
0.0
 10
81.16066740904199
 20
323.789790595803
 30
0.0
 10
81.46491775525304
 20
323.6467978305263
 30
0.0
 10
81.78130933807968
 20
323.5058383439527
 30
0.0
 10
82.12521680418918
 20
323.3618443608038
 30
0.0
 10
82.48787659989864
 20
323.2207827817011
 30
0.0
 10
82.89953316716523
 20
323.0742557969202
 30
0.0
 10
83.34616240133283
 20
322.9323907100728
 30
0.0
 10
83.94461321742143
 20
322.7689681990833
 30
0.0
 10
84.66999611532646
 20
322.6167589770608
 30
0.0
 10
85.50439118283033
 20
322.5115234845105
 30
0.0
 10
86.32409254803221
 20
322.4781636831478
 30
0.0
 10
87.14379391323415
 20
322.5115234845104
 30
0.0
 10
87.97818898073798
 20
322.6167589770607
 30
0.0
 10
88.703571878643
 20
322.7689681990834
 30
0.0
 10
89.30202269473165
 20
322.9323907100728
 30
0.0
 10
89.74865192889929
 20
323.0742557969201
 30
0.0
 10
90.1603084961659
 20
323.2207827817011
 30
0.0
 10
90.52296829187526
 20
323.3618443608037
 30
0.0
 10
90.86687575798472
 20
323.5058383439526
 30
0.0
 10
91.18326734081123
 20
323.6467978305264
 30
0.0
 10
91.48751768702238
 20
323.7897905958031
 30
0.0
 10
91.86000490264061
 20
323.9734414312962
 30
0.0
 10
92.3075274426655
 20
324.20682882823
 30
0.0
 10
92.65190435317868
 20
324.402276368987
 30
0.0
 10
92.82409254803225
 20
324.5
 30
0.0
 11
79.82409254803225
 21
324.5
 31
0.0
 11
80.34235247796784
 21
324.2099078616689
 31
0.0
 11
80.86868159270753
 21
323.9347232502674
 31
0.0
 11
81.16110986171257
 21
323.7907061083222
 31
0.0
 11
81.45613578447659
 21
323.6520848754012
 31
0.0
 11
81.78184052563392
 21
323.5070719533678
 31
0.0
 11
82.11074185189553
 21
323.3694465005349
 31
0.0
 11
82.48856203795847
 21
323.2226180122107
 31
0.0
 11
82.8704753425728
 21
323.0868081256686
 31
0.0
 11
83.34708944261743
 21
322.9356788256899
 31
0.0
 11
83.82960939686109
 21
322.8041697508022
 31
0.0
 11
84.6719379526106
 21
322.6282769242536
 31
0.0
 11
85.52581486606422
 21
322.521531375936
 31
0.0
 11
86.32409254803224
 21
322.4890050514168
 31
0.0
 11
87.12237023000024
 21
322.521531375936
 31
0.0
 11
87.97624714345382
 21
322.6282769242537
 31
0.0
 11
88.81857569920332
 21
322.8041697508022
 31
0.0
 11
89.30109565344706
 21
322.9356788256899
 31
0.0
 11
89.77770975349176
 21
323.0868081256685
 31
0.0
 11
90.15962305810608
 21
323.2226180122107
 31
0.0
 11
90.53744324416894
 21
323.3694465005349
 31
0.0
 11
90.86634457043043
 21
323.5070719533677
 31
0.0
 11
91.19204931158768
 21
323.6520848754012
 31
0.0
 11
91.48707523435176
 21
323.7907061083221
 31
0.0
 11
91.77950350335693
 21
323.9347232502674
 31
0.0
 11
92.30583261809662
 21
324.209907861669
 31
0.0
 11
92.82409254803225
 21
324.5
 31
0.0
  0
ARC
  5
11B
330
4A
100
AcDbEntity
  8
1
  6
Continuous
 62
     7
100
AcDbCircle
 10
209.9553263017242
 20
186.8198156485461
 30
0.0
 40
5.0
100
AcDbArc
 50
270.0
 51
314.9999999999993
  0
ARC
  5
11C
330
4A
100
AcDbEntity
  8
1
  6
Continuous
 62
     7
100
AcDbCircle
 10
209.0375011125199
 20
186.8198156485461
 30
0.0
 40
5.0
100
AcDbArc
 50
180.0
 51
270.0
  0
ARC
  5
11D
330
4A
100
AcDbEntity
  8
1
  6
Continuous
 62
     7
100
AcDbCircle
 10
209.9553263017242
 20
151.819815648546
 30
0.0
 40
4.99999999999994
100
AcDbArc
 50
44.99999999999839
 51
90.0
  0
ARC
  5
11E
330
4A
100
AcDbEntity
  8
1
  6
Continuous
 62
     7
100
AcDbCircle
 10
97.32409254803225
 20
319.9178251892043
 30
0.0
 40
5.000000000000104
100
AcDbArc
 50
154.1580672368334
 51
180.0
  0
ARC
  5
11F
330
4A
100
AcDbEntity
  8
1
  6
Continuous
 62
     7
100
AcDbCircle
 10
62.32409254803213
 20
319.9178251892043
 30
0.0
 40
5.000000000000028
100
AcDbArc
 50
0.0
 51
25.84193276316653
  0
ENDBLK
  5
4C
330
4A
100
AcDbEntity
  8
0
100
AcDbBlockEnd
  0
BLOCK
  5
4E
330
4D
100
AcDbEntity
  8
0
100
AcDbBlockBegin
  2
64-7-13-55
 70
     0
 10
381.286758560684
 20
32.02593046409051
 30
0.0
  3
64-7-13-55
  1

  0
LINE
  5
120
330
4D
100
AcDbEntity
  8
1
  6
Continuous
 62
     7
100
AcDbLine
 10
90.42794464151865
 20
335.5
 30
0.0
 11
90.33492113419908
 21
331.5
 31
0.0
  0
LINE
  5
121
330
4D
100
AcDbEntity
  8
1
  6
Continuous
 62
     7
100
AcDbLine
 10
70.38263634617385
 20
335.5
 30
0.0
 11
90.42794464151865
 21
335.5
 31
0.0
  0
LINE
  5
122
330
4D
100
AcDbEntity
  8
1
  6
Continuous
 62
     7
100
AcDbLine
 10
90.48299332094928
 20
337.6086758524722
 30
0.0
 11
90.42794464151865
 21
335.5
 31
0.0
  0
LINE
  5
123
330
4D
100
AcDbEntity
  8
1
  6
Continuous
 62
     7
100
AcDbLine
 10
88.92780532310167
 20
377.5000000000001
 30
0.0
 11
88.92610476732057
 21
377.5000000000001
 31
0.0
  0
LINE
  5
124
330
4D
100
AcDbEntity
  8
1
  6
Continuous
 62
     2
100
AcDbLine
 10
89.26554874989074
 20
335.5
 30
0.0
 11
90.48299332094928
 21
337.6086758524722
 31
0.0
  0
LINE
  5
125
330
4D
100
AcDbEntity
  8
1
  6
Continuous
 62
     2
100
AcDbLine
 10
89.26554874989074
 20
335.5
 30
0.0
 11
89.16110444756157
 21
331.5
 31
0.0
  0
LINE
  5
126
330
4D
100
AcDbEntity
  8
1
  6
Continuous
 62
     2
100
AcDbLine
 10
88.92610476732057
 20
377.5000000000001
 30
0.0
 11
89.26554874989074
 21
364.5
 31
0.0
  0
LINE
  5
127
330
4D
100
AcDbEntity
  8
1
  6
Continuous
 62
     7
100
AcDbLine
 10
90.71928541906163
 20
338.0179457718299
 30
0.0
 11
90.71928541906163
 21
347.5
 31
0.0
  0
LINE
  5
128
330
4D
100
AcDbEntity
  8
1
  6
Continuous
 62
     7
100
AcDbLine
 10
90.48299332094928
 20
337.6086758524722
 30
0.0
 11
90.71928541906163
 21
338.0179457718299
 31
0.0
  0
LINE
  5
129
330
4D
100
AcDbEntity
  8
1
  6
Continuous
 62
     7
100
AcDbLine
 10
70.72208032874414
 20
377.5000000000001
 30
0.0
 11
70.72037977296304
 21
377.5000000000001
 31
0.0
  0
LINE
  5
12A
330
4D
100
AcDbEntity
  8
1
  6
Continuous
 62
     7
100
AcDbLine
 10
88.92610476732057
 20
377.5000000000001
 30
0.0
 11
70.72208032874414
 21
377.5000000000001
 31
0.0
  0
LINE
  5
12B
330
4D
100
AcDbEntity
  8
1
  6
Continuous
 62
     7
100
AcDbLine
 10
69.22024045454594
 20
364.5
 30
0.0
 11
69.49558301458103
 21
376.3396980707003
 31
0.0
  0
LINE
  5
12C
330
4D
100
AcDbEntity
  8
1
  6
Continuous
 62
     7
100
AcDbLine
 10
89.26554874989074
 20
364.5
 30
0.0
 11
69.22024045454594
 21
364.5
 31
0.0
  0
LINE
  5
12D
330
4D
100
AcDbEntity
  8
1
  6
Continuous
 62
     7
100
AcDbLine
 10
69.49558301458103
 20
376.3396980707003
 30
0.0
 11
70.72037977296304
 21
377.5000000000001
 31
0.0
  0
LINE
  5
12E
330
4D
100
AcDbEntity
  8
1
  6
Continuous
 62
     2
100
AcDbLine
 10
70.38263634617385
 20
364.5
 30
0.0
 11
70.72208032874414
 21
377.5000000000001
 31
0.0
  0
LINE
  5
12F
330
4D
100
AcDbEntity
  8
1
  6
Continuous
 62
     7
100
AcDbLine
 10
68.92889967700307
 20
338.0179457718299
 30
0.0
 11
69.16519177511532
 21
337.6086758524722
 31
0.0
  0
LINE
  5
130
330
4D
100
AcDbEntity
  8
1
  6
Continuous
 62
     2
100
AcDbLine
 10
69.16519177511532
 20
337.6086758524722
 30
0.0
 11
70.38263634617385
 21
335.5
 31
0.0
  0
LINE
  5
131
330
4D
100
AcDbEntity
  8
1
  6
Continuous
 62
     7
100
AcDbLine
 10
69.22024045454594
 20
335.5
 30
0.0
 11
69.16519177511532
 21
337.6086758524722
 31
0.0
  0
LINE
  5
132
330
4D
100
AcDbEntity
  8
1
  6
Continuous
 62
     7
100
AcDbLine
 10
69.22024045454594
 20
335.5
 30
0.0
 11
70.38263634617385
 21
335.5
 31
0.0
  0
LINE
  5
133
330
4D
100
AcDbEntity
  8
1
  6
Continuous
 62
     7
100
AcDbLine
 10
88.92780532310167
 20
377.5000000000001
 30
0.0
 11
90.15260208148356
 21
376.3396980707003
 31
0.0
  0
LINE
  5
134
330
4D
100
AcDbEntity
  8
1
  6
Continuous
 62
     7
100
AcDbLine
 10
90.15260208148356
 20
376.3396980707003
 30
0.0
 11
90.42794464151865
 21
364.5
 31
0.0
  0
LINE
  5
135
330
4D
100
AcDbEntity
  8
1
  6
Continuous
 62
     7
100
AcDbLine
 10
90.15260208148356
 20
376.3396980707003
 30
0.0
 11
69.49558301458103
 21
376.3396980707003
 31
0.0
  0
LINE
  5
136
330
4D
100
AcDbEntity
  8
1
  6
Continuous
 62
     7
100
AcDbLine
 10
69.31326396186563
 20
331.5
 30
0.0
 11
69.22024045454594
 21
335.5
 31
0.0
  0
LINE
  5
137
330
4D
100
AcDbEntity
  8
1
  6
Continuous
 62
     2
100
AcDbLine
 10
70.48708064850302
 20
331.5
 30
0.0
 11
70.38263634617385
 21
335.5
 31
0.0
  0
LINE
  5
138
330
4D
100
AcDbEntity
  8
1
  6
Continuous
 62
     7
100
AcDbLine
 10
68.92889967700307
 20
347.5
 30
0.0
 11
68.92889967700307
 21
338.0179457718299
 31
0.0
  0
LINE
  5
139
330
4D
100
AcDbEntity
  8
1
  6
Continuous
 62
     7
100
AcDbLine
 10
68.92889967700307
 20
338.0179457718299
 30
0.0
 11
90.71928541906163
 21
338.0179457718299
 31
0.0
  0
LINE
  5
13A
330
4D
100
AcDbEntity
  8
1
  6
Continuous
 62
     2
100
AcDbLine
 10
70.38263634617385
 20
364.5
 30
0.0
 11
69.8052860769842
 21
363.5
 31
0.0
  0
LINE
  5
13B
330
4D
100
AcDbEntity
  8
1
  6
Continuous
 62
     7
100
AcDbLine
 10
90.42794464151865
 20
364.5
 30
0.0
 11
89.26554874989074
 21
364.5
 31
0.0
  0
LINE
  5
13C
330
4D
100
AcDbEntity
  8
1
  6
Continuous
 62
     7
100
AcDbLine
 10
90.42794464151865
 20
364.5
 30
0.0
 11
90.45405044595793
 21
363.5
 31
0.0
  0
LINE
  5
13D
330
4D
100
AcDbEntity
  8
1
  6
Continuous
 62
     7
100
AcDbLine
 10
69.19413465010655
 20
363.5
 30
0.0
 11
69.22024045454594
 21
364.5
 31
0.0
  0
LINE
  5
13E
330
4D
100
AcDbEntity
  8
1
  6
Continuous
 62
     2
100
AcDbLine
 10
89.84289901908028
 20
363.5
 30
0.0
 11
89.26554874989074
 21
364.5
 31
0.0
  0
LINE
  5
13F
330
4D
100
AcDbEntity
  8
1
  6
Continuous
 62
     2
100
AcDbLine
 10
253.5375011125199
 20
159.301009177498
 30
0.0
 11
254.5375011125199
 21
159.8783594466875
 31
0.0
  0
LINE
  5
140
330
4D
100
AcDbEntity
  8
1
  6
Continuous
 62
     7
100
AcDbLine
 10
253.5375011125199
 20
179.9497735464717
 30
0.0
 11
254.5375011125199
 21
179.9236677420323
 31
0.0
  0
LINE
  5
141
330
4D
100
AcDbEntity
  8
1
  6
Continuous
 62
     7
100
AcDbLine
 10
254.5375011125199
 20
158.7159635550596
 30
0.0
 11
253.5375011125199
 21
158.6898577506204
 31
0.0
  0
LINE
  5
142
330
4D
100
AcDbEntity
  8
1
  6
Continuous
 62
     7
100
AcDbLine
 10
254.5375011125199
 20
158.7159635550596
 30
0.0
 11
254.5375011125199
 21
159.8783594466875
 31
0.0
  0
LINE
  5
143
330
4D
100
AcDbEntity
  8
1
  6
Continuous
 62
     2
100
AcDbLine
 10
254.5375011125199
 20
178.7612718504044
 30
0.0
 11
253.5375011125199
 21
179.3386221195941
 31
0.0
  0
LINE
  5
144
330
4D
100
AcDbEntity
  8
1
  6
Continuous
 62
     7
100
AcDbLine
 10
228.0554468843498
 20
180.2150085195752
 30
0.0
 11
228.0554468843498
 21
158.4246227775166
 31
0.0
  0
LINE
  5
145
330
4D
100
AcDbEntity
  8
1
  6
Continuous
 62
     7
100
AcDbLine
 10
237.5375011125199
 20
180.2150085195752
 30
0.0
 11
228.0554468843498
 21
180.2150085195752
 31
0.0
  0
LINE
  5
146
330
4D
100
AcDbEntity
  8
1
  6
Continuous
 62
     2
100
AcDbLine
 10
221.5375011125199
 20
178.6568275480752
 30
0.0
 11
225.5375011125199
 21
178.7612718504044
 31
0.0
  0
LINE
  5
147
330
4D
100
AcDbEntity
  8
1
  6
Continuous
 62
     7
100
AcDbLine
 10
221.5375011125199
 20
179.8306442347126
 30
0.0
 11
225.5375011125199
 21
179.9236677420323
 31
0.0
  0
LINE
  5
148
330
4D
100
AcDbEntity
  8
1
  6
Continuous
 62
     7
100
AcDbLine
 10
266.3771991832201
 20
158.9913061150947
 30
0.0
 11
266.3771991832201
 21
179.6483251819972
 31
0.0
  0
LINE
  5
149
330
4D
100
AcDbEntity
  8
1
  6
Continuous
 62
     7
100
AcDbLine
 10
266.3771991832201
 20
158.9913061150947
 30
0.0
 11
254.5375011125199
 21
158.7159635550596
 31
0.0
  0
LINE
  5
14A
330
4D
100
AcDbEntity
  8
1
  6
Continuous
 62
     7
100
AcDbLine
 10
267.5375011125199
 20
160.2161028734766
 30
0.0
 11
266.3771991832201
 21
158.9913061150947
 31
0.0
  0
LINE
  5
14B
330
4D
100
AcDbEntity
  8
1
  6
Continuous
 62
     7
100
AcDbLine
 10
225.5375011125199
 20
179.9236677420323
 30
0.0
 11
225.5375011125199
 21
178.7612718504044
 31
0.0
  0
LINE
  5
14C
330
4D
100
AcDbEntity
  8
1
  6
Continuous
 62
     7
100
AcDbLine
 10
225.5375011125199
 20
179.9236677420323
 30
0.0
 11
227.646176964992
 21
179.9787164214629
 31
0.0
  0
LINE
  5
14D
330
4D
100
AcDbEntity
  8
1
  6
Continuous
 62
     2
100
AcDbLine
 10
227.646176964992
 20
179.9787164214629
 30
0.0
 11
225.5375011125199
 21
178.7612718504044
 31
0.0
  0
LINE
  5
14E
330
4D
100
AcDbEntity
  8
1
  6
Continuous
 62
     7
100
AcDbLine
 10
228.0554468843498
 20
180.2150085195752
 30
0.0
 11
227.646176964992
 21
179.9787164214629
 31
0.0
  0
LINE
  5
14F
330
4D
100
AcDbEntity
  8
1
  6
Continuous
 62
     2
100
AcDbLine
 10
254.5375011125199
 20
178.7612718504044
 30
0.0
 11
267.5375011125199
 21
178.4218278678341
 31
0.0
  0
LINE
  5
150
330
4D
100
AcDbEntity
  8
1
  6
Continuous
 62
     7
100
AcDbLine
 10
266.3771991832201
 20
179.6483251819972
 30
0.0
 11
267.5375011125199
 21
178.4235284236152
 31
0.0
  0
LINE
  5
151
330
4D
100
AcDbEntity
  8
1
  6
Continuous
 62
     7
100
AcDbLine
 10
254.5375011125199
 20
159.8783594466875
 30
0.0
 11
254.5375011125199
 21
179.9236677420323
 31
0.0
  0
LINE
  5
152
330
4D
100
AcDbEntity
  8
1
  6
Continuous
 62
     7
100
AcDbLine
 10
254.5375011125199
 20
179.9236677420323
 30
0.0
 11
266.3771991832201
 21
179.6483251819972
 31
0.0
  0
LINE
  5
153
330
4D
100
AcDbEntity
  8
1
  6
Continuous
 62
     7
100
AcDbLine
 10
267.5375011125199
 20
160.2178034292577
 30
0.0
 11
267.5375011125199
 21
178.4218278678341
 31
0.0
  0
LINE
  5
154
330
4D
100
AcDbEntity
  8
1
  6
Continuous
 62
     7
100
AcDbLine
 10
267.5375011125199
 20
178.4218278678341
 30
0.0
 11
267.5375011125199
 21
178.4235284236152
 31
0.0
  0
LINE
  5
155
330
4D
100
AcDbEntity
  8
1
  6
Continuous
 62
     7
100
AcDbLine
 10
227.646176964992
 20
158.660914875629
 30
0.0
 11
228.0554468843498
 21
158.4246227775166
 31
0.0
  0
LINE
  5
156
330
4D
100
AcDbEntity
  8
1
  6
Continuous
 62
     7
100
AcDbLine
 10
228.0554468843498
 20
158.4246227775166
 30
0.0
 11
237.5375011125199
 21
158.4246227775166
 31
0.0
  0
LINE
  5
157
330
4D
100
AcDbEntity
  8
1
  6
Continuous
 62
     2
100
AcDbLine
 10
267.5375011125199
 20
160.2178034292577
 30
0.0
 11
254.5375011125199
 21
159.8783594466875
 31
0.0
  0
LINE
  5
158
330
4D
100
AcDbEntity
  8
1
  6
Continuous
 62
     2
100
AcDbLine
 10
225.5375011125199
 20
159.8783594466875
 30
0.0
 11
221.5375011125199
 21
159.9828037490167
 31
0.0
  0
LINE
  5
159
330
4D
100
AcDbEntity
  8
1
  6
Continuous
 62
     2
100
AcDbLine
 10
225.5375011125199
 20
159.8783594466875
 30
0.0
 11
227.646176964992
 21
158.660914875629
 31
0.0
  0
LINE
  5
15A
330
4D
100
AcDbEntity
  8
1
  6
Continuous
 62
     7
100
AcDbLine
 10
267.5375011125199
 20
160.2161028734766
 30
0.0
 11
267.5375011125199
 21
160.2178034292577
 31
0.0
  0
LINE
  5
15B
330
4D
100
AcDbEntity
  8
1
  6
Continuous
 62
     7
100
AcDbLine
 10
227.646176964992
 20
158.660914875629
 30
0.0
 11
225.5375011125199
 21
158.7159635550596
 31
0.0
  0
LINE
  5
15C
330
4D
100
AcDbEntity
  8
1
  6
Continuous
 62
     7
100
AcDbLine
 10
225.5375011125199
 20
178.7612718504044
 30
0.0
 11
225.5375011125199
 21
158.7159635550596
 31
0.0
  0
LINE
  5
15D
330
4D
100
AcDbEntity
  8
1
  6
Continuous
 62
     7
100
AcDbLine
 10
225.5375011125199
 20
158.7159635550596
 30
0.0
 11
221.5375011125199
 21
158.8089870623792
 31
0.0
  0
ENDBLK
  5
4F
330
4D
100
AcDbEntity
  8
0
100
AcDbBlockEnd
  0
BLOCK
  5
51
330
50
100
AcDbEntity
  8
0
100
AcDbBlockBegin
  2
78-167
 70
     0
 10
297.1335982707208
 20
-36.92244694433663
 30
0.0
  3
78-167
  1

  0
LINE
  5
15E
330
50
100
AcDbEntity
  8
1
  6
Continuous
 62
     7
100
AcDbLine
 10
90.7649590787384
 20
347.5
 30
0.0
 11
91.94531922007428
 21
347.5
 31
0.0
  0
LINE
  5
15F
330
50
100
AcDbEntity
  8
1
  6
Continuous
 62
     7
100
AcDbLine
 10
49.8240925480323
 20
363.5
 30
0.0
 11
109.8240925480322
 21
363.5
 31
0.0
  0
LINE
  5
160
330
50
100
AcDbEntity
  8
1
  6
Continuous
 62
     7
100
AcDbLine
 10
49.8240925480323
 20
363.5
 30
0.0
 11
49.8240925480323
 21
361.5
 31
0.0
  0
LINE
  5
161
330
50
100
AcDbEntity
  8
1
  6
Continuous
 62
     7
100
AcDbLine
 10
91.94531922007428
 20
347.5
 30
0.0
 11
67.61992407134488
 21
347.5
 31
0.0
  0
LINE
  5
162
330
50
100
AcDbEntity
  8
1
  6
Continuous
 62
     7
100
AcDbLine
 10
109.8240925480322
 20
361.5
 30
0.0
 11
109.8240925480322
 21
363.5
 31
0.0
  0
LINE
  5
163
330
50
100
AcDbEntity
  8
1
  6
Continuous
 62
     7
100
AcDbLine
 10
251.5375011125199
 20
139.319815648546
 30
0.0
 11
253.5375011125199
 21
139.319815648546
 31
0.0
  0
LINE
  5
164
330
50
100
AcDbEntity
  8
1
  6
Continuous
 62
     7
100
AcDbLine
 10
237.5375011125199
 20
157.1985889765039
 30
0.0
 11
237.5375011125199
 21
181.5239841252333
 31
0.0
  0
LINE
  5
165
330
50
100
AcDbEntity
  8
1
  6
Continuous
 62
     7
100
AcDbLine
 10
253.5375011125199
 20
199.3198156485459
 30
0.0
 11
251.5375011125199
 21
199.3198156485459
 31
0.0
  0
LINE
  5
166
330
50
100
AcDbEntity
  8
1
  6
Continuous
 62
     7
100
AcDbLine
 10
253.5375011125199
 20
199.3198156485459
 30
0.0
 11
253.5375011125199
 21
139.319815648546
 31
0.0
  0
LINE
  5
167
330
50
100
AcDbEntity
  8
1
  6
Continuous
 62
     7
100
AcDbLine
 10
237.5375011125199
 20
158.3789491178398
 30
0.0
 11
237.5375011125199
 21
157.1985889765039
 31
0.0
  0
ARC
  5
168
330
50
100
AcDbEntity
  8
1
  6
Continuous
 62
     7
100
AcDbCircle
 10
79.82409254803213
 20
169.319815648546
 30
0.0
 40
32.06610472190874
100
AcDbArc
 50
110.6800047299002
 51
68.73416593707356
  0
ARC
  5
169
330
50
100
AcDbEntity
  8
1
  6
Continuous
 62
     7
100
AcDbCircle
 10
67.61992407134488
 20
372.5
 30
0.0
 40
25.00000000000008
100
AcDbArc
 50
246.4435356908991
 51
270.0
  0
ARC
  5
16A
330
50
100
AcDbEntity
  8
1
  6
Continuous
 62
     7
100
AcDbCircle
 10
62.82409254803218
 20
361.5
 30
0.0
 40
12.99999999999989
100
AcDbArc
 50
180.0
 51
246.4435356908993
  0
ARC
  5
16B
330
50
100
AcDbEntity
  8
1
  6
Continuous
 62
     7
100
AcDbCircle
 10
96.82409254803218
 20
361.5
 30
0.0
 40
13.00000000000019
100
AcDbArc
 50
293.5564643091017
 51
0.0
  0
ARC
  5
16C
330
50
100
AcDbEntity
  8
1
  6
Continuous
 62
     7
100
AcDbCircle
 10
92.02826102471948
 20
372.5
 30
0.0
 40
25.0
100
AcDbArc
 50
270.0
 51
293.5564643091014
  0
ARC
  5
16D
330
50
100
AcDbEntity
  8
1
  6
Continuous
 62
     7
100
AcDbCircle
 10
262.5375011125199
 20
157.1156471718587
 30
0.0
 40
25.00000000000003
100
AcDbArc
 50
180.0
 51
203.5564643091014
  0
ARC
  5
16E
330
50
100
AcDbEntity
  8
1
  6
Continuous
 62
     7
100
AcDbCircle
 10
251.5375011125199
 20
152.319815648546
 30
0.0
 40
13.00000000000019
100
AcDbArc
 50
203.5564643091017
 51
270.0
  0
ARC
  5
16F
330
50
100
AcDbEntity
  8
1
  6
Continuous
 62
     7
100
AcDbCircle
 10
251.5375011125199
 20
186.319815648546
 30
0.0
 40
12.99999999999989
100
AcDbArc
 50
90.0
 51
156.4435356908992
  0
ARC
  5
170
330
50
100
AcDbEntity
  8
1
  6
Continuous
 62
     7
100
AcDbCircle
 10
262.5375011125199
 20
181.5239841252333
 30
0.0
 40
25.00000000000012
100
AcDbArc
 50
156.4435356908991
 51
180.0
  0
ENDBLK
  5
52
330
50
100
AcDbEntity
  8
0
100
AcDbBlockEnd
  0
BLOCK
  5
54
330
53
100
AcDbEntity
  8
0
100
AcDbBlockBegin
  2
36-3-13
 70
     0
 10
-406.4359515521381
 20
164.6072077003502
 30
0.0
  3
36-3-13
  1

  0
LINE
  5
171
330
53
100
AcDbEntity
  8
1
  6
Continuous
 62
     7
100
AcDbLine
 10
76.11132377053994
 20
308.9999999999999
 30
0.0
 11
83.5368613255232
 21
308.9999999999999
 31
0.0
  0
LINE
  5
172
330
53
100
AcDbEntity
  8
1
  6
Continuous
 62
     7
100
AcDbLine
 10
86.49918211192784
 20
304.0
 30
0.0
 11
73.1490029841354
 21
304.0
 31
0.0
  0
LINE
  5
173
330
53
100
AcDbEntity
  8
1
  6
Continuous
 62
     7
100
AcDbLine
 10
75.0740925480319
 20
272.9999999999999
 30
0.0
 11
75.0740925480319
 21
271.4999999999999
 31
0.0
  0
LINE
  5
174
330
53
100
AcDbEntity
  8
1
  6
Continuous
 62
     7
100
AcDbLine
 10
84.5740925480319
 20
271.4999999999999
 30
0.0
 11
78.92409254803204
 21
271.4999999999999
 31
0.0
  0
LINE
  5
175
330
53
100
AcDbEntity
  8
1
  6
Continuous
 62
     7
100
AcDbLine
 10
75.0740925480319
 20
271.4999999999999
 30
0.0
 11
78.92409254803204
 21
271.4999999999999
 31
0.0
  0
LINE
  5
176
330
53
100
AcDbEntity
  8
1
  6
Continuous
 62
     7
100
AcDbLine
 10
83.5740925480319
 20
270.4999999999999
 30
0.0
 11
80.72409254803188
 21
270.4999999999999
 31
0.0
  0
LINE
  5
177
330
53
100
AcDbEntity
  8
1
  6
Continuous
 62
     7
100
AcDbLine
 10
84.5740925480319
 20
271.4999999999999
 30
0.0
 11
84.5740925480319
 21
272.9999999999999
 31
0.0
  0
LINE
  5
178
330
53
100
AcDbEntity
  8
1
  6
Continuous
 62
     7
100
AcDbLine
 10
83.5740925480319
 20
270.4999999999999
 30
0.0
 11
84.5740925480319
 21
271.4999999999999
 31
0.0
  0
LINE
  5
179
330
53
100
AcDbEntity
  8
1
  6
Continuous
 62
     7
100
AcDbLine
 10
75.0740925480319
 20
271.4999999999999
 30
0.0
 11
76.0740925480319
 21
270.4999999999999
 31
0.0
  0
LINE
  5
17A
330
53
100
AcDbEntity
  8
1
  6
Continuous
 62
     7
100
AcDbLine
 10
80.72409254803188
 20
270.4999999999999
 30
0.0
 11
76.0740925480319
 21
270.4999999999999
 31
0.0
  0
LINE
  5
17B
330
53
100
AcDbEntity
  8
1
  6
Continuous
 62
     7
100
AcDbLine
 10
75.13367678820862
 20
168.5698156485459
 30
0.0
 11
84.51450830785541
 21
168.5698156485459
 31
0.0
  0
LINE
  5
17C
330
53
100
AcDbEntity
  8
1
  6
Continuous
 62
     7
100
AcDbLine
 10
75.13367678820862
 20
170.0698156485459
 30
0.0
 11
84.51450830785541
 21
170.0698156485459
 31
0.0
  0
LINE
  5
17D
330
53
100
AcDbEntity
  8
1
  6
Continuous
 62
     7
100
AcDbLine
 10
163.0375011125199
 20
174.069815648546
 30
0.0
 11
161.5375011125199
 21
174.069815648546
 31
0.0
  0
LINE
  5
17E
330
53
100
AcDbEntity
  8
1
  6
Continuous
 62
     7
100
AcDbLine
 10
161.5375011125199
 20
168.4198156485459
 30
0.0
 11
163.0375011125199
 21
168.4198156485459
 31
0.0
  0
LINE
  5
17F
330
53
100
AcDbEntity
  8
1
  6
Continuous
 62
     7
100
AcDbLine
 10
161.5375011125199
 20
164.5698156485459
 30
0.0
 11
161.5375011125199
 21
168.4198156485459
 31
0.0
  0
LINE
  5
180
330
53
100
AcDbEntity
  8
1
  6
Continuous
 62
     7
100
AcDbLine
 10
161.5375011125199
 20
170.2198156485459
 30
0.0
 11
160.5375011125199
 21
170.2198156485459
 31
0.0
  0
LINE
  5
181
330
53
100
AcDbEntity
  8
1
  6
Continuous
 62
     7
100
AcDbLine
 10
161.5375011125199
 20
174.069815648546
 30
0.0
 11
161.5375011125199
 21
170.2198156485459
 31
0.0
  0
LINE
  5
182
330
53
100
AcDbEntity
  8
1
  6
Continuous
 62
     7
100
AcDbLine
 10
163.0375011125199
 20
170.2198156485459
 30
0.0
 11
161.5375011125199
 21
170.2198156485459
 31
0.0
  0
LINE
  5
183
330
53
100
AcDbEntity
  8
1
  6
Continuous
 62
     7
100
AcDbLine
 10
160.5375011125199
 20
165.5698156485459
 30
0.0
 11
160.5375011125199
 21
168.4198156485459
 31
0.0
  0
LINE
  5
184
330
53
100
AcDbEntity
  8
1
  6
Continuous
 62
     7
100
AcDbLine
 10
160.5375011125199
 20
168.4198156485459
 30
0.0
 11
161.5375011125199
 21
168.4198156485459
 31
0.0
  0
LINE
  5
185
330
53
100
AcDbEntity
  8
1
  6
Continuous
 62
     7
100
AcDbLine
 10
161.5375011125199
 20
164.5698156485459
 30
0.0
 11
163.0375011125199
 21
164.569815648546
 31
0.0
  0
LINE
  5
186
330
53
100
AcDbEntity
  8
1
  6
Continuous
 62
     7
100
AcDbLine
 10
160.5375011125199
 20
165.5698156485459
 30
0.0
 11
161.5375011125199
 21
164.5698156485459
 31
0.0
  0
LINE
  5
187
330
53
100
AcDbEntity
  8
1
  6
Continuous
 62
     7
100
AcDbLine
 10
161.5375011125199
 20
174.069815648546
 30
0.0
 11
160.5375011125199
 21
173.069815648546
 31
0.0
  0
LINE
  5
188
330
53
100
AcDbEntity
  8
1
  6
Continuous
 62
     7
100
AcDbLine
 10
160.5375011125199
 20
170.2198156485459
 30
0.0
 11
160.5375011125199
 21
173.069815648546
 31
0.0
  0
ARC
  5
189
330
53
100
AcDbEntity
  8
1
  6
Continuous
 62
     7
100
AcDbCircle
 10
79.82409254803213
 20
169.3198156485459
 30
0.0
 40
4.750000000000078
100
AcDbArc
 50
170.9152797126091
 51
189.0847202873909
  0
ARC
  5
18A
330
53
100
AcDbEntity
  8
1
  6
Continuous
 62
     7
100
AcDbCircle
 10
79.82409254803213
 20
169.3198156485459
 30
0.0
 40
4.749999999999853
100
AcDbArc
 50
350.9152797126087
 51
9.08472028739136
  0
ARC
  5
18B
330
53
100
AcDbEntity
  8
1
  6
Continuous
 62
     7
100
AcDbCircle
 10
79.82409254803213
 20
169.3198156485459
 30
0.0
 40
4.750000000000078
100
AcDbArc
 50
189.0847202873909
 51
350.9152797126087
  0
ARC
  5
18C
330
53
100
AcDbEntity
  8
1
  6
Continuous
 62
     7
100
AcDbCircle
 10
79.82409254803213
 20
169.3198156485459
 30
0.0
 40
3.750000000000248
100
AcDbArc
 50
191.5369590328147
 51
348.4630409671832
  0
ARC
  5
18D
330
53
100
AcDbEntity
  8
1
  6
Continuous
 62
     7
100
AcDbCircle
 10
79.82409254803213
 20
169.3198156485459
 30
0.0
 40
4.749999999999853
100
AcDbArc
 50
9.08472028739136
 51
170.9152797126091
  0
ARC
  5
18E
330
53
100
AcDbEntity
  8
1
  6
Continuous
 62
     7
100
AcDbCircle
 10
79.82409254803213
 20
169.3198156485459
 30
0.0
 40
3.74999999999958
100
AcDbArc
 50
11.5369590328168
 51
168.4630409671853
  0
ENDBLK
  5
55
330
53
100
AcDbEntity
  8
0
100
AcDbBlockEnd
  0
BLOCK
  5
57
330
56
100
AcDbEntity
  8
0
100
AcDbBlockBegin
  2
37-1-13
 70
     0
 10
1654.710563554359
 20
-358.5466441246866
 30
0.0
  3
37-1-13
  1

  0
LINE
  5
18F
330
56
100
AcDbEntity
  8
1
  6
Continuous
 62
     7
100
AcDbLine
 10
66.8240925480319
 20
162.8971993592132
 30
0.0
 11
66.8240925480319
 21
169.3198156485459
 31
0.0
  0
LINE
  5
190
330
56
100
AcDbEntity
  8
1
  6
Continuous
 62
     7
100
AcDbLine
 10
73.32409254803213
 20
158.0614853993482
 30
0.0
 11
67.76194368271024
 21
161.2727935440144
 31
0.0
  0
LINE
  5
191
330
56
100
AcDbEntity
  8
1
  6
Continuous
 62
     7
100
AcDbLine
 10
78.88624141335356
 20
154.8501772546819
 30
0.0
 11
73.32409254803213
 21
158.0614853993482
 31
0.0
  0
LINE
  5
192
330
56
100
AcDbEntity
  8
1
  6
Continuous
 62
     7
100
AcDbLine
 10
86.32409254803213
 20
158.0614853993482
 30
0.0
 11
80.76194368271024
 21
154.8501772546818
 31
0.0
  0
LINE
  5
193
330
56
100
AcDbEntity
  8
1
  6
Continuous
 62
     7
100
AcDbLine
 10
91.88624141335356
 20
161.2727935440144
 30
0.0
 11
86.32409254803213
 21
158.0614853993482
 31
0.0
  0
LINE
  5
194
330
56
100
AcDbEntity
  8
1
  6
Continuous
 62
     7
100
AcDbLine
 10
92.82409254803213
 20
169.3198156485459
 30
0.0
 11
92.8240925480319
 21
162.8971993592133
 31
0.0
  0
LINE
  5
195
330
56
100
AcDbEntity
  8
1
  6
Continuous
 62
     7
100
AcDbLine
 10
92.8240925480319
 20
175.7424319378784
 30
0.0
 11
92.82409254803213
 21
169.3198156485459
 31
0.0
  0
LINE
  5
196
330
56
100
AcDbEntity
  8
1
  6
Continuous
 62
     7
100
AcDbLine
 10
86.32409254803213
 20
180.5781458977436
 30
0.0
 11
91.88624141335356
 21
177.3668377530773
 31
0.0
  0
LINE
  5
197
330
56
100
AcDbEntity
  8
1
  6
Continuous
 62
     7
100
AcDbLine
 10
80.76194368271024
 20
183.7894540424098
 30
0.0
 11
86.32409254803213
 21
180.5781458977436
 31
0.0
  0
LINE
  5
198
330
56
100
AcDbEntity
  8
1
  6
Continuous
 62
     7
100
AcDbLine
 10
73.3240925480319
 20
180.5781458977435
 30
0.0
 11
78.88624141335356
 21
183.7894540424098
 31
0.0
  0
LINE
  5
199
330
56
100
AcDbEntity
  8
1
  6
Continuous
 62
     7
100
AcDbLine
 10
67.76194368271024
 20
177.3668377530773
 30
0.0
 11
73.3240925480319
 21
180.5781458977435
 31
0.0
  0
LINE
  5
19A
330
56
100
AcDbEntity
  8
1
  6
Continuous
 62
     7
100
AcDbLine
 10
66.8240925480319
 20
169.3198156485459
 30
0.0
 11
66.8240925480319
 21
175.7424319378784
 31
0.0
  0
LINE
  5
19B
330
56
100
AcDbEntity
  8
1
  6
Continuous
 62
     7
100
AcDbLine
 10
163.0375011125199
 20
175.3198156485459
 30
0.0
 11
163.0375011125199
 21
163.319815648546
 31
0.0
  0
LINE
  5
19C
330
56
100
AcDbEntity
  8
1
  6
Continuous
 62
     7
100
AcDbLine
 10
177.0375011125199
 20
156.2491014342745
 30
0.0
 11
177.0375011125199
 21
182.3905298628174
 31
0.0
  0
LINE
  5
19D
330
56
100
AcDbEntity
  8
1
  6
Continuous
 62
     7
100
AcDbLine
 10
85.82395495552703
 20
272.9999999999999
 30
0.0
 11
73.82395495552703
 21
272.9999999999999
 31
0.0
  0
LINE
  5
19E
330
56
100
AcDbEntity
  8
1
  6
Continuous
 62
     7
100
AcDbLine
 10
66.82395495552737
 20
279.9292857857282
 30
0.0
 11
66.82395495552737
 21
280.2372492387566
 31
0.0
  0
LINE
  5
19F
330
56
100
AcDbEntity
  8
1
  6
Continuous
 62
     7
100
AcDbLine
 10
92.82395495552737
 20
279.9292857857287
 30
0.0
 11
92.82395495552737
 21
280.2371386014912
 31
0.0
  0
LINE
  5
1A0
330
56
100
AcDbEntity
  8
1
  6
Continuous
 62
     7
100
AcDbLine
 10
92.82395495552737
 20
280.2371386014912
 30
0.0
 11
92.82395495552737
 21
286.9999999999999
 31
0.0
  0
LINE
  5
1A1
330
56
100
AcDbEntity
  8
1
  6
Continuous
 62
     7
100
AcDbLine
 10
66.82395495552737
 20
286.9999999999999
 30
0.0
 11
82.87011900324853
 21
286.9999999999999
 31
0.0
  0
LINE
  5
1A2
330
56
100
AcDbEntity
  8
1
  6
Continuous
 62
     7
100
AcDbLine
 10
66.82395495552737
 20
280.2372492387566
 30
0.0
 11
66.82395495552737
 21
286.9999999999999
 31
0.0
  0
LINE
  5
1A3
330
56
100
AcDbEntity
  8
1
  6
Continuous
 62
     7
100
AcDbLine
 10
82.87011900324853
 20
286.9999999999999
 30
0.0
 11
92.82395495552737
 21
286.9999999999999
 31
0.0
  0
ARC
  5
1A4
330
56
100
AcDbEntity
  8
1
  6
Continuous
 62
     7
100
AcDbCircle
 10
79.82409254803213
 20
169.3198156485458
 30
0.0
 40
12.99999999999993
100
AcDbArc
 50
239.9999999999998
 51
300.0000000000002
  0
ARC
  5
1A5
330
56
100
AcDbEntity
  8
1
  6
Continuous
 62
     7
100
AcDbCircle
 10
79.82409254803213
 20
169.3198156485458
 30
0.0
 40
12.99999999999993
100
AcDbArc
 50
300.0000000000002
 51
0.00000000000038
  0
ARC
  5
1A6
330
56
100
AcDbEntity
  8
1
  6
Continuous
 62
     7
100
AcDbCircle
 10
79.82409254803213
 20
169.3198156485458
 30
0.0
 40
13.0
100
AcDbArc
 50
0.00000000000038
 51
60.00000000000021
  0
ARC
  5
1A7
330
56
100
AcDbEntity
  8
1
  6
Continuous
 62
     7
100
AcDbCircle
 10
79.82409254803213
 20
169.3198156485458
 30
0.0
 40
13.00000000000008
100
AcDbArc
 50
60.00000000000021
 51
120.0000000000009
  0
ARC
  5
1A8
330
56
100
AcDbEntity
  8
1
  6
Continuous
 62
     7
100
AcDbCircle
 10
79.82409254803213
 20
169.3198156485458
 30
0.0
 40
13.0000000000001
100
AcDbArc
 50
120.0000000000009
 51
179.9999999999996
  0
ARC
  5
1A9
330
56
100
AcDbEntity
  8
1
  6
Continuous
 62
     7
100
AcDbCircle
 10
79.82409254803213
 20
169.3198156485458
 30
0.0
 40
13.00000000000023
100
AcDbArc
 50
179.9999999999996
 51
239.9999999999998
  0
ARC
  5
1AA
330
56
100
AcDbEntity
  8
1
  6
Continuous
 62
     7
100
AcDbCircle
 10
79.82409254803213
 20
169.3198156485458
 30
0.0
 40
14.50000000000022
100
AcDbArc
 50
206.2915552747291
 51
213.7084447252703
  0
ARC
  5
1AB
330
56
100
AcDbEntity
  8
1
  6
Continuous
 62
     7
100
AcDbCircle
 10
79.82409254803213
 20
169.3198156485458
 30
0.0
 40
14.49999999999994
100
AcDbArc
 50
266.2915552747281
 51
273.7084447252701
  0
ARC
  5
1AC
330
56
100
AcDbEntity
  8
1
  6
Continuous
 62
     7
100
AcDbCircle
 10
79.82409254803213
 20
169.3198156485458
 30
0.0
 40
14.49999999999973
100
AcDbArc
 50
326.2915552747287
 51
329.9999999999999
  0
ARC
  5
1AD
330
56
100
AcDbEntity
  8
1
  6
Continuous
 62
     7
100
AcDbCircle
 10
79.82409254803213
 20
169.3198156485458
 30
0.0
 40
14.49999999999977
100
AcDbArc
 50
329.9999999999999
 51
333.7084447252704
  0
ARC
  5
1AE
330
56
100
AcDbEntity
  8
1
  6
Continuous
 62
     7
100
AcDbCircle
 10
79.82409254803213
 20
169.3198156485458
 30
0.0
 40
14.4999999999998
100
AcDbArc
 50
26.29155527472982
 51
33.70844472527156
  0
ARC
  5
1AF
330
56
100
AcDbEntity
  8
1
  6
Continuous
 62
     7
100
AcDbCircle
 10
79.82409254803213
 20
169.3198156485458
 30
0.0
 40
14.49999999999999
100
AcDbArc
 50
86.29155527472992
 51
93.70844472527187
  0
ARC
  5
1B0
330
56
100
AcDbEntity
  8
1
  6
Continuous
 62
     7
100
AcDbCircle
 10
79.82409254803213
 20
169.3198156485458
 30
0.0
 40
14.50000000000031
100
AcDbArc
 50
149.9999999999998
 51
153.708444725271
  0
ARC
  5
1B1
330
56
100
AcDbEntity
  8
1
  6
Continuous
 62
     7
100
AcDbCircle
 10
79.82409254803213
 20
169.3198156485458
 30
0.0
 40
14.50000000000016
100
AcDbArc
 50
146.2915552747294
 51
149.9999999999998
  0
ARC
  5
1B2
330
56
100
AcDbEntity
  8
1
  6
Continuous
 62
     7
100
AcDbCircle
 10
149.6310459074049
 20
143.4133604434311
 30
0.0
 40
24.0000000000001
100
AcDbArc
 50
33.95919250009759
 51
56.0408074999024
  0
ARC
  5
1B3
330
56
100
AcDbEntity
  8
1
  6
Continuous
 62
     7
100
AcDbCircle
 10
173.5375011125199
 20
159.8198156485459
 30
0.0
 40
4.999999999999881
100
AcDbArc
 50
216.8698976458422
 51
314.427004000806
  0
ARC
  5
1B4
330
56
100
AcDbEntity
  8
1
  6
Continuous
 62
     7
100
AcDbCircle
 10
173.5375011125199
 20
178.8198156485459
 30
0.0
 40
5.000000000000057
100
AcDbArc
 50
45.57299599919494
 51
143.1301023541568
  0
ARC
  5
1B5
330
56
100
AcDbEntity
  8
1
  6
Continuous
 62
     7
100
AcDbCircle
 10
149.6310459074049
 20
195.2262708536608
 30
0.0
 40
24.00000000000001
100
AcDbArc
 50
303.9591925000976
 51
326.0408074999025
  0
ARC
  5
1B6
330
56
100
AcDbEntity
  8
1
  6
Continuous
 62
     7
100
AcDbCircle
 10
105.7304101606421
 20
259.5935447948849
 30
0.0
 40
24.00000000000013
100
AcDbArc
 50
123.9591925000977
 51
146.0408074999026
  0
ARC
  5
1B7
330
56
100
AcDbEntity
  8
1
  6
Continuous
 62
     7
100
AcDbCircle
 10
53.91749975041228
 20
259.5935447948849
 30
0.0
 40
23.99999999999989
100
AcDbArc
 50
33.95919250009785
 51
56.04080749990226
  0
ARC
  5
1B8
330
56
100
AcDbEntity
  8
1
  6
Continuous
 62
     7
100
AcDbCircle
 10
70.32395495552703
 20
283.4999999999999
 30
0.0
 40
4.99999999999994
100
AcDbArc
 50
225.5729959991991
 51
233.1301023541591
  0
ARC
  5
1B9
330
56
100
AcDbEntity
  8
1
  6
Continuous
 62
     7
100
AcDbCircle
 10
89.32395495552703
 20
283.4999999999999
 30
0.0
 40
5.0
100
AcDbArc
 50
306.869897645844
 51
314.4270040008106
  0
CIRCLE
  5
1BA
330
56
100
AcDbEntity
  8
1
  6
Continuous
 62
     7
100
AcDbCircle
 10
79.82409254803213
 20
169.3198156485458
 30
0.0
 40
4.999999999999973
  0
CIRCLE
  5
1BB
330
56
100
AcDbEntity
  8
1
  6
Continuous
 62
     7
100
AcDbCircle
 10
79.82409254803213
 20
169.3198156485458
 30
0.0
 40
5.999999999999859
  0
SPLINE
  5
1BC
330
56
100
AcDbEntity
  8
1
  6
Continuous
 62
     7
100
AcDbSpline
210
0.0
220
0.0
230
1.0
 70
    11
 71
     3
 72
    79
 73
    75
 74
    73
 42
0.000000001
 43
0.0000000001
 44
0.00000001
 40
0.0
 40
0.0
 40
0.0
 40
0.0
 40
0.2813091295367576
 40
0.5626019528583419
 40
0.8464226451893992
 40
1.130214053669933
 40
1.41783570436796
 40
1.705420535636369
 40
1.997635971559868
 40
2.289812847778926
 40
2.586839028646965
 40
2.883829785627912
 40
3.185307038912443
 40
3.486755454941982
 40
3.791812973649347
 40
4.096850359215436
 40
4.40422079293085
 40
4.711580925269366
 40
5.019747225769544
 40
5.32791352625953
 40
5.635273658567311
 40
5.942644092231121
 40
6.247681477724771
 40
6.552738996337202
 40
6.854187412249744
 40
7.15566466539258
 40
7.452655422207985
 40
7.749681602882086
 40
8.041858478879728
 40
8.334073914546849
 40
8.621658745520833
 40
8.909280395868523
 40
9.193071803910563
 40
9.476892495599749
 40
9.75818531750365
 40
10.039494455841
 40
10.31992039306072
 40
10.60034633027939
 40
10.88165546861361
 40
11.16294829051202
 40
11.44676898219373
 40
11.73056039022647
 40
12.01818204056304
 40
12.30576687152421
 40
12.59798230717689
 40
12.89015918315871
 40
13.18718536381573
 40
13.48417612061302
 40
13.78565337373667
 40
14.08710178962937
 40
14.39215930822111
 40
14.69719669369341
 40
15.00456712733524
 40
15.31192725962069
 40
15.62009356008779
 40
15.9282598605648
 40
16.23561999287968
 40
16.54299042657103
 40
16.84802781211279
 40
17.15308533079531
 40
17.45453374679956
 40
17.75601100005789
 40
18.05300175701165
 40
18.35002793785056
 40
18.64220481403774
 40
18.93442024992412
 40
19.22200508114562
 40
19.50962673177616
 40
19.79341814013924
 40
20.07723883220376
 40
20.35853165457062
 40
20.63984079357029
 40
20.92026673223042
 40
21.20069266066645
 40
21.20069266066645
 40
21.20069266066645
 40
21.20069266066645
 10
169.9803088832763
 20
180.8582456340871
 30
0.0
 10
169.9918802863929
 20
180.9513725821286
 30
0.0
 10
170.0150224165007
 20
181.1376210807654
 30
0.0
 10
170.0837845552304
 20
181.4119226639902
 30
0.0
 10
170.1763526816083
 20
181.6796665933596
 30
0.0
 10
170.2952050172085
 20
181.9392792298175
 30
0.0
 10
170.437866932654
 20
182.1879963270557
 30
0.0
 10
170.6044098334382
 20
182.4248402427036
 30
0.0
 10
170.7923675526356
 20
182.6470556622586
 30
0.0
 10
171.0015297643315
 20
182.8539187144837
 30
0.0
 10
171.2289823407165
 20
183.0429774495621
 30
0.0
 10
171.4743279249806
 20
183.2136173944221
 30
0.0
 10
171.7343564832399
 20
183.3638811234782
 30
0.0
 10
172.0083792292222
 20
183.4931884757901
 30
0.0
 10
172.2931269145372
 20
183.6001792779178
 30
0.0
 10
172.5874897640227
 20
183.6843116172709
 30
0.0
 10
172.8883802439328
 20
183.7448306016501
 30
0.0
 10
173.1941665658354
 20
183.7813117398176
 30
0.0
 10
173.5021439957717
 20
183.7935305215226
 30
0.0
 10
173.8101214257168
 20
183.7813117401614
 30
0.0
 10
174.1159077476124
 20
183.7448306023373
 30
0.0
 10
174.4167982276028
 20
183.6843116183114
 30
0.0
 10
174.7111610768785
 20
183.6001792792873
 30
0.0
 10
174.9959087630953
 20
183.4931884775996
 30
0.0
 10
175.2699315059106
 20
183.3638811253417
 30
0.0
 10
175.5299600761053
 20
183.2136173978037
 30
0.0
 10
175.7753056167072
 20
183.0429774491055
 30
0.0
 10
176.002758354968
 20
182.8539187300387
 30
0.0
 10
176.2119199723023
 20
182.6470556208425
 30
0.0
 10
176.3998798910773
 20
182.424840414031
 30
0.0
 10
176.5664147073227
 20
182.1879957184395
 30
0.0
 10
176.7091065645338
 20
181.9392815119633
 30
0.0
 10
176.8278485716902
 20
181.6796582261841
 30
0.0
 10
176.9208261168218
 20
181.411953818752
 30
0.0
 10
176.988073194631
 20
181.1375059856082
 30
0.0
 10
177.0283885407317
 20
180.8589671631509
 30
0.0
 10
177.0420502197146
 20
180.5781458983313
 30
0.0
 10
177.0283885407557
 20
180.2973246335117
 30
0.0
 10
176.9880731946788
 20
180.018785811054
 30
0.0
 10
176.9208261168934
 20
179.7443379779102
 30
0.0
 10
176.8278485717855
 20
179.4766335704776
 30
0.0
 10
176.7091065646527
 20
179.2170102846978
 30
0.0
 10
176.566414707465
 20
178.9682960782209
 30
0.0
 10
176.3998798912429
 20
178.7314513826287
 30
0.0
 10
176.2119199724907
 20
178.5092361758166
 30
0.0
 10
176.0027583551795
 20
178.3023730666195
 30
0.0
 10
175.7753056169415
 20
178.1133143475518
 30
0.0
 10
175.5299600763622
 20
177.9426743988528
 30
0.0
 10
175.2699315061899
 20
177.7924106713139
 30
0.0
 10
174.9959087633971
 20
177.6631033190549
 30
0.0
 10
174.7111610772028
 20
177.5561125173663
 30
0.0
 10
174.4167982279495
 20
177.4719801783409
 30
0.0
 10
174.1159077479819
 20
177.4114611943138
 30
0.0
 10
173.8101214261087
 20
177.374980056488
 30
0.0
 10
173.5021439961874
 20
177.3627612751253
 30
0.0
 10
173.1941665662703
 20
177.3749800568277
 30
0.0
 10
172.8883802444066
 20
177.411461194994
 30
0.0
 10
172.5874897644618
 20
177.4719801793635
 30
0.0
 10
172.2931269152179
 20
177.5561125187365
 30
0.0
 10
172.0083792291203
 20
177.6631033207688
 30
0.0
 10
171.7343564861408
 20
177.7924106734052
 30
0.0
 10
171.4743279168734
 20
177.9426744012224
 30
0.0
 10
171.2289823732239
 20
178.1133143505926
 30
0.0
 10
171.0015296466599
 20
178.3023730689156
 30
0.0
 10
170.7923679868265
 20
178.5092361826116
 30
0.0
 10
170.6044082258435
 20
178.731451374599
 30
0.0
 10
170.4378728302133
 20
178.9682961265431
 30
0.0
 10
170.295183119474
 20
179.2170101262633
 30
0.0
 10
170.1764332038372
 20
179.4766341759192
 30
0.0
 10
170.0834850072751
 20
179.7443357508677
 30
0.0
 10
170.0161293256269
 20
180.0187940681344
 30
0.0
 10
169.9762181384418
 20
180.2972938782993
 30
0.0
 10
169.9610525614438
 20
180.5782603118289
 30
0.0
 10
169.9738901112299
 20
180.7649171943542
 30
0.0
 10
169.9803088832763
 20
180.8582456340871
 30
0.0
 11
169.9803088832763
 21
180.8582456340871
 31
0.0
 11
170.0206641274161
 21
181.1366451414407
 31
0.0
 11
170.0874724699751
 21
181.4098891663133
 31
0.0
 11
170.1806029711643
 21
181.677995292478
 31
0.0
 11
170.2984935845409
 21
181.9361413105756
 31
0.0
 11
170.4416005979976
 21
182.1856339889238
 31
0.0
 11
170.6068808885913
 21
182.4209793960235
 31
0.0
 11
170.7955536810942
 21
182.6441215890384
 31
0.0
 11
171.0031840943967
 21
182.8496865141236
 31
0.0
 11
171.2315631771265
 21
183.0396010913925
 31
0.0
 11
171.4753049839385
 21
183.2092873940833
 31
0.0
 11
171.7363012005874
 21
183.3601830836439
 31
0.0
 11
172.0088762604657
 21
183.4889230706418
 31
0.0
 11
172.2944242290425
 21
183.5962657339317
 31
0.0
 11
172.587697497841
 21
183.6801620771708
 31
0.0
 11
172.8890284610209
 21
183.7407940338103
 31
0.0
 11
173.1942197196014
 21
183.7772432677968
 31
0.0
 11
173.5021440053841
 21
183.7894540424101
 31
0.0
 11
173.8100682911667
 21
183.7772432677968
 31
0.0
 11
174.1152595497471
 21
183.7407940338103
 31
0.0
 11
174.4165905129271
 21
183.6801620771708
 31
0.0
 11
174.7098637817256
 21
183.5962657339317
 31
0.0
 11
174.9954117503024
 21
183.4889230706418
 31
0.0
 11
175.2679868101806
 21
183.3601830836439
 31
0.0
 11
175.5289830268296
 21
183.2092873940833
 31
0.0
 11
175.7727248336416
 21
183.0396010913926
 31
0.0
 11
176.0011039163714
 21
182.8496865141237
 31
0.0
 11
176.2087343296739
 21
182.6441215890385
 31
0.0
 11
176.3974071221769
 21
182.4209793960235
 31
0.0
 11
176.5626874127706
 21
182.1856339889238
 31
0.0
 11
176.7057944262273
 21
181.9361413105756
 31
0.0
 11
176.8236850396038
 21
181.6779952924781
 31
0.0
 11
176.916815540793
 21
181.4098891663133
 31
0.0
 11
176.983623883352
 21
181.1366451414406
 31
0.0
 11
177.0239791274919
 21
180.8582456340871
 31
0.0
 11
177.0375011125199
 21
180.5781458977438
 31
0.0
 11
177.0239791274919
 21
180.2980461614005
 31
0.0
 11
176.983623883352
 21
180.0196466540469
 31
0.0
 11
176.916815540793
 21
179.7464026291743
 31
0.0
 11
176.8236850396038
 21
179.4782965030096
 31
0.0
 11
176.7057944262273
 21
179.220150484912
 31
0.0
 11
176.5626874127706
 21
178.9706578065638
 31
0.0
 11
176.3974071221768
 21
178.735312399464
 31
0.0
 11
176.2087343296738
 21
178.5121702064492
 31
0.0
 11
176.0011039163714
 21
178.3066052813639
 31
0.0
 11
175.7727248336416
 21
178.116690704095
 31
0.0
 11
175.5289830268296
 21
177.9470044014043
 31
0.0
 11
175.2679868101807
 21
177.7961087118439
 31
0.0
 11
174.9954117503024
 21
177.6673687248459
 31
0.0
 11
174.7098637817256
 21
177.560026061556
 31
0.0
 11
174.4165905129271
 21
177.4761297183168
 31
0.0
 11
174.1152595497472
 21
177.4154977616773
 31
0.0
 11
173.8100682911668
 21
177.3790485276908
 31
0.0
 11
173.5021440053841
 21
177.3668377530775
 31
0.0
 11
173.1942197196014
 21
177.3790485276908
 31
0.0
 11
172.889028461021
 21
177.4154977616773
 31
0.0
 11
172.587697497841
 21
177.4761297183168
 31
0.0
 11
172.2944242290426
 21
177.560026061556
 31
0.0
 11
172.0088762604657
 21
177.6673687248459
 31
0.0
 11
171.7363012005874
 21
177.7961087118437
 31
0.0
 11
171.4753049839384
 21
177.9470044014043
 31
0.0
 11
171.2315631771264
 21
178.116690704095
 31
0.0
 11
171.0031840943966
 21
178.3066052813639
 31
0.0
 11
170.7955536810941
 21
178.5121702064491
 31
0.0
 11
170.6068808885912
 21
178.735312399464
 31
0.0
 11
170.4416005979976
 21
178.9706578065638
 31
0.0
 11
170.2984935845409
 21
179.220150484912
 31
0.0
 11
170.1806029711644
 21
179.4782965030096
 31
0.0
 11
170.0874724699752
 21
179.7464026291742
 31
0.0
 11
170.0206641274161
 21
180.0196466540469
 31
0.0
 11
169.9803088832763
 21
180.2980461614005
 31
0.0
 11
169.9667868982484
 21
180.5781458977438
 31
0.0
 11
169.9803088832763
 21
180.8582456340871
 31
0.0
  0
SPLINE
  5
1BD
330
56
100
AcDbEntity
  8
1
  6
Continuous
 62
     7
100
AcDbSpline
210
0.0
220
0.0
230
1.0
 70
    11
 71
     3
 72
    79
 73
    75
 74
    73
 42
0.000000001
 43
0.0000000001
 44
0.00000001
 40
0.0
 40
0.0
 40
0.0
 40
0.0
 40
0.2813091295366732
 40
0.5626019528583404
 40
0.8464226451894244
 40
1.130214053669933
 40
1.417835704367959
 40
1.705420535636391
 40
1.997635971559912
 40
2.289812847778971
 40
2.586839028646954
 40
2.883829785627902
 40
3.185307038912433
 40
3.486755454941972
 40
3.791812973649337
 40
4.096850359215425
 40
4.404220792930845
 40
4.711580925269357
 40
5.019747225769535
 40
5.327913526259521
 40
5.635273658567302
 40
5.942644092231107
 40
6.247681477724757
 40
6.552738996337188
 40
6.854187412249742
 40
7.155664665392578
 40
7.452655422207967
 40
7.749681602882105
 40
8.041858478879767
 40
8.334073914546845
 40
8.62165874552076
 40
8.9092803958685
 40
9.193071803910591
 40
9.476892495599724
 40
9.75818531750357
 40
10.03949445584098
 40
10.3199203930607
 40
10.60034633027939
 40
10.88165546861356
 40
11.16294829051203
 40
11.44676898219371
 40
11.73056039022648
 40
12.01818204056302
 40
12.30576687152422
 40
12.59798230717689
 40
12.89015918315874
 40
13.18718536381573
 40
13.48417612061301
 40
13.78565337373667
 40
14.08710178962936
 40
14.39215930822111
 40
14.6971966936934
 40
15.00456712733524
 40
15.31192725962067
 40
15.62009356008778
 40
15.92825986056478
 40
16.23561999287967
 40
16.54299042657102
 40
16.84802781211278
 40
17.15308533079532
 40
17.45453374679957
 40
17.7560110000579
 40
18.05300175701165
 40
18.35002793785053
 40
18.64220481403773
 40
18.93442024992411
 40
19.22200508114559
 40
19.50962673177611
 40
19.79341814013916
 40
20.07723883220371
 40
20.35853165457062
 40
20.63984079357026
 40
20.92026673223042
 40
21.20069266066642
 40
21.20069266066642
 40
21.20069266066642
 40
21.20069266066642
 10
169.9803088832763
 20
157.781385663005
 30
0.0
 10
169.9918802863929
 20
157.6882587149635
 30
0.0
 10
170.0150224165008
 20
157.5020102163269
 30
0.0
 10
170.0837845552303
 20
157.2277086331019
 30
0.0
 10
170.1763526816083
 20
156.9599647037326
 30
0.0
 10
170.2952050172086
 20
156.7003520672747
 30
0.0
 10
170.437866932654
 20
156.4516349700365
 30
0.0
 10
170.6044098334382
 20
156.2147910543885
 30
0.0
 10
170.7923675526356
 20
155.9925756348335
 30
0.0
 10
171.0015297643315
 20
155.7857125826083
 30
0.0
 10
171.2289823407165
 20
155.5966538475301
 30
0.0
 10
171.4743279249805
 20
155.42601390267
 30
0.0
 10
171.7343564832399
 20
155.275750173614
 30
0.0
 10
172.0083792292222
 20
155.146442821302
 30
0.0
 10
172.2931269145372
 20
155.0394520191744
 30
0.0
 10
172.5874897640228
 20
154.9553196798212
 30
0.0
 10
172.8883802439327
 20
154.8948006954421
 30
0.0
 10
173.1941665658354
 20
154.8583195572745
 30
0.0
 10
173.5021439957717
 20
154.8461007755697
 30
0.0
 10
173.8101214257168
 20
154.8583195569307
 30
0.0
 10
174.1159077476124
 20
154.8948006947549
 30
0.0
 10
174.4167982276028
 20
154.9553196787808
 30
0.0
 10
174.7111610768785
 20
155.0394520178048
 30
0.0
 10
174.9959087630953
 20
155.1464428194925
 30
0.0
 10
175.2699315059105
 20
155.2757501717504
 30
0.0
 10
175.5299600761053
 20
155.4260138992885
 30
0.0
 10
175.7753056167072
 20
155.5966538479867
 30
0.0
 10
176.002758354968
 20
155.7857125670536
 30
0.0
 10
176.2119199723022
 20
155.9925756762497
 30
0.0
 10
176.3998798910774
 20
156.2147908830612
 30
0.0
 10
176.5664147073227
 20
156.4516355786527
 30
0.0
 10
176.7091065645338
 20
156.7003497851289
 30
0.0
 10
176.8278485716901
 20
156.959973070908
 30
0.0
 10
176.9208261168218
 20
157.2276774783402
 30
0.0
 10
176.9880731946311
 20
157.5021253114838
 30
0.0
 10
177.0283885407317
 20
157.7806641339413
 30
0.0
 10
177.0420502197146
 20
158.0614853987608
 30
0.0
 10
177.0283885407556
 20
158.3423066635804
 30
0.0
 10
176.9880731946789
 20
158.6208454860381
 30
0.0
 10
176.9208261168934
 20
158.895293319182
 30
0.0
 10
176.8278485717855
 20
159.1629977266145
 30
0.0
 10
176.7091065646527
 20
159.4226210123944
 30
0.0
 10
176.566414707465
 20
159.6713352188713
 30
0.0
 10
176.3998798912429
 20
159.9081799144635
 30
0.0
 10
176.2119199724907
 20
160.1303951212755
 30
0.0
 10
176.0027583551795
 20
160.3372582304727
 30
0.0
 10
175.7753056169415
 20
160.5263169495404
 30
0.0
 10
175.5299600763622
 20
160.6969568982393
 30
0.0
 10
175.26993150619
 20
160.8472206257783
 30
0.0
 10
174.9959087633971
 20
160.9765279780372
 30
0.0
 10
174.7111610772028
 20
161.0835187797259
 30
0.0
 10
174.4167982279495
 20
161.1676511187511
 30
0.0
 10
174.1159077479819
 20
161.2281701027784
 30
0.0
 10
173.8101214261087
 20
161.264651240604
 30
0.0
 10
173.5021439961874
 20
161.2768700219668
 30
0.0
 10
173.1941665662703
 20
161.2646512402646
 30
0.0
 10
172.8883802444067
 20
161.228170102098
 30
0.0
 10
172.5874897644618
 20
161.1676511177286
 30
0.0
 10
172.293126915218
 20
161.0835187783557
 30
0.0
 10
172.0083792291202
 20
160.9765279763233
 30
0.0
 10
171.7343564861408
 20
160.8472206236868
 30
0.0
 10
171.4743279168734
 20
160.6969568958697
 30
0.0
 10
171.228982373224
 20
160.5263169464995
 30
0.0
 10
171.0015296466599
 20
160.3372582281766
 30
0.0
 10
170.7923679868264
 20
160.1303951144804
 30
0.0
 10
170.6044082258435
 20
159.9081799224932
 30
0.0
 10
170.4378728302133
 20
159.6713351705489
 30
0.0
 10
170.295183119474
 20
159.4226211708289
 30
0.0
 10
170.1764332038372
 20
159.1629971211729
 30
0.0
 10
170.083485007275
 20
158.8952955462244
 30
0.0
 10
170.0161293256269
 20
158.6208372289577
 30
0.0
 10
169.9762181384418
 20
158.3423374187928
 30
0.0
 10
169.9610525614438
 20
158.0613709852633
 30
0.0
 10
169.9738901112299
 20
157.8747141027379
 30
0.0
 10
169.9803088832763
 20
157.781385663005
 30
0.0
 11
169.9803088832763
 21
157.781385663005
 31
0.0
 11
170.0206641274161
 21
157.5029861556515
 31
0.0
 11
170.0874724699751
 21
157.2297421307788
 31
0.0
 11
170.1806029711643
 21
156.9616360046141
 31
0.0
 11
170.2984935845409
 21
156.7034899865165
 31
0.0
 11
170.4416005979976
 21
156.4539973081683
 31
0.0
 11
170.6068808885913
 21
156.2186519010686
 31
0.0
 11
170.7955536810942
 21
155.9955097080536
 31
0.0
 11
171.0031840943967
 21
155.7899447829685
 31
0.0
 11
171.2315631771265
 21
155.6000302056996
 31
0.0
 11
171.4753049839385
 21
155.4303439030089
 31
0.0
 11
171.7363012005874
 21
155.2794482134482
 31
0.0
 11
172.0088762604657
 21
155.1507082264504
 31
0.0
 11
172.2944242290425
 21
155.0433655631605
 31
0.0
 11
172.587697497841
 21
154.9594692199214
 31
0.0
 11
172.8890284610209
 21
154.8988372632819
 31
0.0
 11
173.1942197196014
 21
154.8623880292954
 31
0.0
 11
173.5021440053841
 21
154.8501772546821
 31
0.0
 11
173.8100682911667
 21
154.8623880292953
 31
0.0
 11
174.1152595497471
 21
154.8988372632818
 31
0.0
 11
174.4165905129271
 21
154.9594692199213
 31
0.0
 11
174.7098637817256
 21
155.0433655631604
 31
0.0
 11
174.9954117503024
 21
155.1507082264503
 31
0.0
 11
175.2679868101806
 21
155.2794482134482
 31
0.0
 11
175.5289830268296
 21
155.4303439030088
 31
0.0
 11
175.7727248336416
 21
155.6000302056996
 31
0.0
 11
176.0011039163714
 21
155.7899447829685
 31
0.0
 11
176.2087343296739
 21
155.9955097080538
 31
0.0
 11
176.3974071221769
 21
156.2186519010686
 31
0.0
 11
176.5626874127706
 21
156.4539973081683
 31
0.0
 11
176.7057944262273
 21
156.7034899865165
 31
0.0
 11
176.8236850396038
 21
156.9616360046141
 31
0.0
 11
176.916815540793
 21
157.2297421307788
 31
0.0
 11
176.983623883352
 21
157.5029861556515
 31
0.0
 11
177.0239791274919
 21
157.781385663005
 31
0.0
 11
177.0375011125199
 21
158.0614853993483
 31
0.0
 11
177.0239791274919
 21
158.3415851356916
 31
0.0
 11
176.983623883352
 21
158.6199846430452
 31
0.0
 11
176.916815540793
 21
158.8932286679179
 31
0.0
 11
176.8236850396038
 21
159.1613347940825
 31
0.0
 11
176.7057944262273
 21
159.4194808121802
 31
0.0
 11
176.5626874127706
 21
159.6689734905284
 31
0.0
 11
176.3974071221768
 21
159.9043188976281
 31
0.0
 11
176.2087343296738
 21
160.127461090643
 31
0.0
 11
176.0011039163714
 21
160.3330260157283
 31
0.0
 11
175.7727248336416
 21
160.5229405929971
 31
0.0
 11
175.5289830268296
 21
160.6926268956878
 31
0.0
 11
175.2679868101807
 21
160.8435225852483
 31
0.0
 11
174.9954117503024
 21
160.9722625722462
 31
0.0
 11
174.7098637817256
 21
161.0796052355362
 31
0.0
 11
174.4165905129271
 21
161.1635015787753
 31
0.0
 11
174.1152595497472
 21
161.2241335354148
 31
0.0
 11
173.8100682911668
 21
161.2605827694013
 31
0.0
 11
173.5021440053841
 21
161.2727935440146
 31
0.0
 11
173.1942197196014
 21
161.2605827694014
 31
0.0
 11
172.889028461021
 21
161.2241335354149
 31
0.0
 11
172.587697497841
 21
161.1635015787753
 31
0.0
 11
172.2944242290426
 21
161.0796052355361
 31
0.0
 11
172.0088762604657
 21
160.9722625722462
 31
0.0
 11
171.7363012005874
 21
160.8435225852484
 31
0.0
 11
171.4753049839384
 21
160.6926268956878
 31
0.0
 11
171.2315631771264
 21
160.5229405929971
 31
0.0
 11
171.0031840943966
 21
160.3330260157283
 31
0.0
 11
170.7955536810941
 21
160.127461090643
 31
0.0
 11
170.6068808885912
 21
159.9043188976281
 31
0.0
 11
170.4416005979976
 21
159.6689734905283
 31
0.0
 11
170.2984935845409
 21
159.4194808121802
 31
0.0
 11
170.1806029711644
 21
159.1613347940826
 31
0.0
 11
170.0874724699752
 21
158.8932286679179
 31
0.0
 11
170.0206641274161
 21
158.6199846430452
 31
0.0
 11
169.9803088832763
 21
158.3415851356916
 31
0.0
 11
169.9667868982484
 21
158.0614853993483
 31
0.0
 11
169.9803088832763
 21
157.781385663005
 31
0.0
  0
SPLINE
  5
1BE
330
56
100
AcDbEntity
  8
1
  6
Continuous
 62
     7
100
AcDbSpline
210
0.0
220
0.0
230
1.0
 70
    11
 71
     3
 72
    79
 73
    75
 74
    73
 42
0.000000001
 43
0.0000000001
 44
0.00000001
 40
0.0
 40
0.0
 40
0.0
 40
0.0
 40
0.3219191065760837
 40
0.6433817936225986
 40
0.9928750027372907
 40
1.341795136668518
 40
1.729749024779447
 40
2.117262753762456
 40
2.547908612129246
 40
2.978266912591552
 40
3.450266272796222
 40
3.922086448925758
 40
4.429962875077906
 40
4.937730794206723
 40
5.473111498178964
 40
6.00843049681032
 40
6.561033305606069
 40
7.113608118626757
 40
7.672061090161423
 40
8.230514061698358
 40
8.783088874725696
 40
9.335691683531376
 40
9.87101068217384
 40
10.40639138615603
 40
10.91415930528948
 40
11.42203573143631
 40
11.89385590754532
 40
12.36585526770457
 40
12.79621356809217
 40
13.22685942633417
 40
13.61437315514076
 40
14.00232704297789
 40
14.3512471765187
 40
14.70074038494131
 40
15.02220306986431
 40
15.34412218308082
 40
15.65570035336882
 40
15.9672785236557
 40
16.28919763686915
 40
16.61066032178741
 40
16.96015353020366
 40
17.30907366373754
 40
17.69702755156677
 40
18.08454128036557
 40
18.51518713859941
 40
18.94554543897922
 40
19.41754479913087
 40
19.88936497523293
 40
20.39724140137308
 40
20.90500932050065
 40
21.44039002447755
 40
21.97570902311568
 40
22.52831183191796
 40
23.08088664494311
 40
23.63933961647922
 40
24.19779258801456
 40
24.75036740103777
 40
25.30297020983798
 40
25.83828920847574
 40
26.37366991245668
 40
26.88143783159595
 40
27.38931425776056
 40
27.86113443390333
 40
28.33313379412163
 40
28.76349209459546
 40
29.19413795296922
 40
29.5816516819493
 40
29.96960557003407
 40
30.3185257038856
 40
30.66801891273304
 40
30.98948159820577
 40
31.31140071222998
 40
31.6229788847176
 40
31.93455704876375
 40
31.93455704876375
 40
31.93455704876375
 40
31.93455704876375
 10
173.1915965069287
 20
175.7171098629102
 30
0.0
 10
173.0862775834808
 20
175.6953858464171
 30
0.0
 10
172.875789056395
 20
175.6519686235928
 30
0.0
 10
172.5692959106085
 20
175.5223751687413
 30
0.0
 10
172.2743761995363
 20
175.3518600614271
 30
0.0
 10
171.9861771326049
 20
175.131081180117
 30
0.0
 10
171.7152222015794
 20
174.8711236422429
 30
0.0
 10
171.453851579174
 20
174.5648918291624
 30
0.0
 10
171.2130037714625
 20
174.2248411827894
 30
0.0
 10
170.9855818609591
 20
173.8426506587802
 30
0.0
 10
170.7809036345008
 20
173.4324184083606
 30
0.0
 10
170.5937356712827
 20
172.9858475763613
 30
0.0
 10
170.4309427548463
 20
172.5171829547122
 30
0.0
 10
170.2893159929757
 20
172.0196850786216
 30
0.0
 10
170.1732640713233
 20
171.5062228554124
 30
0.0
 10
170.0811934030402
 20
170.9727832748497
 30
0.0
 10
170.0155023356316
 20
170.429682297078
 30
0.0
 10
169.9755494009337
 20
169.8763665935913
 30
0.0
 10
169.9623824675444
 20
169.3198156585367
 30
0.0
 10
169.9755494010298
 20
168.7632647234614
 30
0.0
 10
170.0155023358305
 20
168.2099490200373
 30
0.0
 10
170.0811934032848
 20
167.6668480420414
 30
0.0
 10
170.1732640717688
 20
167.1334084622936
 30
0.0
 10
170.2893159929814
 20
166.6199462361234
 30
0.0
 10
170.4309427565964
 20
166.1224483705491
 30
0.0
 10
170.5937356668079
 20
165.6537837110203
 30
0.0
 10
170.7809036515908
 20
165.207213010858
 30
0.0
 10
170.9855818008598
 20
164.7969802902789
 30
0.0
 10
171.2130039748522
 20
164.4147913741736
 30
0.0
 10
171.4538508496396
 20
164.0747350394021
 30
0.0
 10
171.7152246232899
 20
163.7685224469811
 30
0.0
 10
171.9861684347535
 20
163.5084970954853
 30
0.0
 10
172.2744050683268
 20
163.2879473294328
 30
0.0
 10
172.5691912511705
 20
163.1166178666363
 30
0.0
 10
172.8761452141955
 20
162.9898348410257
 30
0.0
 10
173.1868964385104
 20
162.9151875833093
 30
0.0
 10
173.502144005056
 20
162.8883520781761
 30
0.0
 10
173.8173915716013
 20
162.9151875833008
 30
0.0
 10
174.1281427959151
 20
162.9898348410089
 30
0.0
 10
174.4350967589384
 20
163.1166178666116
 30
0.0
 10
174.7298829417796
 20
163.2879473294006
 30
0.0
 10
175.0181195753493
 20
163.5084970954461
 30
0.0
 10
175.2890633868086
 20
163.7685224469358
 30
0.0
 10
175.5504371604536
 20
164.0747350393507
 30
0.0
 10
175.7912840352348
 20
164.414791374117
 30
0.0
 10
176.0187062092195
 20
164.7969802902178
 30
0.0
 10
176.2233843584798
 20
165.207213010793
 30
0.0
 10
176.4105523432526
 20
165.6537837109519
 30
0.0
 10
176.5733452534524
 20
166.1224483704779
 30
0.0
 10
176.7149720170529
 20
166.6199462360501
 30
0.0
 10
176.8310239382488
 20
167.1334084622189
 30
0.0
 10
176.9230946067134
 20
167.6668480419657
 30
0.0
 10
176.9887856741453
 20
168.2099490199608
 30
0.0
 10
177.0287386089201
 20
168.7632647233857
 30
0.0
 10
177.0419055423748
 20
169.3198156584569
 30
0.0
 10
177.0287386089539
 20
169.8763665935269
 30
0.0
 10
176.9887856742063
 20
170.4296822969568
 30
0.0
 10
176.9230946067937
 20
170.9727832749367
 30
0.0
 10
176.8310239383194
 20
171.5062228547418
 30
0.0
 10
176.7149720171348
 20
172.0196850807019
 30
0.0
 10
176.5733452533614
 20
172.5171829470164
 30
0.0
 10
176.410552343515
 20
172.9858476038655
 30
0.0
 10
176.2233843570906
 20
173.4324183133305
 30
0.0
 10
176.0187062131039
 20
173.8426510006944
 30
0.0
 10
175.7912840202775
 20
174.2248400303283
 30
0.0
 10
175.5504372110844
 20
174.5648959633604
 30
0.0
 10
175.2890632145335
 20
174.8711099130768
 30
0.0
 10
175.0181201878863
 20
175.1311304755808
 30
0.0
 10
174.7298809008589
 20
175.3516964214029
 30
0.0
 10
174.4351041469743
 20
175.5229683751485
 30
0.0
 10
174.1281176408342
 20
175.649949870128
 30
0.0
 10
173.8174845670785
 20
175.7238765424842
 30
0.0
 10
173.501809257541
 20
175.7533207734652
 30
0.0
 10
173.2950007565192
 20
175.7291801628426
 30
0.0
 10
173.1915965069287
 20
175.7171098629102
 30
0.0
 11
173.1915965069287
 21
175.7171098629102
 31
0.0
 11
172.8786142807565
 21
175.6417836282248
 31
0.0
 11
172.580955195204
 21
175.5203862367605
 31
0.0
 11
172.2783877545492
 21
175.3454621199051
 31
0.0
 11
172.0005482438531
 21
175.1343923069483
 31
0.0
 11
171.7198276212085
 21
174.8666159988781
 31
0.0
 11
171.4675664338232
 21
174.5724541668991
 31
0.0
 11
171.2177512464162
 21
174.2216718591946
 31
0.0
 11
170.9971324351581
 21
173.8521646104741
 31
0.0
 11
170.7856014701179
 21
173.4302190608593
 31
0.0
 11
170.60281248516
 21
172.9952449632703
 31
0.0
 11
170.4355356540265
 21
172.5157067207831
 31
0.0
 11
170.2962343598033
 21
172.0274205248593
 31
0.0
 11
170.1777580002159
 21
171.5053133994412
 31
0.0
 11
170.0865659486102
 21
170.9778189065538
 31
0.0
 11
170.0199298561617
 21
170.4292484958708
 31
0.0
 11
169.9801231381974
 21
169.8781093580919
 31
0.0
 11
169.9667868982483
 21
169.3198156485459
 31
0.0
 11
169.9801231381974
 21
168.7615219389999
 31
0.0
 11
170.0199298561617
 21
168.2103828012211
 31
0.0
 11
170.0865659486103
 21
167.6618123905381
 31
0.0
 11
170.1777580002158
 21
167.1343178976508
 31
0.0
 11
170.2962343598033
 21
166.6122107722326
 31
0.0
 11
170.4355356540264
 21
166.1239245763088
 31
0.0
 11
170.6028124851599
 21
165.6443863338216
 31
0.0
 11
170.7856014701177
 21
165.2094122362326
 31
0.0
 11
170.9971324351581
 21
164.7874666866177
 31
0.0
 11
171.2177512464163
 21
164.4179594378972
 31
0.0
 11
171.4675664338232
 21
164.0671771301928
 31
0.0
 11
171.7198276212085
 21
163.7730152982138
 31
0.0
 11
172.0005482438531
 21
163.5052389901437
 31
0.0
 11
172.2783877545492
 21
163.2941691771868
 31
0.0
 11
172.580955195204
 21
163.1192450603314
 31
0.0
 11
172.8786142807565
 21
162.9978476688671
 31
0.0
 11
173.1915965069288
 21
162.9225214341817
 31
0.0
 11
173.502144005384
 21
162.8971993592134
 31
0.0
 11
173.8126915038393
 21
162.9225214341817
 31
0.0
 11
174.1256737300116
 21
162.9978476688671
 31
0.0
 11
174.4233328155641
 21
163.1192450603314
 31
0.0
 11
174.7259002562189
 21
163.2941691771867
 31
0.0
 11
175.003739766915
 21
163.5052389901437
 31
0.0
 11
175.2844603895596
 21
163.7730152982138
 31
0.0
 11
175.5367215769448
 21
164.0671771301928
 31
0.0
 11
175.7865367643518
 21
164.4179594378973
 31
0.0
 11
176.0071555756099
 21
164.7874666866177
 31
0.0
 11
176.2186865406502
 21
165.2094122362327
 31
0.0
 11
176.4014755256082
 21
165.6443863338216
 31
0.0
 11
176.5687523567418
 21
166.1239245763088
 31
0.0
 11
176.7080536509649
 21
166.6122107722326
 31
0.0
 11
176.8265300105521
 21
167.1343178976508
 31
0.0
 11
176.9177220621577
 21
167.661812390538
 31
0.0
 11
176.9843581546063
 21
168.2103828012211
 31
0.0
 11
177.0241648725707
 21
168.7615219389999
 31
0.0
 11
177.0375011125199
 21
169.3198156485459
 31
0.0
 11
177.0241648725708
 21
169.8781093580919
 31
0.0
 11
176.9843581546063
 21
170.4292484958708
 31
0.0
 11
176.9177220621578
 21
170.9778189065539
 31
0.0
 11
176.8265300105522
 21
171.5053133994411
 31
0.0
 11
176.7080536509649
 21
172.0274205248593
 31
0.0
 11
176.5687523567418
 21
172.5157067207831
 31
0.0
 11
176.4014755256082
 21
172.9952449632702
 31
0.0
 11
176.2186865406503
 21
173.4302190608592
 31
0.0
 11
176.0071555756099
 21
173.8521646104741
 31
0.0
 11
175.7865367643518
 21
174.2216718591947
 31
0.0
 11
175.5367215769448
 21
174.5724541668991
 31
0.0
 11
175.2844603895596
 21
174.8666159988781
 31
0.0
 11
175.003739766915
 21
175.1343923069483
 31
0.0
 11
174.7259002562189
 21
175.3454621199052
 31
0.0
 11
174.4233328155641
 21
175.5203862367605
 31
0.0
 11
174.1256737300116
 21
175.6417836282249
 31
0.0
 11
173.8126915038393
 21
175.7171098629102
 31
0.0
 11
173.502144005384
 21
175.7424319378785
 31
0.0
 11
173.1915965069287
 21
175.7171098629102
 31
0.0
  0
SPLINE
  5
1BF
330
56
100
AcDbEntity
  8
1
  6
Continuous
 62
     7
100
AcDbSpline
210
0.0
220
0.0
230
1.0
 70
    11
 71
     3
 72
    79
 73
    75
 74
    73
 42
0.000000001
 43
0.0000000001
 44
0.00000001
 40
0.0
 40
0.0
 40
0.0
 40
0.0
 40
0.3142650584353473
 40
0.6282865527609165
 40
0.961194070055035
 40
1.293759066763255
 40
1.653345626572401
 40
2.012624926377698
 40
2.40252748038015
 40
2.792202152566507
 40
3.212046600378979
 40
3.631735865868385
 40
4.077938483287248
 40
4.524041244959902
 40
4.990653910205697
 40
5.457207549915533
 40
5.936678582613562
 40
6.416122251734002
 40
6.899971956020578
 40
7.383821660306503
 40
7.863265329424668
 40
8.34273636211785
 40
8.809290001818924
 40
9.275902667049138
 40
9.722005428696814
 40
10.16820804607607
 40
10.58789731150863
 40
11.00774175923652
 40
11.39741643130952
 40
11.78731898515
 40
12.14659828474439
 40
12.50618484425336
 40
12.83874984054657
 40
13.17165735713596
 40
13.48567884942523
 40
13.79994391525787
 40
14.10737582044653
 40
14.41480772563406
 40
14.72907279146342
 40
15.04309428374735
 40
15.37600180032948
 40
15.70856679661429
 40
16.06815335611367
 40
16.42743265569821
 40
16.8173352095281
 40
17.20700988159082
 40
17.62685432930808
 40
18.0465435947305
 40
18.49274621209974
 40
18.93884897373809
 40
19.40546163895934
 40
19.87201527865215
 40
20.35148631133764
 40
20.83092998044893
 40
21.3147796847288
 40
21.79862938901018
 40
22.27807305812643
 40
22.75754409082122
 40
23.22409773052884
 40
23.6907103957733
 40
24.13681315744536
 40
24.583015774864
 40
25.0027050403531
 40
25.42254948816399
 40
25.81222416034641
 40
26.20212671433911
 40
26.56140601412437
 40
26.920992573889
 40
27.25355757049558
 40
27.58646508749629
 40
27.90048658031806
 40
28.21475164694547
 40
28.52218355426158
 40
28.82961545227886
 40
28.82961545227886
 40
28.82961545227886
 40
28.82961545227886
 10
78.86468788968618
 20
283.1934854642682
 30
0.0
 10
78.84609535445342
 20
283.0902180881898
 30
0.0
 10
78.8089247022375
 20
282.8837633694238
 30
0.0
 10
78.69797804537879
 20
282.581691164852
 30
0.0
 10
78.55091301124868
 20
282.2895089175808
 30
0.0
 10
78.36075810150487
 20
282.0046666783471
 30
0.0
 10
78.1356233459175
 20
281.7352377225806
 30
0.0
 10
77.87098705587815
 20
281.476451534709
 30
0.0
 10
77.5759269878969
 20
281.2367846032109
 30
0.0
 10
77.2451608408695
 20
281.0114561491774
 30
0.0
 10
76.8890937716773
 20
280.8079017281664
 30
0.0
 10
76.50236068261817
 20
280.6224175380783
 30
0.0
 10
76.09568749580855
 20
280.4606546223632
 30
0.0
 10
75.66471134039864
 20
280.3202931807233
 30
0.0
 10
75.2193379044215
 20
280.205055226072
 30
0.0
 10
74.75712504005003
 20
280.1138058674849
 30
0.0
 10
74.28620665749753
 20
280.0486012057691
 30
0.0
 10
73.80667522004693
 20
280.0090124622539
 30
0.0
 10
73.32423015048748
 20
279.9959274430815
 30
0.0
 10
72.84178508091327
 20
280.0090124622378
 30
0.0
 10
72.3622536435089
 20
280.0486012057401
 30
0.0
 10
71.89133526079453
 20
280.1138058674047
 30
0.0
 10
71.42912239701892
 20
280.205055226035
 30
0.0
 10
70.98374895887292
 20
280.320293180319
 30
0.0
 10
70.55277281122639
 20
280.4606546229768
 30
0.0
 10
70.14609959628953
 20
280.622417534595
 30
0.0
 10
69.7593666062649
 20
280.8079017385774
 30
0.0
 10
69.40329918090528
 20
281.0114561089212
 30
0.0
 10
69.07253427241422
 20
281.2367847382846
 30
0.0
 10
68.77746977260756
 20
281.4764510413034
 30
0.0
 10
68.51284879270345
 20
281.7352393989901
 30
0.0
 10
68.28765926460542
 20
282.0046605904703
 30
0.0
 10
68.09769426744242
 20
282.2895297486529
 30
0.0
 10
67.94994485275546
 20
282.5816149857321
 30
0.0
 10
67.84141586735385
 20
282.8840298895757
 30
0.0
 10
67.7772042145317
 20
283.1902517647945
 30
0.0
 10
67.75460292969223
 20
283.5001511970386
 30
0.0
 10
67.77720421452031
 20
283.8100506292823
 30
0.0
 10
67.84141586733126
 20
284.1162725045002
 30
0.0
 10
67.94994485272217
 20
284.4186874083421
 30
0.0
 10
68.0976942673987
 20
284.7107726454188
 30
0.0
 10
68.28765926455172
 20
284.9956418035981
 30
0.0
 10
68.51284879264023
 20
285.2650629950741
 30
0.0
 10
68.77746977253526
 20
285.5238513527558
 30
0.0
 10
69.0725342723335
 20
285.763517655769
 30
0.0
 10
69.40329918081667
 20
285.9888462851254
 30
0.0
 10
69.75936660616892
 20
286.1924006554613
 30
0.0
 10
70.14609959618674
 20
286.3778848594343
 30
0.0
 10
70.55277281111731
 20
286.5396477710416
 30
0.0
 10
70.98374895875789
 20
286.6800092136875
 30
0.0
 10
71.42912239689834
 20
286.7952471679577
 30
0.0
 10
71.89133526066868
 20
286.8864965265721
 30
0.0
 10
72.36225364337774
 20
286.9517011882185
 30
0.0
 10
72.84178508077775
 20
286.9912899317002
 30
0.0
 10
73.3242301503436
 20
287.0043749508332
 30
0.0
 10
73.80667521990839
 20
286.9912899316369
 30
0.0
 10
74.28620665731134
 20
286.9517011880862
 30
0.0
 10
74.75712504000802
 20
286.8864965263639
 30
0.0
 10
75.21933790381892
 20
286.795247167652
 30
0.0
 10
75.66471134180182
 20
286.6800092132932
 30
0.0
 10
76.09568748998775
 20
286.5396477704355
 30
0.0
 10
76.50236070291166
 20
286.3778848589501
 30
0.0
 10
76.88909369994641
 20
286.192400653786
 30
0.0
 10
77.2451610999875
 20
285.9888462868046
 30
0.0
 10
77.57592609637774
 20
285.7635176447092
 30
0.0
 10
77.87099028145785
 20
285.5238513859837
 30
0.0
 10
78.1356123483511
 20
285.2650628738425
 30
0.0
 10
78.360797987349
 20
284.9956422332015
 30
0.0
 10
78.55077646871248
 20
284.7107711631621
 30
0.0
 10
78.6984772902574
 20
284.4186928134417
 30
0.0
 10
78.80717793707771
 20
284.1162535763085
 30
0.0
 10
78.87076102082547
 20
283.8101207977214
 30
0.0
 10
78.89566051174737
 20
283.4998956021751
 30
0.0
 10
78.87501209392454
 20
283.2956221761237
 30
0.0
 10
78.86468788968618
 20
283.1934854642682
 30
0.0
 11
78.86468788968618
 21
283.1934854642682
 31
0.0
 11
78.80006596463122
 21
282.8859362186317
 31
0.0
 11
78.69486600543995
 21
282.5900604570611
 31
0.0
 11
78.5449723384674
 21
282.2928075289304
 31
0.0
 11
78.36119819191521
 21
282.0156315200728
 31
0.0
 11
78.13114108074335
 21
281.7392690417129
 31
0.0
 11
77.87477974208203
 21
281.4875539662583
 31
0.0
 11
77.57261386067425
 21
281.2411401240016
 31
0.0
 11
77.25087339266449
 21
281.0213005885666
 31
0.0
 11
76.88671501036788
 21
280.8123555409418
 31
0.0
 11
76.50846849988135
 21
280.6305076461206
 31
0.0
 11
76.09405427424372
 21
280.4651062393333
 31
0.0
 11
75.6699603175262
 21
280.3267155249022
 31
0.0
 11
75.218317157438
 21
280.2094728905501
 31
0.0
 11
74.76062404848268
 21
280.1189780468295
 31
0.0
 11
74.28571586473083
 21
280.0529879854436
 31
0.0
 11
73.80789917948437
 21
280.0135234803804
 31
0.0
 11
73.32423014053704
 21
280.0003023948549
 31
0.0
 11
72.84056110158974
 21
280.0135234803804
 31
0.0
 11
72.3627444163433
 21
280.0529879854436
 31
0.0
 11
71.88783623259148
 21
280.1189780468295
 31
0.0
 11
71.43014312363601
 21
280.2094728905502
 31
0.0
 11
70.97849996354765
 21
280.3267155249022
 31
0.0
 11
70.55440600683015
 21
280.4651062393333
 31
0.0
 11
70.13999178119253
 21
280.6305076461206
 31
0.0
 11
69.7617452707061
 21
280.8123555409418
 31
0.0
 11
69.3975868884096
 21
281.0213005885666
 31
0.0
 11
69.07584642039986
 21
281.2411401240016
 31
0.0
 11
68.77368053899202
 21
281.4875539662581
 31
0.0
 11
68.51731920033063
 21
281.7392690417127
 31
0.0
 11
68.28726208915884
 21
282.0156315200726
 31
0.0
 11
68.10348794260673
 21
282.2928075289303
 31
0.0
 11
67.95359427563432
 21
282.5900604570611
 31
0.0
 11
67.84839431644315
 21
282.8859362186317
 31
0.0
 11
67.78377239138814
 21
283.1934854642682
 31
0.0
 11
67.76208127521542
 21
283.5001511974273
 31
0.0
 11
67.7837723913881
 21
283.8068169305865
 31
0.0
 11
67.8483943164431
 21
284.1143661762231
 31
0.0
 11
67.95359427563434
 21
284.4102419377937
 31
0.0
 11
68.1034879426068
 21
284.7074948659244
 31
0.0
 11
68.28726208915887
 21
284.984670874782
 31
0.0
 11
68.51731920033065
 21
285.261033353142
 31
0.0
 11
68.77368053899198
 21
285.5127484285965
 31
0.0
 11
69.0758464203998
 21
285.7591622708532
 31
0.0
 11
69.39758688840959
 21
285.9790018062881
 31
0.0
 11
69.76174527070607
 21
286.187946853913
 31
0.0
 11
70.13999178119252
 21
286.3697947487341
 31
0.0
 11
70.55440600683016
 21
286.5351961555214
 31
0.0
 11
70.97849996354765
 21
286.6735868699525
 31
0.0
 11
71.43014312363603
 21
286.7908295043047
 31
0.0
 11
71.88783623259148
 21
286.8813243480254
 31
0.0
 11
72.3627444163433
 21
286.9473144094111
 31
0.0
 11
72.84056110158974
 21
286.9867789144743
 31
0.0
 11
73.32423014053705
 21
286.9999999999998
 31
0.0
 11
73.80789917948437
 21
286.9867789144743
 31
0.0
 11
74.28571586473085
 21
286.9473144094112
 31
0.0
 11
74.7606240484827
 21
286.8813243480254
 31
0.0
 11
75.21831715743801
 21
286.7908295043047
 31
0.0
 11
75.6699603175262
 21
286.6735868699524
 31
0.0
 11
76.09405427424367
 21
286.5351961555213
 31
0.0
 11
76.50846849988135
 21
286.3697947487341
 31
0.0
 11
76.88671501036791
 21
286.187946853913
 31
0.0
 11
77.25087339266449
 21
285.9790018062881
 31
0.0
 11
77.57261386067425
 21
285.7591622708532
 31
0.0
 11
77.87477974208205
 21
285.5127484285965
 31
0.0
 11
78.13114108074342
 21
285.261033353142
 31
0.0
 11
78.36119819191524
 21
284.984670874782
 31
0.0
 11
78.54497233846737
 21
284.7074948659244
 31
0.0
 11
78.69486600543993
 21
284.4102419377937
 31
0.0
 11
78.80006596463123
 21
284.114366176223
 31
0.0
 11
78.86468788968621
 21
283.8068169305864
 31
0.0
 11
78.88637900585886
 21
283.5001511974273
 31
0.0
 11
78.86468788968618
 21
283.1934854642682
 31
0.0
  0
SPLINE
  5
1C0
330
56
100
AcDbEntity
  8
1
  6
Continuous
 62
     7
100
AcDbSpline
210
0.0
220
0.0
230
1.0
 70
    11
 71
     3
 72
    79
 73
    75
 74
    73
 42
0.000000001
 43
0.0000000001
 44
0.00000001
 40
0.0
 40
0.0
 40
0.0
 40
0.0
 40
0.3142650584353532
 40
0.6282865527609127
 40
0.9611940700550312
 40
1.293759066763251
 40
1.653345626572397
 40
2.012624926377694
 40
2.402527480380158
 40
2.792202152566514
 40
3.212046600378986
 40
3.631735865868392
 40
4.077938483287268
 40
4.524041244959908
 40
4.990653910205704
 40
5.457207549915539
 40
5.936678582613569
 40
6.416122251734008
 40
6.89997195602057
 40
7.383821660306509
 40
7.863265329424674
 40
8.342736362117842
 40
8.809290001818916
 40
9.275902667049142
 40
9.722005428696818
 40
10.16820804607609
 40
10.58789731150863
 40
11.00774175923653
 40
11.39741643130952
 40
11.78731898515
 40
12.14659828474438
 40
12.50618484425336
 40
12.83874984054656
 40
13.17165735713596
 40
13.48567884942524
 40
13.79994391525788
 40
14.10737582044653
 40
14.41480772563407
 40
14.72907279146342
 40
15.04309428374736
 40
15.37600180032949
 40
15.70856679661429
 40
16.06815335611367
 40
16.42743265569821
 40
16.81733520952809
 40
17.20700988159082
 40
17.6268543293081
 40
18.04654359473051
 40
18.49274621209974
 40
18.9388489737381
 40
19.40546163895935
 40
19.87201527865217
 40
20.35148631133765
 40
20.83092998044894
 40
21.3147796847288
 40
21.79862938901019
 40
22.27807305812644
 40
22.75754409082123
 40
23.22409773052883
 40
23.69071039577331
 40
24.13681315744537
 40
24.58301577486402
 40
25.00270504035309
 40
25.422549488164
 40
25.81222416034641
 40
26.20212671433911
 40
26.56140601412437
 40
26.920992573889
 40
27.25355757049558
 40
27.58646508749629
 40
27.90048658031807
 40
28.21475164694547
 40
28.52218355426158
 40
28.82961545227887
 40
28.82961545227887
 40
28.82961545227887
 40
28.82961545227887
 10
80.78349720637826
 20
283.1934854642682
 30
0.0
 10
80.80208974161104
 20
283.0902180881898
 30
0.0
 10
80.83926039382693
 20
282.8837633694238
 30
0.0
 10
80.95020705068562
 20
282.5816911648519
 30
0.0
 10
81.09727208481581
 20
282.2895089175808
 30
0.0
 10
81.28742699455955
 20
282.0046666783472
 30
0.0
 10
81.51256175014697
 20
281.7352377225805
 30
0.0
 10
81.77719804018628
 20
281.4764515347091
 30
0.0
 10
82.07225810816755
 20
281.2367846032109
 30
0.0
 10
82.40302425519494
 20
281.0114561491775
 30
0.0
 10
82.75909132438717
 20
280.8079017281664
 30
0.0
 10
83.14582441344629
 20
280.6224175380783
 30
0.0
 10
83.55249760025592
 20
280.4606546223633
 30
0.0
 10
83.98347375566581
 20
280.3202931807232
 30
0.0
 10
84.42884719164297
 20
280.2050552260721
 30
0.0
 10
84.8910600560144
 20
280.1138058674848
 30
0.0
 10
85.36197843856692
 20
280.048601205769
 30
0.0
 10
85.84150987601753
 20
280.0090124622539
 30
0.0
 10
86.32395494557697
 20
279.9959274430815
 30
0.0
 10
86.80640001515118
 20
280.0090124622379
 30
0.0
 10
87.28593145255556
 20
280.0486012057402
 30
0.0
 10
87.7568498352699
 20
280.1138058674047
 30
0.0
 10
88.21906269904554
 20
280.205055226035
 30
0.0
 10
88.66443613719153
 20
280.320293180319
 30
0.0
 10
89.09541228483806
 20
280.4606546229769
 30
0.0
 10
89.50208549977494
 20
280.6224175345948
 30
0.0
 10
89.88881848979955
 20
280.8079017385775
 30
0.0
 10
90.2448859151592
 20
281.0114561089212
 30
0.0
 10
90.5756508236502
 20
281.2367847382847
 30
0.0
 10
90.87071532345689
 20
281.4764510413034
 30
0.0
 10
91.13533630336096
 20
281.7352393989902
 30
0.0
 10
91.36052583145907
 20
282.0046605904703
 30
0.0
 10
91.55049082862196
 20
282.2895297486529
 30
0.0
 10
91.69824024330897
 20
282.5816149857321
 30
0.0
 10
91.80676922871066
 20
282.8840298895758
 30
0.0
 10
91.87098088153274
 20
283.1902517647945
 30
0.0
 10
91.89358216637227
 20
283.5001511970386
 30
0.0
 10
91.87098088154409
 20
283.8100506292823
 30
0.0
 10
91.80676922873322
 20
284.1162725045003
 30
0.0
 10
91.69824024334224
 20
284.4186874083421
 30
0.0
 10
91.55049082866576
 20
284.7107726454188
 30
0.0
 10
91.36052583151275
 20
284.9956418035981
 30
0.0
 10
91.13533630342422
 20
285.2650629950742
 30
0.0
 10
90.87071532352921
 20
285.5238513527559
 30
0.0
 10
90.57565082373097
 20
285.7635176557689
 30
0.0
 10
90.24488591524776
 20
285.9888462851254
 30
0.0
 10
89.88881848989553
 20
286.1924006554613
 30
0.0
 10
89.50208549987771
 20
286.3778848594342
 30
0.0
 10
89.09541228494714
 20
286.5396477710416
 30
0.0
 10
88.66443613730655
 20
286.6800092136875
 30
0.0
 10
88.21906269916616
 20
286.7952471679578
 30
0.0
 10
87.75684983539573
 20
286.8864965265721
 30
0.0
 10
87.28593145268673
 20
286.9517011882185
 30
0.0
 10
86.80640001528671
 20
286.9912899317002
 30
0.0
 10
86.32395494572083
 20
287.0043749508331
 30
0.0
 10
85.8415098761561
 20
286.9912899316368
 30
0.0
 10
85.3619784387531
 20
286.9517011880864
 30
0.0
 10
84.89106005605645
 20
286.8864965263639
 30
0.0
 10
84.42884719224553
 20
286.7952471676519
 30
0.0
 10
83.98347375426265
 20
286.6800092132934
 30
0.0
 10
83.55249760607668
 20
286.5396477704354
 30
0.0
 10
83.1458243931528
 20
286.3778848589502
 30
0.0
 10
82.75909139611804
 20
286.1924006537858
 30
0.0
 10
82.40302399607697
 20
285.9888462868047
 30
0.0
 10
82.07225899968671
 20
285.7635176447091
 30
0.0
 10
81.77719481460662
 20
285.5238513859837
 30
0.0
 10
81.51257274771336
 20
285.2650628738425
 30
0.0
 10
81.28738710871542
 20
284.9956422332015
 30
0.0
 10
81.09740862735201
 20
284.7107711631621
 30
0.0
 10
80.94970780580702
 20
284.4186928134416
 30
0.0
 10
80.84100715898674
 20
284.1162535763085
 30
0.0
 10
80.777424075239
 20
283.8101207977213
 30
0.0
 10
80.75252458431703
 20
283.4998956021751
 30
0.0
 10
80.77317300213991
 20
283.2956221761237
 30
0.0
 10
80.78349720637827
 20
283.1934854642682
 30
0.0
 11
80.78349720637826
 21
283.1934854642682
 31
0.0
 11
80.84811913143325
 21
282.8859362186317
 31
0.0
 11
80.95331909062449
 21
282.5900604570611
 31
0.0
 11
81.10321275759703
 21
282.2928075289304
 31
0.0
 11
81.28698690414923
 21
282.0156315200728
 31
0.0
 11
81.51704401532109
 21
281.7392690417129
 31
0.0
 11
81.77340535398241
 21
281.4875539662583
 31
0.0
 11
82.0755712353902
 21
281.2411401240016
 31
0.0
 11
82.39731170339996
 21
281.0213005885666
 31
0.0
 11
82.76147008569657
 21
280.8123555409418
 31
0.0
 11
83.1397165961831
 21
280.6305076461206
 31
0.0
 11
83.55413082182075
 21
280.4651062393333
 31
0.0
 11
83.97822477853825
 21
280.3267155249022
 31
0.0
 11
84.42986793862646
 21
280.2094728905501
 31
0.0
 11
84.88756104758177
 21
280.1189780468295
 31
0.0
 11
85.36246923133362
 21
280.0529879854436
 31
0.0
 11
85.84028591658009
 21
280.0135234803804
 31
0.0
 11
86.3239549555274
 21
280.0003023948549
 31
0.0
 11
86.80762399447471
 21
280.0135234803804
 31
0.0
 11
87.28544067972115
 21
280.0529879854436
 31
0.0
 11
87.76034886347296
 21
280.1189780468295
 31
0.0
 11
88.21804197242842
 21
280.2094728905502
 31
0.0
 11
88.6696851325168
 21
280.3267155249022
 31
0.0
 11
89.0937790892343
 21
280.4651062393333
 31
0.0
 11
89.50819331487193
 21
280.6305076461206
 31
0.0
 11
89.88643982535835
 21
280.8123555409418
 31
0.0
 11
90.25059820765485
 21
281.0213005885666
 31
0.0
 11
90.57233867566458
 21
281.2411401240016
 31
0.0
 11
90.87450455707241
 21
281.4875539662581
 31
0.0
 11
91.1308658957338
 21
281.7392690417127
 31
0.0
 11
91.36092300690561
 21
282.0156315200726
 31
0.0
 11
91.54469715345769
 21
282.2928075289303
 31
0.0
 11
91.69459082043014
 21
282.5900604570611
 31
0.0
 11
91.79979077962132
 21
282.8859362186317
 31
0.0
 11
91.86441270467631
 21
283.1934854642682
 31
0.0
 11
91.88610382084903
 21
283.5001511974273
 31
0.0
 11
91.86441270467635
 21
283.8068169305865
 31
0.0
 11
91.79979077962136
 21
284.1143661762231
 31
0.0
 11
91.69459082043008
 21
284.4102419377937
 31
0.0
 11
91.54469715345763
 21
284.7074948659244
 31
0.0
 11
91.36092300690558
 21
284.984670874782
 31
0.0
 11
91.1308658957338
 21
285.261033353142
 31
0.0
 11
90.87450455707247
 21
285.5127484285965
 31
0.0
 11
90.57233867566467
 21
285.7591622708532
 31
0.0
 11
90.25059820765486
 21
285.9790018062881
 31
0.0
 11
89.88643982535837
 21
286.187946853913
 31
0.0
 11
89.50819331487193
 21
286.3697947487341
 31
0.0
 11
89.09377908923429
 21
286.5351961555214
 31
0.0
 11
88.6696851325168
 21
286.6735868699525
 31
0.0
 11
88.21804197242842
 21
286.7908295043047
 31
0.0
 11
87.76034886347296
 21
286.8813243480254
 31
0.0
 11
87.28544067972115
 21
286.9473144094111
 31
0.0
 11
86.80762399447471
 21
286.9867789144743
 31
0.0
 11
86.3239549555274
 21
286.9999999999998
 31
0.0
 11
85.84028591658009
 21
286.9867789144743
 31
0.0
 11
85.3624692313336
 21
286.9473144094112
 31
0.0
 11
84.88756104758176
 21
286.8813243480254
 31
0.0
 11
84.42986793862646
 21
286.7908295043047
 31
0.0
 11
83.97822477853825
 21
286.6735868699524
 31
0.0
 11
83.55413082182078
 21
286.5351961555213
 31
0.0
 11
83.13971659618309
 21
286.3697947487341
 31
0.0
 11
82.76147008569656
 21
286.187946853913
 31
0.0
 11
82.39731170339996
 21
285.9790018062881
 31
0.0
 11
82.0755712353902
 21
285.7591622708532
 31
0.0
 11
81.77340535398241
 21
285.5127484285965
 31
0.0
 11
81.51704401532103
 21
285.261033353142
 31
0.0
 11
81.28698690414922
 21
284.984670874782
 31
0.0
 11
81.10321275759709
 21
284.7074948659244
 31
0.0
 11
80.95331909062452
 21
284.4102419377937
 31
0.0
 11
80.84811913143321
 21
284.114366176223
 31
0.0
 11
80.78349720637826
 21
283.8068169305864
 31
0.0
 11
80.7618060902056
 21
283.5001511974273
 31
0.0
 11
80.78349720637827
 21
283.1934854642682
 31
0.0
  0
ENDBLK
  5
58
330
56
100
AcDbEntity
  8
0
100
AcDbBlockEnd
  0
BLOCK
  5
5A
330
59
100
AcDbEntity
  8
0
100
AcDbBlockBegin
  2
32-12
 70
     0
 10
181.0375011125199
 20
173.1303292860237
 30
0.0
  3
32-12
  1

  0
LINE
  5
1C1
330
59
100
AcDbEntity
  8
1
  6
Continuous
 62
     7
100
AcDbLine
 10
70.00735931287966
 20
193.819815648546
 30
0.0
 11
89.99264068711807
 21
193.819815648546
 31
0.0
  0
LINE
  5
1C2
330
59
100
AcDbEntity
  8
1
  6
Continuous
 62
     7
100
AcDbLine
 10
68.49999999999875
 20
204.6942740636338
 30
0.0
 11
68.49999999999875
 21
194.9453572334579
 31
0.0
  0
LINE
  5
1C3
330
59
100
AcDbEntity
  8
1
  6
Continuous
 62
     7
100
AcDbLine
 10
70.23514779186678
 20
205.8198156485459
 30
0.0
 11
89.99264068711807
 21
205.8198156485459
 31
0.0
  0
LINE
  5
1C4
330
59
100
AcDbEntity
  8
1
  6
Continuous
 62
     7
100
AcDbLine
 10
91.49999999999875
 20
204.6942740636338
 30
0.0
 11
91.49999999999875
 21
194.9453572334579
 31
0.0
  0
LINE
  5
1C5
330
59
100
AcDbEntity
  8
1
  6
Continuous
 62
     7
100
AcDbLine
 10
204.422110803345
 20
193.819815648546
 30
0.0
 11
182.6375011125182
 21
193.819815648546
 31
0.0
  0
LINE
  5
1C6
330
59
100
AcDbEntity
  8
1
  6
Continuous
 62
     7
100
AcDbLine
 10
204.422110803345
 20
205.8198156485459
 30
0.0
 11
182.6375011125182
 21
205.8198156485459
 31
0.0
  0
LINE
  5
1C7
330
59
100
AcDbEntity
  8
1
  6
Continuous
 62
     7
100
AcDbLine
 10
68.32409254803167
 20
298.5238036453414
 30
0.0
 11
68.32409254803167
 21
308.3217626164741
 31
0.0
  0
LINE
  5
1C8
330
59
100
AcDbEntity
  8
1
  6
Continuous
 62
     7
100
AcDbLine
 10
78.31673323515122
 20
291.0140012446037
 30
0.0
 11
69.83145186091258
 21
295.91298073017
 31
0.0
  0
LINE
  5
1C9
330
59
100
AcDbEntity
  8
1
  6
Continuous
 62
     7
100
AcDbLine
 10
69.83145186091258
 20
310.9325855316455
 30
0.0
 11
78.31673323515122
 21
315.8315650172123
 31
0.0
  0
LINE
  5
1CA
330
59
100
AcDbEntity
  8
1
  6
Continuous
 62
     7
100
AcDbLine
 10
81.33145186091258
 20
315.8315650172123
 30
0.0
 11
89.81673323515122
 21
310.9325855316455
 31
0.0
  0
LINE
  5
1CB
330
59
100
AcDbEntity
  8
1
  6
Continuous
 62
     7
100
AcDbLine
 10
91.3240925480319
 20
308.3217626164741
 30
0.0
 11
91.3240925480319
 21
298.5238036453414
 31
0.0
  0
LINE
  5
1CC
330
59
100
AcDbEntity
  8
1
  6
Continuous
 62
     7
100
AcDbLine
 10
89.81673323515122
 20
295.91298073017
 30
0.0
 11
81.33145186091258
 21
291.0140012446037
 31
0.0
  0
ARC
  5
1CD
330
59
100
AcDbEntity
  8
1
  6
Continuous
 62
     7
100
AcDbCircle
 10
72.28914005077138
 20
198.4477667556279
 30
0.0
 40
5.159889028395493
100
AcDbArc
 50
222.7480796395512
 51
243.7547024365968
  0
ARC
  5
1CE
330
59
100
AcDbEntity
  8
1
  6
Continuous
 62
     7
100
AcDbCircle
 10
71.32573654174087
 20
202.2383189053667
 30
0.0
 40
3.743862009042955
100
AcDbArc
 50
106.9358291036612
 51
139.0048526480505
  0
ARC
  5
1CF
330
59
100
AcDbEntity
  8
1
  6
Continuous
 62
     7
100
AcDbCircle
 10
87.78551204220855
 20
198.3477904161557
 30
0.0
 40
5.037258416171456
100
AcDbArc
 50
295.9865849666784
 51
317.5106329571774
  0
ARC
  5
1D0
330
59
100
AcDbEntity
  8
1
  6
Continuous
 62
     7
100
AcDbCircle
 10
87.78551204220855
 20
201.2918408809359
 30
0.0
 40
5.037258416171657
100
AcDbArc
 50
42.48936704282353
 51
64.01341503332318
  0
ARC
  5
1D1
330
59
100
AcDbEntity
  8
1
  6
Continuous
 62
     7
100
AcDbCircle
 10
193.0298059579317
 20
199.819815648546
 30
0.0
 40
12.00000000000021
100
AcDbArc
 50
182.3880154632693
 51
209.9999999999995
  0
ARC
  5
1D2
330
59
100
AcDbEntity
  8
1
  6
Continuous
 62
     7
100
AcDbCircle
 10
194.0298059579317
 20
199.819815648546
 30
0.0
 40
12.00000000000002
100
AcDbArc
 50
330.0000000000001
 51
29.99999999999946
  0
ARC
  5
1D3
330
59
100
AcDbEntity
  8
0
  6
Continuous
 62
     7
100
AcDbCircle
 10
193.5298059579317
 20
199.8586671517561
 30
0.0
 40
4.835606911877835
100
AcDbArc
 50
357.8411786308509
 51
182.1588213691491
  0
ARC
  5
1D4
330
59
100
AcDbEntity
  8
0
  6
Continuous
 62
     7
100
AcDbCircle
 10
193.5298059579317
 20
199.4943561412523
 30
0.0
 40
4.835606911877835
100
AcDbArc
 50
177.8411786308509
 51
2.15882136914907
  0
ARC
  5
1D5
330
59
100
AcDbEntity
  8
1
  6
Continuous
 62
     7
100
AcDbCircle
 10
79.82409254803167
 20
303.422783130908
 30
0.0
 40
10.89230484541309
100
AcDbArc
 50
90.0
 51
270.0
  0
ARC
  5
1D6
330
59
100
AcDbEntity
  8
1
  6
Continuous
 62
     7
100
AcDbCircle
 10
79.82409254803167
 20
303.422783130908
 30
0.0
 40
12.5000000000001
100
AcDbArc
 50
203.073918065632
 51
216.9260819343701
  0
ARC
  5
1D7
330
59
100
AcDbEntity
  8
1
  6
Continuous
 62
     7
100
AcDbCircle
 10
79.82409254803167
 20
303.422783130908
 30
0.0
 40
12.49999999999963
100
AcDbArc
 50
143.0739180656318
 51
156.9260819343702
  0
ARC
  5
1D8
330
59
100
AcDbEntity
  8
1
  6
Continuous
 62
     7
100
AcDbCircle
 10
79.82409254803167
 20
303.422783130908
 30
0.0
 40
12.50000000000012
100
AcDbArc
 50
83.07391806563015
 51
96.92608193436779
  0
ARC
  5
1D9
330
59
100
AcDbEntity
  8
1
  6
Continuous
 62
     7
100
AcDbCircle
 10
79.82409254803167
 20
303.422783130908
 30
0.0
 40
12.5000000000001
100
AcDbArc
 50
23.07391806562944
 51
36.92608193436696
  0
ARC
  5
1DA
330
59
100
AcDbEntity
  8
1
  6
Continuous
 62
     7
100
AcDbCircle
 10
79.82409254803167
 20
303.422783130908
 30
0.0
 40
12.50000000000029
100
AcDbArc
 50
323.0739180656312
 51
336.9260819343684
  0
ARC
  5
1DB
330
59
100
AcDbEntity
  8
1
  6
Continuous
 62
     7
100
AcDbCircle
 10
79.82409254803167
 20
303.422783130908
 30
0.0
 40
12.50000000000001
100
AcDbArc
 50
263.0739180656322
 51
276.9260819343699
  0
ARC
  5
1DC
330
59
100
AcDbEntity
  8
1
  6
Continuous
 62
     7
100
AcDbCircle
 10
79.82409254803167
 20
303.422783130908
 30
0.0
 40
10.89230484541349
100
AcDbArc
 50
270.0
 51
90.0
  0
ARC
  5
1DD
330
59
100
AcDbEntity
  8
1
  6
Continuous
 62
     7
100
AcDbCircle
 10
79.82409254803167
 20
303.422783130908
 30
0.0
 40
6.700000000000102
100
AcDbArc
 50
270.0
 51
90.0
  0
ARC
  5
1DE
330
59
100
AcDbEntity
  8
1
  6
Continuous
 62
     7
100
AcDbCircle
 10
79.82409254803167
 20
303.422783130908
 30
0.0
 40
6.699999999999989
100
AcDbArc
 50
90.0
 51
270.0
  0
ARC
  5
1DF
330
59
100
AcDbEntity
  8
1
  6
Continuous
 62
     7
100
AcDbCircle
 10
193.0298059579317
 20
199.819815648546
 30
0.0
 40
12.00000000000014
100
AcDbArc
 50
150.000000000001
 51
182.3880154632693
  0
SPLINE
  5
1E0
330
59
100
AcDbEntity
  8
1
  6
Continuous
 62
     7
100
AcDbSpline
210
0.0
220
0.0
230
1.0
 70
    11
 71
     3
 72
    79
 73
    75
 74
    73
 42
0.000000001
 43
0.0000000001
 44
0.00000001
 40
0.0
 40
0.0
 40
0.0
 40
0.0
 40
0.2251439981011636
 40
0.4498541121074687
 40
0.6980863406096611
 40
0.9458096946049263
 40
1.225753243279697
 40
1.505341879204701
 40
1.820037943984961
 40
2.134517090665375
 40
2.482533799688219
 40
2.830421091457996
 40
3.207135643675691
 40
3.583774046025664
 40
3.982383401529275
 40
4.380950213903384
 40
4.793229953183928
 40
5.205490578546653
 40
5.62240865812994
 40
6.039326737717102
 40
6.451587363091196
 40
6.863867102389859
 40
7.262433914786079
 40
7.661043270313655
 40
8.037681672684325
 40
8.414396224915368
 40
8.762283516684302
 40
9.110300225683202
 40
9.424779372309999
 40
9.739475436986831
 40
10.01906407275543
 40
10.29900762117268
 40
10.54673097479421
 40
10.79496320261771
 40
11.01967331449824
 40
11.24481731877807
 40
11.46116996438351
 40
11.67752260998793
 40
11.90266661426494
 40
12.1273767261413
 40
12.37560895395912
 40
12.62333230757441
 40
12.90327585598472
 40
13.18286449174662
 40
13.49756055641653
 40
13.81203970303713
 40
14.16005641202984
 40
14.50794370379333
 40
14.88465825601923
 40
15.26129665838569
 40
15.65990601390957
 40
16.05847282630323
 40
16.4707525656004
 40
16.88301319097451
 40
17.29993127056338
 40
17.7168493501503
 40
18.12910997551898
 40
18.54138971480826
 40
18.9399565271939
 40
19.33856588271222
 40
19.7152042850794
 40
20.0919188373174
 40
20.43980612910861
 40
20.78782283815441
 40
21.10230198485587
 40
21.41699804965388
 40
21.69658668558674
 40
21.97653023424709
 40
22.2242535881771
 40
22.47248581643281
 40
22.69719592887103
 40
22.92233993395937
 40
23.138692581742
 40
23.35504522168836
 40
23.35504522168836
 40
23.35504522168836
 40
23.35504522168836
 10
203.720001113577
 20
204.596601380231
 30
0.0
 10
203.7934361664841
 20
204.5802517106117
 30
0.0
 10
203.9401647551949
 20
204.5475838897405
 30
0.0
 10
204.1530530964298
 20
204.4501535189619
 30
0.0
 10
204.3571859822245
 20
204.3225350160743
 30
0.0
 10
204.5569850145575
 20
204.1572320831935
 30
0.0
 10
204.7441371933308
 20
203.9631950450556
 30
0.0
 10
204.9251718771309
 20
203.7343376384044
 30
0.0
 10
205.0915311226032
 20
203.48074369596
 30
0.0
 10
205.2490160265678
 20
203.1953077680364
 30
0.0
 10
205.3904795005059
 20
202.8893666701595
 30
0.0
 10
205.5200871658044
 20
202.5559281746751
 30
0.0
 10
205.6326680251823
 20
202.2063219453909
 30
0.0
 10
205.7307416539861
 20
201.8348986918196
 30
0.0
 10
205.8110318772866
 20
201.4517820922954
 30
0.0
 10
205.8747900451542
 20
201.0535563253457
 30
0.0
 10
205.9202484958398
 20
200.6482486146216
 30
0.0
 10
205.9479183071675
 20
200.2352183459374
 30
0.0
 10
205.9570250951932
 20
199.8198156585449
 30
0.0
 10
205.9479183070119
 20
199.404412971135
 30
0.0
 10
205.9202484955229
 20
198.991382702501
 30
0.0
 10
205.8747900447293
 20
198.5860749915906
 30
0.0
 10
205.8110318766173
 20
198.1878492253068
 30
0.0
 10
205.7307416536472
 20
197.8047326233554
 30
0.0
 10
205.6326680232393
 20
197.4333093783622
 30
0.0
 10
205.5200871693168
 20
197.0837031182548
 30
0.0
 10
205.3904794850071
 20
196.7502647294407
 30
0.0
 10
205.249016078645
 20
196.4443232527325
 30
0.0
 10
205.0915309457999
 20
196.1588886095423
 30
0.0
 10
204.9251725057985
 20
195.9052901491019
 30
0.0
 10
204.7441351333208
 20
195.676447828483
 30
0.0
 10
204.5569923678576
 20
195.4823579800971
 30
0.0
 10
204.3571620061064
 20
195.3172308206494
 30
0.0
 10
204.1531395502098
 20
195.1889927695813
 30
0.0
 10
203.9398756579848
 20
195.093669381825
 30
0.0
 10
203.7239355575553
 20
195.0376822107321
 30
0.0
 10
203.504488410925
 20
195.017271479822
 30
0.0
 10
203.285041264295
 20
195.037682210725
 30
0.0
 10
203.0691011638663
 20
195.0936693818108
 30
0.0
 10
202.855837271643
 20
195.1889927695605
 30
0.0
 10
202.6518148157488
 20
195.3172308206225
 30
0.0
 10
202.4519844540012
 20
195.4823579800648
 30
0.0
 10
202.2648416885426
 20
195.6764478284459
 30
0.0
 10
202.0838043160699
 20
195.9052901490601
 30
0.0
 10
201.9174458760747
 20
196.1588886094967
 30
0.0
 10
201.759960743237
 20
196.4443232526837
 30
0.0
 10
201.6184973368837
 20
196.7502647293894
 30
0.0
 10
201.4888896525847
 20
197.0837031182018
 30
0.0
 10
201.3763087986746
 20
197.433309378308
 30
0.0
 10
201.2782351682818
 20
197.8047326233008
 30
0.0
 10
201.1979449453298
 20
198.1878492252523
 30
0.0
 10
201.134186777239
 20
198.5860749915371
 30
0.0
 10
201.0887283264705
 20
198.9913827024487
 30
0.0
 10
201.0610585150109
 20
199.4044129710858
 30
0.0
 10
201.0519517268646
 20
199.819815658495
 30
0.0
 10
201.0610585149272
 20
200.235218345903
 30
0.0
 10
201.0887283263097
 20
200.6482486145438
 30
0.0
 10
201.1341867770107
 20
201.0535563254429
 30
0.0
 10
201.1979449450623
 20
201.4517820917752
 30
0.0
 10
201.2782351679618
 20
201.8348986935568
 30
0.0
 10
201.3763087984701
 20
202.2063219391541
 30
0.0
 10
201.4888896520388
 20
202.5559281970919
 30
0.0
 10
201.618497337764
 20
202.8893665934091
 30
0.0
 10
201.7599607395042
 20
203.1953080434565
 30
0.0
 10
201.9174458886496
 20
203.4807427770311
 30
0.0
 10
202.0838042722412
 20
203.7343409195618
 30
0.0
 10
202.2648418342423
 20
203.9631843016152
 30
0.0
 10
202.4519839378031
 20
204.1572704341735
 30
0.0
 10
202.6518165044583
 20
204.3224099611137
 30
0.0
 10
202.8558311910781
 20
204.4506044200868
 30
0.0
 10
203.0691215081193
 20
204.5460760569638
 30
0.0
 10
203.2849661953458
 20
204.6015279152849
 30
0.0
 10
203.5047564863768
 20
204.6238638237184
 30
0.0
 10
203.6482529050122
 20
204.6056888575652
 30
0.0
 10
203.720001113577
 20
204.596601380231
 30
0.0
 11
203.720001113577
 21
204.596601380231
 31
0.0
 11
203.937916394747
 21
204.5400085101321
 31
0.0
 11
204.1435625363899
 21
204.4494309254217
 31
0.0
 11
204.3541309112129
 21
204.3179767566097
 31
0.0
 11
204.5457028572852
 21
204.1609192848316
 31
0.0
 11
204.7407518331987
 21
203.960110203045
 31
0.0
 11
204.9147425681865
 21
203.7412563033481
 31
0.0
 11
205.0881236650169
 21
203.4786299368027
 31
0.0
 11
205.2404536863247
 21
203.2035068765479
 31
0.0
 11
205.3871600792105
 21
202.8879235055711
 31
0.0
 11
205.5134969138587
 21
202.5637868492235
 31
0.0
 11
205.6294555492848
 21
202.2053632887095
 31
0.0
 11
205.7258089200309
 21
201.8412582021177
 31
0.0
 11
205.8079085846878
 21
201.4511953054322
 31
0.0
 11
205.8710206919349
 21
201.0576570406405
 31
0.0
 11
205.9171821412677
 21
200.6479697159348
 31
0.0
 11
205.9447440341723
 21
200.2366314545391
 31
0.0
 11
205.9539781534125
 21
199.819815648546
 31
0.0
 11
205.9447440341724
 21
199.402999842553
 31
0.0
 11
205.9171821412678
 21
198.9916615811574
 31
0.0
 11
205.871020691935
 21
198.5819742564516
 31
0.0
 11
205.8079085846878
 21
198.1884359916598
 31
0.0
 11
205.7258089200309
 21
197.7983730949742
 31
0.0
 11
205.6294555492849
 21
197.4342680083824
 31
0.0
 11
205.5134969138587
 21
197.0758444478685
 31
0.0
 11
205.3871600792105
 21
196.7517077915209
 31
0.0
 11
205.2404536863248
 21
196.4361244205441
 31
0.0
 11
205.088123665017
 21
196.1610013602894
 31
0.0
 11
204.9147425681865
 21
195.8983749937439
 31
0.0
 11
204.7407518331987
 21
195.6795210940469
 31
0.0
 11
204.5457028572853
 21
195.4787120122604
 31
0.0
 11
204.3541309112129
 21
195.3216545404823
 31
0.0
 11
204.14356253639
 21
195.1902003716704
 31
0.0
 11
203.9379163947469
 21
195.0996227869599
 31
0.0
 11
203.720001113577
 21
195.043029916861
 31
0.0
 11
203.5044884106291
 21
195.0239841252334
 31
0.0
 11
203.2889757076813
 21
195.043029916861
 31
0.0
 11
203.0710604265113
 21
195.0996227869599
 31
0.0
 11
202.8654142848681
 21
195.1902003716703
 31
0.0
 11
202.6548459100451
 21
195.3216545404822
 31
0.0
 11
202.4632739639729
 21
195.4787120122604
 31
0.0
 11
202.2682249880597
 21
195.6795210940471
 31
0.0
 11
202.0942342530719
 21
195.8983749937439
 31
0.0
 11
201.9208531562414
 21
196.1610013602893
 31
0.0
 11
201.7685231349334
 21
196.4361244205441
 31
0.0
 11
201.6218167420478
 21
196.7517077915208
 31
0.0
 11
201.4954799073995
 21
197.0758444478685
 31
0.0
 11
201.3795212719734
 21
197.4342680083824
 31
0.0
 11
201.2831679012274
 21
197.7983730949743
 31
0.0
 11
201.2010682365706
 21
198.1884359916598
 31
0.0
 11
201.1379561293235
 21
198.5819742564516
 31
0.0
 11
201.0917946799906
 21
198.9916615811573
 31
0.0
 11
201.0642327870861
 21
199.402999842553
 31
0.0
 11
201.054998667846
 21
199.819815648546
 31
0.0
 11
201.0642327870862
 21
200.2366314545391
 31
0.0
 11
201.0917946799907
 21
200.6479697159347
 31
0.0
 11
201.1379561293235
 21
201.0576570406404
 31
0.0
 11
201.2010682365706
 21
201.4511953054322
 31
0.0
 11
201.2831679012274
 21
201.8412582021177
 31
0.0
 11
201.3795212719734
 21
202.2053632887095
 31
0.0
 11
201.4954799073995
 21
202.5637868492235
 31
0.0
 11
201.6218167420478
 21
202.8879235055711
 31
0.0
 11
201.7685231349334
 21
203.2035068765478
 31
0.0
 11
201.9208531562413
 21
203.4786299368025
 31
0.0
 11
202.0942342530719
 21
203.741256303348
 31
0.0
 11
202.2682249880597
 21
203.9601102030448
 31
0.0
 11
202.4632739639729
 21
204.1609192848314
 31
0.0
 11
202.6548459100451
 21
204.3179767566097
 31
0.0
 11
202.865414284868
 21
204.4494309254216
 31
0.0
 11
203.0710604265113
 21
204.5400085101321
 31
0.0
 11
203.2889757076813
 21
204.5966013802311
 31
0.0
 11
203.5044884106291
 21
204.6156471718588
 31
0.0
 11
203.720001113577
 21
204.596601380231
 31
0.0
  0
SPLINE
  5
1E1
330
59
100
AcDbEntity
  8
1
  6
Continuous
 62
     7
100
AcDbSpline
210
0.0
220
0.0
230
1.0
 70
    11
 71
     3
 72
    79
 73
    75
 74
    73
 42
0.000000001
 43
0.0000000001
 44
0.00000001
 40
0.0
 40
0.0
 40
0.0
 40
0.0
 40
0.2251439981011636
 40
0.4498541121074687
 40
0.6980863406095406
 40
0.9458096946048496
 40
1.225753243279601
 40
1.505341879204605
 40
1.820037943984865
 40
2.134517090665292
 40
2.482533799688137
 40
2.830421091457923
 40
3.207135643675627
 40
3.583774046025593
 40
3.982383401529192
 40
4.380950213903307
 40
4.79322995318385
 40
5.205490578546578
 40
5.622408658129864
 40
6.039326737717029
 40
6.45158736309112
 40
6.863867102389779
 40
7.262433914786004
 40
7.661043270313574
 40
8.03768167268425
 40
8.414396224915293
 40
8.762283516684237
 40
9.110300225683124
 40
9.424779372309935
 40
9.739475436986767
 40
10.01906407275535
 40
10.29900762117262
 40
10.5467309747941
 40
10.7949632026176
 40
11.01967331449808
 40
11.24481731877794
 40
11.46116996438338
 40
11.6775226099878
 40
11.9026666142649
 40
12.1273767261412
 40
12.37560895395899
 40
12.62333230757431
 40
12.90327585598464
 40
13.18286449174654
 40
13.49756055641647
 40
13.81203970303703
 40
14.16005641202975
 40
14.50794370379323
 40
14.88465825601915
 40
15.26129665838561
 40
15.65990601390949
 40
16.05847282630315
 40
16.47075256560033
 40
16.88301319097443
 40
17.2999312705633
 40
17.71684935015022
 40
18.12910997551891
 40
18.54138971480819
 40
18.93995652719383
 40
19.33856588271215
 40
19.71520428507933
 40
20.09191883731732
 40
20.43980612910854
 40
20.78782283815433
 40
21.1023019848558
 40
21.41699804965378
 40
21.69658668558666
 40
21.97653023424705
 40
22.22425358817706
 40
22.47248581643277
 40
22.69719592887094
 40
22.92233993395928
 40
23.13869258174191
 40
23.35504522168835
 40
23.35504522168835
 40
23.35504522168835
 40
23.35504522168835
 10
183.3550011114626
 20
204.596601380231
 30
0.0
 10
183.2815660585556
 20
204.5802517106117
 30
0.0
 10
183.1348374698447
 20
204.5475838897405
 30
0.0
 10
182.9219491286098
 20
204.4501535189619
 30
0.0
 10
182.7178162428152
 20
204.3225350160743
 30
0.0
 10
182.5180172104822
 20
204.1572320831935
 30
0.0
 10
182.3308650317089
 20
203.9631950450555
 30
0.0
 10
182.1498303479088
 20
203.7343376384044
 30
0.0
 10
181.9834711024365
 20
203.48074369596
 30
0.0
 10
181.8259861984719
 20
203.1953077680364
 30
0.0
 10
181.6845227245338
 20
202.8893666701595
 30
0.0
 10
181.5549150592352
 20
202.5559281746752
 30
0.0
 10
181.4423341998574
 20
202.2063219453909
 30
0.0
 10
181.3442605710536
 20
201.8348986918196
 30
0.0
 10
181.2639703477532
 20
201.4517820922954
 30
0.0
 10
181.2002121798854
 20
201.0535563253458
 30
0.0
 10
181.1547537292
 20
200.6482486146216
 30
0.0
 10
181.1270839178722
 20
200.2352183459373
 30
0.0
 10
181.1179771298464
 20
199.819815658545
 30
0.0
 10
181.1270839180278
 20
199.4044129711349
 30
0.0
 10
181.1547537295168
 20
198.991382702501
 30
0.0
 10
181.2002121803103
 20
198.5860749915906
 30
0.0
 10
181.2639703484224
 20
198.1878492253067
 30
0.0
 10
181.3442605713924
 20
197.8047326233554
 30
0.0
 10
181.4423342018004
 20
197.4333093783622
 30
0.0
 10
181.554915055723
 20
197.0837031182548
 30
0.0
 10
181.6845227400326
 20
196.7502647294407
 30
0.0
 10
181.8259861463947
 20
196.4443232527325
 30
0.0
 10
181.9834712792399
 20
196.1588886095423
 30
0.0
 10
182.1498297192412
 20
195.9052901491018
 30
0.0
 10
182.330867091719
 20
195.676447828483
 30
0.0
 10
182.5180098571821
 20
195.4823579800971
 30
0.0
 10
182.7178402189332
 20
195.3172308206494
 30
0.0
 10
182.9218626748299
 20
195.1889927695813
 30
0.0
 10
183.1351265670547
 20
195.093669381825
 30
0.0
 10
183.3510666674843
 20
195.0376822107321
 30
0.0
 10
183.5705138141146
 20
195.017271479822
 30
0.0
 10
183.7899609607447
 20
195.037682210725
 30
0.0
 10
184.0059010611733
 20
195.0936693818107
 30
0.0
 10
184.2191649533968
 20
195.1889927695605
 30
0.0
 10
184.423187409291
 20
195.3172308206225
 30
0.0
 10
184.6230177710384
 20
195.4823579800648
 30
0.0
 10
184.8101605364972
 20
195.6764478284459
 30
0.0
 10
184.9911979089697
 20
195.9052901490601
 30
0.0
 10
185.157556348965
 20
196.1588886094966
 30
0.0
 10
185.3150414818027
 20
196.4443232526838
 30
0.0
 10
185.456504888156
 20
196.7502647293894
 30
0.0
 10
185.586112572455
 20
197.0837031182017
 30
0.0
 10
185.698693426365
 20
197.4333093783081
 30
0.0
 10
185.7967670567579
 20
197.8047326233007
 30
0.0
 10
185.8770572797099
 20
198.1878492252524
 30
0.0
 10
185.9408154478007
 20
198.5860749915371
 30
0.0
 10
185.9862738985692
 20
198.9913827024488
 30
0.0
 10
186.0139437100289
 20
199.4044129710858
 30
0.0
 10
186.0230504981751
 20
199.819815658495
 30
0.0
 10
186.0139437101126
 20
200.235218345903
 30
0.0
 10
185.9862738987301
 20
200.6482486145438
 30
0.0
 10
185.940815448029
 20
201.0535563254428
 30
0.0
 10
185.8770572799774
 20
201.4517820917752
 30
0.0
 10
185.7967670570778
 20
201.8348986935568
 30
0.0
 10
185.6986934265697
 20
202.2063219391541
 30
0.0
 10
185.5861125730009
 20
202.5559281970919
 30
0.0
 10
185.4565048872756
 20
202.8893665934091
 30
0.0
 10
185.3150414855356
 20
203.1953080434565
 30
0.0
 10
185.15755633639
 20
203.4807427770311
 30
0.0
 10
184.9911979527986
 20
203.7343409195618
 30
0.0
 10
184.8101603907973
 20
203.9631843016151
 30
0.0
 10
184.6230182872366
 20
204.1572704341736
 30
0.0
 10
184.4231857205813
 20
204.3224099611138
 30
0.0
 10
184.2191710339615
 20
204.4506044200868
 30
0.0
 10
184.0058807169204
 20
204.5460760569638
 30
0.0
 10
183.7900360296939
 20
204.6015279152849
 30
0.0
 10
183.5702457386629
 20
204.6238638237183
 30
0.0
 10
183.4267493200274
 20
204.6056888575653
 30
0.0
 10
183.3550011114626
 20
204.596601380231
 30
0.0
 11
183.3550011114626
 21
204.596601380231
 31
0.0
 11
183.1370858302926
 21
204.5400085101321
 31
0.0
 11
182.9314396886497
 21
204.4494309254217
 31
0.0
 11
182.7208713138269
 21
204.3179767566097
 31
0.0
 11
182.5292993677545
 21
204.1609192848316
 31
0.0
 11
182.334250391841
 21
203.960110203045
 31
0.0
 11
182.1602596568533
 21
203.7412563033481
 31
0.0
 11
181.9868785600229
 21
203.4786299368027
 31
0.0
 11
181.834548538715
 21
203.2035068765479
 31
0.0
 11
181.6878421458292
 21
202.8879235055711
 31
0.0
 11
181.561505311181
 21
202.5637868492235
 31
0.0
 11
181.4455466757548
 21
202.2053632887095
 31
0.0
 11
181.3491933050088
 21
201.8412582021177
 31
0.0
 11
181.2670936403519
 21
201.4511953054322
 31
0.0
 11
181.2039815331048
 21
201.0576570406405
 31
0.0
 11
181.157820083772
 21
200.6479697159348
 31
0.0
 11
181.1302581908674
 21
200.2366314545391
 31
0.0
 11
181.1210240716272
 21
199.819815648546
 31
0.0
 11
181.1302581908674
 21
199.402999842553
 31
0.0
 11
181.1578200837719
 21
198.9916615811574
 31
0.0
 11
181.2039815331047
 21
198.5819742564516
 31
0.0
 11
181.2670936403519
 21
198.1884359916598
 31
0.0
 11
181.3491933050088
 21
197.7983730949742
 31
0.0
 11
181.4455466757548
 21
197.4342680083824
 31
0.0
 11
181.561505311181
 21
197.0758444478685
 31
0.0
 11
181.6878421458292
 21
196.7517077915209
 31
0.0
 11
181.8345485387149
 21
196.4361244205441
 31
0.0
 11
181.9868785600228
 21
196.1610013602894
 31
0.0
 11
182.1602596568532
 21
195.8983749937439
 31
0.0
 11
182.334250391841
 21
195.6795210940469
 31
0.0
 11
182.5292993677544
 21
195.4787120122604
 31
0.0
 11
182.7208713138268
 21
195.3216545404823
 31
0.0
 11
182.9314396886497
 21
195.1902003716704
 31
0.0
 11
183.1370858302927
 21
195.0996227869599
 31
0.0
 11
183.3550011114627
 21
195.043029916861
 31
0.0
 11
183.5705138144105
 21
195.0239841252334
 31
0.0
 11
183.7860265173583
 21
195.043029916861
 31
0.0
 11
184.0039417985284
 21
195.0996227869599
 31
0.0
 11
184.2095879401716
 21
195.1902003716703
 31
0.0
 11
184.4201563149946
 21
195.3216545404822
 31
0.0
 11
184.6117282610667
 21
195.4787120122604
 31
0.0
 11
184.80677723698
 21
195.6795210940471
 31
0.0
 11
184.9807679719678
 21
195.8983749937439
 31
0.0
 11
185.1541490687983
 21
196.1610013602893
 31
0.0
 11
185.3064790901062
 21
196.4361244205441
 31
0.0
 11
185.4531854829919
 21
196.7517077915208
 31
0.0
 11
185.5795223176402
 21
197.0758444478685
 31
0.0
 11
185.6954809530663
 21
197.4342680083824
 31
0.0
 11
185.7918343238123
 21
197.7983730949743
 31
0.0
 11
185.8739339884691
 21
198.1884359916598
 31
0.0
 11
185.9370460957163
 21
198.5819742564516
 31
0.0
 11
185.9832075450491
 21
198.9916615811573
 31
0.0
 11
186.0107694379536
 21
199.402999842553
 31
0.0
 11
186.0200035571937
 21
199.819815648546
 31
0.0
 11
186.0107694379536
 21
200.2366314545391
 31
0.0
 11
185.983207545049
 21
200.6479697159347
 31
0.0
 11
185.9370460957162
 21
201.0576570406404
 31
0.0
 11
185.8739339884691
 21
201.4511953054322
 31
0.0
 11
185.7918343238123
 21
201.8412582021177
 31
0.0
 11
185.6954809530663
 21
202.2053632887095
 31
0.0
 11
185.5795223176402
 21
202.5637868492235
 31
0.0
 11
185.4531854829919
 21
202.8879235055711
 31
0.0
 11
185.3064790901063
 21
203.2035068765478
 31
0.0
 11
185.1541490687983
 21
203.4786299368025
 31
0.0
 11
184.9807679719678
 21
203.741256303348
 31
0.0
 11
184.80677723698
 21
203.9601102030448
 31
0.0
 11
184.6117282610667
 21
204.1609192848314
 31
0.0
 11
184.4201563149946
 21
204.3179767566097
 31
0.0
 11
184.2095879401716
 21
204.4494309254216
 31
0.0
 11
184.0039417985284
 21
204.5400085101321
 31
0.0
 11
183.7860265173584
 21
204.5966013802311
 31
0.0
 11
183.5705138144106
 21
204.6156471718588
 31
0.0
 11
183.3550011114626
 21
204.596601380231
 31
0.0
  0
SPLINE
  5
1E2
330
59
100
AcDbEntity
  8
1
  6
Continuous
 62
     7
100
AcDbSpline
210
0.0
220
0.0
230
1.0
 70
    11
 71
     3
 72
    79
 73
    75
 74
    73
 42
0.000000001
 43
0.0000000001
 44
0.00000001
 40
0.0
 40
0.0
 40
0.0
 40
0.0
 40
0.3724305808206334
 40
0.7448259583388968
 40
1.122241109352348
 40
1.499594487178157
 40
1.884512808923768
 40
2.269355999361811
 40
2.663282538774318
 40
3.05713332929869
 40
3.460428043298128
 40
3.863655717912486
 40
4.27556249612536
 40
4.687416440102869
 40
5.106213933025729
 40
5.524975438031436
 40
5.94820819309256
 40
6.371422814579017
 40
6.796179381153467
 40
7.220935947718949
 40
7.644150569178535
 40
8.067383324194374
 40
8.486144829136041
 40
8.90494232197443
 40
9.316796265847188
 40
9.72870304393141
 40
10.13193071839393
 40
10.53522543221264
 40
10.92907622252829
 40
11.32300276169485
 40
11.7078459518473
 40
12.09276427324706
 40
12.47011765063436
 40
12.84753280099257
 40
13.21992817701096
 40
13.59235876652156
 40
13.96303024055511
 40
14.3337017145875
 40
14.70613230409473
 40
15.07852768010755
 40
15.45594283045829
 40
15.83329620783618
 40
16.21821452922458
 40
16.60305771936429
 40
16.9969842585163
 40
17.39083504881637
 40
17.79412976261822
 40
18.19735743706312
 40
18.6092642151288
 40
19.02111815898255
 40
19.43991565180133
 40
19.85867715672306
 40
20.28190991171838
 40
20.70512453315718
 40
21.12988109970165
 40
21.55463766625467
 40
21.97785228771948
 40
22.40108504275868
 40
22.81984654774221
 40
23.23864404064244
 40
23.65049798459685
 40
24.06240476278574
 40
24.46563243737496
 40
24.86892715134729
 40
25.26277794184165
 40
25.65670448121852
 40
26.04154767161104
 40
26.42646599328957
 40
26.80381937099633
 40
27.18123452173339
 40
27.55362989822328
 40
27.92606048841652
 40
28.29673196398186
 40
28.66740342935237
 40
28.66740342935237
 40
28.66740342935237
 40
28.66740342935237
 10
73.87979921861663
 20
194.9640313671548
 30
0.0
 10
73.75658187997145
 20
194.980014086586
 30
0.0
 10
73.51015884878916
 20
195.0119780090024
 30
0.0
 10
73.14739176585469
 20
195.1070136378129
 30
0.0
 10
72.79356541604648
 20
195.2347676997971
 30
0.0
 10
72.45028371236909
 20
195.3989540169693
 30
0.0
 10
72.12180056953665
 20
195.595750037876
 30
0.0
 10
71.80873404305788
 20
195.825696519824
 30
0.0
 10
71.51540981223991
 20
196.084842614116
 30
0.0
 10
71.24207778922323
 20
196.3734855452078
 30
0.0
 10
70.99261943825196
 20
196.6869571831342
 30
0.0
 10
70.76722939066374
 20
197.0253781550145
 30
0.0
 10
70.56900776489061
 20
197.383654697278
 30
0.0
 10
70.39826142440037
 20
197.7614873778005
 30
0.0
 10
70.25714031647664
 20
198.1537808477669
 30
0.0
 10
70.14606814513436
 20
198.5595343216011
 30
0.0
 10
70.06625036640487
 20
198.9740721650882
 30
0.0
 10
70.01808537728004
 20
199.395471004029
 30
0.0
 10
70.00198653249402
 20
199.8198156388723
 30
0.0
 10
70.01808537697364
 20
200.2441602737266
 30
0.0
 10
70.06625036579302
 20
200.6655591126501
 30
0.0
 10
70.14606814420202
 20
201.0800969562432
 30
0.0
 10
70.25714031526165
 20
201.4858504297556
 30
0.0
 10
70.39826142273455
 20
201.8781439010127
 30
0.0
 10
70.56900776335965
 20
202.255976576926
 30
0.0
 10
70.76722938706
 20
202.6142531363807
 30
0.0
 10
70.9926194406153
 20
202.9526740456023
 30
0.0
 10
71.24207776789429
 20
203.2661459148083
 30
0.0
 10
71.51540987560733
 20
203.5547880023289
 30
0.0
 10
71.80873379239972
 20
203.8139372060741
 30
0.0
 10
72.12180146314616
 20
204.0438723384705
 30
0.0
 10
72.45028038130192
 20
204.2407102411123
 30
0.0
 10
72.79357755475422
 20
204.4047431729319
 30
0.0
 10
73.14734665349711
 20
204.5330648555844
 30
0.0
 10
73.51032470455927
 20
204.6260088041014
 30
0.0
 10
73.87859911382284
 20
204.6816528117003
 30
0.0
 10
74.2499999994379
 20
204.7005697357407
 30
0.0
 10
74.62140088505288
 20
204.6816528117224
 30
0.0
 10
74.98967529431644
 20
204.6260088041452
 30
0.0
 10
75.3526533453785
 20
204.53306485565
 30
0.0
 10
75.70642244412132
 20
204.4047431730191
 30
0.0
 10
76.04971961757353
 20
204.2407102412211
 30
0.0
 10
76.37819853572924
 20
204.043872338601
 30
0.0
 10
76.6912662064751
 20
203.8139372062256
 30
0.0
 10
76.98459012326683
 20
203.554788002501
 30
0.0
 10
77.25792223097889
 20
203.2661459150009
 30
0.0
 10
77.50738055825681
 20
202.9526740458155
 30
0.0
 10
77.73277061181078
 20
202.6142531366141
 30
0.0
 10
77.93099223550968
 20
202.2559765771798
 30
0.0
 10
78.10173857613331
 20
201.8781439012865
 30
0.0
 10
78.24285968360462
 20
201.4858504300497
 30
0.0
 10
78.3539318546626
 20
201.0800969565576
 30
0.0
 10
78.43374963306965
 20
200.6655591129849
 30
0.0
 10
78.48191462188687
 20
200.2441602740816
 30
0.0
 10
78.49801346636396
 20
199.8198156392499
 30
0.0
 10
78.48191462157686
 20
199.3954710044219
 30
0.0
 10
78.43374963244774
 20
198.974072165526
 30
0.0
 10
78.35393185372682
 20
198.5595343219758
 30
0.0
 10
78.24285968234688
 20
198.1537808484818
 30
0.0
 10
78.10173857455996
 20
197.7614873773657
 30
0.0
 10
77.93099223356961
 20
197.3836547011786
 30
0.0
 10
77.73277060965407
 20
197.0253781430202
 30
0.0
 10
77.50738055529503
 20
196.6869572293857
 30
0.0
 10
77.2579222293262
 20
196.3734853768311
 30
0.0
 10
76.98459011514345
 20
196.084843228989
 30
0.0
 10
76.69126622042634
 20
195.8256942480732
 30
0.0
 10
76.37819846728148
 20
195.5957583028934
 30
0.0
 10
76.0497198512583
 20
195.3989234002026
 30
0.0
 10
75.70642156926965
 20
195.2348794822748
 30
0.0
 10
75.35265657058414
 20
195.1065984559243
 30
0.0
 10
74.98966340831713
 20
195.013504690083
 30
0.0
 10
74.62144515015653
 20
194.9584174170222
 30
0.0
 10
74.24983563183027
 20
194.9374319332989
 30
0.0
 10
74.00314468868298
 20
194.9551648912227
 30
0.0
 10
73.87979921861663
 20
194.9640313671548
 30
0.0
 11
73.87979921861663
 21
194.9640313671548
 31
0.0
 11
73.51156139875894
 21
195.0197579512233
 31
0.0
 11
73.15074256709279
 21
195.111888765466
 31
0.0
 11
72.79594308023914
 21
195.2405725639199
 31
0.0
 11
72.45533657315826
 21
195.4030003290621
 31
0.0
 11
72.12511398619594
 21
195.600775851652
 31
0.0
 11
71.8147692993733
 21
195.8283510183236
 31
0.0
 11
71.51946054548586
 21
196.0890632317916
 31
0.0
 11
71.2484611910593
 21
196.3748565050457
 31
0.0
 11
70.99721014183456
 21
196.6903236769628
 31
0.0
 11
70.77350895255091
 21
197.0258089008635
 31
0.0
 11
70.57397047309658
 21
197.386158160795
 31
0.0
 11
70.40421150698424
 21
197.7613988363396
 31
0.0
 11
70.26234061179792
 21
198.1554343539971
 31
0.0
 11
70.15167095893983
 21
198.5593073860476
 31
0.0
 11
70.07158151024817
 21
198.9748932919443
 31
0.0
 11
70.02347509277371
 21
199.3953649181695
 31
0.0
 11
70.00735931288011
 21
199.819815648546
 31
0.0
 11
70.02347509277372
 21
200.2442663789224
 31
0.0
 11
70.0715815102482
 21
200.6647380051476
 31
0.0
 11
70.1516709589398
 21
201.0803239110443
 31
0.0
 11
70.26234061179787
 21
201.4841969430947
 31
0.0
 11
70.40421150698421
 21
201.8782324607522
 31
0.0
 11
70.5739704730966
 21
202.2534731362969
 31
0.0
 11
70.77350895255091
 21
202.6138223962285
 31
0.0
 11
70.99721014183451
 21
202.9493076201292
 31
0.0
 11
71.2484611910593
 21
203.2647747920463
 31
0.0
 11
71.51946054548584
 21
203.5505680653003
 31
0.0
 11
71.81476929937332
 21
203.8112802787682
 31
0.0
 11
72.12511398619594
 21
204.0388554454397
 31
0.0
 11
72.45533657315826
 21
204.2366309680297
 31
0.0
 11
72.79594308023914
 21
204.3990587331718
 31
0.0
 11
73.15074256709279
 21
204.5277425316258
 31
0.0
 11
73.51156139875894
 21
204.6198733458685
 31
0.0
 11
73.87979921861661
 21
204.675599929937
 31
0.0
 11
74.2499999999992
 21
204.6942740636338
 31
0.0
 11
74.62020078138178
 21
204.675599929937
 31
0.0
 11
74.98843860123945
 21
204.6198733458685
 31
0.0
 11
75.3492574329056
 21
204.5277425316257
 31
0.0
 11
75.70405691975941
 21
204.3990587331717
 31
0.0
 11
76.0446634268405
 21
204.2366309680297
 31
0.0
 11
76.37488601380299
 21
204.0388554454399
 31
0.0
 11
76.6852307006257
 21
203.8112802787683
 31
0.0
 11
76.98053945451304
 21
203.5505680653003
 31
0.0
 11
77.25153880893947
 21
203.2647747920463
 31
0.0
 11
77.50278985816412
 21
202.9493076201292
 31
0.0
 11
77.72649104744758
 21
202.6138223962285
 31
0.0
 11
77.92602952690181
 21
202.2534731362969
 31
0.0
 11
78.09578849301425
 21
201.8782324607522
 31
0.0
 11
78.23765938820075
 21
201.4841969430947
 31
0.0
 11
78.348329041059
 21
201.0803239110442
 31
0.0
 11
78.42841848975068
 21
200.6647380051476
 31
0.0
 11
78.47652490722503
 21
200.2442663789224
 31
0.0
 11
78.49264068711851
 21
199.819815648546
 31
0.0
 11
78.47652490722503
 21
199.3953649181695
 31
0.0
 11
78.4284184897507
 21
198.9748932919443
 31
0.0
 11
78.34832904105897
 21
198.5593073860476
 31
0.0
 11
78.23765938820075
 21
198.1554343539972
 31
0.0
 11
78.09578849301425
 21
197.7613988363397
 31
0.0
 11
77.92602952690183
 21
197.3861581607951
 31
0.0
 11
77.72649104744755
 21
197.0258089008635
 31
0.0
 11
77.50278985816409
 21
196.6903236769628
 31
0.0
 11
77.25153880893947
 21
196.3748565050457
 31
0.0
 11
76.98053945451305
 21
196.0890632317916
 31
0.0
 11
76.68523070062571
 21
195.8283510183235
 31
0.0
 11
76.37488601380299
 21
195.6007758516518
 31
0.0
 11
76.0446634268405
 21
195.403000329062
 31
0.0
 11
75.70405691975941
 21
195.24057256392
 31
0.0
 11
75.3492574329056
 21
195.111888765466
 31
0.0
 11
74.98843860123947
 21
195.0197579512232
 31
0.0
 11
74.62020078138178
 21
194.9640313671547
 31
0.0
 11
74.2499999999992
 21
194.9453572334579
 31
0.0
 11
73.87979921861663
 21
194.9640313671548
 31
0.0
  0
SPLINE
  5
1E3
330
59
100
AcDbEntity
  8
1
  6
Continuous
 62
     7
100
AcDbSpline
210
0.0
220
0.0
230
1.0
 70
    11
 71
     3
 72
    79
 73
    75
 74
    73
 42
0.000000001
 43
0.0000000001
 44
0.00000001
 40
0.0
 40
0.0
 40
0.0
 40
0.0
 40
0.3724305808206053
 40
0.7448259583388962
 40
1.122241109352347
 40
1.499594487178157
 40
1.884512808923779
 40
2.2693559993618
 40
2.663282538774328
 40
3.057133329298691
 40
3.460428043298129
 40
3.863655717912487
 40
4.275562496125354
 40
4.687416440102868
 40
5.106213933025733
 40
5.524975438031436
 40
5.948208193092557
 40
6.371422814579015
 40
6.796179381153466
 40
7.220935947718948
 40
7.644150569178534
 40
8.067383324194372
 40
8.48614482913604
 40
8.904942321974431
 40
9.31679626584719
 40
9.728703043931406
 40
10.13193071839392
 40
10.53522543221263
 40
10.92907622252829
 40
11.32300276169482
 40
11.70784595184731
 40
12.09276427324706
 40
12.47011765063437
 40
12.84753280099257
 40
13.21992817701098
 40
13.59235876652157
 40
13.96303024055511
 40
14.33370171458749
 40
14.70613230409471
 40
15.07852768010755
 40
15.45594283045827
 40
15.83329620783618
 40
16.21821452922456
 40
16.60305771936428
 40
16.99698425851628
 40
17.39083504881636
 40
17.79412976261822
 40
18.19735743706311
 40
18.60926421512879
 40
19.02111815898254
 40
19.43991565180132
 40
19.85867715672304
 40
20.28190991171837
 40
20.70512453315717
 40
21.12988109970164
 40
21.55463766625466
 40
21.97785228771947
 40
22.40108504275867
 40
22.81984654774221
 40
23.23864404064243
 40
23.65049798459684
 40
24.06240476278571
 40
24.46563243737495
 40
24.86892715134726
 40
25.26277794184164
 40
25.6567044812185
 40
26.04154767161102
 40
26.42646599328955
 40
26.80381937099633
 40
27.18123452173338
 40
27.55362989822327
 40
27.92606048841649
 40
28.29673196398185
 40
28.66740342935236
 40
28.66740342935236
 40
28.66740342935236
 40
28.66740342935236
 10
85.76838587744786
 20
194.9640313671548
 30
0.0
 10
85.89160321609306
 20
194.9800140865861
 30
0.0
 10
86.13802624727526
 20
195.0119780090023
 30
0.0
 10
86.50079333020979
 20
195.1070136378129
 30
0.0
 10
86.854619680018
 20
195.2347676997971
 30
0.0
 10
87.19790138369538
 20
195.3989540169693
 30
0.0
 10
87.52638452652783
 20
195.595750037876
 30
0.0
 10
87.8394510530066
 20
195.825696519824
 30
0.0
 10
88.13277528382457
 20
196.0848426141159
 30
0.0
 10
88.40610730684129
 20
196.3734855452078
 30
0.0
 10
88.65556565781249
 20
196.6869571831342
 30
0.0
 10
88.88095570540077
 20
197.0253781550146
 30
0.0
 10
89.07917733117381
 20
197.383654697278
 30
0.0
 10
89.24992367166412
 20
197.7614873778004
 30
0.0
 10
89.39104477958783
 20
198.1537808477669
 30
0.0
 10
89.50211695093012
 20
198.5595343216011
 30
0.0
 10
89.58193472965961
 20
198.9740721650882
 30
0.0
 10
89.63009971878444
 20
199.3954710040291
 30
0.0
 10
89.64619856357044
 20
199.8198156388722
 30
0.0
 10
89.63009971909088
 20
200.2441602737266
 30
0.0
 10
89.58193473027147
 20
200.66555911265
 30
0.0
 10
89.50211695186242
 20
201.0800969562432
 30
0.0
 10
89.39104478080284
 20
201.4858504297557
 30
0.0
 10
89.2499236733299
 20
201.8781439010126
 30
0.0
 10
89.07917733270483
 20
202.255976576926
 30
0.0
 10
88.88095570900452
 20
202.6142531363807
 30
0.0
 10
88.65556565544915
 20
202.9526740456022
 30
0.0
 10
88.40610732817025
 20
203.2661459148083
 30
0.0
 10
88.1327752204571
 20
203.5547880023288
 30
0.0
 10
87.8394513036648
 20
203.8139372060742
 30
0.0
 10
87.52638363291831
 20
204.0438723384705
 30
0.0
 10
87.19790471476257
 20
204.2407102411123
 30
0.0
 10
86.85460754131029
 20
204.4047431729319
 30
0.0
 10
86.50083844256736
 20
204.5330648555844
 30
0.0
 10
86.13786039150523
 20
204.6260088041014
 30
0.0
 10
85.76958598224161
 20
204.6816528117003
 30
0.0
 10
85.39818509662658
 20
204.7005697357407
 30
0.0
 10
85.02678421101157
 20
204.6816528117224
 30
0.0
 10
84.65850980174808
 20
204.6260088041452
 30
0.0
 10
84.29553175068595
 20
204.5330648556499
 30
0.0
 10
83.94176265194321
 20
204.4047431730191
 30
0.0
 10
83.59846547849097
 20
204.2407102412212
 30
0.0
 10
83.26998656033524
 20
204.0438723386009
 30
0.0
 10
82.95691888958939
 20
203.8139372062256
 30
0.0
 10
82.66359497279771
 20
203.5547880025009
 30
0.0
 10
82.39026286508556
 20
203.266145915001
 30
0.0
 10
82.14080453780765
 20
202.9526740458154
 30
0.0
 10
81.9154144842537
 20
202.6142531366141
 30
0.0
 10
81.71719286055477
 20
202.2559765771797
 30
0.0
 10
81.54644651993118
 20
201.8781439012866
 30
0.0
 10
81.40532541245977
 20
201.4858504300496
 30
0.0
 10
81.29425324140195
 20
201.0800969565576
 30
0.0
 10
81.21443546299481
 20
200.6655591129849
 30
0.0
 10
81.16627047417765
 20
200.2441602740816
 30
0.0
 10
81.15017162970047
 20
199.8198156392499
 30
0.0
 10
81.16627047448763
 20
199.3954710044219
 30
0.0
 10
81.21443546361674
 20
198.9740721655261
 30
0.0
 10
81.29425324233762
 20
198.5595343219758
 30
0.0
 10
81.40532541371762
 20
198.1537808484818
 30
0.0
 10
81.54644652150452
 20
197.7614873773657
 30
0.0
 10
81.71719286249488
 20
197.3836547011786
 30
0.0
 10
81.91541448641037
 20
197.0253781430202
 30
0.0
 10
82.1408045407695
 20
196.6869572293858
 30
0.0
 10
82.39026286673823
 20
196.3734853768311
 30
0.0
 10
82.66359498092103
 20
196.084843228989
 30
0.0
 10
82.95691887563817
 20
195.8256942480733
 30
0.0
 10
83.26998662878296
 20
195.5957583028934
 30
0.0
 10
83.59846524480623
 20
195.3989234002026
 30
0.0
 10
83.9417635267948
 20
195.2348794822748
 30
0.0
 10
84.29552852548035
 20
195.1065984559243
 30
0.0
 10
84.65852168774735
 20
195.013504690083
 30
0.0
 10
85.02673994590795
 20
194.9584174170221
 30
0.0
 10
85.3983494642342
 20
194.937431933299
 30
0.0
 10
85.64504040738152
 20
194.9551648912226
 30
0.0
 10
85.76838587744786
 20
194.9640313671548
 30
0.0
 11
85.76838587744786
 21
194.9640313671548
 31
0.0
 11
86.13662369730551
 21
195.0197579512233
 31
0.0
 11
86.49744252897169
 21
195.111888765466
 31
0.0
 11
86.85224201582534
 21
195.2405725639199
 31
0.0
 11
87.19284852290622
 21
195.4030003290621
 31
0.0
 11
87.52307110986855
 21
195.600775851652
 31
0.0
 11
87.83341579669117
 21
195.8283510183236
 31
0.0
 11
88.12872455057864
 21
196.0890632317916
 31
0.0
 11
88.39972390500517
 21
196.3748565050457
 31
0.0
 11
88.65097495422992
 21
196.6903236769628
 31
0.0
 11
88.87467614351357
 21
197.0258089008635
 31
0.0
 11
89.07421462296789
 21
197.386158160795
 31
0.0
 11
89.24397358908024
 21
197.7613988363396
 31
0.0
 11
89.38584448426657
 21
198.1554343539971
 31
0.0
 11
89.49651413712465
 21
198.5593073860476
 31
0.0
 11
89.5766035858163
 21
198.9748932919443
 31
0.0
 11
89.62471000329077
 21
199.3953649181695
 31
0.0
 11
89.64082578318437
 21
199.819815648546
 31
0.0
 11
89.62471000329077
 21
200.2442663789224
 31
0.0
 11
89.57660358581629
 21
200.6647380051476
 31
0.0
 11
89.49651413712468
 21
201.0803239110443
 31
0.0
 11
89.38584448426661
 21
201.4841969430947
 31
0.0
 11
89.24397358908026
 21
201.8782324607522
 31
0.0
 11
89.07421462296787
 21
202.2534731362969
 31
0.0
 11
88.87467614351357
 21
202.6138223962285
 31
0.0
 11
88.65097495422997
 21
202.9493076201292
 31
0.0
 11
88.39972390500519
 21
203.2647747920463
 31
0.0
 11
88.12872455057862
 21
203.5505680653003
 31
0.0
 11
87.83341579669118
 21
203.8112802787682
 31
0.0
 11
87.52307110986852
 21
204.0388554454397
 31
0.0
 11
87.19284852290622
 21
204.2366309680297
 31
0.0
 11
86.85224201582533
 21
204.3990587331718
 31
0.0
 11
86.49744252897169
 21
204.5277425316258
 31
0.0
 11
86.13662369730551
 21
204.6198733458685
 31
0.0
 11
85.76838587744786
 21
204.675599929937
 31
0.0
 11
85.39818509606528
 21
204.6942740636338
 31
0.0
 11
85.0279843146827
 21
204.675599929937
 31
0.0
 11
84.65974649482504
 21
204.6198733458685
 31
0.0
 11
84.29892766315888
 21
204.5277425316257
 31
0.0
 11
83.94412817630509
 21
204.3990587331717
 31
0.0
 11
83.60352166922398
 21
204.2366309680297
 31
0.0
 11
83.2732990822615
 21
204.0388554454399
 31
0.0
 11
82.96295439543879
 21
203.8112802787683
 31
0.0
 11
82.66764564155146
 21
203.5505680653003
 31
0.0
 11
82.39664628712501
 21
203.2647747920463
 31
0.0
 11
82.14539523790035
 21
202.9493076201292
 31
0.0
 11
81.9216940486169
 21
202.6138223962285
 31
0.0
 11
81.72215556916267
 21
202.2534731362969
 31
0.0
 11
81.55239660305023
 21
201.8782324607522
 31
0.0
 11
81.41052570786371
 21
201.4841969430947
 31
0.0
 11
81.29985605500549
 21
201.0803239110442
 31
0.0
 11
81.2197666063138
 21
200.6647380051476
 31
0.0
 11
81.17166018883947
 21
200.2442663789224
 31
0.0
 11
81.15554440894596
 21
199.819815648546
 31
0.0
 11
81.17166018883944
 21
199.3953649181695
 31
0.0
 11
81.21976660631378
 21
198.9748932919443
 31
0.0
 11
81.29985605500549
 21
198.5593073860476
 31
0.0
 11
81.41052570786374
 21
198.1554343539972
 31
0.0
 11
81.55239660305023
 21
197.7613988363397
 31
0.0
 11
81.72215556916267
 21
197.3861581607951
 31
0.0
 11
81.9216940486169
 21
197.0258089008635
 31
0.0
 11
82.14539523790039
 21
196.6903236769628
 31
0.0
 11
82.396646287125
 21
196.3748565050457
 31
0.0
 11
82.66764564155143
 21
196.0890632317916
 31
0.0
 11
82.96295439543876
 21
195.8283510183235
 31
0.0
 11
83.27329908226147
 21
195.6007758516518
 31
0.0
 11
83.60352166922397
 21
195.403000329062
 31
0.0
 11
83.94412817630507
 21
195.24057256392
 31
0.0
 11
84.29892766315888
 21
195.111888765466
 31
0.0
 11
84.65974649482501
 21
195.0197579512232
 31
0.0
 11
85.02798431468267
 21
194.9640313671547
 31
0.0
 11
85.39818509606528
 21
194.9453572334579
 31
0.0
 11
85.76838587744786
 21
194.9640313671548
 31
0.0
  0
ENDBLK
  5
5B
330
59
100
AcDbEntity
  8
0
100
AcDbBlockEnd
  0
BLOCK
  5
1FE
330
1F7
100
AcDbEntity
  8
0
100
AcDbBlockBegin
  2
*D8
 70
     1
 10
0.0
 20
0.0
 30
0.0
  3
*D8
  1

  0
LINE
  5
1F8
330
1F7
100
AcDbEntity
  8
1
  6
Continuous
 62
     2
100
AcDbLine
 10
145.5375011125199
 20
169.319815648546
 30
0.0
 11
145.5375011125199
 21
199.3198156485459
 31
0.0
  0
LINE
  5
1F9
330
1F7
100
AcDbEntity
  8
1
  6
Continuous
 62
     2
100
AcDbLine
 10
181.0402271496497
 20
199.3198156485459
 30
0.0
 11
144.0375011125199
 21
199.3198156485459
 31
0.0
  0
LINE
  5
1FA
330
1F7
100
AcDbEntity
  8
1
  6
Continuous
 62
     2
100
AcDbLine
 10
156.0375011125199
 20
169.319815648546
 30
0.0
 11
144.0375011125199
 21
169.319815648546
 31
0.0
  0
SOLID
  5
1FB
330
1F7
100
AcDbEntity
  8
1
 62
     2
100
AcDbTrace
 10
144.8463255001861
 20
174.569815648546
 30
0.0
 11
146.2286767248537
 21
174.569815648546
 31
0.0
 12
145.5375011125199
 22
169.319815648546
 32
0.0
 13
145.5375011125199
 23
169.319815648546
 33
0.0
  0
SOLID
  5
1FC
330
1F7
100
AcDbEntity
  8
1
 62
     2
100
AcDbTrace
 10
146.2286767248537
 20
194.0698156485459
 30
0.0
 11
144.8463255001861
 21
194.0698156485459
 31
0.0
 12
145.5375011125199
 22
199.3198156485459
 32
0.0
 13
145.5375011125199
 23
199.3198156485459
 33
0.0
  0
MTEXT
  5
1FD
330
1F7
100
AcDbEntity
  8
1
 62
     7
100
AcDbMText
 10
144.0375011125199
 20
182.106036009458
 30
0.0
 40
5.25
 41
0.0
 71
     7
 72
     1
  1
30
  7
CONVERTER_12
 11
0.0
 21
1.0
 31
0.0
 73
     1
 44
0.60024009603842
  0
ENDBLK
  5
1FF
330
1F7
100
AcDbEntity
  8
0
100
AcDbBlockEnd
  0
BLOCK
  5
209
330
202
100
AcDbEntity
  8
0
100
AcDbBlockBegin
  2
*D9
 70
     1
 10
0.0
 20
0.0
 30
0.0
  3
*D9
  1

  0
LINE
  5
203
330
202
100
AcDbEntity
  8
1
  6
Continuous
 62
     2
100
AcDbLine
 10
124.8240925480322
 20
363.5000000000001
 30
0.0
 11
124.8240925480322
 21
347.5000000000001
 31
0.0
  0
LINE
  5
204
330
202
100
AcDbEntity
  8
1
  6
Continuous
 62
     2
100
AcDbLine
 10
109.8240925480322
 20
363.5000000000001
 30
0.0
 11
126.3240925480322
 21
363.5000000000001
 31
0.0
  0
LINE
  5
205
330
202
100
AcDbEntity
  8
1
  6
Continuous
 62
     2
100
AcDbLine
 10
91.9453192200743
 20
347.5000000000001
 30
0.0
 11
126.3240925480322
 21
347.5000000000001
 31
0.0
  0
SOLID
  5
206
330
202
100
AcDbEntity
  8
1
 62
     2
100
AcDbTrace
 10
125.515268160366
 20
358.2500000000001
 30
0.0
 11
124.1329169356984
 21
358.2500000000001
 31
0.0
 12
124.8240925480322
 22
363.5000000000001
 32
0.0
 13
124.8240925480322
 23
363.5000000000001
 33
0.0
  0
SOLID
  5
207
330
202
100
AcDbEntity
  8
1
 62
     2
100
AcDbTrace
 10
124.1329169356984
 20
352.7500000000001
 30
0.0
 11
125.515268160366
 21
352.7500000000001
 31
0.0
 12
124.8240925480322
 22
347.5000000000001
 32
0.0
 13
124.8240925480322
 23
347.5000000000001
 33
0.0
  0
MTEXT
  5
208
330
202
100
AcDbEntity
  8
1
 62
     7
100
AcDbMText
 10
123.3240925480322
 20
353.04120897587
 30
0.0
 40
5.25
 41
0.0
 71
     7
 72
     1
  1
16
  7
CONVERTER_12
 11
0.0
 21
1.0
 31
0.0
 73
     1
 44
0.60024009603842
  0
ENDBLK
  5
20A
330
202
100
AcDbEntity
  8
0
100
AcDbBlockEnd
  0
BLOCK
  5
214
330
20D
100
AcDbEntity
  8
0
100
AcDbBlockBegin
  2
*D10
 70
     1
 10
0.0
 20
0.0
 30
0.0
  3
*D10
  1

  0
LINE
  5
20E
330
20D
100
AcDbEntity
  8
1
  6
Continuous
 62
     2
100
AcDbLine
 10
282.5375011125199
 20
199.3198156485459
 30
0.0
 11
282.5375011125199
 21
139.319815648546
 31
0.0
  0
LINE
  5
20F
330
20D
100
AcDbEntity
  8
1
  6
Continuous
 62
     2
100
AcDbLine
 10
253.53750111252
 20
139.319815648546
 30
0.0
 11
284.0375011125199
 21
139.319815648546
 31
0.0
  0
LINE
  5
210
330
20D
100
AcDbEntity
  8
1
  6
Continuous
 62
     2
100
AcDbLine
 10
253.53750111252
 20
199.3198156485459
 30
0.0
 11
284.0375011125199
 21
199.3198156485459
 31
0.0
  0
SOLID
  5
211
330
20D
100
AcDbEntity
  8
1
 62
     2
100
AcDbTrace
 10
283.2286767248538
 20
194.0698156485459
 30
0.0
 11
281.8463255001861
 21
194.0698156485459
 31
0.0
 12
282.5375011125199
 22
199.3198156485459
 32
0.0
 13
282.5375011125199
 23
199.3198156485459
 33
0.0
  0
SOLID
  5
212
330
20D
100
AcDbEntity
  8
1
 62
     2
100
AcDbTrace
 10
281.8463255001861
 20
144.569815648546
 30
0.0
 11
283.2286767248538
 21
144.569815648546
 31
0.0
 12
282.5375011125199
 22
139.319815648546
 32
0.0
 13
282.5375011125199
 23
139.319815648546
 33
0.0
  0
MTEXT
  5
213
330
20D
100
AcDbEntity
  8
1
 62
     7
100
AcDbMText
 10
281.0375011125199
 20
162.757315648546
 30
0.0
 40
5.25
 41
0.0
 71
     7
 72
     1
  1
{\Fgdt;n}60
  7
CONVERTER_12
 11
0.0
 21
1.0
 31
0.0
 73
     1
 44
0.60024009603842
  0
ENDBLK
  5
215
330
20D
100
AcDbEntity
  8
0
100
AcDbBlockEnd
  0
BLOCK
  5
21F
330
218
100
AcDbEntity
  8
0
100
AcDbBlockBegin
  2
*D11
 70
     1
 10
0.0
 20
0.0
 30
0.0
  3
*D11
  1

  0
LINE
  5
219
330
218
100
AcDbEntity
  8
1
  6
Continuous
 62
     2
100
AcDbLine
 10
193.5375011125199
 20
124.319815648546
 30
0.0
 11
267.5375011125199
 21
124.319815648546
 31
0.0
  0
LINE
  5
21A
330
218
100
AcDbEntity
  8
1
  6
Continuous
 62
     2
100
AcDbLine
 10
267.5375011125199
 20
160.2178034292577
 30
0.0
 11
267.5375011125199
 21
122.819815648546
 31
0.0
  0
LINE
  5
21B
330
218
100
AcDbEntity
  8
1
  6
Continuous
 62
     2
100
AcDbLine
 10
193.5375011125199
 20
152.319815648546
 30
0.0
 11
193.5375011125199
 21
122.819815648546
 31
0.0
  0
SOLID
  5
21C
330
218
100
AcDbEntity
  8
1
 62
     2
100
AcDbTrace
 10
198.7875011125199
 20
125.0109912608798
 30
0.0
 11
198.7875011125199
 21
123.6286400362122
 31
0.0
 12
193.5375011125199
 22
124.319815648546
 32
0.0
 13
193.5375011125199
 23
124.319815648546
 33
0.0
  0
SOLID
  5
21D
330
218
100
AcDbEntity
  8
1
 62
     2
100
AcDbTrace
 10
262.2875011125199
 20
123.6286400362122
 30
0.0
 11
262.2875011125199
 21
125.0109912608798
 31
0.0
 12
267.5375011125199
 22
124.319815648546
 32
0.0
 13
267.5375011125199
 23
124.319815648546
 33
0.0
  0
MTEXT
  5
21E
330
218
100
AcDbEntity
  8
1
 62
     7
100
AcDbMText
 10
226.1276176848207
 20
125.819815648546
 30
0.0
 40
5.25
 41
0.0
 71
     7
 72
     1
  1
74
  7
CONVERTER_12
 11
0.9999999999970619
 21
2.424068405545306E-6
 31
0.0
 73
     1
 44
0.60024009603842
  0
ENDBLK
  5
220
330
218
100
AcDbEntity
  8
0
100
AcDbBlockEnd
  0
BLOCK
  5
22A
330
223
100
AcDbEntity
  8
0
100
AcDbBlockBegin
  2
*D12
 70
     1
 10
0.0
 20
0.0
 30
0.0
  3
*D12
  1

  0
LINE
  5
224
330
223
100
AcDbEntity
  8
1
  6
Continuous
 62
     2
100
AcDbLine
 10
160.5375011125199
 20
124.319815648546
 30
0.0
 11
193.5375011125198
 21
124.319815648546
 31
0.0
  0
LINE
  5
225
330
223
100
AcDbEntity
  8
1
  6
Continuous
 62
     2
100
AcDbLine
 10
160.5375011125199
 20
165.5698156485459
 30
0.0
 11
160.5375011125199
 21
122.819815648546
 31
0.0
  0
LINE
  5
226
330
223
100
AcDbEntity
  8
1
  6
Continuous
 62
     2
100
AcDbLine
 10
193.5375011125198
 20
152.319815648546
 30
0.0
 11
193.5375011125198
 21
122.819815648546
 31
0.0
  0
SOLID
  5
227
330
223
100
AcDbEntity
  8
1
 62
     2
100
AcDbTrace
 10
165.7875011125199
 20
125.0109912608798
 30
0.0
 11
165.7875011125199
 21
123.6286400362122
 31
0.0
 12
160.5375011125199
 22
124.319815648546
 32
0.0
 13
160.5375011125199
 23
124.319815648546
 33
0.0
  0
SOLID
  5
228
330
223
100
AcDbEntity
  8
1
 62
     2
100
AcDbTrace
 10
188.2875011125198
 20
123.6286400362122
 30
0.0
 11
188.2875011125198
 21
125.0109912608798
 31
0.0
 12
193.5375011125198
 22
124.319815648546
 32
0.0
 13
193.5375011125198
 23
124.319815648546
 33
0.0
  0
MTEXT
  5
229
330
223
100
AcDbEntity
  8
1
 62
     7
100
AcDbMText
 10
162.01860851066
 20
125.819815648546
 30
0.0
 40
5.25
 41
0.0
 71
     7
 72
     1
  1
33リフト5
  7
CONVERTER_11
 11
0.9999999999970619
 21
2.424068405545306E-6
 31
0.0
 73
     1
 44
0.45454545454545
  0
ENDBLK
  5
22B
330
223
100
AcDbEntity
  8
0
100
AcDbBlockEnd
  0
BLOCK
  5
236
330
22E
100
AcDbEntity
  8
0
100
AcDbBlockBegin
  2
*D13
 70
     1
 10
0.0
 20
0.0
 30
0.0
  3
*D13
  1

  0
LINE
  5
22F
330
22E
100
AcDbEntity
  8
1
  6
Continuous
 62
     2
100
AcDbLine
 10
61.46986839248234
 20
340.5237882725251
 30
0.0
 11
87.46986839248234
 21
340.5237882725251
 31
0.0
  0
LINE
  5
230
330
22E
100
AcDbEntity
  8
1
  6
Continuous
 62
     2
100
AcDbLine
 10
42.01263270791345
 20
340.5237882725251
 30
0.0
 11
61.46986839248234
 21
340.5237882725251
 31
0.0
  0
LINE
  5
231
330
22E
100
AcDbEntity
  8
1
  6
Continuous
 62
     2
100
AcDbLine
 10
66.82409254803224
 20
331.2500000000001
 30
0.0
 11
60.71986839248232
 21
341.8228263782018
 31
0.0
  0
LINE
  5
232
330
22E
100
AcDbEntity
  8
1
  6
Continuous
 62
     2
100
AcDbLine
 10
92.82409254803213
 20
331.2500000000003
 30
0.0
 11
86.71986839248234
 21
341.8228263782018
 31
0.0
  0
SOLID
  5
233
330
22E
100
AcDbEntity
  8
1
 62
     2
100
AcDbTrace
 10
66.71986839248234
 20
341.2149638848589
 30
0.0
 11
66.71986839248234
 21
339.8326126601913
 31
0.0
 12
61.46986839248234
 22
340.5237882725251
 32
0.0
 13
61.46986839248234
 23
340.5237882725251
 33
0.0
  0
SOLID
  5
234
330
22E
100
AcDbEntity
  8
1
 62
     2
100
AcDbTrace
 10
82.21986839248234
 20
339.8326126601913
 30
0.0
 11
82.21986839248234
 21
341.2149638848589
 31
0.0
 12
87.46986839248234
 22
340.5237882725251
 32
0.0
 13
87.46986839248234
 23
340.5237882725251
 33
0.0
  0
MTEXT
  5
235
330
22E
100
AcDbEntity
  8
1
 62
     7
100
AcDbMText
 10
42.01263270791345
 20
342.0237882725251
 30
0.0
 40
5.25
 41
0.0
 71
     7
 72
     1
  1
26
  7
CONVERTER_12
 11
0.9999999999970619
 21
2.424068405545306E-6
 31
0.0
 73
     1
 44
0.60024009603842
  0
ENDBLK
  5
237
330
22E
100
AcDbEntity
  8
0
100
AcDbBlockEnd
  0
BLOCK
  5
241
330
23A
100
AcDbEntity
  8
0
100
AcDbBlockBegin
  2
*D14
 70
     1
 10
0.0
 20
0.0
 30
0.0
  3
*D14
  1

  0
LINE
  5
23B
330
23A
100
AcDbEntity
  8
1
  6
Continuous
 62
     2
100
AcDbLine
 10
68.49999999999875
 20
220.8198156485459
 30
0.0
 11
91.49999999999875
 21
220.8198156485459
 31
0.0
  0
LINE
  5
23C
330
23A
100
AcDbEntity
  8
1
  6
Continuous
 62
     2
100
AcDbLine
 10
68.49999999999875
 20
204.6942740636338
 30
0.0
 11
68.49999999999875
 21
222.3198156485459
 31
0.0
  0
LINE
  5
23D
330
23A
100
AcDbEntity
  8
1
  6
Continuous
 62
     2
100
AcDbLine
 10
91.49999999999875
 20
204.6942740636338
 30
0.0
 11
91.49999999999875
 21
222.3198156485459
 31
0.0
  0
SOLID
  5
23E
330
23A
100
AcDbEntity
  8
1
 62
     2
100
AcDbTrace
 10
73.74999999999875
 20
221.5109912608797
 30
0.0
 11
73.74999999999875
 21
220.1286400362121
 31
0.0
 12
68.49999999999875
 22
220.8198156485459
 32
0.0
 13
68.49999999999875
 23
220.8198156485459
 33
0.0
  0
SOLID
  5
23F
330
23A
100
AcDbEntity
  8
1
 62
     2
100
AcDbTrace
 10
86.24999999999875
 20
220.1286400362121
 30
0.0
 11
86.24999999999875
 21
221.5109912608797
 31
0.0
 12
91.49999999999875
 22
220.8198156485459
 32
0.0
 13
91.49999999999875
 23
220.8198156485459
 33
0.0
  0
MTEXT
  5
240
330
23A
100
AcDbEntity
  8
1
 62
     7
100
AcDbMText
 10
76.06249999999875
 20
222.3198156485459
 30
0.0
 40
5.25
 41
0.0
 71
     7
 72
     1
  1
23
  7
CONVERTER_12
 11
0.9999999999970619
 21
2.424068405545306E-6
 31
0.0
 73
     1
 44
0.60024009603842
  0
ENDBLK
  5
242
330
23A
100
AcDbEntity
  8
0
100
AcDbBlockEnd
  0
ENDSEC
  0
SECTION
  2
ENTITIES
  0
INSERT
  5
5C
330
1F
100
AcDbEntity
  8
1
100
AcDbBlockReference
  2
開示A4
 10
0.00000000000004
 20
0.0
 30
0.0
 41
1.5
 42
1.5
 43
1.5
  0
INSERT
  5
5D
330
1F
100
AcDbEntity
  8
1
100
AcDbBlockReference
  2
V22-0A-13
 10
133.7385709387331
 20
1165.277740897449
 30
0.0
  0
INSERT
  5
5E
330
1F
100
AcDbEntity
  8
0
100
AcDbBlockReference
  2
64-7-13-55
 10
381.286758560684
 20
32.02593046409051
 30
0.0
  0
INSERT
  5
5F
330
1F
100
AcDbEntity
  8
0
100
AcDbBlockReference
  2
78-167
 10
297.1335982707208
 20
-36.92244694433663
 30
0.0
  0
INSERT
  5
60
330
1F
100
AcDbEntity
  8
1
100
AcDbBlockReference
  2
36-3-13
 10
-406.4359515521381
 20
164.6072077003502
 30
0.0
  0
INSERT
  5
61
330
1F
100
AcDbEntity
  8
0
100
AcDbBlockReference
  2
37-1-13
 10
1654.710563554359
 20
-358.5466441246866
 30
0.0
  0
INSERT
  5
62
330
1F
100
AcDbEntity
  8
0
100
AcDbBlockReference
  2
32-12
 10
181.0375011125199
 20
173.1303292860237
 30
0.0
  0
LINE
  5
1E4
330
1F
100
AcDbEntity
  8
1
  6
DASH_CENTER
 62
     2
100
AcDbLine
 10
62.82409254803221
 20
303.5
 30
0.0
 11
96.82409254803224
 21
303.5
 31
0.0
  0
LINE
  5
1E5
330
1F
100
AcDbEntity
  8
1
  6
DASH_CENTER
 62
     2
100
AcDbLine
 10
79.82409254803224
 20
265.9999999999999
 30
0.0
 11
79.82409254803224
 21
382.0
 31
0.0
  0
LINE
  5
1E6
330
1F
100
AcDbEntity
  8
1
  6
DASH_CENTER
 62
     2
100
AcDbLine
 10
43.25798782612341
 20
169.319815648546
 30
0.0
 11
116.3901972699408
 21
169.319815648546
 31
0.0
  0
LINE
  5
1E7
330
1F
100
AcDbEntity
  8
1
  6
DASH_CENTER
 62
     2
100
AcDbLine
 10
79.82409254803224
 20
132.7537109266373
 30
0.0
 11
79.82409254803224
 21
210.3198156485459
 31
0.0
  0
LINE
  5
1E8
330
1F
100
AcDbEntity
  8
1
  6
DASH_CENTER
 62
     2
100
AcDbLine
 10
156.0375011125199
 20
169.319815648546
 30
0.0
 11
272.0375011125199
 21
169.319815648546
 31
0.0
  0
LINE
  5
1E9
330
1F
100
AcDbEntity
  8
1
  6
DASH_CENTER
 62
     2
100
AcDbLine
 10
193.5375011125198
 20
210.3198156485459
 30
0.0
 11
193.5375011125198
 21
152.319815648546
 31
0.0
  0
SOLID
  5
1EA
330
1F
100
AcDbEntity
  8
1
 62
     2
100
AcDbTrace
 10
179.8139254737625
 20
196.107161898495
 30
0.0
 11
181.0110767512772
 21
196.7983375108288
 31
0.0
 12
183.0375011125198
 22
191.9061163347936
 32
0.0
 13
183.0375011125198
 23
191.9061163347936
 33
0.0
  0
LEADER
  5
1EB
330
1F
100
AcDbEntity
  8
1
  6
Continuous
 62
     2
100
AcDbLeader
  3
Standard
 71
     0
 76
     3
 10
183.0375011125198
 20
191.9061163347936
 30
0.0
 10
173.757405466735
 20
207.9797134923917
 30
0.0
 10
151.6708576853908
 20
207.9797134923917
 30
0.0
  0
SOLID
  5
1EC
330
1F
100
AcDbEntity
  8
0
 62
     2
100
AcDbTrace
 10
259.7142706731824
 20
184.6728572476486
 30
0.0
 11
260.9114219506971
 21
183.9816816353148
 31
0.0
 12
257.6878463119398
 22
179.7806360716134
 32
0.0
 13
257.6878463119398
 23
179.7806360716134
 33
0.0
  0
LEADER
  5
1ED
330
1F
100
AcDbEntity
  8
0
  6
Continuous
 62
     2
100
AcDbLeader
  3
Standard
 71
     0
 76
     3
 10
257.6878463119398
 20
179.7806360716134
 30
0.0
 10
273.9685912517251
 20
207.9797134923917
 30
0.0
 10
291.1189147555223
 20
207.9797134923917
 30
0.0
  0
MTEXT
  5
1EF
330
1F
100
AcDbEntity
  8
1
 62
     7
100
AcDbMText
 10
51.00000000000004
 20
56.25
 30
0.0
 40
5.25
 41
0.0
 71
     4
 72
     1
  1
JIS
  7
CONVERTER_12
 73
     1
 44
1.32052821128451
  0
MTEXT
  5
1F0
330
1F
100
AcDbEntity
  8
1
 62
     7
100
AcDbMText
 10
85.50000000008549
 20
21.37500000002138
 30
0.0
 40
5.25
 41
0.0
 71
     5
 72
     1
  1
V22AD-X-13
  7
CONVERTER_12
 73
     1
 44
0.78031212484994
  0
MTEXT
  5
1F1
330
1F
100
AcDbEntity
  8
1
 62
     7
100
AcDbMText
 10
85.50000000000009
 20
34.12500000000002
 30
0.0
 40
5.25
 41
0.0
 71
     5
 72
     1
  1
D式止水栓本体
  7
CONVERTER_11
 73
     1
 44
0.54545454545455
  0
MTEXT
  5
1F2
330
1F
100
AcDbEntity
  8
0
 62
     7
100
AcDbMText
 10
140.6250000001406
 20
25.5000000000255
 30
0.0
 40
5.25
 41
0.0
 71
     5
 72
     1
  1
1,5
  7
CONVERTER_12
 73
     1
 44
0.7202881152461
  0
MTEXT
  5
1F3
330
1F
100
AcDbEntity
  8
0
 62
     7
100
AcDbMText
 10
127.8750000001278
 20
25.5000000000255
 30
0.0
 40
5.25
 41
0.0
 71
     5
 72
     1
  1
1
  7
CONVERTER_12
 73
     1
 44
0.7202881152461
  0
MTEXT
  5
1F4
330
1F
100
AcDbEntity
  8
1
 62
     7
100
AcDbMText
 10
162.714131576063
 20
212.4797134923917
 30
0.0
 40
5.25
 41
0.0
 71
     5
 72
     1
  1
PJ1/2
  7
CONVERTER_12
 73
     1
 44
0.7202881152461
  0
MTEXT
  5
1F5
330
1F
100
AcDbEntity
  8
0
 62
     7
100
AcDbMText
 10
282.5437530036237
 20
212.4797134923917
 30
0.0
 40
5.25
 41
0.0
 71
     5
 72
     1
  1
R1/2
  7
CONVERTER_12
 73
     1
 44
1.32052821128451
  0
MTEXT
  5
1F6
330
1F
100
AcDbEntity
  8
1
 62
     7
100
AcDbMText
 10
51.00000000000004
 20
45.75000000000001
 30
0.0
 40
5.25
 41
0.0
 71
     4
 72
     1
  1
共用形
  7
CONVERTER_11
 73
     1
 44
0.54545454545455
  0
DIMENSION
  5
201
330
1F
100
AcDbEntity
  8
1
100
AcDbDimension
  2
*D8
 10
145.5375011125199
 20
169.319815648546
 30
0.0
 11
141.4125011125199
 21
186.043536009458
 31
0.0
 70
    32
  1
<>
 71
     5
 42
-1.0
 53
90.0
  3
ME10_DIM_10
100
AcDbAlignedDimension
 13
181.0402271496497
 23
199.3198156485459
 33
0.0
 14
156.0375011125199
 24
169.319815648546
 34
0.0
 50
90.0
100
AcDbRotatedDimension
  0
DIMENSION
  5
20C
330
1F
100
AcDbEntity
  8
1
100
AcDbDimension
  2
*D9
 10
124.8240925480322
 20
363.5000000000001
 30
0.0
 11
120.6990925480322
 21
356.19120897587
 31
0.0
 70
    32
  1
<>
 71
     5
 42
-1.0
 53
90.0
  3
ME10_DIM_11
100
AcDbAlignedDimension
 13
91.94531922007428
 23
347.5
 33
0.0
 14
109.8240925480322
 24
363.5
 34
0.0
 50
90.0
100
AcDbRotatedDimension
  0
DIMENSION
  5
217
330
1F
100
AcDbEntity
  8
1
100
AcDbDimension
  2
*D10
 10
282.5375011125199
 20
199.3198156485459
 30
0.0
 11
278.4125011125199
 21
169.319815648546
 31
0.0
 70
    32
  1
60
 71
     5
 42
-1.0
 53
90.0
  3
ME10_DIM_12
100
AcDbAlignedDimension
 13
253.5375011125199
 23
139.319815648546
 33
0.0
 14
253.5375011125199
 24
199.3198156485459
 34
0.0
 50
90.0
100
AcDbRotatedDimension
  0
DIMENSION
  5
222
330
1F
100
AcDbEntity
  8
1
100
AcDbDimension
  2
*D11
 10
193.5375011125199
 20
124.319815648546
 30
0.0
 11
230.0651176848207
 21
128.444815648546
 31
0.0
 70
    32
  1
<>
 71
     5
 42
-1.0
 53
0.00013888888889
  3
ME10_DIM_13
100
AcDbAlignedDimension
 13
267.5375011125199
 23
160.2178034292577
 33
0.0
 14
193.5375011125198
 24
152.319815648546
 34
0.0
100
AcDbRotatedDimension
  0
DIMENSION
  5
22D
330
1F
100
AcDbEntity
  8
1
100
AcDbDimension
  2
*D12
 10
160.5375011125199
 20
124.319815648546
 30
0.0
 11
176.19360851066
 21
128.444815648546
 31
0.0
 70
    32
  1
33リフト5
 71
     5
 42
-1.0
 53
0.00013888888889
  3
ME10_DIM_14
100
AcDbAlignedDimension
 13
193.5375011125198
 23
152.319815648546
 33
0.0
 14
160.5375011125199
 24
165.5698156485459
 34
0.0
100
AcDbRotatedDimension
  0
DIMENSION
  5
239
330
1F
100
AcDbEntity
  8
1
100
AcDbDimension
  2
*D13
 10
61.46986839248234
 20
340.5237882725251
 30
0.0
 11
45.95013270791345
 21
344.6487882725251
 31
0.0
 70
    33
  1
<>
 71
     5
 42
-1.0
 52
120.0
 53
0.00013888888889
  3
ME10_DIM_15
100
AcDbAlignedDimension
 13
92.82409254803214
 23
331.2500000000002
 33
0.0
 14
66.82409254803225
 24
331.25
 34
0.0
  0
DIMENSION
  5
244
330
1F
100
AcDbEntity
  8
1
100
AcDbDimension
  2
*D14
 10
68.49999999999875
 20
220.8198156485459
 30
0.0
 11
79.99999999999875
 21
224.9448156485459
 31
0.0
 70
    32
  1
<>
 71
     5
 42
-1.0
 53
0.00013888888889
  3
ME10_DIM_16
100
AcDbAlignedDimension
 13
91.49999999999875
 23
204.6942740636338
 33
0.0
 14
68.49999999999875
 24
204.6942740636338
 34
0.0
100
AcDbRotatedDimension
  0
ENDSEC
  0
SECTION
  2
OBJECTS
  0
DICTIONARY
  5
C
330
0
100
AcDbDictionary
281
     1
  3
ACAD_GROUP
350
D
  3
ACAD_LAYOUT
350
1A
  3
ACAD_MATERIAL
350
3B
  3
ACAD_MLEADERSTYLE
350
247
  3
ACAD_MLINESTYLE
350
17
  3
ACAD_PLOTSETTINGS
350
19
  3
ACAD_PLOTSTYLENAME
350
E
  3
ACAD_VISUALSTYLE
350
2A
  3
AcDbVariableDictionary
350
245
  0
DICTIONARY
  5
D
102
{ACAD_REACTORS
330
C
102
}
330
C
100
AcDbDictionary
281
     1
  0
DICTIONARY
  5
1A
102
{ACAD_REACTORS
330
C
102
}
330
C
100
AcDbDictionary
281
     1
  3
Layout1
350
1E
  3
Layout2
350
26
  3
Model
350
22
  0
DICTIONARY
  5
3B
102
{ACAD_REACTORS
330
C
102
}
330
C
100
AcDbDictionary
281
     1
  3
ByBlock
350
3D
  3
ByLayer
350
3C
  3
Global
350
3E
  0
DICTIONARY
  5
247
102
{ACAD_REACTORS
330
C
102
}
330
C
100
AcDbDictionary
281
     1
  0
DICTIONARY
  5
17
102
{ACAD_REACTORS
330
C
102
}
330
C
100
AcDbDictionary
281
     1
  3
Standard
350
18
  0
DICTIONARY
  5
19
102
{ACAD_REACTORS
330
C
102
}
330
C
100
AcDbDictionary
281
     1
  0
ACDBDICTIONARYWDFLT
  5
E
102
{ACAD_REACTORS
330
C
102
}
330
C
100
AcDbDictionary
281
     1
  3
Normal
350
F
100
AcDbDictionaryWithDefault
340
F
  0
DICTIONARY
  5
2A
102
{ACAD_REACTORS
330
C
102
}
330
C
100
AcDbDictionary
281
     1
  3
2dWireframe
350
2F
  3
3D Hidden
350
31
  3
3dWireframe
350
30
  3
Basic
350
32
  3
Brighten
350
36
  3
ColorChange
350
3A
  3
Conceptual
350
34
  3
Dim
350
35
  3
Facepattern
350
39
  3
Flat
350
2B
  3
FlatWithEdges
350
2C
  3
Gouraud
350
2D
  3
GouraudWithEdges
350
2E
  3
Linepattern
350
38
  3
Realistic
350
33
  3
Thicken
350
37
  0
DICTIONARY
  5
245
102
{ACAD_REACTORS
330
C
102
}
330
C
100
AcDbDictionary
281
     1
  3
DIMASSOC
350
248
  3
HIDETEXT
350
249
  0
LAYOUT
  5
1E
102
{ACAD_REACTORS
330
1A
102
}
330
1A
100
AcDbPlotSettings
  1

  2
none_device
  4

  6

 40
0.0
 41
0.0
 42
0.0
 43
0.0
 44
0.0
 45
0.0
 46
0.0
 47
0.0
 48
0.0
 49
0.0
140
0.0
141
0.0
142
1.0
143
1.0
 70
   688
 72
     0
 73
     0
 74
     5
  7

 75
    16
147
1.0
148
0.0
149
0.0
100
AcDbLayout
  1
Layout1
 70
     1
 71
     1
 10
0.0
 20
0.0
 11
12.0
 21
9.0
 12
0.0
 22
0.0
 32
0.0
 14
1.00000000000000E+20
 24
1.00000000000000E+20
 34
1.00000000000000E+20
 15
-1.00000000000000E+20
 25
-1.00000000000000E+20
 35
-1.00000000000000E+20
146
0.0
 13
0.0
 23
0.0
 33
0.0
 16
1.0
 26
0.0
 36
0.0
 17
0.0
 27
1.0
 37
0.0
 76
     0
330
1B
  0
LAYOUT
  5
26
102
{ACAD_REACTORS
330
1A
102
}
330
1A
100
AcDbPlotSettings
  1

  2
none_device
  4

  6

 40
0.0
 41
0.0
 42
0.0
 43
0.0
 44
0.0
 45
0.0
 46
0.0
 47
0.0
 48
0.0
 49
0.0
140
0.0
141
0.0
142
1.0
143
1.0
 70
   688
 72
     0
 73
     0
 74
     5
  7

 75
    16
147
1.0
148
0.0
149
0.0
100
AcDbLayout
  1
Layout2
 70
     1
 71
     2
 10
0.0
 20
0.0
 11
0.0
 21
0.0
 12
0.0
 22
0.0
 32
0.0
 14
0.0
 24
0.0
 34
0.0
 15
0.0
 25
0.0
 35
0.0
146
0.0
 13
0.0
 23
0.0
 33
0.0
 16
1.0
 26
0.0
 36
0.0
 17
0.0
 27
1.0
 37
0.0
 76
     0
330
23
  0
LAYOUT
  5
22
102
{ACAD_REACTORS
330
1A
102
}
330
1A
100
AcDbPlotSettings
  1

  2
none_device
  4

  6

 40
0.0
 41
0.0
 42
0.0
 43
0.0
 44
0.0
 45
0.0
 46
0.0
 47
0.0
 48
0.0
 49
0.0
140
0.0
141
0.0
142
1.0
143
1.0
 70
  1712
 72
     0
 73
     0
 74
     0
  7

 75
     0
147
1.0
148
0.0
149
0.0
100
AcDbLayout
  1
Model
 70
     1
 71
     0
 10
0.0
 20
0.0
 11
12.0
 21
9.0
 12
0.0
 22
0.0
 32
0.0
 14
0.00000000000004
 24
0.0
 34
0.0
 15
315.0000000000002
 25
445.5
 35
0.0
146
0.0
 13
0.0
 23
0.0
 33
0.0
 16
1.0
 26
0.0
 36
0.0
 17
0.0
 27
1.0
 37
0.0
 76
     0
330
1F
331
29
  0
MATERIAL
  5
3D
102
{ACAD_REACTORS
330
3B
102
}
102
{ACAD_XDICTIONARY
360
26C
102
}
330
3B
100
AcDbMaterial
  1
ByBlock
  0
MATERIAL
  5
3C
102
{ACAD_REACTORS
330
3B
102
}
102
{ACAD_XDICTIONARY
360
26A
102
}
330
3B
100
AcDbMaterial
  1
ByLayer
  0
MATERIAL
  5
3E
102
{ACAD_REACTORS
330
3B
102
}
102
{ACAD_XDICTIONARY
360
26E
102
}
330
3B
100
AcDbMaterial
  1
Global
  0
MLINESTYLE
  5
18
102
{ACAD_REACTORS
330
17
102
}
330
17
100
AcDbMlineStyle
  2
Standard
 70
     0
  3

 62
   256
 51
90.0
 52
90.0
 71
     2
 49
0.5
 62
   256
  6
BYLAYER
 49
-0.5
 62
   256
  6
BYLAYER
  0
ACDBPLACEHOLDER
  5
F
102
{ACAD_REACTORS
330
E
102
}
330
E
  0
VISUALSTYLE
  5
2F
102
{ACAD_REACTORS
330
2A
102
}
102
{ACAD_XDICTIONARY
360
252
102
}
330
2A
100
AcDbVisualStyle
  2
2dWireframe
 70
     4
 71
     0
 72
     2
 73
     0
 90
        0
 40
-0.6
 41
-30.0
 62
     5
 63
     7
 74
     1
 91
        4
 64
     7
 65
   257
 75
     1
175
     1
 42
1.0
 92
        0
 66
   257
 43
1.0
 76
     1
 77
     6
 78
     2
 67
     7
 79
     5
170
     0
171
     0
290
     0
174
     0
 93
        1
 44
0.0
173
     0
291
     0
 45
0.0
1001
ACAD
1000
AcDbSavedByObjectVersion
1070
     0
  0
VISUALSTYLE
  5
31
102
{ACAD_REACTORS
330
2A
102
}
102
{ACAD_XDICTIONARY
360
256
102
}
330
2A
100
AcDbVisualStyle
  2
3D Hidden
 70
     6
 71
     1
 72
     2
 73
     2
 90
        0
 40
-0.6
 41
-30.0
 62
     5
 63
     7
 74
     2
 91
        2
 64
     7
 65
   257
 75
     2
175
     1
 42
40.0
 92
        0
 66
   257
 43
1.0
 76
     1
 77
     6
 78
     2
 67
     7
 79
     3
170
     0
171
     0
290
     0
174
     0
 93
        1
 44
0.0
173
     0
291
     0
 45
0.0
1001
ACAD
1000
AcDbSavedByObjectVersion
1070
     0
  0
VISUALSTYLE
  5
30
102
{ACAD_REACTORS
330
2A
102
}
102
{ACAD_XDICTIONARY
360
254
102
}
330
2A
100
AcDbVisualStyle
  2
3dWireframe
 70
     5
 71
     0
 72
     2
 73
     0
 90
        0
 40
-0.6
 41
-30.0
 62
     5
 63
     7
 74
     1
 91
        4
 64
     7
 65
   257
 75
     1
175
     1
 42
1.0
 92
        0
 66
   257
 43
1.0
 76
     1
 77
     6
 78
     2
 67
     7
 79
     5
170
     0
171
     0
290
     0
174
     0
 93
        1
 44
0.0
173
     0
291
     0
 45
0.0
1001
ACAD
1000
AcDbSavedByObjectVersion
1070
     0
  0
VISUALSTYLE
  5
32
102
{ACAD_REACTORS
330
2A
102
}
102
{ACAD_XDICTIONARY
360
258
102
}
330
2A
100
AcDbVisualStyle
  2
Basic
 70
     7
 71
     1
 72
     0
 73
     1
 90
        0
 40
-0.6
 41
-30.0
 62
     5
 63
     7
 74
     0
 91
        4
 64
     7
 65
   257
 75
     1
175
     1
 42
1.0
 92
        8
 66
     7
 43
1.0
 76
     1
 77
     6
 78
     2
 67
     7
 79
     5
170
     0
171
     0
290
     0
174
     0
 93
        1
 44
0.0
173
     0
291
     1
 45
0.0
1001
ACAD
1000
AcDbSavedByObjectVersion
1070
     0
  0
VISUALSTYLE
  5
36
102
{ACAD_REACTORS
330
2A
102
}
102
{ACAD_XDICTIONARY
360
260
102
}
330
2A
100
AcDbVisualStyle
  2
Brighten
 70
    12
 71
     2
 72
     2
 73
     0
 90
        0
 40
-0.6
 41
-30.0
 62
     5
 63
     7
 74
     1
 91
        4
 64
     7
 65
   257
 75
     1
175
     1
 42
1.0
 92
        8
 66
     7
 43
1.0
 76
     1
 77
     6
 78
     2
 67
     7
 79
     5
170
     0
171
     0
290
     0
174
     0
 93
        1
 44
50.0
173
     0
291
     1
 45
0.0
1001
ACAD
1000
AcDbSavedByObjectVersion
1070
     0
  0
VISUALSTYLE
  5
3A
102
{ACAD_REACTORS
330
2A
102
}
102
{ACAD_XDICTIONARY
360
268
102
}
330
2A
100
AcDbVisualStyle
  2
ColorChange
 70
    16
 71
     2
 72
     2
 73
     3
 90
        0
 40
-0.6
 41
-30.0
 62
     5
 63
     8
 74
     1
 91
        4
 64
     7
 65
   257
 75
     1
175
     1
 42
1.0
 92
        8
 66
     8
 43
1.0
 76
     1
 77
     6
 78
     2
 67
     7
 79
     5
170
     0
171
     0
290
     0
174
     0
 93
        1
 44
0.0
173
     0
291
     1
 45
0.0
1001
ACAD
1000
AcDbSavedByObjectVersion
1070
     0
  0
VISUALSTYLE
  5
34
102
{ACAD_REACTORS
330
2A
102
}
102
{ACAD_XDICTIONARY
360
25C
102
}
330
2A
100
AcDbVisualStyle
  2
Conceptual
 70
     9
 71
     3
 72
     2
 73
     0
 90
        0
 40
-0.6
 41
-30.0
 62
     5
 63
     7
 74
     2
 91
        2
 64
     7
 65
   257
 75
     1
175
     1
 42
40.0
 92
        8
 66
     7
 43
1.0
 76
     1
 77
     6
 78
     2
 67
     7
 79
     3
170
     0
171
     0
290
     0
174
     0
 93
        1
 44
0.0
173
     0
291
     0
 45
0.0
1001
ACAD
1000
AcDbSavedByObjectVersion
1070
     0
  0
VISUALSTYLE
  5
35
102
{ACAD_REACTORS
330
2A
102
}
102
{ACAD_XDICTIONARY
360
25E
102
}
330
2A
100
AcDbVisualStyle
  2
Dim
 70
    11
 71
     2
 72
     2
 73
     0
 90
        0
 40
-0.6
 41
-30.0
 62
     5
 63
     7
 74
     1
 91
        4
 64
     7
 65
   257
 75
     1
175
     1
 42
1.0
 92
        8
 66
     7
 43
1.0
 76
     1
 77
     6
 78
     2
 67
     7
 79
     5
170
     0
171
     0
290
     0
174
     0
 93
        1
 44
-50.0
173
     0
291
     1
 45
0.0
1001
ACAD
1000
AcDbSavedByObjectVersion
1070
     0
  0
VISUALSTYLE
  5
39
102
{ACAD_REACTORS
330
2A
102
}
102
{ACAD_XDICTIONARY
360
266
102
}
330
2A
100
AcDbVisualStyle
  2
Facepattern
 70
    15
 71
     2
 72
     2
 73
     0
 90
        0
 40
-0.6
 41
-30.0
 62
     5
 63
     7
 74
     1
 91
        4
 64
     7
 65
   257
 75
     1
175
     1
 42
1.0
 92
        8
 66
     7
 43
1.0
 76
     1
 77
     6
 78
     2
 67
     7
 79
     5
170
     0
171
     0
290
     0
174
     0
 93
        1
 44
0.0
173
     0
291
     1
 45
0.0
1001
ACAD
1000
AcDbSavedByObjectVersion
1070
     0
  0
VISUALSTYLE
  5
2B
102
{ACAD_REACTORS
330
2A
102
}
102
{ACAD_XDICTIONARY
360
24A
102
}
330
2A
100
AcDbVisualStyle
  2
Flat
 70
     0
 71
     2
 72
     1
 73
     1
 90
        2
 40
-0.6
 41
30.0
 62
     5
 63
     7
 74
     0
 91
        4
 64
     7
 65
   257
 75
     1
175
     1
 42
1.0
 92
        8
 66
     7
 43
1.0
 76
     1
 77
     6
 78
     2
 67
     7
 79
     5
170
     0
171
     0
290
     0
174
     0
 93
       13
 44
0.0
173
     0
291
     1
 45
0.0
1001
ACAD
1000
AcDbSavedByObjectVersion
1070
     0
  0
VISUALSTYLE
  5
2C
102
{ACAD_REACTORS
330
2A
102
}
102
{ACAD_XDICTIONARY
360
24C
102
}
330
2A
100
AcDbVisualStyle
  2
FlatWithEdges
 70
     1
 71
     2
 72
     1
 73
     1
 90
        2
 40
-0.6
 41
30.0
 62
     5
 63
     7
 74
     1
 91
        4
 64
     7
 65
   257
 75
     1
175
     1
 42
1.0
 92
        0
 66
   257
 43
1.0
 76
     1
 77
     6
 78
     2
 67
     7
 79
     5
170
     0
171
     0
290
     0
174
     0
 93
       13
 44
0.0
173
     0
291
     1
 45
0.0
1001
ACAD
1000
AcDbSavedByObjectVersion
1070
     0
  0
VISUALSTYLE
  5
2D
102
{ACAD_REACTORS
330
2A
102
}
102
{ACAD_XDICTIONARY
360
24E
102
}
330
2A
100
AcDbVisualStyle
  2
Gouraud
 70
     2
 71
     2
 72
     2
 73
     1
 90
        2
 40
-0.6
 41
30.0
 62
     5
 63
     7
 74
     0
 91
        4
 64
     7
 65
   257
 75
     1
175
     1
 42
1.0
 92
        0
 66
     7
 43
1.0
 76
     1
 77
     6
 78
     2
 67
     7
 79
     5
170
     0
171
     0
290
     0
174
     0
 93
       13
 44
0.0
173
     0
291
     1
 45
0.0
1001
ACAD
1000
AcDbSavedByObjectVersion
1070
     0
  0
VISUALSTYLE
  5
2E
102
{ACAD_REACTORS
330
2A
102
}
102
{ACAD_XDICTIONARY
360
250
102
}
330
2A
100
AcDbVisualStyle
  2
GouraudWithEdges
 70
     3
 71
     2
 72
     2
 73
     1
 90
        2
 40
-0.6
 41
30.0
 62
     5
 63
     7
 74
     1
 91
        4
 64
     7
 65
   257
 75
     1
175
     1
 42
1.0
 92
        0
 66
   257
 43
1.0
 76
     1
 77
     6
 78
     2
 67
     7
 79
     5
170
     0
171
     0
290
     0
174
     0
 93
       13
 44
0.0
173
     0
291
     1
 45
0.0
1001
ACAD
1000
AcDbSavedByObjectVersion
1070
     0
  0
VISUALSTYLE
  5
38
102
{ACAD_REACTORS
330
2A
102
}
102
{ACAD_XDICTIONARY
360
264
102
}
330
2A
100
AcDbVisualStyle
  2
Linepattern
 70
    14
 71
     2
 72
     2
 73
     0
 90
        0
 40
-0.6
 41
-30.0
 62
     5
 63
     7
 74
     1
 91
        4
 64
     7
 65
   257
 75
     7
175
     7
 42
1.0
 92
        8
 66
     7
 43
1.0
 76
     1
 77
     6
 78
     2
 67
     7
 79
     5
170
     0
171
     0
290
     0
174
     0
 93
        1
 44
0.0
173
     0
291
     1
 45
0.0
1001
ACAD
1000
AcDbSavedByObjectVersion
1070
     0
  0
VISUALSTYLE
  5
33
102
{ACAD_REACTORS
330
2A
102
}
102
{ACAD_XDICTIONARY
360
25A
102
}
330
2A
100
AcDbVisualStyle
  2
Realistic
 70
     8
 71
     2
 72
     2
 73
     0
 90
        0
 40
-0.6
 41
-30.0
 62
     5
 63
     7
 74
     1
 91
        0
 64
     7
 65
   257
 75
     1
175
     1
 42
1.0
 92
        8
 66
     8
 43
1.0
 76
     1
 77
     6
 78
     2
 67
     7
 79
     5
170
     0
171
     0
290
     0
174
     0
 93
       13
 44
0.0
173
     0
291
     0
 45
0.0
1001
ACAD
1000
AcDbSavedByObjectVersion
1070
     0
  0
VISUALSTYLE
  5
37
102
{ACAD_REACTORS
330
2A
102
}
102
{ACAD_XDICTIONARY
360
262
102
}
330
2A
100
AcDbVisualStyle
  2
Thicken
 70
    13
 71
     2
 72
     2
 73
     0
 90
        0
 40
-0.6
 41
-30.0
 62
     5
 63
     7
 74
     1
 91
        4
 64
     7
 65
   257
 75
     1
175
     1
 42
1.0
 92
       12
 66
     7
 43
1.0
 76
     1
 77
     6
 78
     2
 67
     7
 79
     5
170
     0
171
     0
290
     0
174
     0
 93
        1
 44
0.0
173
     0
291
     1
 45
0.0
1001
ACAD
1000
AcDbSavedByObjectVersion
1070
     0
  0
DICTIONARYVAR
  5
248
102
{ACAD_REACTORS
330
245
102
}
330
245
100
DictionaryVariables
280
     0
  1
2
  0
DICTIONARYVAR
  5
249
102
{ACAD_REACTORS
330
245
102
}
330
245
100
DictionaryVariables
280
     0
  1
1
  0
DICTIONARY
  5
26C
330
3D
100
AcDbDictionary
280
     1
281
     1
  3
ACAD_XREC_ROUNDTRIP
360
26D
  0
DICTIONARY
  5
26A
330
3C
100
AcDbDictionary
280
     1
281
     1
  3
ACAD_XREC_ROUNDTRIP
360
26B
  0
DICTIONARY
  5
26E
330
3E
100
AcDbDictionary
280
     1
281
     1
  3
ACAD_XREC_ROUNDTRIP
360
26F
  0
DICTIONARY
  5
252
330
2F
100
AcDbDictionary
280
     1
281
     1
  3
ACAD_XREC_ROUNDTRIP
360
253
  0
DICTIONARY
  5
256
330
31
100
AcDbDictionary
280
     1
281
     1
  3
ACAD_XREC_ROUNDTRIP
360
257
  0
DICTIONARY
  5
254
330
30
100
AcDbDictionary
280
     1
281
     1
  3
ACAD_XREC_ROUNDTRIP
360
255
  0
DICTIONARY
  5
258
330
32
100
AcDbDictionary
280
     1
281
     1
  3
ACAD_XREC_ROUNDTRIP
360
259
  0
DICTIONARY
  5
260
330
36
100
AcDbDictionary
280
     1
281
     1
  3
ACAD_XREC_ROUNDTRIP
360
261
  0
DICTIONARY
  5
268
330
3A
100
AcDbDictionary
280
     1
281
     1
  3
ACAD_XREC_ROUNDTRIP
360
269
  0
DICTIONARY
  5
25C
330
34
100
AcDbDictionary
280
     1
281
     1
  3
ACAD_XREC_ROUNDTRIP
360
25D
  0
DICTIONARY
  5
25E
330
35
100
AcDbDictionary
280
     1
281
     1
  3
ACAD_XREC_ROUNDTRIP
360
25F
  0
DICTIONARY
  5
266
330
39
100
AcDbDictionary
280
     1
281
     1
  3
ACAD_XREC_ROUNDTRIP
360
267
  0
DICTIONARY
  5
24A
330
2B
100
AcDbDictionary
280
     1
281
     1
  3
ACAD_XREC_ROUNDTRIP
360
24B
  0
DICTIONARY
  5
24C
330
2C
100
AcDbDictionary
280
     1
281
     1
  3
ACAD_XREC_ROUNDTRIP
360
24D
  0
DICTIONARY
  5
24E
330
2D
100
AcDbDictionary
280
     1
281
     1
  3
ACAD_XREC_ROUNDTRIP
360
24F
  0
DICTIONARY
  5
250
330
2E
100
AcDbDictionary
280
     1
281
     1
  3
ACAD_XREC_ROUNDTRIP
360
251
  0
DICTIONARY
  5
264
330
38
100
AcDbDictionary
280
     1
281
     1
  3
ACAD_XREC_ROUNDTRIP
360
265
  0
DICTIONARY
  5
25A
330
33
100
AcDbDictionary
280
     1
281
     1
  3
ACAD_XREC_ROUNDTRIP
360
25B
  0
DICTIONARY
  5
262
330
37
100
AcDbDictionary
280
     1
281
     1
  3
ACAD_XREC_ROUNDTRIP
360
263
  0
XRECORD
  5
26D
102
{ACAD_REACTORS
330
26C
102
}
330
26C
100
AcDbXrecord
280
     1
102
MATERIAL
148
0.0
149
0.0
149
0.0
 93
        0
 94
      127
282
     0
 72
     1
 77
     1
171
     1
175
     1
179
     1
273
     0
  0
XRECORD
  5
26B
102
{ACAD_REACTORS
330
26A
102
}
330
26A
100
AcDbXrecord
280
     1
102
MATERIAL
148
0.0
149
0.0
149
0.0
 93
        0
 94
      127
282
     0
 72
     1
 77
     1
171
     1
175
     1
179
     1
273
     0
  0
XRECORD
  5
26F
102
{ACAD_REACTORS
330
26E
102
}
330
26E
100
AcDbXrecord
280
     1
102
MATERIAL
148
0.0
149
0.0
149
0.0
 93
        0
 94
      127
282
     0
 72
     1
 77
     1
171
     1
175
     1
179
     1
273
     0
  0
XRECORD
  5
253
102
{ACAD_REACTORS
330
252
102
}
330
252
100
AcDbXrecord
280
     1
102
RTVSPropertyOp0
 70
     1
102
RTVSPropertyOp1
 70
     1
102
RTVSPropertyOp2
 70
     1
102
RTVSPropertyOp3
 70
     1
102
RTVSPropertyOp4
 70
     1
102
RTVSPropertyOp5
 70
     1
102
RTVSPropertyOp6
 70
     1
102
RTVSPropertyOp7
 70
     1
102
RTVSPropertyOp8
 70
     1
102
RTVSPropertyOp9
 70
     1
102
RTVSPropertyOp10
 70
     1
102
RTVSPropertyOp11
 70
     1
102
RTVSPropertyOp12
 70
     1
102
RTVSPropertyOp13
 70
     1
102
RTVSPropertyOp14
 70
     1
102
RTVSPropertyOp15
 70
     1
102
RTVSPropertyOp16
 70
     1
102
RTVSPropertyOp17
 70
     1
102
RTVSPropertyOp18
 70
     1
102
RTVSPropertyOp19
 70
     1
102
RTVSPropertyOp20
 70
     1
102
RTVSPropertyOp21
 70
     1
102
RTVSPropertyOp22
 70
     1
102
RTVSPropertyOp23
 70
     1
102
RTVSPropertyOp24
 70
     1
102
RTVSPropertyOp25
 70
     1
102
RTVSPropertyOp26
 70
     1
102
RTVSPropertyOp27
 70
     1
102
RTVSPropertyOp28
 70
     1
102
RTVSPropertyOp29
 70
     1
102
RTVSPropertyOp30
 70
     1
102
RTVSPropertyOp31
 70
     1
102
RTVSPropertyOp32
 70
     1
  0
XRECORD
  5
257
102
{ACAD_REACTORS
330
256
102
}
330
256
100
AcDbXrecord
280
     1
102
RTVSPropertyOp0
 70
     1
102
RTVSPropertyOp1
 70
     1
102
RTVSPropertyOp2
 70
     1
102
RTVSPropertyOp3
 70
     1
102
RTVSPropertyOp4
 70
     1
102
RTVSPropertyOp5
 70
     1
102
RTVSPropertyOp6
 70
     1
102
RTVSPropertyOp7
 70
     1
102
RTVSPropertyOp8
 70
     1
102
RTVSPropertyOp9
 70
     1
102
RTVSPropertyOp10
 70
     1
102
RTVSPropertyOp11
 70
     1
102
RTVSPropertyOp12
 70
     1
102
RTVSPropertyOp13
 70
     1
102
RTVSPropertyOp14
 70
     1
102
RTVSPropertyOp15
 70
     1
102
RTVSPropertyOp16
 70
     1
102
RTVSPropertyOp17
 70
     1
102
RTVSPropertyOp18
 70
     1
102
RTVSPropertyOp19
 70
     1
102
RTVSPropertyOp20
 70
     1
102
RTVSPropertyOp21
 70
     1
102
RTVSPropertyOp22
 70
     1
102
RTVSPropertyOp23
 70
     1
102
RTVSPropertyOp24
 70
     1
102
RTVSPropertyOp25
 70
     1
102
RTVSPropertyOp26
 70
     1
102
RTVSPropertyOp27
 70
     1
102
RTVSPropertyOp28
 70
     1
102
RTVSPropertyOp29
 70
     1
102
RTVSPropertyOp30
 70
     1
102
RTVSPropertyOp31
 70
     1
102
RTVSPropertyOp32
 70
     1
  0
XRECORD
  5
255
102
{ACAD_REACTORS
330
254
102
}
330
254
100
AcDbXrecord
280
     1
102
RTVSPropertyOp0
 70
     1
102
RTVSPropertyOp1
 70
     1
102
RTVSPropertyOp2
 70
     1
102
RTVSPropertyOp3
 70
     1
102
RTVSPropertyOp4
 70
     1
102
RTVSPropertyOp5
 70
     1
102
RTVSPropertyOp6
 70
     1
102
RTVSPropertyOp7
 70
     1
102
RTVSPropertyOp8
 70
     1
102
RTVSPropertyOp9
 70
     1
102
RTVSPropertyOp10
 70
     1
102
RTVSPropertyOp11
 70
     1
102
RTVSPropertyOp12
 70
     1
102
RTVSPropertyOp13
 70
     1
102
RTVSPropertyOp14
 70
     1
102
RTVSPropertyOp15
 70
     1
102
RTVSPropertyOp16
 70
     1
102
RTVSPropertyOp17
 70
     1
102
RTVSPropertyOp18
 70
     1
102
RTVSPropertyOp19
 70
     1
102
RTVSPropertyOp20
 70
     1
102
RTVSPropertyOp21
 70
     1
102
RTVSPropertyOp22
 70
     1
102
RTVSPropertyOp23
 70
     1
102
RTVSPropertyOp24
 70
     1
102
RTVSPropertyOp25
 70
     1
102
RTVSPropertyOp26
 70
     1
102
RTVSPropertyOp27
 70
     1
102
RTVSPropertyOp28
 70
     1
102
RTVSPropertyOp29
 70
     1
102
RTVSPropertyOp30
 70
     1
102
RTVSPropertyOp31
 70
     1
102
RTVSPropertyOp32
 70
     1
  0
XRECORD
  5
259
102
{ACAD_REACTORS
330
258
102
}
330
258
100
AcDbXrecord
280
     1
102
RTVSPropertyOp0
 70
     1
102
RTVSPropertyOp1
 70
     1
102
RTVSPropertyOp2
 70
     1
102
RTVSPropertyOp3
 70
     1
102
RTVSPropertyOp4
 70
     1
102
RTVSPropertyOp5
 70
     1
102
RTVSPropertyOp6
 70
     1
102
RTVSPropertyOp7
 70
     1
102
RTVSPropertyOp8
 70
     1
102
RTVSPropertyOp9
 70
     1
102
RTVSPropertyOp10
 70
     1
102
RTVSPropertyOp11
 70
     1
102
RTVSPropertyOp12
 70
     1
102
RTVSPropertyOp13
 70
     1
102
RTVSPropertyOp14
 70
     1
102
RTVSPropertyOp15
 70
     1
102
RTVSPropertyOp16
 70
     1
102
RTVSPropertyOp17
 70
     1
102
RTVSPropertyOp18
 70
     1
102
RTVSPropertyOp19
 70
     1
102
RTVSPropertyOp20
 70
     1
102
RTVSPropertyOp21
 70
     1
102
RTVSPropertyOp22
 70
     1
102
RTVSPropertyOp23
 70
     1
102
RTVSPropertyOp24
 70
     1
102
RTVSPropertyOp25
 70
     1
102
RTVSPropertyOp26
 70
     1
102
RTVSPropertyOp27
 70
     1
102
RTVSPropertyOp28
 70
     1
102
RTVSPropertyOp29
 70
     1
102
RTVSPropertyOp30
 70
     1
102
RTVSPropertyOp31
 70
     1
102
RTVSPropertyOp32
 70
     1
  0
XRECORD
  5
261
102
{ACAD_REACTORS
330
260
102
}
330
260
100
AcDbXrecord
280
     1
102
RTVSPropertyOp0
 70
     1
102
RTVSPropertyOp1
 70
     1
102
RTVSPropertyOp2
 70
     1
102
RTVSPropertyOp3
 70
     1
102
RTVSPropertyOp4
 70
     1
102
RTVSPropertyOp5
 70
     1
102
RTVSPropertyOp6
 70
     1
102
RTVSPropertyOp7
 70
     1
102
RTVSPropertyOp8
 70
     1
102
RTVSPropertyOp9
 70
     1
102
RTVSPropertyOp10
 70
     1
102
RTVSPropertyOp11
 70
     1
102
RTVSPropertyOp12
 70
     1
102
RTVSPropertyOp13
 70
     1
102
RTVSPropertyOp14
 70
     1
102
RTVSPropertyOp15
 70
     1
102
RTVSPropertyOp16
 70
     1
102
RTVSPropertyOp17
 70
     1
102
RTVSPropertyOp18
 70
     1
102
RTVSPropertyOp19
 70
     1
102
RTVSPropertyOp20
 70
     1
102
RTVSPropertyOp21
 70
     1
102
RTVSPropertyOp22
 70
     1
102
RTVSPropertyOp23
 70
     1
102
RTVSPropertyOp24
 70
     1
102
RTVSPropertyOp25
 70
     1
102
RTVSPropertyOp26
 70
     1
102
RTVSPropertyOp27
 70
     1
102
RTVSPropertyOp28
 70
     1
102
RTVSPropertyOp29
 70
     1
102
RTVSPropertyOp30
 70
     1
102
RTVSPropertyOp31
 70
     1
102
RTVSPropertyOp32
 70
     1
  0
XRECORD
  5
269
102
{ACAD_REACTORS
330
268
102
}
330
268
100
AcDbXrecord
280
     1
102
RTVSPropertyOp0
 70
     1
102
RTVSPropertyOp1
 70
     1
102
RTVSPropertyOp2
 70
     1
102
RTVSPropertyOp3
 70
     1
102
RTVSPropertyOp4
 70
     1
102
RTVSPropertyOp5
 70
     1
102
RTVSPropertyOp6
 70
     1
102
RTVSPropertyOp7
 70
     1
102
RTVSPropertyOp8
 70
     1
102
RTVSPropertyOp9
 70
     1
102
RTVSPropertyOp10
 70
     1
102
RTVSPropertyOp11
 70
     1
102
RTVSPropertyOp12
 70
     1
102
RTVSPropertyOp13
 70
     1
102
RTVSPropertyOp14
 70
     1
102
RTVSPropertyOp15
 70
     1
102
RTVSPropertyOp16
 70
     1
102
RTVSPropertyOp17
 70
     1
102
RTVSPropertyOp18
 70
     1
102
RTVSPropertyOp19
 70
     1
102
RTVSPropertyOp20
 70
     1
102
RTVSPropertyOp21
 70
     1
102
RTVSPropertyOp22
 70
     1
102
RTVSPropertyOp23
 70
     1
102
RTVSPropertyOp24
 70
     1
102
RTVSPropertyOp25
 70
     1
102
RTVSPropertyOp26
 70
     1
102
RTVSPropertyOp27
 70
     1
102
RTVSPropertyOp28
 70
     1
102
RTVSPropertyOp29
 70
     1
102
RTVSPropertyOp30
 70
     1
102
RTVSPropertyOp31
 70
     1
102
RTVSPropertyOp32
 70
     1
  0
XRECORD
  5
25D
102
{ACAD_REACTORS
330
25C
102
}
330
25C
100
AcDbXrecord
280
     1
102
RTVSPropertyOp0
 70
     1
102
RTVSPropertyOp1
 70
     1
102
RTVSPropertyOp2
 70
     1
102
RTVSPropertyOp3
 70
     1
102
RTVSPropertyOp4
 70
     1
102
RTVSPropertyOp5
 70
     1
102
RTVSPropertyOp6
 70
     1
102
RTVSPropertyOp7
 70
     1
102
RTVSPropertyOp8
 70
     1
102
RTVSPropertyOp9
 70
     1
102
RTVSPropertyOp10
 70
     1
102
RTVSPropertyOp11
 70
     1
102
RTVSPropertyOp12
 70
     1
102
RTVSPropertyOp13
 70
     1
102
RTVSPropertyOp14
 70
     1
102
RTVSPropertyOp15
 70
     1
102
RTVSPropertyOp16
 70
     1
102
RTVSPropertyOp17
 70
     1
102
RTVSPropertyOp18
 70
     1
102
RTVSPropertyOp19
 70
     1
102
RTVSPropertyOp20
 70
     1
102
RTVSPropertyOp21
 70
     1
102
RTVSPropertyOp22
 70
     1
102
RTVSPropertyOp23
 70
     1
102
RTVSPropertyOp24
 70
     1
102
RTVSPropertyOp25
 70
     1
102
RTVSPropertyOp26
 70
     1
102
RTVSPropertyOp27
 70
     1
102
RTVSPropertyOp28
 70
     1
102
RTVSPropertyOp29
 70
     1
102
RTVSPropertyOp30
 70
     1
102
RTVSPropertyOp31
 70
     1
102
RTVSPropertyOp32
 70
     1
  0
XRECORD
  5
25F
102
{ACAD_REACTORS
330
25E
102
}
330
25E
100
AcDbXrecord
280
     1
102
RTVSPropertyOp0
 70
     1
102
RTVSPropertyOp1
 70
     1
102
RTVSPropertyOp2
 70
     1
102
RTVSPropertyOp3
 70
     1
102
RTVSPropertyOp4
 70
     1
102
RTVSPropertyOp5
 70
     1
102
RTVSPropertyOp6
 70
     1
102
RTVSPropertyOp7
 70
     1
102
RTVSPropertyOp8
 70
     1
102
RTVSPropertyOp9
 70
     1
102
RTVSPropertyOp10
 70
     1
102
RTVSPropertyOp11
 70
     1
102
RTVSPropertyOp12
 70
     1
102
RTVSPropertyOp13
 70
     1
102
RTVSPropertyOp14
 70
     1
102
RTVSPropertyOp15
 70
     1
102
RTVSPropertyOp16
 70
     1
102
RTVSPropertyOp17
 70
     1
102
RTVSPropertyOp18
 70
     1
102
RTVSPropertyOp19
 70
     1
102
RTVSPropertyOp20
 70
     1
102
RTVSPropertyOp21
 70
     1
102
RTVSPropertyOp22
 70
     1
102
RTVSPropertyOp23
 70
     1
102
RTVSPropertyOp24
 70
     1
102
RTVSPropertyOp25
 70
     1
102
RTVSPropertyOp26
 70
     1
102
RTVSPropertyOp27
 70
     1
102
RTVSPropertyOp28
 70
     1
102
RTVSPropertyOp29
 70
     1
102
RTVSPropertyOp30
 70
     1
102
RTVSPropertyOp31
 70
     1
102
RTVSPropertyOp32
 70
     1
  0
XRECORD
  5
267
102
{ACAD_REACTORS
330
266
102
}
330
266
100
AcDbXrecord
280
     1
102
RTVSPropertyOp0
 70
     1
102
RTVSPropertyOp1
 70
     1
102
RTVSPropertyOp2
 70
     1
102
RTVSPropertyOp3
 70
     1
102
RTVSPropertyOp4
 70
     1
102
RTVSPropertyOp5
 70
     1
102
RTVSPropertyOp6
 70
     1
102
RTVSPropertyOp7
 70
     1
102
RTVSPropertyOp8
 70
     1
102
RTVSPropertyOp9
 70
     1
102
RTVSPropertyOp10
 70
     1
102
RTVSPropertyOp11
 70
     1
102
RTVSPropertyOp12
 70
     1
102
RTVSPropertyOp13
 70
     1
102
RTVSPropertyOp14
 70
     1
102
RTVSPropertyOp15
 70
     1
102
RTVSPropertyOp16
 70
     1
102
RTVSPropertyOp17
 70
     1
102
RTVSPropertyOp18
 70
     1
102
RTVSPropertyOp19
 70
     1
102
RTVSPropertyOp20
 70
     1
102
RTVSPropertyOp21
 70
     1
102
RTVSPropertyOp22
 70
     1
102
RTVSPropertyOp23
 70
     1
102
RTVSPropertyOp24
 70
     1
102
RTVSPropertyOp25
 70
     1
102
RTVSPropertyOp26
 70
     1
102
RTVSPropertyOp27
 70
     1
102
RTVSPropertyOp28
 70
     1
102
RTVSPropertyOp29
 70
     1
102
RTVSPropertyOp30
 70
     1
102
RTVSPropertyOp31
 70
     1
102
RTVSPropertyOp32
 70
     1
  0
XRECORD
  5
24B
102
{ACAD_REACTORS
330
24A
102
}
330
24A
100
AcDbXrecord
280
     1
102
RTVSPropertyOp0
 70
     1
102
RTVSPropertyOp1
 70
     1
102
RTVSPropertyOp2
 70
     1
102
RTVSPropertyOp3
 70
     1
102
RTVSPropertyOp4
 70
     1
102
RTVSPropertyOp5
 70
     1
102
RTVSPropertyOp6
 70
     1
102
RTVSPropertyOp7
 70
     1
102
RTVSPropertyOp8
 70
     1
102
RTVSPropertyOp9
 70
     1
102
RTVSPropertyOp10
 70
     1
102
RTVSPropertyOp11
 70
     1
102
RTVSPropertyOp12
 70
     1
102
RTVSPropertyOp13
 70
     1
102
RTVSPropertyOp14
 70
     1
102
RTVSPropertyOp15
 70
     1
102
RTVSPropertyOp16
 70
     1
102
RTVSPropertyOp17
 70
     1
102
RTVSPropertyOp18
 70
     1
102
RTVSPropertyOp19
 70
     1
102
RTVSPropertyOp20
 70
     1
102
RTVSPropertyOp21
 70
     1
102
RTVSPropertyOp22
 70
     1
102
RTVSPropertyOp23
 70
     1
102
RTVSPropertyOp24
 70
     1
102
RTVSPropertyOp25
 70
     1
102
RTVSPropertyOp26
 70
     1
102
RTVSPropertyOp27
 70
     1
102
RTVSPropertyOp28
 70
     1
102
RTVSPropertyOp29
 70
     1
102
RTVSPropertyOp30
 70
     1
102
RTVSPropertyOp31
 70
     1
102
RTVSPropertyOp32
 70
     1
  0
XRECORD
  5
24D
102
{ACAD_REACTORS
330
24C
102
}
330
24C
100
AcDbXrecord
280
     1
102
RTVSPropertyOp0
 70
     1
102
RTVSPropertyOp1
 70
     1
102
RTVSPropertyOp2
 70
     1
102
RTVSPropertyOp3
 70
     1
102
RTVSPropertyOp4
 70
     1
102
RTVSPropertyOp5
 70
     1
102
RTVSPropertyOp6
 70
     1
102
RTVSPropertyOp7
 70
     1
102
RTVSPropertyOp8
 70
     1
102
RTVSPropertyOp9
 70
     1
102
RTVSPropertyOp10
 70
     1
102
RTVSPropertyOp11
 70
     1
102
RTVSPropertyOp12
 70
     1
102
RTVSPropertyOp13
 70
     1
102
RTVSPropertyOp14
 70
     1
102
RTVSPropertyOp15
 70
     1
102
RTVSPropertyOp16
 70
     1
102
RTVSPropertyOp17
 70
     1
102
RTVSPropertyOp18
 70
     1
102
RTVSPropertyOp19
 70
     1
102
RTVSPropertyOp20
 70
     1
102
RTVSPropertyOp21
 70
     1
102
RTVSPropertyOp22
 70
     1
102
RTVSPropertyOp23
 70
     1
102
RTVSPropertyOp24
 70
     1
102
RTVSPropertyOp25
 70
     1
102
RTVSPropertyOp26
 70
     1
102
RTVSPropertyOp27
 70
     1
102
RTVSPropertyOp28
 70
     1
102
RTVSPropertyOp29
 70
     1
102
RTVSPropertyOp30
 70
     1
102
RTVSPropertyOp31
 70
     1
102
RTVSPropertyOp32
 70
     1
  0
XRECORD
  5
24F
102
{ACAD_REACTORS
330
24E
102
}
330
24E
100
AcDbXrecord
280
     1
102
RTVSPropertyOp0
 70
     1
102
RTVSPropertyOp1
 70
     1
102
RTVSPropertyOp2
 70
     1
102
RTVSPropertyOp3
 70
     1
102
RTVSPropertyOp4
 70
     1
102
RTVSPropertyOp5
 70
     1
102
RTVSPropertyOp6
 70
     1
102
RTVSPropertyOp7
 70
     1
102
RTVSPropertyOp8
 70
     1
102
RTVSPropertyOp9
 70
     1
102
RTVSPropertyOp10
 70
     1
102
RTVSPropertyOp11
 70
     1
102
RTVSPropertyOp12
 70
     1
102
RTVSPropertyOp13
 70
     1
102
RTVSPropertyOp14
 70
     1
102
RTVSPropertyOp15
 70
     1
102
RTVSPropertyOp16
 70
     1
102
RTVSPropertyOp17
 70
     1
102
RTVSPropertyOp18
 70
     1
102
RTVSPropertyOp19
 70
     1
102
RTVSPropertyOp20
 70
     1
102
RTVSPropertyOp21
 70
     1
102
RTVSPropertyOp22
 70
     1
102
RTVSPropertyOp23
 70
     1
102
RTVSPropertyOp24
 70
     1
102
RTVSPropertyOp25
 70
     1
102
RTVSPropertyOp26
 70
     1
102
RTVSPropertyOp27
 70
     1
102
RTVSPropertyOp28
 70
     1
102
RTVSPropertyOp29
 70
     1
102
RTVSPropertyOp30
 70
     1
102
RTVSPropertyOp31
 70
     1
102
RTVSPropertyOp32
 70
     1
  0
XRECORD
  5
251
102
{ACAD_REACTORS
330
250
102
}
330
250
100
AcDbXrecord
280
     1
102
RTVSPropertyOp0
 70
     1
102
RTVSPropertyOp1
 70
     1
102
RTVSPropertyOp2
 70
     1
102
RTVSPropertyOp3
 70
     1
102
RTVSPropertyOp4
 70
     1
102
RTVSPropertyOp5
 70
     1
102
RTVSPropertyOp6
 70
     1
102
RTVSPropertyOp7
 70
     1
102
RTVSPropertyOp8
 70
     1
102
RTVSPropertyOp9
 70
     1
102
RTVSPropertyOp10
 70
     1
102
RTVSPropertyOp11
 70
     1
102
RTVSPropertyOp12
 70
     1
102
RTVSPropertyOp13
 70
     1
102
RTVSPropertyOp14
 70
     1
102
RTVSPropertyOp15
 70
     1
102
RTVSPropertyOp16
 70
     1
102
RTVSPropertyOp17
 70
     1
102
RTVSPropertyOp18
 70
     1
102
RTVSPropertyOp19
 70
     1
102
RTVSPropertyOp20
 70
     1
102
RTVSPropertyOp21
 70
     1
102
RTVSPropertyOp22
 70
     1
102
RTVSPropertyOp23
 70
     1
102
RTVSPropertyOp24
 70
     1
102
RTVSPropertyOp25
 70
     1
102
RTVSPropertyOp26
 70
     1
102
RTVSPropertyOp27
 70
     1
102
RTVSPropertyOp28
 70
     1
102
RTVSPropertyOp29
 70
     1
102
RTVSPropertyOp30
 70
     1
102
RTVSPropertyOp31
 70
     1
102
RTVSPropertyOp32
 70
     1
  0
XRECORD
  5
265
102
{ACAD_REACTORS
330
264
102
}
330
264
100
AcDbXrecord
280
     1
102
RTVSPropertyOp0
 70
     1
102
RTVSPropertyOp1
 70
     1
102
RTVSPropertyOp2
 70
     1
102
RTVSPropertyOp3
 70
     1
102
RTVSPropertyOp4
 70
     1
102
RTVSPropertyOp5
 70
     1
102
RTVSPropertyOp6
 70
     1
102
RTVSPropertyOp7
 70
     1
102
RTVSPropertyOp8
 70
     1
102
RTVSPropertyOp9
 70
     1
102
RTVSPropertyOp10
 70
     1
102
RTVSPropertyOp11
 70
     1
102
RTVSPropertyOp12
 70
     1
102
RTVSPropertyOp13
 70
     1
102
RTVSPropertyOp14
 70
     1
102
RTVSPropertyOp15
 70
     1
102
RTVSPropertyOp16
 70
     1
102
RTVSPropertyOp17
 70
     1
102
RTVSPropertyOp18
 70
     1
102
RTVSPropertyOp19
 70
     1
102
RTVSPropertyOp20
 70
     1
102
RTVSPropertyOp21
 70
     1
102
RTVSPropertyOp22
 70
     1
102
RTVSPropertyOp23
 70
     1
102
RTVSPropertyOp24
 70
     1
102
RTVSPropertyOp25
 70
     1
102
RTVSPropertyOp26
 70
     1
102
RTVSPropertyOp27
 70
     1
102
RTVSPropertyOp28
 70
     1
102
RTVSPropertyOp29
 70
     1
102
RTVSPropertyOp30
 70
     1
102
RTVSPropertyOp31
 70
     1
102
RTVSPropertyOp32
 70
     1
  0
XRECORD
  5
25B
102
{ACAD_REACTORS
330
25A
102
}
330
25A
100
AcDbXrecord
280
     1
102
RTVSPropertyOp0
 70
     1
102
RTVSPropertyOp1
 70
     1
102
RTVSPropertyOp2
 70
     1
102
RTVSPropertyOp3
 70
     1
102
RTVSPropertyOp4
 70
     1
102
RTVSPropertyOp5
 70
     1
102
RTVSPropertyOp6
 70
     1
102
RTVSPropertyOp7
 70
     1
102
RTVSPropertyOp8
 70
     1
102
RTVSPropertyOp9
 70
     1
102
RTVSPropertyOp10
 70
     1
102
RTVSPropertyOp11
 70
     1
102
RTVSPropertyOp12
 70
     1
102
RTVSPropertyOp13
 70
     1
102
RTVSPropertyOp14
 70
     1
102
RTVSPropertyOp15
 70
     1
102
RTVSPropertyOp16
 70
     1
102
RTVSPropertyOp17
 70
     1
102
RTVSPropertyOp18
 70
     1
102
RTVSPropertyOp19
 70
     1
102
RTVSPropertyOp20
 70
     1
102
RTVSPropertyOp21
 70
     1
102
RTVSPropertyOp22
 70
     1
102
RTVSPropertyOp23
 70
     1
102
RTVSPropertyOp24
 70
     1
102
RTVSPropertyOp25
 70
     1
102
RTVSPropertyOp26
 70
     1
102
RTVSPropertyOp27
 70
     1
102
RTVSPropertyOp28
 70
     1
102
RTVSPropertyOp29
 70
     1
102
RTVSPropertyOp30
 70
     1
102
RTVSPropertyOp31
 70
     1
102
RTVSPropertyOp32
 70
     1
  0
XRECORD
  5
263
102
{ACAD_REACTORS
330
262
102
}
330
262
100
AcDbXrecord
280
     1
102
RTVSPropertyOp0
 70
     1
102
RTVSPropertyOp1
 70
     1
102
RTVSPropertyOp2
 70
     1
102
RTVSPropertyOp3
 70
     1
102
RTVSPropertyOp4
 70
     1
102
RTVSPropertyOp5
 70
     1
102
RTVSPropertyOp6
 70
     1
102
RTVSPropertyOp7
 70
     1
102
RTVSPropertyOp8
 70
     1
102
RTVSPropertyOp9
 70
     1
102
RTVSPropertyOp10
 70
     1
102
RTVSPropertyOp11
 70
     1
102
RTVSPropertyOp12
 70
     1
102
RTVSPropertyOp13
 70
     1
102
RTVSPropertyOp14
 70
     1
102
RTVSPropertyOp15
 70
     1
102
RTVSPropertyOp16
 70
     1
102
RTVSPropertyOp17
 70
     1
102
RTVSPropertyOp18
 70
     1
102
RTVSPropertyOp19
 70
     1
102
RTVSPropertyOp20
 70
     1
102
RTVSPropertyOp21
 70
     1
102
RTVSPropertyOp22
 70
     1
102
RTVSPropertyOp23
 70
     1
102
RTVSPropertyOp24
 70
     1
102
RTVSPropertyOp25
 70
     1
102
RTVSPropertyOp26
 70
     1
102
RTVSPropertyOp27
 70
     1
102
RTVSPropertyOp28
 70
     1
102
RTVSPropertyOp29
 70
     1
102
RTVSPropertyOp30
 70
     1
102
RTVSPropertyOp31
 70
     1
102
RTVSPropertyOp32
 70
     1
  0
ENDSEC
  0
EOF
