  0
SECTION
  2
HEADER
  9
$ACADVER
  1
AC1015
  9
$ACADMAINTVER
 70
     6
  9
$DWGCODEPAGE
  3
ANSI_932
  9
$INSBASE
 10
0.0
 20
0.0
 30
0.0
  9
$EXTMIN
 10
0.0
 20
0.0
 30
0.0
  9
$EXTMAX
 10
210.0000000000001
 20
297.0
 30
0.0
  9
$LIMMIN
 10
0.0
 20
0.0
  9
$LIMMAX
 10
12.0
 20
9.0
  9
$ORTHOMODE
 70
     0
  9
$REGENMODE
 70
     1
  9
$FILLMODE
 70
     1
  9
$QTEXTMODE
 70
     0
  9
$MIRRTEXT
 70
     1
  9
$LTSCALE
 40
1.0
  9
$ATTMODE
 70
     1
  9
$TEXTSIZE
 40
0.2
  9
$TRACEWID
 40
0.05
  9
$TEXTSTYLE
  7
Standard
  9
$CLAYER
  8
0
  9
$CELTYPE
  6
ByLayer
  9
$CECOLOR
 62
   256
  9
$CELTSCALE
 40
1.0
  9
$DISPSILH
 70
     0
  9
$DIMSCALE
 40
1.0
  9
$DIMASZ
 40
0.18
  9
$DIMEXO
 40
0.0625
  9
$DIMDLI
 40
0.38
  9
$DIMRND
 40
0.0
  9
$DIMDLE
 40
0.0
  9
$DIMEXE
 40
0.18
  9
$DIMTP
 40
0.0
  9
$DIMTM
 40
0.0
  9
$DIMTXT
 40
0.18
  9
$DIMCEN
 40
0.09
  9
$DIMTSZ
 40
0.0
  9
$DIMTOL
 70
     0
  9
$DIMLIM
 70
     0
  9
$DIMTIH
 70
     1
  9
$DIMTOH
 70
     1
  9
$DIMSE1
 70
     0
  9
$DIMSE2
 70
     0
  9
$DIMTAD
 70
     0
  9
$DIMZIN
 70
     0
  9
$DIMBLK
  1

  9
$DIMASO
 70
     1
  9
$DIMSHO
 70
     1
  9
$DIMPOST
  1

  9
$DIMAPOST
  1

  9
$DIMALT
 70
     0
  9
$DIMALTD
 70
     2
  9
$DIMALTF
 40
25.4
  9
$DIMLFAC
 40
1.0
  9
$DIMTOFL
 70
     0
  9
$DIMTVP
 40
0.0
  9
$DIMTIX
 70
     0
  9
$DIMSOXD
 70
     0
  9
$DIMSAH
 70
     0
  9
$DIMBLK1
  1

  9
$DIMBLK2
  1

  9
$DIMSTYLE
  2
Standard
  9
$DIMCLRD
 70
     0
  9
$DIMCLRE
 70
     0
  9
$DIMCLRT
 70
     0
  9
$DIMTFAC
 40
1.0
  9
$DIMGAP
 40
0.09
  9
$DIMJUST
 70
     0
  9
$DIMSD1
 70
     0
  9
$DIMSD2
 70
     0
  9
$DIMTOLJ
 70
     1
  9
$DIMTZIN
 70
     0
  9
$DIMALTZ
 70
     0
  9
$DIMALTTZ
 70
     0
  9
$DIMUPT
 70
     0
  9
$DIMDEC
 70
     4
  9
$DIMTDEC
 70
     4
  9
$DIMALTU
 70
     2
  9
$DIMALTTD
 70
     2
  9
$DIMTXSTY
  7
Standard
  9
$DIMAUNIT
 70
     0
  9
$DIMADEC
 70
     0
  9
$DIMALTRND
 40
0.0
  9
$DIMAZIN
 70
     0
  9
$DIMDSEP
 70
    46
  9
$DIMATFIT
 70
     3
  9
$DIMFRAC
 70
     0
  9
$DIMLDRBLK
  1

  9
$DIMLUNIT
 70
     2
  9
$DIMLWD
 70
    -2
  9
$DIMLWE
 70
    -2
  9
$DIMTMOVE
 70
     0
  9
$LUNITS
 70
     2
  9
$LUPREC
 70
     4
  9
$SKETCHINC
 40
0.1
  9
$FILLETRAD
 40
0.5
  9
$AUNITS
 70
     0
  9
$AUPREC
 70
     0
  9
$MENU
  1
.
  9
$ELEVATION
 40
0.0
  9
$PELEVATION
 40
0.0
  9
$THICKNESS
 40
0.0
  9
$LIMCHECK
 70
     0
  9
$CHAMFERA
 40
0.5
  9
$CHAMFERB
 40
0.5
  9
$CHAMFERC
 40
1.0
  9
$CHAMFERD
 40
0.0
  9
$SKPOLY
 70
     0
  9
$TDCREATE
 40
2456673.47022537
  9
$TDUCREATE
 40
2456673.09522537
  9
$TDUPDATE
 40
2456673.470226273
  9
$TDUUPDATE
 40
2456673.095226273
  9
$TDINDWG
 40
0.0000000116
  9
$TDUSRTIMER
 40
0.0000000116
  9
$USRTIMER
 70
     1
  9
$ANGBASE
 50
0.0
  9
$ANGDIR
 70
     0
  9
$PDMODE
 70
     0
  9
$PDSIZE
 40
0.0
  9
$PLINEWID
 40
0.0
  9
$SPLFRAME
 70
     0
  9
$SPLINETYPE
 70
     6
  9
$SPLINESEGS
 70
     8
  9
$HANDSEED
  5
1E0
  9
$SURFTAB1
 70
     6
  9
$SURFTAB2
 70
     6
  9
$SURFTYPE
 70
     6
  9
$SURFU
 70
     6
  9
$SURFV
 70
     6
  9
$UCSBASE
  2

  9
$UCSNAME
  2

  9
$UCSORG
 10
0.0
 20
0.0
 30
0.0
  9
$UCSXDIR
 10
1.0
 20
0.0
 30
0.0
  9
$UCSYDIR
 10
0.0
 20
1.0
 30
0.0
  9
$UCSORTHOREF
  2

  9
$UCSORTHOVIEW
 70
     0
  9
$UCSORGTOP
 10
0.0
 20
0.0
 30
0.0
  9
$UCSORGBOTTOM
 10
0.0
 20
0.0
 30
0.0
  9
$UCSORGLEFT
 10
0.0
 20
0.0
 30
0.0
  9
$UCSORGRIGHT
 10
0.0
 20
0.0
 30
0.0
  9
$UCSORGFRONT
 10
0.0
 20
0.0
 30
0.0
  9
$UCSORGBACK
 10
0.0
 20
0.0
 30
0.0
  9
$PUCSBASE
  2

  9
$PUCSNAME
  2

  9
$PUCSORG
 10
0.0
 20
0.0
 30
0.0
  9
$PUCSXDIR
 10
1.0
 20
0.0
 30
0.0
  9
$PUCSYDIR
 10
0.0
 20
1.0
 30
0.0
  9
$PUCSORTHOREF
  2

  9
$PUCSORTHOVIEW
 70
     0
  9
$PUCSORGTOP
 10
0.0
 20
0.0
 30
0.0
  9
$PUCSORGBOTTOM
 10
0.0
 20
0.0
 30
0.0
  9
$PUCSORGLEFT
 10
0.0
 20
0.0
 30
0.0
  9
$PUCSORGRIGHT
 10
0.0
 20
0.0
 30
0.0
  9
$PUCSORGFRONT
 10
0.0
 20
0.0
 30
0.0
  9
$PUCSORGBACK
 10
0.0
 20
0.0
 30
0.0
  9
$USERI1
 70
     0
  9
$USERI2
 70
     0
  9
$USERI3
 70
     0
  9
$USERI4
 70
     0
  9
$USERI5
 70
     0
  9
$USERR1
 40
18.1
  9
$USERR2
 40
0.0
  9
$USERR3
 40
0.0
  9
$USERR4
 40
0.0
  9
$USERR5
 40
0.0
  9
$WORLDVIEW
 70
     1
  9
$SHADEDGE
 70
     3
  9
$SHADEDIF
 70
    70
  9
$TILEMODE
 70
     1
  9
$MAXACTVP
 70
    64
  9
$PINSBASE
 10
0.0
 20
0.0
 30
0.0
  9
$PLIMCHECK
 70
     0
  9
$PEXTMIN
 10
1.00000000000000E+20
 20
1.00000000000000E+20
 30
1.00000000000000E+20
  9
$PEXTMAX
 10
-1.00000000000000E+20
 20
-1.00000000000000E+20
 30
-1.00000000000000E+20
  9
$PLIMMIN
 10
0.0
 20
0.0
  9
$PLIMMAX
 10
12.0
 20
9.0
  9
$UNITMODE
 70
     0
  9
$VISRETAIN
 70
     1
  9
$PLINEGEN
 70
     0
  9
$PSLTSCALE
 70
     1
  9
$TREEDEPTH
 70
  3020
  9
$CMLSTYLE
  2
Standard
  9
$CMLJUST
 70
     0
  9
$CMLSCALE
 40
1.0
  9
$PROXYGRAPHICS
 70
     1
  9
$MEASUREMENT
 70
     1
  9
$CELWEIGHT
370
    -1
  9
$ENDCAPS
280
     0
  9
$JOINSTYLE
280
     0
  9
$LWDISPLAY
290
     0
  9
$INSUNITS
 70
     4
  9
$HYPERLINKBASE
  1

  9
$STYLESHEET
  1

  9
$XEDIT
290
     1
  9
$CEPSNTYPE
380
     0
  9
$PSTYLEMODE
290
     1
  9
$FINGERPRINTGUID
  2
{3B9F32BB-2CAF-4649-BB55-F6EB87C6F991}
  9
$VERSIONGUID
  2
{FAEB1C32-E019-11D5-929B-00C0DF256EC4}
  9
$EXTNAMES
290
     1
  9
$PSVPSCALE
 40
0.0
  9
$OLESTARTUP
290
     0
  0
ENDSEC
  0
SECTION
  2
CLASSES
  0
CLASS
  1
ACDBDICTIONARYWDFLT
  2
AcDbDictionaryWithDefault
  3
ObjectDBX Classes
 90
        0
280
     0
281
     0
  0
CLASS
  1
VISUALSTYLE
  2
AcDbVisualStyle
  3
ObjectDBX Classes
 90
     4095
280
     0
281
     0
  0
CLASS
  1
MATERIAL
  2
AcDbMaterial
  3
ObjectDBX Classes
 90
     1153
280
     0
281
     0
  0
CLASS
  1
DICTIONARYVAR
  2
AcDbDictionaryVar
  3
ObjectDBX Classes
 90
        0
280
     0
281
     0
  0
CLASS
  1
ACDBPLACEHOLDER
  2
AcDbPlaceHolder
  3
ObjectDBX Classes
 90
        0
280
     0
281
     0
  0
CLASS
  1
LAYOUT
  2
AcDbLayout
  3
ObjectDBX Classes
 90
        0
280
     0
281
     0
  0
ENDSEC
  0
SECTION
  2
TABLES
  0
TABLE
  2
VPORT
  5
8
330
0
100
AcDbSymbolTable
 70
     1
  0
VPORT
  5
29
330
8
100
AcDbSymbolTableRecord
100
AcDbViewportTableRecord
  2
*Active
 70
     0
 10
0.0
 20
0.0
 11
1.0
 21
1.0
 12
105.0000000000001
 22
148.5
 13
0.0
 23
0.0
 14
0.5
 24
0.5
 15
0.5
 25
0.5
 16
0.0
 26
0.0
 36
1.0
 17
0.0
 27
0.0
 37
0.0
 40
326.7
 41
1.60267857142857
 42
50.0
 43
0.0
 44
0.0
 50
0.0
 51
0.0
 71
     0
 72
   100
 73
     1
 74
     3
 75
     0
 76
     0
 77
     0
 78
     0
281
     0
 65
     1
110
0.0
120
0.0
130
0.0
111
1.0
121
0.0
131
0.0
112
0.0
122
1.0
132
0.0
 79
     0
146
0.0
  0
ENDTAB
  0
TABLE
  2
LTYPE
  5
5
330
0
100
AcDbSymbolTable
 70
     8
  0
LTYPE
  5
14
330
5
100
AcDbSymbolTableRecord
100
AcDbLinetypeTableRecord
  2
ByBlock
 70
     0
  3

 72
    65
 73
     0
 40
0.0
  0
LTYPE
  5
15
330
5
100
AcDbSymbolTableRecord
100
AcDbLinetypeTableRecord
  2
ByLayer
 70
     0
  3

 72
    65
 73
     0
 40
0.0
  0
LTYPE
  5
16
330
5
100
AcDbSymbolTableRecord
100
AcDbLinetypeTableRecord
  2
Continuous
 70
     0
  3
Solid line
 72
    65
 73
     0
 40
0.0
  0
LTYPE
  5
3F
330
5
100
AcDbSymbolTableRecord
100
AcDbLinetypeTableRecord
  2
DASHED
 70
     0
  3
Dashed
 72
    65
 73
     2
 40
15.0
 49
7.0
 74
     0
 49
-8.0
 74
     0
  0
LTYPE
  5
40
330
5
100
AcDbSymbolTableRecord
100
AcDbLinetypeTableRecord
  2
DOTTED
 70
     0
  3
Dotted
 72
    65
 73
     2
 40
1.0
 49
0.0
 74
     0
 49
-1.0
 74
     0
  0
LTYPE
  5
41
330
5
100
AcDbSymbolTableRecord
100
AcDbLinetypeTableRecord
  2
DOT_CENTER
 70
     0
  3
Dot_Center
 72
    65
 73
     4
 40
14.0
 49
12.0
 74
     0
 49
-1.0
 74
     0
 49
0.0
 74
     0
 49
-1.0
 74
     0
  0
LTYPE
  5
42
330
5
100
AcDbSymbolTableRecord
100
AcDbLinetypeTableRecord
  2
LONG_DASHED
 70
     0
  3
Long_Dashed
 72
    65
 73
     2
 40
15.0
 49
10.0
 74
     0
 49
-5.0
 74
     0
  0
LTYPE
  5
43
330
5
100
AcDbSymbolTableRecord
100
AcDbLinetypeTableRecord
  2
DASH_CENTER
 70
     0
  3
Dash_Center
 72
    65
 73
     4
 40
14.0
 49
11.0
 74
     0
 49
-1.0
 74
     0
 49
1.0
 74
     0
 49
-1.0
 74
     0
  0
LTYPE
  5
44
330
5
100
AcDbSymbolTableRecord
100
AcDbLinetypeTableRecord
  2
PHANTOM
 70
     0
  3
Phantom
 72
    65
 73
     6
 40
13.0
 49
10.0
 74
     0
 49
-1.0
 74
     0
 49
0.0
 74
     0
 49
-1.0
 74
     0
 49
0.0
 74
     0
 49
-1.0
 74
     0
  0
LTYPE
  5
45
330
5
100
AcDbSymbolTableRecord
100
AcDbLinetypeTableRecord
  2
CENTER_DASH_DASH
 70
     0
  3
Center_Dash_Dash
 72
    65
 73
     6
 40
14.0
 49
9.0
 74
     0
 49
-1.0
 74
     0
 49
1.0
 74
     0
 49
-1.0
 74
     0
 49
1.0
 74
     0
 49
-1.0
 74
     0
  0
ENDTAB
  0
TABLE
  2
LAYER
  5
2
330
0
100
AcDbSymbolTable
 70
     2
  0
LAYER
  5
10
330
2
100
AcDbSymbolTableRecord
100
AcDbLayerTableRecord
  2
0
 70
     0
 62
     7
  6
Continuous
370
    -3
390
F
  0
LAYER
  5
46
330
2
100
AcDbSymbolTableRecord
100
AcDbLayerTableRecord
  2
1
 70
     0
 62
     7
  6
Continuous
370
    -3
390
F
  0
ENDTAB
  0
TABLE
  2
STYLE
  5
3
330
0
100
AcDbSymbolTable
 70
     3
  0
STYLE
  5
11
330
3
100
AcDbSymbolTableRecord
100
AcDbTextStyleTableRecord
  2
Standard
 70
     0
 40
0.0
 41
1.0
 50
0.0
 71
     0
 42
0.2
  3
txt
  4

  0
STYLE
  5
168
330
3
100
AcDbSymbolTableRecord
100
AcDbTextStyleTableRecord
  2
CONVERTER_11
 70
     0
 40
0.0
 41
0.89
 50
0.0
 71
     0
 42
0.2
  3
MS Mincho.ttf
  4

1001
ACAD
1000
MS Mincho
1071
    32785
  0
STYLE
  5
182
330
3
100
AcDbSymbolTableRecord
100
AcDbTextStyleTableRecord
  2
CONVERTER_12
 70
     0
 40
0.0
 41
0.9
 50
0.0
 71
     0
 42
0.2
  3
txt.shx
  4

  0
ENDTAB
  0
TABLE
  2
VIEW
  5
6
330
0
100
AcDbSymbolTable
 70
     0
  0
ENDTAB
  0
TABLE
  2
UCS
  5
7
330
0
100
AcDbSymbolTable
 70
     0
  0
ENDTAB
  0
TABLE
  2
APPID
  5
9
330
0
100
AcDbSymbolTable
 70
     1
  0
APPID
  5
12
330
9
100
AcDbSymbolTableRecord
100
AcDbRegAppTableRecord
  2
ACAD
 70
     0
  0
ENDTAB
  0
TABLE
  2
DIMSTYLE
  5
A
330
0
100
AcDbSymbolTable
 70
     5
100
AcDbDimStyleTable
  0
DIMSTYLE
105
27
330
A
100
AcDbSymbolTableRecord
100
AcDbDimStyleTableRecord
  2
Standard
 70
     0
178
     0
340
11
  0
DIMSTYLE
105
192
102
{ACAD_REACTORS
330
193
102
}
330
A
100
AcDbSymbolTableRecord
100
AcDbDimStyleTableRecord
  2
ME10_DIM_10
 70
     0
 41
3.5
 42
0.0
 44
1.0
 73
     0
 74
     0
 77
     1
 78
     8
140
3.5
147
1.0
172
     1
173
     1
174
     1
175
     1
176
     2
177
     2
271
     2
178
     7
271
     2
340
182
  0
DIMSTYLE
105
19D
102
{ACAD_REACTORS
330
19E
102
}
330
A
100
AcDbSymbolTableRecord
100
AcDbDimStyleTableRecord
  2
ME10_DIM_11
 70
     0
 41
3.5
 42
0.0
 44
1.0
 73
     0
 74
     0
 77
     1
 78
     8
140
3.5
147
1.0
172
     1
173
     1
174
     1
175
     1
176
     2
177
     2
271
     2
178
     7
271
     2
340
168
  0
DIMSTYLE
105
1A8
102
{ACAD_REACTORS
330
1A9
102
}
330
A
100
AcDbSymbolTableRecord
100
AcDbDimStyleTableRecord
  2
ME10_DIM_12
 70
     0
 41
3.5
 42
0.0
 44
1.0
 73
     0
 74
     0
 77
     1
 78
     8
140
3.5
147
1.0
172
     1
173
     1
174
     1
175
     1
176
     2
177
     2
271
     2
178
     7
271
     2
340
182
  0
DIMSTYLE
105
1B3
102
{ACAD_REACTORS
330
1B4
102
}
330
A
100
AcDbSymbolTableRecord
100
AcDbDimStyleTableRecord
  2
ME10_DIM_13
 70
     0
 41
3.5
 42
0.0
 44
1.0
 73
     0
 74
     0
 77
     1
 78
     8
140
3.5
147
1.0
172
     1
173
     1
174
     1
175
     1
176
     2
177
     2
271
     2
178
     7
271
     2
340
182
  0
ENDTAB
  0
TABLE
  2
BLOCK_RECORD
  5
1
330
0
100
AcDbSymbolTable
 70
    11
  0
BLOCK_RECORD
  5
1F
330
1
100
AcDbSymbolTableRecord
100
AcDbBlockTableRecord
  2
*Model_Space
340
22
  0
BLOCK_RECORD
  5
1B
330
1
100
AcDbSymbolTableRecord
100
AcDbBlockTableRecord
  2
*Paper_Space
340
1E
  0
BLOCK_RECORD
  5
23
330
1
100
AcDbSymbolTableRecord
100
AcDbBlockTableRecord
  2
*Paper_Space0
340
26
  0
BLOCK_RECORD
  5
47
330
1
100
AcDbSymbolTableRecord
100
AcDbBlockTableRecord
  2
V22-0A-13-_表面処理_
340
0
102
{BLKREFS
331
5B
102
}
  0
BLOCK_RECORD
  5
4A
330
1
100
AcDbSymbolTableRecord
100
AcDbBlockTableRecord
  2
V22-0A-13
340
0
102
{BLKREFS
331
5C
102
}
  0
BLOCK_RECORD
  5
4D
330
1
100
AcDbSymbolTableRecord
100
AcDbBlockTableRecord
  2
36-54A
340
0
102
{BLKREFS
331
54
102
}
  0
BLOCK_RECORD
  5
50
330
1
100
AcDbSymbolTableRecord
100
AcDbBlockTableRecord
  2
37-1-13
340
0
102
{BLKREFS
331
55
102
}
  0
BLOCK_RECORD
  5
53
330
1
100
AcDbSymbolTableRecord
100
AcDbBlockTableRecord
  2
V22AD-X
340
0
102
{BLKREFS
331
5D
102
}
  0
BLOCK_RECORD
  5
58
330
1
100
AcDbSymbolTableRecord
100
AcDbBlockTableRecord
  2
開示A4
340
0
102
{BLKREFS
331
5E
102
}
  0
BLOCK_RECORD
  5
189
330
1
100
AcDbSymbolTableRecord
100
AcDbBlockTableRecord
  2
*D7
340
0
  0
BLOCK_RECORD
  5
194
330
1
100
AcDbSymbolTableRecord
100
AcDbBlockTableRecord
  2
*D8
340
0
  0
BLOCK_RECORD
  5
19F
330
1
100
AcDbSymbolTableRecord
100
AcDbBlockTableRecord
  2
*D9
340
0
  0
BLOCK_RECORD
  5
1AA
330
1
100
AcDbSymbolTableRecord
100
AcDbBlockTableRecord
  2
*D10
340
0
  0
ENDTAB
  0
ENDSEC
  0
SECTION
  2
BLOCKS
  0
BLOCK
  5
20
330
1F
100
AcDbEntity
  8
0
100
AcDbBlockBegin
  2
*Model_Space
 70
     0
 10
0.0
 20
0.0
 30
0.0
  3
*Model_Space
  1

  0
ENDBLK
  5
21
330
1F
100
AcDbEntity
  8
0
100
AcDbBlockEnd
  0
BLOCK
  5
1C
330
1B
100
AcDbEntity
 67
     1
  8
0
100
AcDbBlockBegin
  2
*Paper_Space
 70
     0
 10
0.0
 20
0.0
 30
0.0
  3
*Paper_Space
  1

  0
ENDBLK
  5
1D
330
1B
100
AcDbEntity
 67
     1
  8
0
100
AcDbBlockEnd
  0
BLOCK
  5
24
330
23
100
AcDbEntity
  8
0
100
AcDbBlockBegin
  2
*Paper_Space0
 70
     0
 10
0.0
 20
0.0
 30
0.0
  3
*Paper_Space0
  1

  0
ENDBLK
  5
25
330
23
100
AcDbEntity
  8
0
100
AcDbBlockEnd
  0
BLOCK
  5
48
330
47
100
AcDbEntity
  8
0
100
AcDbBlockBegin
  2
V22-0A-13-_表面処理_
 70
     0
 10
9.00000000000004
 20
1342.5
 30
0.0
  3
V22-0A-13-_表面処理_
  1

  0
LINE
  5
5F
330
47
100
AcDbEntity
  8
1
  6
Continuous
 62
     7
100
AcDbLine
 10
47.36104504510146
 20
146.2562753658124
 30
0.0
 11
68.36104504510146
 21
146.2562753658124
 31
0.0
  0
LINE
  5
60
330
47
100
AcDbEntity
  8
1
  6
Continuous
 62
     7
100
AcDbLine
 10
47.36104504510146
 20
146.2562753658124
 30
0.0
 11
47.36104504510146
 21
138.418275365813
 31
0.0
  0
LINE
  5
61
330
47
100
AcDbEntity
  8
1
  6
Continuous
 62
     7
100
AcDbLine
 10
48.52304504510147
 20
147.4182753658125
 30
0.0
 11
47.36104504510146
 21
146.2562753658124
 31
0.0
  0
LINE
  5
62
330
47
100
AcDbEntity
  8
1
  6
Continuous
 62
     7
100
AcDbLine
 10
68.36104504510146
 20
146.2562753658124
 30
0.0
 11
67.19904504510146
 21
147.4182753658125
 31
0.0
  0
LINE
  5
63
330
47
100
AcDbEntity
  8
1
  6
Continuous
 62
     7
100
AcDbLine
 10
48.52304504510147
 20
147.4182753658125
 30
0.0
 11
67.19904504510146
 21
147.4182753658125
 31
0.0
  0
LINE
  5
64
330
47
100
AcDbEntity
  8
1
  6
Continuous
 62
     7
100
AcDbLine
 10
70.86104504510143
 20
109.9127218663479
 30
0.0
 11
70.86104504510143
 21
124.9238288652781
 31
0.0
  0
LINE
  5
65
330
47
100
AcDbEntity
  8
1
  6
PHANTOM
 62
     4
100
AcDbLine
 10
57.86104504510146
 20
149.418275365813
 30
0.0
 11
57.86104504510146
 21
100.168275365813
 31
0.0
  0
LINE
  5
66
330
47
100
AcDbEntity
  8
1
  6
Continuous
 62
     7
100
AcDbLine
 10
44.86104504510146
 20
124.9238288652781
 30
0.0
 11
44.86104504510146
 21
109.9127218663479
 31
0.0
  0
LINE
  5
67
330
47
100
AcDbEntity
  8
1
  6
Continuous
 62
     7
100
AcDbLine
 10
44.86104504510146
 20
109.9127218663479
 30
0.0
 11
57.86104504510146
 21
102.4071683668828
 31
0.0
  0
LINE
  5
68
330
47
100
AcDbEntity
  8
1
  6
Continuous
 62
     7
100
AcDbLine
 10
57.86104504510146
 20
102.4071683668828
 30
0.0
 11
70.86104504510143
 21
109.9127218663479
 31
0.0
  0
LINE
  5
69
330
47
100
AcDbEntity
  8
1
  6
Continuous
 62
     2
100
AcDbLine
 10
67.19904504510146
 20
138.418275365813
 30
0.0
 11
68.36104504510146
 21
136.4056323274181
 31
0.0
  0
LINE
  5
6A
330
47
100
AcDbEntity
  8
1
  6
Continuous
 62
     2
100
AcDbLine
 10
47.36104504510146
 20
136.4056323274181
 30
0.0
 11
48.52304504510147
 21
138.418275365813
 31
0.0
  0
LINE
  5
6B
330
47
100
AcDbEntity
  8
1
  6
Continuous
 62
     2
100
AcDbLine
 10
48.52304504510147
 20
138.418275365813
 30
0.0
 11
48.52304504510147
 21
147.4182753658125
 31
0.0
  0
LINE
  5
6C
330
47
100
AcDbEntity
  8
1
  6
Continuous
 62
     7
100
AcDbLine
 10
47.36104504510146
 20
138.418275365813
 30
0.0
 11
47.36104504510146
 21
136.4056323274181
 31
0.0
  0
LINE
  5
6D
330
47
100
AcDbEntity
  8
1
  6
Continuous
 62
     7
100
AcDbLine
 10
67.19904504510146
 20
138.418275365813
 30
0.0
 11
68.36104504510146
 21
138.418275365813
 31
0.0
  0
LINE
  5
6E
330
47
100
AcDbEntity
  8
1
  6
Continuous
 62
     7
100
AcDbLine
 10
68.36104504510146
 20
138.418275365813
 30
0.0
 11
68.36104504510146
 21
136.4056323274181
 31
0.0
  0
LINE
  5
6F
330
47
100
AcDbEntity
  8
1
  6
Continuous
 62
     7
100
AcDbLine
 10
47.36104504510146
 20
138.418275365813
 30
0.0
 11
48.52304504510147
 21
138.418275365813
 31
0.0
  0
LINE
  5
70
330
47
100
AcDbEntity
  8
1
  6
PHANTOM
 62
     4
100
AcDbLine
 10
41.86104504510146
 20
117.418275365813
 30
0.0
 11
72.86104504510143
 21
117.418275365813
 31
0.0
  0
LINE
  5
71
330
47
100
AcDbEntity
  8
1
  6
Continuous
 62
     7
100
AcDbLine
 10
70.86104504510143
 20
124.9238288652781
 30
0.0
 11
69.05725820824364
 21
125.9652456810987
 31
0.0
  0
LINE
  5
72
330
47
100
AcDbEntity
  8
1
  6
Continuous
 62
     7
100
AcDbLine
 10
48.52304504510147
 20
138.418275365813
 30
0.0
 11
67.19904504510146
 21
138.418275365813
 31
0.0
  0
LINE
  5
73
330
47
100
AcDbEntity
  8
1
  6
Continuous
 62
     7
100
AcDbLine
 10
46.66483188195934
 20
125.9652456810987
 30
0.0
 11
44.86104504510146
 21
124.9238288652781
 31
0.0
  0
LINE
  5
74
330
47
100
AcDbEntity
  8
1
  6
Continuous
 62
     7
100
AcDbLine
 10
68.36104504510146
 20
146.2562753658124
 30
0.0
 11
68.36104504510146
 21
138.418275365813
 31
0.0
  0
LINE
  5
75
330
47
100
AcDbEntity
  8
1
  6
Continuous
 62
     2
100
AcDbLine
 10
67.19904504510146
 20
147.4182753658125
 30
0.0
 11
67.19904504510146
 21
138.418275365813
 31
0.0
  0
LINE
  5
76
330
47
100
AcDbEntity
  8
1
  6
Continuous
 62
     7
100
AcDbLine
 10
47.36104504510146
 20
146.2584433758283
 30
0.0
 11
47.36104504510146
 21
146.2562753658124
 31
0.0
  0
ARC
  5
77
330
47
100
AcDbEntity
  8
1
  6
Continuous
 62
     7
100
AcDbCircle
 10
-31.26888605175131
 20
136.4056323274181
 30
0.0
 40
78.6299310968528
100
AcDbArc
 50
352.3698027158717
 51
0.0
  0
ARC
  5
78
330
47
100
AcDbEntity
  8
1
  6
Continuous
 62
     7
100
AcDbCircle
 10
146.9909761419542
 20
136.4056323274181
 30
0.0
 40
78.62993109685274
100
AcDbArc
 50
180.0
 51
187.6301972841284
  0
ENDBLK
  5
49
330
47
100
AcDbEntity
  8
0
100
AcDbBlockEnd
  0
BLOCK
  5
4B
330
4A
100
AcDbEntity
  8
0
100
AcDbBlockBegin
  2
V22-0A-13
 70
     0
 10
142.7385709387331
 20
1468.277740897449
 30
0.0
  3
V22-0A-13
  1

  0
LINE
  5
79
330
4A
100
AcDbEntity
  8
1
  6
Continuous
 62
     7
100
AcDbLine
 10
136.7564749718356
 20
147.4182753658125
 30
0.0
 11
135.5944749718356
 21
146.2562753658124
 31
0.0
  0
LINE
  5
7A
330
4A
100
AcDbEntity
  8
1
  6
Continuous
 62
     7
100
AcDbLine
 10
155.4324749718356
 20
147.4182753658125
 30
0.0
 11
136.7564749718356
 21
147.4182753658125
 31
0.0
  0
LINE
  5
7B
330
4A
100
AcDbEntity
  8
1
  6
Continuous
 62
     7
100
AcDbLine
 10
156.5944749718356
 20
146.2562753658124
 30
0.0
 11
155.4324749718356
 21
147.4182753658125
 31
0.0
  0
LINE
  5
7C
330
4A
100
AcDbEntity
  8
1
  6
Continuous
 62
     7
100
AcDbLine
 10
135.5944749718356
 20
146.2562753658124
 30
0.0
 11
156.5944749718356
 21
146.2562753658124
 31
0.0
  0
LINE
  5
7D
330
4A
100
AcDbEntity
  8
1
  6
Continuous
 62
     7
100
AcDbLine
 10
52.73756966212157
 20
196.690948854996
 30
0.0
 11
62.98452042808118
 21
196.690948854996
 31
0.0
  0
LINE
  5
7E
330
4A
100
AcDbEntity
  8
1
  6
Continuous
 62
     7
100
AcDbLine
 10
44.86104504510138
 20
226.4298418560658
 30
0.0
 11
44.86104504510138
 21
219.2882235159706
 31
0.0
  0
LINE
  5
7F
330
4A
100
AcDbEntity
  8
1
  6
Continuous
 62
     7
100
AcDbLine
 10
70.61104504510138
 20
228.690948854996
 30
0.0
 11
45.11104504510138
 21
228.690948854996
 31
0.0
  0
LINE
  5
80
330
4A
100
AcDbEntity
  8
1
  6
Continuous
 62
     7
100
AcDbLine
 10
70.86104504510126
 20
228.4409488549962
 30
0.0
 11
70.86104504510126
 21
219.2882235159706
 31
0.0
  0
LINE
  5
81
330
4A
100
AcDbEntity
  8
1
  6
Continuous
 62
     7
100
AcDbLine
 10
70.61104504510138
 20
228.690948854996
 30
0.0
 11
70.86104504510126
 21
228.4409488549962
 31
0.0
  0
LINE
  5
82
330
4A
100
AcDbEntity
  8
1
  6
Continuous
 62
     7
100
AcDbLine
 10
44.86104504510138
 20
228.440948854996
 30
0.0
 11
44.86104504510138
 21
226.4298418560658
 31
0.0
  0
LINE
  5
83
330
4A
100
AcDbEntity
  8
1
  6
Continuous
 62
     7
100
AcDbLine
 10
44.86104504510138
 20
228.440948854996
 30
0.0
 11
45.11104504510138
 21
228.690948854996
 31
0.0
  0
LINE
  5
84
330
4A
100
AcDbEntity
  8
1
  6
Continuous
 62
     7
100
AcDbLine
 10
45.86104504510128
 20
185.690948854996
 30
0.0
 11
45.86104504510128
 21
184.2609488549962
 31
0.0
  0
LINE
  5
85
330
4A
100
AcDbEntity
  8
1
  6
Continuous
 62
     7
100
AcDbLine
 10
46.67404504510128
 20
185.690948854996
 30
0.0
 11
45.86104504510128
 21
185.690948854996
 31
0.0
  0
LINE
  5
86
330
4A
100
AcDbEntity
  8
1
  6
Continuous
 62
     7
100
AcDbLine
 10
45.86104504510128
 20
187.0991061615497
 30
0.0
 11
45.86104504510128
 21
185.690948854996
 31
0.0
  0
LINE
  5
87
330
4A
100
AcDbEntity
  8
1
  6
Continuous
 62
     7
100
AcDbLine
 10
69.86104504510138
 20
185.690948854996
 30
0.0
 11
69.86104504510138
 21
187.0991061615497
 31
0.0
  0
LINE
  5
88
330
4A
100
AcDbEntity
  8
1
  6
Continuous
 62
     7
100
AcDbLine
 10
69.86104504510138
 20
185.690948854996
 30
0.0
 11
69.04804504510139
 21
185.690948854996
 31
0.0
  0
LINE
  5
89
330
4A
100
AcDbEntity
  8
1
  6
Continuous
 62
     2
100
AcDbLine
 10
45.86104504510128
 20
187.0991061615497
 30
0.0
 11
46.67404504510128
 21
185.690948854996
 31
0.0
  0
LINE
  5
8A
330
4A
100
AcDbEntity
  8
1
  6
Continuous
 62
     2
100
AcDbLine
 10
69.04804504510139
 20
185.690948854996
 30
0.0
 11
69.04804504510139
 21
184.2609488549962
 31
0.0
  0
LINE
  5
8B
330
4A
100
AcDbEntity
  8
1
  6
Continuous
 62
     2
100
AcDbLine
 10
69.04804504510139
 20
185.690948854996
 30
0.0
 11
69.86104504510138
 21
187.0991061615497
 31
0.0
  0
LINE
  5
8C
330
4A
100
AcDbEntity
  8
1
  6
Continuous
 62
     7
100
AcDbLine
 10
45.36104504510138
 20
187.5991061615495
 30
0.0
 11
45.36104504510128
 21
217.1087740442002
 31
0.0
  0
LINE
  5
8D
330
4A
100
AcDbEntity
  8
1
  6
Continuous
 62
     7
100
AcDbLine
 10
45.86104504510128
 20
187.0991061615497
 30
0.0
 11
45.36104504510138
 21
187.5991061615495
 31
0.0
  0
LINE
  5
8E
330
4A
100
AcDbEntity
  8
1
  6
Continuous
 62
     7
100
AcDbLine
 10
69.86104504510138
 20
187.0991061615497
 30
0.0
 11
70.36104504510138
 21
187.5991061615497
 31
0.0
  0
LINE
  5
8F
330
4A
100
AcDbEntity
  8
1
  6
Continuous
 62
     7
100
AcDbLine
 10
70.36104504510138
 20
187.5991061615497
 30
0.0
 11
70.36104504510138
 21
217.1087740442002
 31
0.0
  0
LINE
  5
90
330
4A
100
AcDbEntity
  8
1
  6
Continuous
 62
     7
100
AcDbLine
 10
133.0026322783891
 20
104.9182753658125
 30
0.0
 11
162.5123001610399
 21
104.9182753658125
 31
0.0
  0
LINE
  5
91
330
4A
100
AcDbEntity
  8
1
  6
Continuous
 62
     7
100
AcDbLine
 10
132.5026322783891
 20
105.4182753658125
 30
0.0
 11
133.0026322783891
 21
104.9182753658125
 31
0.0
  0
LINE
  5
92
330
4A
100
AcDbEntity
  8
1
  6
Continuous
 62
     7
100
AcDbLine
 10
132.5026322783891
 20
129.4182753658126
 30
0.0
 11
133.002632278389
 21
129.9182753658125
 31
0.0
  0
LINE
  5
93
330
4A
100
AcDbEntity
  8
1
  6
Continuous
 62
     7
100
AcDbLine
 10
161.5944749718356
 20
129.9182753658126
 30
0.0
 11
162.5123001610399
 21
129.9182753658126
 31
0.0
  0
LINE
  5
94
330
4A
100
AcDbEntity
  8
1
  6
Continuous
 62
     7
100
AcDbLine
 10
167.0944749718356
 20
132.4293823647427
 30
0.0
 11
166.0478340669726
 21
131.3827414598798
 31
0.0
  0
LINE
  5
95
330
4A
100
AcDbEntity
  8
1
  6
Continuous
 62
     7
100
AcDbLine
 10
167.0944749718356
 20
102.4071683668822
 30
0.0
 11
166.0478340669727
 21
103.4538092717451
 31
0.0
  0
LINE
  5
96
330
4A
100
AcDbEntity
  8
1
  6
PHANTOM
 62
     4
100
AcDbLine
 10
146.0944749718356
 20
150.4182753658125
 30
0.0
 11
146.0944749718356
 21
100.2979536363675
 31
0.0
  0
LINE
  5
97
330
4A
100
AcDbEntity
  8
1
  6
Continuous
 62
     7
100
AcDbLine
 10
174.0944749718356
 20
104.6682753658125
 30
0.0
 11
174.0944749718356
 21
130.1682753658125
 31
0.0
  0
LINE
  5
98
330
4A
100
AcDbEntity
  8
1
  6
Continuous
 62
     2
100
AcDbLine
 10
131.0944749718356
 20
106.2312753658124
 30
0.0
 11
132.5026322783891
 21
105.4182753658125
 31
0.0
  0
LINE
  5
99
330
4A
100
AcDbEntity
  8
1
  6
Continuous
 62
     2
100
AcDbLine
 10
131.0944749718356
 20
106.2312753658124
 30
0.0
 11
129.6647836836506
 21
106.2312753658124
 31
0.0
  0
LINE
  5
9A
330
4A
100
AcDbEntity
  8
1
  6
Continuous
 62
     2
100
AcDbLine
 10
155.4324749718356
 20
138.4182753658125
 30
0.0
 11
156.5944749718356
 21
136.4056323274174
 31
0.0
  0
LINE
  5
9B
330
4A
100
AcDbEntity
  8
1
  6
Continuous
 62
     2
100
AcDbLine
 10
135.5944749718356
 20
136.4056323274174
 30
0.0
 11
136.7564749718356
 21
138.4182753658125
 31
0.0
  0
LINE
  5
9C
330
4A
100
AcDbEntity
  8
1
  6
Continuous
 62
     2
100
AcDbLine
 10
136.7564749718356
 20
138.4182753658125
 30
0.0
 11
136.7564749718356
 21
147.4182753658125
 31
0.0
  0
LINE
  5
9D
330
4A
100
AcDbEntity
  8
1
  6
Continuous
 62
     2
100
AcDbLine
 10
132.5026322783891
 20
129.4182753658126
 30
0.0
 11
131.0944749718356
 21
128.6052753658126
 31
0.0
  0
LINE
  5
9E
330
4A
100
AcDbEntity
  8
1
  6
Continuous
 62
     7
100
AcDbLine
 10
131.0944749718356
 20
105.4182753658125
 30
0.0
 11
131.0944749718356
 21
106.2312753658124
 31
0.0
  0
LINE
  5
9F
330
4A
100
AcDbEntity
  8
1
  6
Continuous
 62
     7
100
AcDbLine
 10
131.0944749718356
 20
105.4182753658125
 30
0.0
 11
132.5026322783891
 21
105.4182753658125
 31
0.0
  0
LINE
  5
A0
330
4A
100
AcDbEntity
  8
1
  6
Continuous
 62
     7
100
AcDbLine
 10
155.4324749718356
 20
138.4182753658125
 30
0.0
 11
156.5944749718356
 21
138.4182753658125
 31
0.0
  0
LINE
  5
A1
330
4A
100
AcDbEntity
  8
1
  6
Continuous
 62
     7
100
AcDbLine
 10
135.5944749718356
 20
138.4182753658125
 30
0.0
 11
136.7564749718356
 21
138.4182753658125
 31
0.0
  0
LINE
  5
A2
330
4A
100
AcDbEntity
  8
1
  6
Continuous
 62
     7
100
AcDbLine
 10
132.5026322783891
 20
129.4182753658126
 30
0.0
 11
131.0944749718356
 21
129.4182753658126
 31
0.0
  0
LINE
  5
A3
330
4A
100
AcDbEntity
  8
1
  6
Continuous
 62
     7
100
AcDbLine
 10
131.0944749718356
 20
128.6052753658126
 30
0.0
 11
131.0944749718356
 21
129.4182753658126
 31
0.0
  0
LINE
  5
A4
330
4A
100
AcDbEntity
  8
1
  6
Continuous
 62
     7
100
AcDbLine
 10
131.0944749718356
 20
129.4182753658126
 30
0.0
 11
129.6647836836506
 21
129.4182753658126
 31
0.0
  0
LINE
  5
A5
330
4A
100
AcDbEntity
  8
1
  6
Continuous
 62
     7
100
AcDbLine
 10
171.8333679729053
 20
132.4293823647427
 30
0.0
 11
174.0944749718356
 21
130.1682753658125
 31
0.0
  0
LINE
  5
A6
330
4A
100
AcDbEntity
  8
1
  6
Continuous
 62
     7
100
AcDbLine
 10
171.8333679729053
 20
132.4293823647427
 30
0.0
 11
167.0944749718356
 21
132.4293823647427
 31
0.0
  0
LINE
  5
A7
330
4A
100
AcDbEntity
  8
1
  6
Continuous
 62
     7
100
AcDbLine
 10
174.0944749718356
 20
104.6682753658125
 30
0.0
 11
171.8333679729053
 21
102.4071683668822
 31
0.0
  0
LINE
  5
A8
330
4A
100
AcDbEntity
  8
1
  6
Continuous
 62
     7
100
AcDbLine
 10
171.8333679729053
 20
102.4071683668822
 30
0.0
 11
167.0944749718356
 21
102.4071683668822
 31
0.0
  0
LINE
  5
A9
330
4A
100
AcDbEntity
  8
1
  6
Continuous
 62
     7
100
AcDbLine
 10
135.5944749718356
 20
138.4182753658125
 30
0.0
 11
135.5944749718356
 21
136.4056323274174
 31
0.0
  0
LINE
  5
AA
330
4A
100
AcDbEntity
  8
1
  6
Continuous
 62
     7
100
AcDbLine
 10
156.5944749718356
 20
138.4182753658125
 30
0.0
 11
156.5944749718356
 21
136.4056323274174
 31
0.0
  0
LINE
  5
AB
330
4A
100
AcDbEntity
  8
1
  6
Continuous
 62
     7
100
AcDbLine
 10
156.5944749718356
 20
136.4056323274174
 30
0.0
 11
156.5944749718356
 21
134.9182753658126
 31
0.0
  0
LINE
  5
AC
330
4A
100
AcDbEntity
  8
1
  6
PHANTOM
 62
     4
100
AcDbLine
 10
42.36104504510128
 20
200.690948854996
 30
0.0
 11
73.36104504510138
 21
200.690948854996
 31
0.0
  0
LINE
  5
AD
330
4A
100
AcDbEntity
  8
1
  6
PHANTOM
 62
     4
100
AcDbLine
 10
177.0944749718356
 20
117.4182753658125
 30
0.0
 11
122.0944749718356
 21
117.4182753658125
 31
0.0
  0
LINE
  5
AE
330
4A
100
AcDbEntity
  8
1
  6
Continuous
 62
     7
100
AcDbLine
 10
171.8333679729054
 20
124.9238288652776
 30
0.0
 11
167.0944749718356
 21
124.9238288652776
 31
0.0
  0
LINE
  5
AF
330
4A
100
AcDbEntity
  8
1
  6
Continuous
 62
     7
100
AcDbLine
 10
171.8333679729054
 20
109.9127218663473
 30
0.0
 11
167.0944749718356
 21
109.9127218663473
 31
0.0
  0
LINE
  5
B0
330
4A
100
AcDbEntity
  8
1
  6
Continuous
 62
     7
100
AcDbLine
 10
136.7564749718356
 20
138.4182753658125
 30
0.0
 11
155.4324749718356
 21
138.4182753658125
 31
0.0
  0
LINE
  5
B1
330
4A
100
AcDbEntity
  8
1
  6
Continuous
 62
     7
100
AcDbLine
 10
131.0944749718356
 20
106.2312753658124
 30
0.0
 11
131.0944749718356
 21
128.6052753658126
 31
0.0
  0
LINE
  5
B2
330
4A
100
AcDbEntity
  8
1
  6
Continuous
 62
     7
100
AcDbLine
 10
57.86104504510138
 20
221.690948854996
 30
0.0
 11
57.86104504510138
 21
226.4298418560658
 31
0.0
  0
LINE
  5
B3
330
4A
100
AcDbEntity
  8
1
  6
PHANTOM
 62
     4
100
AcDbLine
 10
57.86104504510138
 20
234.690948854996
 30
0.0
 11
57.86104504510138
 21
173.690948854996
 31
0.0
  0
LINE
  5
B4
330
4A
100
AcDbEntity
  8
1
  6
Continuous
 62
     2
100
AcDbLine
 10
129.6647836836506
 20
128.6052753658126
 30
0.0
 11
131.0944749718356
 21
128.6052753658126
 31
0.0
  0
LINE
  5
B5
330
4A
100
AcDbEntity
  8
1
  6
Continuous
 62
     7
100
AcDbLine
 10
129.6647836836506
 20
105.4182753658125
 30
0.0
 11
131.0944749718356
 21
105.4182753658125
 31
0.0
  0
LINE
  5
B6
330
4A
100
AcDbEntity
  8
1
  6
Continuous
 62
     7
100
AcDbLine
 10
135.5944749718356
 20
146.2562753658124
 30
0.0
 11
135.5944749718356
 21
138.4182753658125
 31
0.0
  0
LINE
  5
B7
330
4A
100
AcDbEntity
  8
1
  6
Continuous
 62
     2
100
AcDbLine
 10
155.4324749718356
 20
147.4182753658125
 30
0.0
 11
155.4324749718356
 21
138.4182753658125
 31
0.0
  0
LINE
  5
B8
330
4A
100
AcDbEntity
  8
1
  6
Continuous
 62
     7
100
AcDbLine
 10
156.5944749718356
 20
146.2562753658124
 30
0.0
 11
156.5944749718356
 21
138.4182753658125
 31
0.0
  0
LINE
  5
B9
330
4A
100
AcDbEntity
  8
1
  6
Continuous
 62
     7
100
AcDbLine
 10
69.86104504510138
 20
184.2609488549962
 30
0.0
 11
69.86104504510138
 21
185.690948854996
 31
0.0
  0
LINE
  5
BA
330
4A
100
AcDbEntity
  8
1
  6
Continuous
 62
     2
100
AcDbLine
 10
46.67404504510128
 20
184.2609488549962
 30
0.0
 11
46.67404504510128
 21
185.690948854996
 31
0.0
  0
LINE
  5
BB
330
4A
100
AcDbEntity
  8
1
  6
Continuous
 62
     7
100
AcDbLine
 10
46.67404504510128
 20
185.690948854996
 30
0.0
 11
69.04804504510139
 21
185.690948854996
 31
0.0
  0
ARC
  5
BC
330
4A
100
AcDbEntity
  8
1
  6
Continuous
 62
     7
100
AcDbCircle
 10
57.86104504510138
 20
200.690948854996
 30
0.0
 40
6.500000000000004
100
AcDbArc
 50
322.020127555148
 51
217.979872444852
  0
ARC
  5
BD
330
4A
100
AcDbEntity
  8
1
  6
Continuous
 62
     7
100
AcDbCircle
 10
57.86104504510138
 20
200.690948854996
 30
0.0
 40
6.500000000000004
100
AcDbArc
 50
217.979872444852
 51
322.020127555148
  0
ARC
  5
BE
330
4A
100
AcDbEntity
  8
1
  6
Continuous
 62
     7
100
AcDbCircle
 10
126.1796580506052
 20
136.4056323274174
 30
0.0
 40
9.414816921230374
100
AcDbArc
 50
316.4443952515286
 51
0.0
  0
CIRCLE
  5
BF
330
4A
100
AcDbEntity
  8
1
  6
Continuous
 62
     7
100
AcDbCircle
 10
57.86104504510138
 20
200.690948854996
 30
0.0
 40
10.5
  0
CIRCLE
  5
C0
330
4A
100
AcDbEntity
  8
1
  6
Continuous
 62
     2
100
AcDbCircle
 10
57.86104504510138
 20
200.690948854996
 30
0.0
 40
9.338000000000022
  0
SPLINE
  5
C1
330
4A
100
AcDbEntity
  8
1
  6
Continuous
 62
     7
100
AcDbSpline
210
0.0
220
0.0
230
1.0
 70
     8
 71
     3
 72
    33
 73
    29
 74
    27
 42
0.000000001
 43
0.0000000001
 44
0.00000001
 40
0.0
 40
0.0
 40
0.0
 40
0.0
 40
0.5939249129344552
 40
1.187851597589253
 40
1.513819739508757
 40
1.839789279789944
 40
2.196317435514407
 40
2.552851932504422
 40
2.958199558378158
 40
3.363541509507963
 40
3.863542574906295
 40
4.363662703218029
 40
5.224160048598847
 40
6.084683374568918
 40
6.883623433991364
 40
7.682563493413772
 40
8.543086819383793
 40
9.403584164764618
 40
9.903704293076435
 40
10.40370535847479
 40
10.80904730960461
 40
11.21439493547826
 40
11.57092943246817
 40
11.92745758819254
 40
12.2534271284738
 40
12.57939527039343
 40
13.17332195504829
 40
13.76724686798272
 40
13.76724686798272
 40
13.76724686798272
 40
13.76724686798272
 10
57.86104504510138
 20
221.690948854996
 30
0.0
 10
58.03323323995496
 20
221.5932252239829
 30
0.0
 10
58.37761015046799
 20
221.3977776832259
 30
0.0
 10
58.82513269049301
 20
221.1643902862924
 30
0.0
 10
59.19761990611108
 20
220.980739450799
 30
0.0
 10
59.50187025232223
 20
220.8377466855225
 30
0.0
 10
59.81826183514875
 20
220.6967871989486
 30
0.0
 10
60.1621693012583
 20
220.5527932157998
 30
0.0
 10
60.52482909696774
 20
220.4117316366971
 30
0.0
 10
60.9364856642344
 20
220.2652046519163
 30
0.0
 10
61.38311489840198
 20
220.1233395650688
 30
0.0
 10
61.98156571449055
 20
219.9599170540793
 30
0.0
 10
62.70694861239559
 20
219.8077078320568
 30
0.0
 10
63.54134367989947
 20
219.7024723395065
 30
0.0
 10
64.36104504510138
 20
219.669112538144
 30
0.0
 10
65.18074641030324
 20
219.7024723395064
 30
0.0
 10
66.01514147780709
 20
219.8077078320568
 30
0.0
 10
66.74052437571214
 20
219.9599170540793
 30
0.0
 10
67.33897519180076
 20
220.1233395650688
 30
0.0
 10
67.78560442596843
 20
220.2652046519162
 30
0.0
 10
68.197260993235
 20
220.4117316366971
 30
0.0
 10
68.55992078894442
 20
220.5527932157998
 30
0.0
 10
68.9038282550538
 20
220.6967871989488
 30
0.0
 10
69.22021983788035
 20
220.8377466855224
 30
0.0
 10
69.52447018409154
 20
220.9807394507991
 30
0.0
 10
69.89695739970968
 20
221.1643902862922
 30
0.0
 10
70.34447993973467
 20
221.3977776832261
 30
0.0
 10
70.68885685024779
 20
221.593225223983
 30
0.0
 10
70.86104504510138
 20
221.690948854996
 30
0.0
 11
57.86104504510138
 21
221.690948854996
 31
0.0
 11
58.37930497503699
 21
221.4008567166649
 31
0.0
 11
58.90563408977665
 21
221.1256721052634
 31
0.0
 11
59.1980623587817
 21
220.9816549633182
 31
0.0
 11
59.49308828154572
 21
220.8430337303972
 31
0.0
 11
59.81879302270304
 21
220.6980208083637
 31
0.0
 11
60.14769434896466
 21
220.5603953555309
 31
0.0
 11
60.5255145350276
 21
220.4135668672067
 31
0.0
 11
60.90742783964193
 21
220.2777569806646
 31
0.0
 11
61.38404193968657
 21
220.1266276806858
 31
0.0
 11
61.86656189393022
 21
219.9951186057982
 31
0.0
 11
62.70889044967974
 21
219.8192257792497
 31
0.0
 11
63.56276736313335
 21
219.7124802309321
 31
0.0
 11
64.36104504510138
 21
219.6799539064129
 31
0.0
 11
65.15932272706937
 21
219.712480230932
 31
0.0
 11
66.01319964052293
 21
219.8192257792497
 31
0.0
 11
66.85552819627245
 21
219.9951186057982
 31
0.0
 11
67.33804815051617
 21
220.1266276806859
 31
0.0
 11
67.81466225056087
 21
220.2777569806645
 31
0.0
 11
68.1965755551752
 21
220.4135668672067
 31
0.0
 11
68.57439574123805
 21
220.5603953555309
 31
0.0
 11
68.90329706749955
 21
220.6980208083638
 31
0.0
 11
69.2290018086568
 21
220.8430337303972
 31
0.0
 11
69.52402773142089
 21
220.9816549633181
 31
0.0
 11
69.81645600042606
 21
221.1256721052634
 31
0.0
 11
70.34278511516574
 21
221.400856716665
 31
0.0
 11
70.86104504510138
 21
221.690948854996
 31
0.0
  0
SPLINE
  5
C2
330
4A
100
AcDbEntity
  8
1
  6
Continuous
 62
     7
100
AcDbSpline
210
0.0
220
0.0
230
1.0
 70
     8
 71
     3
 72
    33
 73
    29
 74
    27
 42
0.000000001
 43
0.0000000001
 44
0.00000001
 40
0.0
 40
0.0
 40
0.0
 40
0.0
 40
0.5939249129344303
 40
1.187851597589266
 40
1.513819739508866
 40
1.83978927979013
 40
2.196317435514586
 40
2.552851932504522
 40
2.958199558378166
 40
3.363541509507904
 40
3.863542574906215
 40
4.363662703217935
 40
5.22416004859878
 40
6.08468337456888
 40
6.883623433991341
 40
7.682563493413785
 40
8.543086819383834
 40
9.4035841647647
 40
9.903704293076476
 40
10.40370535847481
 40
10.8090473096046
 40
11.21439493547829
 40
11.57092943246823
 40
11.92745758819263
 40
12.25342712847387
 40
12.57939527039349
 40
13.17332195504834
 40
13.76724686798273
 40
13.76724686798273
 40
13.76724686798273
 40
13.76724686798273
 10
57.86104504510138
 20
221.690948854996
 30
0.0
 10
57.6888568502478
 20
221.5932252239829
 30
0.0
 10
57.34447993973475
 20
221.3977776832259
 30
0.0
 10
56.89695739970975
 20
221.1643902862924
 30
0.0
 10
56.52447018409158
 20
220.9807394507991
 30
0.0
 10
56.22021983788033
 20
220.8377466855225
 30
0.0
 10
55.90382825505381
 20
220.6967871989486
 30
0.0
 10
55.55992078894435
 20
220.5527932157998
 30
0.0
 10
55.19726099323498
 20
220.4117316366971
 30
0.0
 10
54.78560442596841
 20
220.2652046519163
 30
0.0
 10
54.33897519180086
 20
220.1233395650687
 30
0.0
 10
53.74052437571227
 20
219.9599170540793
 30
0.0
 10
53.01514147780722
 20
219.8077078320567
 30
0.0
 10
52.18074641030334
 20
219.7024723395066
 30
0.0
 10
51.36104504510141
 20
219.6691125381439
 30
0.0
 10
50.54134367989948
 20
219.7024723395064
 30
0.0
 10
49.70694861239563
 20
219.8077078320568
 30
0.0
 10
48.98156571449054
 20
219.9599170540793
 30
0.0
 10
48.38311489840197
 20
220.1233395650689
 30
0.0
 10
47.9364856642343
 20
220.2652046519161
 30
0.0
 10
47.52482909696775
 20
220.4117316366972
 30
0.0
 10
47.16216930125831
 20
220.5527932157997
 30
0.0
 10
46.81826183514889
 20
220.6967871989488
 30
0.0
 10
46.50187025232234
 20
220.8377466855224
 30
0.0
 10
46.19761990611112
 20
220.9807394507989
 30
0.0
 10
45.825132690493
 20
221.1643902862924
 30
0.0
 10
45.37761015046803
 20
221.397777683226
 30
0.0
 10
45.03323323995495
 20
221.5932252239829
 30
0.0
 10
44.86104504510138
 20
221.690948854996
 30
0.0
 11
57.86104504510138
 21
221.690948854996
 31
0.0
 11
57.34278511516579
 21
221.4008567166649
 31
0.0
 11
56.81645600042609
 21
221.1256721052634
 31
0.0
 11
56.52402773142093
 21
220.9816549633182
 31
0.0
 11
56.22900180865683
 21
220.8430337303972
 31
0.0
 11
55.90329706749952
 21
220.6980208083637
 31
0.0
 11
55.57439574123799
 21
220.5603953555309
 31
0.0
 11
55.19657555517514
 21
220.4135668672067
 31
0.0
 11
54.81466225056088
 21
220.2777569806646
 31
0.0
 11
54.33804815051626
 21
220.1266276806858
 31
0.0
 11
53.85552819627262
 21
219.9951186057982
 31
0.0
 11
53.01319964052308
 21
219.8192257792497
 31
0.0
 11
52.15932272706944
 21
219.7124802309321
 31
0.0
 11
51.3610450451014
 21
219.6799539064129
 31
0.0
 11
50.56276736313337
 21
219.712480230932
 31
0.0
 11
49.70889044967979
 21
219.8192257792497
 31
0.0
 11
48.86656189393022
 21
219.9951186057982
 31
0.0
 11
48.38404193968654
 21
220.1266276806859
 31
0.0
 11
47.90742783964186
 21
220.2777569806645
 31
0.0
 11
47.52551453502757
 21
220.4135668672067
 31
0.0
 11
47.14769434896468
 21
220.5603953555309
 31
0.0
 11
46.81879302270315
 21
220.6980208083638
 31
0.0
 11
46.49308828154586
 21
220.8430337303972
 31
0.0
 11
46.19806235878179
 21
220.9816549633181
 31
0.0
 11
45.90563408977663
 21
221.1256721052634
 31
0.0
 11
45.37930497503696
 21
221.400856716665
 31
0.0
 11
44.86104504510138
 21
221.690948854996
 31
0.0
  0
SPLINE
  5
C3
330
4A
100
AcDbEntity
  8
1
  6
Continuous
 62
     7
100
AcDbSpline
210
0.0
220
0.0
230
1.0
 70
     8
 71
     3
 72
    33
 73
    29
 74
    27
 42
0.000000001
 43
0.0000000001
 44
0.00000001
 40
0.0
 40
0.0
 40
0.0
 40
0.0
 40
0.5939249129344135
 40
1.187851597589225
 40
1.513819739508741
 40
1.839789279789952
 40
2.196317435514415
 40
2.55285193250443
 40
2.958199558378177
 40
3.363541509507972
 40
3.863542574906278
 40
4.36366270321802
 40
5.224160048598854
 40
6.084683374568936
 40
6.883623433991381
 40
7.682563493413792
 40
8.543086819383806
 40
9.40358416476466
 40
9.903704293076476
 40
10.40370535847483
 40
10.80904730960463
 40
11.21439493547829
 40
11.57092943246819
 40
11.9274575881926
 40
12.25342712847387
 40
12.5793952703935
 40
13.17332195504837
 40
13.76724686798275
 40
13.76724686798275
 40
13.76724686798275
 40
13.76724686798275
 10
57.86104504510138
 20
226.4298418560658
 30
0.0
 10
58.03323323995498
 20
226.5275654870789
 30
0.0
 10
58.37761015046803
 20
226.7230130278357
 30
0.0
 10
58.82513269049302
 20
226.9564004247695
 30
0.0
 10
59.19761990611107
 20
227.1400512602627
 30
0.0
 10
59.50187025232221
 20
227.2830440255394
 30
0.0
 10
59.81826183514875
 20
227.4240035121131
 30
0.0
 10
60.16216930125831
 20
227.567997495262
 30
0.0
 10
60.52482909696774
 20
227.7090590743647
 30
0.0
 10
60.93648566423436
 20
227.8555860591455
 30
0.0
 10
61.383114898402
 20
227.997451145993
 30
0.0
 10
61.98156571449055
 20
228.1608736569823
 30
0.0
 10
62.70694861239559
 20
228.3130828790051
 30
0.0
 10
63.54134367989946
 20
228.4183183715554
 30
0.0
 10
64.36104504510136
 20
228.451678172918
 30
0.0
 10
65.18074641030324
 20
228.4183183715554
 30
0.0
 10
66.01514147780709
 20
228.3130828790051
 30
0.0
 10
66.74052437571211
 20
228.1608736569824
 30
0.0
 10
67.33897519180078
 20
227.997451145993
 30
0.0
 10
67.78560442596839
 20
227.8555860591455
 30
0.0
 10
68.19726099323505
 20
227.7090590743647
 30
0.0
 10
68.55992078894437
 20
227.567997495262
 30
0.0
 10
68.90382825505387
 20
227.4240035121132
 30
0.0
 10
69.22021983788031
 20
227.2830440255393
 30
0.0
 10
69.52447018409154
 20
227.1400512602627
 30
0.0
 10
69.89695739970969
 20
226.9564004247694
 30
0.0
 10
70.34447993973467
 20
226.7230130278356
 30
0.0
 10
70.68885685024775
 20
226.5275654870788
 30
0.0
 10
70.86104504510138
 20
226.4298418560658
 30
0.0
 11
57.86104504510138
 21
226.4298418560658
 31
0.0
 11
58.37930497503699
 21
226.7199339943968
 31
0.0
 11
58.90563408977665
 21
226.9951186057983
 31
0.0
 11
59.1980623587817
 21
227.1391357477436
 31
0.0
 11
59.49308828154572
 21
227.2777569806646
 31
0.0
 11
59.81879302270304
 21
227.4227699026981
 31
0.0
 11
60.14769434896466
 21
227.5603953555309
 31
0.0
 11
60.5255145350276
 21
227.7072238438552
 31
0.0
 11
60.90742783964193
 21
227.8430337303972
 31
0.0
 11
61.38404193968657
 21
227.9941630303759
 31
0.0
 11
61.86656189393022
 21
228.1256721052636
 31
0.0
 11
62.70889044967974
 21
228.3015649318122
 31
0.0
 11
63.56276736313335
 21
228.4083104801299
 31
0.0
 11
64.36104504510138
 21
228.4408368046491
 31
0.0
 11
65.15932272706937
 21
228.4083104801298
 31
0.0
 11
66.01319964052293
 21
228.3015649318122
 31
0.0
 11
66.85552819627245
 21
228.1256721052636
 31
0.0
 11
67.33804815051617
 21
227.9941630303759
 31
0.0
 11
67.81466225056087
 21
227.8430337303972
 31
0.0
 11
68.1965755551752
 21
227.7072238438552
 31
0.0
 11
68.57439574123805
 21
227.5603953555309
 31
0.0
 11
68.90329706749955
 21
227.4227699026981
 31
0.0
 11
69.2290018086568
 21
227.2777569806646
 31
0.0
 11
69.52402773142089
 21
227.1391357477436
 31
0.0
 11
69.81645600042606
 21
226.9951186057983
 31
0.0
 11
70.34278511516574
 21
226.7199339943967
 31
0.0
 11
70.86104504510138
 21
226.4298418560658
 31
0.0
  0
SPLINE
  5
C4
330
4A
100
AcDbEntity
  8
1
  6
Continuous
 62
     7
100
AcDbSpline
210
0.0
220
0.0
230
1.0
 70
     8
 71
     3
 72
    33
 73
    29
 74
    27
 42
0.000000001
 43
0.0000000001
 44
0.00000001
 40
0.0
 40
0.0
 40
0.0
 40
0.0
 40
0.5939249129343886
 40
1.187851597589238
 40
1.51381973950885
 40
1.839789279790138
 40
2.196317435514594
 40
2.55285193250453
 40
2.958199558378184
 40
3.363541509507913
 40
3.863542574906198
 40
4.363662703217926
 40
5.224160048598789
 40
6.084683374568899
 40
6.883623433991358
 40
7.682563493413804
 40
8.543086819383847
 40
9.403584164764743
 40
9.903704293076519
 40
10.40370535847486
 40
10.80904730960462
 40
11.21439493547832
 40
11.57092943246824
 40
11.92745758819269
 40
12.25342712847394
 40
12.57939527039356
 40
13.17332195504843
 40
13.76724686798275
 40
13.76724686798275
 40
13.76724686798275
 40
13.76724686798275
 10
57.86104504510138
 20
226.4298418560658
 30
0.0
 10
57.6888568502478
 20
226.5275654870789
 30
0.0
 10
57.34447993973473
 20
226.7230130278357
 30
0.0
 10
56.89695739970973
 20
226.9564004247695
 30
0.0
 10
56.52447018409156
 20
227.1400512602627
 30
0.0
 10
56.22021983788036
 20
227.2830440255394
 30
0.0
 10
55.90382825505382
 20
227.4240035121131
 30
0.0
 10
55.55992078894432
 20
227.567997495262
 30
0.0
 10
55.19726099323499
 20
227.7090590743647
 30
0.0
 10
54.78560442596842
 20
227.8555860591457
 30
0.0
 10
54.33897519180086
 20
227.997451145993
 30
0.0
 10
53.74052437571227
 20
228.1608736569825
 30
0.0
 10
53.01514147780724
 20
228.313082879005
 30
0.0
 10
52.18074641030334
 20
228.4183183715555
 30
0.0
 10
51.36104504510141
 20
228.4516781729181
 30
0.0
 10
50.54134367989949
 20
228.4183183715554
 30
0.0
 10
49.70694861239559
 20
228.3130828790052
 30
0.0
 10
48.98156571449057
 20
228.1608736569824
 30
0.0
 10
48.38311489840196
 20
227.997451145993
 30
0.0
 10
47.93648566423433
 20
227.8555860591456
 30
0.0
 10
47.52482909696773
 20
227.7090590743647
 30
0.0
 10
47.16216930125836
 20
227.567997495262
 30
0.0
 10
46.81826183514884
 20
227.4240035121131
 30
0.0
 10
46.50187025232236
 20
227.2830440255393
 30
0.0
 10
46.19761990611115
 20
227.1400512602627
 30
0.0
 10
45.82513269049299
 20
226.9564004247695
 30
0.0
 10
45.37761015046807
 20
226.7230130278356
 30
0.0
 10
45.03323323995496
 20
226.5275654870788
 30
0.0
 10
44.86104504510138
 20
226.4298418560658
 30
0.0
 11
57.86104504510138
 21
226.4298418560658
 31
0.0
 11
57.34278511516579
 21
226.7199339943968
 31
0.0
 11
56.81645600042609
 21
226.9951186057983
 31
0.0
 11
56.52402773142093
 21
227.1391357477436
 31
0.0
 11
56.22900180865683
 21
227.2777569806646
 31
0.0
 11
55.90329706749952
 21
227.4227699026981
 31
0.0
 11
55.57439574123799
 21
227.5603953555309
 31
0.0
 11
55.19657555517514
 21
227.7072238438552
 31
0.0
 11
54.81466225056088
 21
227.8430337303972
 31
0.0
 11
54.33804815051626
 21
227.9941630303759
 31
0.0
 11
53.85552819627262
 21
228.1256721052636
 31
0.0
 11
53.01319964052308
 21
228.3015649318122
 31
0.0
 11
52.15932272706944
 21
228.4083104801299
 31
0.0
 11
51.3610450451014
 21
228.4408368046491
 31
0.0
 11
50.56276736313337
 21
228.4083104801298
 31
0.0
 11
49.70889044967979
 21
228.3015649318122
 31
0.0
 11
48.86656189393022
 21
228.1256721052636
 31
0.0
 11
48.38404193968654
 21
227.9941630303759
 31
0.0
 11
47.90742783964186
 21
227.8430337303972
 31
0.0
 11
47.52551453502757
 21
227.7072238438552
 31
0.0
 11
47.14769434896468
 21
227.5603953555309
 31
0.0
 11
46.81879302270315
 21
227.4227699026981
 31
0.0
 11
46.49308828154586
 21
227.2777569806646
 31
0.0
 11
46.19806235878179
 21
227.1391357477436
 31
0.0
 11
45.90563408977663
 21
226.9951186057983
 31
0.0
 11
45.37930497503696
 21
226.7199339943967
 31
0.0
 11
44.86104504510138
 21
226.4298418560658
 31
0.0
  0
SPLINE
  5
C5
330
4A
100
AcDbEntity
  8
1
  6
Continuous
 62
     7
100
AcDbSpline
210
0.0
220
0.0
230
1.0
 70
     8
 71
     3
 72
    33
 73
    29
 74
    27
 42
0.000000001
 43
0.0000000001
 44
0.00000001
 40
0.0
 40
0.0
 40
0.0
 40
0.0
 40
0.4133568979875104
 40
0.8267148958294213
 40
1.047477426098086
 40
1.268240269860655
 40
1.504227365470676
 40
1.740225678003683
 40
2.001195134575762
 40
2.262139226749305
 40
2.573023660009667
 40
2.884147970269501
 40
3.395079508021793
 40
3.905704149328174
 40
4.367715773750148
 40
4.829727398172149
 40
5.34035203947855
 40
5.851283577230859
 40
6.162407887490692
 40
6.473292320751066
 40
6.734236412924622
 40
6.995205869496724
 40
7.231204182029679
 40
7.467191277639598
 40
7.687954121402123
 40
7.908716651670748
 40
8.322074649512649
 40
8.73543154750024
 40
8.73543154750024
 40
8.73543154750024
 40
8.73543154750024
 10
171.8333679729053
 20
132.4293823647427
 30
0.0
 10
171.9299844259952
 20
132.3311321636781
 30
0.0
 10
172.1232175790029
 20
132.1346314901902
 30
0.0
 10
172.357494537419
 20
131.8755776262279
 30
0.0
 10
172.5425876144934
 20
131.6588948195613
 30
0.0
 10
172.6852094943605
 20
131.4837598225929
 30
0.0
 10
172.8263538963995
 20
131.3009631342034
 30
0.0
 10
172.9698622918298
 20
131.1031868511573
 30
0.0
 10
173.1111451811878
 20
130.893670806063
 30
0.0
 10
173.2569759845906
 20
130.6573723959844
 30
0.0
 10
173.399198094745
 20
130.3995018444559
 30
0.0
 10
173.5610243902703
 20
130.058036060989
 30
0.0
 10
173.7141884586071
 20
129.6398292553889
 30
0.0
 10
173.8214831179158
 20
129.1552450875548
 30
0.0
 10
173.8547989021793
 20
128.6766056150101
 30
0.0
 10
173.8214831179159
 20
128.1979661424654
 30
0.0
 10
173.7141884586071
 20
127.7133819746314
 30
0.0
 10
173.5610243902703
 20
127.2951751690313
 30
0.0
 10
173.399198094745
 20
126.9537093855643
 30
0.0
 10
173.2569759845906
 20
126.6958388340359
 30
0.0
 10
173.1111451811877
 20
126.4595404239571
 30
0.0
 10
172.9698622918298
 20
126.2500243788629
 30
0.0
 10
172.8263538963995
 20
126.0522480958168
 30
0.0
 10
172.6852094943605
 20
125.8694514074275
 30
0.0
 10
172.5425876144934
 20
125.6943164104592
 30
0.0
 10
172.3574945374192
 20
125.4776336037924
 30
0.0
 10
172.1232175790028
 20
125.2185797398303
 30
0.0
 10
171.9299844259953
 20
125.0220790663423
 30
0.0
 10
171.8333679729054
 20
124.9238288652776
 30
0.0
 11
171.8333679729053
 21
132.4293823647427
 31
0.0
 11
172.12113444782
 21
132.1326427764585
 31
0.0
 11
172.3986447226379
 21
131.826288598607
 31
0.0
 11
172.5419247676028
 21
131.6583394289259
 31
0.0
 11
172.6812830975042
 21
131.4871217628524
 31
0.0
 11
172.8254134433664
 21
131.3002625837658
 31
0.0
 11
172.9639214723705
 21
131.1091847736149
 31
0.0
 11
173.1096752062887
 21
130.8927109727712
 31
0.0
 11
173.2465598472368
 21
130.6705524382601
 31
0.0
 11
173.3963255886475
 21
130.3981201462023
 31
0.0
 11
173.529198222103
 21
130.1167961338278
 31
0.0
 11
173.703335768847
 21
129.6364554716486
 31
0.0
 11
173.8118365969693
 21
129.1374914495825
 31
0.0
 11
173.8440699523334
 21
128.6766056150101
 31
0.0
 11
173.8118365969693
 21
128.2157197804378
 31
0.0
 11
173.703335768847
 21
127.7167557583717
 31
0.0
 11
173.5291982221031
 21
127.2364150961925
 31
0.0
 11
173.3963255886475
 21
126.9550910838179
 31
0.0
 11
173.2465598472368
 21
126.6826587917601
 31
0.0
 11
173.1096752062887
 21
126.460500257249
 31
0.0
 11
172.9639214723705
 21
126.2440264564053
 31
0.0
 11
172.8254134433664
 21
126.0529486462545
 31
0.0
 11
172.6812830975042
 21
125.8660894671679
 31
0.0
 11
172.5419247676029
 21
125.6948718010945
 31
0.0
 11
172.398644722638
 21
125.5269226314134
 31
0.0
 11
172.1211344478201
 21
125.2205684535619
 31
0.0
 11
171.8333679729054
 21
124.9238288652776
 31
0.0
  0
SPLINE
  5
C6
330
4A
100
AcDbEntity
  8
1
  6
Continuous
 62
     7
100
AcDbSpline
210
0.0
220
0.0
230
1.0
 70
     8
 71
     3
 72
    33
 73
    29
 74
    27
 42
0.000000001
 43
0.0000000001
 44
0.00000001
 40
0.0
 40
0.0
 40
0.0
 40
0.0
 40
0.413356897987451
 40
0.826714895829362
 40
1.047477426098045
 40
1.268240269860614
 40
1.504227365470652
 40
1.74022567800366
 40
2.001195134575707
 40
2.26213922674925
 40
2.573023660009612
 40
2.884147970269422
 40
3.395079508021705
 40
3.90570414932811
 40
4.367715773750084
 40
4.829727398172088
 40
5.340352039478501
 40
5.85128357723081
 40
6.162407887490619
 40
6.473292320750994
 40
6.734236412924534
 40
6.99520586949662
 40
7.231204182029575
 40
7.467191277639511
 40
7.687954121402054
 40
7.908716651670697
 40
8.322074649512617
 40
8.73543154750015
 40
8.73543154750015
 40
8.73543154750015
 40
8.73543154750015
 10
167.0944749718356
 20
132.4293823647427
 30
0.0
 10
166.9978585187457
 20
132.331132163678
 30
0.0
 10
166.8046253657382
 20
132.1346314901902
 30
0.0
 10
166.5703484073219
 20
131.875577626228
 30
0.0
 10
166.3852553302476
 20
131.6588948195613
 30
0.0
 10
166.2426334503805
 20
131.4837598225928
 30
0.0
 10
166.1014890483415
 20
131.3009631342035
 30
0.0
 10
165.9579806529112
 20
131.1031868511572
 30
0.0
 10
165.8166977635532
 20
130.8936708060631
 30
0.0
 10
165.6708669601505
 20
130.6573723959844
 30
0.0
 10
165.528644849996
 20
130.3995018444559
 30
0.0
 10
165.3668185544709
 20
130.0580360609889
 30
0.0
 10
165.213654486134
 20
129.6398292553889
 30
0.0
 10
165.1063598268251
 20
129.1552450875548
 30
0.0
 10
165.0730440425616
 20
128.6766056150102
 30
0.0
 10
165.1063598268252
 20
128.1979661424654
 30
0.0
 10
165.213654486134
 20
127.7133819746314
 30
0.0
 10
165.3668185544707
 20
127.2951751690313
 30
0.0
 10
165.5286448499961
 20
126.9537093855643
 30
0.0
 10
165.6708669601505
 20
126.6958388340359
 30
0.0
 10
165.8166977635532
 20
126.4595404239572
 30
0.0
 10
165.9579806529111
 20
126.2500243788629
 30
0.0
 10
166.1014890483415
 20
126.0522480958169
 30
0.0
 10
166.2426334503805
 20
125.8694514074275
 30
0.0
 10
166.3852553302476
 20
125.6943164104592
 30
0.0
 10
166.5703484073219
 20
125.4776336037924
 30
0.0
 10
166.8046253657383
 20
125.2185797398303
 30
0.0
 10
166.9978585187457
 20
125.0220790663423
 30
0.0
 10
167.0944749718356
 20
124.9238288652776
 30
0.0
 11
167.0944749718356
 21
132.4293823647427
 31
0.0
 11
166.806708496921
 21
132.1326427764585
 31
0.0
 11
166.5291982221031
 21
131.826288598607
 31
0.0
 11
166.3859181771381
 21
131.6583394289259
 31
0.0
 11
166.2465598472368
 21
131.4871217628524
 31
0.0
 11
166.1024295013746
 21
131.3002625837658
 31
0.0
 11
165.9639214723705
 21
131.1091847736149
 31
0.0
 11
165.8181677384523
 21
130.8927109727712
 31
0.0
 11
165.6812830975042
 21
130.6705524382601
 31
0.0
 11
165.5315173560935
 21
130.3981201462023
 31
0.0
 11
165.398644722638
 21
130.1167961338278
 31
0.0
 11
165.2245071758941
 21
129.6364554716486
 31
0.0
 11
165.1160063477717
 21
129.1374914495825
 31
0.0
 11
165.0837729924075
 21
128.6766056150101
 31
0.0
 11
165.1160063477717
 21
128.2157197804378
 31
0.0
 11
165.2245071758941
 21
127.7167557583717
 31
0.0
 11
165.398644722638
 21
127.2364150961925
 31
0.0
 11
165.5315173560935
 21
126.9550910838179
 31
0.0
 11
165.6812830975042
 21
126.6826587917601
 31
0.0
 11
165.8181677384523
 21
126.460500257249
 31
0.0
 11
165.9639214723705
 21
126.2440264564053
 31
0.0
 11
166.1024295013746
 21
126.0529486462545
 31
0.0
 11
166.2465598472368
 21
125.8660894671679
 31
0.0
 11
166.3859181771382
 21
125.6948718010945
 31
0.0
 11
166.5291982221031
 21
125.5269226314134
 31
0.0
 11
166.806708496921
 21
125.2205684535619
 31
0.0
 11
167.0944749718356
 21
124.9238288652776
 31
0.0
  0
SPLINE
  5
C7
330
4A
100
AcDbEntity
  8
1
  6
Continuous
 62
     7
100
AcDbSpline
210
0.0
220
0.0
230
1.0
 70
     8
 71
     3
 72
    33
 73
    29
 74
    27
 42
0.000000001
 43
0.0000000001
 44
0.00000001
 40
0.0
 40
0.0
 40
0.0
 40
0.0
 40
0.666094206594796
 40
1.332190221276471
 40
1.699632942691424
 40
2.067077051446504
 40
2.47058921170185
 40
2.874107005745502
 40
3.334983197926078
 40
3.795855498283457
 40
4.367402400501936
 40
4.9390512880574
 40
5.929102488372047
 40
6.919199819071105
 40
7.84154605068166
 40
8.763892282292243
 40
9.7539896129914
 40
10.7440408133061
 40
11.31568970086155
 40
11.88723660308006
 40
12.3481089034374
 40
12.80898509561791
 40
13.21250288966161
 40
13.61601504991695
 40
13.98345915867205
 40
14.35090188008696
 40
15.0169978947686
 40
15.68309210136344
 40
15.68309210136344
 40
15.68309210136344
 40
15.68309210136344
 10
167.0944749718356
 20
124.9238288652776
 30
0.0
 10
166.9965370583412
 20
124.7245525871484
 30
0.0
 10
166.8006609787187
 20
124.3259994835568
 30
0.0
 10
166.5674655077482
 20
123.8095525532814
 30
0.0
 10
166.3840866588908
 20
123.3800571710232
 30
0.0
 10
166.2410337097596
 20
123.028565867293
 30
0.0
 10
166.1001122219414
 20
122.6632899936535
 30
0.0
 10
165.9560439807651
 20
122.2659360641874
 30
0.0
 10
165.815026557953
 20
121.8472418405911
 30
0.0
 10
165.6684022109586
 20
121.3715051513319
 30
0.0
 10
165.5266035188595
 20
120.8558387907748
 30
0.0
 10
165.3629703227177
 20
120.1636970869302
 30
0.0
 10
165.2108947072091
 20
119.3260813837126
 30
0.0
 10
165.1059529611797
 20
118.3634062655514
 30
0.0
 10
165.0726051949886
 20
117.4182753658125
 30
0.0
 10
165.1059529611797
 20
116.4731444660736
 30
0.0
 10
165.2108947072091
 20
115.5104693479123
 30
0.0
 10
165.3629703227176
 20
114.6728536446947
 30
0.0
 10
165.5266035188595
 20
113.98071194085
 30
0.0
 10
165.6684022109586
 20
113.4650455802929
 30
0.0
 10
165.815026557953
 20
112.9893088910338
 30
0.0
 10
165.9560439807651
 20
112.5706146674375
 30
0.0
 10
166.1001122219415
 20
112.1732607379714
 30
0.0
 10
166.2410337097596
 20
111.8079848643319
 30
0.0
 10
166.3840866588909
 20
111.4564935606017
 30
0.0
 10
166.5674655077482
 20
111.0269981783435
 30
0.0
 10
166.8006609787188
 20
110.5105512480681
 30
0.0
 10
166.9965370583411
 20
110.1119981444765
 30
0.0
 10
167.0944749718356
 20
109.9127218663473
 30
0.0
 11
167.0944749718356
 21
124.9238288652776
 31
0.0
 11
166.8039349789566
 21
124.3244391707145
 31
0.0
 11
166.529198222103
 21
123.7176413330059
 31
0.0
 11
166.3850479636008
 21
123.3796548589555
 31
0.0
 11
166.2465598472368
 21
123.0393076614968
 31
0.0
 11
166.1013960460973
 21
122.6628112678034
 31
0.0
 11
165.9639214723705
 21
122.283433683022
 31
0.0
 11
165.8169199785902
 21
121.8466300365945
 31
0.0
 11
165.6812830975042
 21
121.4061690123123
 31
0.0
 11
165.5299538486745
 21
120.8550199216198
 31
0.0
 11
165.398644722638
 21
120.2986564034477
 31
0.0
 11
165.2225004690619
 21
119.3244004914448
 31
0.0
 11
165.1160063477717
 21
118.3400470349569
 31
0.0
 11
165.0834554379932
 21
117.4182753658125
 31
0.0
 11
165.1160063477717
 21
116.4965036966681
 31
0.0
 11
165.2225004690619
 21
115.5121502401801
 31
0.0
 11
165.398644722638
 21
114.5378943281772
 31
0.0
 11
165.5299538486745
 21
113.9815308100051
 31
0.0
 11
165.6812830975042
 21
113.4303817193125
 31
0.0
 11
165.8169199785902
 21
112.9899206950303
 31
0.0
 11
165.9639214723705
 21
112.5531170486029
 31
0.0
 11
166.1013960460974
 21
112.1737394638214
 31
0.0
 11
166.2465598472368
 21
111.7972430701281
 31
0.0
 11
166.3850479636009
 21
111.4568958726694
 31
0.0
 11
166.5291982221031
 21
111.1189093986191
 31
0.0
 11
166.8039349789566
 21
110.5121115609104
 31
0.0
 11
167.0944749718356
 21
109.9127218663473
 31
0.0
  0
SPLINE
  5
C8
330
4A
100
AcDbEntity
  8
1
  6
Continuous
 62
     7
100
AcDbSpline
210
0.0
220
0.0
230
1.0
 70
     8
 71
     3
 72
    33
 73
    29
 74
    27
 42
0.000000001
 43
0.0000000001
 44
0.00000001
 40
0.0
 40
0.0
 40
0.0
 40
0.0
 40
0.6660942065947836
 40
1.332190221276471
 40
1.699632942691423
 40
2.067077051446503
 40
2.470589211701839
 40
2.87410700574553
 40
3.334983197926087
 40
3.795855498283458
 40
4.367402400501937
 40
4.939051288057401
 40
5.929102488372037
 40
6.919199819071104
 40
7.841546050681659
 40
8.763892282292241
 40
9.753989612991408
 40
10.74404081330609
 40
11.31568970086155
 40
11.88723660308007
 40
12.3481089034374
 40
12.80898509561789
 40
13.21250288966159
 40
13.61601504991694
 40
13.98345915867202
 40
14.35090188008694
 40
15.01699789476859
 40
15.68309210136343
 40
15.68309210136343
 40
15.68309210136343
 40
15.68309210136343
 10
171.8333679729054
 20
124.9238288652776
 30
0.0
 10
171.9313058863998
 20
124.7245525871484
 30
0.0
 10
172.1271819660222
 20
124.3259994835569
 30
0.0
 10
172.3603774369927
 20
123.8095525532813
 30
0.0
 10
172.5437562858502
 20
123.3800571710233
 30
0.0
 10
172.6868092349814
 20
123.028565867293
 30
0.0
 10
172.8277307227995
 20
122.6632899936534
 30
0.0
 10
172.9717989639761
 20
122.2659360641875
 30
0.0
 10
173.112816386788
 20
121.847241840591
 30
0.0
 10
173.2594407337824
 20
121.3715051513319
 30
0.0
 10
173.4012394258815
 20
120.8558387907748
 30
0.0
 10
173.5648726220234
 20
120.1636970869301
 30
0.0
 10
173.7169482375318
 20
119.3260813837125
 30
0.0
 10
173.8218899835614
 20
118.3634062655514
 30
0.0
 10
173.8552377497524
 20
117.4182753658125
 30
0.0
 10
173.8218899835614
 20
116.4731444660736
 30
0.0
 10
173.7169482375318
 20
115.5104693479123
 30
0.0
 10
173.5648726220235
 20
114.6728536446947
 30
0.0
 10
173.4012394258815
 20
113.98071194085
 30
0.0
 10
173.2594407337825
 20
113.4650455802929
 30
0.0
 10
173.112816386788
 20
112.9893088910338
 30
0.0
 10
172.9717989639759
 20
112.5706146674374
 30
0.0
 10
172.8277307227996
 20
112.1732607379714
 30
0.0
 10
172.6868092349814
 20
111.8079848643319
 30
0.0
 10
172.5437562858502
 20
111.4564935606017
 30
0.0
 10
172.3603774369927
 20
111.0269981783435
 30
0.0
 10
172.1271819660223
 20
110.5105512480681
 30
0.0
 10
171.9313058863999
 20
110.1119981444765
 30
0.0
 10
171.8333679729054
 20
109.9127218663473
 30
0.0
 11
171.8333679729054
 21
124.9238288652776
 31
0.0
 11
172.1239079657844
 21
124.3244391707145
 31
0.0
 11
172.398644722638
 21
123.7176413330059
 31
0.0
 11
172.5427949811402
 21
123.3796548589555
 31
0.0
 11
172.6812830975042
 21
123.0393076614968
 31
0.0
 11
172.8264468986436
 21
122.6628112678034
 31
0.0
 11
172.9639214723706
 21
122.283433683022
 31
0.0
 11
173.1109229661508
 21
121.8466300365945
 31
0.0
 11
173.2465598472368
 21
121.4061690123123
 31
0.0
 11
173.3978890960665
 21
120.8550199216198
 31
0.0
 11
173.529198222103
 21
120.2986564034477
 31
0.0
 11
173.705342475679
 21
119.3244004914448
 31
0.0
 11
173.8118365969693
 21
118.3400470349569
 31
0.0
 11
173.8443875067478
 21
117.4182753658125
 31
0.0
 11
173.8118365969693
 21
116.4965036966681
 31
0.0
 11
173.705342475679
 21
115.5121502401801
 31
0.0
 11
173.529198222103
 21
114.5378943281772
 31
0.0
 11
173.3978890960665
 21
113.9815308100051
 31
0.0
 11
173.2465598472368
 21
113.4303817193125
 31
0.0
 11
173.1109229661508
 21
112.9899206950303
 31
0.0
 11
172.9639214723705
 21
112.5531170486029
 31
0.0
 11
172.8264468986436
 21
112.1737394638214
 31
0.0
 11
172.6812830975042
 21
111.7972430701281
 31
0.0
 11
172.5427949811402
 21
111.4568958726694
 31
0.0
 11
172.398644722638
 21
111.1189093986191
 31
0.0
 11
172.1239079657844
 21
110.5121115609104
 31
0.0
 11
171.8333679729054
 21
109.9127218663473
 31
0.0
  0
SPLINE
  5
C9
330
4A
100
AcDbEntity
  8
1
  6
Continuous
 62
     7
100
AcDbSpline
210
0.0
220
0.0
230
1.0
 70
     8
 71
     3
 72
    33
 73
    29
 74
    27
 42
0.000000001
 43
0.0000000001
 44
0.00000001
 40
0.0
 40
0.0
 40
0.0
 40
0.0
 40
0.4133568979875409
 40
0.826714895829473
 40
1.047477426098105
 40
1.268240269860696
 40
1.504227365470683
 40
1.740225678003656
 40
2.001195134575759
 40
2.262139226749277
 40
2.573023660009677
 40
2.884147970269523
 40
3.395079508021817
 40
3.905704149328142
 40
4.367715773750187
 40
4.829727398172201
 40
5.340352039478602
 40
5.851283577230898
 40
6.162407887490718
 40
6.473292320751118
 40
6.734236412924661
 40
6.995205869496751
 40
7.231204182029718
 40
7.467191277639648
 40
7.687954121402228
 40
7.90871665167082
 40
8.322074649512762
 40
8.735431547500243
 40
8.735431547500243
 40
8.735431547500243
 40
8.735431547500243
 10
171.8333679729053
 20
102.4071683668822
 30
0.0
 10
171.9299844259952
 20
102.5054185679468
 30
0.0
 10
172.1232175790028
 20
102.7019192414348
 30
0.0
 10
172.3574945374191
 20
102.960973105397
 30
0.0
 10
172.5425876144934
 20
103.1776559120637
 30
0.0
 10
172.6852094943604
 20
103.3527909090322
 30
0.0
 10
172.8263538963996
 20
103.5355875974215
 30
0.0
 10
172.9698622918298
 20
103.7333638804676
 30
0.0
 10
173.1111451811878
 20
103.9428799255619
 30
0.0
 10
173.2569759845906
 20
104.1791783356405
 30
0.0
 10
173.3991980947449
 20
104.437048887169
 30
0.0
 10
173.5610243902702
 20
104.778514670636
 30
0.0
 10
173.7141884586071
 20
105.1967214762361
 30
0.0
 10
173.8214831179159
 20
105.6813056440701
 30
0.0
 10
173.8547989021793
 20
106.1599451166148
 30
0.0
 10
173.8214831179159
 20
106.6385845891595
 30
0.0
 10
173.7141884586071
 20
107.1231687569936
 30
0.0
 10
173.5610243902703
 20
107.5413755625937
 30
0.0
 10
173.399198094745
 20
107.8828413460606
 30
0.0
 10
173.2569759845906
 20
108.1407118975891
 30
0.0
 10
173.1111451811878
 20
108.3770103076678
 30
0.0
 10
172.9698622918298
 20
108.586526352762
 30
0.0
 10
172.8263538963995
 20
108.7843026358081
 30
0.0
 10
172.6852094943605
 20
108.9670993241974
 30
0.0
 10
172.5425876144934
 20
109.1422343211659
 30
0.0
 10
172.3574945374191
 20
109.3589171278325
 30
0.0
 10
172.1232175790029
 20
109.6179709917948
 30
0.0
 10
171.9299844259953
 20
109.8144716652826
 30
0.0
 10
171.8333679729054
 20
109.9127218663473
 30
0.0
 11
171.8333679729053
 21
102.4071683668822
 31
0.0
 11
172.12113444782
 21
102.7039079551664
 31
0.0
 11
172.3986447226379
 21
103.010262133018
 31
0.0
 11
172.5419247676028
 21
103.1782113026991
 31
0.0
 11
172.6812830975042
 21
103.3494289687725
 31
0.0
 11
172.8254134433664
 21
103.5362881478591
 31
0.0
 11
172.9639214723705
 21
103.72736595801
 31
0.0
 11
173.1096752062887
 21
103.9438397588537
 31
0.0
 11
173.2465598472368
 21
104.1659982933648
 31
0.0
 11
173.3963255886475
 21
104.4384305854226
 31
0.0
 11
173.529198222103
 21
104.7197545977972
 31
0.0
 11
173.703335768847
 21
105.2000952599764
 31
0.0
 11
173.8118365969693
 21
105.6990592820424
 31
0.0
 11
173.8440699523334
 21
106.1599451166148
 31
0.0
 11
173.8118365969693
 21
106.6208309511872
 31
0.0
 11
173.703335768847
 21
107.1197949732533
 31
0.0
 11
173.5291982221031
 21
107.6001356354325
 31
0.0
 11
173.3963255886475
 21
107.881459647807
 31
0.0
 11
173.2465598472368
 21
108.1538919398648
 31
0.0
 11
173.1096752062887
 21
108.376050474376
 31
0.0
 11
172.9639214723705
 21
108.5925242752197
 31
0.0
 11
172.8254134433664
 21
108.7836020853705
 31
0.0
 11
172.6812830975042
 21
108.9704612644571
 31
0.0
 11
172.5419247676029
 21
109.1416789305305
 31
0.0
 11
172.398644722638
 21
109.3096281002116
 31
0.0
 11
172.1211344478201
 21
109.6159822780632
 31
0.0
 11
171.8333679729054
 21
109.9127218663473
 31
0.0
  0
SPLINE
  5
CA
330
4A
100
AcDbEntity
  8
1
  6
Continuous
 62
     7
100
AcDbSpline
210
0.0
220
0.0
230
1.0
 70
     8
 71
     3
 72
    33
 73
    29
 74
    27
 42
0.000000001
 43
0.0000000001
 44
0.00000001
 40
0.0
 40
0.0
 40
0.0
 40
0.0
 40
0.4133568979874816
 40
0.8267148958294136
 40
1.047477426098064
 40
1.268240269860655
 40
1.50422736547066
 40
1.740225678003633
 40
2.001195134575703
 40
2.262139226749222
 40
2.573023660009622
 40
2.884147970269444
 40
3.395079508021727
 40
3.905704149328077
 40
4.367715773750121
 40
4.82972739817214
 40
5.340352039478552
 40
5.851283577230848
 40
6.162407887490644
 40
6.473292320751044
 40
6.734236412924573
 40
6.995205869496647
 40
7.231204182029614
 40
7.467191277639562
 40
7.68795412140216
 40
7.90871665167077
 40
8.322074649512732
 40
8.735431547500154
 40
8.735431547500154
 40
8.735431547500154
 40
8.735431547500154
 10
167.0944749718356
 20
102.4071683668822
 30
0.0
 10
166.9978585187457
 20
102.5054185679469
 30
0.0
 10
166.8046253657382
 20
102.7019192414348
 30
0.0
 10
166.5703484073219
 20
102.960973105397
 30
0.0
 10
166.3852553302476
 20
103.1776559120637
 30
0.0
 10
166.2426334503805
 20
103.3527909090321
 30
0.0
 10
166.1014890483414
 20
103.5355875974215
 30
0.0
 10
165.9579806529111
 20
103.7333638804676
 30
0.0
 10
165.8166977635533
 20
103.9428799255619
 30
0.0
 10
165.6708669601504
 20
104.1791783356405
 30
0.0
 10
165.528644849996
 20
104.437048887169
 30
0.0
 10
165.3668185544708
 20
104.778514670636
 30
0.0
 10
165.213654486134
 20
105.196721476236
 30
0.0
 10
165.1063598268251
 20
105.6813056440701
 30
0.0
 10
165.0730440425616
 20
106.1599451166148
 30
0.0
 10
165.1063598268251
 20
106.6385845891595
 30
0.0
 10
165.213654486134
 20
107.1231687569936
 30
0.0
 10
165.3668185544708
 20
107.5413755625937
 30
0.0
 10
165.5286448499961
 20
107.8828413460606
 30
0.0
 10
165.6708669601504
 20
108.1407118975891
 30
0.0
 10
165.8166977635532
 20
108.3770103076678
 30
0.0
 10
165.9579806529112
 20
108.586526352762
 30
0.0
 10
166.1014890483415
 20
108.7843026358081
 30
0.0
 10
166.2426334503805
 20
108.9670993241974
 30
0.0
 10
166.3852553302476
 20
109.1422343211659
 30
0.0
 10
166.5703484073219
 20
109.3589171278325
 30
0.0
 10
166.8046253657382
 20
109.6179709917948
 30
0.0
 10
166.9978585187457
 20
109.8144716652826
 30
0.0
 10
167.0944749718356
 20
109.9127218663473
 30
0.0
 11
167.0944749718356
 21
102.4071683668822
 31
0.0
 11
166.806708496921
 21
102.7039079551664
 31
0.0
 11
166.5291982221031
 21
103.010262133018
 31
0.0
 11
166.3859181771381
 21
103.1782113026991
 31
0.0
 11
166.2465598472368
 21
103.3494289687725
 31
0.0
 11
166.1024295013746
 21
103.5362881478591
 31
0.0
 11
165.9639214723705
 21
103.72736595801
 31
0.0
 11
165.8181677384523
 21
103.9438397588537
 31
0.0
 11
165.6812830975042
 21
104.1659982933648
 31
0.0
 11
165.5315173560935
 21
104.4384305854226
 31
0.0
 11
165.398644722638
 21
104.7197545977972
 31
0.0
 11
165.2245071758941
 21
105.2000952599764
 31
0.0
 11
165.1160063477717
 21
105.6990592820424
 31
0.0
 11
165.0837729924075
 21
106.1599451166148
 31
0.0
 11
165.1160063477717
 21
106.6208309511872
 31
0.0
 11
165.2245071758941
 21
107.1197949732533
 31
0.0
 11
165.398644722638
 21
107.6001356354325
 31
0.0
 11
165.5315173560935
 21
107.881459647807
 31
0.0
 11
165.6812830975042
 21
108.1538919398648
 31
0.0
 11
165.8181677384523
 21
108.376050474376
 31
0.0
 11
165.9639214723705
 21
108.5925242752197
 31
0.0
 11
166.1024295013746
 21
108.7836020853705
 31
0.0
 11
166.2465598472368
 21
108.9704612644571
 31
0.0
 11
166.3859181771382
 21
109.1416789305305
 31
0.0
 11
166.5291982221031
 21
109.3096281002116
 31
0.0
 11
166.806708496921
 21
109.6159822780632
 31
0.0
 11
167.0944749718356
 21
109.9127218663473
 31
0.0
  0
ARC
  5
CB
330
4A
100
AcDbEntity
  8
1
  6
Continuous
 62
     7
100
AcDbCircle
 10
40.36104504510125
 20
217.1087740442002
 30
0.0
 40
5.000000000000028
100
AcDbArc
 50
0.0
 51
25.84193276316712
  0
ARC
  5
CC
330
4A
100
AcDbEntity
  8
1
  6
Continuous
 62
     7
100
AcDbCircle
 10
75.36104504510138
 20
217.1087740442002
 30
0.0
 40
5.000000000000129
100
AcDbArc
 50
154.1580672368328
 51
180.0
  0
ARC
  5
CD
330
4A
100
AcDbEntity
  8
1
  6
Continuous
 62
     7
100
AcDbCircle
 10
162.5123001610399
 20
99.91827536581252
 30
0.0
 40
4.99999999999995
100
AcDbArc
 50
44.99999999999805
 51
90.0
  0
ARC
  5
CE
330
4A
100
AcDbEntity
  8
1
  6
Continuous
 62
     7
100
AcDbCircle
 10
161.5944749718356
 20
134.9182753658126
 30
0.0
 40
5.0
100
AcDbArc
 50
180.0
 51
270.0
  0
ARC
  5
CF
330
4A
100
AcDbEntity
  8
1
  6
Continuous
 62
     7
100
AcDbCircle
 10
162.5123001610399
 20
134.9182753658126
 30
0.0
 40
5.0
100
AcDbArc
 50
270.0
 51
314.9999999999993
  0
ENDBLK
  5
4C
330
4A
100
AcDbEntity
  8
0
100
AcDbBlockEnd
  0
BLOCK
  5
4E
330
4D
100
AcDbEntity
  8
0
100
AcDbBlockBegin
  2
36-54A
 70
     0
 10
435.7787589955043
 20
49.31993217054621
 30
0.0
  3
36-54A
  1

  0
LINE
  5
D0
330
4D
100
AcDbEntity
  8
1
  6
Continuous
 62
     7
100
AcDbLine
 10
53.17062928527795
 20
118.168275365813
 30
0.0
 11
62.55146080492477
 21
118.168275365813
 31
0.0
  0
LINE
  5
D1
330
4D
100
AcDbEntity
  8
1
  6
Continuous
 62
     7
100
AcDbLine
 10
53.17062928527795
 20
116.668275365813
 30
0.0
 11
62.55146080492477
 21
116.668275365813
 31
0.0
  0
LINE
  5
D2
330
4D
100
AcDbEntity
  8
1
  6
Continuous
 62
     7
100
AcDbLine
 10
53.11104504510138
 20
168.690948854996
 30
0.0
 11
62.61104504510138
 21
168.690948854996
 31
0.0
  0
LINE
  5
D3
330
4D
100
AcDbEntity
  8
1
  6
Continuous
 62
     7
100
AcDbLine
 10
62.61104504510138
 20
168.690948854996
 30
0.0
 11
62.61104504510138
 21
170.190948854996
 31
0.0
  0
LINE
  5
D4
330
4D
100
AcDbEntity
  8
1
  6
Continuous
 62
     7
100
AcDbLine
 10
61.61104504510138
 20
167.690948854996
 30
0.0
 11
62.61104504510138
 21
168.690948854996
 31
0.0
  0
LINE
  5
D5
330
4D
100
AcDbEntity
  8
1
  6
Continuous
 62
     7
100
AcDbLine
 10
53.11104504510138
 20
168.690948854996
 30
0.0
 11
54.11104504510138
 21
167.690948854996
 31
0.0
  0
LINE
  5
D6
330
4D
100
AcDbEntity
  8
1
  6
Continuous
 62
     7
100
AcDbLine
 10
53.11104504510138
 20
170.190948854996
 30
0.0
 11
53.11104504510138
 21
168.690948854996
 31
0.0
  0
LINE
  5
D7
330
4D
100
AcDbEntity
  8
1
  6
Continuous
 62
     7
100
AcDbLine
 10
61.61104504510138
 20
167.690948854996
 30
0.0
 11
54.11104504510138
 21
167.690948854996
 31
0.0
  0
LINE
  5
D8
330
4D
100
AcDbEntity
  8
1
  6
Continuous
 62
     7
100
AcDbLine
 10
114.0944749718356
 20
116.5182753658125
 30
0.0
 11
115.5944749718356
 21
116.5182753658125
 31
0.0
  0
LINE
  5
D9
330
4D
100
AcDbEntity
  8
1
  6
Continuous
 62
     7
100
AcDbLine
 10
114.0944749718356
 20
112.6682753658125
 30
0.0
 11
114.0944749718356
 21
116.5182753658125
 31
0.0
  0
LINE
  5
DA
330
4D
100
AcDbEntity
  8
1
  6
Continuous
 62
     7
100
AcDbLine
 10
114.0944749718356
 20
118.3182753658125
 30
0.0
 11
113.0944749718356
 21
118.3182753658125
 31
0.0
  0
LINE
  5
DB
330
4D
100
AcDbEntity
  8
1
  6
Continuous
 62
     7
100
AcDbLine
 10
114.0944749718356
 20
122.1682753658125
 30
0.0
 11
114.0944749718356
 21
118.3182753658125
 31
0.0
  0
LINE
  5
DC
330
4D
100
AcDbEntity
  8
1
  6
Continuous
 62
     7
100
AcDbLine
 10
113.0944749718356
 20
113.6682753658125
 30
0.0
 11
113.0944749718356
 21
116.5182753658125
 31
0.0
  0
LINE
  5
DD
330
4D
100
AcDbEntity
  8
1
  6
Continuous
 62
     7
100
AcDbLine
 10
113.0944749718356
 20
116.5182753658125
 30
0.0
 11
114.0944749718356
 21
116.5182753658125
 31
0.0
  0
LINE
  5
DE
330
4D
100
AcDbEntity
  8
1
  6
Continuous
 62
     7
100
AcDbLine
 10
114.0944749718356
 20
112.6682753658125
 30
0.0
 11
115.5944749718356
 21
112.6682753658125
 31
0.0
  0
LINE
  5
DF
330
4D
100
AcDbEntity
  8
1
  6
Continuous
 62
     7
100
AcDbLine
 10
113.0944749718356
 20
113.6682753658125
 30
0.0
 11
114.0944749718356
 21
112.6682753658125
 31
0.0
  0
LINE
  5
E0
330
4D
100
AcDbEntity
  8
1
  6
Continuous
 62
     7
100
AcDbLine
 10
114.0944749718356
 20
122.1682753658125
 30
0.0
 11
113.0944749718356
 21
121.1682753658125
 31
0.0
  0
LINE
  5
E1
330
4D
100
AcDbEntity
  8
1
  6
Continuous
 62
     7
100
AcDbLine
 10
115.5944749718356
 20
122.1682753658125
 30
0.0
 11
114.0944749718356
 21
122.1682753658125
 31
0.0
  0
LINE
  5
E2
330
4D
100
AcDbEntity
  8
1
  6
Continuous
 62
     7
100
AcDbLine
 10
115.5944749718356
 20
118.3182753658125
 30
0.0
 11
114.0944749718356
 21
118.3182753658125
 31
0.0
  0
LINE
  5
E3
330
4D
100
AcDbEntity
  8
1
  6
Continuous
 62
     7
100
AcDbLine
 10
113.0944749718356
 20
118.3182753658125
 30
0.0
 11
113.0944749718356
 21
121.1682753658125
 31
0.0
  0
LINE
  5
E4
330
4D
100
AcDbEntity
  8
1
  6
Continuous
 62
     7
100
AcDbLine
 10
54.39694342996364
 20
206.190948854996
 30
0.0
 11
61.32514666023911
 21
206.190948854996
 31
0.0
  0
LINE
  5
E5
330
4D
100
AcDbEntity
  8
1
  6
Continuous
 62
     7
100
AcDbLine
 10
64.3417857435092
 20
201.190948854996
 30
0.0
 11
51.38030434669355
 21
201.190948854996
 31
0.0
  0
LINE
  5
E6
330
4D
100
AcDbEntity
  8
1
  6
Continuous
 62
     7
100
AcDbLine
 10
62.61104504510138
 20
201.190948854996
 30
0.0
 11
62.61104504510138
 21
196.690948854996
 31
0.0
  0
LINE
  5
E7
330
4D
100
AcDbEntity
  8
1
  6
Continuous
 62
     7
100
AcDbLine
 10
53.11104504510138
 20
196.690948854996
 30
0.0
 11
53.11104504510138
 21
201.190948854996
 31
0.0
  0
ARC
  5
E8
330
4D
100
AcDbEntity
  8
1
  6
Continuous
 62
     7
100
AcDbCircle
 10
57.86104504510146
 20
117.418275365813
 30
0.0
 40
3.749999999999552
100
AcDbArc
 50
11.53695903281689
 51
168.4630409671852
  0
ARC
  5
E9
330
4D
100
AcDbEntity
  8
1
  6
Continuous
 62
     7
100
AcDbCircle
 10
57.86104504510146
 20
117.418275365813
 30
0.0
 40
4.749999999999882
100
AcDbArc
 50
9.08472028739131
 51
170.9152797126091
  0
ARC
  5
EA
330
4D
100
AcDbEntity
  8
1
  6
Continuous
 62
     7
100
AcDbCircle
 10
57.86104504510146
 20
117.418275365813
 30
0.0
 40
3.75000000000022
100
AcDbArc
 50
191.5369590328148
 51
348.4630409671831
  0
ARC
  5
EB
330
4D
100
AcDbEntity
  8
1
  6
Continuous
 62
     7
100
AcDbCircle
 10
57.86104504510146
 20
117.418275365813
 30
0.0
 40
4.750000000000085
100
AcDbArc
 50
189.0847202873909
 51
350.9152797126087
  0
ARC
  5
EC
330
4D
100
AcDbEntity
  8
1
  6
Continuous
 62
     7
100
AcDbCircle
 10
57.86104504510146
 20
117.418275365813
 30
0.0
 40
4.749999999999882
100
AcDbArc
 50
350.9152797126087
 51
9.08472028739131
  0
ARC
  5
ED
330
4D
100
AcDbEntity
  8
1
  6
Continuous
 62
     7
100
AcDbCircle
 10
57.86104504510146
 20
117.418275365813
 30
0.0
 40
4.750000000000085
100
AcDbArc
 50
170.9152797126091
 51
189.0847202873909
  0
ENDBLK
  5
4F
330
4D
100
AcDbEntity
  8
0
100
AcDbBlockEnd
  0
BLOCK
  5
51
330
50
100
AcDbEntity
  8
0
100
AcDbBlockBegin
  2
37-1-13
 70
     0
 10
488.59018086198
 20
25.61704514904152
 30
0.0
  3
37-1-13
  1

  0
LINE
  5
EE
330
50
100
AcDbEntity
  8
1
  6
Continuous
 62
     7
100
AcDbLine
 10
44.86104504510126
 20
117.418275365813
 30
0.0
 11
44.86104504510126
 21
123.8408916551455
 31
0.0
  0
LINE
  5
EF
330
50
100
AcDbEntity
  8
1
  6
Continuous
 62
     7
100
AcDbLine
 10
45.79889617977956
 20
125.4652974703444
 30
0.0
 11
51.36104504510126
 21
128.6766056150106
 31
0.0
  0
LINE
  5
F0
330
50
100
AcDbEntity
  8
1
  6
Continuous
 62
     7
100
AcDbLine
 10
51.36104504510126
 20
128.6766056150106
 30
0.0
 11
56.92319391042287
 21
131.8879137596769
 31
0.0
  0
LINE
  5
F1
330
50
100
AcDbEntity
  8
1
  6
Continuous
 62
     7
100
AcDbLine
 10
58.79889617977958
 20
131.8879137596769
 30
0.0
 11
64.36104504510146
 21
128.6766056150107
 31
0.0
  0
LINE
  5
F2
330
50
100
AcDbEntity
  8
1
  6
Continuous
 62
     7
100
AcDbLine
 10
64.36104504510146
 20
128.6766056150107
 30
0.0
 11
69.92319391042287
 21
125.4652974703444
 31
0.0
  0
LINE
  5
F3
330
50
100
AcDbEntity
  8
1
  6
Continuous
 62
     7
100
AcDbLine
 10
70.86104504510126
 20
123.8408916551455
 30
0.0
 11
70.86104504510146
 21
117.418275365813
 31
0.0
  0
LINE
  5
F4
330
50
100
AcDbEntity
  8
1
  6
Continuous
 62
     7
100
AcDbLine
 10
70.86104504510146
 20
117.418275365813
 30
0.0
 11
70.86104504510126
 21
110.9956590764804
 31
0.0
  0
LINE
  5
F5
330
50
100
AcDbEntity
  8
1
  6
Continuous
 62
     7
100
AcDbLine
 10
69.92319391042287
 20
109.3712532612815
 30
0.0
 11
64.36104504510146
 21
106.1599451166153
 31
0.0
  0
LINE
  5
F6
330
50
100
AcDbEntity
  8
1
  6
Continuous
 62
     7
100
AcDbLine
 10
64.36104504510146
 20
106.1599451166153
 30
0.0
 11
58.79889617977958
 21
102.9486369719489
 31
0.0
  0
LINE
  5
F7
330
50
100
AcDbEntity
  8
1
  6
Continuous
 62
     7
100
AcDbLine
 10
56.92319391042287
 20
102.948636971949
 30
0.0
 11
51.36104504510146
 21
106.1599451166153
 31
0.0
  0
LINE
  5
F8
330
50
100
AcDbEntity
  8
1
  6
Continuous
 62
     7
100
AcDbLine
 10
51.36104504510146
 20
106.1599451166153
 30
0.0
 11
45.79889617977956
 21
109.3712532612815
 31
0.0
  0
LINE
  5
F9
330
50
100
AcDbEntity
  8
1
  6
Continuous
 62
     7
100
AcDbLine
 10
44.86104504510126
 20
110.9956590764803
 30
0.0
 11
44.86104504510126
 21
117.418275365813
 31
0.0
  0
LINE
  5
FA
330
50
100
AcDbEntity
  8
1
  6
Continuous
 62
     7
100
AcDbLine
 10
70.86104504510118
 20
177.01870759652
 30
0.0
 11
70.86104504510118
 21
184.190948854996
 31
0.0
  0
LINE
  5
FB
330
50
100
AcDbEntity
  8
1
  6
Continuous
 62
     7
100
AcDbLine
 10
44.86104504510116
 20
184.190948854996
 30
0.0
 11
44.86104504510136
 21
177.01870759652
 31
0.0
  0
LINE
  5
FC
330
50
100
AcDbEntity
  8
1
  6
Continuous
 62
     7
100
AcDbLine
 10
70.86104504510118
 20
184.190948854996
 30
0.0
 11
44.86104504510116
 21
184.190948854996
 31
0.0
  0
LINE
  5
FD
330
50
100
AcDbEntity
  8
1
  6
Continuous
 62
     7
100
AcDbLine
 10
63.86104504510158
 20
170.190948854996
 30
0.0
 11
51.86104504510118
 21
170.190948854996
 31
0.0
  0
LINE
  5
FE
330
50
100
AcDbEntity
  8
1
  6
Continuous
 62
     7
100
AcDbLine
 10
129.5944749718356
 20
130.488989580084
 30
0.0
 11
129.5944749718356
 21
104.3475611515411
 31
0.0
  0
LINE
  5
FF
330
50
100
AcDbEntity
  8
1
  6
Continuous
 62
     7
100
AcDbLine
 10
115.5944749718356
 20
123.4182753658125
 30
0.0
 11
115.5944749718356
 21
111.4182753658125
 31
0.0
  0
ARC
  5
100
330
50
100
AcDbEntity
  8
1
  6
Continuous
 62
     7
100
AcDbCircle
 10
57.86104504510146
 20
117.4182753658129
 30
0.0
 40
14.50000000000017
100
AcDbArc
 50
146.2915552747295
 51
150.0000000000001
  0
ARC
  5
101
330
50
100
AcDbEntity
  8
1
  6
Continuous
 62
     7
100
AcDbCircle
 10
57.86104504510146
 20
117.4182753658129
 30
0.0
 40
14.50000000000025
100
AcDbArc
 50
150.0000000000001
 51
153.7084447252709
  0
ARC
  5
102
330
50
100
AcDbEntity
  8
1
  6
Continuous
 62
     7
100
AcDbCircle
 10
57.86104504510146
 20
117.4182753658129
 30
0.0
 40
14.50000000000001
100
AcDbArc
 50
86.2915552747299
 51
93.70844472527197
  0
ARC
  5
103
330
50
100
AcDbEntity
  8
1
  6
Continuous
 62
     7
100
AcDbCircle
 10
57.86104504510146
 20
117.4182753658129
 30
0.0
 40
14.49999999999983
100
AcDbArc
 50
26.29155527472982
 51
33.70844472527163
  0
ARC
  5
104
330
50
100
AcDbEntity
  8
1
  6
Continuous
 62
     7
100
AcDbCircle
 10
57.86104504510146
 20
117.4182753658129
 30
0.0
 40
14.49999999999974
100
AcDbArc
 50
329.9999999999998
 51
333.7084447252705
  0
ARC
  5
105
330
50
100
AcDbEntity
  8
1
  6
Continuous
 62
     7
100
AcDbCircle
 10
57.86104504510146
 20
117.4182753658129
 30
0.0
 40
14.49999999999971
100
AcDbArc
 50
326.2915552747287
 51
329.9999999999998
  0
ARC
  5
106
330
50
100
AcDbEntity
  8
1
  6
Continuous
 62
     7
100
AcDbCircle
 10
57.86104504510146
 20
117.4182753658129
 30
0.0
 40
14.49999999999994
100
AcDbArc
 50
266.291555274728
 51
273.7084447252701
  0
ARC
  5
107
330
50
100
AcDbEntity
  8
1
  6
Continuous
 62
     7
100
AcDbCircle
 10
57.86104504510146
 20
117.4182753658129
 30
0.0
 40
14.5000000000002
100
AcDbArc
 50
206.2915552747291
 51
213.7084447252703
  0
ARC
  5
108
330
50
100
AcDbEntity
  8
1
  6
Continuous
 62
     7
100
AcDbCircle
 10
57.86104504510146
 20
117.4182753658129
 30
0.0
 40
13.00000000000021
100
AcDbArc
 50
179.9999999999996
 51
239.9999999999997
  0
ARC
  5
109
330
50
100
AcDbEntity
  8
1
  6
Continuous
 62
     7
100
AcDbCircle
 10
57.86104504510146
 20
117.4182753658129
 30
0.0
 40
13.0000000000001
100
AcDbArc
 50
120.0000000000008
 51
179.9999999999996
  0
ARC
  5
10A
330
50
100
AcDbEntity
  8
1
  6
Continuous
 62
     7
100
AcDbCircle
 10
57.86104504510146
 20
117.4182753658129
 30
0.0
 40
13.00000000000007
100
AcDbArc
 50
60.00000000000018
 51
120.0000000000008
  0
ARC
  5
10B
330
50
100
AcDbEntity
  8
1
  6
Continuous
 62
     7
100
AcDbCircle
 10
57.86104504510146
 20
117.4182753658129
 30
0.0
 40
13.0
100
AcDbArc
 50
0.00000000000044
 51
60.00000000000018
  0
ARC
  5
10C
330
50
100
AcDbEntity
  8
1
  6
Continuous
 62
     7
100
AcDbCircle
 10
57.86104504510146
 20
117.4182753658129
 30
0.0
 40
12.99999999999991
100
AcDbArc
 50
300.0000000000002
 51
0.00000000000044
  0
ARC
  5
10D
330
50
100
AcDbEntity
  8
1
  6
Continuous
 62
     7
100
AcDbCircle
 10
57.86104504510146
 20
117.4182753658129
 30
0.0
 40
12.99999999999991
100
AcDbArc
 50
239.9999999999997
 51
300.0000000000002
  0
ARC
  5
10E
330
50
100
AcDbEntity
  8
1
  6
Continuous
 62
     7
100
AcDbCircle
 10
83.76750025021627
 20
156.7844936498812
 30
0.0
 40
23.99999999999988
100
AcDbArc
 50
122.5318915177488
 51
123.9591925000981
  0
ARC
  5
10F
330
50
100
AcDbEntity
  8
1
  6
Continuous
 62
     7
100
AcDbCircle
 10
31.95458983998637
 20
156.7844936498812
 30
0.0
 40
23.99999999999984
100
AcDbArc
 50
33.95919250009743
 51
56.04080749990206
  0
ARC
  5
110
330
50
100
AcDbEntity
  8
1
  6
Continuous
 62
     7
100
AcDbCircle
 10
83.76750025021627
 20
156.7844936498812
 30
0.0
 40
23.99999999999991
100
AcDbArc
 50
123.9591925000981
 51
146.0408074999024
  0
ARC
  5
111
330
50
100
AcDbEntity
  8
1
  6
Continuous
 62
     7
100
AcDbCircle
 10
31.95458983998637
 20
156.7844936498812
 30
0.0
 40
23.99999999999985
100
AcDbArc
 50
56.04080749990206
 51
57.46810848225142
  0
ARC
  5
112
330
50
100
AcDbEntity
  8
1
  6
Continuous
 62
     7
100
AcDbCircle
 10
126.0944749718356
 20
126.9182753658125
 30
0.0
 40
5.000000000000057
100
AcDbArc
 50
45.5729959991947
 51
143.1301023541576
  0
ARC
  5
113
330
50
100
AcDbEntity
  8
1
  6
Continuous
 62
     7
100
AcDbCircle
 10
102.1880197667207
 20
143.3247305709274
 30
0.0
 40
23.99999999999995
100
AcDbArc
 50
303.9591925000975
 51
326.0408074999022
  0
ARC
  5
114
330
50
100
AcDbEntity
  8
1
  6
Continuous
 62
     7
100
AcDbCircle
 10
126.0944749718356
 20
107.9182753658125
 30
0.0
 40
4.99999999999996
100
AcDbArc
 50
216.8698976458415
 51
314.427004000806
  0
ARC
  5
115
330
50
100
AcDbEntity
  8
1
  6
Continuous
 62
     7
100
AcDbCircle
 10
102.1880197667207
 20
91.51182016069761
 30
0.0
 40
23.99999999999999
100
AcDbArc
 50
33.95919250009801
 51
56.04080749990252
  0
CIRCLE
  5
116
330
50
100
AcDbEntity
  8
1
  6
Continuous
 62
     7
100
AcDbCircle
 10
57.86104504510146
 20
117.4182753658129
 30
0.0
 40
5.999999999999827
  0
CIRCLE
  5
117
330
50
100
AcDbEntity
  8
1
  6
Continuous
 62
     7
100
AcDbCircle
 10
57.86104504510146
 20
117.4182753658129
 30
0.0
 40
4.999999999999973
  0
SPLINE
  5
118
330
50
100
AcDbEntity
  8
1
  6
Continuous
 62
     7
100
AcDbSpline
210
0.0
220
0.0
230
1.0
 70
    11
 71
     3
 72
    79
 73
    75
 74
    73
 42
0.000000001
 43
0.0000000001
 44
0.00000001
 40
0.0
 40
0.0
 40
0.0
 40
0.0
 40
0.3142773791655509
 40
0.6283112355322666
 40
0.961229371615078
 40
1.293805033313614
 40
1.653399986144863
 40
2.012687705977652
 40
2.402596354380346
 40
2.792277131488536
 40
3.212125598200212
 40
3.631818884954883
 40
4.078023826726977
 40
4.524128912110628
 40
4.990742661800819
 40
5.457297384742765
 40
5.936768749021378
 40
6.416212748943281
 40
6.900062532357435
 40
7.383912315770958
 40
7.863356315690581
 40
8.34282767996431
 40
8.809382402897288
 40
9.275996152571745
 40
9.72210123793048
 40
10.16830617966302
 40
10.58799946636096
 40
11.00784793298827
 40
11.3975287099831
 40
11.78743735822376
 40
12.1467250778455
 40
12.5063200303766
 40
12.8388956916601
 40
13.17181382703827
 40
13.48584768136866
 40
13.80012506793183
 40
14.10756996269027
 40
14.41501485744759
 40
14.72929224400734
 40
15.04332609833238
 40
15.37624423370322
 40
15.70881989497839
 40
16.0684148475
 40
16.42770256711205
 40
16.81761121534215
 40
17.20729199232665
 40
17.62714045894333
 40
18.04683374563115
 40
18.49303868735365
 40
18.93914377270301
 40
19.40575752236841
 40
19.87231224529311
 40
20.35178360955915
 40
20.83122760947193
 40
21.3150773928794
 40
21.79892717628836
 40
22.27837117620602
 40
22.75784254048127
 40
23.22439726342098
 40
23.69101101310986
 40
24.13711609849303
 40
24.58332104026499
 40
25.0030143270194
 40
25.42286279372945
 40
25.81254357083364
 40
26.20245221922661
 40
26.56173993903942
 40
26.92133489182628
 40
27.25391055342329
 40
27.58682868921255
 40
27.90086254407529
 40
28.21513993143314
 40
28.52258482831901
 40
28.8300297159059
 40
28.8300297159059
 40
28.8300297159059
 40
28.8300297159059
 10
56.9015028623917
 20
180.3842700949958
 30
0.0
 10
56.8829103902388
 20
180.2809985427717
 30
0.0
 10
56.84573986112445
 20
180.0745354582389
 30
0.0
 10
56.73479359793573
 20
179.7724506269811
 30
0.0
 10
56.58772875563423
 20
179.4802557328354
 30
0.0
 10
56.39757420333902
 20
179.1954013663398
 30
0.0
 10
56.17243947490228
 20
178.9259604432508
 30
0.0
 10
55.90780340481926
 20
178.6671630862436
 30
0.0
 10
55.61274317916592
 20
178.4274854217303
 30
0.0
 10
55.28197713162019
 20
178.2021471799029
 30
0.0
 10
54.92590980966706
 20
177.9985836588644
 30
0.0
 10
54.53917673749098
 20
177.8130913910719
 30
0.0
 10
54.13250327982567
 20
177.651321278296
 30
0.0
 10
53.70152708406977
 20
177.510953717591
 30
0.0
 10
53.25615339972171
 20
177.3957106591805
 30
0.0
 10
52.79394044983302
 20
177.3044573209475
 30
0.0
 10
52.32302185713519
 20
177.2392497792067
 30
0.0
 10
51.843490292852
 20
177.1996593117691
 30
0.0
 10
51.36104505505159
 20
177.1865737087918
 30
0.0
 10
50.87859981723645
 20
177.199659311753
 30
0.0
 10
50.39906825299948
 20
177.2392497791776
 30
0.0
 10
49.92814966013988
 20
177.3044573208674
 30
0.0
 10
49.46593671084711
 20
177.3957106591432
 30
0.0
 10
49.02056302433046
 20
177.5109537171865
 30
0.0
 10
48.58958683633752
 20
177.6513212789094
 30
0.0
 10
48.18291335054624
 20
177.8130913875886
 30
0.0
 10
47.79618037739998
 20
177.9985836692742
 30
0.0
 10
47.44011269929453
 20
178.2021471396497
 30
0.0
 10
47.10934789023936
 20
178.4274855567924
 30
0.0
 10
46.81428323290734
 20
178.6671625928766
 30
0.0
 10
46.54966247256547
 20
178.9259621195426
 30
0.0
 10
46.32447297278573
 20
179.1953952788706
 30
0.0
 10
46.13450833056659
 20
179.480276562711
 30
0.0
 10
45.98675911386558
 20
179.7723744520389
 30
0.0
 10
45.87823051718973
 20
180.0748019659661
 30
0.0
 10
45.81401898981228
 20
180.3810366577713
 30
0.0
 10
45.79141788666946
 20
180.6909488546072
 30
0.0
 10
45.81401898980094
 20
181.0008610514429
 30
0.0
 10
45.87823051716724
 20
181.3070957432471
 30
0.0
 10
45.9867591138321
 20
181.6095232571726
 30
0.0
 10
46.13450833052266
 20
181.901621146498
 30
0.0
 10
46.32447297273172
 20
182.1865024303351
 30
0.0
 10
46.54966247250198
 20
182.4559355896591
 30
0.0
 10
46.81428323283488
 20
182.7147351163202
 30
0.0
 10
47.10934789015865
 20
182.9544121523984
 30
0.0
 10
47.44011269920593
 20
183.1797505695341
 30
0.0
 10
47.796180377304
 20
183.3833140399018
 30
0.0
 10
48.18291335044349
 20
183.5688063215779
 30
0.0
 10
48.58958683622838
 20
183.7305764302466
 30
0.0
 10
49.02056302421539
 20
183.8709439919571
 30
0.0
 10
49.46593671072651
 20
183.9861870499865
 30
0.0
 10
49.92814966001399
 20
184.0774403882464
 30
0.0
 10
50.39906825286826
 20
184.1426479299182
 30
0.0
 10
50.87859981710085
 20
184.1822383973225
 30
0.0
 10
51.36104505490767
 20
184.1953240002604
 30
0.0
 10
51.84349029271337
 20
184.1822383972589
 30
0.0
 10
52.32302185694884
 20
184.1426479297857
 30
0.0
 10
52.79394044979079
 20
184.0774403880382
 30
0.0
 10
53.25615339911885
 20
183.9861870496804
 30
0.0
 10
53.70152708547271
 20
183.870943991563
 30
0.0
 10
54.1325032740052
 20
183.7305764296403
 30
0.0
 10
54.53917675778354
 20
183.5688063210937
 30
0.0
 10
54.92590973793941
 20
183.3833140382262
 30
0.0
 10
55.28197739072726
 20
183.179750571213
 30
0.0
 10
55.61274228767833
 20
182.9544121413391
 30
0.0
 10
55.90780663029393
 20
182.714735149545
 30
0.0
 10
56.17242847759878
 20
182.4559354684353
 30
0.0
 10
56.39761408835541
 20
182.18650285991
 30
0.0
 10
56.58759221461793
 20
181.9016196643236
 30
0.0
 10
56.73529283853878
 20
181.6095286619837
 30
0.0
 10
56.84399309654727
 20
181.3070768159081
 30
0.0
 10
56.90757605359821
 20
181.0009312167779
 30
0.0
 10
56.9324753739051
 20
180.6906932701847
 30
0.0
 10
56.91182702978094
 20
180.486411152612
 30
0.0
 10
56.9015028623917
 20
180.3842700949958
 30
0.0
 11
56.9015028623917
 21
180.3842700949958
 31
0.0
 11
56.83688111515898
 21
180.076708222235
 31
0.0
 11
56.73168114771764
 21
179.7808193434389
 31
0.0
 11
56.58178796524469
 21
179.4835542785712
 31
0.0
 11
56.39801353477955
 21
179.206365661826
 31
0.0
 11
56.16795702583803
 21
178.9299917617451
 31
0.0
 11
55.91159518275702
 21
178.6782651820252
 31
0.0
 11
55.60942986049898
 21
178.4318410110336
 31
0.0
 11
55.28768881575057
 21
178.2119914985853
 31
0.0
 11
54.92353088234077
 21
178.003037593382
 31
0.0
 11
54.5452838363616
 21
177.8211815318001
 31
0.0
 11
54.13086993084951
 21
177.6557730526745
 31
0.0
 11
53.70677553771775
 21
177.5173761852517
 31
0.0
 11
53.25513256768997
 21
177.4001285028826
 31
0.0
 11
52.79743914323797
 21
177.3096296702296
 31
0.0
 11
52.32253102201631
 21
177.2436367496958
 31
0.0
 11
51.84471414740335
 21
177.2041705186071
 31
0.0
 11
51.36104504510119
 21
177.190948854996
 31
0.0
 11
50.87737594279903
 21
177.204170518607
 31
0.0
 11
50.39955906818611
 21
177.2436367496958
 31
0.0
 11
49.9246509469645
 21
177.3096296702296
 31
0.0
 11
49.46695752251254
 21
177.4001285028826
 31
0.0
 11
49.01531455248477
 21
177.5173761852517
 31
0.0
 11
48.59122015935297
 21
177.6557730526745
 31
0.0
 11
48.1768062538408
 21
177.8211815318001
 31
0.0
 11
47.79855920786154
 21
178.003037593382
 31
0.0
 11
47.43440127445167
 21
178.2119914985853
 31
0.0
 11
47.11266022970325
 21
178.4318410110336
 31
0.0
 11
46.81049490744538
 21
178.6782651820252
 31
0.0
 11
46.55413306436451
 21
178.9299917617451
 31
0.0
 11
46.32407655542293
 21
179.206365661826
 31
0.0
 11
46.14030212495769
 21
179.4835542785712
 31
0.0
 11
45.99040894248471
 21
179.7808193434389
 31
0.0
 11
45.88520897504337
 21
180.076708222235
 31
0.0
 11
45.82058722781063
 21
180.3842700949958
 31
0.0
 11
45.79889617977931
 21
180.690948854996
 31
0.0
 11
45.82058722781063
 21
180.9976276149962
 31
0.0
 11
45.88520897504335
 21
181.3051894877571
 31
0.0
 11
45.99040894248461
 21
181.6010783665532
 31
0.0
 11
46.14030212495751
 21
181.8983434314208
 31
0.0
 11
46.32407655542269
 21
182.175532048166
 31
0.0
 11
46.55413306436426
 21
182.451905948247
 31
0.0
 11
46.81049490744523
 21
182.703632527967
 31
0.0
 11
47.11266022970321
 21
182.9500566989587
 31
0.0
 11
47.43440127445166
 21
183.1699062114068
 31
0.0
 11
47.79855920786156
 21
183.3788601166102
 31
0.0
 11
48.17680625384081
 21
183.560716178192
 31
0.0
 11
48.59122015935297
 21
183.7261246573176
 31
0.0
 11
49.01531455248477
 21
183.8645215247403
 31
0.0
 11
49.46695752251253
 21
183.9817692071093
 31
0.0
 11
49.92465094696446
 21
184.0722680397622
 31
0.0
 11
50.39955906818604
 21
184.1382609602961
 31
0.0
 11
50.87737594279899
 21
184.177727191385
 31
0.0
 11
51.36104504510116
 21
184.1909488549961
 31
0.0
 11
51.84471414740331
 21
184.177727191385
 31
0.0
 11
52.3225310220162
 21
184.1382609602961
 31
0.0
 11
52.79743914323775
 21
184.0722680397622
 31
0.0
 11
53.25513256768971
 21
183.9817692071093
 31
0.0
 11
53.7067755377176
 21
183.8645215247404
 31
0.0
 11
54.13086993084951
 21
183.7261246573177
 31
0.0
 11
54.5452838363617
 21
183.5607161781921
 31
0.0
 11
54.92353088234092
 21
183.3788601166102
 31
0.0
 11
55.28768881575066
 21
183.1699062114069
 31
0.0
 11
55.60942986049901
 21
182.9500566989587
 31
0.0
 11
55.91159518275702
 21
182.703632527967
 31
0.0
 11
56.16795702583808
 21
182.451905948247
 31
0.0
 11
56.39801353477975
 21
182.175532048166
 31
0.0
 11
56.581787965245
 21
181.8983434314208
 31
0.0
 11
56.73168114771784
 21
181.6010783665532
 31
0.0
 11
56.83688111515903
 21
181.3051894877571
 31
0.0
 11
56.9015028623917
 21
180.9976276149963
 31
0.0
 11
56.92319391042303
 21
180.690948854996
 31
0.0
 11
56.9015028623917
 21
180.3842700949958
 31
0.0
  0
SPLINE
  5
119
330
50
100
AcDbEntity
  8
1
  6
Continuous
 62
     7
100
AcDbSpline
210
0.0
220
0.0
230
1.0
 70
    11
 71
     3
 72
    79
 73
    75
 74
    73
 42
0.000000001
 43
0.0000000001
 44
0.00000001
 40
0.0
 40
0.0
 40
0.0
 40
0.0
 40
0.3142773791655435
 40
0.6283112355322189
 40
0.9612293716149951
 40
1.293805033313594
 40
1.653399986144929
 40
2.012687705977703
 40
2.402596354380359
 40
2.792277131488589
 40
3.212125598200315
 40
3.631818884954954
 40
4.078023826727009
 40
4.524128912110666
 40
4.990742661800879
 40
5.457297384742867
 40
5.936768749021514
 40
6.416212748943438
 40
6.900062532357592
 40
7.383912315771094
 40
7.863356315690688
 40
8.342827679964348
 40
8.809382402897292
 40
9.275996152571777
 40
9.722101237930545
 40
10.16830617966303
 40
10.58799946636089
 40
11.00784793298812
 40
11.39752870998293
 40
11.78743735822366
 40
12.14672507784549
 40
12.50632003037664
 40
12.83889569166013
 40
13.17181382703825
 40
13.48584768136861
 40
13.80012506793176
 40
14.10756996269021
 40
14.41501485744753
 40
14.72929224400727
 40
15.04332609833231
 40
15.37624423370313
 40
15.70881989497833
 40
16.06841484749996
 40
16.42770256711204
 40
16.81761121534216
 40
17.20729199232662
 40
17.6271404589432
 40
18.04683374563097
 40
18.49303868735341
 40
18.9391437727028
 40
19.40575752236827
 40
19.87231224529293
 40
20.35178360955891
 40
20.83122760947165
 40
21.31507739287908
 40
21.79892717628806
 40
22.2783711762058
 40
22.75784254048117
 40
23.22439726342093
 40
23.69101101310974
 40
24.13711609849284
 40
24.58332104026479
 40
25.00301432701919
 40
25.42286279372927
 40
25.81254357083347
 40
26.20245221922643
 40
26.5617399390392
 40
26.92133489182604
 40
27.25391055342302
 40
27.58682868921228
 40
27.90086254407502
 40
28.21513993143288
 40
28.52258482831876
 40
28.83002971590565
 40
28.83002971590565
 40
28.83002971590565
 40
28.83002971590565
 10
58.82058722781095
 20
180.3842700949958
 30
0.0
 10
58.83917969996387
 20
180.2809985427717
 30
0.0
 10
58.87635022907817
 20
180.0745354582388
 30
0.0
 10
58.98729649226675
 20
179.7724506269811
 30
0.0
 10
59.13436133456819
 20
179.4802557328353
 30
0.0
 10
59.32451588686352
 20
179.1954013663398
 30
0.0
 10
59.54965061530037
 20
178.9259604432509
 30
0.0
 10
59.81428668538337
 20
178.6671630862436
 30
0.0
 10
60.1093469110367
 20
178.4274854217302
 30
0.0
 10
60.44011295858245
 20
178.2021471799028
 30
0.0
 10
60.79618028053562
 20
177.9985836588645
 30
0.0
 10
61.18291335271167
 20
177.813091391072
 30
0.0
 10
61.58958681037697
 20
177.651321278296
 30
0.0
 10
62.02056300613287
 20
177.510953717591
 30
0.0
 10
62.46593669048094
 20
177.3957106591806
 30
0.0
 10
62.92814964036963
 20
177.3044573209475
 30
0.0
 10
63.39906823306755
 20
177.2392497792067
 30
0.0
 10
63.87859979735073
 20
177.1996593117691
 30
0.0
 10
64.36104503515115
 20
177.1865737087918
 30
0.0
 10
64.84349027296628
 20
177.199659311753
 30
0.0
 10
65.3230218372032
 20
177.2392497791777
 30
0.0
 10
65.79394043006278
 20
177.3044573208673
 30
0.0
 10
66.25615337935551
 20
177.3957106591432
 30
0.0
 10
66.70152706587216
 20
177.5109537171865
 30
0.0
 10
67.1325032538651
 20
177.6513212789094
 30
0.0
 10
67.53917673965634
 20
177.8130913875887
 30
0.0
 10
67.92590971280255
 20
177.9985836692742
 30
0.0
 10
68.28197739090791
 20
178.2021471396498
 30
0.0
 10
68.61274219996302
 20
178.4274855567924
 30
0.0
 10
68.90780685729516
 20
178.6671625928767
 30
0.0
 10
69.17242761763714
 20
178.9259621195426
 30
0.0
 10
69.39761711741696
 20
179.1953952788706
 30
0.0
 10
69.58758175963608
 20
179.480276562711
 30
0.0
 10
69.73533097633701
 20
179.7723744520389
 30
0.0
 10
69.84385957301274
 20
180.0748019659661
 30
0.0
 10
69.9080711003901
 20
180.3810366577713
 30
0.0
 10
69.93067220353296
 20
180.6909488546073
 30
0.0
 10
69.90807110040149
 20
181.0008610514429
 30
0.0
 10
69.84385957303522
 20
181.3070957432471
 30
0.0
 10
69.73533097637038
 20
181.6095232571726
 30
0.0
 10
69.58758175967989
 20
181.901621146498
 30
0.0
 10
69.39761711747074
 20
182.1865024303351
 30
0.0
 10
69.17242761770044
 20
182.4559355896591
 30
0.0
 10
68.90780685736752
 20
182.7147351163202
 30
0.0
 10
68.61274220004371
 20
182.9544121523984
 30
0.0
 10
68.2819773909965
 20
183.1797505695341
 30
0.0
 10
67.92590971289852
 20
183.3833140399018
 30
0.0
 10
67.53917673975911
 20
183.5688063215779
 30
0.0
 10
67.13250325397428
 20
183.7305764302467
 30
0.0
 10
66.7015270659872
 20
183.8709439919571
 30
0.0
 10
66.25615337947609
 20
183.9861870499864
 30
0.0
 10
65.79394043018858
 20
184.0774403882464
 30
0.0
 10
65.32302183733441
 20
184.1426479299181
 30
0.0
 10
64.84349027310182
 20
184.1822383973225
 30
0.0
 10
64.36104503529504
 20
184.1953240002603
 30
0.0
 10
63.87859979748934
 20
184.1822383972589
 30
0.0
 10
63.39906823325376
 20
184.1426479297858
 30
0.0
 10
62.92814964041176
 20
184.0774403880382
 30
0.0
 10
62.46593669108366
 20
183.9861870496804
 30
0.0
 10
62.02056300472981
 20
183.870943991563
 30
0.0
 10
61.58958681619738
 20
183.7305764296404
 30
0.0
 10
61.18291333241908
 20
183.5688063210937
 30
0.0
 10
60.79618035226319
 20
183.3833140382262
 30
0.0
 10
60.44011269947534
 20
183.179750571213
 30
0.0
 10
60.10934780252425
 20
182.9544121413392
 30
0.0
 10
59.81428345990867
 20
182.714735149545
 30
0.0
 10
59.54966161260386
 20
182.4559354684353
 30
0.0
 10
59.32447600184726
 20
182.1865028599099
 30
0.0
 10
59.13449787558482
 20
181.9016196643236
 30
0.0
 10
58.98679725166394
 20
181.6095286619837
 30
0.0
 10
58.87809699365548
 20
181.3070768159081
 30
0.0
 10
58.81451403660451
 20
181.0009312167779
 30
0.0
 10
58.78961471629754
 20
180.6906932701848
 30
0.0
 10
58.8102630604217
 20
180.486411152612
 30
0.0
 10
58.82058722781095
 20
180.3842700949958
 30
0.0
 11
58.82058722781095
 21
180.3842700949958
 31
0.0
 11
58.88520897504363
 21
180.076708222235
 31
0.0
 11
58.99040894248485
 21
179.7808193434389
 31
0.0
 11
59.14030212495773
 21
179.4835542785712
 31
0.0
 11
59.32407655542298
 21
179.206365661826
 31
0.0
 11
59.55413306436463
 21
178.9299917617451
 31
0.0
 11
59.81049490744562
 21
178.6782651820252
 31
0.0
 11
60.11266022970361
 21
178.4318410110336
 31
0.0
 11
60.43440127445207
 21
178.2119914985853
 31
0.0
 11
60.79855920786193
 21
178.003037593382
 31
0.0
 11
61.17680625384106
 21
177.8211815318001
 31
0.0
 11
61.59122015935311
 21
177.6557730526745
 31
0.0
 11
62.01531455248488
 21
177.5173761852517
 31
0.0
 11
62.46695752251268
 21
177.4001285028826
 31
0.0
 11
62.92465094696472
 21
177.3096296702296
 31
0.0
 11
63.39955906818641
 21
177.2436367496958
 31
0.0
 11
63.8773759427994
 21
177.2041705186071
 31
0.0
 11
64.36104504510156
 21
177.190948854996
 31
0.0
 11
64.84471414740369
 21
177.204170518607
 31
0.0
 11
65.32253102201659
 21
177.2436367496958
 31
0.0
 11
65.79743914323812
 21
177.3096296702296
 31
0.0
 11
66.25513256769004
 21
177.4001285028826
 31
0.0
 11
66.70677553771785
 21
177.5173761852517
 31
0.0
 11
67.13086993084968
 21
177.6557730526745
 31
0.0
 11
67.54528383636179
 21
177.8211815318001
 31
0.0
 11
67.92353088234097
 21
178.003037593382
 31
0.0
 11
68.28768881575076
 21
178.2119914985853
 31
0.0
 11
68.60942986049915
 21
178.4318410110336
 31
0.0
 11
68.91159518275711
 21
178.6782651820252
 31
0.0
 11
69.1679570258381
 21
178.9299917617451
 31
0.0
 11
69.39801353477975
 21
179.206365661826
 31
0.0
 11
69.58178796524498
 21
179.4835542785712
 31
0.0
 11
69.73168114771786
 21
179.7808193434389
 31
0.0
 11
69.83688111515909
 21
180.076708222235
 31
0.0
 11
69.90150286239178
 21
180.3842700949958
 31
0.0
 11
69.92319391042312
 21
180.690948854996
 31
0.0
 11
69.9015028623918
 21
180.9976276149962
 31
0.0
 11
69.8368811151591
 21
181.3051894877571
 31
0.0
 11
69.73168114771788
 21
181.6010783665532
 31
0.0
 11
69.58178796524501
 21
181.8983434314208
 31
0.0
 11
69.39801353477979
 21
182.175532048166
 31
0.0
 11
69.16795702583816
 21
182.451905948247
 31
0.0
 11
68.91159518275717
 21
182.703632527967
 31
0.0
 11
68.60942986049916
 21
182.9500566989587
 31
0.0
 11
68.28768881575076
 21
183.1699062114068
 31
0.0
 11
67.92353088234097
 21
183.3788601166102
 31
0.0
 11
67.54528383636179
 21
183.560716178192
 31
0.0
 11
67.13086993084968
 21
183.7261246573176
 31
0.0
 11
66.70677553771785
 21
183.8645215247403
 31
0.0
 11
66.25513256769003
 21
183.9817692071093
 31
0.0
 11
65.79743914323812
 21
184.0722680397622
 31
0.0
 11
65.32253102201659
 21
184.1382609602961
 31
0.0
 11
64.84471414740369
 21
184.177727191385
 31
0.0
 11
64.36104504510156
 21
184.1909488549961
 31
0.0
 11
63.8773759427994
 21
184.177727191385
 31
0.0
 11
63.39955906818642
 21
184.1382609602961
 31
0.0
 11
62.92465094696476
 21
184.0722680397622
 31
0.0
 11
62.46695752251274
 21
183.9817692071093
 31
0.0
 11
62.01531455248492
 21
183.8645215247404
 31
0.0
 11
61.59122015935309
 21
183.7261246573177
 31
0.0
 11
61.17680625384091
 21
183.5607161781921
 31
0.0
 11
60.79855920786169
 21
183.3788601166102
 31
0.0
 11
60.43440127445192
 21
183.1699062114069
 31
0.0
 11
60.11266022970356
 21
182.9500566989587
 31
0.0
 11
59.81049490744557
 21
182.703632527967
 31
0.0
 11
59.55413306436456
 21
182.451905948247
 31
0.0
 11
59.32407655542293
 21
182.175532048166
 31
0.0
 11
59.14030212495773
 21
181.8983434314208
 31
0.0
 11
58.99040894248489
 21
181.6010783665532
 31
0.0
 11
58.8852089750437
 21
181.3051894877571
 31
0.0
 11
58.82058722781099
 21
180.9976276149963
 31
0.0
 11
58.79889617977963
 21
180.690948854996
 31
0.0
 11
58.82058722781095
 21
180.3842700949958
 31
0.0
  0
SPLINE
  5
11A
330
50
100
AcDbEntity
  8
1
  6
Continuous
 62
     7
100
AcDbSpline
210
0.0
220
0.0
230
1.0
 70
    11
 71
     3
 72
    79
 73
    75
 74
    73
 42
0.000000001
 43
0.0000000001
 44
0.00000001
 40
0.0
 40
0.0
 40
0.0
 40
0.0
 40
0.3114713359264671
 40
0.6228035229571334
 40
0.9472403582052823
 40
1.271464852601691
 40
1.614803247461126
 40
1.957928910692986
 40
2.323150644728123
 40
2.688197472678923
 40
3.075390754710868
 40
3.462454979836097
 40
3.869243824908205
 40
4.275944683695693
 40
4.698050013630727
 40
5.12010130021531
 40
5.551913308331436
 40
5.983699710116281
 40
6.418825154877954
 40
6.853950599636507
 40
7.285737001411682
 40
7.717549009510682
 40
8.13960029606959
 40
8.561705625967699
 40
8.96840648470559
 40
9.37519532970994
 40
9.7622595547484
 40
10.14945283666467
 40
10.51449966447108
 40
10.87972139831552
 40
11.22284706131029
 40
11.56618545585163
 40
11.89040994981953
 40
12.21484678436662
 40
12.52617896950071
 40
12.83765031334053
 40
13.14443942456765
 40
13.4512285357935
 40
13.76269987962978
 40
14.07403206475825
 40
14.39846889929766
 40
14.72269339325637
 40
15.06603178778702
 40
15.4091574507705
 40
15.77437918460259
 40
16.13942601239659
 40
16.52661929429978
 40
16.91368351932548
 40
17.3204723643168
 40
17.72717322304211
 40
18.14927855292769
 40
18.57132983947458
 40
19.0031418475618
 40
19.43492824932574
 40
19.87005369407347
 40
20.30517913882477
 40
20.73696554059971
 40
21.16877754870631
 40
21.59082883528184
 40
22.01293416520799
 40
22.41963502398675
 40
22.82642386904958
 40
23.21348809416497
 40
23.6006813761852
 40
23.96572820412162
 40
24.33094993813591
 40
24.6740756013364
 40
25.01741399613997
 40
25.34163849042285
 40
25.66607532537004
 40
25.97740751101902
 40
26.28887885562877
 40
26.59566796883276
 40
26.90245707227667
 40
26.90245707227667
 40
26.90245707227667
 40
26.90245707227667
 10
125.7882973834179
 20
122.3987019288607
 30
0.0
 10
125.6856668447147
 20
122.3821162157921
 30
0.0
 10
125.4804516158752
 20
122.3489522068334
 30
0.0
 10
125.1793784617197
 20
122.2500540467418
 30
0.0
 10
124.8871935137281
 20
122.1182718162414
 30
0.0
 10
124.6028248423279
 20
121.9481583730671
 30
0.0
 10
124.3326840392928
 20
121.7458896737702
 30
0.0
 10
124.0739625917198
 20
121.5085604845762
 30
0.0
 10
123.8334016966909
 20
121.2430332905903
 30
0.0
 10
123.6079540300608
 20
120.9459880272619
 30
0.0
 10
123.4036335501524
 20
120.6253775345047
 30
0.0
 10
123.2179825405525
 20
120.2778161301571
 30
0.0
 10
123.0556735245818
 20
119.9116405095471
 30
0.0
 10
122.9151607027267
 20
119.5241562700137
 30
0.0
 10
122.7995837542886
 20
119.1232219308557
 30
0.0
 10
122.7082285013137
 20
118.7075371632334
 30
0.0
 10
122.6428493650241
 20
118.2837188015978
 30
0.0
 10
122.6032214074865
 20
117.8523581146463
 30
0.0
 10
122.5900849121666
 20
117.4182753757039
 30
0.0
 10
122.6032214073763
 20
116.9841926367497
 30
0.0
 10
122.6428493648053
 20
116.552831949833
 30
0.0
 10
122.7082285009584
 20
116.1290135880692
 30
0.0
 10
122.7995837538605
 20
115.7133288209104
 30
0.0
 10
122.9151607019359
 20
115.3123944800438
 30
0.0
 10
123.0556735244023
 20
114.9249102466491
 30
0.0
 10
123.2179825373514
 20
114.5587346036452
 30
0.0
 10
123.4036335568166
 20
114.2111732789674
 30
0.0
 10
123.6079539999415
 20
113.8905624974669
 30
0.0
 10
123.8334017952201
 20
113.5935182530705
 30
0.0
 10
124.0739622241223
 20
113.3279873780076
 30
0.0
 10
124.3326853099527
 20
113.0906711385721
 30
0.0
 10
124.6028201868615
 20
112.8883556104675
 30
0.0
 10
124.887209807611
 20
112.718407729019
 30
0.0
 10
125.179318513365
 20
112.5860229870422
 30
0.0
 10
125.480665353846
 20
112.489287680445
 30
0.0
 10
125.7859604568543
 20
112.4318224422843
 30
0.0
 10
126.0944749713947
 20
112.411871188466
 30
0.0
 10
126.4029894859348
 20
112.4318224422701
 30
0.0
 10
126.7082845889422
 20
112.4892876804169
 30
0.0
 10
127.0096314294218
 20
112.5860229870003
 30
0.0
 10
127.3017401351736
 20
112.7184077289636
 30
0.0
 10
127.5861297559204
 20
112.8883556103991
 30
0.0
 10
127.8562646328258
 20
113.0906711384911
 30
0.0
 10
128.1149877186518
 20
113.3279873779143
 30
0.0
 10
128.3555481475491
 20
113.5935182529655
 30
0.0
 10
128.5809959428218
 20
113.8905624973507
 30
0.0
 10
128.78531638594
 20
114.2111732788404
 30
0.0
 10
128.9709674053975
 20
114.5587346035076
 30
0.0
 10
129.1332764183379
 20
114.9249102465014
 30
0.0
 10
129.2737892407943
 20
115.3123944798863
 30
0.0
 10
129.3893661888587
 20
115.7133288207432
 30
0.0
 10
129.480721441748
 20
116.1290135878925
 30
0.0
 10
129.5461005778872
 20
116.5528319496465
 30
0.0
 10
129.5857285353005
 20
116.9841926365539
 30
0.0
 10
129.5988650304926
 20
117.4182753754956
 30
0.0
 10
129.5857285351551
 20
117.8523581144357
 30
0.0
 10
129.5461005775921
 20
118.2837188013435
 30
0.0
 10
129.4807214412974
 20
118.7075371630843
 30
0.0
 10
129.3893661882356
 20
119.1232219302603
 30
0.0
 10
129.2737892400038
 20
119.5241562709859
 30
0.0
 10
129.1332764172901
 20
119.9116405047946
 30
0.0
 10
128.9709674043283
 20
120.2778161461734
 30
0.0
 10
128.7853163839023
 20
120.6253774764905
 30
0.0
 10
128.5809959431101
 20
120.9459882373715
 30
0.0
 10
128.3555481383389
 20
121.2430325543064
 30
0.0
 10
128.1149877422856
 20
121.5085631670205
 30
0.0
 10
127.8562645393197
 20
121.7458803290216
 30
0.0
 10
127.5861300841891
 20
121.9481925204874
 30
0.0
 10
127.3017389702841
 20
122.1181521979425
 30
0.0
 10
127.009635696116
 20
122.2504940111873
 30
0.0
 10
126.7082693550414
 20
122.3473834194824
 30
0.0
 10
126.4030460603474
 20
122.4042811677791
 30
0.0
 10
126.0942673186301
 20
122.426320542073
 30
0.0
 10
125.8902873609421
 20
122.4079081305323
 30
0.0
 10
125.7882973834179
 20
122.3987019288607
 30
0.0
 11
125.7882973834179
 21
122.3987019288607
 31
0.0
 11
125.4822220351977
 21
122.3409760305065
 31
0.0
 11
125.1855989536606
 21
122.2464113590413
 31
0.0
 11
124.8900009787985
 21
122.1126911400868
 31
0.0
 11
124.6113555532424
 21
121.9469254941144
 31
0.0
 11
124.3362810022561
 21
121.7414620067403
 31
0.0
 11
124.0830374019422
 21
121.509939006646
 31
0.0
 11
123.8374471231627
 21
121.2396200655676
 31
0.0
 11
123.6163923224228
 21
120.9491136773159
 31
0.0
 11
123.407898500031
 21
120.6228485035148
 31
0.0
 11
123.2252344163225
 21
120.2815970612201
 31
0.0
 11
123.0600298594816
 21
119.9098651432264
 31
0.0
 11
122.9211678789723
 21
119.5276048406888
 31
0.0
 11
122.8039692287205
 21
119.1220960418545
 31
0.0
 11
122.713254768104
 21
118.7099089785686
 31
0.0
 11
122.6472397188706
 21
118.2831729669308
 31
0.0
 11
122.6077156690059
 21
117.8531993093054
 31
0.0
 11
122.5944749718356
 21
117.4182753658125
 31
0.0
 11
122.6077156690058
 21
116.9833514223197
 31
0.0
 11
122.6472397188705
 21
116.5533777646942
 31
0.0
 11
122.713254768104
 21
116.1266417530564
 31
0.0
 11
122.8039692287206
 21
115.7144546897705
 31
0.0
 11
122.9211678789723
 21
115.3089458909362
 31
0.0
 11
123.0600298594817
 21
114.9266855883987
 31
0.0
 11
123.2252344163225
 21
114.554953670405
 31
0.0
 11
123.407898500031
 21
114.2137022281102
 31
0.0
 11
123.6163923224228
 21
113.8874370543091
 31
0.0
 11
123.8374471231628
 21
113.5969306660573
 31
0.0
 11
124.0830374019422
 21
113.326611724979
 31
0.0
 11
124.3362810022561
 21
113.0950887248848
 31
0.0
 11
124.6113555532423
 21
112.8896252375107
 31
0.0
 11
124.8900009787984
 21
112.7238595915382
 31
0.0
 11
125.1855989536606
 21
112.5901393725837
 31
0.0
 11
125.4822220351977
 21
112.4955747011185
 31
0.0
 11
125.7882973834179
 21
112.4378488027643
 31
0.0
 11
126.0944749718356
 21
112.4184879346449
 31
0.0
 11
126.4006525602533
 21
112.4378488027643
 31
0.0
 11
126.7067279084735
 21
112.4955747011185
 31
0.0
 11
127.0033509900106
 21
112.5901393725837
 31
0.0
 11
127.2989489648728
 21
112.7238595915382
 31
0.0
 11
127.5775943904289
 21
112.8896252375106
 31
0.0
 11
127.852668941415
 21
113.0950887248847
 31
0.0
 11
128.1059125417289
 21
113.326611724979
 31
0.0
 11
128.3515028205084
 21
113.5969306660573
 31
0.0
 11
128.5725576212484
 21
113.8874370543091
 31
0.0
 11
128.7810514436402
 21
114.2137022281102
 31
0.0
 11
128.9637155273487
 21
114.554953670405
 31
0.0
 11
129.1289200841896
 21
114.9266855883987
 31
0.0
 11
129.2677820646989
 21
115.3089458909362
 31
0.0
 11
129.3849807149508
 21
115.7144546897705
 31
0.0
 11
129.4756951755672
 21
116.1266417530564
 31
0.0
 11
129.5417102248007
 21
116.5533777646942
 31
0.0
 11
129.5812342746653
 21
116.9833514223197
 31
0.0
 11
129.5944749718356
 21
117.4182753658125
 31
0.0
 11
129.5812342746653
 21
117.8531993093054
 31
0.0
 11
129.5417102248007
 21
118.2831729669308
 31
0.0
 11
129.4756951755672
 21
118.7099089785686
 31
0.0
 11
129.3849807149508
 21
119.1220960418545
 31
0.0
 11
129.2677820646989
 21
119.5276048406889
 31
0.0
 11
129.1289200841896
 21
119.9098651432264
 31
0.0
 11
128.9637155273487
 21
120.2815970612201
 31
0.0
 11
128.7810514436402
 21
120.6228485035148
 31
0.0
 11
128.5725576212484
 21
120.9491136773159
 31
0.0
 11
128.3515028205084
 21
121.2396200655677
 31
0.0
 11
128.1059125417289
 21
121.509939006646
 31
0.0
 11
127.8526689414151
 21
121.7414620067403
 31
0.0
 11
127.5775943904289
 21
121.9469254941144
 31
0.0
 11
127.2989489648727
 21
122.1126911400868
 31
0.0
 11
127.0033509900105
 21
122.2464113590413
 31
0.0
 11
126.7067279084735
 21
122.3409760305065
 31
0.0
 11
126.4006525602532
 21
122.3987019288607
 31
0.0
 11
126.0944749718356
 21
122.4180627969801
 31
0.0
 11
125.7882973834179
 21
122.3987019288607
 31
0.0
  0
SPLINE
  5
11B
330
50
100
AcDbEntity
  8
1
  6
Continuous
 62
     7
100
AcDbSpline
210
0.0
220
0.0
230
1.0
 70
    11
 71
     3
 72
    79
 73
    75
 74
    73
 42
0.000000001
 43
0.0000000001
 44
0.00000001
 40
0.0
 40
0.0
 40
0.0
 40
0.0
 40
0.2811775335845557
 40
0.5623408853747198
 40
0.8457466557585284
 40
1.129126823298095
 40
1.415908896080527
 40
1.702658532230497
 40
1.993527426214043
 40
2.284362049291551
 40
2.579517793968331
 40
2.874641775544748
 40
3.173769975763962
 40
3.472872116266077
 40
3.775199685813521
 40
4.077508951322119
 40
4.381905218576854
 40
4.686292084806922
 40
4.991400452873862
 40
5.296508820930236
 40
5.600895687128663
 40
5.90529195433025
 40
6.207601219764294
 40
6.509928789214259
 40
6.809030929596505
 40
7.108159129670955
 40
7.403283111078563
 40
7.698438855558313
 40
7.989273478411256
 40
8.280142372135844
 40
8.56689200798923
 40
8.853674080420287
 40
9.137054247521508
 40
9.420460017266644
 40
9.701623367658184
 40
9.982800910067692
 40
10.26319551269431
 40
10.54359011531979
 40
10.82476765772611
 40
11.10593100811236
 40
11.38933677785016
 40
11.67271694494216
 40
11.95949901736209
 40
12.24624865320275
 40
12.53711754691292
 40
12.82795216975014
 40
13.12310791421272
 40
13.4182318956021
 40
13.71736009565726
 40
14.0164622360195
 40
14.31878980544855
 40
14.62109907086101
 40
14.92549533804035
 40
15.22988220421605
 40
15.5349905722492
 40
15.84009894029247
 40
16.1444858064985
 40
16.44888207372876
 40
16.75119133921255
 40
17.05351890873461
 40
17.35262104921094
 40
17.65174924940347
 40
17.94687323095226
 40
18.24202897559943
 40
18.5328635986447
 40
18.82373249259073
 40
19.11048212869357
 40
19.39726420140848
 40
19.68064436883115
 40
19.96405013895103
 40
20.24521348980364
 40
20.52639103287061
 40
20.80678563691644
 40
21.087180230733
 40
21.087180230733
 40
21.087180230733
 40
21.087180230733
 10
122.6078568507171
 20
105.8798700220171
 30
0.0
 10
122.6193079724393
 20
105.7867739499151
 30
0.0
 10
122.6422096330126
 20
105.6005865005288
 30
0.0
 10
122.7102469224037
 20
105.3263490491258
 30
0.0
 10
122.8018690509192
 20
105.0586223810366
 30
0.0
 10
122.9194800384685
 20
104.7990618924198
 30
0.0
 10
123.060698361497
 20
104.5503275997351
 30
0.0
 10
123.2255203320892
 20
104.3135134946734
 30
0.0
 10
123.4115976291253
 20
104.0912551303678
 30
0.0
 10
123.6186224786224
 20
103.88439974301
 30
0.0
 10
123.8438212762356
 20
103.6952859392883
 30
0.0
 10
124.0866861816729
 20
103.5246375549368
 30
0.0
 10
124.3441548125996
 20
103.3743202374945
 30
0.0
 10
124.6154327097938
 20
103.2449969019457
 30
0.0
 10
124.8973858636303
 20
103.1379639743242
 30
0.0
 10
125.1888230169337
 20
103.0538168364814
 30
0.0
 10
125.4867609603299
 20
102.9932723275953
 30
0.0
 10
125.7895266250728
 20
102.9567851306791
 30
0.0
 10
126.0944749622385
 20
102.944558074152
 30
0.0
 10
126.3994232994133
 20
102.9567851303266
 30
0.0
 10
126.7021889641499
 20
102.9932723268908
 30
0.0
 10
127.0001269076258
 20
103.0538168354155
 30
0.0
 10
127.2915640607259
 20
103.1379639729205
 30
0.0
 10
127.5735172154462
 20
103.2449969000972
 30
0.0
 10
127.8447951095432
 20
103.3743202355753
 30
0.0
 10
128.1022637521642
 20
103.5246375515281
 30
0.0
 10
128.3451286147732
 20
103.6952859395896
 30
0.0
 10
128.5703275713257
 20
103.8843997277359
 30
0.0
 10
128.7773518363082
 20
104.0912551705318
 30
0.0
 10
128.9634312984749
 20
104.3135133275602
 30
0.0
 10
129.1282452982151
 20
104.5503281936963
 30
0.0
 10
129.2694931666192
 20
104.7990596631399
 30
0.0
 10
129.3869951340673
 20
105.0586305668259
 30
0.0
 10
129.4790220814353
 20
105.3263185578946
 30
0.0
 10
129.5455599090575
 20
105.6006992685747
 30
0.0
 10
129.5854626926763
 20
105.8791902798349
 30
0.0
 10
129.5989748140157
 20
106.159945116021
 30
0.0
 10
129.5854626927006
 20
106.4406999522072
 30
0.0
 10
129.5455599091064
 20
106.7191909634676
 30
0.0
 10
129.4790220815084
 20
106.9935716741481
 30
0.0
 10
129.3869951341646
 20
107.2612596652176
 30
0.0
 10
129.2694931667406
 20
107.5208305689043
 30
0.0
 10
129.1282452983604
 20
107.7695620383488
 30
0.0
 10
128.9634312986441
 20
108.006376904486
 30
0.0
 10
128.7773518365008
 20
108.2286350615155
 30
0.0
 10
128.5703275715418
 20
108.4354905043126
 30
0.0
 10
128.3451286150125
 20
108.6246042924601
 30
0.0
 10
128.1022637524269
 20
108.795252680523
 30
0.0
 10
127.8447951098288
 20
108.9455699964774
 30
0.0
 10
127.5735172157549
 20
109.0748933319572
 30
0.0
 10
127.2915640610576
 20
109.1819262591357
 30
0.0
 10
127.0001269079804
 20
109.2660733966425
 30
0.0
 10
126.7021889645277
 20
109.3266179051693
 30
0.0
 10
126.3994232998139
 20
109.3631051017359
 30
0.0
 10
126.0944749626635
 20
109.3753321579132
 30
0.0
 10
125.7895266255173
 20
109.3631051013896
 30
0.0
 10
125.4867609608135
 20
109.3266179044755
 30
0.0
 10
125.188823017384
 20
109.2660733956003
 30
0.0
 10
124.8973858643173
 20
109.1819262577396
 30
0.0
 10
124.6154327097163
 20
109.0748933302118
 30
0.0
 10
124.3441548154619
 20
108.94556999435
 30
0.0
 10
124.0866861737527
 20
108.7952526781104
 30
0.0
 10
123.8438213081571
 20
108.6246042893815
 30
0.0
 10
123.6186223630944
 20
108.4354905019441
 30
0.0
 10
123.4115980563125
 20
108.2286350547546
 30
0.0
 10
123.2255187494977
 20
108.0063769121592
 30
0.0
 10
123.0607041784204
 20
107.7695619910123
 30
0.0
 10
122.9194584284552
 20
107.520830723521
 30
0.0
 10
122.8019486449083
 20
107.2612590726171
 30
0.0
 10
122.7099507215923
 20
106.9935738539665
 30
0.0
 10
122.643305389003
 20
106.7191828717004
 30
0.0
 10
122.6038028036672
 20
106.4407300941176
 30
0.0
 10
122.588801025111
 20
106.1598329390746
 30
0.0
 10
122.6015049107185
 20
105.9731909933466
 30
0.0
 10
122.6078568507171
 20
105.8798700220171
 30
0.0
 11
122.6078568507171
 21
105.8798700220171
 31
0.0
 11
122.6477946601809
 21
105.6015432682834
 31
0.0
 11
122.71393187932
 21
105.3282692337345
 31
0.0
 11
122.8060857009858
 21
105.0602645629054
 31
0.0
 11
122.9228157522605
 21
104.8020429248878
 31
0.0
 11
123.0644146904226
 21
104.5526562815373
 31
0.0
 11
123.2280922909466
 21
104.3172099036811
 31
0.0
 11
123.4147807645232
 21
104.094158054857
 31
0.0
 11
123.620414974794
 21
103.8884899982617
 31
0.0
 11
123.8464091289205
 21
103.6986385935172
 31
0.0
 11
124.0878119380426
 21
103.5288656621458
 31
0.0
 11
124.346111053266
 21
103.3780039797124
 31
0.0
 11
124.6160604646841
 21
103.2492041127809
 31
0.0
 11
124.8986940636785
 21
103.1418718807673
 31
0.0
 11
125.1891195777389
 21
103.0579438592049
 31
0.0
 11
125.4874156163798
 21
102.9973092085092
 31
0.0
 11
125.789611170622
 21
102.9608508575931
 31
0.0
 11
126.0944749718356
 21
102.9486369719486
 31
0.0
 11
126.3993387730492
 21
102.9608508575931
 31
0.0
 11
126.7015343272913
 21
102.9973092085092
 31
0.0
 11
126.9998303659322
 21
103.0579438592049
 31
0.0
 11
127.2902558799927
 21
103.1418718807673
 31
0.0
 11
127.5728894789871
 21
103.2492041127809
 31
0.0
 11
127.8428388904051
 21
103.3780039797124
 31
0.0
 11
128.1011380056285
 21
103.5288656621458
 31
0.0
 11
128.3425408147508
 21
103.6986385935172
 31
0.0
 11
128.5685349688772
 21
103.8884899982617
 31
0.0
 11
128.774169179148
 21
104.094158054857
 31
0.0
 11
128.9608576527245
 21
104.3172099036811
 31
0.0
 11
129.1245352532486
 21
104.5526562815373
 31
0.0
 11
129.2661341914106
 21
104.8020429248878
 31
0.0
 11
129.3828642426853
 21
105.0602645629054
 31
0.0
 11
129.4750180643511
 21
105.3282692337345
 31
0.0
 11
129.5411552834902
 21
105.6015432682834
 31
0.0
 11
129.5810930929541
 21
105.8798700220171
 31
0.0
 11
129.5944749718356
 21
106.1599451166148
 31
0.0
 11
129.5810930929541
 21
106.4400202112125
 31
0.0
 11
129.5411552834902
 21
106.7183469649462
 31
0.0
 11
129.4750180643511
 21
106.9916209994951
 31
0.0
 11
129.3828642426853
 21
107.2596256703243
 31
0.0
 11
129.2661341914106
 21
107.517847308342
 31
0.0
 11
129.1245352532486
 21
107.7672339516924
 31
0.0
 11
128.9608576527245
 21
108.0026803295486
 31
0.0
 11
128.774169179148
 21
108.2257321783728
 31
0.0
 11
128.5685349688771
 21
108.431400234968
 31
0.0
 11
128.3425408147507
 21
108.6212516397124
 31
0.0
 11
128.1011380056286
 21
108.7910245710838
 31
0.0
 11
127.8428388904052
 21
108.9418862535172
 31
0.0
 11
127.5728894789871
 21
109.0706861204488
 31
0.0
 11
127.2902558799927
 21
109.1780183524624
 31
0.0
 11
126.9998303659323
 21
109.2619463740248
 31
0.0
 11
126.7015343272913
 21
109.3225810247205
 31
0.0
 11
126.3993387730492
 21
109.3590393756366
 31
0.0
 11
126.0944749718356
 21
109.3712532612811
 31
0.0
 11
125.789611170622
 21
109.3590393756366
 31
0.0
 11
125.4874156163798
 21
109.3225810247205
 31
0.0
 11
125.1891195777388
 21
109.2619463740248
 31
0.0
 11
124.8986940636784
 21
109.1780183524625
 31
0.0
 11
124.6160604646841
 21
109.0706861204488
 31
0.0
 11
124.346111053266
 21
108.9418862535172
 31
0.0
 11
124.0878119380426
 21
108.7910245710838
 31
0.0
 11
123.8464091289205
 21
108.6212516397124
 31
0.0
 11
123.6204149747941
 21
108.4314002349679
 31
0.0
 11
123.4147807645232
 21
108.2257321783727
 31
0.0
 11
123.2280922909466
 21
108.0026803295486
 31
0.0
 11
123.0644146904225
 21
107.7672339516924
 31
0.0
 11
122.9228157522605
 21
107.517847308342
 31
0.0
 11
122.8060857009859
 21
107.2596256703244
 31
0.0
 11
122.71393187932
 21
106.9916209994952
 31
0.0
 11
122.6477946601809
 21
106.7183469649463
 31
0.0
 11
122.6078568507171
 21
106.4400202112126
 31
0.0
 11
122.5944749718356
 21
106.1599451166148
 31
0.0
 11
122.6078568507171
 21
105.8798700220171
 31
0.0
  0
SPLINE
  5
11C
330
50
100
AcDbEntity
  8
1
  6
Continuous
 62
     7
100
AcDbSpline
210
0.0
220
0.0
230
1.0
 70
    11
 71
     3
 72
    79
 73
    75
 74
    73
 42
0.000000001
 43
0.0000000001
 44
0.00000001
 40
0.0
 40
0.0
 40
0.0
 40
0.0
 40
0.2811775335845698
 40
0.5623408853747478
 40
0.8457466557585832
 40
1.129126823298124
 40
1.415908896080593
 40
1.70265853223054
 40
1.993527426214085
 40
2.284362049291603
 40
2.579517793968347
 40
2.87464177554478
 40
3.173769975763994
 40
3.472872116266102
 40
3.775199685813556
 40
4.077508951322151
 40
4.381905218576889
 40
4.686292084806955
 40
4.991400452873894
 40
5.296508820930268
 40
5.600895687128693
 40
5.905291954330274
 40
6.207601219764319
 40
6.509928789214294
 40
6.809030929596534
 40
7.108159129670992
 40
7.403283111078608
 40
7.698438855558339
 40
7.989273478411292
 40
8.280142372135868
 40
8.566892007989255
 40
8.853674080420324
 40
9.13705424752156
 40
9.420460017266707
 40
9.701623367658263
 40
9.982800910067727
 40
10.26319551269432
 40
10.54359011531986
 40
10.82476765772612
 40
11.10593100811238
 40
11.3893367778502
 40
11.67271694494217
 40
11.95949901736214
 40
12.24624865320277
 40
12.53711754691296
 40
12.82795216975017
 40
13.12310791421277
 40
13.41823189560212
 40
13.7173600956573
 40
14.01646223601953
 40
14.3187898054486
 40
14.62109907086105
 40
14.92549533804038
 40
15.22988220421609
 40
15.53499057224923
 40
15.8400989402925
 40
16.14448580649854
 40
16.4488820737288
 40
16.75119133921259
 40
17.05351890873465
 40
17.35262104921097
 40
17.65174924940351
 40
17.94687323095227
 40
18.24202897559944
 40
18.53286359864467
 40
18.8237324925907
 40
19.11048212869354
 40
19.39726420140849
 40
19.68064436883123
 40
19.96405013895108
 40
20.2452134898037
 40
20.52639103287067
 40
20.80678563691642
 40
21.08718023073303
 40
21.08718023073303
 40
21.08718023073303
 40
21.08718023073303
 10
122.6078568507171
 20
128.956680709608
 30
0.0
 10
122.6193079724393
 20
129.04977678171
 30
0.0
 10
122.6422096330126
 20
129.2359642310963
 30
0.0
 10
122.7102469224037
 20
129.5102016824993
 30
0.0
 10
122.8018690509192
 20
129.7779283505885
 30
0.0
 10
122.9194800384686
 20
130.0374888392053
 30
0.0
 10
123.060698361497
 20
130.28622313189
 30
0.0
 10
123.2255203320892
 20
130.5230372369518
 30
0.0
 10
123.4115976291253
 20
130.7452956012573
 30
0.0
 10
123.6186224786224
 20
130.9521509886152
 30
0.0
 10
123.8438212762356
 20
131.1412647923368
 30
0.0
 10
124.0866861816729
 20
131.3119131766883
 30
0.0
 10
124.3441548125995
 20
131.4622304941306
 30
0.0
 10
124.6154327097938
 20
131.5915538296793
 30
0.0
 10
124.8973858636302
 20
131.6985867573009
 30
0.0
 10
125.1888230169337
 20
131.7827338951437
 30
0.0
 10
125.4867609603298
 20
131.8432784040298
 30
0.0
 10
125.7895266250729
 20
131.879765600946
 30
0.0
 10
126.0944749622384
 20
131.8919926574731
 30
0.0
 10
126.3994232994133
 20
131.8797656012984
 30
0.0
 10
126.7021889641499
 20
131.8432784047342
 30
0.0
 10
127.0001269076259
 20
131.7827338962096
 30
0.0
 10
127.2915640607259
 20
131.6985867587046
 30
0.0
 10
127.5735172154462
 20
131.5915538315278
 30
0.0
 10
127.8447951095432
 20
131.4622304960499
 30
0.0
 10
128.1022637521642
 20
131.311913180097
 30
0.0
 10
128.3451286147731
 20
131.1412647920355
 30
0.0
 10
128.5703275713258
 20
130.9521510038892
 30
0.0
 10
128.7773518363081
 20
130.7452955610933
 30
0.0
 10
128.963431298475
 20
130.5230374040649
 30
0.0
 10
129.1282452982151
 20
130.2862225379288
 30
0.0
 10
129.2694931666192
 20
130.0374910684851
 30
0.0
 10
129.3869951340673
 20
129.7779201647993
 30
0.0
 10
129.4790220814353
 20
129.5102321737305
 30
0.0
 10
129.5455599090575
 20
129.2358514630503
 30
0.0
 10
129.5854626926762
 20
128.9573604517903
 30
0.0
 10
129.5989748140157
 20
128.6766056156041
 30
0.0
 10
129.5854626927006
 20
128.3958507794179
 30
0.0
 10
129.5455599091064
 20
128.1173597681575
 30
0.0
 10
129.4790220815084
 20
127.842979057477
 30
0.0
 10
129.3869951341647
 20
127.5752910664075
 30
0.0
 10
129.2694931667406
 20
127.3157201627209
 30
0.0
 10
129.1282452983604
 20
127.0669886932763
 30
0.0
 10
128.9634312986441
 20
126.8301738271392
 30
0.0
 10
128.7773518365009
 20
126.6079156701096
 30
0.0
 10
128.5703275715418
 20
126.4010602273126
 30
0.0
 10
128.3451286150125
 20
126.211946439165
 30
0.0
 10
128.1022637524268
 20
126.0412980511021
 30
0.0
 10
127.8447951098289
 20
125.8909807351477
 30
0.0
 10
127.5735172157549
 20
125.7616573996679
 30
0.0
 10
127.2915640610576
 20
125.6546244724894
 30
0.0
 10
127.0001269079805
 20
125.5704773349826
 30
0.0
 10
126.7021889645276
 20
125.5099328264558
 30
0.0
 10
126.3994232998139
 20
125.4734456298892
 30
0.0
 10
126.0944749626635
 20
125.4612185737118
 30
0.0
 10
125.7895266255173
 20
125.4734456302355
 30
0.0
 10
125.4867609608135
 20
125.5099328271496
 30
0.0
 10
125.188823017384
 20
125.5704773360248
 30
0.0
 10
124.8973858643174
 20
125.6546244738855
 30
0.0
 10
124.6154327097164
 20
125.7616574014133
 30
0.0
 10
124.3441548154618
 20
125.8909807372751
 30
0.0
 10
124.0866861737528
 20
126.0412980535147
 30
0.0
 10
123.8438213081571
 20
126.2119464422436
 30
0.0
 10
123.6186223630944
 20
126.401060229681
 30
0.0
 10
123.4115980563125
 20
126.6079156768704
 30
0.0
 10
123.2255187494977
 20
126.8301738194658
 30
0.0
 10
123.0607041784203
 20
127.0669887406127
 30
0.0
 10
122.9194584284552
 20
127.3157200081041
 30
0.0
 10
122.8019486449083
 20
127.575291659008
 30
0.0
 10
122.7099507215923
 20
127.8429768776586
 30
0.0
 10
122.6433053890031
 20
128.1173678599247
 30
0.0
 10
122.6038028036672
 20
128.3958206375075
 30
0.0
 10
122.588801025111
 20
128.6767177925504
 30
0.0
 10
122.6015049107185
 20
128.8633597382785
 30
0.0
 10
122.6078568507171
 20
128.956680709608
 30
0.0
 11
122.6078568507171
 21
128.956680709608
 31
0.0
 11
122.6477946601809
 21
129.2350074633417
 31
0.0
 11
122.71393187932
 21
129.5082814978906
 31
0.0
 11
122.8060857009858
 21
129.7762861687197
 31
0.0
 11
122.9228157522605
 21
130.0345078067373
 31
0.0
 11
123.0644146904226
 21
130.2838944500878
 31
0.0
 11
123.2280922909466
 21
130.5193408279439
 31
0.0
 11
123.4147807645232
 21
130.7423926767681
 31
0.0
 11
123.620414974794
 21
130.9480607333634
 31
0.0
 11
123.8464091289205
 21
131.1379121381079
 31
0.0
 11
124.0878119380426
 21
131.3076850694793
 31
0.0
 11
124.346111053266
 21
131.4585467519127
 31
0.0
 11
124.6160604646841
 21
131.5873466188442
 31
0.0
 11
124.8986940636785
 21
131.6946788508578
 31
0.0
 11
125.1891195777389
 21
131.7786068724202
 31
0.0
 11
125.4874156163798
 21
131.8392415231159
 31
0.0
 11
125.789611170622
 21
131.875699874032
 31
0.0
 11
126.0944749718356
 21
131.8879137596765
 31
0.0
 11
126.3993387730492
 21
131.875699874032
 31
0.0
 11
126.7015343272913
 21
131.8392415231159
 31
0.0
 11
126.9998303659322
 21
131.7786068724203
 31
0.0
 11
127.2902558799927
 21
131.6946788508578
 31
0.0
 11
127.5728894789871
 21
131.5873466188442
 31
0.0
 11
127.8428388904051
 21
131.4585467519127
 31
0.0
 11
128.1011380056285
 21
131.3076850694793
 31
0.0
 11
128.3425408147508
 21
131.1379121381079
 31
0.0
 11
128.5685349688772
 21
130.9480607333634
 31
0.0
 11
128.774169179148
 21
130.7423926767681
 31
0.0
 11
128.9608576527245
 21
130.5193408279439
 31
0.0
 11
129.1245352532486
 21
130.2838944500878
 31
0.0
 11
129.2661341914106
 21
130.0345078067373
 31
0.0
 11
129.3828642426853
 21
129.7762861687197
 31
0.0
 11
129.4750180643511
 21
129.5082814978906
 31
0.0
 11
129.5411552834902
 21
129.2350074633417
 31
0.0
 11
129.5810930929541
 21
128.956680709608
 31
0.0
 11
129.5944749718356
 21
128.6766056150103
 31
0.0
 11
129.5810930929541
 21
128.3965305204126
 31
0.0
 11
129.5411552834902
 21
128.1182037666789
 31
0.0
 11
129.4750180643511
 21
127.84492973213
 31
0.0
 11
129.3828642426853
 21
127.5769250613008
 31
0.0
 11
129.2661341914106
 21
127.3187034232832
 31
0.0
 11
129.1245352532486
 21
127.0693167799326
 31
0.0
 11
128.9608576527245
 21
126.8338704020765
 31
0.0
 11
128.774169179148
 21
126.6108185532523
 31
0.0
 11
128.5685349688771
 21
126.4051504966571
 31
0.0
 11
128.3425408147507
 21
126.2152990919127
 31
0.0
 11
128.1011380056286
 21
126.0455261605413
 31
0.0
 11
127.8428388904052
 21
125.8946644781079
 31
0.0
 11
127.5728894789871
 21
125.7658646111763
 31
0.0
 11
127.2902558799927
 21
125.6585323791626
 31
0.0
 11
126.9998303659323
 21
125.5746043576003
 31
0.0
 11
126.7015343272913
 21
125.5139697069046
 31
0.0
 11
126.3993387730492
 21
125.4775113559885
 31
0.0
 11
126.0944749718356
 21
125.465297470344
 31
0.0
 11
125.789611170622
 21
125.4775113559885
 31
0.0
 11
125.4874156163798
 21
125.5139697069046
 31
0.0
 11
125.1891195777388
 21
125.5746043576003
 31
0.0
 11
124.8986940636784
 21
125.6585323791627
 31
0.0
 11
124.6160604646841
 21
125.7658646111763
 31
0.0
 11
124.346111053266
 21
125.8946644781079
 31
0.0
 11
124.0878119380426
 21
126.0455261605413
 31
0.0
 11
123.8464091289205
 21
126.2152990919127
 31
0.0
 11
123.6204149747941
 21
126.4051504966571
 31
0.0
 11
123.4147807645232
 21
126.6108185532523
 31
0.0
 11
123.2280922909466
 21
126.8338704020764
 31
0.0
 11
123.0644146904225
 21
127.0693167799326
 31
0.0
 11
122.9228157522605
 21
127.3187034232831
 31
0.0
 11
122.8060857009859
 21
127.5769250613008
 31
0.0
 11
122.71393187932
 21
127.8449297321299
 31
0.0
 11
122.6477946601809
 21
128.1182037666788
 31
0.0
 11
122.6078568507171
 21
128.3965305204125
 31
0.0
 11
122.5944749718356
 21
128.6766056150103
 31
0.0
 11
122.6078568507171
 21
128.956680709608
 31
0.0
  0
ENDBLK
  5
52
330
50
100
AcDbEntity
  8
0
100
AcDbBlockEnd
  0
BLOCK
  5
56
330
53
100
AcDbEntity
  8
0
100
AcDbBlockBegin
  2
V22AD-X
 70
     0
 10
330.3453991555655
 20
-21.4795013752797
 30
0.0
  3
V22AD-X
  1

  0
INSERT
  5
54
330
53
100
AcDbEntity
  8
1
100
AcDbBlockReference
  2
36-54A
 10
435.7787589955043
 20
49.31993217054621
 30
0.0
  0
INSERT
  5
55
330
53
100
AcDbEntity
  8
0
100
AcDbBlockReference
  2
37-1-13
 10
488.59018086198
 20
25.61704514904152
 30
0.0
  0
ENDBLK
  5
57
330
53
100
AcDbEntity
  8
0
100
AcDbBlockEnd
  0
BLOCK
  5
59
330
58
100
AcDbEntity
  8
0
100
AcDbBlockBegin
  2
開示A4
 70
     0
 10
0.0
 20
0.0
 30
0.0
  3
開示A4
  1

  0
POINT
  5
11D
330
58
100
AcDbEntity
  8
1
 62
     4
100
AcDbPoint
 10
93.75000000000003
 20
17.00000000000001
 30
0.0
  0
POINT
  5
11E
330
58
100
AcDbEntity
  8
1
 62
     4
100
AcDbPoint
 10
85.25000000000003
 20
17.00000000000001
 30
0.0
  0
POINT
  5
11F
330
58
100
AcDbEntity
  8
1
 62
     4
100
AcDbPoint
 10
106.5
 20
19.00000000000001
 30
0.0
  0
POINT
  5
120
330
58
100
AcDbEntity
  8
1
 62
     4
100
AcDbPoint
 10
106.5
 20
12.50000000000001
 30
0.0
  0
POINT
  5
121
330
58
100
AcDbEntity
  8
1
 62
     4
100
AcDbPoint
 10
112.25
 20
12.50000000000001
 30
0.0
  0
POINT
  5
122
330
58
100
AcDbEntity
  8
1
 62
     4
100
AcDbPoint
 10
100.75
 20
12.50000000000001
 30
0.0
  0
POINT
  5
123
330
58
100
AcDbEntity
  8
1
 62
     4
100
AcDbPoint
 10
123.5
 20
19.00000000000001
 30
0.0
  0
POINT
  5
124
330
58
100
AcDbEntity
  8
1
 62
     4
100
AcDbPoint
 10
123.5
 20
12.50000000000001
 30
0.0
  0
POINT
  5
125
330
58
100
AcDbEntity
  8
1
 62
     4
100
AcDbPoint
 10
129.25
 20
12.50000000000001
 30
0.0
  0
POINT
  5
126
330
58
100
AcDbEntity
  8
1
 62
     4
100
AcDbPoint
 10
117.75
 20
12.50000000000001
 30
0.0
  0
POINT
  5
127
330
58
100
AcDbEntity
  8
1
 62
     4
100
AcDbPoint
 10
140.5
 20
19.00000000000001
 30
0.0
  0
POINT
  5
128
330
58
100
AcDbEntity
  8
1
 62
     4
100
AcDbPoint
 10
140.5
 20
12.50000000000001
 30
0.0
  0
POINT
  5
129
330
58
100
AcDbEntity
  8
1
 62
     4
100
AcDbPoint
 10
146.25
 20
12.50000000000001
 30
0.0
  0
POINT
  5
12A
330
58
100
AcDbEntity
  8
1
 62
     4
100
AcDbPoint
 10
134.75
 20
12.50000000000001
 30
0.0
  0
POINT
  5
12B
330
58
100
AcDbEntity
  8
1
 62
     4
100
AcDbPoint
 10
151.75
 20
12.50000000000001
 30
0.0
  0
POINT
  5
12C
330
58
100
AcDbEntity
  8
1
 62
     4
100
AcDbPoint
 10
163.25
 20
12.50000000000001
 30
0.0
  0
POINT
  5
12D
330
58
100
AcDbEntity
  8
1
 62
     4
100
AcDbPoint
 10
157.5
 20
12.50000000000001
 30
0.0
  0
POINT
  5
12E
330
58
100
AcDbEntity
  8
1
 62
     4
100
AcDbPoint
 10
57.00000000000003
 20
14.25000000000001
 30
0.0
  0
POINT
  5
12F
330
58
100
AcDbEntity
  8
1
 62
     4
100
AcDbPoint
 10
57.00000000000003
 20
22.75000000000001
 30
0.0
  0
POINT
  5
130
330
58
100
AcDbEntity
  8
1
 62
     4
100
AcDbPoint
 10
47.50000000000003
 20
282.0000000000003
 30
0.0
  0
POINT
  5
131
330
58
100
AcDbEntity
  8
1
 62
     4
100
AcDbPoint
 10
157.5
 20
19.00000000000001
 30
0.0
  0
POINT
  5
132
330
58
100
AcDbEntity
  8
1
 62
     4
100
AcDbPoint
 10
57.00000000000003
 20
16.25000000000001
 30
0.0
  0
POINT
  5
133
330
58
100
AcDbEntity
  8
1
 62
     4
100
AcDbPoint
 10
57.00000000000003
 20
24.75000000000001
 30
0.0
  0
POINT
  5
134
330
58
100
AcDbEntity
  8
1
 62
     4
100
AcDbPoint
 10
57.00000000000003
 20
20.75000000000001
 30
0.0
  0
POINT
  5
135
330
58
100
AcDbEntity
  8
1
 62
     4
100
AcDbPoint
 10
57.00000000000003
 20
12.25000000000001
 30
0.0
  0
POINT
  5
136
330
58
100
AcDbEntity
  8
1
 62
     4
100
AcDbPoint
 10
34.0
 20
34.00000000000001
 30
0.0
  0
LINE
  5
137
330
58
100
AcDbEntity
  8
1
  6
Continuous
 62
     7
100
AcDbLine
 10
105.0
 20
10.00000000000001
 30
0.0
 11
200.0
 21
10.00000000000001
 31
0.0
  0
LINE
  5
138
330
58
100
AcDbEntity
  8
1
  6
Continuous
 62
     2
100
AcDbLine
 10
105.0
 20
10.00000000000001
 30
0.0
 11
105.0
 21
4.99999999999999
 31
0.0
  0
LINE
  5
139
330
58
100
AcDbEntity
  8
1
  6
Continuous
 62
     7
100
AcDbLine
 10
200.0
 20
148.5
 30
0.0
 11
200.0
 21
287.0000000000003
 31
0.0
  0
LINE
  5
13A
330
58
100
AcDbEntity
  8
1
  6
Continuous
 62
     2
100
AcDbLine
 10
200.0
 20
148.5
 30
0.0
 11
205.0
 21
148.5
 31
0.0
  0
LINE
  5
13B
330
58
100
AcDbEntity
  8
1
  6
Continuous
 62
     7
100
AcDbLine
 10
25.0
 20
148.5
 30
0.0
 11
25.0
 21
287.0000000000003
 31
0.0
  0
LINE
  5
13C
330
58
100
AcDbEntity
  8
1
  6
Continuous
 62
     2
100
AcDbLine
 10
25.0
 20
148.5
 30
0.0
 11
20.0
 21
148.5
 31
0.0
  0
LINE
  5
13D
330
58
100
AcDbEntity
  8
1
  6
Continuous
 62
     7
100
AcDbLine
 10
105.0
 20
287.0000000000003
 30
0.0
 11
25.0
 21
287.0000000000003
 31
0.0
  0
LINE
  5
13E
330
58
100
AcDbEntity
  8
1
  6
Continuous
 62
     2
100
AcDbLine
 10
105.0
 20
287.0000000000003
 30
0.0
 11
105.0
 21
292.0000000000003
 31
0.0
  0
LINE
  5
13F
330
58
100
AcDbEntity
  8
1
  6
Continuous
 62
     2
100
AcDbLine
 10
166.0
 20
20.00000000000001
 30
0.0
 11
200.0
 21
20.00000000000001
 31
0.0
  0
LINE
  5
140
330
58
100
AcDbEntity
  8
1
  6
Continuous
 62
     2
100
AcDbLine
 10
98.00000000000003
 20
27.00000000000001
 30
0.0
 11
98.00000000000003
 21
9.99999999999999
 31
0.0
  0
LINE
  5
141
330
58
100
AcDbEntity
  8
1
  6
Continuous
 62
     2
100
AcDbLine
 10
115.0
 20
27.00000000000001
 30
0.0
 11
115.0
 21
9.99999999999999
 31
0.0
  0
LINE
  5
142
330
58
100
AcDbEntity
  8
1
  6
Continuous
 62
     2
100
AcDbLine
 10
149.0
 20
27.00000000000001
 30
0.0
 11
149.0
 21
10.00000000000001
 31
0.0
  0
LINE
  5
143
330
58
100
AcDbEntity
  8
1
  6
Continuous
 62
     2
100
AcDbLine
 10
132.0
 20
27.00000000000001
 30
0.0
 11
132.0
 21
9.99999999999999
 31
0.0
  0
LINE
  5
144
330
58
100
AcDbEntity
  8
1
  6
Continuous
 62
     2
100
AcDbLine
 10
166.0
 20
27.00000000000001
 30
0.0
 11
166.0
 21
10.00000000000001
 31
0.0
  0
LINE
  5
145
330
58
100
AcDbEntity
  8
1
  6
Continuous
 62
     2
100
AcDbLine
 10
55.00000000000003
 20
277.0000000000003
 30
0.0
 11
25.0
 21
277.0000000000003
 31
0.0
  0
LINE
  5
146
330
58
100
AcDbEntity
  8
1
  6
Continuous
 62
     7
100
AcDbLine
 10
25.0
 20
10.00000000000001
 30
0.0
 11
25.0
 21
148.5
 31
0.0
  0
LINE
  5
147
330
58
100
AcDbEntity
  8
1
  6
Continuous
 62
     2
100
AcDbLine
 10
40.0
 20
287.0000000000003
 30
0.0
 11
40.0
 21
277.0000000000003
 31
0.0
  0
LINE
  5
148
330
58
100
AcDbEntity
  8
1
  6
Continuous
 62
     2
100
AcDbLine
 10
55.00000000000003
 20
287.0000000000003
 30
0.0
 11
55.00000000000003
 21
277.0000000000003
 31
0.0
  0
LINE
  5
149
330
58
100
AcDbEntity
  8
1
  6
Continuous
 62
     2
100
AcDbLine
 10
33.0
 20
41.00000000000001
 30
0.0
 11
33.0
 21
27.00000000000001
 31
0.0
  0
LINE
  5
14A
330
58
100
AcDbEntity
  8
1
  6
Continuous
 62
     7
100
AcDbLine
 10
200.0
 20
27.00000000000001
 30
0.0
 11
25.0
 21
27.00000000000001
 31
0.0
  0
LINE
  5
14B
330
58
100
AcDbEntity
  8
1
  6
Continuous
 62
     7
100
AcDbLine
 10
25.0
 20
41.00000000000001
 30
0.0
 11
200.0
 21
41.00000000000001
 31
0.0
  0
LINE
  5
14C
330
58
100
AcDbEntity
  8
1
  6
PHANTOM
 62
     4
100
AcDbLine
 10
0.0
 20
0.0
 30
0.0
 11
210.0000000000001
 21
0.0
 31
0.0
  0
LINE
  5
14D
330
58
100
AcDbEntity
  8
1
  6
PHANTOM
 62
     4
100
AcDbLine
 10
210.0000000000001
 20
0.0
 30
0.0
 11
210.0000000000001
 21
297.0
 31
0.0
  0
LINE
  5
14E
330
58
100
AcDbEntity
  8
1
  6
PHANTOM
 62
     4
100
AcDbLine
 10
210.0000000000001
 20
297.0
 30
0.0
 11
0.0
 21
297.0
 31
0.0
  0
LINE
  5
14F
330
58
100
AcDbEntity
  8
1
  6
PHANTOM
 62
     4
100
AcDbLine
 10
0.0
 20
297.0
 30
0.0
 11
0.0
 21
0.0
 31
0.0
  0
LINE
  5
150
330
58
100
AcDbEntity
  8
1
  6
Continuous
 62
     7
100
AcDbLine
 10
25.0
 20
10.00000000000001
 30
0.0
 11
105.0
 21
10.00000000000001
 31
0.0
  0
LINE
  5
151
330
58
100
AcDbEntity
  8
1
  6
Continuous
 62
     7
100
AcDbLine
 10
200.0
 20
10.00000000000001
 30
0.0
 11
200.0
 21
148.5
 31
0.0
  0
LINE
  5
152
330
58
100
AcDbEntity
  8
1
  6
Continuous
 62
     7
100
AcDbLine
 10
200.0
 20
287.0000000000003
 30
0.0
 11
105.0
 21
287.0000000000003
 31
0.0
  0
LINE
  5
153
330
58
100
AcDbEntity
  8
1
  6
Continuous
 62
     2
100
AcDbLine
 10
25.0
 20
18.50000000000001
 30
0.0
 11
81.00000000000003
 21
18.50000000000001
 31
0.0
  0
LINE
  5
154
330
58
100
AcDbEntity
  8
1
  6
Continuous
 62
     2
100
AcDbLine
 10
33.0
 20
27.00000000000001
 30
0.0
 11
33.0
 21
10.00000000000001
 31
0.0
  0
LINE
  5
155
330
58
100
AcDbEntity
  8
1
  6
Continuous
 62
     7
100
AcDbLine
 10
191.0
 20
24.7
 30
0.0
 11
191.0
 21
22.30000000000003
 31
0.0
  0
LINE
  5
156
330
58
100
AcDbEntity
  8
1
  6
Continuous
 62
     7
100
AcDbLine
 10
191.0
 20
24.7
 30
0.0
 11
196.0
 21
25.50000000000001
 31
0.0
  0
LINE
  5
157
330
58
100
AcDbEntity
  8
1
  6
Continuous
 62
     7
100
AcDbLine
 10
196.0
 20
25.50000000000001
 30
0.0
 11
196.0
 21
21.50000000000001
 31
0.0
  0
LINE
  5
158
330
58
100
AcDbEntity
  8
1
  6
Continuous
 62
     7
100
AcDbLine
 10
196.0
 20
21.50000000000001
 30
0.0
 11
191.0
 21
22.30000000000003
 31
0.0
  0
LINE
  5
159
330
58
100
AcDbEntity
  8
1
  6
DOT_CENTER
 62
     2
100
AcDbLine
 10
184.0
 20
23.50000000000001
 30
0.0
 11
197.0
 21
23.50000000000001
 31
0.0
  0
LINE
  5
15A
330
58
100
AcDbEntity
  8
1
  6
DOT_CENTER
 62
     2
100
AcDbLine
 10
187.0
 20
26.50000000000001
 30
0.0
 11
187.0
 21
20.50000000000001
 31
0.0
  0
LINE
  5
15B
330
58
100
AcDbEntity
  8
1
  6
Continuous
 62
     2
100
AcDbLine
 10
81.00000000000003
 20
27.00000000000001
 30
0.0
 11
81.00000000000003
 21
10.00000000000001
 31
0.0
  0
CIRCLE
  5
15C
330
58
100
AcDbEntity
  8
1
  6
Continuous
 62
     7
100
AcDbCircle
 10
103.5
 20
12.50000000000001
 30
0.0
 40
0.2999999999999972
  0
CIRCLE
  5
15D
330
58
100
AcDbEntity
  8
1
  6
Continuous
 62
     7
100
AcDbCircle
 10
109.5
 20
12.50000000000001
 30
0.0
 40
0.2999999999999972
  0
CIRCLE
  5
15E
330
58
100
AcDbEntity
  8
1
  6
Continuous
 62
     7
100
AcDbCircle
 10
120.5
 20
12.50000000000001
 30
0.0
 40
0.2999999999999972
  0
CIRCLE
  5
15F
330
58
100
AcDbEntity
  8
1
  6
Continuous
 62
     7
100
AcDbCircle
 10
126.5
 20
12.50000000000001
 30
0.0
 40
0.2999999999999972
  0
CIRCLE
  5
160
330
58
100
AcDbEntity
  8
1
  6
Continuous
 62
     7
100
AcDbCircle
 10
137.5
 20
12.50000000000001
 30
0.0
 40
0.3000000000000114
  0
CIRCLE
  5
161
330
58
100
AcDbEntity
  8
1
  6
Continuous
 62
     7
100
AcDbCircle
 10
143.5
 20
12.50000000000001
 30
0.0
 40
0.3000000000000114
  0
CIRCLE
  5
162
330
58
100
AcDbEntity
  8
1
  6
Continuous
 62
     7
100
AcDbCircle
 10
160.5
 20
12.50000000000001
 30
0.0
 40
0.3000000000000114
  0
CIRCLE
  5
163
330
58
100
AcDbEntity
  8
1
  6
Continuous
 62
     7
100
AcDbCircle
 10
154.5
 20
12.50000000000001
 30
0.0
 40
0.3000000000000114
  0
CIRCLE
  5
164
330
58
100
AcDbEntity
  8
1
  6
Continuous
 62
     7
100
AcDbCircle
 10
187.0
 20
23.50000000000001
 30
0.0
 40
1.200000000000102
  0
CIRCLE
  5
165
330
58
100
AcDbEntity
  8
1
  6
Continuous
 62
     7
100
AcDbCircle
 10
187.0
 20
23.50000000000001
 30
0.0
 40
2.0
  0
CIRCLE
  5
166
330
58
100
AcDbEntity
  8
1
  6
DOT_CENTER
 62
     7
100
AcDbCircle
 10
89.50000000000003
 20
16.00000000000001
 30
0.0
 40
0.1000000000000227
  0
CIRCLE
  5
167
330
58
100
AcDbEntity
  8
1
  6
DOT_CENTER
 62
     7
100
AcDbCircle
 10
89.50000000000003
 20
18.00000000000001
 30
0.0
 40
0.1000000000000227
  0
MTEXT
  5
169
330
58
100
AcDbEntity
  8
1
 62
     7
100
AcDbMText
 10
188.5
 20
15.00000000000001
 30
0.0
 40
3.0
 41
0.0
 71
     5
 72
     1
  1
三栄水栓製作所
  7
CONVERTER_11
 73
     1
 44
1.0
  0
MTEXT
  5
16A
330
58
100
AcDbEntity
  8
1
 62
     7
100
AcDbMText
 10
171.5
 20
15.00000000000001
 30
0.0
 40
2.5
 41
0.0
 71
     5
 72
     1
  1
株式会社
  7
CONVERTER_11
 73
     1
 44
1.0
  0
MTEXT
  5
16B
330
58
100
AcDbEntity
  8
1
 62
     2
100
AcDbMText
 10
32.5
 20
282.0000000000003
 30
0.0
 40
5.0
 41
0.0
 71
     5
 72
     1
  1
図番
  7
CONVERTER_11
 73
     1
 44
0.45454545454545
  0
MTEXT
  5
16C
330
58
100
AcDbEntity
  8
1
 62
     2
100
AcDbMText
 10
29.0
 20
34.00000000000001
 30
0.0
 40
3.5
 41
0.0
 71
     5
 72
     1
  1
備考
  7
CONVERTER_11
 73
     1
 44
0.45454545454545
  0
MTEXT
  5
16D
330
58
100
AcDbEntity
  8
1
 62
     2
100
AcDbMText
 10
29.0
 20
22.75000000000001
 30
0.0
 40
3.5
 41
0.0
 71
     5
 72
     1
  1
品名
  7
CONVERTER_11
 73
     1
 44
0.72727272727273
  0
MTEXT
  5
16E
330
58
100
AcDbEntity
  8
1
 62
     2
100
AcDbMText
 10
29.0
 20
14.25000000000001
 30
0.0
 40
3.5
 41
0.0
 71
     5
 72
     1
  1
品番
  7
CONVERTER_11
 73
     1
 44
0.72727272727273
  0
MTEXT
  5
16F
330
58
100
AcDbEntity
  8
1
 62
     2
100
AcDbMText
 10
101.5
 20
25.00000000000001
 30
0.0
 40
3.0
 41
0.0
 71
     5
 72
     1
  1
承認
  7
CONVERTER_11
 73
     1
 44
0.59090909090909
  0
MTEXT
  5
170
330
58
100
AcDbEntity
  8
1
 62
     2
100
AcDbMText
 10
175.0
 20
23.50000000000001
 30
0.0
 40
3.5
 41
0.0
 71
     5
 72
     1
  1
第三角法
  7
CONVERTER_11
 73
     1
 44
0.54545454545455
  0
MTEXT
  5
171
330
58
100
AcDbEntity
  8
1
 62
     2
100
AcDbMText
 10
118.5
 20
25.00000000000001
 30
0.0
 40
3.0
 41
0.0
 71
     5
 72
     1
  1
検図
  7
CONVERTER_11
 73
     1
 44
0.59090909090909
  0
MTEXT
  5
172
330
58
100
AcDbEntity
  8
1
 62
     2
100
AcDbMText
 10
152.5
 20
25.00000000000001
 30
0.0
 40
3.0
 41
0.0
 71
     5
 72
     1
  1
設計
  7
CONVERTER_11
 73
     1
 44
0.59090909090909
  0
MTEXT
  5
173
330
58
100
AcDbEntity
  8
1
 62
     2
100
AcDbMText
 10
135.5
 20
25.00000000000001
 30
0.0
 40
3.0
 41
0.0
 71
     5
 72
     1
  1
製図
  7
CONVERTER_11
 73
     1
 44
0.59090909090909
  0
MTEXT
  5
174
330
58
100
AcDbEntity
  8
1
 62
     2
100
AcDbMText
 10
89.50000000000003
 20
24.00000000000001
 30
0.0
 40
3.5
 41
0.0
 71
     5
 72
     1
  1
尺度
  7
CONVERTER_11
 73
     1
 44
0.54545454545455
  0
MTEXT
  5
175
330
58
100
AcDbEntity
  8
1
 62
   250
100
AcDbMText
 10
25.0
 20
5.00000000000001
 30
0.0
 40
3.5
 41
0.0
 71
     4
 72
     1
  1
備考欄の文字列 原点位置=4
  7
CONVERTER_11
 73
     1
 44
0.54545454545455
  0
ENDBLK
  5
5A
330
58
100
AcDbEntity
  8
0
100
AcDbBlockEnd
  0
BLOCK
  5
190
330
189
100
AcDbEntity
  8
0
100
AcDbBlockBegin
  2
*D7
 70
     1
 10
0.0
 20
0.0
 30
0.0
  3
*D7
  1

  0
LINE
  5
18A
330
189
100
AcDbEntity
  8
1
  6
Continuous
 62
     2
100
AcDbLine
 10
146.0944749718356
 20
92.40716836688222
 30
0.0
 11
174.0944749718356
 21
92.40716836688222
 31
0.0
  0
LINE
  5
18B
330
189
100
AcDbEntity
  8
1
  6
Continuous
 62
     2
100
AcDbLine
 10
146.0944749718356
 20
100.2979536363675
 30
0.0
 11
146.0944749718356
 21
91.40716836688222
 31
0.0
  0
LINE
  5
18C
330
189
100
AcDbEntity
  8
1
  6
Continuous
 62
     2
100
AcDbLine
 10
174.0944749718356
 20
104.6682753658125
 30
0.0
 11
174.0944749718356
 21
91.40716836688222
 31
0.0
  0
SOLID
  5
18D
330
189
100
AcDbEntity
  8
1
 62
     2
100
AcDbTrace
 10
149.5944749718356
 20
92.8679521084381
 30
0.0
 11
149.5944749718356
 21
91.94638462532633
 31
0.0
 12
146.0944749718356
 22
92.40716836688222
 32
0.0
 13
146.0944749718356
 23
92.40716836688222
 33
0.0
  0
SOLID
  5
18E
330
189
100
AcDbEntity
  8
1
 62
     2
100
AcDbTrace
 10
170.5944749718356
 20
91.94638462532633
 30
0.0
 11
170.5944749718356
 21
92.8679521084381
 31
0.0
 12
174.0944749718356
 22
92.40716836688222
 32
0.0
 13
174.0944749718356
 23
92.40716836688222
 33
0.0
  0
MTEXT
  5
18F
330
189
100
AcDbEntity
  8
1
 62
     7
100
AcDbMText
 10
158.382217549505
 20
93.40716836688222
 30
0.0
 40
3.5
 41
0.0
 71
     7
 72
     1
  1
28
  7
CONVERTER_12
 11
0.9999999999970619
 21
2.424068405545306E-6
 31
0.0
 73
     1
 44
0.60024009603842
  0
ENDBLK
  5
191
330
189
100
AcDbEntity
  8
0
100
AcDbBlockEnd
  0
BLOCK
  5
19B
330
194
100
AcDbEntity
  8
0
100
AcDbBlockBegin
  2
*D8
 70
     1
 10
0.0
 20
0.0
 30
0.0
  3
*D8
  1

  0
LINE
  5
195
330
194
100
AcDbEntity
  8
1
  6
Continuous
 62
     2
100
AcDbLine
 10
113.0944749718356
 20
92.40716836688222
 30
0.0
 11
146.0944749718356
 21
92.40716836688222
 31
0.0
  0
LINE
  5
196
330
194
100
AcDbEntity
  8
1
  6
Continuous
 62
     2
100
AcDbLine
 10
146.0944749718356
 20
101.9182753658125
 30
0.0
 11
146.0944749718356
 21
91.40716836688222
 31
0.0
  0
LINE
  5
197
330
194
100
AcDbEntity
  8
1
  6
Continuous
 62
     2
100
AcDbLine
 10
113.0944749718356
 20
113.6682753658125
 30
0.0
 11
113.0944749718356
 21
91.40716836688222
 31
0.0
  0
SOLID
  5
198
330
194
100
AcDbEntity
  8
1
 62
     2
100
AcDbTrace
 10
116.5944749718356
 20
92.8679521084381
 30
0.0
 11
116.5944749718356
 21
91.94638462532633
 31
0.0
 12
113.0944749718356
 22
92.40716836688222
 32
0.0
 13
113.0944749718356
 23
92.40716836688222
 33
0.0
  0
SOLID
  5
199
330
194
100
AcDbEntity
  8
1
 62
     2
100
AcDbTrace
 10
142.5944749718356
 20
91.94638462532633
 30
0.0
 11
142.5944749718356
 21
92.8679521084381
 31
0.0
 12
146.0944749718356
 22
92.40716836688222
 32
0.0
 13
146.0944749718356
 23
92.40716836688222
 33
0.0
  0
MTEXT
  5
19A
330
194
100
AcDbEntity
  8
1
 62
     7
100
AcDbMText
 10
119.325712582972
 20
93.40716836688222
 30
0.0
 40
3.5
 41
0.0
 71
     7
 72
     1
  1
33リフト5
  7
CONVERTER_11
 11
0.9999999999970619
 21
2.424068405545306E-6
 31
0.0
 73
     1
 44
0.45454545454545
  0
ENDBLK
  5
19C
330
194
100
AcDbEntity
  8
0
100
AcDbBlockEnd
  0
BLOCK
  5
1A6
330
19F
100
AcDbEntity
  8
0
100
AcDbBlockBegin
  2
*D9
 70
     1
 10
0.0
 20
0.0
 30
0.0
  3
*D9
  1

  0
LINE
  5
1A0
330
19F
100
AcDbEntity
  8
1
  6
Continuous
 62
     2
100
AcDbLine
 10
103.0944749718356
 20
117.4182753658125
 30
0.0
 11
103.0944749718356
 21
147.4182753658125
 31
0.0
  0
LINE
  5
1A1
330
19F
100
AcDbEntity
  8
1
  6
Continuous
 62
     2
100
AcDbLine
 10
110.0944749718356
 20
117.4182753658125
 30
0.0
 11
102.0944749718356
 21
117.4182753658125
 31
0.0
  0
LINE
  5
1A2
330
19F
100
AcDbEntity
  8
1
  6
Continuous
 62
     2
100
AcDbLine
 10
136.7564749718356
 20
147.4182753658125
 30
0.0
 11
102.0944749718356
 21
147.4182753658125
 31
0.0
  0
SOLID
  5
1A3
330
19F
100
AcDbEntity
  8
1
 62
     2
100
AcDbTrace
 10
102.6336912302797
 20
120.9182753658125
 30
0.0
 11
103.5552587133915
 21
120.9182753658125
 31
0.0
 12
103.0944749718356
 22
117.4182753658125
 32
0.0
 13
103.0944749718356
 23
117.4182753658125
 33
0.0
  0
SOLID
  5
1A4
330
19F
100
AcDbEntity
  8
1
 62
     2
100
AcDbTrace
 10
103.5552587133915
 20
143.9182753658125
 30
0.0
 11
102.6336912302797
 21
143.9182753658125
 31
0.0
 12
103.0944749718356
 22
147.4182753658125
 32
0.0
 13
103.0944749718356
 23
147.4182753658125
 33
0.0
  0
MTEXT
  5
1A5
330
19F
100
AcDbEntity
  8
1
 62
     7
100
AcDbMText
 10
102.0944749718356
 20
130.184304312081
 30
0.0
 40
3.5
 41
0.0
 71
     7
 72
     1
  1
30
  7
CONVERTER_12
 11
0.0
 21
1.0
 31
0.0
 73
     1
 44
0.60024009603842
  0
ENDBLK
  5
1A7
330
19F
100
AcDbEntity
  8
0
100
AcDbBlockEnd
  0
BLOCK
  5
1B1
330
1AA
100
AcDbEntity
  8
0
100
AcDbBlockBegin
  2
*D10
 70
     1
 10
0.0
 20
0.0
 30
0.0
  3
*D10
  1

  0
LINE
  5
1AB
330
1AA
100
AcDbEntity
  8
1
  6
Continuous
 62
     2
100
AcDbLine
 10
44.86104504510138
 20
238.690948854996
 30
0.0
 11
70.86104504510126
 21
238.690948854996
 31
0.0
  0
LINE
  5
1AC
330
1AA
100
AcDbEntity
  8
1
  6
Continuous
 62
     2
100
AcDbLine
 10
44.86104504510138
 20
228.440948854996
 30
0.0
 11
44.86104504510138
 21
239.690948854996
 31
0.0
  0
LINE
  5
1AD
330
1AA
100
AcDbEntity
  8
1
  6
Continuous
 62
     2
100
AcDbLine
 10
70.86104504510126
 20
228.4409488549962
 30
0.0
 11
70.86104504510126
 21
239.690948854996
 31
0.0
  0
SOLID
  5
1AE
330
1AA
100
AcDbEntity
  8
1
 62
     2
100
AcDbTrace
 10
48.36104504510138
 20
239.1517325965519
 30
0.0
 11
48.36104504510138
 21
238.2301651134401
 31
0.0
 12
44.86104504510138
 22
238.690948854996
 32
0.0
 13
44.86104504510138
 23
238.690948854996
 33
0.0
  0
SOLID
  5
1AF
330
1AA
100
AcDbEntity
  8
1
 62
     2
100
AcDbTrace
 10
67.36104504510126
 20
238.2301651134401
 30
0.0
 11
67.36104504510126
 21
239.1517325965519
 31
0.0
 12
70.86104504510126
 22
238.690948854996
 32
0.0
 13
70.86104504510126
 23
238.690948854996
 33
0.0
  0
MTEXT
  5
1B0
330
1AA
100
AcDbEntity
  8
1
 62
     7
100
AcDbMText
 10
55.3922255108688
 20
239.690948854996
 30
0.0
 40
3.5
 41
0.0
 71
     7
 72
     1
  1
26
  7
CONVERTER_12
 11
0.9999999999970619
 21
2.424068405545306E-6
 31
0.0
 73
     1
 44
0.60024009603842
  0
ENDBLK
  5
1B2
330
1AA
100
AcDbEntity
  8
0
100
AcDbBlockEnd
  0
ENDSEC
  0
SECTION
  2
ENTITIES
  0
INSERT
  5
5B
330
1F
100
AcDbEntity
  8
1
100
AcDbBlockReference
  2
V22-0A-13-_表面処理_
 10
9.00000000000004
 20
1342.5
 30
0.0
  0
INSERT
  5
5C
330
1F
100
AcDbEntity
  8
1
100
AcDbBlockReference
  2
V22-0A-13
 10
142.7385709387331
 20
1468.277740897449
 30
0.0
  0
INSERT
  5
5D
330
1F
100
AcDbEntity
  8
0
100
AcDbBlockReference
  2
V22AD-X
 10
330.3453991555655
 20
-21.4795013752797
 30
0.0
  0
INSERT
  5
5E
330
1F
100
AcDbEntity
  8
1
100
AcDbBlockReference
  2
開示A4
 10
0.0
 20
0.0
 30
0.0
  0
LINE
  5
176
330
1F
100
AcDbEntity
  8
1
  6
DASH_CENTER
 62
     2
100
AcDbLine
 10
146.0944749718356
 20
101.9182753658125
 30
0.0
 11
146.0944749718356
 21
150.4182753658125
 31
0.0
  0
LINE
  5
177
330
1F
100
AcDbEntity
  8
1
  6
DASH_CENTER
 62
     2
100
AcDbLine
 10
110.0944749718356
 20
117.4182753658125
 30
0.0
 11
177.0944749718356
 21
117.4182753658125
 31
0.0
  0
LINE
  5
178
330
1F
100
AcDbEntity
  8
1
  6
DASH_CENTER
 62
     2
100
AcDbLine
 10
41.86104504510155
 20
117.418275365813
 30
0.0
 11
73.86104504510143
 21
117.4182753658125
 31
0.0
  0
LINE
  5
179
330
1F
100
AcDbEntity
  8
1
  6
DASH_CENTER
 62
     2
100
AcDbLine
 10
57.86104504510146
 20
150.4182753658125
 30
0.0
 11
57.86104504510146
 21
99.40716836688284
 31
0.0
  0
LINE
  5
17A
330
1F
100
AcDbEntity
  8
1
  6
DASH_CENTER
 62
     2
100
AcDbLine
 10
73.36104504510138
 20
200.690948854996
 30
0.0
 11
42.36104504510134
 21
200.690948854996
 31
0.0
  0
LINE
  5
17B
330
1F
100
AcDbEntity
  8
1
  6
DASH_CENTER
 62
     2
100
AcDbLine
 10
57.86104504510138
 20
164.690948854996
 30
0.0
 11
57.86104504510138
 21
231.690948854996
 31
0.0
  0
SOLID
  5
17C
330
1F
100
AcDbEntity
  8
1
 62
     2
100
AcDbTrace
 10
133.4454245459974
 20
145.0380547414586
 30
0.0
 11
134.2435253976739
 21
145.4988384830145
 31
0.0
 12
135.5944749718356
 22
142.237357698991
 32
0.0
 13
135.5944749718356
 23
142.237357698991
 33
0.0
  0
LEADER
  5
17D
330
1F
100
AcDbEntity
  8
1
  6
Continuous
 62
     2
100
AcDbLeader
  3
Standard
 71
     0
 76
     3
 10
135.5944749718356
 20
142.237357698991
 30
0.0
 10
128.3199087012416
 20
154.8372760826867
 30
0.0
 10
113.0444442864735
 20
154.8372760826867
 30
0.0
  0
SOLID
  5
17E
330
1F
100
AcDbEntity
  8
1
 62
     2
100
AcDbTrace
 10
176.2435253976738
 20
104.117578323345
 30
0.0
 11
175.4454245459974
 21
103.6567945817891
 31
0.0
 12
174.0944749718356
 22
106.9182753658126
 32
0.0
 13
174.0944749718356
 23
106.9182753658126
 33
0.0
  0
LEADER
  5
17F
330
1F
100
AcDbEntity
  8
1
  6
Continuous
 62
     2
100
AcDbLeader
  3
Standard
 71
     0
 76
     3
 10
174.0944749718356
 20
106.9182753658126
 30
0.0
 10
180.1060606106344
 20
96.5059036053615
 30
0.0
 10
194.4114900666875
 20
96.5059036053615
 30
0.0
  0
MTEXT
  5
180
330
1F
100
AcDbEntity
  8
1
 62
     7
100
AcDbMText
 10
34.0
 20
30.50000000000001
 30
0.0
 40
3.5
 41
0.0
 71
     4
 72
     1
  1
共用形
  7
CONVERTER_11
 73
     1
 44
0.54545454545455
  0
MTEXT
  5
181
330
1F
100
AcDbEntity
  8
1
 62
     7
100
AcDbMText
 10
57.00000000000003
 20
22.75000000000001
 30
0.0
 40
3.5
 41
0.0
 71
     5
 72
     1
  1
D式止水栓本体
  7
CONVERTER_11
 73
     1
 44
0.54545454545455
  0
MTEXT
  5
183
330
1F
100
AcDbEntity
  8
0
 62
     7
100
AcDbMText
 10
120.6821764938576
 20
157.8372760826867
 30
0.0
 40
3.5
 41
0.0
 71
     5
 72
     1
  1
PJ1/2
  7
CONVERTER_12
 73
     1
 44
1.32052821128451
  0
MTEXT
  5
184
330
1F
100
AcDbEntity
  8
1
 62
     7
100
AcDbMText
 10
187.2587753386609
 20
99.5059036053615
 30
0.0
 40
3.5
 41
0.0
 71
     5
 72
     1
  1
Rc1/2
  7
CONVERTER_12
 73
     1
 44
0.7202881152461
  0
MTEXT
  5
185
330
1F
100
AcDbEntity
  8
1
 62
     7
100
AcDbMText
 10
57.00000000000003
 20
14.25000000000001
 30
0.0
 40
3.5
 41
0.0
 71
     5
 72
     1
  1
V22AD-X3-13
  7
CONVERTER_12
 73
     1
 44
0.7202881152461
  0
MTEXT
  5
186
330
1F
100
AcDbEntity
  8
1
 62
     7
100
AcDbMText
 10
34.0
 20
37.50000000000001
 30
0.0
 40
3.5
 41
0.0
 71
     4
 72
     1
  1
JIS
  7
CONVERTER_12
 73
     1
 44
0.7202881152461
  0
MTEXT
  5
187
330
1F
100
AcDbEntity
  8
0
 62
     7
100
AcDbMText
 10
85.25000000000003
 20
17.00000000000001
 30
0.0
 40
3.5
 41
0.0
 71
     5
 72
     1
  1
1
  7
CONVERTER_12
 73
     1
 44
0.7202881152461
  0
MTEXT
  5
188
330
1F
100
AcDbEntity
  8
0
 62
     7
100
AcDbMText
 10
93.75000000000003
 20
17.00000000000001
 30
0.0
 40
3.5
 41
0.0
 71
     5
 72
     1
  1
1
  7
CONVERTER_12
 73
     1
 44
0.7202881152461
  0
DIMENSION
  5
193
330
1F
100
AcDbEntity
  8
1
100
AcDbDimension
  2
*D7
 10
146.0944749718356
 20
92.40716836688222
 30
0.0
 11
161.007217549505
 21
95.15716836688222
 31
0.0
 70
    32
  1
<>
 71
     5
 42
-1.0
 53
0.00013888888889
  3
ME10_DIM_10
100
AcDbAlignedDimension
 13
174.0944749718356
 23
104.6682753658125
 33
0.0
 14
146.0944749718356
 24
100.2979536363675
 34
0.0
100
AcDbRotatedDimension
  0
DIMENSION
  5
19E
330
1F
100
AcDbEntity
  8
1
100
AcDbDimension
  2
*D8
 10
113.0944749718356
 20
92.40716836688222
 30
0.0
 11
128.775712582972
 21
95.15716836688222
 31
0.0
 70
    32
  1
33リフト5
 71
     5
 42
-1.0
 53
0.00013888888889
  3
ME10_DIM_11
100
AcDbAlignedDimension
 13
146.0944749718356
 23
101.9182753658125
 33
0.0
 14
113.0944749718356
 24
113.6682753658125
 34
0.0
100
AcDbRotatedDimension
  0
DIMENSION
  5
1A9
330
1F
100
AcDbEntity
  8
1
100
AcDbDimension
  2
*D9
 10
103.0944749718356
 20
117.4182753658125
 30
0.0
 11
100.3444749718356
 21
132.809304312081
 31
0.0
 70
    32
  1
<>
 71
     5
 42
-1.0
 53
90.0
  3
ME10_DIM_12
100
AcDbAlignedDimension
 13
136.7564749718356
 23
147.4182753658125
 33
0.0
 14
110.0944749718356
 24
117.4182753658125
 34
0.0
 50
90.0
100
AcDbRotatedDimension
  0
DIMENSION
  5
1B4
330
1F
100
AcDbEntity
  8
1
100
AcDbDimension
  2
*D10
 10
44.86104504510138
 20
238.690948854996
 30
0.0
 11
58.0172255108688
 21
241.440948854996
 31
0.0
 70
    32
  1
<>
 71
     5
 42
-1.0
 53
0.00013888888889
  3
ME10_DIM_13
100
AcDbAlignedDimension
 13
70.86104504510126
 23
228.4409488549962
 33
0.0
 14
44.86104504510138
 24
228.440948854996
 34
0.0
100
AcDbRotatedDimension
  0
ENDSEC
  0
SECTION
  2
OBJECTS
  0
DICTIONARY
  5
C
330
0
100
AcDbDictionary
281
     1
  3
ACAD_GROUP
350
D
  3
ACAD_LAYOUT
350
1A
  3
ACAD_MATERIAL
350
3B
  3
ACAD_MLEADERSTYLE
350
1B7
  3
ACAD_MLINESTYLE
350
17
  3
ACAD_PLOTSETTINGS
350
19
  3
ACAD_PLOTSTYLENAME
350
E
  3
ACAD_VISUALSTYLE
350
2A
  3
AcDbVariableDictionary
350
1B5
  0
DICTIONARY
  5
D
102
{ACAD_REACTORS
330
C
102
}
330
C
100
AcDbDictionary
281
     1
  0
DICTIONARY
  5
1A
102
{ACAD_REACTORS
330
C
102
}
330
C
100
AcDbDictionary
281
     1
  3
Layout1
350
1E
  3
Layout2
350
26
  3
Model
350
22
  0
DICTIONARY
  5
3B
102
{ACAD_REACTORS
330
C
102
}
330
C
100
AcDbDictionary
281
     1
  3
ByBlock
350
3D
  3
ByLayer
350
3C
  3
Global
350
3E
  0
DICTIONARY
  5
1B7
102
{ACAD_REACTORS
330
C
102
}
330
C
100
AcDbDictionary
281
     1
  0
DICTIONARY
  5
17
102
{ACAD_REACTORS
330
C
102
}
330
C
100
AcDbDictionary
281
     1
  3
Standard
350
18
  0
DICTIONARY
  5
19
102
{ACAD_REACTORS
330
C
102
}
330
C
100
AcDbDictionary
281
     1
  0
ACDBDICTIONARYWDFLT
  5
E
102
{ACAD_REACTORS
330
C
102
}
330
C
100
AcDbDictionary
281
     1
  3
Normal
350
F
100
AcDbDictionaryWithDefault
340
F
  0
DICTIONARY
  5
2A
102
{ACAD_REACTORS
330
C
102
}
330
C
100
AcDbDictionary
281
     1
  3
2dWireframe
350
2F
  3
3D Hidden
350
31
  3
3dWireframe
350
30
  3
Basic
350
32
  3
Brighten
350
36
  3
ColorChange
350
3A
  3
Conceptual
350
34
  3
Dim
350
35
  3
Facepattern
350
39
  3
Flat
350
2B
  3
FlatWithEdges
350
2C
  3
Gouraud
350
2D
  3
GouraudWithEdges
350
2E
  3
Linepattern
350
38
  3
Realistic
350
33
  3
Thicken
350
37
  0
DICTIONARY
  5
1B5
102
{ACAD_REACTORS
330
C
102
}
330
C
100
AcDbDictionary
281
     1
  3
DIMASSOC
350
1B8
  3
HIDETEXT
350
1B9
  0
LAYOUT
  5
1E
102
{ACAD_REACTORS
330
1A
102
}
330
1A
100
AcDbPlotSettings
  1

  2
none_device
  4

  6

 40
0.0
 41
0.0
 42
0.0
 43
0.0
 44
0.0
 45
0.0
 46
0.0
 47
0.0
 48
0.0
 49
0.0
140
0.0
141
0.0
142
1.0
143
1.0
 70
   688
 72
     0
 73
     0
 74
     5
  7

 75
    16
147
1.0
148
0.0
149
0.0
100
AcDbLayout
  1
Layout1
 70
     1
 71
     1
 10
0.0
 20
0.0
 11
12.0
 21
9.0
 12
0.0
 22
0.0
 32
0.0
 14
1.00000000000000E+20
 24
1.00000000000000E+20
 34
1.00000000000000E+20
 15
-1.00000000000000E+20
 25
-1.00000000000000E+20
 35
-1.00000000000000E+20
146
0.0
 13
0.0
 23
0.0
 33
0.0
 16
1.0
 26
0.0
 36
0.0
 17
0.0
 27
1.0
 37
0.0
 76
     0
330
1B
  0
LAYOUT
  5
26
102
{ACAD_REACTORS
330
1A
102
}
330
1A
100
AcDbPlotSettings
  1

  2
none_device
  4

  6

 40
0.0
 41
0.0
 42
0.0
 43
0.0
 44
0.0
 45
0.0
 46
0.0
 47
0.0
 48
0.0
 49
0.0
140
0.0
141
0.0
142
1.0
143
1.0
 70
   688
 72
     0
 73
     0
 74
     5
  7

 75
    16
147
1.0
148
0.0
149
0.0
100
AcDbLayout
  1
Layout2
 70
     1
 71
     2
 10
0.0
 20
0.0
 11
0.0
 21
0.0
 12
0.0
 22
0.0
 32
0.0
 14
0.0
 24
0.0
 34
0.0
 15
0.0
 25
0.0
 35
0.0
146
0.0
 13
0.0
 23
0.0
 33
0.0
 16
1.0
 26
0.0
 36
0.0
 17
0.0
 27
1.0
 37
0.0
 76
     0
330
23
  0
LAYOUT
  5
22
102
{ACAD_REACTORS
330
1A
102
}
330
1A
100
AcDbPlotSettings
  1

  2
none_device
  4

  6

 40
0.0
 41
0.0
 42
0.0
 43
0.0
 44
0.0
 45
0.0
 46
0.0
 47
0.0
 48
0.0
 49
0.0
140
0.0
141
0.0
142
1.0
143
1.0
 70
  1712
 72
     0
 73
     0
 74
     0
  7

 75
     0
147
1.0
148
0.0
149
0.0
100
AcDbLayout
  1
Model
 70
     1
 71
     0
 10
0.0
 20
0.0
 11
12.0
 21
9.0
 12
0.0
 22
0.0
 32
0.0
 14
0.0
 24
0.0
 34
0.0
 15
210.0000000000001
 25
297.0
 35
0.0
146
0.0
 13
0.0
 23
0.0
 33
0.0
 16
1.0
 26
0.0
 36
0.0
 17
0.0
 27
1.0
 37
0.0
 76
     0
330
1F
331
29
  0
MATERIAL
  5
3D
102
{ACAD_REACTORS
330
3B
102
}
102
{ACAD_XDICTIONARY
360
1DC
102
}
330
3B
100
AcDbMaterial
  1
ByBlock
  0
MATERIAL
  5
3C
102
{ACAD_REACTORS
330
3B
102
}
102
{ACAD_XDICTIONARY
360
1DA
102
}
330
3B
100
AcDbMaterial
  1
ByLayer
  0
MATERIAL
  5
3E
102
{ACAD_REACTORS
330
3B
102
}
102
{ACAD_XDICTIONARY
360
1DE
102
}
330
3B
100
AcDbMaterial
  1
Global
  0
MLINESTYLE
  5
18
102
{ACAD_REACTORS
330
17
102
}
330
17
100
AcDbMlineStyle
  2
Standard
 70
     0
  3

 62
   256
 51
90.0
 52
90.0
 71
     2
 49
0.5
 62
   256
  6
BYLAYER
 49
-0.5
 62
   256
  6
BYLAYER
  0
ACDBPLACEHOLDER
  5
F
102
{ACAD_REACTORS
330
E
102
}
330
E
  0
VISUALSTYLE
  5
2F
102
{ACAD_REACTORS
330
2A
102
}
102
{ACAD_XDICTIONARY
360
1C2
102
}
330
2A
100
AcDbVisualStyle
  2
2dWireframe
 70
     4
 71
     0
 72
     2
 73
     0
 90
        0
 40
-0.6
 41
-30.0
 62
     5
 63
     7
 74
     1
 91
        4
 64
     7
 65
   257
 75
     1
175
     1
 42
1.0
 92
        0
 66
   257
 43
1.0
 76
     1
 77
     6
 78
     2
 67
     7
 79
     5
170
     0
171
     0
290
     0
174
     0
 93
        1
 44
0.0
173
     0
291
     0
 45
0.0
1001
ACAD
1000
AcDbSavedByObjectVersion
1070
     0
  0
VISUALSTYLE
  5
31
102
{ACAD_REACTORS
330
2A
102
}
102
{ACAD_XDICTIONARY
360
1C6
102
}
330
2A
100
AcDbVisualStyle
  2
3D Hidden
 70
     6
 71
     1
 72
     2
 73
     2
 90
        0
 40
-0.6
 41
-30.0
 62
     5
 63
     7
 74
     2
 91
        2
 64
     7
 65
   257
 75
     2
175
     1
 42
40.0
 92
        0
 66
   257
 43
1.0
 76
     1
 77
     6
 78
     2
 67
     7
 79
     3
170
     0
171
     0
290
     0
174
     0
 93
        1
 44
0.0
173
     0
291
     0
 45
0.0
1001
ACAD
1000
AcDbSavedByObjectVersion
1070
     0
  0
VISUALSTYLE
  5
30
102
{ACAD_REACTORS
330
2A
102
}
102
{ACAD_XDICTIONARY
360
1C4
102
}
330
2A
100
AcDbVisualStyle
  2
3dWireframe
 70
     5
 71
     0
 72
     2
 73
     0
 90
        0
 40
-0.6
 41
-30.0
 62
     5
 63
     7
 74
     1
 91
        4
 64
     7
 65
   257
 75
     1
175
     1
 42
1.0
 92
        0
 66
   257
 43
1.0
 76
     1
 77
     6
 78
     2
 67
     7
 79
     5
170
     0
171
     0
290
     0
174
     0
 93
        1
 44
0.0
173
     0
291
     0
 45
0.0
1001
ACAD
1000
AcDbSavedByObjectVersion
1070
     0
  0
VISUALSTYLE
  5
32
102
{ACAD_REACTORS
330
2A
102
}
102
{ACAD_XDICTIONARY
360
1C8
102
}
330
2A
100
AcDbVisualStyle
  2
Basic
 70
     7
 71
     1
 72
     0
 73
     1
 90
        0
 40
-0.6
 41
-30.0
 62
     5
 63
     7
 74
     0
 91
        4
 64
     7
 65
   257
 75
     1
175
     1
 42
1.0
 92
        8
 66
     7
 43
1.0
 76
     1
 77
     6
 78
     2
 67
     7
 79
     5
170
     0
171
     0
290
     0
174
     0
 93
        1
 44
0.0
173
     0
291
     1
 45
0.0
1001
ACAD
1000
AcDbSavedByObjectVersion
1070
     0
  0
VISUALSTYLE
  5
36
102
{ACAD_REACTORS
330
2A
102
}
102
{ACAD_XDICTIONARY
360
1D0
102
}
330
2A
100
AcDbVisualStyle
  2
Brighten
 70
    12
 71
     2
 72
     2
 73
     0
 90
        0
 40
-0.6
 41
-30.0
 62
     5
 63
     7
 74
     1
 91
        4
 64
     7
 65
   257
 75
     1
175
     1
 42
1.0
 92
        8
 66
     7
 43
1.0
 76
     1
 77
     6
 78
     2
 67
     7
 79
     5
170
     0
171
     0
290
     0
174
     0
 93
        1
 44
50.0
173
     0
291
     1
 45
0.0
1001
ACAD
1000
AcDbSavedByObjectVersion
1070
     0
  0
VISUALSTYLE
  5
3A
102
{ACAD_REACTORS
330
2A
102
}
102
{ACAD_XDICTIONARY
360
1D8
102
}
330
2A
100
AcDbVisualStyle
  2
ColorChange
 70
    16
 71
     2
 72
     2
 73
     3
 90
        0
 40
-0.6
 41
-30.0
 62
     5
 63
     8
 74
     1
 91
        4
 64
     7
 65
   257
 75
     1
175
     1
 42
1.0
 92
        8
 66
     8
 43
1.0
 76
     1
 77
     6
 78
     2
 67
     7
 79
     5
170
     0
171
     0
290
     0
174
     0
 93
        1
 44
0.0
173
     0
291
     1
 45
0.0
1001
ACAD
1000
AcDbSavedByObjectVersion
1070
     0
  0
VISUALSTYLE
  5
34
102
{ACAD_REACTORS
330
2A
102
}
102
{ACAD_XDICTIONARY
360
1CC
102
}
330
2A
100
AcDbVisualStyle
  2
Conceptual
 70
     9
 71
     3
 72
     2
 73
     0
 90
        0
 40
-0.6
 41
-30.0
 62
     5
 63
     7
 74
     2
 91
        2
 64
     7
 65
   257
 75
     1
175
     1
 42
40.0
 92
        8
 66
     7
 43
1.0
 76
     1
 77
     6
 78
     2
 67
     7
 79
     3
170
     0
171
     0
290
     0
174
     0
 93
        1
 44
0.0
173
     0
291
     0
 45
0.0
1001
ACAD
1000
AcDbSavedByObjectVersion
1070
     0
  0
VISUALSTYLE
  5
35
102
{ACAD_REACTORS
330
2A
102
}
102
{ACAD_XDICTIONARY
360
1CE
102
}
330
2A
100
AcDbVisualStyle
  2
Dim
 70
    11
 71
     2
 72
     2
 73
     0
 90
        0
 40
-0.6
 41
-30.0
 62
     5
 63
     7
 74
     1
 91
        4
 64
     7
 65
   257
 75
     1
175
     1
 42
1.0
 92
        8
 66
     7
 43
1.0
 76
     1
 77
     6
 78
     2
 67
     7
 79
     5
170
     0
171
     0
290
     0
174
     0
 93
        1
 44
-50.0
173
     0
291
     1
 45
0.0
1001
ACAD
1000
AcDbSavedByObjectVersion
1070
     0
  0
VISUALSTYLE
  5
39
102
{ACAD_REACTORS
330
2A
102
}
102
{ACAD_XDICTIONARY
360
1D6
102
}
330
2A
100
AcDbVisualStyle
  2
Facepattern
 70
    15
 71
     2
 72
     2
 73
     0
 90
        0
 40
-0.6
 41
-30.0
 62
     5
 63
     7
 74
     1
 91
        4
 64
     7
 65
   257
 75
     1
175
     1
 42
1.0
 92
        8
 66
     7
 43
1.0
 76
     1
 77
     6
 78
     2
 67
     7
 79
     5
170
     0
171
     0
290
     0
174
     0
 93
        1
 44
0.0
173
     0
291
     1
 45
0.0
1001
ACAD
1000
AcDbSavedByObjectVersion
1070
     0
  0
VISUALSTYLE
  5
2B
102
{ACAD_REACTORS
330
2A
102
}
102
{ACAD_XDICTIONARY
360
1BA
102
}
330
2A
100
AcDbVisualStyle
  2
Flat
 70
     0
 71
     2
 72
     1
 73
     1
 90
        2
 40
-0.6
 41
30.0
 62
     5
 63
     7
 74
     0
 91
        4
 64
     7
 65
   257
 75
     1
175
     1
 42
1.0
 92
        8
 66
     7
 43
1.0
 76
     1
 77
     6
 78
     2
 67
     7
 79
     5
170
     0
171
     0
290
     0
174
     0
 93
       13
 44
0.0
173
     0
291
     1
 45
0.0
1001
ACAD
1000
AcDbSavedByObjectVersion
1070
     0
  0
VISUALSTYLE
  5
2C
102
{ACAD_REACTORS
330
2A
102
}
102
{ACAD_XDICTIONARY
360
1BC
102
}
330
2A
100
AcDbVisualStyle
  2
FlatWithEdges
 70
     1
 71
     2
 72
     1
 73
     1
 90
        2
 40
-0.6
 41
30.0
 62
     5
 63
     7
 74
     1
 91
        4
 64
     7
 65
   257
 75
     1
175
     1
 42
1.0
 92
        0
 66
   257
 43
1.0
 76
     1
 77
     6
 78
     2
 67
     7
 79
     5
170
     0
171
     0
290
     0
174
     0
 93
       13
 44
0.0
173
     0
291
     1
 45
0.0
1001
ACAD
1000
AcDbSavedByObjectVersion
1070
     0
  0
VISUALSTYLE
  5
2D
102
{ACAD_REACTORS
330
2A
102
}
102
{ACAD_XDICTIONARY
360
1BE
102
}
330
2A
100
AcDbVisualStyle
  2
Gouraud
 70
     2
 71
     2
 72
     2
 73
     1
 90
        2
 40
-0.6
 41
30.0
 62
     5
 63
     7
 74
     0
 91
        4
 64
     7
 65
   257
 75
     1
175
     1
 42
1.0
 92
        0
 66
     7
 43
1.0
 76
     1
 77
     6
 78
     2
 67
     7
 79
     5
170
     0
171
     0
290
     0
174
     0
 93
       13
 44
0.0
173
     0
291
     1
 45
0.0
1001
ACAD
1000
AcDbSavedByObjectVersion
1070
     0
  0
VISUALSTYLE
  5
2E
102
{ACAD_REACTORS
330
2A
102
}
102
{ACAD_XDICTIONARY
360
1C0
102
}
330
2A
100
AcDbVisualStyle
  2
GouraudWithEdges
 70
     3
 71
     2
 72
     2
 73
     1
 90
        2
 40
-0.6
 41
30.0
 62
     5
 63
     7
 74
     1
 91
        4
 64
     7
 65
   257
 75
     1
175
     1
 42
1.0
 92
        0
 66
   257
 43
1.0
 76
     1
 77
     6
 78
     2
 67
     7
 79
     5
170
     0
171
     0
290
     0
174
     0
 93
       13
 44
0.0
173
     0
291
     1
 45
0.0
1001
ACAD
1000
AcDbSavedByObjectVersion
1070
     0
  0
VISUALSTYLE
  5
38
102
{ACAD_REACTORS
330
2A
102
}
102
{ACAD_XDICTIONARY
360
1D4
102
}
330
2A
100
AcDbVisualStyle
  2
Linepattern
 70
    14
 71
     2
 72
     2
 73
     0
 90
        0
 40
-0.6
 41
-30.0
 62
     5
 63
     7
 74
     1
 91
        4
 64
     7
 65
   257
 75
     7
175
     7
 42
1.0
 92
        8
 66
     7
 43
1.0
 76
     1
 77
     6
 78
     2
 67
     7
 79
     5
170
     0
171
     0
290
     0
174
     0
 93
        1
 44
0.0
173
     0
291
     1
 45
0.0
1001
ACAD
1000
AcDbSavedByObjectVersion
1070
     0
  0
VISUALSTYLE
  5
33
102
{ACAD_REACTORS
330
2A
102
}
102
{ACAD_XDICTIONARY
360
1CA
102
}
330
2A
100
AcDbVisualStyle
  2
Realistic
 70
     8
 71
     2
 72
     2
 73
     0
 90
        0
 40
-0.6
 41
-30.0
 62
     5
 63
     7
 74
     1
 91
        0
 64
     7
 65
   257
 75
     1
175
     1
 42
1.0
 92
        8
 66
     8
 43
1.0
 76
     1
 77
     6
 78
     2
 67
     7
 79
     5
170
     0
171
     0
290
     0
174
     0
 93
       13
 44
0.0
173
     0
291
     0
 45
0.0
1001
ACAD
1000
AcDbSavedByObjectVersion
1070
     0
  0
VISUALSTYLE
  5
37
102
{ACAD_REACTORS
330
2A
102
}
102
{ACAD_XDICTIONARY
360
1D2
102
}
330
2A
100
AcDbVisualStyle
  2
Thicken
 70
    13
 71
     2
 72
     2
 73
     0
 90
        0
 40
-0.6
 41
-30.0
 62
     5
 63
     7
 74
     1
 91
        4
 64
     7
 65
   257
 75
     1
175
     1
 42
1.0
 92
       12
 66
     7
 43
1.0
 76
     1
 77
     6
 78
     2
 67
     7
 79
     5
170
     0
171
     0
290
     0
174
     0
 93
        1
 44
0.0
173
     0
291
     1
 45
0.0
1001
ACAD
1000
AcDbSavedByObjectVersion
1070
     0
  0
DICTIONARYVAR
  5
1B8
102
{ACAD_REACTORS
330
1B5
102
}
330
1B5
100
DictionaryVariables
280
     0
  1
2
  0
DICTIONARYVAR
  5
1B9
102
{ACAD_REACTORS
330
1B5
102
}
330
1B5
100
DictionaryVariables
280
     0
  1
1
  0
DICTIONARY
  5
1DC
330
3D
100
AcDbDictionary
280
     1
281
     1
  3
ACAD_XREC_ROUNDTRIP
360
1DD
  0
DICTIONARY
  5
1DA
330
3C
100
AcDbDictionary
280
     1
281
     1
  3
ACAD_XREC_ROUNDTRIP
360
1DB
  0
DICTIONARY
  5
1DE
330
3E
100
AcDbDictionary
280
     1
281
     1
  3
ACAD_XREC_ROUNDTRIP
360
1DF
  0
DICTIONARY
  5
1C2
330
2F
100
AcDbDictionary
280
     1
281
     1
  3
ACAD_XREC_ROUNDTRIP
360
1C3
  0
DICTIONARY
  5
1C6
330
31
100
AcDbDictionary
280
     1
281
     1
  3
ACAD_XREC_ROUNDTRIP
360
1C7
  0
DICTIONARY
  5
1C4
330
30
100
AcDbDictionary
280
     1
281
     1
  3
ACAD_XREC_ROUNDTRIP
360
1C5
  0
DICTIONARY
  5
1C8
330
32
100
AcDbDictionary
280
     1
281
     1
  3
ACAD_XREC_ROUNDTRIP
360
1C9
  0
DICTIONARY
  5
1D0
330
36
100
AcDbDictionary
280
     1
281
     1
  3
ACAD_XREC_ROUNDTRIP
360
1D1
  0
DICTIONARY
  5
1D8
330
3A
100
AcDbDictionary
280
     1
281
     1
  3
ACAD_XREC_ROUNDTRIP
360
1D9
  0
DICTIONARY
  5
1CC
330
34
100
AcDbDictionary
280
     1
281
     1
  3
ACAD_XREC_ROUNDTRIP
360
1CD
  0
DICTIONARY
  5
1CE
330
35
100
AcDbDictionary
280
     1
281
     1
  3
ACAD_XREC_ROUNDTRIP
360
1CF
  0
DICTIONARY
  5
1D6
330
39
100
AcDbDictionary
280
     1
281
     1
  3
ACAD_XREC_ROUNDTRIP
360
1D7
  0
DICTIONARY
  5
1BA
330
2B
100
AcDbDictionary
280
     1
281
     1
  3
ACAD_XREC_ROUNDTRIP
360
1BB
  0
DICTIONARY
  5
1BC
330
2C
100
AcDbDictionary
280
     1
281
     1
  3
ACAD_XREC_ROUNDTRIP
360
1BD
  0
DICTIONARY
  5
1BE
330
2D
100
AcDbDictionary
280
     1
281
     1
  3
ACAD_XREC_ROUNDTRIP
360
1BF
  0
DICTIONARY
  5
1C0
330
2E
100
AcDbDictionary
280
     1
281
     1
  3
ACAD_XREC_ROUNDTRIP
360
1C1
  0
DICTIONARY
  5
1D4
330
38
100
AcDbDictionary
280
     1
281
     1
  3
ACAD_XREC_ROUNDTRIP
360
1D5
  0
DICTIONARY
  5
1CA
330
33
100
AcDbDictionary
280
     1
281
     1
  3
ACAD_XREC_ROUNDTRIP
360
1CB
  0
DICTIONARY
  5
1D2
330
37
100
AcDbDictionary
280
     1
281
     1
  3
ACAD_XREC_ROUNDTRIP
360
1D3
  0
XRECORD
  5
1DD
102
{ACAD_REACTORS
330
1DC
102
}
330
1DC
100
AcDbXrecord
280
     1
102
MATERIAL
148
0.0
149
0.0
149
0.0
 93
        0
 94
      127
282
     0
 72
     1
 77
     1
171
     1
175
     1
179
     1
273
     0
  0
XRECORD
  5
1DB
102
{ACAD_REACTORS
330
1DA
102
}
330
1DA
100
AcDbXrecord
280
     1
102
MATERIAL
148
0.0
149
0.0
149
0.0
 93
        0
 94
      127
282
     0
 72
     1
 77
     1
171
     1
175
     1
179
     1
273
     0
  0
XRECORD
  5
1DF
102
{ACAD_REACTORS
330
1DE
102
}
330
1DE
100
AcDbXrecord
280
     1
102
MATERIAL
148
0.0
149
0.0
149
0.0
 93
        0
 94
      127
282
     0
 72
     1
 77
     1
171
     1
175
     1
179
     1
273
     0
  0
XRECORD
  5
1C3
102
{ACAD_REACTORS
330
1C2
102
}
330
1C2
100
AcDbXrecord
280
     1
102
RTVSPropertyOp0
 70
     1
102
RTVSPropertyOp1
 70
     1
102
RTVSPropertyOp2
 70
     1
102
RTVSPropertyOp3
 70
     1
102
RTVSPropertyOp4
 70
     1
102
RTVSPropertyOp5
 70
     1
102
RTVSPropertyOp6
 70
     1
102
RTVSPropertyOp7
 70
     1
102
RTVSPropertyOp8
 70
     1
102
RTVSPropertyOp9
 70
     1
102
RTVSPropertyOp10
 70
     1
102
RTVSPropertyOp11
 70
     1
102
RTVSPropertyOp12
 70
     1
102
RTVSPropertyOp13
 70
     1
102
RTVSPropertyOp14
 70
     1
102
RTVSPropertyOp15
 70
     1
102
RTVSPropertyOp16
 70
     1
102
RTVSPropertyOp17
 70
     1
102
RTVSPropertyOp18
 70
     1
102
RTVSPropertyOp19
 70
     1
102
RTVSPropertyOp20
 70
     1
102
RTVSPropertyOp21
 70
     1
102
RTVSPropertyOp22
 70
     1
102
RTVSPropertyOp23
 70
     1
102
RTVSPropertyOp24
 70
     1
102
RTVSPropertyOp25
 70
     1
102
RTVSPropertyOp26
 70
     1
102
RTVSPropertyOp27
 70
     1
102
RTVSPropertyOp28
 70
     1
102
RTVSPropertyOp29
 70
     1
102
RTVSPropertyOp30
 70
     1
102
RTVSPropertyOp31
 70
     1
102
RTVSPropertyOp32
 70
     1
  0
XRECORD
  5
1C7
102
{ACAD_REACTORS
330
1C6
102
}
330
1C6
100
AcDbXrecord
280
     1
102
RTVSPropertyOp0
 70
     1
102
RTVSPropertyOp1
 70
     1
102
RTVSPropertyOp2
 70
     1
102
RTVSPropertyOp3
 70
     1
102
RTVSPropertyOp4
 70
     1
102
RTVSPropertyOp5
 70
     1
102
RTVSPropertyOp6
 70
     1
102
RTVSPropertyOp7
 70
     1
102
RTVSPropertyOp8
 70
     1
102
RTVSPropertyOp9
 70
     1
102
RTVSPropertyOp10
 70
     1
102
RTVSPropertyOp11
 70
     1
102
RTVSPropertyOp12
 70
     1
102
RTVSPropertyOp13
 70
     1
102
RTVSPropertyOp14
 70
     1
102
RTVSPropertyOp15
 70
     1
102
RTVSPropertyOp16
 70
     1
102
RTVSPropertyOp17
 70
     1
102
RTVSPropertyOp18
 70
     1
102
RTVSPropertyOp19
 70
     1
102
RTVSPropertyOp20
 70
     1
102
RTVSPropertyOp21
 70
     1
102
RTVSPropertyOp22
 70
     1
102
RTVSPropertyOp23
 70
     1
102
RTVSPropertyOp24
 70
     1
102
RTVSPropertyOp25
 70
     1
102
RTVSPropertyOp26
 70
     1
102
RTVSPropertyOp27
 70
     1
102
RTVSPropertyOp28
 70
     1
102
RTVSPropertyOp29
 70
     1
102
RTVSPropertyOp30
 70
     1
102
RTVSPropertyOp31
 70
     1
102
RTVSPropertyOp32
 70
     1
  0
XRECORD
  5
1C5
102
{ACAD_REACTORS
330
1C4
102
}
330
1C4
100
AcDbXrecord
280
     1
102
RTVSPropertyOp0
 70
     1
102
RTVSPropertyOp1
 70
     1
102
RTVSPropertyOp2
 70
     1
102
RTVSPropertyOp3
 70
     1
102
RTVSPropertyOp4
 70
     1
102
RTVSPropertyOp5
 70
     1
102
RTVSPropertyOp6
 70
     1
102
RTVSPropertyOp7
 70
     1
102
RTVSPropertyOp8
 70
     1
102
RTVSPropertyOp9
 70
     1
102
RTVSPropertyOp10
 70
     1
102
RTVSPropertyOp11
 70
     1
102
RTVSPropertyOp12
 70
     1
102
RTVSPropertyOp13
 70
     1
102
RTVSPropertyOp14
 70
     1
102
RTVSPropertyOp15
 70
     1
102
RTVSPropertyOp16
 70
     1
102
RTVSPropertyOp17
 70
     1
102
RTVSPropertyOp18
 70
     1
102
RTVSPropertyOp19
 70
     1
102
RTVSPropertyOp20
 70
     1
102
RTVSPropertyOp21
 70
     1
102
RTVSPropertyOp22
 70
     1
102
RTVSPropertyOp23
 70
     1
102
RTVSPropertyOp24
 70
     1
102
RTVSPropertyOp25
 70
     1
102
RTVSPropertyOp26
 70
     1
102
RTVSPropertyOp27
 70
     1
102
RTVSPropertyOp28
 70
     1
102
RTVSPropertyOp29
 70
     1
102
RTVSPropertyOp30
 70
     1
102
RTVSPropertyOp31
 70
     1
102
RTVSPropertyOp32
 70
     1
  0
XRECORD
  5
1C9
102
{ACAD_REACTORS
330
1C8
102
}
330
1C8
100
AcDbXrecord
280
     1
102
RTVSPropertyOp0
 70
     1
102
RTVSPropertyOp1
 70
     1
102
RTVSPropertyOp2
 70
     1
102
RTVSPropertyOp3
 70
     1
102
RTVSPropertyOp4
 70
     1
102
RTVSPropertyOp5
 70
     1
102
RTVSPropertyOp6
 70
     1
102
RTVSPropertyOp7
 70
     1
102
RTVSPropertyOp8
 70
     1
102
RTVSPropertyOp9
 70
     1
102
RTVSPropertyOp10
 70
     1
102
RTVSPropertyOp11
 70
     1
102
RTVSPropertyOp12
 70
     1
102
RTVSPropertyOp13
 70
     1
102
RTVSPropertyOp14
 70
     1
102
RTVSPropertyOp15
 70
     1
102
RTVSPropertyOp16
 70
     1
102
RTVSPropertyOp17
 70
     1
102
RTVSPropertyOp18
 70
     1
102
RTVSPropertyOp19
 70
     1
102
RTVSPropertyOp20
 70
     1
102
RTVSPropertyOp21
 70
     1
102
RTVSPropertyOp22
 70
     1
102
RTVSPropertyOp23
 70
     1
102
RTVSPropertyOp24
 70
     1
102
RTVSPropertyOp25
 70
     1
102
RTVSPropertyOp26
 70
     1
102
RTVSPropertyOp27
 70
     1
102
RTVSPropertyOp28
 70
     1
102
RTVSPropertyOp29
 70
     1
102
RTVSPropertyOp30
 70
     1
102
RTVSPropertyOp31
 70
     1
102
RTVSPropertyOp32
 70
     1
  0
XRECORD
  5
1D1
102
{ACAD_REACTORS
330
1D0
102
}
330
1D0
100
AcDbXrecord
280
     1
102
RTVSPropertyOp0
 70
     1
102
RTVSPropertyOp1
 70
     1
102
RTVSPropertyOp2
 70
     1
102
RTVSPropertyOp3
 70
     1
102
RTVSPropertyOp4
 70
     1
102
RTVSPropertyOp5
 70
     1
102
RTVSPropertyOp6
 70
     1
102
RTVSPropertyOp7
 70
     1
102
RTVSPropertyOp8
 70
     1
102
RTVSPropertyOp9
 70
     1
102
RTVSPropertyOp10
 70
     1
102
RTVSPropertyOp11
 70
     1
102
RTVSPropertyOp12
 70
     1
102
RTVSPropertyOp13
 70
     1
102
RTVSPropertyOp14
 70
     1
102
RTVSPropertyOp15
 70
     1
102
RTVSPropertyOp16
 70
     1
102
RTVSPropertyOp17
 70
     1
102
RTVSPropertyOp18
 70
     1
102
RTVSPropertyOp19
 70
     1
102
RTVSPropertyOp20
 70
     1
102
RTVSPropertyOp21
 70
     1
102
RTVSPropertyOp22
 70
     1
102
RTVSPropertyOp23
 70
     1
102
RTVSPropertyOp24
 70
     1
102
RTVSPropertyOp25
 70
     1
102
RTVSPropertyOp26
 70
     1
102
RTVSPropertyOp27
 70
     1
102
RTVSPropertyOp28
 70
     1
102
RTVSPropertyOp29
 70
     1
102
RTVSPropertyOp30
 70
     1
102
RTVSPropertyOp31
 70
     1
102
RTVSPropertyOp32
 70
     1
  0
XRECORD
  5
1D9
102
{ACAD_REACTORS
330
1D8
102
}
330
1D8
100
AcDbXrecord
280
     1
102
RTVSPropertyOp0
 70
     1
102
RTVSPropertyOp1
 70
     1
102
RTVSPropertyOp2
 70
     1
102
RTVSPropertyOp3
 70
     1
102
RTVSPropertyOp4
 70
     1
102
RTVSPropertyOp5
 70
     1
102
RTVSPropertyOp6
 70
     1
102
RTVSPropertyOp7
 70
     1
102
RTVSPropertyOp8
 70
     1
102
RTVSPropertyOp9
 70
     1
102
RTVSPropertyOp10
 70
     1
102
RTVSPropertyOp11
 70
     1
102
RTVSPropertyOp12
 70
     1
102
RTVSPropertyOp13
 70
     1
102
RTVSPropertyOp14
 70
     1
102
RTVSPropertyOp15
 70
     1
102
RTVSPropertyOp16
 70
     1
102
RTVSPropertyOp17
 70
     1
102
RTVSPropertyOp18
 70
     1
102
RTVSPropertyOp19
 70
     1
102
RTVSPropertyOp20
 70
     1
102
RTVSPropertyOp21
 70
     1
102
RTVSPropertyOp22
 70
     1
102
RTVSPropertyOp23
 70
     1
102
RTVSPropertyOp24
 70
     1
102
RTVSPropertyOp25
 70
     1
102
RTVSPropertyOp26
 70
     1
102
RTVSPropertyOp27
 70
     1
102
RTVSPropertyOp28
 70
     1
102
RTVSPropertyOp29
 70
     1
102
RTVSPropertyOp30
 70
     1
102
RTVSPropertyOp31
 70
     1
102
RTVSPropertyOp32
 70
     1
  0
XRECORD
  5
1CD
102
{ACAD_REACTORS
330
1CC
102
}
330
1CC
100
AcDbXrecord
280
     1
102
RTVSPropertyOp0
 70
     1
102
RTVSPropertyOp1
 70
     1
102
RTVSPropertyOp2
 70
     1
102
RTVSPropertyOp3
 70
     1
102
RTVSPropertyOp4
 70
     1
102
RTVSPropertyOp5
 70
     1
102
RTVSPropertyOp6
 70
     1
102
RTVSPropertyOp7
 70
     1
102
RTVSPropertyOp8
 70
     1
102
RTVSPropertyOp9
 70
     1
102
RTVSPropertyOp10
 70
     1
102
RTVSPropertyOp11
 70
     1
102
RTVSPropertyOp12
 70
     1
102
RTVSPropertyOp13
 70
     1
102
RTVSPropertyOp14
 70
     1
102
RTVSPropertyOp15
 70
     1
102
RTVSPropertyOp16
 70
     1
102
RTVSPropertyOp17
 70
     1
102
RTVSPropertyOp18
 70
     1
102
RTVSPropertyOp19
 70
     1
102
RTVSPropertyOp20
 70
     1
102
RTVSPropertyOp21
 70
     1
102
RTVSPropertyOp22
 70
     1
102
RTVSPropertyOp23
 70
     1
102
RTVSPropertyOp24
 70
     1
102
RTVSPropertyOp25
 70
     1
102
RTVSPropertyOp26
 70
     1
102
RTVSPropertyOp27
 70
     1
102
RTVSPropertyOp28
 70
     1
102
RTVSPropertyOp29
 70
     1
102
RTVSPropertyOp30
 70
     1
102
RTVSPropertyOp31
 70
     1
102
RTVSPropertyOp32
 70
     1
  0
XRECORD
  5
1CF
102
{ACAD_REACTORS
330
1CE
102
}
330
1CE
100
AcDbXrecord
280
     1
102
RTVSPropertyOp0
 70
     1
102
RTVSPropertyOp1
 70
     1
102
RTVSPropertyOp2
 70
     1
102
RTVSPropertyOp3
 70
     1
102
RTVSPropertyOp4
 70
     1
102
RTVSPropertyOp5
 70
     1
102
RTVSPropertyOp6
 70
     1
102
RTVSPropertyOp7
 70
     1
102
RTVSPropertyOp8
 70
     1
102
RTVSPropertyOp9
 70
     1
102
RTVSPropertyOp10
 70
     1
102
RTVSPropertyOp11
 70
     1
102
RTVSPropertyOp12
 70
     1
102
RTVSPropertyOp13
 70
     1
102
RTVSPropertyOp14
 70
     1
102
RTVSPropertyOp15
 70
     1
102
RTVSPropertyOp16
 70
     1
102
RTVSPropertyOp17
 70
     1
102
RTVSPropertyOp18
 70
     1
102
RTVSPropertyOp19
 70
     1
102
RTVSPropertyOp20
 70
     1
102
RTVSPropertyOp21
 70
     1
102
RTVSPropertyOp22
 70
     1
102
RTVSPropertyOp23
 70
     1
102
RTVSPropertyOp24
 70
     1
102
RTVSPropertyOp25
 70
     1
102
RTVSPropertyOp26
 70
     1
102
RTVSPropertyOp27
 70
     1
102
RTVSPropertyOp28
 70
     1
102
RTVSPropertyOp29
 70
     1
102
RTVSPropertyOp30
 70
     1
102
RTVSPropertyOp31
 70
     1
102
RTVSPropertyOp32
 70
     1
  0
XRECORD
  5
1D7
102
{ACAD_REACTORS
330
1D6
102
}
330
1D6
100
AcDbXrecord
280
     1
102
RTVSPropertyOp0
 70
     1
102
RTVSPropertyOp1
 70
     1
102
RTVSPropertyOp2
 70
     1
102
RTVSPropertyOp3
 70
     1
102
RTVSPropertyOp4
 70
     1
102
RTVSPropertyOp5
 70
     1
102
RTVSPropertyOp6
 70
     1
102
RTVSPropertyOp7
 70
     1
102
RTVSPropertyOp8
 70
     1
102
RTVSPropertyOp9
 70
     1
102
RTVSPropertyOp10
 70
     1
102
RTVSPropertyOp11
 70
     1
102
RTVSPropertyOp12
 70
     1
102
RTVSPropertyOp13
 70
     1
102
RTVSPropertyOp14
 70
     1
102
RTVSPropertyOp15
 70
     1
102
RTVSPropertyOp16
 70
     1
102
RTVSPropertyOp17
 70
     1
102
RTVSPropertyOp18
 70
     1
102
RTVSPropertyOp19
 70
     1
102
RTVSPropertyOp20
 70
     1
102
RTVSPropertyOp21
 70
     1
102
RTVSPropertyOp22
 70
     1
102
RTVSPropertyOp23
 70
     1
102
RTVSPropertyOp24
 70
     1
102
RTVSPropertyOp25
 70
     1
102
RTVSPropertyOp26
 70
     1
102
RTVSPropertyOp27
 70
     1
102
RTVSPropertyOp28
 70
     1
102
RTVSPropertyOp29
 70
     1
102
RTVSPropertyOp30
 70
     1
102
RTVSPropertyOp31
 70
     1
102
RTVSPropertyOp32
 70
     1
  0
XRECORD
  5
1BB
102
{ACAD_REACTORS
330
1BA
102
}
330
1BA
100
AcDbXrecord
280
     1
102
RTVSPropertyOp0
 70
     1
102
RTVSPropertyOp1
 70
     1
102
RTVSPropertyOp2
 70
     1
102
RTVSPropertyOp3
 70
     1
102
RTVSPropertyOp4
 70
     1
102
RTVSPropertyOp5
 70
     1
102
RTVSPropertyOp6
 70
     1
102
RTVSPropertyOp7
 70
     1
102
RTVSPropertyOp8
 70
     1
102
RTVSPropertyOp9
 70
     1
102
RTVSPropertyOp10
 70
     1
102
RTVSPropertyOp11
 70
     1
102
RTVSPropertyOp12
 70
     1
102
RTVSPropertyOp13
 70
     1
102
RTVSPropertyOp14
 70
     1
102
RTVSPropertyOp15
 70
     1
102
RTVSPropertyOp16
 70
     1
102
RTVSPropertyOp17
 70
     1
102
RTVSPropertyOp18
 70
     1
102
RTVSPropertyOp19
 70
     1
102
RTVSPropertyOp20
 70
     1
102
RTVSPropertyOp21
 70
     1
102
RTVSPropertyOp22
 70
     1
102
RTVSPropertyOp23
 70
     1
102
RTVSPropertyOp24
 70
     1
102
RTVSPropertyOp25
 70
     1
102
RTVSPropertyOp26
 70
     1
102
RTVSPropertyOp27
 70
     1
102
RTVSPropertyOp28
 70
     1
102
RTVSPropertyOp29
 70
     1
102
RTVSPropertyOp30
 70
     1
102
RTVSPropertyOp31
 70
     1
102
RTVSPropertyOp32
 70
     1
  0
XRECORD
  5
1BD
102
{ACAD_REACTORS
330
1BC
102
}
330
1BC
100
AcDbXrecord
280
     1
102
RTVSPropertyOp0
 70
     1
102
RTVSPropertyOp1
 70
     1
102
RTVSPropertyOp2
 70
     1
102
RTVSPropertyOp3
 70
     1
102
RTVSPropertyOp4
 70
     1
102
RTVSPropertyOp5
 70
     1
102
RTVSPropertyOp6
 70
     1
102
RTVSPropertyOp7
 70
     1
102
RTVSPropertyOp8
 70
     1
102
RTVSPropertyOp9
 70
     1
102
RTVSPropertyOp10
 70
     1
102
RTVSPropertyOp11
 70
     1
102
RTVSPropertyOp12
 70
     1
102
RTVSPropertyOp13
 70
     1
102
RTVSPropertyOp14
 70
     1
102
RTVSPropertyOp15
 70
     1
102
RTVSPropertyOp16
 70
     1
102
RTVSPropertyOp17
 70
     1
102
RTVSPropertyOp18
 70
     1
102
RTVSPropertyOp19
 70
     1
102
RTVSPropertyOp20
 70
     1
102
RTVSPropertyOp21
 70
     1
102
RTVSPropertyOp22
 70
     1
102
RTVSPropertyOp23
 70
     1
102
RTVSPropertyOp24
 70
     1
102
RTVSPropertyOp25
 70
     1
102
RTVSPropertyOp26
 70
     1
102
RTVSPropertyOp27
 70
     1
102
RTVSPropertyOp28
 70
     1
102
RTVSPropertyOp29
 70
     1
102
RTVSPropertyOp30
 70
     1
102
RTVSPropertyOp31
 70
     1
102
RTVSPropertyOp32
 70
     1
  0
XRECORD
  5
1BF
102
{ACAD_REACTORS
330
1BE
102
}
330
1BE
100
AcDbXrecord
280
     1
102
RTVSPropertyOp0
 70
     1
102
RTVSPropertyOp1
 70
     1
102
RTVSPropertyOp2
 70
     1
102
RTVSPropertyOp3
 70
     1
102
RTVSPropertyOp4
 70
     1
102
RTVSPropertyOp5
 70
     1
102
RTVSPropertyOp6
 70
     1
102
RTVSPropertyOp7
 70
     1
102
RTVSPropertyOp8
 70
     1
102
RTVSPropertyOp9
 70
     1
102
RTVSPropertyOp10
 70
     1
102
RTVSPropertyOp11
 70
     1
102
RTVSPropertyOp12
 70
     1
102
RTVSPropertyOp13
 70
     1
102
RTVSPropertyOp14
 70
     1
102
RTVSPropertyOp15
 70
     1
102
RTVSPropertyOp16
 70
     1
102
RTVSPropertyOp17
 70
     1
102
RTVSPropertyOp18
 70
     1
102
RTVSPropertyOp19
 70
     1
102
RTVSPropertyOp20
 70
     1
102
RTVSPropertyOp21
 70
     1
102
RTVSPropertyOp22
 70
     1
102
RTVSPropertyOp23
 70
     1
102
RTVSPropertyOp24
 70
     1
102
RTVSPropertyOp25
 70
     1
102
RTVSPropertyOp26
 70
     1
102
RTVSPropertyOp27
 70
     1
102
RTVSPropertyOp28
 70
     1
102
RTVSPropertyOp29
 70
     1
102
RTVSPropertyOp30
 70
     1
102
RTVSPropertyOp31
 70
     1
102
RTVSPropertyOp32
 70
     1
  0
XRECORD
  5
1C1
102
{ACAD_REACTORS
330
1C0
102
}
330
1C0
100
AcDbXrecord
280
     1
102
RTVSPropertyOp0
 70
     1
102
RTVSPropertyOp1
 70
     1
102
RTVSPropertyOp2
 70
     1
102
RTVSPropertyOp3
 70
     1
102
RTVSPropertyOp4
 70
     1
102
RTVSPropertyOp5
 70
     1
102
RTVSPropertyOp6
 70
     1
102
RTVSPropertyOp7
 70
     1
102
RTVSPropertyOp8
 70
     1
102
RTVSPropertyOp9
 70
     1
102
RTVSPropertyOp10
 70
     1
102
RTVSPropertyOp11
 70
     1
102
RTVSPropertyOp12
 70
     1
102
RTVSPropertyOp13
 70
     1
102
RTVSPropertyOp14
 70
     1
102
RTVSPropertyOp15
 70
     1
102
RTVSPropertyOp16
 70
     1
102
RTVSPropertyOp17
 70
     1
102
RTVSPropertyOp18
 70
     1
102
RTVSPropertyOp19
 70
     1
102
RTVSPropertyOp20
 70
     1
102
RTVSPropertyOp21
 70
     1
102
RTVSPropertyOp22
 70
     1
102
RTVSPropertyOp23
 70
     1
102
RTVSPropertyOp24
 70
     1
102
RTVSPropertyOp25
 70
     1
102
RTVSPropertyOp26
 70
     1
102
RTVSPropertyOp27
 70
     1
102
RTVSPropertyOp28
 70
     1
102
RTVSPropertyOp29
 70
     1
102
RTVSPropertyOp30
 70
     1
102
RTVSPropertyOp31
 70
     1
102
RTVSPropertyOp32
 70
     1
  0
XRECORD
  5
1D5
102
{ACAD_REACTORS
330
1D4
102
}
330
1D4
100
AcDbXrecord
280
     1
102
RTVSPropertyOp0
 70
     1
102
RTVSPropertyOp1
 70
     1
102
RTVSPropertyOp2
 70
     1
102
RTVSPropertyOp3
 70
     1
102
RTVSPropertyOp4
 70
     1
102
RTVSPropertyOp5
 70
     1
102
RTVSPropertyOp6
 70
     1
102
RTVSPropertyOp7
 70
     1
102
RTVSPropertyOp8
 70
     1
102
RTVSPropertyOp9
 70
     1
102
RTVSPropertyOp10
 70
     1
102
RTVSPropertyOp11
 70
     1
102
RTVSPropertyOp12
 70
     1
102
RTVSPropertyOp13
 70
     1
102
RTVSPropertyOp14
 70
     1
102
RTVSPropertyOp15
 70
     1
102
RTVSPropertyOp16
 70
     1
102
RTVSPropertyOp17
 70
     1
102
RTVSPropertyOp18
 70
     1
102
RTVSPropertyOp19
 70
     1
102
RTVSPropertyOp20
 70
     1
102
RTVSPropertyOp21
 70
     1
102
RTVSPropertyOp22
 70
     1
102
RTVSPropertyOp23
 70
     1
102
RTVSPropertyOp24
 70
     1
102
RTVSPropertyOp25
 70
     1
102
RTVSPropertyOp26
 70
     1
102
RTVSPropertyOp27
 70
     1
102
RTVSPropertyOp28
 70
     1
102
RTVSPropertyOp29
 70
     1
102
RTVSPropertyOp30
 70
     1
102
RTVSPropertyOp31
 70
     1
102
RTVSPropertyOp32
 70
     1
  0
XRECORD
  5
1CB
102
{ACAD_REACTORS
330
1CA
102
}
330
1CA
100
AcDbXrecord
280
     1
102
RTVSPropertyOp0
 70
     1
102
RTVSPropertyOp1
 70
     1
102
RTVSPropertyOp2
 70
     1
102
RTVSPropertyOp3
 70
     1
102
RTVSPropertyOp4
 70
     1
102
RTVSPropertyOp5
 70
     1
102
RTVSPropertyOp6
 70
     1
102
RTVSPropertyOp7
 70
     1
102
RTVSPropertyOp8
 70
     1
102
RTVSPropertyOp9
 70
     1
102
RTVSPropertyOp10
 70
     1
102
RTVSPropertyOp11
 70
     1
102
RTVSPropertyOp12
 70
     1
102
RTVSPropertyOp13
 70
     1
102
RTVSPropertyOp14
 70
     1
102
RTVSPropertyOp15
 70
     1
102
RTVSPropertyOp16
 70
     1
102
RTVSPropertyOp17
 70
     1
102
RTVSPropertyOp18
 70
     1
102
RTVSPropertyOp19
 70
     1
102
RTVSPropertyOp20
 70
     1
102
RTVSPropertyOp21
 70
     1
102
RTVSPropertyOp22
 70
     1
102
RTVSPropertyOp23
 70
     1
102
RTVSPropertyOp24
 70
     1
102
RTVSPropertyOp25
 70
     1
102
RTVSPropertyOp26
 70
     1
102
RTVSPropertyOp27
 70
     1
102
RTVSPropertyOp28
 70
     1
102
RTVSPropertyOp29
 70
     1
102
RTVSPropertyOp30
 70
     1
102
RTVSPropertyOp31
 70
     1
102
RTVSPropertyOp32
 70
     1
  0
XRECORD
  5
1D3
102
{ACAD_REACTORS
330
1D2
102
}
330
1D2
100
AcDbXrecord
280
     1
102
RTVSPropertyOp0
 70
     1
102
RTVSPropertyOp1
 70
     1
102
RTVSPropertyOp2
 70
     1
102
RTVSPropertyOp3
 70
     1
102
RTVSPropertyOp4
 70
     1
102
RTVSPropertyOp5
 70
     1
102
RTVSPropertyOp6
 70
     1
102
RTVSPropertyOp7
 70
     1
102
RTVSPropertyOp8
 70
     1
102
RTVSPropertyOp9
 70
     1
102
RTVSPropertyOp10
 70
     1
102
RTVSPropertyOp11
 70
     1
102
RTVSPropertyOp12
 70
     1
102
RTVSPropertyOp13
 70
     1
102
RTVSPropertyOp14
 70
     1
102
RTVSPropertyOp15
 70
     1
102
RTVSPropertyOp16
 70
     1
102
RTVSPropertyOp17
 70
     1
102
RTVSPropertyOp18
 70
     1
102
RTVSPropertyOp19
 70
     1
102
RTVSPropertyOp20
 70
     1
102
RTVSPropertyOp21
 70
     1
102
RTVSPropertyOp22
 70
     1
102
RTVSPropertyOp23
 70
     1
102
RTVSPropertyOp24
 70
     1
102
RTVSPropertyOp25
 70
     1
102
RTVSPropertyOp26
 70
     1
102
RTVSPropertyOp27
 70
     1
102
RTVSPropertyOp28
 70
     1
102
RTVSPropertyOp29
 70
     1
102
RTVSPropertyOp30
 70
     1
102
RTVSPropertyOp31
 70
     1
102
RTVSPropertyOp32
 70
     1
  0
ENDSEC
  0
EOF
