  0
SECTION
  2
HEADER
  9
$ACADVER
  1
AC1015
  9
$ACADMAINTVER
 70
     6
  9
$DWGCODEPAGE
  3
DOS932
  9
$INSBASE
 10
0.0
 20
0.0
 30
0.0
  9
$EXTMIN
 10
0.0
 20
0.0
 30
0.0
  9
$EXTMAX
 10
420.0000000000002
 20
594.0
 30
0.0
  9
$LIMMIN
 10
0.0
 20
0.0
  9
$LIMMAX
 10
12.0
 20
9.0
  9
$ORTHOMODE
 70
     0
  9
$REGENMODE
 70
     1
  9
$FILLMODE
 70
     1
  9
$QTEXTMODE
 70
     0
  9
$MIRRTEXT
 70
     1
  9
$LTSCALE
 40
1.0
  9
$ATTMODE
 70
     1
  9
$TEXTSIZE
 40
0.2
  9
$TRACEWID
 40
0.05
  9
$TEXTSTYLE
  7
Standard
  9
$CLAYER
  8
0
  9
$CELTYPE
  6
ByLayer
  9
$CECOLOR
 62
   256
  9
$CELTSCALE
 40
1.0
  9
$DISPSILH
 70
     0
  9
$DIMSCALE
 40
1.0
  9
$DIMASZ
 40
0.18
  9
$DIMEXO
 40
0.0625
  9
$DIMDLI
 40
0.38
  9
$DIMRND
 40
0.0
  9
$DIMDLE
 40
0.0
  9
$DIMEXE
 40
0.18
  9
$DIMTP
 40
0.0
  9
$DIMTM
 40
0.0
  9
$DIMTXT
 40
0.18
  9
$DIMCEN
 40
0.09
  9
$DIMTSZ
 40
0.0
  9
$DIMTOL
 70
     0
  9
$DIMLIM
 70
     0
  9
$DIMTIH
 70
     1
  9
$DIMTOH
 70
     1
  9
$DIMSE1
 70
     0
  9
$DIMSE2
 70
     0
  9
$DIMTAD
 70
     0
  9
$DIMZIN
 70
     0
  9
$DIMBLK
  1

  9
$DIMASO
 70
     1
  9
$DIMSHO
 70
     1
  9
$DIMPOST
  1

  9
$DIMAPOST
  1

  9
$DIMALT
 70
     0
  9
$DIMALTD
 70
     2
  9
$DIMALTF
 40
25.4
  9
$DIMLFAC
 40
1.0
  9
$DIMTOFL
 70
     0
  9
$DIMTVP
 40
0.0
  9
$DIMTIX
 70
     0
  9
$DIMSOXD
 70
     0
  9
$DIMSAH
 70
     0
  9
$DIMBLK1
  1

  9
$DIMBLK2
  1

  9
$DIMSTYLE
  2
Standard
  9
$DIMCLRD
 70
     0
  9
$DIMCLRE
 70
     0
  9
$DIMCLRT
 70
     0
  9
$DIMTFAC
 40
1.0
  9
$DIMGAP
 40
0.09
  9
$DIMJUST
 70
     0
  9
$DIMSD1
 70
     0
  9
$DIMSD2
 70
     0
  9
$DIMTOLJ
 70
     1
  9
$DIMTZIN
 70
     0
  9
$DIMALTZ
 70
     0
  9
$DIMALTTZ
 70
     0
  9
$DIMUPT
 70
     0
  9
$DIMDEC
 70
     4
  9
$DIMTDEC
 70
     4
  9
$DIMALTU
 70
     2
  9
$DIMALTTD
 70
     2
  9
$DIMTXSTY
  7
Standard
  9
$DIMAUNIT
 70
     0
  9
$DIMADEC
 70
     0
  9
$DIMALTRND
 40
0.0
  9
$DIMAZIN
 70
     0
  9
$DIMDSEP
 70
    46
  9
$DIMATFIT
 70
     3
  9
$DIMFRAC
 70
     0
  9
$DIMLDRBLK
  1

  9
$DIMLUNIT
 70
     2
  9
$DIMLWD
 70
    -2
  9
$DIMLWE
 70
    -2
  9
$DIMTMOVE
 70
     0
  9
$LUNITS
 70
     2
  9
$LUPREC
 70
     4
  9
$SKETCHINC
 40
0.1
  9
$FILLETRAD
 40
0.5
  9
$AUNITS
 70
     0
  9
$AUPREC
 70
     0
  9
$MENU
  1
.
  9
$ELEVATION
 40
0.0
  9
$PELEVATION
 40
0.0
  9
$THICKNESS
 40
0.0
  9
$LIMCHECK
 70
     0
  9
$CHAMFERA
 40
0.5
  9
$CHAMFERB
 40
0.5
  9
$CHAMFERC
 40
1.0
  9
$CHAMFERD
 40
0.0
  9
$SKPOLY
 70
     0
  9
$TDCREATE
 40
2456143.421980428
  9
$TDUCREATE
 40
2456143.046980428
  9
$TDUPDATE
 40
2456143.42198044
  9
$TDUUPDATE
 40
2456143.04698044
  9
$TDINDWG
 40
0.0000000116
  9
$TDUSRTIMER
 40
0.0000000116
  9
$USRTIMER
 70
     1
  9
$ANGBASE
 50
0.0
  9
$ANGDIR
 70
     0
  9
$PDMODE
 70
     0
  9
$PDSIZE
 40
0.0
  9
$PLINEWID
 40
0.0
  9
$SPLFRAME
 70
     0
  9
$SPLINETYPE
 70
     6
  9
$SPLINESEGS
 70
     8
  9
$HANDSEED
  5
2DA
  9
$SURFTAB1
 70
     6
  9
$SURFTAB2
 70
     6
  9
$SURFTYPE
 70
     6
  9
$SURFU
 70
     6
  9
$SURFV
 70
     6
  9
$UCSBASE
  2

  9
$UCSNAME
  2

  9
$UCSORG
 10
0.0
 20
0.0
 30
0.0
  9
$UCSXDIR
 10
1.0
 20
0.0
 30
0.0
  9
$UCSYDIR
 10
0.0
 20
1.0
 30
0.0
  9
$UCSORTHOREF
  2

  9
$UCSORTHOVIEW
 70
     0
  9
$UCSORGTOP
 10
0.0
 20
0.0
 30
0.0
  9
$UCSORGBOTTOM
 10
0.0
 20
0.0
 30
0.0
  9
$UCSORGLEFT
 10
0.0
 20
0.0
 30
0.0
  9
$UCSORGRIGHT
 10
0.0
 20
0.0
 30
0.0
  9
$UCSORGFRONT
 10
0.0
 20
0.0
 30
0.0
  9
$UCSORGBACK
 10
0.0
 20
0.0
 30
0.0
  9
$PUCSBASE
  2

  9
$PUCSNAME
  2

  9
$PUCSORG
 10
0.0
 20
0.0
 30
0.0
  9
$PUCSXDIR
 10
1.0
 20
0.0
 30
0.0
  9
$PUCSYDIR
 10
0.0
 20
1.0
 30
0.0
  9
$PUCSORTHOREF
  2

  9
$PUCSORTHOVIEW
 70
     0
  9
$PUCSORGTOP
 10
0.0
 20
0.0
 30
0.0
  9
$PUCSORGBOTTOM
 10
0.0
 20
0.0
 30
0.0
  9
$PUCSORGLEFT
 10
0.0
 20
0.0
 30
0.0
  9
$PUCSORGRIGHT
 10
0.0
 20
0.0
 30
0.0
  9
$PUCSORGFRONT
 10
0.0
 20
0.0
 30
0.0
  9
$PUCSORGBACK
 10
0.0
 20
0.0
 30
0.0
  9
$USERI1
 70
     0
  9
$USERI2
 70
     0
  9
$USERI3
 70
     0
  9
$USERI4
 70
     0
  9
$USERI5
 70
     0
  9
$USERR1
 40
13.2
  9
$USERR2
 40
0.0
  9
$USERR3
 40
0.0
  9
$USERR4
 40
0.0
  9
$USERR5
 40
0.0
  9
$WORLDVIEW
 70
     1
  9
$SHADEDGE
 70
     3
  9
$SHADEDIF
 70
    70
  9
$TILEMODE
 70
     1
  9
$MAXACTVP
 70
    64
  9
$PINSBASE
 10
0.0
 20
0.0
 30
0.0
  9
$PLIMCHECK
 70
     0
  9
$PEXTMIN
 10
1.00000000000000E+20
 20
1.00000000000000E+20
 30
1.00000000000000E+20
  9
$PEXTMAX
 10
-1.00000000000000E+20
 20
-1.00000000000000E+20
 30
-1.00000000000000E+20
  9
$PLIMMIN
 10
0.0
 20
0.0
  9
$PLIMMAX
 10
12.0
 20
9.0
  9
$UNITMODE
 70
     0
  9
$VISRETAIN
 70
     1
  9
$PLINEGEN
 70
     0
  9
$PSLTSCALE
 70
     1
  9
$TREEDEPTH
 70
  3020
  9
$CMLSTYLE
  2
Standard
  9
$CMLJUST
 70
     0
  9
$CMLSCALE
 40
1.0
  9
$PROXYGRAPHICS
 70
     1
  9
$MEASUREMENT
 70
     1
  9
$CELWEIGHT
370
    -1
  9
$ENDCAPS
280
     0
  9
$JOINSTYLE
280
     0
  9
$LWDISPLAY
290
     0
  9
$INSUNITS
 70
     1
  9
$HYPERLINKBASE
  1

  9
$STYLESHEET
  1

  9
$XEDIT
290
     1
  9
$CEPSNTYPE
380
     0
  9
$PSTYLEMODE
290
     0
  9
$FINGERPRINTGUID
  2
{FAEB1C30-E019-11D5-929B-00C0DF256EC4}
  9
$VERSIONGUID
  2
{FAEB1C32-E019-11D5-929B-00C0DF256EC4}
  9
$EXTNAMES
290
     1
  9
$PSVPSCALE
 40
0.0
  9
$OLESTARTUP
290
     0
  0
ENDSEC
  0
SECTION
  2
CLASSES
  0
CLASS
  1
ACDBDICTIONARYWDFLT
  2
AcDbDictionaryWithDefault
  3
ObjectDBX Classes
 90
        0
280
     0
281
     0
  0
CLASS
  1
TABLESTYLE
  2
AcDbTableStyle
  3
ObjectDBX Classes
 90
     2047
280
     0
281
     0
  0
CLASS
  1
DICTIONARYVAR
  2
AcDbDictionaryVar
  3
ObjectDBX Classes
 90
        0
280
     0
281
     0
  0
CLASS
  1

  2
exOdDbSpline
  3

 90
        0
280
     0
281
     1
  0
CLASS
  1

  2
exOdDbCircle
  3

 90
        0
280
     0
281
     1
  0
CLASS
  1
ACDBPLACEHOLDER
  2
AcDbPlaceHolder
  3
ObjectDBX Classes
 90
        0
280
     0
281
     0
  0
CLASS
  1
LAYOUT
  2
AcDbLayout
  3
ObjectDBX Classes
 90
        0
280
     0
281
     0
  0
ENDSEC
  0
SECTION
  2
TABLES
  0
TABLE
  2
VPORT
  5
8
330
0
100
AcDbSymbolTable
 70
     2
  0
VPORT
  5
29
330
8
100
AcDbSymbolTableRecord
100
AcDbViewportTableRecord
  2
*Active
 70
     0
 10
0.0
 20
0.0
 11
1.0
 21
1.0
 12
210.0000000000001
 22
297.0
 13
0.0
 23
0.0
 14
0.5
 24
0.5
 15
0.5
 25
0.5
 16
0.0
 26
0.0
 36
1.0
 17
0.0
 27
0.0
 37
0.0
 40
653.4000000000001
 41
1.60267857142857
 42
50.0
 43
0.0
 44
0.0
 50
0.0
 51
0.0
 71
     0
 72
   100
 73
     1
 74
     3
 75
     0
 76
     0
 77
     0
 78
     0
281
     0
 65
     1
110
0.0
120
0.0
130
0.0
111
1.0
121
0.0
131
0.0
112
0.0
122
1.0
132
0.0
 79
     0
146
0.0
  0
ENDTAB
  0
TABLE
  2
LTYPE
  5
5
330
0
100
AcDbSymbolTable
 70
     8
  0
LTYPE
  5
14
330
5
100
AcDbSymbolTableRecord
100
AcDbLinetypeTableRecord
  2
ByBlock
 70
     0
  3

 72
    65
 73
     0
 40
0.0
  0
LTYPE
  5
15
330
5
100
AcDbSymbolTableRecord
100
AcDbLinetypeTableRecord
  2
ByLayer
 70
     0
  3

 72
    65
 73
     0
 40
0.0
  0
LTYPE
  5
16
330
5
100
AcDbSymbolTableRecord
100
AcDbLinetypeTableRecord
  2
Continuous
 70
     0
  3
Solid line
 72
    65
 73
     0
 40
0.0
  0
LTYPE
  5
2E
330
5
100
AcDbSymbolTableRecord
100
AcDbLinetypeTableRecord
  2
DASHED
 70
     0
  3
Dashed
 72
    65
 73
     2
 40
15.0
 49
7.0
 74
     0
 49
-8.0
 74
     0
  0
LTYPE
  5
2F
330
5
100
AcDbSymbolTableRecord
100
AcDbLinetypeTableRecord
  2
DOTTED
 70
     0
  3
Dotted
 72
    65
 73
     2
 40
1.0
 49
0.0
 74
     0
 49
-1.0
 74
     0
  0
LTYPE
  5
30
330
5
100
AcDbSymbolTableRecord
100
AcDbLinetypeTableRecord
  2
DOT_CENTER
 70
     0
  3
Dot_Center
 72
    65
 73
     4
 40
14.0
 49
12.0
 74
     0
 49
-1.0
 74
     0
 49
0.0
 74
     0
 49
-1.0
 74
     0
  0
LTYPE
  5
31
330
5
100
AcDbSymbolTableRecord
100
AcDbLinetypeTableRecord
  2
LONG_DASHED
 70
     0
  3
Long_Dashed
 72
    65
 73
     2
 40
15.0
 49
10.0
 74
     0
 49
-5.0
 74
     0
  0
LTYPE
  5
32
330
5
100
AcDbSymbolTableRecord
100
AcDbLinetypeTableRecord
  2
DASH_CENTER
 70
     0
  3
Dash_Center
 72
    65
 73
     4
 40
14.0
 49
11.0
 74
     0
 49
-1.0
 74
     0
 49
1.0
 74
     0
 49
-1.0
 74
     0
  0
LTYPE
  5
33
330
5
100
AcDbSymbolTableRecord
100
AcDbLinetypeTableRecord
  2
PHANTOM
 70
     0
  3
Phantom
 72
    65
 73
     6
 40
13.0
 49
10.0
 74
     0
 49
-1.0
 74
     0
 49
0.0
 74
     0
 49
-1.0
 74
     0
 49
0.0
 74
     0
 49
-1.0
 74
     0
  0
LTYPE
  5
34
330
5
100
AcDbSymbolTableRecord
100
AcDbLinetypeTableRecord
  2
CENTER_DASH_DASH
 70
     0
  3
Center_Dash_Dash
 72
    65
 73
     6
 40
14.0
 49
9.0
 74
     0
 49
-1.0
 74
     0
 49
1.0
 74
     0
 49
-1.0
 74
     0
 49
1.0
 74
     0
 49
-1.0
 74
     0
  0
ENDTAB
  0
TABLE
  2
LAYER
  5
2
330
0
100
AcDbSymbolTable
 70
     2
  0
LAYER
  5
10
330
2
100
AcDbSymbolTableRecord
100
AcDbLayerTableRecord
  2
0
 70
     0
 62
     7
  6
Continuous
370
    -3
390
F
  0
LAYER
  5
35
330
2
100
AcDbSymbolTableRecord
100
AcDbLayerTableRecord
  2
1
 70
     0
 62
     7
  6
Continuous
370
    -3
390
F
  0
ENDTAB
  0
TABLE
  2
STYLE
  5
3
330
0
100
AcDbSymbolTable
 70
     3
  0
STYLE
  5
11
330
3
100
AcDbSymbolTableRecord
100
AcDbTextStyleTableRecord
  2
Standard
 70
     0
 40
0.0
 41
1.0
 50
0.0
 71
     0
 42
0.2
  3
txt
  4

  0
STYLE
  5
16E
330
3
100
AcDbSymbolTableRecord
100
AcDbTextStyleTableRecord
  2
CONVERTER_1
 70
     0
 40
0.0
 41
0.89
 50
0.0
 71
     0
 42
0.2
  3
msmincho.ttc
  4

1001
ACAD
1000
MS Mincho
1071
    32785
  0
STYLE
  5
25C
330
3
100
AcDbSymbolTableRecord
100
AcDbTextStyleTableRecord
  2
CONVERTER_2
 70
     0
 40
0.0
 41
0.9
 50
0.0
 71
     0
 42
0.2
  3
txt.shx
  4

  0
ENDTAB
  0
TABLE
  2
VIEW
  5
6
330
0
100
AcDbSymbolTable
 70
     0
  0
ENDTAB
  0
TABLE
  2
UCS
  5
7
330
0
100
AcDbSymbolTable
 70
     0
  0
ENDTAB
  0
TABLE
  2
APPID
  5
9
330
0
100
AcDbSymbolTable
 70
     1
  0
APPID
  5
12
330
9
100
AcDbSymbolTableRecord
100
AcDbRegAppTableRecord
  2
ACAD
 70
     0
  0
ENDTAB
  0
TABLE
  2
DIMSTYLE
  5
A
330
0
100
AcDbSymbolTable
 70
    11
100
AcDbDimStyleTable
  0
DIMSTYLE
105
27
330
A
100
AcDbSymbolTableRecord
100
AcDbDimStyleTableRecord
  2
Standard
 70
     0
340
11
  0
DIMSTYLE
105
26F
102
{ACAD_REACTORS
330
270
102
}
330
A
100
AcDbSymbolTableRecord
100
AcDbDimStyleTableRecord
  2
ME10_DIM_0
 70
     0
 41
7.0
 42
0.0
 44
2.0
 73
     0
 74
     0
 77
     1
 78
     8
140
7.0
147
0.625
172
     1
173
     1
176
     2
177
     2
178
     7
271
     2
340
25C
  0
DIMSTYLE
105
27A
102
{ACAD_REACTORS
330
27B
102
}
330
A
100
AcDbSymbolTableRecord
100
AcDbDimStyleTableRecord
  2
ME10_DIM_1
 70
     0
 41
7.0
 42
0.0
 44
2.0
 73
     0
 74
     0
 77
     1
 78
     8
140
7.0
147
0.625
172
     1
173
     1
176
     2
177
     2
178
     7
271
     2
340
25C
  0
DIMSTYLE
105
285
102
{ACAD_REACTORS
330
286
102
}
330
A
100
AcDbSymbolTableRecord
100
AcDbDimStyleTableRecord
  2
ME10_DIM_2
 70
     0
 41
7.0
 42
0.0
 44
2.0
 73
     0
 74
     0
 77
     1
 78
     8
140
7.0
147
0.625
172
     1
173
     1
176
     2
177
     2
178
     7
271
     2
340
25C
  0
DIMSTYLE
105
290
102
{ACAD_REACTORS
330
291
102
}
330
A
100
AcDbSymbolTableRecord
100
AcDbDimStyleTableRecord
  2
ME10_DIM_3
 70
     0
 41
7.0
 42
0.0
 44
2.0
 73
     0
 74
     0
 77
     1
 78
     8
140
7.0
147
0.625
172
     1
173
     1
176
     2
177
     2
178
     7
271
     2
340
16E
  0
DIMSTYLE
105
29B
102
{ACAD_REACTORS
330
29C
102
}
330
A
100
AcDbSymbolTableRecord
100
AcDbDimStyleTableRecord
  2
ME10_DIM_4
 70
     0
 41
7.0
 42
0.0
 44
2.0
 73
     0
 74
     0
 77
     1
 78
     8
140
7.0
147
0.625
172
     1
173
     1
176
     2
177
     2
178
     7
271
     2
340
25C
  0
DIMSTYLE
105
2A8
102
{ACAD_REACTORS
330
2A9
102
}
330
A
100
AcDbSymbolTableRecord
100
AcDbDimStyleTableRecord
  2
ME10_DIM_5
 70
     0
 41
7.0
 42
0.0
 44
2.0
 73
     0
 74
     0
 77
     1
 78
     8
140
7.0
147
0.625
172
     1
173
     1
176
     2
177
     2
178
     7
271
     2
340
25C
  0
DIMSTYLE
105
2B4
102
{ACAD_REACTORS
330
2B5
102
}
330
A
100
AcDbSymbolTableRecord
100
AcDbDimStyleTableRecord
  2
ME10_DIM_6
 70
     0
 41
7.0
 42
0.0
 44
2.0
 73
     0
 74
     0
 77
     1
 78
     8
140
7.0
147
0.625
172
     1
173
     1
176
     2
177
     2
178
     7
271
     2
340
25C
  0
DIMSTYLE
105
2C0
102
{ACAD_REACTORS
330
2C1
102
}
330
A
100
AcDbSymbolTableRecord
100
AcDbDimStyleTableRecord
  2
ME10_DIM_7
 70
     0
 41
7.0
 42
0.0
 44
2.0
 73
     0
 74
     0
 77
     1
 78
     8
140
7.0
147
0.625
172
     1
173
     1
176
     2
177
     2
178
     7
271
     2
340
25C
  0
DIMSTYLE
105
2CD
102
{ACAD_REACTORS
330
2CE
102
}
330
A
100
AcDbSymbolTableRecord
100
AcDbDimStyleTableRecord
  2
ME10_DIM_8
 70
     0
 41
7.0
 42
0.0
 44
2.0
 73
     0
 74
     0
 77
     1
 78
     8
140
7.0
147
0.625
172
     1
173
     1
176
     2
177
     2
178
     7
271
     2
340
25C
  0
DIMSTYLE
105
2D8
102
{ACAD_REACTORS
330
2D9
102
}
330
A
100
AcDbSymbolTableRecord
100
AcDbDimStyleTableRecord
  2
ME10_DIM_9
 70
     0
 41
7.0
 42
0.0
 44
2.0
 73
     0
 74
     0
 77
     1
 78
     8
140
7.0
147
0.625
172
     1
173
     1
176
     2
177
     2
178
     7
271
     2
340
25C
  0
ENDTAB
  0
TABLE
  2
BLOCK_RECORD
  5
1
330
0
100
AcDbSymbolTable
 70
    23
  0
BLOCK_RECORD
  5
1F
330
1
100
AcDbSymbolTableRecord
100
AcDbBlockTableRecord
  2
*Model_Space
340
22
  0
BLOCK_RECORD
  5
1B
330
1
100
AcDbSymbolTableRecord
100
AcDbBlockTableRecord
  2
*Paper_Space
340
1E
  0
BLOCK_RECORD
  5
23
330
1
100
AcDbSymbolTableRecord
100
AcDbBlockTableRecord
  2
*Paper_Space0
340
26
  0
BLOCK_RECORD
  5
36
330
1
100
AcDbSymbolTableRecord
100
AcDbBlockTableRecord
  2
V22-0A-13
340
0
102
{BLKREFS
331
5C
102
}
  0
BLOCK_RECORD
  5
39
330
1
100
AcDbSymbolTableRecord
100
AcDbBlockTableRecord
  2
78-167
340
0
102
{BLKREFS
331
5D
102
}
  0
BLOCK_RECORD
  5
3C
330
1
100
AcDbSymbolTableRecord
100
AcDbBlockTableRecord
  2
64-7-13-75-M11
340
0
102
{BLKREFS
331
5E
102
}
  0
BLOCK_RECORD
  5
3F
330
1
100
AcDbSymbolTableRecord
100
AcDbBlockTableRecord
  2
V22-0A-13-__________
340
0
102
{BLKREFS
331
5F
102
}
  0
BLOCK_RECORD
  5
42
330
1
100
AcDbSymbolTableRecord
100
AcDbBlockTableRecord
  2
_J__A4
340
0
102
{BLKREFS
331
60
102
}
  0
BLOCK_RECORD
  5
45
330
1
100
AcDbSymbolTableRecord
100
AcDbBlockTableRecord
  2
66-16-15-200
340
0
102
{BLKREFS
331
61
102
}
  0
BLOCK_RECORD
  5
48
330
1
100
AcDbSymbolTableRecord
100
AcDbBlockTableRecord
  2
36-1A-13
340
0
102
{BLKREFS
331
62
102
}
  0
BLOCK_RECORD
  5
4B
330
1
100
AcDbSymbolTableRecord
100
AcDbBlockTableRecord
  2
32-12-M2
340
0
102
{BLKREFS
331
63
102
}
  0
BLOCK_RECORD
  5
4E
330
1
100
AcDbSymbolTableRecord
100
AcDbBlockTableRecord
  2
37-1-13
340
0
102
{BLKREFS
331
64
102
}
  0
BLOCK_RECORD
  5
51
330
1
100
AcDbSymbolTableRecord
100
AcDbBlockTableRecord
  2
42-15
340
0
102
{BLKREFS
331
58
102
}
  0
BLOCK_RECORD
  5
54
330
1
100
AcDbSymbolTableRecord
100
AcDbBlockTableRecord
  2
21-1A
340
0
102
{BLKREFS
331
59
102
}
  0
BLOCK_RECORD
  5
57
330
1
100
AcDbSymbolTableRecord
100
AcDbBlockTableRecord
  2
R10A
340
0
102
{BLKREFS
331
65
102
}
  0
BLOCK_RECORD
  5
264
330
1
100
AcDbSymbolTableRecord
100
AcDbBlockTableRecord
  2
*D013
340
0
  0
BLOCK_RECORD
  5
271
330
1
100
AcDbSymbolTableRecord
100
AcDbBlockTableRecord
  2
*D114
340
0
  0
BLOCK_RECORD
  5
27C
330
1
100
AcDbSymbolTableRecord
100
AcDbBlockTableRecord
  2
*D215
340
0
  0
BLOCK_RECORD
  5
287
330
1
100
AcDbSymbolTableRecord
100
AcDbBlockTableRecord
  2
*D316
340
0
  0
BLOCK_RECORD
  5
292
330
1
100
AcDbSymbolTableRecord
100
AcDbBlockTableRecord
  2
*D417
340
0
  0
BLOCK_RECORD
  5
29D
330
1
100
AcDbSymbolTableRecord
100
AcDbBlockTableRecord
  2
*D518
340
0
  0
BLOCK_RECORD
  5
2AA
330
1
100
AcDbSymbolTableRecord
100
AcDbBlockTableRecord
  2
*D619
340
0
  0
BLOCK_RECORD
  5
2B6
330
1
100
AcDbSymbolTableRecord
100
AcDbBlockTableRecord
  2
*D720
340
0
  0
BLOCK_RECORD
  5
2C2
330
1
100
AcDbSymbolTableRecord
100
AcDbBlockTableRecord
  2
*D821
340
0
  0
BLOCK_RECORD
  5
2CF
330
1
100
AcDbSymbolTableRecord
100
AcDbBlockTableRecord
  2
*D922
340
0
  0
ENDTAB
  0
ENDSEC
  0
SECTION
  2
BLOCKS
  0
BLOCK
  5
20
330
1F
100
AcDbEntity
  8
0
100
AcDbBlockBegin
  2
*Model_Space
 70
     0
 71
     0
 10
0.0
 20
0.0
 30
0.0
  3
*Model_Space
  1

  0
ENDBLK
  5
21
330
1F
100
AcDbEntity
  8
0
100
AcDbBlockEnd
  0
BLOCK
  5
1C
330
1B
100
AcDbEntity
 67
     1
  8
0
100
AcDbBlockBegin
  2
*Paper_Space
 70
     0
 71
     0
 10
0.0
 20
0.0
 30
0.0
  3
*Paper_Space
  1

  0
ENDBLK
  5
1D
330
1B
100
AcDbEntity
 67
     1
  8
0
100
AcDbBlockEnd
  0
BLOCK
  5
24
330
23
100
AcDbEntity
  8
0
100
AcDbBlockBegin
  2
*Paper_Space0
 70
     0
 71
     0
 10
0.0
 20
0.0
 30
0.0
  3
*Paper_Space0
  1

  0
ENDBLK
  5
25
330
23
100
AcDbEntity
  8
0
100
AcDbBlockEnd
  0
BLOCK
  5
37
330
36
100
AcDbEntity
  8
0
100
AcDbBlockBegin
  2
V22-0A-13
 70
     0
 71
     0
 10
133.7385709387331
 20
2318.277740897449
 30
0.0
  3
V22-0A-13
  1

  0
LINE
  5
66
330
36
100
AcDbEntity
  8
1
  6
Continuous
 62
     7
100
AcDbLine
 10
112.171883097214
 20
435.2701327433636
 30
0.0
 11
117.0088830972141
 21
435.2701327433636
 31
0.0
  0
LINE
  5
67
330
36
100
AcDbEntity
  8
1
  6
Continuous
 62
     7
100
AcDbLine
 10
92.82188309721404
 20
476.0090257444334
 30
0.0
 11
92.82188309721404
 21
468.8674074043382
 31
0.0
  0
LINE
  5
68
330
36
100
AcDbEntity
  8
1
  6
Continuous
 62
     7
100
AcDbLine
 10
118.571883097214
 20
478.2701327433636
 30
0.0
 11
93.07188309721404
 21
478.2701327433636
 31
0.0
  0
LINE
  5
69
330
36
100
AcDbEntity
  8
1
  6
Continuous
 62
     7
100
AcDbLine
 10
118.8218830972139
 20
478.0201327433639
 30
0.0
 11
118.8218830972139
 21
468.8674074043382
 31
0.0
  0
LINE
  5
6A
330
36
100
AcDbEntity
  8
1
  6
Continuous
 62
     7
100
AcDbLine
 10
118.571883097214
 20
478.2701327433636
 30
0.0
 11
118.8218830972139
 21
478.0201327433639
 31
0.0
  0
LINE
  5
6B
330
36
100
AcDbEntity
  8
1
  6
Continuous
 62
     7
100
AcDbLine
 10
92.82188309721404
 20
478.0201327433636
 30
0.0
 11
92.82188309721404
 21
476.0090257444334
 31
0.0
  0
LINE
  5
6C
330
36
100
AcDbEntity
  8
1
  6
Continuous
 62
     7
100
AcDbLine
 10
92.82188309721404
 20
478.0201327433636
 30
0.0
 11
93.07188309721404
 21
478.2701327433636
 31
0.0
  0
LINE
  5
6D
330
36
100
AcDbEntity
  8
1
  6
Continuous
 62
     7
100
AcDbLine
 10
93.82188309721394
 20
435.2701327433636
 30
0.0
 11
93.82188309721394
 21
433.8401327433638
 31
0.0
  0
LINE
  5
6E
330
36
100
AcDbEntity
  8
1
  6
Continuous
 62
     7
100
AcDbLine
 10
94.63488309721394
 20
435.2701327433636
 30
0.0
 11
93.82188309721394
 21
435.2701327433636
 31
0.0
  0
LINE
  5
6F
330
36
100
AcDbEntity
  8
1
  6
Continuous
 62
     7
100
AcDbLine
 10
93.82188309721394
 20
436.6782900499173
 30
0.0
 11
93.82188309721394
 21
435.2701327433636
 31
0.0
  0
LINE
  5
70
330
36
100
AcDbEntity
  8
1
  6
Continuous
 62
     7
100
AcDbLine
 10
117.821883097214
 20
435.2701327433636
 30
0.0
 11
117.821883097214
 21
436.6782900499173
 31
0.0
  0
LINE
  5
71
330
36
100
AcDbEntity
  8
1
  6
Continuous
 62
     7
100
AcDbLine
 10
117.821883097214
 20
435.2701327433636
 30
0.0
 11
117.0088830972141
 21
435.2701327433636
 31
0.0
  0
LINE
  5
72
330
36
100
AcDbEntity
  8
1
  6
Continuous
 62
     2
100
AcDbLine
 10
93.82188309721394
 20
436.6782900499173
 30
0.0
 11
94.63488309721394
 21
435.2701327433636
 31
0.0
  0
LINE
  5
73
330
36
100
AcDbEntity
  8
1
  6
Continuous
 62
     2
100
AcDbLine
 10
117.0088830972141
 20
435.2701327433636
 30
0.0
 11
117.0088830972141
 21
433.8401327433638
 31
0.0
  0
LINE
  5
74
330
36
100
AcDbEntity
  8
1
  6
Continuous
 62
     2
100
AcDbLine
 10
117.0088830972141
 20
435.2701327433636
 30
0.0
 11
117.821883097214
 21
436.6782900499173
 31
0.0
  0
LINE
  5
75
330
36
100
AcDbEntity
  8
1
  6
Continuous
 62
     7
100
AcDbLine
 10
93.32188309721404
 20
437.1782900499171
 30
0.0
 11
93.32188309721394
 21
466.6879579325679
 31
0.0
  0
LINE
  5
76
330
36
100
AcDbEntity
  8
1
  6
Continuous
 62
     7
100
AcDbLine
 10
93.82188309721394
 20
436.6782900499173
 30
0.0
 11
93.32188309721404
 21
437.1782900499171
 31
0.0
  0
LINE
  5
77
330
36
100
AcDbEntity
  8
1
  6
Continuous
 62
     7
100
AcDbLine
 10
117.821883097214
 20
436.6782900499173
 30
0.0
 11
118.321883097214
 21
437.1782900499173
 31
0.0
  0
LINE
  5
78
330
36
100
AcDbEntity
  8
1
  6
Continuous
 62
     7
100
AcDbLine
 10
118.321883097214
 20
437.1782900499173
 30
0.0
 11
118.321883097214
 21
466.6879579325679
 31
0.0
  0
LINE
  5
79
330
36
100
AcDbEntity
  8
1
  6
Continuous
 62
     7
100
AcDbLine
 10
242.7300404037676
 20
128.0380585002956
 30
0.0
 11
272.2397082864184
 21
128.0380585002956
 31
0.0
  0
LINE
  5
7A
330
36
100
AcDbEntity
  8
1
  6
Continuous
 62
     7
100
AcDbLine
 10
242.2300404037676
 20
128.5380585002956
 30
0.0
 11
242.7300404037676
 21
128.0380585002956
 31
0.0
  0
LINE
  5
7B
330
36
100
AcDbEntity
  8
1
  6
Continuous
 62
     7
100
AcDbLine
 10
242.2300404037676
 20
152.5380585002957
 30
0.0
 11
242.7300404037675
 21
153.0380585002956
 31
0.0
  0
LINE
  5
7C
330
36
100
AcDbEntity
  8
1
  6
Continuous
 62
     7
100
AcDbLine
 10
271.3218830972141
 20
153.0380585002957
 30
0.0
 11
272.2397082864184
 21
153.0380585002957
 31
0.0
  0
LINE
  5
7D
330
36
100
AcDbEntity
  8
1
  6
Continuous
 62
     7
100
AcDbLine
 10
276.8218830972141
 20
155.5491654992259
 30
0.0
 11
275.7752421923511
 21
154.502524594363
 31
0.0
  0
LINE
  5
7E
330
36
100
AcDbEntity
  8
1
  6
Continuous
 62
     7
100
AcDbLine
 10
276.8218830972141
 20
125.5269515013654
 30
0.0
 11
275.7752421923512
 21
126.5735924062283
 31
0.0
  0
LINE
  5
7F
330
36
100
AcDbEntity
  8
1
  6
PHANTOM
 62
     4
100
AcDbLine
 10
255.8218830972141
 20
173.5380585002956
 30
0.0
 11
255.8218830972141
 21
123.4177367708506
 31
0.0
  0
LINE
  5
80
330
36
100
AcDbEntity
  8
1
  6
Continuous
 62
     7
100
AcDbLine
 10
283.8218830972141
 20
127.7880585002956
 30
0.0
 11
283.8218830972141
 21
153.2880585002956
 31
0.0
  0
LINE
  5
81
330
36
100
AcDbEntity
  8
1
  6
Continuous
 62
     2
100
AcDbLine
 10
240.8218830972141
 20
129.3510585002955
 30
0.0
 11
242.2300404037676
 21
128.5380585002956
 31
0.0
  0
LINE
  5
82
330
36
100
AcDbEntity
  8
1
  6
Continuous
 62
     2
100
AcDbLine
 10
240.8218830972141
 20
129.3510585002955
 30
0.0
 11
239.3218830972142
 21
129.3510585002955
 31
0.0
  0
LINE
  5
83
330
36
100
AcDbEntity
  8
1
  6
Continuous
 62
     2
100
AcDbLine
 10
265.1598830972141
 20
161.5380585002956
 30
0.0
 11
266.3218830972141
 21
159.5254154619006
 31
0.0
  0
LINE
  5
84
330
36
100
AcDbEntity
  8
1
  6
Continuous
 62
     2
100
AcDbLine
 10
245.3218830972141
 20
159.5254154619006
 30
0.0
 11
246.4838830972141
 21
161.5380585002956
 31
0.0
  0
LINE
  5
85
330
36
100
AcDbEntity
  8
1
  6
Continuous
 62
     2
100
AcDbLine
 10
246.4838830972141
 20
161.5380585002956
 30
0.0
 11
246.4838830972141
 21
163.2380585002955
 31
0.0
  0
LINE
  5
86
330
36
100
AcDbEntity
  8
1
  6
Continuous
 62
     2
100
AcDbLine
 10
242.2300404037676
 20
152.5380585002957
 30
0.0
 11
240.8218830972141
 21
151.7250585002958
 31
0.0
  0
LINE
  5
87
330
36
100
AcDbEntity
  8
1
  6
Continuous
 62
     7
100
AcDbLine
 10
240.8218830972141
 20
128.5380585002956
 30
0.0
 11
240.8218830972141
 21
129.3510585002955
 31
0.0
  0
LINE
  5
88
330
36
100
AcDbEntity
  8
1
  6
Continuous
 62
     7
100
AcDbLine
 10
240.8218830972141
 20
128.5380585002956
 30
0.0
 11
242.2300404037676
 21
128.5380585002956
 31
0.0
  0
LINE
  5
89
330
36
100
AcDbEntity
  8
1
  6
Continuous
 62
     7
100
AcDbLine
 10
265.1598830972141
 20
161.5380585002956
 30
0.0
 11
266.3218830972141
 21
161.5380585002956
 31
0.0
  0
LINE
  5
8A
330
36
100
AcDbEntity
  8
1
  6
Continuous
 62
     7
100
AcDbLine
 10
245.3218830972141
 20
161.5380585002956
 30
0.0
 11
246.4838830972141
 21
161.5380585002956
 31
0.0
  0
LINE
  5
8B
330
36
100
AcDbEntity
  8
1
  6
Continuous
 62
     7
100
AcDbLine
 10
242.2300404037676
 20
152.5380585002957
 30
0.0
 11
240.8218830972141
 21
152.5380585002957
 31
0.0
  0
LINE
  5
8C
330
36
100
AcDbEntity
  8
1
  6
Continuous
 62
     7
100
AcDbLine
 10
240.8218830972141
 20
151.7250585002958
 30
0.0
 11
240.8218830972141
 21
152.5380585002957
 31
0.0
  0
LINE
  5
8D
330
36
100
AcDbEntity
  8
1
  6
Continuous
 62
     7
100
AcDbLine
 10
240.8218830972141
 20
152.5380585002957
 30
0.0
 11
239.3218830972142
 21
152.5380585002957
 31
0.0
  0
LINE
  5
8E
330
36
100
AcDbEntity
  8
1
  6
Continuous
 62
     7
100
AcDbLine
 10
281.5607760982838
 20
155.5491654992259
 30
0.0
 11
283.8218830972141
 21
153.2880585002956
 31
0.0
  0
LINE
  5
8F
330
36
100
AcDbEntity
  8
1
  6
Continuous
 62
     7
100
AcDbLine
 10
281.5607760982838
 20
155.5491654992259
 30
0.0
 11
276.8218830972141
 21
155.5491654992259
 31
0.0
  0
LINE
  5
90
330
36
100
AcDbEntity
  8
1
  6
Continuous
 62
     7
100
AcDbLine
 10
283.8218830972141
 20
127.7880585002956
 30
0.0
 11
281.5607760982838
 21
125.5269515013654
 31
0.0
  0
LINE
  5
91
330
36
100
AcDbEntity
  8
1
  6
Continuous
 62
     7
100
AcDbLine
 10
281.5607760982838
 20
125.5269515013654
 30
0.0
 11
276.8218830972141
 21
125.5269515013654
 31
0.0
  0
LINE
  5
92
330
36
100
AcDbEntity
  8
1
  6
Continuous
 62
     7
100
AcDbLine
 10
245.3218830972141
 20
161.5380585002956
 30
0.0
 11
245.3218830972141
 21
159.5254154619006
 31
0.0
  0
LINE
  5
93
330
36
100
AcDbEntity
  8
1
  6
Continuous
 62
     7
100
AcDbLine
 10
266.3218830972141
 20
161.5380585002956
 30
0.0
 11
266.3218830972141
 21
159.5254154619006
 31
0.0
  0
LINE
  5
94
330
36
100
AcDbEntity
  8
1
  6
Continuous
 62
     7
100
AcDbLine
 10
266.3218830972141
 20
159.5254154619006
 30
0.0
 11
266.3218830972141
 21
158.0380585002957
 31
0.0
  0
LINE
  5
95
330
36
100
AcDbEntity
  8
1
  6
PHANTOM
 62
     4
100
AcDbLine
 10
90.32188309721394
 20
450.2701327433636
 30
0.0
 11
121.321883097214
 21
450.2701327433636
 31
0.0
  0
LINE
  5
96
330
36
100
AcDbEntity
  8
1
  6
PHANTOM
 62
     4
100
AcDbLine
 10
286.8218830972141
 20
140.5380585002956
 30
0.0
 11
231.8218830972141
 21
140.5380585002956
 31
0.0
  0
LINE
  5
97
330
36
100
AcDbEntity
  8
1
  6
Continuous
 62
     7
100
AcDbLine
 10
281.5607760982839
 20
148.0436119997607
 30
0.0
 11
276.8218830972141
 21
148.0436119997607
 31
0.0
  0
LINE
  5
98
330
36
100
AcDbEntity
  8
1
  6
Continuous
 62
     7
100
AcDbLine
 10
281.5607760982839
 20
133.0325050008305
 30
0.0
 11
276.8218830972141
 21
133.0325050008305
 31
0.0
  0
LINE
  5
99
330
36
100
AcDbEntity
  8
1
  6
Continuous
 62
     7
100
AcDbLine
 10
246.4838830972141
 20
161.5380585002956
 30
0.0
 11
265.1598830972141
 21
161.5380585002956
 31
0.0
  0
LINE
  5
9A
330
36
100
AcDbEntity
  8
1
  6
Continuous
 62
     7
100
AcDbLine
 10
240.8218830972141
 20
129.3510585002955
 30
0.0
 11
240.8218830972141
 21
151.7250585002958
 31
0.0
  0
LINE
  5
9B
330
36
100
AcDbEntity
  8
1
  6
Continuous
 62
     7
100
AcDbLine
 10
105.821883097214
 20
471.2701327433636
 30
0.0
 11
105.821883097214
 21
476.0090257444334
 31
0.0
  0
LINE
  5
9C
330
36
100
AcDbEntity
  8
1
  6
PHANTOM
 62
     4
100
AcDbLine
 10
105.821883097214
 20
484.2701327433636
 30
0.0
 11
105.821883097214
 21
423.2701327433636
 31
0.0
  0
LINE
  5
9D
330
36
100
AcDbEntity
  8
1
  6
Continuous
 62
     2
100
AcDbLine
 10
239.3218830972142
 20
151.7250585002958
 30
0.0
 11
240.8218830972141
 21
151.7250585002958
 31
0.0
  0
LINE
  5
9E
330
36
100
AcDbEntity
  8
1
  6
Continuous
 62
     7
100
AcDbLine
 10
239.3218830972142
 20
128.5380585002956
 30
0.0
 11
240.8218830972141
 21
128.5380585002956
 31
0.0
  0
LINE
  5
9F
330
36
100
AcDbEntity
  8
1
  6
Continuous
 62
     7
100
AcDbLine
 10
245.3218830972141
 20
163.2380585002955
 30
0.0
 11
245.3218830972141
 21
161.5380585002956
 31
0.0
  0
LINE
  5
A0
330
36
100
AcDbEntity
  8
1
  6
Continuous
 62
     2
100
AcDbLine
 10
265.1598830972141
 20
163.2380585002955
 30
0.0
 11
265.1598830972141
 21
161.5380585002956
 31
0.0
  0
LINE
  5
A1
330
36
100
AcDbEntity
  8
1
  6
Continuous
 62
     7
100
AcDbLine
 10
266.3218830972141
 20
163.2380585002955
 30
0.0
 11
266.3218830972141
 21
161.5380585002956
 31
0.0
  0
LINE
  5
A2
330
36
100
AcDbEntity
  8
1
  6
Continuous
 62
     7
100
AcDbLine
 10
117.821883097214
 20
433.8401327433638
 30
0.0
 11
117.821883097214
 21
435.2701327433636
 31
0.0
  0
LINE
  5
A3
330
36
100
AcDbEntity
  8
1
  6
Continuous
 62
     2
100
AcDbLine
 10
94.63488309721394
 20
433.8401327433638
 30
0.0
 11
94.63488309721394
 21
435.2701327433636
 31
0.0
  0
LINE
  5
A4
330
36
100
AcDbEntity
  8
1
  6
Continuous
 62
     7
100
AcDbLine
 10
94.63488309721394
 20
435.2701327433636
 30
0.0
 11
99.47188309721391
 21
435.2701327433636
 31
0.0
  0
ARC
  5
A5
330
36
100
AcDbEntity
  8
1
  6
Continuous
 62
     7
100
AcDbCircle
 10
235.9070661759837
 20
159.5254154619006
 30
0.0
 40
9.414816921230441
100
AcDbArc
 50
-43.55560474847164
 51
0.0
  0
SPLINE
  5
A6
330
36
100
AcDbEntity
  8
1
  6
Continuous
 62
     7
100
AcDbSpline
210
0.0
220
0.0
230
1.0
 70
     8
 71
     3
 72
    33
 73
    29
 74
    27
 42
0.0000000001
 43
0.0000000001
 44
0.00000001
 40
0.0
 40
0.0
 40
0.0
 40
0.0
 40
0.5939249141923835
 40
1.187851599377235
 40
1.51381974151297
 40
1.839789281990725
 40
2.196317437918243
 40
2.552851935104851
 40
2.958199561199039
 40
3.363541512548779
 40
3.863542578221038
 40
4.36366270681123
 40
5.224160052688804
 40
6.084683379167914
 40
6.883623439069133
 40
7.682563498970348
 40
8.543086825449459
 40
9.403584171327044
 40
9.90370429991729
 40
10.4037053655896
 40
10.80904731693935
 40
11.21439494303349
 40
11.57092944021997
 40
11.92745759614735
 40
12.25342713662519
 40
12.57939527876101
 40
13.17332196394601
 40
13.7672468781383
 40
13.7672468781383
 40
13.7672468781383
 40
13.7672468781383
 10
105.821883097214
 20
471.2701327433636
 30
0.0
 10
105.9940712924322
 20
471.1724091121434
 30
0.0
 10
106.3384481963074
 20
470.9769615583064
 30
0.0
 10
106.7859707395789
 20
470.7435741658092
 30
0.0
 10
107.1584579551145
 20
470.5599233295297
 30
0.0
 10
107.4627083016053
 20
470.4169305643379
 30
0.0
 10
107.7790998846008
 20
470.2759710776658
 30
0.0
 10
108.1230073509188
 20
470.1319770944756
 30
0.0
 10
108.4856671468343
 20
469.9909155153187
 30
0.0
 10
108.8973237143359
 20
469.8443885304872
 30
0.0
 10
109.3439529487579
 20
469.7025234435902
 30
0.0
 10
109.9424037651934
 20
469.5391009325436
 30
0.0
 10
110.667786663525
 20
469.3868917104681
 30
0.0
 10
111.5021817315232
 20
469.2816562178819
 30
0.0
 10
112.321883097214
 20
469.2482964165077
 30
0.0
 10
113.1415844629048
 20
469.2816562178817
 30
0.0
 10
113.975979530903
 20
469.3868917104683
 30
0.0
 10
114.7013624292345
 20
469.5391009325435
 30
0.0
 10
115.2998132456702
 20
469.7025234435903
 30
0.0
 10
115.7464424800921
 20
469.844388530487
 30
0.0
 10
116.1580990475937
 20
469.9909155153185
 30
0.0
 10
116.5207588435093
 20
470.1319770944755
 30
0.0
 10
116.8646663098271
 20
470.2759710776659
 30
0.0
 10
117.1810578928226
 20
470.4169305643378
 30
0.0
 10
117.4853082393134
 20
470.55992332953
 30
0.0
 10
117.8577954548491
 20
470.743574165809
 30
0.0
 10
118.3053179981205
 20
470.9769615583067
 30
0.0
 10
118.6496949019957
 20
471.1724091121436
 30
0.0
 10
118.821883097214
 20
471.2701327433636
 30
0.0
 11
105.821883097214
 21
471.2701327433636
 31
0.0
 11
106.3401430271496
 21
470.9800406050325
 31
0.0
 11
106.8664721418893
 21
470.7048559936312
 31
0.0
 11
107.1589004108943
 21
470.5608388516858
 31
0.0
 11
107.4539263336584
 21
470.4222176187649
 31
0.0
 11
107.7796310748157
 21
470.2772046967314
 31
0.0
 11
108.1085324010774
 21
470.1395792438985
 31
0.0
 11
108.4863525871403
 21
469.9927507555743
 31
0.0
 11
108.8682658917546
 21
469.8569408690321
 31
0.0
 11
109.3448799917992
 21
469.7058115690534
 31
0.0
 11
109.8273999460428
 21
469.5743024941658
 31
0.0
 11
110.6697285017924
 21
469.3984096676173
 31
0.0
 11
111.523605415246
 21
469.2916641192997
 31
0.0
 11
112.321883097214
 21
469.2591377947804
 31
0.0
 11
113.120160779182
 21
469.2916641192996
 31
0.0
 11
113.9740376926356
 21
469.3984096676173
 31
0.0
 11
114.8163662483851
 21
469.5743024941659
 31
0.0
 11
115.2988862026288
 21
469.7058115690535
 31
0.0
 11
115.7755003026735
 21
469.8569408690321
 31
0.0
 11
116.1574136072878
 21
469.9927507555743
 31
0.0
 11
116.5352337933507
 21
470.1395792438985
 31
0.0
 11
116.8641351196122
 21
470.2772046967314
 31
0.0
 11
117.1898398607694
 21
470.4222176187648
 31
0.0
 11
117.4848657835335
 21
470.5608388516857
 31
0.0
 11
117.7772940525387
 21
470.7048559936312
 31
0.0
 11
118.3036231672784
 21
470.9800406050326
 31
0.0
 11
118.821883097214
 21
471.2701327433636
 31
0.0
  0
SPLINE
  5
A7
330
36
100
AcDbEntity
  8
1
  6
Continuous
 62
     7
100
AcDbSpline
210
0.0
220
0.0
230
1.0
 70
     8
 71
     3
 72
    33
 73
    29
 74
    27
 42
0.0000000001
 43
0.0000000001
 44
0.00000001
 40
0.0
 40
0.0
 40
0.0
 40
0.0
 40
0.5939249141922967
 40
1.187851599377249
 40
1.513819741513073
 40
1.839789281990893
 40
2.196317437918371
 40
2.552851935104862
 40
2.958199561198984
 40
3.36354151254871
 40
3.86354257822097
 40
4.363662706811161
 40
5.224160052688763
 40
6.084683379167859
 40
6.883623439069121
 40
7.682563498970335
 40
8.543086825449404
 40
9.403584171327017
 40
9.903704299917264
 40
10.40370536558957
 40
10.80904731693931
 40
11.21439494303348
 40
11.57092944021997
 40
11.92745759614737
 40
12.25342713662522
 40
12.57939527876103
 40
13.17332196394602
 40
13.76724687813826
 40
13.76724687813826
 40
13.76724687813826
 40
13.76724687813826
 10
105.821883097214
 20
471.2701327433636
 30
0.0
 10
105.6496949019958
 20
471.1724091121434
 30
0.0
 10
105.3053179981206
 20
470.9769615583064
 30
0.0
 10
104.8577954548491
 20
470.743574165809
 30
0.0
 10
104.4853082393134
 20
470.5599233295299
 30
0.0
 10
104.1810578928226
 20
470.4169305643378
 30
0.0
 10
103.8646663098271
 20
470.2759710776659
 30
0.0
 10
103.5207588435092
 20
470.1319770944755
 30
0.0
 10
103.1580990475937
 20
469.9909155153186
 30
0.0
 10
102.7464424800921
 20
469.8443885304872
 30
0.0
 10
102.2998132456702
 20
469.7025234435901
 30
0.0
 10
101.7013624292347
 20
469.5391009325437
 30
0.0
 10
100.9759795309031
 20
469.3868917104681
 30
0.0
 10
100.1415844629049
 20
469.281656217882
 30
0.0
 10
99.32188309721401
 20
469.2482964165076
 30
0.0
 10
98.50218173152325
 20
469.2816562178817
 30
0.0
 10
97.66778666352502
 20
469.3868917104682
 30
0.0
 10
96.94240376519346
 20
469.5391009325437
 30
0.0
 10
96.34395294875795
 20
469.7025234435902
 30
0.0
 10
95.89732371433584
 20
469.8443885304872
 30
0.0
 10
95.4856671468343
 20
469.9909155153185
 30
0.0
 10
95.12300735091873
 20
470.1319770944754
 30
0.0
 10
94.7790998846009
 20
470.2759710776659
 30
0.0
 10
94.46270830160536
 20
470.4169305643377
 30
0.0
 10
94.15845795511459
 20
470.5599233295299
 30
0.0
 10
93.78597073957887
 20
470.7435741658092
 30
0.0
 10
93.3384481963075
 20
470.9769615583066
 30
0.0
 10
92.9940712924323
 20
471.1724091121436
 30
0.0
 10
92.82188309721404
 20
471.2701327433636
 30
0.0
 11
105.821883097214
 21
471.2701327433636
 31
0.0
 11
105.3036231672785
 21
470.9800406050325
 31
0.0
 11
104.7772940525387
 21
470.7048559936312
 31
0.0
 11
104.4848657835336
 21
470.5608388516858
 31
0.0
 11
104.1898398607695
 21
470.4222176187649
 31
0.0
 11
103.8641351196121
 21
470.2772046967314
 31
0.0
 11
103.5352337933506
 21
470.1395792438985
 31
0.0
 11
103.1574136072878
 21
469.9927507555743
 31
0.0
 11
102.7755003026735
 21
469.8569408690321
 31
0.0
 11
102.2988862026289
 21
469.7058115690534
 31
0.0
 11
101.8163662483853
 21
469.5743024941658
 31
0.0
 11
100.9740376926357
 21
469.3984096676173
 31
0.0
 11
100.1201607791821
 21
469.2916641192997
 31
0.0
 11
99.32188309721403
 21
469.2591377947804
 31
0.0
 11
98.52360541524601
 21
469.2916641192996
 31
0.0
 11
97.66972850179246
 21
469.3984096676173
 31
0.0
 11
96.82739994604289
 21
469.5743024941659
 31
0.0
 11
96.3448799917992
 21
469.7058115690535
 31
0.0
 11
95.86826589175452
 21
469.8569408690321
 31
0.0
 11
95.48635258714022
 21
469.9927507555743
 31
0.0
 11
95.10853240107733
 21
470.1395792438985
 31
0.0
 11
94.77963107481581
 21
470.2772046967314
 31
0.0
 11
94.45392633365853
 21
470.4222176187648
 31
0.0
 11
94.15890041089443
 21
470.5608388516857
 31
0.0
 11
93.86647214188929
 21
470.7048559936312
 31
0.0
 11
93.34014302714961
 21
470.9800406050326
 31
0.0
 11
92.82188309721404
 21
471.2701327433636
 31
0.0
  0
SPLINE
  5
A8
330
36
100
AcDbEntity
  8
1
  6
Continuous
 62
     7
100
AcDbSpline
210
0.0
220
0.0
230
1.0
 70
     8
 71
     3
 72
    33
 73
    29
 74
    27
 42
0.0000000001
 43
0.0000000001
 44
0.00000001
 40
0.0
 40
0.0
 40
0.0
 40
0.0
 40
0.593924914192328
 40
1.187851599377311
 40
1.513819741512971
 40
1.83978928199075
 40
2.196317437918245
 40
2.552851935104875
 40
2.958199561199084
 40
3.363541512548786
 40
3.863542578220994
 40
4.3636627068112
 40
5.224160052688798
 40
6.084683379167936
 40
6.883623439069151
 40
7.682563498970372
 40
8.543086825449468
 40
9.403584171327076
 40
9.903704299917322
 40
10.40370536558965
 40
10.80904731693933
 40
11.21439494303348
 40
11.57092944021996
 40
11.92745759614741
 40
12.25342713662525
 40
12.57939527876103
 40
13.17332196394607
 40
13.76724687813831
 40
13.76724687813831
 40
13.76724687813831
 40
13.76724687813831
 10
105.821883097214
 20
476.0090257444334
 30
0.0
 10
105.9940712924323
 20
476.1067493756535
 30
0.0
 10
106.3384481963076
 20
476.3021969294906
 30
0.0
 10
106.7859707395788
 20
476.5355843219883
 30
0.0
 10
107.1584579551145
 20
476.7192351582669
 30
0.0
 10
107.4627083016053
 20
476.8622279234595
 30
0.0
 10
107.7790998846008
 20
477.0031874101312
 30
0.0
 10
108.1230073509188
 20
477.1471813933216
 30
0.0
 10
108.4856671468343
 20
477.2882429724787
 30
0.0
 10
108.897323714336
 20
477.4347699573098
 30
0.0
 10
109.3439529487579
 20
477.5766350442067
 30
0.0
 10
109.9424037651934
 20
477.7400575552533
 30
0.0
 10
110.6677866635249
 20
477.8922667773288
 30
0.0
 10
111.5021817315232
 20
477.9975022699155
 30
0.0
 10
112.3218830972139
 20
478.0308620712893
 30
0.0
 10
113.1415844629048
 20
477.9975022699151
 30
0.0
 10
113.975979530903
 20
477.8922667773289
 30
0.0
 10
114.7013624292345
 20
477.7400575552535
 30
0.0
 10
115.2998132456701
 20
477.5766350442066
 30
0.0
 10
115.7464424800921
 20
477.4347699573098
 30
0.0
 10
116.1580990475938
 20
477.2882429724786
 30
0.0
 10
116.5207588435093
 20
477.1471813933216
 30
0.0
 10
116.8646663098271
 20
477.0031874101313
 30
0.0
 10
117.1810578928226
 20
476.8622279234592
 30
0.0
 10
117.4853082393133
 20
476.7192351582669
 30
0.0
 10
117.8577954548492
 20
476.5355843219882
 30
0.0
 10
118.3053179981204
 20
476.3021969294902
 30
0.0
 10
118.6496949019957
 20
476.1067493756534
 30
0.0
 10
118.821883097214
 20
476.0090257444334
 30
0.0
 11
105.821883097214
 21
476.0090257444334
 31
0.0
 11
106.3401430271496
 21
476.2991178827645
 31
0.0
 11
106.8664721418893
 21
476.574302494166
 31
0.0
 11
107.1589004108943
 21
476.7183196361112
 31
0.0
 11
107.4539263336584
 21
476.8569408690322
 31
0.0
 11
107.7796310748157
 21
477.0019537910657
 31
0.0
 11
108.1085324010774
 21
477.1395792438985
 31
0.0
 11
108.4863525871403
 21
477.2864077322228
 31
0.0
 11
108.8682658917546
 21
477.4222176187649
 31
0.0
 11
109.3448799917992
 21
477.5733469187434
 31
0.0
 11
109.8273999460428
 21
477.7048559936311
 31
0.0
 11
110.6697285017924
 21
477.8807488201798
 31
0.0
 11
111.523605415246
 21
477.9874943684976
 31
0.0
 11
112.321883097214
 21
478.0200206930167
 31
0.0
 11
113.120160779182
 21
477.9874943684974
 31
0.0
 11
113.9740376926356
 21
477.8807488201798
 31
0.0
 11
114.8163662483851
 21
477.7048559936311
 31
0.0
 11
115.2988862026288
 21
477.5733469187435
 31
0.0
 11
115.7755003026735
 21
477.4222176187648
 31
0.0
 11
116.1574136072878
 21
477.2864077322228
 31
0.0
 11
116.5352337933507
 21
477.1395792438985
 31
0.0
 11
116.8641351196122
 21
477.0019537910657
 31
0.0
 11
117.1898398607694
 21
476.8569408690321
 31
0.0
 11
117.4848657835335
 21
476.7183196361112
 31
0.0
 11
117.7772940525387
 21
476.5743024941659
 31
0.0
 11
118.3036231672784
 21
476.2991178827643
 31
0.0
 11
118.821883097214
 21
476.0090257444334
 31
0.0
  0
SPLINE
  5
A9
330
36
100
AcDbEntity
  8
1
  6
Continuous
 62
     7
100
AcDbSpline
210
0.0
220
0.0
230
1.0
 70
     8
 71
     3
 72
    33
 73
    29
 74
    27
 42
0.0000000001
 43
0.0000000001
 44
0.00000001
 40
0.0
 40
0.0
 40
0.0
 40
0.0
 40
0.5939249141922411
 40
1.187851599377325
 40
1.513819741513074
 40
1.839789281990918
 40
2.196317437918373
 40
2.552851935104885
 40
2.958199561199028
 40
3.363541512548716
 40
3.863542578220924
 40
4.363662706811131
 40
5.224160052688756
 40
6.08468337916788
 40
6.883623439069137
 40
7.682563498970358
 40
8.543086825449411
 40
9.403584171327047
 40
9.903704299917294
 40
10.40370536558962
 40
10.80904731693929
 40
11.21439494303347
 40
11.57092944021996
 40
11.92745759614743
 40
12.25342713662528
 40
12.57939527876104
 40
13.17332196394609
 40
13.76724687813827
 40
13.76724687813827
 40
13.76724687813827
 40
13.76724687813827
 10
105.821883097214
 20
476.0090257444334
 30
0.0
 10
105.6496949019957
 20
476.1067493756534
 30
0.0
 10
105.3053179981205
 20
476.3021969294905
 30
0.0
 10
104.8577954548492
 20
476.5355843219882
 30
0.0
 10
104.4853082393133
 20
476.719235158267
 30
0.0
 10
104.1810578928226
 20
476.8622279234594
 30
0.0
 10
103.8646663098271
 20
477.0031874101311
 30
0.0
 10
103.5207588435092
 20
477.1471813933216
 30
0.0
 10
103.1580990475938
 20
477.2882429724786
 30
0.0
 10
102.7464424800921
 20
477.4347699573098
 30
0.0
 10
102.2998132456701
 20
477.5766350442066
 30
0.0
 10
101.7013624292347
 20
477.7400575552535
 30
0.0
 10
100.9759795309031
 20
477.8922667773289
 30
0.0
 10
100.1415844629049
 20
477.9975022699153
 30
0.0
 10
99.32188309721403
 20
478.0308620712895
 30
0.0
 10
98.50218173152325
 20
477.997502269915
 30
0.0
 10
97.66778666352499
 20
477.8922667773289
 30
0.0
 10
96.9424037651935
 20
477.7400575552534
 30
0.0
 10
96.34395294875787
 20
477.5766350442067
 30
0.0
 10
95.89732371433598
 20
477.4347699573098
 30
0.0
 10
95.48566714683422
 20
477.2882429724785
 30
0.0
 10
95.12300735091876
 20
477.1471813933216
 30
0.0
 10
94.77909988460087
 20
477.0031874101312
 30
0.0
 10
94.4627083016054
 20
476.8622279234592
 30
0.0
 10
94.15845795511463
 20
476.719235158267
 30
0.0
 10
93.78597073957877
 20
476.535584321988
 30
0.0
 10
93.3384481963076
 20
476.3021969294902
 30
0.0
 10
92.99407129243231
 20
476.1067493756534
 30
0.0
 10
92.82188309721404
 20
476.0090257444334
 30
0.0
 11
105.821883097214
 21
476.0090257444334
 31
0.0
 11
105.3036231672785
 21
476.2991178827645
 31
0.0
 11
104.7772940525387
 21
476.574302494166
 31
0.0
 11
104.4848657835336
 21
476.7183196361112
 31
0.0
 11
104.1898398607695
 21
476.8569408690322
 31
0.0
 11
103.8641351196121
 21
477.0019537910657
 31
0.0
 11
103.5352337933506
 21
477.1395792438985
 31
0.0
 11
103.1574136072878
 21
477.2864077322228
 31
0.0
 11
102.7755003026735
 21
477.4222176187649
 31
0.0
 11
102.2988862026289
 21
477.5733469187434
 31
0.0
 11
101.8163662483853
 21
477.7048559936311
 31
0.0
 11
100.9740376926357
 21
477.8807488201798
 31
0.0
 11
100.1201607791821
 21
477.9874943684976
 31
0.0
 11
99.32188309721403
 21
478.0200206930167
 31
0.0
 11
98.52360541524601
 21
477.9874943684974
 31
0.0
 11
97.66972850179246
 21
477.8807488201798
 31
0.0
 11
96.82739994604289
 21
477.7048559936311
 31
0.0
 11
96.3448799917992
 21
477.5733469187435
 31
0.0
 11
95.86826589175452
 21
477.4222176187648
 31
0.0
 11
95.48635258714022
 21
477.2864077322228
 31
0.0
 11
95.10853240107733
 21
477.1395792438985
 31
0.0
 11
94.77963107481581
 21
477.0019537910657
 31
0.0
 11
94.45392633365853
 21
476.8569408690321
 31
0.0
 11
94.15890041089443
 21
476.7183196361112
 31
0.0
 11
93.86647214188929
 21
476.5743024941659
 31
0.0
 11
93.34014302714961
 21
476.2991178827643
 31
0.0
 11
92.82188309721404
 21
476.0090257444334
 31
0.0
  0
SPLINE
  5
AA
330
36
100
AcDbEntity
  8
1
  6
Continuous
 62
     7
100
AcDbSpline
210
0.0
220
0.0
230
1.0
 70
     8
 71
     3
 72
    33
 73
    29
 74
    27
 42
0.0000000001
 43
0.0000000001
 44
0.00000001
 40
0.0
 40
0.0
 40
0.0
 40
0.0
 40
0.4133569006801721
 40
0.8267148991713538
 40
1.047477429691615
 40
1.268240273686119
 40
1.504227369535185
 40
1.740225682305944
 40
2.001195139144849
 40
2.262139231593112
 40
2.573023665195342
 40
2.884147975817183
 40
3.395079514214237
 40
3.905704156216128
 40
4.367715781294435
 40
4.829727406372738
 40
5.340352048374625
 40
5.851283586771667
 40
6.162407897393532
 40
6.473292330995788
 40
6.734236423444076
 40
6.995205880282971
 40
7.231204193053697
 40
7.467191288902708
 40
7.687954132897088
 40
7.90871666341738
 40
8.322074661908541
 40
8.735431562588756
 40
8.735431562588756
 40
8.735431562588756
 40
8.735431562588756
 10
281.5607760982838
 20
155.5491654992259
 30
0.0
 10
281.6573925520031
 20
155.4509152975212
 30
0.0
 10
281.8506257160398
 20
155.2544146331748
 30
0.0
 10
282.0849026713714
 20
154.9953607645618
 30
0.0
 10
282.269995749151
 20
154.7786779580623
 30
0.0
 10
282.4126176290031
 20
154.6035429607537
 30
0.0
 10
282.5537620311635
 20
154.4207462721658
 30
0.0
 10
282.6972704266722
 20
154.2229699888681
 30
0.0
 10
282.8385533161171
 20
154.01345394352
 30
0.0
 10
282.9843841196064
 20
153.7771555331483
 30
0.0
 10
283.1266062298467
 20
153.5192849812946
 30
0.0
 10
283.2884325254743
 20
153.1778191973785
 30
0.0
 10
283.4415965939076
 20
152.7596123912088
 30
0.0
 10
283.5488912532804
 20
152.2750282227073
 30
0.0
 10
283.5822070375647
 20
151.7963887494933
 30
0.0
 10
283.5488912532807
 20
151.3177492762792
 30
0.0
 10
283.4415965939073
 20
150.8331651077778
 30
0.0
 10
283.2884325254744
 20
150.414958301608
 30
0.0
 10
283.1266062298468
 20
150.0734925176919
 30
0.0
 10
282.9843841196064
 20
149.8156219658383
 30
0.0
 10
282.838553316117
 20
149.5793235554665
 30
0.0
 10
282.6972704266723
 20
149.3698075101185
 30
0.0
 10
282.5537620311636
 20
149.1720312268206
 30
0.0
 10
282.4126176290031
 20
148.9892345382329
 30
0.0
 10
282.2699957491511
 20
148.8140995409243
 30
0.0
 10
282.0849026713713
 20
148.597416734425
 30
0.0
 10
281.8506257160399
 20
148.338362865812
 30
0.0
 10
281.6573925520032
 20
148.1418622014655
 30
0.0
 10
281.5607760982839
 20
148.0436119997607
 30
0.0
 11
281.5607760982838
 21
155.5491654992259
 31
0.0
 11
281.8485425731985
 21
155.2524259109417
 31
0.0
 11
282.1260528480165
 21
154.9460717330902
 31
0.0
 11
282.2693328929813
 21
154.778122563409
 31
0.0
 11
282.4086912228827
 21
154.6069048973356
 31
0.0
 11
282.5528215687448
 21
154.4200457182489
 31
0.0
 11
282.691329597749
 21
154.2289679080981
 31
0.0
 11
282.8370833316672
 21
154.0124941072544
 31
0.0
 11
282.9739679726153
 21
153.7903355727433
 31
0.0
 11
283.123733714026
 21
153.5179032806855
 31
0.0
 11
283.2566063474815
 21
153.2365792683109
 31
0.0
 11
283.4307438942255
 21
152.7562386061317
 31
0.0
 11
283.5392447223478
 21
152.2572745840656
 31
0.0
 11
283.5714780777119
 21
151.7963887494933
 31
0.0
 11
283.5392447223478
 21
151.3355029149209
 31
0.0
 11
283.4307438942255
 21
150.8365388928549
 31
0.0
 11
283.2566063474816
 21
150.3561982306756
 31
0.0
 11
283.123733714026
 21
150.0748742183011
 31
0.0
 11
282.9739679726153
 21
149.8024419262432
 31
0.0
 11
282.8370833316672
 21
149.5802833917321
 31
0.0
 11
282.691329597749
 21
149.3638095908884
 31
0.0
 11
282.552821568745
 21
149.1727317807375
 31
0.0
 11
282.4086912228827
 21
148.985872601651
 31
0.0
 11
282.2693328929814
 21
148.8146549355777
 31
0.0
 11
282.1260528480165
 21
148.6467057658966
 31
0.0
 11
281.8485425731985
 21
148.3403515880451
 31
0.0
 11
281.5607760982839
 21
148.0436119997607
 31
0.0
  0
SPLINE
  5
AB
330
36
100
AcDbEntity
  8
1
  6
Continuous
 62
     7
100
AcDbSpline
210
0.0
220
0.0
230
1.0
 70
     8
 71
     3
 72
    33
 73
    29
 74
    27
 42
0.0000000001
 43
0.0000000001
 44
0.00000001
 40
0.0
 40
0.0
 40
0.0
 40
0.0
 40
0.4133569006800533
 40
0.826714899171235
 40
1.04747742969157
 40
1.268240273686074
 40
1.504227369535174
 40
1.7402256823059
 40
2.001195139144805
 40
2.262139231593038
 40
2.573023665195269
 40
2.884147975817085
 40
3.3950795142141
 40
3.905704156216039
 40
4.367715781294343
 40
4.829727406372649
 40
5.340352048374537
 40
5.851283586771598
 40
6.162407897393414
 40
6.47329233099567
 40
6.734236423443927
 40
6.995205880282855
 40
7.231204193053614
 40
7.46719128890259
 40
7.687954132897041
 40
7.908716663417295
 40
8.322074661908456
 40
8.735431562588632
 40
8.735431562588632
 40
8.735431562588632
 40
8.735431562588632
 10
276.8218830972141
 20
155.5491654992259
 30
0.0
 10
276.7252666434948
 20
155.4509152975212
 30
0.0
 10
276.5320334794582
 20
155.2544146331748
 30
0.0
 10
276.2977565241268
 20
154.9953607645618
 30
0.0
 10
276.1126634463469
 20
154.7786779580624
 30
0.0
 10
275.9700415664948
 20
154.6035429607537
 30
0.0
 10
275.8288971643344
 20
154.4207462721658
 30
0.0
 10
275.6853887688259
 20
154.2229699888681
 30
0.0
 10
275.5441058793808
 20
154.0134539435199
 30
0.0
 10
275.3982750758917
 20
153.7771555331482
 30
0.0
 10
275.2560529656512
 20
153.5192849812947
 30
0.0
 10
275.0942266700237
 20
153.1778191973785
 30
0.0
 10
274.9410626015907
 20
152.7596123912088
 30
0.0
 10
274.8337679422174
 20
152.2750282227073
 30
0.0
 10
274.8004521579334
 20
151.7963887494933
 30
0.0
 10
274.8337679422174
 20
151.3177492762792
 30
0.0
 10
274.9410626015906
 20
150.8331651077778
 30
0.0
 10
275.0942266700237
 20
150.4149583016081
 30
0.0
 10
275.2560529656511
 20
150.0734925176919
 30
0.0
 10
275.3982750758917
 20
149.8156219658383
 30
0.0
 10
275.5441058793808
 20
149.5793235554666
 30
0.0
 10
275.6853887688258
 20
149.3698075101184
 30
0.0
 10
275.8288971643345
 20
149.1720312268207
 30
0.0
 10
275.9700415664948
 20
148.9892345382328
 30
0.0
 10
276.112663446347
 20
148.8140995409244
 30
0.0
 10
276.2977565241268
 20
148.597416734425
 30
0.0
 10
276.5320334794582
 20
148.338362865812
 30
0.0
 10
276.7252666434948
 20
148.1418622014654
 30
0.0
 10
276.8218830972141
 20
148.0436119997607
 30
0.0
 11
276.8218830972141
 21
155.5491654992259
 31
0.0
 11
276.5341166222995
 21
155.2524259109417
 31
0.0
 11
276.2566063474816
 21
154.9460717330902
 31
0.0
 11
276.1133263025166
 21
154.778122563409
 31
0.0
 11
275.9739679726152
 21
154.6069048973356
 31
0.0
 11
275.829837626753
 21
154.4200457182489
 31
0.0
 11
275.691329597749
 21
154.2289679080981
 31
0.0
 11
275.5455758638308
 21
154.0124941072544
 31
0.0
 11
275.4086912228827
 21
153.7903355727433
 31
0.0
 11
275.258925481472
 21
153.5179032806855
 31
0.0
 11
275.1260528480165
 21
153.2365792683109
 31
0.0
 11
274.9519153012726
 21
152.7562386061317
 31
0.0
 11
274.8434144731502
 21
152.2572745840656
 31
0.0
 11
274.8111811177861
 21
151.7963887494933
 31
0.0
 11
274.8434144731502
 21
151.3355029149209
 31
0.0
 11
274.9519153012726
 21
150.8365388928549
 31
0.0
 11
275.1260528480165
 21
150.3561982306756
 31
0.0
 11
275.258925481472
 21
150.0748742183011
 31
0.0
 11
275.4086912228827
 21
149.8024419262432
 31
0.0
 11
275.5455758638308
 21
149.5802833917321
 31
0.0
 11
275.691329597749
 21
149.3638095908884
 31
0.0
 11
275.8298376267531
 21
149.1727317807375
 31
0.0
 11
275.9739679726152
 21
148.985872601651
 31
0.0
 11
276.1133263025167
 21
148.8146549355777
 31
0.0
 11
276.2566063474816
 21
148.6467057658966
 31
0.0
 11
276.5341166222995
 21
148.3403515880451
 31
0.0
 11
276.8218830972141
 21
148.0436119997607
 31
0.0
  0
SPLINE
  5
AC
330
36
100
AcDbEntity
  8
1
  6
Continuous
 62
     7
100
AcDbSpline
210
0.0
220
0.0
230
1.0
 70
     8
 71
     3
 72
    33
 73
    29
 74
    27
 42
0.0000000001
 43
0.0000000001
 44
0.00000001
 40
0.0
 40
0.0
 40
0.0
 40
0.0
 40
0.6660942076091807
 40
1.332190222770836
 40
1.699632944385038
 40
2.067077053321392
 40
2.470589213764412
 40
2.874107007989072
 40
3.33498320037268
 40
3.795855500931603
 40
4.367402403401154
 40
4.939051291210237
 40
5.929102491977393
 40
6.919199823136893
 40
7.841546055180257
 40
8.76389228722365
 40
9.753989618383207
 40
10.74404081915032
 40
11.31568970695939
 40
11.88723660942893
 40
12.34810890998782
 40
12.80898510237139
 40
13.2125028965961
 40
13.61601505703905
 40
13.98345916597548
 40
14.35090188758963
 40
15.01699790275131
 40
15.68309211036054
 40
15.68309211036054
 40
15.68309211036054
 40
15.68309211036054
 10
276.8218830972141
 20
148.0436119997607
 30
0.0
 10
276.7239451835705
 20
147.844335721328
 30
0.0
 10
276.5280690905132
 20
147.4457826236948
 30
0.0
 10
276.2948736241985
 20
146.9293356905367
 30
0.0
 10
276.1114947745475
 20
146.4998403083463
 30
0.0
 10
275.9684418255168
 20
146.1483490043588
 30
0.0
 10
275.8275203376075
 20
145.7830731305623
 30
0.0
 10
275.683452096399
 20
145.3857192009037
 30
0.0
 10
275.5424346735409
 20
144.9670249771174
 30
0.0
 10
275.3958103265048
 20
144.4912882876422
 30
0.0
 10
275.2540116343647
 20
143.9756219268523
 30
0.0
 10
275.0903784381756
 20
143.2834802226909
 30
0.0
 10
274.9383028226237
 20
142.4458645190858
 30
0.0
 10
274.8333610765646
 20
141.4831894004765
 30
0.0
 10
274.800013310364
 20
140.5380585002956
 30
0.0
 10
274.8333610765646
 20
139.5929276001147
 30
0.0
 10
274.9383028226237
 20
138.6302524815054
 30
0.0
 10
275.0903784381754
 20
137.7926367779003
 30
0.0
 10
275.2540116343648
 20
137.100495073739
 30
0.0
 10
275.3958103265047
 20
136.584828712949
 30
0.0
 10
275.5424346735409
 20
136.1090920234739
 30
0.0
 10
275.6834520963991
 20
135.6903977996876
 30
0.0
 10
275.8275203376076
 20
135.293043870029
 30
0.0
 10
275.9684418255168
 20
134.9277679962324
 30
0.0
 10
276.1114947745474
 20
134.576276692245
 30
0.0
 10
276.2948736241988
 20
134.1467813100547
 30
0.0
 10
276.5280690905132
 20
133.6303343768965
 30
0.0
 10
276.7239451835705
 20
133.2317812792632
 30
0.0
 10
276.8218830972141
 20
133.0325050008305
 30
0.0
 11
276.8218830972141
 21
148.0436119997607
 31
0.0
 11
276.5313431043351
 21
147.4442223051977
 31
0.0
 11
276.2566063474816
 21
146.8374244674891
 31
0.0
 11
276.1124560889793
 21
146.4994379934387
 31
0.0
 11
275.9739679726153
 21
146.15909079598
 31
0.0
 11
275.8288041714758
 21
145.7825944022866
 31
0.0
 11
275.691329597749
 21
145.4032168175052
 31
0.0
 11
275.5443281039688
 21
144.9664131710777
 31
0.0
 11
275.4086912228827
 21
144.5259521467955
 31
0.0
 11
275.2573619740531
 21
143.974803056103
 31
0.0
 11
275.1260528480165
 21
143.4184395379309
 31
0.0
 11
274.9499085944405
 21
142.4441836259279
 31
0.0
 11
274.8434144731502
 21
141.45983016944
 31
0.0
 11
274.8108635633718
 21
140.5380585002956
 31
0.0
 11
274.8434144731502
 21
139.6162868311512
 31
0.0
 11
274.9499085944405
 21
138.6319333746632
 31
0.0
 11
275.1260528480165
 21
137.6576774626603
 31
0.0
 11
275.2573619740531
 21
137.1013139444882
 31
0.0
 11
275.4086912228827
 21
136.5501648537957
 31
0.0
 11
275.5443281039687
 21
136.1097038295135
 31
0.0
 11
275.6913295977491
 21
135.6729001830861
 31
0.0
 11
275.8288041714759
 21
135.2935225983046
 31
0.0
 11
275.9739679726152
 21
134.9170262046113
 31
0.0
 11
276.1124560889793
 21
134.5766790071525
 31
0.0
 11
276.2566063474816
 21
134.2386925331023
 31
0.0
 11
276.5313431043351
 21
133.6318946953936
 31
0.0
 11
276.8218830972141
 21
133.0325050008305
 31
0.0
  0
SPLINE
  5
AD
330
36
100
AcDbEntity
  8
1
  6
Continuous
 62
     7
100
AcDbSpline
210
0.0
220
0.0
230
1.0
 70
     8
 71
     3
 72
    33
 73
    29
 74
    27
 42
0.0000000001
 43
0.0000000001
 44
0.00000001
 40
0.0
 40
0.0
 40
0.0
 40
0.0
 40
0.6660942076091559
 40
1.332190222770858
 40
1.699632944385082
 40
2.067077053321415
 40
2.470589213764435
 40
2.874107007989134
 40
3.334983200372723
 40
3.79585550093163
 40
4.36740240340118
 40
4.939051291210264
 40
5.92910249197743
 40
6.91919982313693
 40
7.841546055180294
 40
8.763892287223689
 40
9.753989618383251
 40
10.74404081915037
 40
11.31568970695944
 40
11.88723660942899
 40
12.34810890998788
 40
12.80898510237139
 40
13.21250289659611
 40
13.6160150570391
 40
13.98345916597553
 40
14.35090188758963
 40
15.01699790275133
 40
15.68309211036059
 40
15.68309211036059
 40
15.68309211036059
 40
15.68309211036059
 10
281.5607760982839
 20
148.0436119997607
 30
0.0
 10
281.6587140119274
 20
147.844335721328
 30
0.0
 10
281.8545901049847
 20
147.4457826236947
 30
0.0
 10
282.0877855712996
 20
146.9293356905367
 30
0.0
 10
282.2711644209506
 20
146.4998403083463
 30
0.0
 10
282.4142173699812
 20
146.1483490043588
 30
0.0
 10
282.5551388578905
 20
145.7830731305623
 30
0.0
 10
282.6992070990992
 20
145.3857192009037
 30
0.0
 10
282.8402245219571
 20
144.9670249771174
 30
0.0
 10
282.9868488689933
 20
144.4912882876422
 30
0.0
 10
283.1286475611333
 20
143.9756219268523
 30
0.0
 10
283.2922807573225
 20
143.2834802226908
 30
0.0
 10
283.4443563728744
 20
142.4458645190858
 30
0.0
 10
283.5492981189335
 20
141.4831894004765
 30
0.0
 10
283.5826458851341
 20
140.5380585002956
 30
0.0
 10
283.5492981189335
 20
139.5929276001147
 30
0.0
 10
283.4443563728743
 20
138.6302524815054
 30
0.0
 10
283.2922807573226
 20
137.7926367779003
 30
0.0
 10
283.1286475611332
 20
137.100495073739
 30
0.0
 10
282.9868488689932
 20
136.584828712949
 30
0.0
 10
282.840224521957
 20
136.1090920234739
 30
0.0
 10
282.699207099099
 20
135.6903977996876
 30
0.0
 10
282.5551388578905
 20
135.293043870029
 30
0.0
 10
282.4142173699812
 20
134.9277679962325
 30
0.0
 10
282.2711644209504
 20
134.5762766922451
 30
0.0
 10
282.0877855712996
 20
134.1467813100547
 30
0.0
 10
281.8545901049847
 20
133.6303343768965
 30
0.0
 10
281.6587140119275
 20
133.2317812792632
 30
0.0
 10
281.5607760982839
 20
133.0325050008305
 30
0.0
 11
281.5607760982839
 21
148.0436119997607
 31
0.0
 11
281.8513160911629
 21
147.4442223051977
 31
0.0
 11
282.1260528480165
 21
146.8374244674891
 31
0.0
 11
282.2702031065188
 21
146.4994379934387
 31
0.0
 11
282.4086912228827
 21
146.15909079598
 31
0.0
 11
282.5538550240222
 21
145.7825944022866
 31
0.0
 11
282.6913295977491
 21
145.4032168175052
 31
0.0
 11
282.8383310915293
 21
144.9664131710777
 31
0.0
 11
282.9739679726153
 21
144.5259521467955
 31
0.0
 11
283.125297221445
 21
143.974803056103
 31
0.0
 11
283.2566063474815
 21
143.4184395379309
 31
0.0
 11
283.4327506010576
 21
142.4441836259279
 31
0.0
 11
283.5392447223479
 21
141.45983016944
 31
0.0
 11
283.5717956321263
 21
140.5380585002956
 31
0.0
 11
283.5392447223478
 21
139.6162868311512
 31
0.0
 11
283.4327506010575
 21
138.6319333746632
 31
0.0
 11
283.2566063474815
 21
137.6576774626603
 31
0.0
 11
283.1252972214449
 21
137.1013139444882
 31
0.0
 11
282.9739679726152
 21
136.5501648537957
 31
0.0
 11
282.8383310915292
 21
136.1097038295135
 31
0.0
 11
282.691329597749
 21
135.6729001830861
 31
0.0
 11
282.5538550240222
 21
135.2935225983046
 31
0.0
 11
282.4086912228827
 21
134.9170262046113
 31
0.0
 11
282.2702031065186
 21
134.5766790071525
 31
0.0
 11
282.1260528480165
 21
134.2386925331023
 31
0.0
 11
281.8513160911629
 21
133.6318946953936
 31
0.0
 11
281.5607760982839
 21
133.0325050008305
 31
0.0
  0
SPLINE
  5
AE
330
36
100
AcDbEntity
  8
1
  6
Continuous
 62
     7
100
AcDbSpline
210
0.0
220
0.0
230
1.0
 70
     8
 71
     3
 72
    33
 73
    29
 74
    27
 42
0.0000000001
 43
0.0000000001
 44
0.00000001
 40
0.0
 40
0.0
 40
0.0
 40
0.0
 40
0.4133569006802026
 40
0.8267148991713528
 40
1.047477429691549
 40
1.268240273686064
 40
1.504227369535119
 40
1.740225682305912
 40
2.00119513914484
 40
2.262139231593091
 40
2.573023665195284
 40
2.884147975817125
 40
3.395079514214219
 40
3.905704156216054
 40
4.36771578129439
 40
4.829727406372665
 40
5.340352048374608
 40
5.85128358677165
 40
6.162407897393488
 40
6.473292330995695
 40
6.734236423443957
 40
6.99520588028283
 40
7.231204193053556
 40
7.467191288902634
 40
7.687954132897103
 40
7.908716663417394
 40
8.322074661908577
 40
8.735431562588691
 40
8.735431562588691
 40
8.735431562588691
 40
8.735431562588691
 10
281.5607760982838
 20
125.5269515013654
 30
0.0
 10
281.6573925520031
 20
125.6252017030701
 30
0.0
 10
281.8506257160399
 20
125.8217023674166
 30
0.0
 10
282.0849026713713
 20
126.0807562360295
 30
0.0
 10
282.269995749151
 20
126.2974390425289
 30
0.0
 10
282.4126176290031
 20
126.4725740398375
 30
0.0
 10
282.5537620311635
 20
126.6553707284254
 30
0.0
 10
282.6972704266721
 20
126.8531470117232
 30
0.0
 10
282.8385533161171
 20
127.0626630570714
 30
0.0
 10
282.9843841196064
 20
127.298961467443
 30
0.0
 10
283.1266062298469
 20
127.5568320192966
 30
0.0
 10
283.2884325254743
 20
127.8982978032128
 30
0.0
 10
283.4415965939076
 20
128.3165046093824
 30
0.0
 10
283.5488912532805
 20
128.8010887778839
 30
0.0
 10
283.5822070375648
 20
129.279728251098
 30
0.0
 10
283.5488912532805
 20
129.758367724312
 30
0.0
 10
283.4415965939074
 20
130.2429518928135
 30
0.0
 10
283.2884325254746
 20
130.6611586989832
 30
0.0
 10
283.1266062298467
 20
131.0026244828993
 30
0.0
 10
282.9843841196064
 20
131.2604950347529
 30
0.0
 10
282.8385533161171
 20
131.4967934451246
 30
0.0
 10
282.6972704266722
 20
131.7063094904727
 30
0.0
 10
282.5537620311635
 20
131.9040857737705
 30
0.0
 10
282.4126176290032
 20
132.0868824623584
 30
0.0
 10
282.2699957491511
 20
132.262017459667
 30
0.0
 10
282.0849026713714
 20
132.4787002661663
 30
0.0
 10
281.8506257160398
 20
132.7377541347793
 30
0.0
 10
281.6573925520032
 20
132.9342547991258
 30
0.0
 10
281.5607760982839
 20
133.0325050008305
 30
0.0
 11
281.5607760982838
 21
125.5269515013654
 31
0.0
 11
281.8485425731985
 21
125.8236910896496
 31
0.0
 11
282.1260528480165
 21
126.1300452675012
 31
0.0
 11
282.2693328929813
 21
126.2979944371822
 31
0.0
 11
282.4086912228827
 21
126.4692121032557
 31
0.0
 11
282.5528215687448
 21
126.6560712823423
 31
0.0
 11
282.691329597749
 21
126.8471490924932
 31
0.0
 11
282.8370833316672
 21
127.0636228933368
 31
0.0
 11
282.9739679726153
 21
127.285781427848
 31
0.0
 11
283.123733714026
 21
127.5582137199058
 31
0.0
 11
283.2566063474815
 21
127.8395377322803
 31
0.0
 11
283.4307438942255
 21
128.3198783944596
 31
0.0
 11
283.5392447223478
 21
128.8188424165256
 31
0.0
 11
283.5714780777119
 21
129.279728251098
 31
0.0
 11
283.5392447223478
 21
129.7406140856703
 31
0.0
 11
283.4307438942255
 21
130.2395781077364
 31
0.0
 11
283.2566063474816
 21
130.7199187699156
 31
0.0
 11
283.123733714026
 21
131.0012427822902
 31
0.0
 11
282.9739679726153
 21
131.273675074348
 31
0.0
 11
282.8370833316672
 21
131.4958336088591
 31
0.0
 11
282.691329597749
 21
131.7123074097028
 31
0.0
 11
282.552821568745
 21
131.9033852198536
 31
0.0
 11
282.4086912228827
 21
132.0902443989402
 31
0.0
 11
282.2693328929814
 21
132.2614620650137
 31
0.0
 11
282.1260528480165
 21
132.4294112346947
 31
0.0
 11
281.8485425731985
 21
132.7357654125463
 31
0.0
 11
281.5607760982839
 21
133.0325050008305
 31
0.0
  0
SPLINE
  5
AF
330
36
100
AcDbEntity
  8
1
  6
Continuous
 62
     7
100
AcDbSpline
210
0.0
220
0.0
230
1.0
 70
     8
 71
     3
 72
    33
 73
    29
 74
    27
 42
0.0000000001
 43
0.0000000001
 44
0.00000001
 40
0.0
 40
0.0
 40
0.0
 40
0.0
 40
0.413356900680084
 40
0.8267148991712341
 40
1.047477429691504
 40
1.268240273686019
 40
1.504227369535108
 40
1.740225682305869
 40
2.001195139144797
 40
2.262139231593018
 40
2.573023665195211
 40
2.884147975817027
 40
3.395079514214083
 40
3.905704156215967
 40
4.367715781294298
 40
4.829727406372577
 40
5.34035204837452
 40
5.851283586771581
 40
6.162407897393371
 40
6.473292330995577
 40
6.734236423443811
 40
6.995205880282716
 40
7.231204193053475
 40
7.467191288902518
 40
7.687954132897058
 40
7.908716663417312
 40
8.322074661908495
 40
8.735431562588568
 40
8.735431562588568
 40
8.735431562588568
 40
8.735431562588568
 10
276.8218830972141
 20
125.5269515013654
 30
0.0
 10
276.7252666434948
 20
125.6252017030701
 30
0.0
 10
276.5320334794581
 20
125.8217023674166
 30
0.0
 10
276.297756524127
 20
126.0807562360296
 30
0.0
 10
276.1126634463469
 20
126.2974390425288
 30
0.0
 10
275.9700415664949
 20
126.4725740398376
 30
0.0
 10
275.8288971643344
 20
126.6553707284254
 30
0.0
 10
275.6853887688258
 20
126.8531470117232
 30
0.0
 10
275.5441058793808
 20
127.0626630570713
 30
0.0
 10
275.3982750758916
 20
127.298961467443
 30
0.0
 10
275.2560529656512
 20
127.5568320192966
 30
0.0
 10
275.0942266700237
 20
127.8982978032128
 30
0.0
 10
274.9410626015907
 20
128.3165046093825
 30
0.0
 10
274.8337679422174
 20
128.8010887778839
 30
0.0
 10
274.8004521579333
 20
129.2797282510979
 30
0.0
 10
274.8337679422176
 20
129.7583677243121
 30
0.0
 10
274.9410626015906
 20
130.2429518928135
 30
0.0
 10
275.0942266700237
 20
130.6611586989832
 30
0.0
 10
275.2560529656512
 20
131.0026244828994
 30
0.0
 10
275.3982750758916
 20
131.2604950347529
 30
0.0
 10
275.5441058793808
 20
131.4967934451246
 30
0.0
 10
275.6853887688258
 20
131.7063094904727
 30
0.0
 10
275.8288971643345
 20
131.9040857737705
 30
0.0
 10
275.9700415664949
 20
132.0868824623584
 30
0.0
 10
276.112663446347
 20
132.262017459667
 30
0.0
 10
276.2977565241267
 20
132.4787002661663
 30
0.0
 10
276.5320334794582
 20
132.7377541347793
 30
0.0
 10
276.7252666434948
 20
132.9342547991258
 30
0.0
 10
276.8218830972141
 20
133.0325050008305
 30
0.0
 11
276.8218830972141
 21
125.5269515013654
 31
0.0
 11
276.5341166222995
 21
125.8236910896496
 31
0.0
 11
276.2566063474816
 21
126.1300452675012
 31
0.0
 11
276.1133263025166
 21
126.2979944371822
 31
0.0
 11
275.9739679726152
 21
126.4692121032557
 31
0.0
 11
275.829837626753
 21
126.6560712823423
 31
0.0
 11
275.691329597749
 21
126.8471490924932
 31
0.0
 11
275.5455758638308
 21
127.0636228933368
 31
0.0
 11
275.4086912228827
 21
127.285781427848
 31
0.0
 11
275.258925481472
 21
127.5582137199058
 31
0.0
 11
275.1260528480165
 21
127.8395377322803
 31
0.0
 11
274.9519153012726
 21
128.3198783944596
 31
0.0
 11
274.8434144731502
 21
128.8188424165256
 31
0.0
 11
274.8111811177861
 21
129.279728251098
 31
0.0
 11
274.8434144731502
 21
129.7406140856703
 31
0.0
 11
274.9519153012726
 21
130.2395781077364
 31
0.0
 11
275.1260528480165
 21
130.7199187699156
 31
0.0
 11
275.258925481472
 21
131.0012427822902
 31
0.0
 11
275.4086912228827
 21
131.273675074348
 31
0.0
 11
275.5455758638308
 21
131.4958336088591
 31
0.0
 11
275.691329597749
 21
131.7123074097028
 31
0.0
 11
275.8298376267531
 21
131.9033852198536
 31
0.0
 11
275.9739679726152
 21
132.0902443989402
 31
0.0
 11
276.1133263025167
 21
132.2614620650137
 31
0.0
 11
276.2566063474816
 21
132.4294112346947
 31
0.0
 11
276.5341166222995
 21
132.7357654125463
 31
0.0
 11
276.8218830972141
 21
133.0325050008305
 31
0.0
  0
ARC
  5
B0
330
36
100
AcDbEntity
  8
1
  6
Continuous
 62
     7
100
AcDbCircle
 10
88.32188309721391
 20
466.6879579325679
 30
0.0
 40
5.000000000000028
100
AcDbArc
 50
0.0
 51
25.84193276316653
  0
ARC
  5
B1
330
36
100
AcDbEntity
  8
1
  6
Continuous
 62
     7
100
AcDbCircle
 10
123.321883097214
 20
466.6879579325679
 30
0.0
 40
5.000000000000091
100
AcDbArc
 50
154.1580672368333
 51
180.0
  0
ARC
  5
B2
330
36
100
AcDbEntity
  8
1
  6
Continuous
 62
     7
100
AcDbCircle
 10
272.2397082864184
 20
123.0380585002956
 30
0.0
 40
4.99999999999999
100
AcDbArc
 50
44.99999999999942
 51
90.0
  0
ARC
  5
B3
330
36
100
AcDbEntity
  8
1
  6
Continuous
 62
     7
100
AcDbCircle
 10
271.3218830972141
 20
158.0380585002957
 30
0.0
 40
5.0
100
AcDbArc
 50
180.0
 51
-90.0
  0
ARC
  5
B4
330
36
100
AcDbEntity
  8
1
  6
Continuous
 62
     7
100
AcDbCircle
 10
272.2397082864184
 20
158.0380585002957
 30
0.0
 40
5.0
100
AcDbArc
 50
-90.0
 51
-45.00000000000046
  0
ENDBLK
  5
38
330
36
100
AcDbEntity
  8
0
100
AcDbBlockEnd
  0
BLOCK
  5
3A
330
39
100
AcDbEntity
  8
0
100
AcDbBlockBegin
  2
78-167
 70
     0
 71
     0
 10
261.383449161693
 20
384.262230591504
 30
0.0
  3
78-167
  1

  0
LINE
  5
B5
330
39
100
AcDbEntity
  8
1
  6
Continuous
 62
     7
100
AcDbLine
 10
116.221883097214
 20
494.9110164489206
 30
0.0
 11
118.0260515739013
 21
494.9110164489206
 31
0.0
  0
LINE
  5
B6
330
39
100
AcDbEntity
  8
1
  6
Continuous
 62
     7
100
AcDbLine
 10
95.221883097214
 20
494.9110164489206
 30
0.0
 11
95.42188309721405
 21
494.9110164489206
 31
0.0
  0
LINE
  5
B7
330
39
100
AcDbEntity
  8
1
  6
Continuous
 62
     7
100
AcDbLine
 10
135.821883097214
 20
510.9110164489206
 30
0.0
 11
75.82188309721403
 21
510.9110164489206
 31
0.0
  0
LINE
  5
B8
330
39
100
AcDbEntity
  8
1
  6
Continuous
 62
     7
100
AcDbLine
 10
75.82188309721403
 20
510.9110164489206
 30
0.0
 11
75.82188309721403
 21
508.9110164489206
 31
0.0
  0
LINE
  5
B9
330
39
100
AcDbEntity
  8
1
  6
Continuous
 62
     7
100
AcDbLine
 10
93.61771462052673
 20
494.9110164489206
 30
0.0
 11
116.221883097214
 21
494.9110164489206
 31
0.0
  0
LINE
  5
BA
330
39
100
AcDbEntity
  8
1
  6
Continuous
 62
     7
100
AcDbLine
 10
135.821883097214
 20
508.9110164489206
 30
0.0
 11
135.821883097214
 21
510.9110164489206
 31
0.0
  0
LINE
  5
BB
330
39
100
AcDbEntity
  8
1
  6
Continuous
 62
     7
100
AcDbLine
 10
314.462766802771
 20
110.5380585002956
 30
0.0
 11
316.462766802771
 21
110.5380585002956
 31
0.0
  0
LINE
  5
BC
330
39
100
AcDbEntity
  8
1
  6
Continuous
 62
     7
100
AcDbLine
 10
300.462766802771
 20
152.7422269769829
 30
0.0
 11
300.462766802771
 21
130.1380585002956
 31
0.0
  0
LINE
  5
BD
330
39
100
AcDbEntity
  8
1
  6
Continuous
 62
     7
100
AcDbLine
 10
316.462766802771
 20
170.5380585002956
 30
0.0
 11
314.462766802771
 21
170.5380585002956
 31
0.0
  0
LINE
  5
BE
330
39
100
AcDbEntity
  8
1
  6
Continuous
 62
     7
100
AcDbLine
 10
316.462766802771
 20
110.5380585002956
 30
0.0
 11
316.462766802771
 21
170.5380585002956
 31
0.0
  0
LINE
  5
BF
330
39
100
AcDbEntity
  8
1
  6
Continuous
 62
     7
100
AcDbLine
 10
300.462766802771
 20
151.1380585002956
 30
0.0
 11
300.462766802771
 21
150.9380585002956
 31
0.0
  0
LINE
  5
C0
330
39
100
AcDbEntity
  8
1
  6
Continuous
 62
     7
100
AcDbLine
 10
300.462766802771
 20
130.1380585002956
 30
0.0
 11
300.462766802771
 21
128.3338900236083
 31
0.0
  0
ARC
  5
C1
330
39
100
AcDbEntity
  8
1
  6
Continuous
 62
     7
100
AcDbCircle
 10
93.61771462052673
 20
519.9110164489206
 30
0.0
 40
25.00000000000018
100
AcDbArc
 50
-113.5564643091011
 51
-90.0
  0
ARC
  5
C2
330
39
100
AcDbEntity
  8
1
  6
Continuous
 62
     7
100
AcDbCircle
 10
88.82188309721403
 20
508.9110164489206
 30
0.0
 40
13.0
100
AcDbArc
 50
180.0
 51
-113.5564643091011
  0
ARC
  5
C3
330
39
100
AcDbEntity
  8
1
  6
Continuous
 62
     7
100
AcDbCircle
 10
122.821883097214
 20
508.9110164489206
 30
0.0
 40
13.0000000000002
100
AcDbArc
 50
-66.44353569089886
 51
0.0
  0
ARC
  5
C4
330
39
100
AcDbEntity
  8
1
  6
Continuous
 62
     7
100
AcDbCircle
 10
118.0260515739013
 20
519.9110164489206
 30
0.0
 40
25.0
100
AcDbArc
 50
-90.0
 51
-66.44353569089886
  0
ARC
  5
C5
330
39
100
AcDbEntity
  8
1
  6
Continuous
 62
     7
100
AcDbCircle
 10
105.8218830972137
 20
140.5380585002956
 30
0.0
 40
30.00000000000006
100
AcDbArc
 50
36.94311091381356
 51
67.45968953648337
  0
ARC
  5
C6
330
39
100
AcDbEntity
  8
1
  6
Continuous
 62
     7
100
AcDbCircle
 10
105.8218830972137
 20
140.5380585002956
 30
0.0
 40
29.99999999999999
100
AcDbArc
 50
-83.05688908618657
 51
0.0
  0
ARC
  5
C7
330
39
100
AcDbEntity
  8
1
  6
Continuous
 62
     7
100
AcDbCircle
 10
325.462766802771
 20
128.3338900236083
 30
0.0
 40
25.0
100
AcDbArc
 50
180.0
 51
-156.4435356908987
  0
ARC
  5
C8
330
39
100
AcDbEntity
  8
1
  6
Continuous
 62
     7
100
AcDbCircle
 10
314.462766802771
 20
123.5380585002956
 30
0.0
 40
13.00000000000004
100
AcDbArc
 50
-156.4435356908986
 51
-90.0
  0
ARC
  5
C9
330
39
100
AcDbEntity
  8
1
  6
Continuous
 62
     7
100
AcDbCircle
 10
314.462766802771
 20
157.5380585002956
 30
0.0
 40
13.0
100
AcDbArc
 50
90.0
 51
156.4435356908986
  0
ARC
  5
CA
330
39
100
AcDbEntity
  8
1
  6
Continuous
 62
     7
100
AcDbCircle
 10
325.462766802771
 20
152.7422269769829
 30
0.0
 40
25.00000000000004
100
AcDbArc
 50
156.4435356908987
 51
180.0
  0
ARC
  5
CB
330
39
100
AcDbEntity
  8
1
  6
Continuous
 62
     7
100
AcDbCircle
 10
105.8218830972137
 20
140.5380585002956
 30
0.0
 40
29.99999999999997
100
AcDbArc
 50
112.5403104635166
 51
143.0568890861859
  0
ARC
  5
CC
330
39
100
AcDbEntity
  8
1
  6
Continuous
 62
     7
100
AcDbCircle
 10
105.8218830972137
 20
140.5380585002956
 30
0.0
 40
30.0
100
AcDbArc
 50
156.9431109138133
 51
-96.94311091381343
  0
ARC
  5
CD
330
39
100
AcDbEntity
  8
1
  6
Continuous
 62
     7
100
AcDbCircle
 10
105.8218830972137
 20
140.5380585002956
 30
0.0
 40
30.00000000000001
100
AcDbArc
 50
0.0
 51
23.05688908618603
  0
ENDBLK
  5
3B
330
39
100
AcDbEntity
  8
0
100
AcDbBlockEnd
  0
BLOCK
  5
3D
330
3C
100
AcDbEntity
  8
0
100
AcDbBlockBegin
  2
64-7-13-75-M11
 70
     0
 71
     0
 10
146.572807280944
 20
936.871119885507
 30
0.0
  3
64-7-13-75-M11
  1

  0
LINE
  5
CE
330
3C
100
AcDbEntity
  8
1
  6
Continuous
 62
     7
100
AcDbLine
 10
114.5666950993663
 20
544.2701327433636
 30
0.0
 11
114.5649945435852
 21
544.2701327433636
 31
0.0
  0
LINE
  5
CF
330
3C
100
AcDbEntity
  8
1
  6
Continuous
 62
     7
100
AcDbLine
 10
114.5649945435852
 20
544.2701327433636
 30
0.0
 11
114.0718830972139
 21
544.2701327433636
 31
0.0
  0
LINE
  5
D0
330
3C
100
AcDbEntity
  8
1
  6
Continuous
 62
     7
100
AcDbLine
 10
115.7914918577482
 20
543.1098308140638
 30
0.0
 11
116.0668344177834
 21
530.2701327433636
 31
0.0
  0
LINE
  5
D1
330
3C
100
AcDbEntity
  8
1
  6
Continuous
 62
     7
100
AcDbLine
 10
116.0668344177834
 20
530.7701327433636
 30
0.0
 11
96.73932766827244
 21
530.7701327433636
 31
0.0
  0
LINE
  5
D2
330
3C
100
AcDbEntity
  8
1
  6
Continuous
 62
     7
100
AcDbLine
 10
114.5666950993663
 20
544.2701327433636
 30
0.0
 11
115.7914918577482
 21
543.1098308140638
 31
0.0
  0
LINE
  5
D3
330
3C
100
AcDbEntity
  8
1
  6
Continuous
 62
     7
100
AcDbLine
 10
116.0668344177834
 20
530.2701327433636
 30
0.0
 11
116.1218830972138
 21
528.1614568908912
 31
0.0
  0
LINE
  5
D4
330
3C
100
AcDbEntity
  8
1
  6
Continuous
 62
     2
100
AcDbLine
 10
114.5649945435852
 20
544.2701327433636
 30
0.0
 11
114.8923155267778
 21
530.7701327433636
 31
0.0
  0
LINE
  5
D5
330
3C
100
AcDbEntity
  8
1
  6
Continuous
 62
     2
100
AcDbLine
 10
116.1218830972138
 20
528.6614568908912
 30
0.0
 11
114.9044385261555
 21
530.7701327433636
 31
0.0
  0
LINE
  5
D6
330
3C
100
AcDbEntity
  8
1
  6
Continuous
 62
     2
100
AcDbLine
 10
114.9044385261555
 20
482.7701327433638
 30
0.0
 11
116.1218830972138
 21
484.8788085958361
 31
0.0
  0
LINE
  5
D7
330
3C
100
AcDbEntity
  8
1
  6
Continuous
 62
     2
100
AcDbLine
 10
114.8923155267778
 20
482.7701327433638
 30
0.0
 11
114.7832085323803
 21
478.2701327433637
 31
0.0
  0
LINE
  5
D8
330
3C
100
AcDbEntity
  8
1
  6
Continuous
 62
     7
100
AcDbLine
 10
116.1218830972138
 20
485.3788085958361
 30
0.0
 11
116.0668344177834
 21
483.2701327433638
 31
0.0
  0
LINE
  5
D9
330
3C
100
AcDbEntity
  8
1
  6
Continuous
 62
     7
100
AcDbLine
 10
96.73932766827244
 20
482.7701327433638
 30
0.0
 11
116.0668344177834
 21
482.7701327433638
 31
0.0
  0
LINE
  5
DA
330
3C
100
AcDbEntity
  8
1
  6
Continuous
 62
     7
100
AcDbLine
 10
116.0668344177834
 20
483.2701327433638
 30
0.0
 11
115.9596112733921
 21
478.2701327433637
 31
0.0
  0
LINE
  5
DB
330
3C
100
AcDbEntity
  8
1
  6
Continuous
 62
     7
100
AcDbLine
 10
116.1218830972138
 20
528.1614568908912
 30
0.0
 11
116.1218830972138
 21
510.9110164489206
 31
0.0
  0
LINE
  5
DC
330
3C
100
AcDbEntity
  8
1
  6
PHANTOM
 62
     4
100
AcDbLine
 10
105.8218830972139
 20
466.4697730311335
 30
0.0
 11
105.8218830972139
 21
546.9517874196225
 31
0.0
  0
LINE
  5
DD
330
3C
100
AcDbEntity
  8
1
  6
Continuous
 62
     7
100
AcDbLine
 10
114.0718830972139
 20
544.2701327433636
 30
0.0
 11
97.57188309721391
 21
544.2701327433637
 31
0.0
  0
LINE
  5
DE
330
3C
100
AcDbEntity
  8
1
  6
Continuous
 62
     7
100
AcDbLine
 10
95.5218830972139
 20
485.3788085958361
 30
0.0
 11
95.5218830972139
 21
494.9110164489206
 31
0.0
  0
LINE
  5
DF
330
3C
100
AcDbEntity
  8
1
  6
Continuous
 62
     7
100
AcDbLine
 10
95.57693177664442
 20
482.7701327433638
 30
0.0
 11
96.73932766827244
 21
482.7701327433638
 31
0.0
  0
LINE
  5
E0
330
3C
100
AcDbEntity
  8
1
  6
Continuous
 62
     7
100
AcDbLine
 10
95.57693177664442
 20
483.2701327433638
 30
0.0
 11
95.5218830972139
 21
485.3788085958361
 31
0.0
  0
LINE
  5
E1
330
3C
100
AcDbEntity
  8
1
  6
Continuous
 62
     2
100
AcDbLine
 10
95.5218830972139
 20
484.8788085958361
 30
0.0
 11
96.73932766827244
 21
482.7701327433638
 31
0.0
  0
LINE
  5
E2
330
3C
100
AcDbEntity
  8
1
  6
Continuous
 62
     2
100
AcDbLine
 10
96.73932766827244
 20
530.7701327433636
 30
0.0
 11
95.5218830972139
 21
528.6614568908912
 31
0.0
  0
LINE
  5
E3
330
3C
100
AcDbEntity
  8
1
  6
Continuous
 62
     2
100
AcDbLine
 10
96.75145066765003
 20
530.7701327433636
 30
0.0
 11
97.0787716508425
 21
544.2701327433636
 31
0.0
  0
LINE
  5
E4
330
3C
100
AcDbEntity
  8
1
  6
Continuous
 62
     7
100
AcDbLine
 10
95.5218830972139
 20
528.1614568908912
 30
0.0
 11
95.57693177664442
 21
530.2701327433636
 31
0.0
  0
LINE
  5
E5
330
3C
100
AcDbEntity
  8
1
  6
Continuous
 62
     7
100
AcDbLine
 10
95.8522743366795
 20
543.1098308140638
 30
0.0
 11
97.0770710950614
 21
544.2701327433636
 31
0.0
  0
LINE
  5
E6
330
3C
100
AcDbEntity
  8
1
  6
Continuous
 62
     7
100
AcDbLine
 10
96.73932766827244
 20
530.7701327433636
 30
0.0
 11
95.57693177664442
 21
530.7701327433636
 31
0.0
  0
LINE
  5
E7
330
3C
100
AcDbEntity
  8
1
  6
Continuous
 62
     7
100
AcDbLine
 10
95.57693177664442
 20
530.2701327433636
 30
0.0
 11
95.8522743366795
 21
543.1098308140638
 31
0.0
  0
LINE
  5
E8
330
3C
100
AcDbEntity
  8
1
  6
Continuous
 62
     7
100
AcDbLine
 10
97.57188309721391
 20
544.2701327433637
 30
0.0
 11
97.0787716508425
 21
544.2701327433636
 31
0.0
  0
LINE
  5
E9
330
3C
100
AcDbEntity
  8
1
  6
Continuous
 62
     7
100
AcDbLine
 10
97.0787716508425
 20
544.2701327433636
 30
0.0
 11
97.0770710950614
 21
544.2701327433636
 31
0.0
  0
LINE
  5
EA
330
3C
100
AcDbEntity
  8
1
  6
Continuous
 62
     7
100
AcDbLine
 10
95.68415492103571
 20
478.2701327433637
 30
0.0
 11
95.57693177664442
 21
483.2701327433638
 31
0.0
  0
LINE
  5
EB
330
3C
100
AcDbEntity
  8
1
  6
Continuous
 62
     2
100
AcDbLine
 10
96.86055766204754
 20
478.2701327433637
 30
0.0
 11
96.75145066765003
 21
482.7701327433638
 31
0.0
  0
LINE
  5
EC
330
3C
100
AcDbEntity
  8
1
  6
Continuous
 62
     7
100
AcDbLine
 10
116.1218830972138
 20
494.9110164489206
 30
0.0
 11
116.1218830972138
 21
485.3788085958361
 31
0.0
  0
LINE
  5
ED
330
3C
100
AcDbEntity
  8
1
  6
Continuous
 62
     7
100
AcDbLine
 10
95.5218830972139
 20
510.9110164489206
 30
0.0
 11
95.5218830972139
 21
528.1614568908912
 31
0.0
  0
LINE
  5
EE
330
3C
100
AcDbEntity
  8
1
  6
Continuous
 62
     7
100
AcDbLine
 10
115.7914918577482
 20
543.1098308140638
 30
0.0
 11
95.8522743366795
 21
543.1098308140638
 31
0.0
  0
LINE
  5
EF
330
3C
100
AcDbEntity
  8
1
  6
Continuous
 62
     7
100
AcDbLine
 10
348.6615811679142
 20
130.5684497397614
 30
0.0
 11
348.6615811679142
 21
150.50766726083
 31
0.0
  0
LINE
  5
F0
330
3C
100
AcDbEntity
  8
1
  6
Continuous
 62
     7
100
AcDbLine
 10
316.462766802771
 20
150.8380585002956
 30
0.0
 11
333.7132072447416
 21
150.8380585002956
 31
0.0
  0
LINE
  5
F1
330
3C
100
AcDbEntity
  8
1
  6
Continuous
 62
     7
100
AcDbLine
 10
300.462766802771
 20
130.2380585002958
 30
0.0
 11
290.9305589496864
 21
130.2380585002958
 31
0.0
  0
LINE
  5
F2
330
3C
100
AcDbEntity
  8
1
  6
Continuous
 62
     2
100
AcDbLine
 10
283.8218830972141
 20
149.499383935462
 30
0.0
 11
288.3218830972141
 21
149.6084909298595
 31
0.0
  0
LINE
  5
F3
330
3C
100
AcDbEntity
  8
1
  6
Continuous
 62
     7
100
AcDbLine
 10
283.8218830972141
 20
150.6757866764738
 30
0.0
 11
288.8218830972141
 21
150.7830098208651
 31
0.0
  0
LINE
  5
F4
330
3C
100
AcDbEntity
  8
1
  6
Continuous
 62
     7
100
AcDbLine
 10
349.821883097214
 20
149.281169946667
 30
0.0
 11
349.821883097214
 21
149.2828705024481
 31
0.0
  0
LINE
  5
F5
330
3C
100
AcDbEntity
  8
1
  6
Continuous
 62
     7
100
AcDbLine
 10
349.8218830972141
 20
148.7880585002956
 30
0.0
 11
349.821883097214
 21
149.281169946667
 31
0.0
  0
LINE
  5
F6
330
3C
100
AcDbEntity
  8
1
  6
Continuous
 62
     7
100
AcDbLine
 10
335.821883097214
 20
150.7830098208651
 30
0.0
 11
348.6615811679142
 21
150.50766726083
 31
0.0
  0
LINE
  5
F7
330
3C
100
AcDbEntity
  8
1
  6
Continuous
 62
     7
100
AcDbLine
 10
336.321883097214
 20
149.6206139292371
 30
0.0
 11
336.321883097214
 21
150.7830098208651
 31
0.0
  0
LINE
  5
F8
330
3C
100
AcDbEntity
  8
1
  6
Continuous
 62
     7
100
AcDbLine
 10
348.6615811679142
 20
150.50766726083
 30
0.0
 11
349.821883097214
 21
149.2828705024481
 31
0.0
  0
LINE
  5
F9
330
3C
100
AcDbEntity
  8
1
  6
Continuous
 62
     7
100
AcDbLine
 10
333.7132072447416
 20
150.8380585002956
 30
0.0
 11
335.821883097214
 21
150.7830098208651
 31
0.0
  0
LINE
  5
FA
330
3C
100
AcDbEntity
  8
1
  6
Continuous
 62
     2
100
AcDbLine
 10
336.321883097214
 20
149.6084909298595
 30
0.0
 11
349.821883097214
 21
149.281169946667
 31
0.0
  0
LINE
  5
FB
330
3C
100
AcDbEntity
  8
1
  6
Continuous
 62
     2
100
AcDbLine
 10
336.321883097214
 20
149.6206139292371
 30
0.0
 11
334.2132072447416
 21
150.8380585002956
 31
0.0
  0
LINE
  5
FC
330
3C
100
AcDbEntity
  8
1
  6
Continuous
 62
     2
100
AcDbLine
 10
290.4305589496864
 20
150.8380585002956
 30
0.0
 11
288.3218830972141
 21
149.6206139292371
 31
0.0
  0
LINE
  5
FD
330
3C
100
AcDbEntity
  8
1
  6
Continuous
 62
     7
100
AcDbLine
 10
288.8218830972141
 20
150.7830098208651
 30
0.0
 11
290.9305589496864
 21
150.8380585002956
 31
0.0
  0
LINE
  5
FE
330
3C
100
AcDbEntity
  8
1
  6
Continuous
 62
     7
100
AcDbLine
 10
288.3218830972141
 20
150.7830098208651
 30
0.0
 11
288.3218830972141
 21
149.6206139292371
 31
0.0
  0
LINE
  5
FF
330
3C
100
AcDbEntity
  8
1
  6
Continuous
 62
     7
100
AcDbLine
 10
290.9305589496864
 20
150.8380585002956
 30
0.0
 11
300.462766802771
 21
150.8380585002956
 31
0.0
  0
LINE
  5
100
330
3C
100
AcDbEntity
  8
1
  6
Continuous
 62
     7
100
AcDbLine
 10
349.821883097214
 20
132.2880585002956
 30
0.0
 11
349.8218830972141
 21
148.7880585002956
 31
0.0
  0
LINE
  5
101
330
3C
100
AcDbEntity
  8
1
  6
PHANTOM
 62
     4
100
AcDbLine
 10
272.0215233849839
 20
140.5380585002956
 30
0.0
 11
352.5035377734729
 21
140.5380585002956
 31
0.0
  0
LINE
  5
102
330
3C
100
AcDbEntity
  8
1
  6
Continuous
 62
     7
100
AcDbLine
 10
333.7132072447416
 20
130.2380585002958
 30
0.0
 11
316.462766802771
 21
130.2380585002958
 31
0.0
  0
LINE
  5
103
330
3C
100
AcDbEntity
  8
1
  6
Continuous
 62
     7
100
AcDbLine
 10
288.8218830972141
 20
130.2931071797261
 30
0.0
 11
283.8218830972141
 21
130.4003303241175
 31
0.0
  0
LINE
  5
104
330
3C
100
AcDbEntity
  8
1
  6
Continuous
 62
     7
100
AcDbLine
 10
288.3218830972141
 20
149.6206139292371
 30
0.0
 11
288.3218830972141
 21
130.2931071797261
 31
0.0
  0
LINE
  5
105
330
3C
100
AcDbEntity
  8
1
  6
Continuous
 62
     7
100
AcDbLine
 10
290.9305589496864
 20
130.2380585002958
 30
0.0
 11
288.8218830972141
 21
130.2931071797261
 31
0.0
  0
LINE
  5
106
330
3C
100
AcDbEntity
  8
1
  6
Continuous
 62
     2
100
AcDbLine
 10
288.3218830972141
 20
131.4676260707317
 30
0.0
 11
283.8218830972141
 21
131.5767330651293
 31
0.0
  0
LINE
  5
107
330
3C
100
AcDbEntity
  8
1
  6
Continuous
 62
     2
100
AcDbLine
 10
288.3218830972141
 20
131.4555030713541
 30
0.0
 11
290.4305589496864
 21
130.2380585002958
 31
0.0
  0
LINE
  5
108
330
3C
100
AcDbEntity
  8
1
  6
Continuous
 62
     2
100
AcDbLine
 10
334.2132072447416
 20
130.2380585002958
 30
0.0
 11
336.321883097214
 21
131.4555030713541
 31
0.0
  0
LINE
  5
109
330
3C
100
AcDbEntity
  8
1
  6
Continuous
 62
     2
100
AcDbLine
 10
349.821883097214
 20
131.7949470539244
 30
0.0
 11
336.321883097214
 21
131.4676260707317
 31
0.0
  0
LINE
  5
10A
330
3C
100
AcDbEntity
  8
1
  6
Continuous
 62
     7
100
AcDbLine
 10
335.821883097214
 20
130.2931071797261
 30
0.0
 11
333.7132072447416
 21
130.2380585002958
 31
0.0
  0
LINE
  5
10B
330
3C
100
AcDbEntity
  8
1
  6
Continuous
 62
     7
100
AcDbLine
 10
349.821883097214
 20
131.7932464981433
 30
0.0
 11
348.6615811679142
 21
130.5684497397614
 31
0.0
  0
LINE
  5
10C
330
3C
100
AcDbEntity
  8
1
  6
Continuous
 62
     7
100
AcDbLine
 10
336.321883097214
 20
130.2931071797261
 30
0.0
 11
336.321883097214
 21
149.6206139292371
 31
0.0
  0
LINE
  5
10D
330
3C
100
AcDbEntity
  8
1
  6
Continuous
 62
     7
100
AcDbLine
 10
348.6615811679142
 20
130.5684497397614
 30
0.0
 11
335.821883097214
 21
130.2931071797261
 31
0.0
  0
LINE
  5
10E
330
3C
100
AcDbEntity
  8
1
  6
Continuous
 62
     7
100
AcDbLine
 10
349.821883097214
 20
131.7949470539244
 30
0.0
 11
349.821883097214
 21
132.2880585002956
 31
0.0
  0
LINE
  5
10F
330
3C
100
AcDbEntity
  8
1
  6
Continuous
 62
     7
100
AcDbLine
 10
349.821883097214
 20
131.7932464981433
 30
0.0
 11
349.821883097214
 21
131.7949470539244
 31
0.0
  0
ENDBLK
  5
3E
330
3C
100
AcDbEntity
  8
0
100
AcDbBlockEnd
  0
BLOCK
  5
40
330
3F
100
AcDbEntity
  8
0
100
AcDbBlockBegin
  2
V22-0A-13-__________
 70
     0
 71
     0
 10
0.00000000000004
 20
2192.5
 30
0.0
  3
V22-0A-13-__________
  1

  0
LINE
  5
110
330
3F
100
AcDbEntity
  8
1
  6
Continuous
 62
     7
100
AcDbLine
 10
118.8218830972139
 20
133.0325050008305
 30
0.0
 11
118.8218830972139
 21
135.3137669904763
 31
0.0
  0
LINE
  5
111
330
3F
100
AcDbEntity
  8
1
  6
PHANTOM
 62
     4
100
AcDbLine
 10
105.8218830972139
 20
172.5380585002956
 30
0.0
 11
105.8218830972139
 21
123.2880585002956
 31
0.0
  0
LINE
  5
112
330
3F
100
AcDbEntity
  8
1
  6
Continuous
 62
     7
100
AcDbLine
 10
92.82188309721398
 20
133.0325050008305
 30
0.0
 11
94.79751393293557
 21
131.8918740060074
 31
0.0
  0
LINE
  5
113
330
3F
100
AcDbEntity
  8
1
  6
Continuous
 62
     2
100
AcDbLine
 10
115.1598830972139
 20
161.5380585002956
 30
0.0
 11
116.3218830972139
 21
159.5254154619007
 31
0.0
  0
LINE
  5
114
330
3F
100
AcDbEntity
  8
1
  6
Continuous
 62
     2
100
AcDbLine
 10
95.32188309721398
 20
159.5254154619007
 30
0.0
 11
96.48388309721399
 21
161.5380585002956
 31
0.0
  0
LINE
  5
115
330
3F
100
AcDbEntity
  8
1
  6
Continuous
 62
     2
100
AcDbLine
 10
96.48388309721399
 20
161.5380585002956
 30
0.0
 11
96.48388309721399
 21
163.2380585002954
 31
0.0
  0
LINE
  5
116
330
3F
100
AcDbEntity
  8
1
  6
Continuous
 62
     7
100
AcDbLine
 10
95.32188309721398
 20
161.5380585002956
 30
0.0
 11
95.32188309721398
 21
159.5254154619007
 31
0.0
  0
LINE
  5
117
330
3F
100
AcDbEntity
  8
1
  6
Continuous
 62
     7
100
AcDbLine
 10
115.1598830972139
 20
161.5380585002956
 30
0.0
 11
116.3218830972139
 21
161.5380585002956
 31
0.0
  0
LINE
  5
118
330
3F
100
AcDbEntity
  8
1
  6
Continuous
 62
     7
100
AcDbLine
 10
116.3218830972139
 20
161.5380585002956
 30
0.0
 11
116.3218830972139
 21
159.5254154619007
 31
0.0
  0
LINE
  5
119
330
3F
100
AcDbEntity
  8
1
  6
Continuous
 62
     7
100
AcDbLine
 10
95.32188309721398
 20
161.5380585002956
 30
0.0
 11
96.48388309721399
 21
161.5380585002956
 31
0.0
  0
LINE
  5
11A
330
3F
100
AcDbEntity
  8
1
  6
PHANTOM
 62
     4
100
AcDbLine
 10
89.82188309721398
 20
140.5380585002956
 30
0.0
 11
120.8218830972139
 21
140.5380585002956
 31
0.0
  0
LINE
  5
11B
330
3F
100
AcDbEntity
  8
1
  6
Continuous
 62
     7
100
AcDbLine
 10
96.48388309721399
 20
161.5380585002956
 30
0.0
 11
115.1598830972139
 21
161.5380585002956
 31
0.0
  0
LINE
  5
11C
330
3F
100
AcDbEntity
  8
1
  6
Continuous
 62
     7
100
AcDbLine
 10
116.3218830972139
 20
163.5227412112231
 30
0.0
 11
116.3218830972139
 21
161.5380585002956
 31
0.0
  0
LINE
  5
11D
330
3F
100
AcDbEntity
  8
1
  6
Continuous
 62
     2
100
AcDbLine
 10
115.1598830972139
 20
163.2380585002954
 30
0.0
 11
115.1598830972139
 21
161.5380585002956
 31
0.0
  0
LINE
  5
11E
330
3F
100
AcDbEntity
  8
1
  6
Continuous
 62
     7
100
AcDbLine
 10
95.32188309721398
 20
163.524909221239
 30
0.0
 11
95.32188309721398
 21
161.5380585002956
 31
0.0
  0
LINE
  5
11F
330
3F
100
AcDbEntity
  8
1
  6
Continuous
 62
     7
100
AcDbLine
 10
92.82188309721398
 20
135.3137669904769
 30
0.0
 11
92.82188309721398
 21
133.0325050008305
 31
0.0
  0
LINE
  5
120
330
3F
100
AcDbEntity
  8
1
  6
Continuous
 62
     7
100
AcDbLine
 10
116.8462522614927
 20
131.8918740060076
 30
0.0
 11
118.8218830972139
 21
133.0325050008305
 31
0.0
  0
ARC
  5
121
330
3F
100
AcDbEntity
  8
1
  6
Continuous
 62
     7
100
AcDbCircle
 10
16.69195200036121
 20
159.5254154619008
 30
0.0
 40
78.62993109685276
100
AcDbArc
 50
-2.36562655639139
 51
-0.00000000000006
  0
ARC
  5
122
330
3F
100
AcDbEntity
  8
1
  6
Continuous
 62
     7
100
AcDbCircle
 10
194.9518141940667
 20
159.5254154619008
 30
0.0
 40
78.62993109685282
100
AcDbArc
 50
-179.9999999999999
 51
-177.6343734436085
  0
ENDBLK
  5
41
330
3F
100
AcDbEntity
  8
0
100
AcDbBlockEnd
  0
BLOCK
  5
43
330
42
100
AcDbEntity
  8
0
100
AcDbBlockBegin
  2
_J__A4
 70
     0
 71
     0
 10
0.0
 20
0.0
 30
0.0
  3
_J__A4
  1

  0
POINT
  5
123
330
42
100
AcDbEntity
  8
1
 62
     4
100
AcDbPoint
 10
34.0
 20
34.0
 30
0.0
  0
POINT
  5
124
330
42
100
AcDbEntity
  8
1
 62
     4
100
AcDbPoint
 10
57.0
 20
12.25
 30
0.0
  0
POINT
  5
125
330
42
100
AcDbEntity
  8
1
 62
     4
100
AcDbPoint
 10
57.0
 20
20.75000000000001
 30
0.0
  0
POINT
  5
126
330
42
100
AcDbEntity
  8
1
 62
     4
100
AcDbPoint
 10
57.0
 20
24.75000000000001
 30
0.0
  0
POINT
  5
127
330
42
100
AcDbEntity
  8
1
 62
     4
100
AcDbPoint
 10
57.0
 20
16.25
 30
0.0
  0
POINT
  5
128
330
42
100
AcDbEntity
  8
1
 62
     4
100
AcDbPoint
 10
157.5
 20
19.00000000000001
 30
0.0
  0
POINT
  5
129
330
42
100
AcDbEntity
  8
1
 62
     4
100
AcDbPoint
 10
47.5
 20
282.0000000000003
 30
0.0
  0
POINT
  5
12A
330
42
100
AcDbEntity
  8
1
 62
     4
100
AcDbPoint
 10
57.0
 20
22.75000000000001
 30
0.0
  0
POINT
  5
12B
330
42
100
AcDbEntity
  8
1
 62
     4
100
AcDbPoint
 10
57.0
 20
14.25
 30
0.0
  0
POINT
  5
12C
330
42
100
AcDbEntity
  8
1
 62
     4
100
AcDbPoint
 10
157.5
 20
12.5
 30
0.0
  0
POINT
  5
12D
330
42
100
AcDbEntity
  8
1
 62
     4
100
AcDbPoint
 10
163.25
 20
12.5
 30
0.0
  0
POINT
  5
12E
330
42
100
AcDbEntity
  8
1
 62
     4
100
AcDbPoint
 10
151.75
 20
12.5
 30
0.0
  0
POINT
  5
12F
330
42
100
AcDbEntity
  8
1
 62
     4
100
AcDbPoint
 10
134.75
 20
12.5
 30
0.0
  0
POINT
  5
130
330
42
100
AcDbEntity
  8
1
 62
     4
100
AcDbPoint
 10
146.25
 20
12.5
 30
0.0
  0
POINT
  5
131
330
42
100
AcDbEntity
  8
1
 62
     4
100
AcDbPoint
 10
140.5
 20
12.5
 30
0.0
  0
POINT
  5
132
330
42
100
AcDbEntity
  8
1
 62
     4
100
AcDbPoint
 10
140.5
 20
19.00000000000001
 30
0.0
  0
POINT
  5
133
330
42
100
AcDbEntity
  8
1
 62
     4
100
AcDbPoint
 10
117.75
 20
12.5
 30
0.0
  0
POINT
  5
134
330
42
100
AcDbEntity
  8
1
 62
     4
100
AcDbPoint
 10
129.25
 20
12.5
 30
0.0
  0
POINT
  5
135
330
42
100
AcDbEntity
  8
1
 62
     4
100
AcDbPoint
 10
123.5
 20
12.5
 30
0.0
  0
POINT
  5
136
330
42
100
AcDbEntity
  8
1
 62
     4
100
AcDbPoint
 10
123.5
 20
19.00000000000001
 30
0.0
  0
POINT
  5
137
330
42
100
AcDbEntity
  8
1
 62
     4
100
AcDbPoint
 10
100.75
 20
12.5
 30
0.0
  0
POINT
  5
138
330
42
100
AcDbEntity
  8
1
 62
     4
100
AcDbPoint
 10
112.25
 20
12.5
 30
0.0
  0
POINT
  5
139
330
42
100
AcDbEntity
  8
1
 62
     4
100
AcDbPoint
 10
106.5
 20
12.5
 30
0.0
  0
POINT
  5
13A
330
42
100
AcDbEntity
  8
1
 62
     4
100
AcDbPoint
 10
106.5
 20
19.00000000000001
 30
0.0
  0
POINT
  5
13B
330
42
100
AcDbEntity
  8
1
 62
     4
100
AcDbPoint
 10
85.25
 20
17.0
 30
0.0
  0
POINT
  5
13C
330
42
100
AcDbEntity
  8
1
 62
     4
100
AcDbPoint
 10
93.75
 20
17.0
 30
0.0
  0
LINE
  5
13D
330
42
100
AcDbEntity
  8
1
  6
Continuous
 62
     2
100
AcDbLine
 10
81.0
 20
27.00000000000001
 30
0.0
 11
81.0
 21
10.0
 31
0.0
  0
LINE
  5
13E
330
42
100
AcDbEntity
  8
1
  6
DOT_CENTER
 62
     2
100
AcDbLine
 10
187.0
 20
26.50000000000001
 30
0.0
 11
187.0
 21
20.50000000000001
 31
0.0
  0
LINE
  5
13F
330
42
100
AcDbEntity
  8
1
  6
DOT_CENTER
 62
     2
100
AcDbLine
 10
184.0
 20
23.50000000000001
 30
0.0
 11
197.0
 21
23.50000000000001
 31
0.0
  0
LINE
  5
140
330
42
100
AcDbEntity
  8
1
  6
Continuous
 62
     7
100
AcDbLine
 10
196.0
 20
21.50000000000001
 30
0.0
 11
191.0
 21
22.30000000000001
 31
0.0
  0
LINE
  5
141
330
42
100
AcDbEntity
  8
1
  6
Continuous
 62
     7
100
AcDbLine
 10
196.0
 20
25.50000000000001
 30
0.0
 11
196.0
 21
21.50000000000001
 31
0.0
  0
LINE
  5
142
330
42
100
AcDbEntity
  8
1
  6
Continuous
 62
     7
100
AcDbLine
 10
191.0
 20
24.70000000000001
 30
0.0
 11
196.0
 21
25.50000000000001
 31
0.0
  0
LINE
  5
143
330
42
100
AcDbEntity
  8
1
  6
Continuous
 62
     7
100
AcDbLine
 10
191.0
 20
24.70000000000001
 30
0.0
 11
191.0
 21
22.30000000000001
 31
0.0
  0
LINE
  5
144
330
42
100
AcDbEntity
  8
1
  6
Continuous
 62
     2
100
AcDbLine
 10
33.0
 20
27.0
 30
0.0
 11
33.0
 21
10.0
 31
0.0
  0
LINE
  5
145
330
42
100
AcDbEntity
  8
1
  6
Continuous
 62
     2
100
AcDbLine
 10
25.0
 20
18.50000000000001
 30
0.0
 11
81.0
 21
18.50000000000001
 31
0.0
  0
LINE
  5
146
330
42
100
AcDbEntity
  8
1
  6
Continuous
 62
     7
100
AcDbLine
 10
200.0
 20
287.0000000000003
 30
0.0
 11
105.0
 21
287.0000000000003
 31
0.0
  0
LINE
  5
147
330
42
100
AcDbEntity
  8
1
  6
Continuous
 62
     7
100
AcDbLine
 10
200.0
 20
10.0
 30
0.0
 11
200.0
 21
148.5
 31
0.0
  0
LINE
  5
148
330
42
100
AcDbEntity
  8
1
  6
Continuous
 62
     7
100
AcDbLine
 10
25.0
 20
10.0
 30
0.0
 11
105.0
 21
10.0
 31
0.0
  0
LINE
  5
149
330
42
100
AcDbEntity
  8
1
  6
PHANTOM
 62
     4
100
AcDbLine
 10
0.0
 20
297.0
 30
0.0
 11
0.0
 21
0.0
 31
0.0
  0
LINE
  5
14A
330
42
100
AcDbEntity
  8
1
  6
PHANTOM
 62
     4
100
AcDbLine
 10
210.0000000000001
 20
297.0
 30
0.0
 11
0.0
 21
297.0
 31
0.0
  0
LINE
  5
14B
330
42
100
AcDbEntity
  8
1
  6
PHANTOM
 62
     4
100
AcDbLine
 10
210.0000000000001
 20
0.0
 30
0.0
 11
210.0000000000001
 21
297.0
 31
0.0
  0
LINE
  5
14C
330
42
100
AcDbEntity
  8
1
  6
PHANTOM
 62
     4
100
AcDbLine
 10
0.0
 20
0.0
 30
0.0
 11
210.0000000000001
 21
0.0
 31
0.0
  0
LINE
  5
14D
330
42
100
AcDbEntity
  8
1
  6
Continuous
 62
     7
100
AcDbLine
 10
25.0
 20
41.0
 30
0.0
 11
200.0
 21
41.0
 31
0.0
  0
LINE
  5
14E
330
42
100
AcDbEntity
  8
1
  6
Continuous
 62
     7
100
AcDbLine
 10
200.0
 20
27.00000000000001
 30
0.0
 11
25.0
 21
27.00000000000001
 31
0.0
  0
LINE
  5
14F
330
42
100
AcDbEntity
  8
1
  6
Continuous
 62
     2
100
AcDbLine
 10
33.0
 20
41.0
 30
0.0
 11
33.0
 21
27.0
 31
0.0
  0
LINE
  5
150
330
42
100
AcDbEntity
  8
1
  6
Continuous
 62
     2
100
AcDbLine
 10
55.0
 20
287.0000000000003
 30
0.0
 11
55.0
 21
277.0000000000003
 31
0.0
  0
LINE
  5
151
330
42
100
AcDbEntity
  8
1
  6
Continuous
 62
     2
100
AcDbLine
 10
40.0
 20
287.0000000000003
 30
0.0
 11
40.0
 21
277.0000000000003
 31
0.0
  0
LINE
  5
152
330
42
100
AcDbEntity
  8
1
  6
Continuous
 62
     7
100
AcDbLine
 10
25.0
 20
10.0
 30
0.0
 11
25.0
 21
148.5
 31
0.0
  0
LINE
  5
153
330
42
100
AcDbEntity
  8
1
  6
Continuous
 62
     2
100
AcDbLine
 10
55.0
 20
277.0000000000003
 30
0.0
 11
25.0
 21
277.0000000000003
 31
0.0
  0
LINE
  5
154
330
42
100
AcDbEntity
  8
1
  6
Continuous
 62
     2
100
AcDbLine
 10
166.0
 20
27.00000000000001
 30
0.0
 11
166.0
 21
10.0
 31
0.0
  0
LINE
  5
155
330
42
100
AcDbEntity
  8
1
  6
Continuous
 62
     2
100
AcDbLine
 10
132.0
 20
27.00000000000001
 30
0.0
 11
132.0
 21
9.99999999999999
 31
0.0
  0
LINE
  5
156
330
42
100
AcDbEntity
  8
1
  6
Continuous
 62
     2
100
AcDbLine
 10
149.0
 20
27.00000000000001
 30
0.0
 11
149.0
 21
10.0
 31
0.0
  0
LINE
  5
157
330
42
100
AcDbEntity
  8
1
  6
Continuous
 62
     2
100
AcDbLine
 10
115.0
 20
27.00000000000001
 30
0.0
 11
115.0
 21
9.99999999999999
 31
0.0
  0
LINE
  5
158
330
42
100
AcDbEntity
  8
1
  6
Continuous
 62
     2
100
AcDbLine
 10
98.0
 20
27.00000000000001
 30
0.0
 11
98.0
 21
9.99999999999999
 31
0.0
  0
LINE
  5
159
330
42
100
AcDbEntity
  8
1
  6
Continuous
 62
     2
100
AcDbLine
 10
166.0
 20
20.00000000000001
 30
0.0
 11
200.0
 21
20.00000000000001
 31
0.0
  0
LINE
  5
15A
330
42
100
AcDbEntity
  8
1
  6
Continuous
 62
     2
100
AcDbLine
 10
105.0
 20
287.0000000000003
 30
0.0
 11
105.0
 21
292.0000000000003
 31
0.0
  0
LINE
  5
15B
330
42
100
AcDbEntity
  8
1
  6
Continuous
 62
     7
100
AcDbLine
 10
105.0
 20
287.0000000000003
 30
0.0
 11
25.0
 21
287.0000000000003
 31
0.0
  0
LINE
  5
15C
330
42
100
AcDbEntity
  8
1
  6
Continuous
 62
     2
100
AcDbLine
 10
25.0
 20
148.5
 30
0.0
 11
20.0
 21
148.5
 31
0.0
  0
LINE
  5
15D
330
42
100
AcDbEntity
  8
1
  6
Continuous
 62
     7
100
AcDbLine
 10
25.0
 20
148.5
 30
0.0
 11
25.0
 21
287.0000000000003
 31
0.0
  0
LINE
  5
15E
330
42
100
AcDbEntity
  8
1
  6
Continuous
 62
     2
100
AcDbLine
 10
200.0
 20
148.5
 30
0.0
 11
205.0
 21
148.5
 31
0.0
  0
LINE
  5
15F
330
42
100
AcDbEntity
  8
1
  6
Continuous
 62
     7
100
AcDbLine
 10
200.0
 20
148.5
 30
0.0
 11
200.0
 21
287.0000000000003
 31
0.0
  0
LINE
  5
160
330
42
100
AcDbEntity
  8
1
  6
Continuous
 62
     2
100
AcDbLine
 10
105.0
 20
10.0
 30
0.0
 11
105.0
 21
5.0
 31
0.0
  0
LINE
  5
161
330
42
100
AcDbEntity
  8
1
  6
Continuous
 62
     7
100
AcDbLine
 10
105.0
 20
10.0
 30
0.0
 11
200.0
 21
10.0
 31
0.0
  0
CIRCLE
  5
162
330
42
100
AcDbEntity
  8
1
  6
DOT_CENTER
 62
     7
100
AcDbCircle
 10
89.5
 20
18.0
 30
0.0
 40
0.1000000000000227
  0
CIRCLE
  5
163
330
42
100
AcDbEntity
  8
1
  6
DOT_CENTER
 62
     7
100
AcDbCircle
 10
89.5
 20
16.0
 30
0.0
 40
0.1000000000000227
  0
CIRCLE
  5
164
330
42
100
AcDbEntity
  8
1
  6
Continuous
 62
     7
100
AcDbCircle
 10
187.0
 20
23.50000000000001
 30
0.0
 40
2.0
  0
CIRCLE
  5
165
330
42
100
AcDbEntity
  8
1
  6
Continuous
 62
     7
100
AcDbCircle
 10
187.0
 20
23.50000000000001
 30
0.0
 40
1.200000000000102
  0
CIRCLE
  5
166
330
42
100
AcDbEntity
  8
1
  6
Continuous
 62
     7
100
AcDbCircle
 10
154.5
 20
12.5
 30
0.0
 40
0.3000000000000114
  0
CIRCLE
  5
167
330
42
100
AcDbEntity
  8
1
  6
Continuous
 62
     7
100
AcDbCircle
 10
160.5
 20
12.5
 30
0.0
 40
0.3000000000000114
  0
CIRCLE
  5
168
330
42
100
AcDbEntity
  8
1
  6
Continuous
 62
     7
100
AcDbCircle
 10
143.5
 20
12.5
 30
0.0
 40
0.3000000000000114
  0
CIRCLE
  5
169
330
42
100
AcDbEntity
  8
1
  6
Continuous
 62
     7
100
AcDbCircle
 10
137.5
 20
12.5
 30
0.0
 40
0.3000000000000114
  0
CIRCLE
  5
16A
330
42
100
AcDbEntity
  8
1
  6
Continuous
 62
     7
100
AcDbCircle
 10
126.5
 20
12.5
 30
0.0
 40
0.2999999999999972
  0
CIRCLE
  5
16B
330
42
100
AcDbEntity
  8
1
  6
Continuous
 62
     7
100
AcDbCircle
 10
120.5
 20
12.5
 30
0.0
 40
0.2999999999999972
  0
CIRCLE
  5
16C
330
42
100
AcDbEntity
  8
1
  6
Continuous
 62
     7
100
AcDbCircle
 10
109.5
 20
12.5
 30
0.0
 40
0.2999999999999972
  0
CIRCLE
  5
16D
330
42
100
AcDbEntity
  8
1
  6
Continuous
 62
     7
100
AcDbCircle
 10
103.5
 20
12.5
 30
0.0
 40
0.2999999999999972
  0
MTEXT
  5
16F
330
42
100
AcDbEntity
  8
1
 62
   250
100
AcDbMText
 10
25.0
 20
5.0
 30
0.0
 40
3.5
 41
0.0
 71
     4
 72
     1
  1
備考欄の文字列 原点位置=4
  7
CONVERTER_1
 73
     1
 44
0.7202881152461
  0
MTEXT
  5
170
330
42
100
AcDbEntity
  8
1
 62
     2
100
AcDbMText
 10
89.5
 20
24.00000000000001
 30
0.0
 40
3.5
 41
0.0
 71
     5
 72
     1
  1
尺度
  7
CONVERTER_1
 73
     1
 44
0.7202881152461
  0
MTEXT
  5
171
330
42
100
AcDbEntity
  8
1
 62
     2
100
AcDbMText
 10
135.5
 20
25.00000000000001
 30
0.0
 40
3.0
 41
0.0
 71
     5
 72
     1
  1
製図
  7
CONVERTER_1
 73
     1
 44
0.78031212484994
  0
MTEXT
  5
172
330
42
100
AcDbEntity
  8
1
 62
     2
100
AcDbMText
 10
152.5
 20
25.00000000000001
 30
0.0
 40
3.0
 41
0.0
 71
     5
 72
     1
  1
設計
  7
CONVERTER_1
 73
     1
 44
0.78031212484994
  0
MTEXT
  5
173
330
42
100
AcDbEntity
  8
1
 62
     2
100
AcDbMText
 10
118.5
 20
25.00000000000001
 30
0.0
 40
3.0
 41
0.0
 71
     5
 72
     1
  1
検図
  7
CONVERTER_1
 73
     1
 44
0.78031212484994
  0
MTEXT
  5
174
330
42
100
AcDbEntity
  8
1
 62
     2
100
AcDbMText
 10
175.0
 20
23.50000000000001
 30
0.0
 40
3.5
 41
0.0
 71
     5
 72
     1
  1
第三角法
  7
CONVERTER_1
 73
     1
 44
0.7202881152461
  0
MTEXT
  5
175
330
42
100
AcDbEntity
  8
1
 62
     2
100
AcDbMText
 10
101.5
 20
25.00000000000001
 30
0.0
 40
3.0
 41
0.0
 71
     5
 72
     1
  1
承認
  7
CONVERTER_1
 73
     1
 44
0.78031212484994
  0
MTEXT
  5
176
330
42
100
AcDbEntity
  8
1
 62
     2
100
AcDbMText
 10
29.0
 20
14.25
 30
0.0
 40
3.5
 41
0.0
 71
     5
 72
     1
  1
品番
  7
CONVERTER_1
 73
     1
 44
0.96038415366146
  0
MTEXT
  5
177
330
42
100
AcDbEntity
  8
1
 62
     2
100
AcDbMText
 10
29.0
 20
22.75
 30
0.0
 40
3.5
 41
0.0
 71
     5
 72
     1
  1
品名
  7
CONVERTER_1
 73
     1
 44
0.96038415366146
  0
MTEXT
  5
178
330
42
100
AcDbEntity
  8
1
 62
     2
100
AcDbMText
 10
29.0
 20
34.0
 30
0.0
 40
3.5
 41
0.0
 71
     5
 72
     1
  1
備考
  7
CONVERTER_1
 73
     1
 44
0.60024009603842
  0
MTEXT
  5
179
330
42
100
AcDbEntity
  8
1
 62
     2
100
AcDbMText
 10
32.5
 20
282.0000000000003
 30
0.0
 40
5.0
 41
0.0
 71
     5
 72
     1
  1
図番
  7
CONVERTER_1
 73
     1
 44
0.60024009603842
  0
MTEXT
  5
17A
330
42
100
AcDbEntity
  8
1
 62
     7
100
AcDbMText
 10
171.5
 20
15.0
 30
0.0
 40
2.5
 41
0.0
 71
     5
 72
     1
  1
株式会社
  7
CONVERTER_1
 73
     1
 44
1.32052821128451
  0
MTEXT
  5
17B
330
42
100
AcDbEntity
  8
1
 62
     7
100
AcDbMText
 10
188.5
 20
15.0
 30
0.0
 40
3.0
 41
0.0
 71
     5
 72
     1
  1
三栄水栓製作所
  7
CONVERTER_1
 73
     1
 44
1.32052821128451
  0
ENDBLK
  5
44
330
42
100
AcDbEntity
  8
0
100
AcDbBlockEnd
  0
BLOCK
  5
46
330
45
100
AcDbEntity
  8
0
100
AcDbBlockBegin
  2
66-16-15-200
 70
     0
 71
     0
 10
453.6799498023069
 20
51.63793457449393
 30
0.0
  3
66-16-15-200
  1

  0
LINE
  5
17C
330
45
100
AcDbEntity
  8
1
  6
Continuous
 62
     7
100
AcDbLine
 10
101.9704158794138
 20
214.0322985605538
 30
0.0
 11
110.171883097214
 21
214.0322985605538
 31
0.0
  0
LINE
  5
17D
330
45
100
AcDbEntity
  8
1
  6
Continuous
 62
     7
100
AcDbLine
 10
101.471883097214
 20
270.3486885206726
 30
0.0
 11
110.171883097214
 21
270.3486885206726
 31
0.0
  0
LINE
  5
17E
330
45
100
AcDbEntity
  8
1
  6
Continuous
 62
     7
100
AcDbLine
 10
99.471883097214
 20
372.5380585002956
 30
0.0
 11
112.171883097214
 21
372.5380585002956
 31
0.0
  0
LINE
  5
17F
330
45
100
AcDbEntity
  8
1
  6
Continuous
 62
     7
100
AcDbLine
 10
99.471883097214
 20
283.0758412587657
 30
0.0
 11
99.471883097214
 21
372.5380585002956
 31
0.0
  0
LINE
  5
180
330
45
100
AcDbEntity
  8
1
  6
Continuous
 62
     7
100
AcDbLine
 10
112.171883097214
 20
285.3151939137632
 30
0.0
 11
112.171883097214
 21
372.5380585002956
 31
0.0
  0
LINE
  5
181
330
45
100
AcDbEntity
  8
1
  6
Continuous
 62
     7
100
AcDbLine
 10
99.471883097214
 20
283.0758412587657
 30
0.0
 11
99.471883097214
 21
175.2380585002955
 31
0.0
  0
LINE
  5
182
330
45
100
AcDbEntity
  8
1
  6
Continuous
 62
     7
100
AcDbLine
 10
112.171883097214
 20
285.3151939137632
 30
0.0
 11
112.171883097214
 21
175.2380585002955
 31
0.0
  0
LINE
  5
183
330
45
100
AcDbEntity
  8
1
  6
Continuous
 62
     7
100
AcDbLine
 10
247.1718830972141
 20
285.3151939137632
 30
0.0
 11
247.1718830972141
 21
372.5380585002956
 31
0.0
  0
LINE
  5
184
330
45
100
AcDbEntity
  8
1
  6
Continuous
 62
     7
100
AcDbLine
 10
260.0333686026351
 20
221.2475656500326
 30
0.0
 11
248.9010662567342
 21
264.0269046407118
 31
0.0
  0
LINE
  5
185
330
45
100
AcDbEntity
  8
1
  6
Continuous
 62
     7
100
AcDbLine
 10
247.7426999376939
 20
218.0492123598793
 30
0.0
 11
236.610397591793
 21
260.8285513505586
 31
0.0
  0
LINE
  5
186
330
45
100
AcDbEntity
  8
1
  6
Continuous
 62
     7
100
AcDbLine
 10
234.471883097214
 20
283.0758412587657
 30
0.0
 11
234.471883097214
 21
277.5380585002956
 31
0.0
  0
LINE
  5
187
330
45
100
AcDbEntity
  8
1
  6
Continuous
 62
     7
100
AcDbLine
 10
234.471883097214
 20
372.5380585002956
 30
0.0
 11
234.471883097214
 21
283.0758412587657
 31
0.0
  0
LINE
  5
188
330
45
100
AcDbEntity
  8
1
  6
Continuous
 62
     7
100
AcDbLine
 10
247.1718830972141
 20
372.5380585002956
 30
0.0
 11
234.471883097214
 21
372.5380585002956
 31
0.0
  0
LINE
  5
189
330
45
100
AcDbEntity
  8
1
  6
Continuous
 62
     7
100
AcDbLine
 10
262.1718830972141
 20
204.5380585002956
 30
0.0
 11
262.1718830972141
 21
175.2380585002955
 31
0.0
  0
LINE
  5
18A
330
45
100
AcDbEntity
  8
1
  6
Continuous
 62
     7
100
AcDbLine
 10
249.471883097214
 20
204.5380585002956
 30
0.0
 11
249.471883097214
 21
175.2380585002955
 31
0.0
  0
LINE
  5
18B
330
45
100
AcDbEntity
  8
1
  6
Continuous
 62
     7
100
AcDbLine
 10
247.1718830972141
 20
277.5380585002956
 30
0.0
 11
247.1718830972141
 21
285.3151939137632
 31
0.0
  0
LINE
  5
18C
330
45
100
AcDbEntity
  8
1
  6
Continuous
 62
     7
100
AcDbLine
 10
99.47188309721391
 20
450.2701327433636
 30
0.0
 11
99.47188309721391
 21
435.2701327433636
 31
0.0
  0
LINE
  5
18D
330
45
100
AcDbEntity
  8
1
  6
Continuous
 62
     7
100
AcDbLine
 10
112.171883097214
 20
450.2701327433636
 30
0.0
 11
112.171883097214
 21
435.2701327433636
 31
0.0
  0
ARC
  5
18E
330
45
100
AcDbEntity
  8
1
  6
Continuous
 62
     7
100
AcDbCircle
 10
300.8218830972141
 20
277.5380585002956
 30
0.0
 40
66.35000000000008
100
AcDbArc
 50
180.0
 51
-165.4136479153897
  0
ARC
  5
18F
330
45
100
AcDbEntity
  8
1
  6
Continuous
 62
     7
100
AcDbCircle
 10
300.8218830972141
 20
277.5380585002956
 30
0.0
 40
53.64999999999998
100
AcDbArc
 50
180.0
 51
-165.4136479153898
  0
ARC
  5
190
330
45
100
AcDbEntity
  8
1
  6
Continuous
 62
     7
100
AcDbCircle
 10
195.821883097214
 20
204.5380585002956
 30
0.0
 40
53.65000000000001
100
AcDbArc
 50
0.0
 51
14.58635208461014
  0
ARC
  5
191
330
45
100
AcDbEntity
  8
1
  6
Continuous
 62
     7
100
AcDbCircle
 10
195.821883097214
 20
204.5380585002956
 30
0.0
 40
66.35000000000011
100
AcDbArc
 50
0.0
 51
14.58635208461032
  0
ARC
  5
192
330
45
100
AcDbEntity
  8
1
  6
Continuous
 62
     7
100
AcDbCircle
 10
105.821883097214
 20
435.2701327433636
 30
0.0
 40
6.350000000000009
100
AcDbArc
 50
0.0
 51
180.0
  0
ARC
  5
193
330
45
100
AcDbEntity
  8
1
  6
Continuous
 62
     7
100
AcDbCircle
 10
105.821883097214
 20
435.2701327433636
 30
0.0
 40
6.350000000000094
100
AcDbArc
 50
180.0
 51
0.0
  0
ARC
  5
194
330
45
100
AcDbEntity
  8
1
  6
Continuous
 62
     7
100
AcDbCircle
 10
105.821883097214
 20
450.2701327433636
 30
0.0
 40
6.350000000000009
100
AcDbArc
 50
0.0
 51
180.0
  0
CIRCLE
  5
195
330
45
100
AcDbEntity
  8
1
  6
Continuous
 62
     7
100
AcDbCircle
 10
105.821883097214
 20
435.2701327433636
 30
0.0
 40
5.649999999999977
  0
ENDBLK
  5
47
330
45
100
AcDbEntity
  8
0
100
AcDbBlockEnd
  0
BLOCK
  5
49
330
48
100
AcDbEntity
  8
0
100
AcDbBlockBegin
  2
36-1A-13
 70
     0
 71
     0
 10
254.021883097214
 20
140.5380585002956
 30
0.0
  3
36-1A-13
  1

  0
LINE
  5
196
330
48
100
AcDbEntity
  8
1
  6
Continuous
 62
     7
100
AcDbLine
 10
222.3218830972141
 20
135.7880585002957
 30
0.0
 11
225.3218830972141
 21
135.7880585002957
 31
0.0
  0
LINE
  5
197
330
48
100
AcDbEntity
  8
1
  6
Continuous
 62
     7
100
AcDbLine
 10
222.3218830972141
 20
145.2880585002956
 30
0.0
 11
225.3218830972141
 21
145.2880585002956
 31
0.0
  0
LINE
  5
198
330
48
100
AcDbEntity
  8
1
  6
Continuous
 62
     7
100
AcDbLine
 10
110.5218830972137
 20
419.7701327433637
 30
0.0
 11
110.5218830972137
 21
416.7701327433637
 31
0.0
  0
LINE
  5
199
330
48
100
AcDbEntity
  8
1
  6
Continuous
 62
     7
100
AcDbLine
 10
101.1218830972141
 20
416.7701327433637
 30
0.0
 11
101.1218830972141
 21
419.7701327433637
 31
0.0
  0
ENDBLK
  5
4A
330
48
100
AcDbEntity
  8
0
100
AcDbBlockEnd
  0
BLOCK
  5
4C
330
4B
100
AcDbEntity
  8
0
100
AcDbBlockBegin
  2
32-12-M2
 70
     0
 71
     0
 10
243.321883097214
 20
-327.1138900216624
 30
0.0
  3
32-12-M2
  1

  0
LINE
  5
19A
330
4B
100
AcDbEntity
  8
1
  6
Continuous
 62
     7
100
AcDbLine
 10
115.8145237843333
 20
442.7603303426257
 30
0.0
 11
112.171883097214
 21
440.6572507613562
 31
0.0
  0
LINE
  5
19B
330
4B
100
AcDbEntity
  8
1
  6
Continuous
 62
     7
100
AcDbLine
 10
94.32188309721403
 20
445.3711532577972
 30
0.0
 11
94.32188309721403
 21
455.1691122289298
 31
0.0
  0
LINE
  5
19C
330
4B
100
AcDbEntity
  8
1
  6
Continuous
 62
     7
100
AcDbLine
 10
95.82924241009494
 20
457.7799351441015
 30
0.0
 11
104.3145237843333
 21
462.6789146296677
 31
0.0
  0
LINE
  5
19D
330
4B
100
AcDbEntity
  8
1
  6
Continuous
 62
     7
100
AcDbLine
 10
107.3292424100949
 20
462.6789146296677
 30
0.0
 11
115.8145237843333
 21
457.7799351441015
 31
0.0
  0
LINE
  5
19E
330
4B
100
AcDbEntity
  8
1
  6
Continuous
 62
     7
100
AcDbLine
 10
266.7141879426274
 20
163.2380585002955
 30
0.0
 11
244.9295782518009
 21
163.2380585002955
 31
0.0
  0
LINE
  5
19F
330
4B
100
AcDbEntity
  8
1
  6
Continuous
 62
     7
100
AcDbLine
 10
266.7141879426274
 20
175.2380585002955
 30
0.0
 11
244.9295782518009
 21
175.2380585002955
 31
0.0
  0
LINE
  5
1A0
330
4B
100
AcDbEntity
  8
1
  6
Continuous
 62
     7
100
AcDbLine
 10
96.05703088908173
 20
175.2380585002956
 30
0.0
 11
115.8145237843331
 21
175.2380585002956
 31
0.0
  0
LINE
  5
1A1
330
4B
100
AcDbEntity
  8
1
  6
Continuous
 62
     7
100
AcDbLine
 10
94.32188309721383
 20
174.1125169153835
 30
0.0
 11
94.32188309721383
 21
164.3636000852076
 31
0.0
  0
LINE
  5
1A2
330
4B
100
AcDbEntity
  8
1
  6
Continuous
 62
     7
100
AcDbLine
 10
95.82924241009464
 20
163.2380585002956
 30
0.0
 11
115.8145237843331
 21
163.2380585002956
 31
0.0
  0
LINE
  5
1A3
330
4B
100
AcDbEntity
  8
1
  6
Continuous
 62
     7
100
AcDbLine
 10
117.3218830972138
 20
174.1125169153835
 30
0.0
 11
117.3218830972138
 21
164.3636000852076
 31
0.0
  0
LINE
  5
1A4
330
4B
100
AcDbEntity
  8
1
  6
Continuous
 62
     7
100
AcDbLine
 10
117.321883097214
 20
455.1691122289298
 30
0.0
 11
117.321883097214
 21
445.3711532577972
 31
0.0
  0
LINE
  5
1A5
330
4B
100
AcDbEntity
  8
1
  6
Continuous
 62
     7
100
AcDbLine
 10
99.47188309721391
 20
440.6572507613564
 30
0.0
 11
95.82924241009494
 21
442.7603303426257
 31
0.0
  0
ARC
  5
1A6
330
4B
100
AcDbEntity
  8
1
  6
Continuous
 62
     7
100
AcDbCircle
 10
105.821883097214
 20
450.2701327433636
 30
0.0
 40
12.5
100
AcDbArc
 50
-156.9260819343687
 51
-143.0739180656303
  0
ARC
  5
1A7
330
4B
100
AcDbEntity
  8
1
  6
Continuous
 62
     7
100
AcDbCircle
 10
105.821883097214
 20
450.2701327433636
 30
0.0
 40
12.49999999999984
100
AcDbArc
 50
143.0739180656303
 51
156.9260819343696
  0
ARC
  5
1A8
330
4B
100
AcDbEntity
  8
1
  6
Continuous
 62
     7
100
AcDbCircle
 10
105.821883097214
 20
450.2701327433636
 30
0.0
 40
12.4999999999999
100
AcDbArc
 50
83.07391806563003
 51
96.92608193436901
  0
ARC
  5
1A9
330
4B
100
AcDbEntity
  8
1
  6
Continuous
 62
     7
100
AcDbCircle
 10
105.821883097214
 20
450.2701327433636
 30
0.0
 40
10.89230484541349
100
AcDbArc
 50
-54.33955922751532
 51
-125.6604407724851
  0
ARC
  5
1AA
330
4B
100
AcDbEntity
  8
1
  6
Continuous
 62
     7
100
AcDbCircle
 10
105.821883097214
 20
450.2701327433636
 30
0.0
 40
6.700000000000023
100
AcDbArc
 50
-18.60129618818481
 51
-161.3987038118155
  0
ARC
  5
1AB
330
4B
100
AcDbEntity
  8
1
  6
Continuous
 62
     7
100
AcDbCircle
 10
255.3218830972143
 20
169.2380585002955
 30
0.0
 40
12.0000000000002
100
AcDbArc
 50
164.0379858371526
 51
-150.0000000000003
  0
ARC
  5
1AC
330
4B
100
AcDbEntity
  8
1
  6
Continuous
 62
     7
100
AcDbCircle
 10
256.3218830972143
 20
169.2380585002955
 30
0.0
 40
11.99999999999985
100
AcDbArc
 50
-30.00000000000041
 51
30.00000000000041
  0
ARC
  5
1AD
330
4B
100
AcDbEntity
  8
0
  6
Continuous
 62
     7
100
AcDbCircle
 10
255.8218830972143
 20
169.2769100035057
 30
0.0
 40
4.83560691187764
100
AcDbArc
 50
-2.15882136915017
 51
-177.84117863085
  0
ARC
  5
1AE
330
4B
100
AcDbEntity
  8
0
  6
Continuous
 62
     7
100
AcDbCircle
 10
255.8218830972143
 20
168.9125989930018
 30
0.0
 40
4.835606911877949
100
AcDbArc
 50
177.841178630851
 51
2.15882136914916
  0
ARC
  5
1AF
330
4B
100
AcDbEntity
  8
1
  6
Continuous
 62
     7
100
AcDbCircle
 10
97.14761963895583
 20
171.6565617571163
 30
0.0
 40
3.743862009043068
100
AcDbArc
 50
106.9358291036609
 51
139.0048526480481
  0
ARC
  5
1B0
330
4B
100
AcDbEntity
  8
1
  6
Continuous
 62
     7
100
AcDbCircle
 10
98.11102314798633
 20
167.8660096073776
 30
0.0
 40
5.159889028395418
100
AcDbArc
 50
-137.2519203604477
 51
-116.2452975634023
  0
ARC
  5
1B1
330
4B
100
AcDbEntity
  8
1
  6
Continuous
 62
     7
100
AcDbCircle
 10
113.6073951394237
 20
167.7660332679054
 30
0.0
 40
5.037258416171508
100
AcDbArc
 50
-64.01341503332337
 51
-42.48936704282357
  0
ARC
  5
1B2
330
4B
100
AcDbEntity
  8
1
  6
Continuous
 62
     7
100
AcDbCircle
 10
113.6073951394235
 20
170.7100837326855
 30
0.0
 40
5.037258416171807
100
AcDbArc
 50
42.48936704282372
 51
64.01341503332289
  0
ARC
  5
1B3
330
4B
100
AcDbEntity
  8
1
  6
Continuous
 62
     7
100
AcDbCircle
 10
255.3218830972143
 20
169.2380585002955
 30
0.0
 40
12.00000000000012
100
AcDbArc
 50
150.0000000000003
 51
164.0379858371526
  0
ARC
  5
1B4
330
4B
100
AcDbEntity
  8
1
  6
Continuous
 62
     7
100
AcDbCircle
 10
105.821883097214
 20
450.2701327433636
 30
0.0
 40
12.49999999999994
100
AcDbArc
 50
23.07391806563032
 51
36.92608193436908
  0
ARC
  5
1B5
330
4B
100
AcDbEntity
  8
1
  6
Continuous
 62
     7
100
AcDbCircle
 10
105.821883097214
 20
450.2701327433636
 30
0.0
 40
12.50000000000003
100
AcDbArc
 50
-36.92608193436908
 51
-23.07391806563128
  0
SPLINE
  5
1B6
330
4B
100
AcDbEntity
  8
1
  6
Continuous
 62
     7
100
AcDbSpline
210
0.0
220
0.0
230
1.0
 70
    11
 71
     3
 72
    79
 73
    75
 74
    73
 42
0.0000000001
 43
0.0000000001
 44
0.00000001
 40
0.0
 40
0.0
 40
0.0
 40
0.0
 40
0.2251440043915674
 40
0.4498541163684371
 40
0.6980863442794101
 40
0.9458096979691648
 40
1.225753246444207
 40
1.505341882254269
 40
1.820037946962798
 40
2.134517093609432
 40
2.48253380261994
 40
2.830421094392948
 40
3.20713564662234
 40
3.583774048987474
 40
3.982383404506708
 40
4.380950216893965
 40
4.793229956183946
 40
5.205490581551507
 40
5.622408661135256
 40
6.039326740719004
 40
6.45158736608659
 40
6.86386710537655
 40
7.262433917763751
 40
7.661043273282984
 40
8.037681675648132
 40
8.414396227877569
 40
8.762283519650504
 40
9.110300228661085
 40
9.42477937530777
 40
9.739475440016316
 40
10.01906407582635
 40
10.29900762430141
 40
10.54673097799112
 40
10.79496320590205
 40
11.01967331787894
 40
11.24481732227044
 40
11.46116996799178
 40
11.67752261371307
 40
11.90266661810452
 40
12.12737673008145
 40
12.37560895799241
 40
12.62333231168208
 40
12.90327586015721
 40
13.18286449596727
 40
13.49756056067577
 40
13.8120397073224
 40
14.16005641633294
 40
14.50794370810598
 40
14.8846582603354
 40
15.26129666270056
 40
15.65990601821977
 40
16.05847283060699
 40
16.47075256989695
 40
16.88301319526456
 40
17.29993127484828
 40
17.716849354432
 40
18.12910997979957
 40
18.54138971908959
 40
18.93995653147681
 40
19.33856588699602
 40
19.71520428936112
 40
20.09191884159057
 40
20.43980613336361
 40
20.78782284237415
 40
21.10230198902075
 40
21.41699805372922
 40
21.6965866895393
 40
21.9765302380144
 40
22.22425359170412
 40
22.47248581961511
 40
22.69719593159194
 40
22.9223399359835
 40
23.13869258170473
 40
23.35504522742602
 40
23.35504522742602
 40
23.35504522742602
 40
23.35504522742602
 10
265.5656625377871
 20
164.4612727686105
 30
0.0
 10
265.4922274828283
 20
164.4776224386867
 30
0.0
 10
265.3454988952817
 20
164.510290270126
 30
0.0
 10
265.1326105528847
 20
164.6077206394705
 30
0.0
 10
264.9284776682826
 20
164.7353391429971
 30
0.0
 10
264.7286786363814
 20
164.9006420756352
 30
0.0
 10
264.5415264579128
 20
165.094679113833
 30
0.0
 10
264.3604917743072
 20
165.3235365204543
 30
0.0
 10
264.1941325289614
 20
165.5771304628972
 30
0.0
 10
264.0366476250661
 20
165.8625663908115
 30
0.0
 10
263.895184151155
 20
166.1685074886847
 30
0.0
 10
263.7655764858473
 20
166.5019459841658
 30
0.0
 10
263.6529956264351
 20
166.8515522134491
 30
0.0
 10
263.5549219975748
 20
167.2229754670198
 30
0.0
 10
263.4746317742048
 20
167.6060920665443
 30
0.0
 10
263.4108736062569
 20
168.0043178334938
 30
0.0
 10
263.3654151554878
 20
168.4096255442178
 30
0.0
 10
263.3377453440751
 20
168.8226558129013
 30
0.0
 10
263.3286385559683
 20
169.2380585002927
 30
0.0
 10
263.3377453440733
 20
169.6534611877012
 30
0.0
 10
263.3654151554947
 20
170.0664914563337
 30
0.0
 10
263.4108736062309
 20
170.4717991672424
 30
0.0
 10
263.4746317742977
 20
170.870024933525
 30
0.0
 10
263.5549219972353
 20
171.2531415354756
 30
0.0
 10
263.6529956276245
 20
171.6245647804685
 30
0.0
 10
263.7655764815426
 20
171.9741710405767
 30
0.0
 10
263.8951841658625
 20
172.307609429392
 30
0.0
 10
264.0366475722494
 20
172.6135509061022
 30
0.0
 10
264.1941327051345
 20
172.8989855492948
 30
0.0
 10
264.3604911451885
 20
173.1525840097381
 30
0.0
 10
264.5415285177337
 20
173.3814263303599
 30
0.0
 10
264.7286712832752
 20
173.575516178748
 30
0.0
 10
264.9285016451182
 20
173.7406433381969
 30
0.0
 10
265.1325241011143
 20
173.8688813892647
 30
0.0
 10
265.3457879934479
 20
173.9642047770191
 30
0.0
 10
265.5617280939896
 20
174.0201919481087
 30
0.0
 10
265.7811752407348
 20
174.0406026790153
 30
0.0
 10
266.0006223874802
 20
174.0201919481087
 30
0.0
 10
266.2165624880219
 20
173.9642047770191
 30
0.0
 10
266.4298263803555
 20
173.8688813892647
 30
0.0
 10
266.6338488363516
 20
173.740643338197
 30
0.0
 10
266.8336791981944
 20
173.5755161787479
 30
0.0
 10
267.0208219637361
 20
173.3814263303598
 30
0.0
 10
267.2018593362813
 20
173.1525840097381
 30
0.0
 10
267.3682177763355
 20
172.8989855492949
 30
0.0
 10
267.5257029092205
 20
172.6135509061022
 30
0.0
 10
267.667166315607
 20
172.307609429392
 30
0.0
 10
267.7967739999272
 20
171.9741710405766
 30
0.0
 10
267.9093548538453
 20
171.6245647804686
 30
0.0
 10
268.0074284842347
 20
171.2531415354755
 30
0.0
 10
268.0877187071721
 20
170.870024933525
 30
0.0
 10
268.1514768752388
 20
170.4717991672424
 30
0.0
 10
268.1969353259751
 20
170.0664914563338
 30
0.0
 10
268.2246051373965
 20
169.6534611877005
 30
0.0
 10
268.2337119255011
 20
169.2380585002953
 30
0.0
 10
268.2246051373967
 20
168.8226558128913
 30
0.0
 10
268.1969353259746
 20
168.4096255442544
 30
0.0
 10
268.1514768752405
 20
168.0043178333588
 30
0.0
 10
268.0877187071654
 20
167.6060920670293
 30
0.0
 10
268.0074284842584
 20
167.2229754652494
 30
0.0
 10
267.9093548537617
 20
166.8515522196529
 30
0.0
 10
267.7967740002301
 20
166.5019459617137
 30
0.0
 10
267.6671663145722
 20
166.1685075653933
 30
0.0
 10
267.5257029129366
 20
165.8625661153383
 30
0.0
 10
267.3682177639398
 20
165.5771313817515
 30
0.0
 10
267.2018593805467
 20
165.3235332391988
 30
0.0
 10
267.0208218188052
 20
165.094689857113
 30
0.0
 10
266.8336797155654
 20
164.9006037244962
 30
0.0
 10
266.6338471493205
 20
164.7354641974911
 30
0.0
 10
266.4298324631779
 20
164.6072697383327
 30
0.0
 10
266.2165421468209
 20
164.5117981015024
 30
0.0
 10
266.0006974606226
 20
164.4563462420854
 30
0.0
 10
265.7809071692267
 20
164.4340103358803
 30
0.0
 10
265.6374107482669
 20
164.4521852910337
 30
0.0
 10
265.5656625377871
 20
164.4612727686105
 30
0.0
 11
265.5656625377871
 21
164.4612727686105
 31
0.0
 11
265.347747256617
 21
164.5178656387095
 31
0.0
 11
265.1421011149739
 21
164.6084432234198
 31
0.0
 11
264.9315327401509
 21
164.7398973922317
 31
0.0
 11
264.7399607940786
 21
164.8969548640099
 31
0.0
 11
264.5449118181653
 21
165.0977639457965
 31
0.0
 11
264.3709210831776
 21
165.3166178454935
 31
0.0
 11
264.1975399863471
 21
165.579244212039
 31
0.0
 11
264.0452099650391
 21
165.8543672722937
 31
0.0
 11
263.8985035721534
 21
166.1699506432703
 31
0.0
 11
263.7721667375052
 21
166.494087299618
 31
0.0
 11
263.6562081020793
 21
166.852510860132
 31
0.0
 11
263.5598547313334
 21
167.2166159467238
 31
0.0
 11
263.4777550666764
 21
167.6066788434093
 31
0.0
 11
263.4146429594291
 21
168.0002171082011
 31
0.0
 11
263.3684815100962
 21
168.4099044329068
 31
0.0
 11
263.3409196171918
 21
168.8212426943024
 31
0.0
 11
263.3316854979518
 21
169.2380585002955
 31
0.0
 11
263.3409196171917
 21
169.6548743062886
 31
0.0
 11
263.3684815100961
 21
170.0662125676843
 31
0.0
 11
263.4146429594291
 21
170.4758998923899
 31
0.0
 11
263.4777550666764
 21
170.8694381571817
 31
0.0
 11
263.5598547313333
 21
171.2595010538672
 31
0.0
 11
263.6562081020793
 21
171.623606140459
 31
0.0
 11
263.7721667375053
 21
171.982029700973
 31
0.0
 11
263.8985035721534
 21
172.3061663573207
 31
0.0
 11
264.0452099650393
 21
172.6217497282973
 31
0.0
 11
264.1975399863472
 21
172.896872788552
 31
0.0
 11
264.3709210831776
 21
173.1594991550976
 31
0.0
 11
264.5449118181653
 21
173.3783530547946
 31
0.0
 11
264.7399607940786
 21
173.5791621365812
 31
0.0
 11
264.9315327401509
 21
173.7362196083593
 31
0.0
 11
265.1421011149739
 21
173.8676737771712
 31
0.0
 11
265.347747256617
 21
173.9582513618816
 31
0.0
 11
265.565662537787
 21
174.0148442319805
 31
0.0
 11
265.7811752407349
 21
174.0338900236082
 31
0.0
 11
265.9966879436827
 21
174.0148442319805
 31
0.0
 11
266.2146032248527
 21
173.9582513618816
 31
0.0
 11
266.4202493664959
 21
173.8676737771712
 31
0.0
 11
266.6308177413189
 21
173.7362196083593
 31
0.0
 11
266.8223896873911
 21
173.5791621365812
 31
0.0
 11
267.0174386633045
 21
173.3783530547945
 31
0.0
 11
267.1914293982923
 21
173.1594991550976
 31
0.0
 11
267.3648104951227
 21
172.8968727885521
 31
0.0
 11
267.5171405164305
 21
172.6217497282973
 31
0.0
 11
267.6638469093161
 21
172.3061663573206
 31
0.0
 11
267.7901837439645
 21
171.982029700973
 31
0.0
 11
267.9061423793906
 21
171.623606140459
 31
0.0
 11
268.0024957501366
 21
171.2595010538672
 31
0.0
 11
268.0845954147935
 21
170.8694381571817
 31
0.0
 11
268.1477075220407
 21
170.4758998923899
 31
0.0
 11
268.1938689713736
 21
170.0662125676842
 31
0.0
 11
268.221430864278
 21
169.6548743062886
 31
0.0
 11
268.2306649835181
 21
169.2380585002955
 31
0.0
 11
268.221430864278
 21
168.8212426943024
 31
0.0
 11
268.1938689713736
 21
168.4099044329068
 31
0.0
 11
268.1477075220406
 21
168.0002171082011
 31
0.0
 11
268.0845954147933
 21
167.6066788434093
 31
0.0
 11
268.0024957501365
 21
167.2166159467238
 31
0.0
 11
267.9061423793906
 21
166.852510860132
 31
0.0
 11
267.7901837439645
 21
166.494087299618
 31
0.0
 11
267.6638469093161
 21
166.1699506432704
 31
0.0
 11
267.5171405164305
 21
165.8543672722937
 31
0.0
 11
267.3648104951226
 21
165.579244212039
 31
0.0
 11
267.1914293982923
 21
165.3166178454935
 31
0.0
 11
267.0174386633045
 21
165.0977639457965
 31
0.0
 11
266.8223896873911
 21
164.8969548640099
 31
0.0
 11
266.6308177413188
 21
164.7398973922317
 31
0.0
 11
266.4202493664958
 21
164.6084432234198
 31
0.0
 11
266.2146032248527
 21
164.5178656387094
 31
0.0
 11
265.9966879436827
 21
164.4612727686105
 31
0.0
 11
265.7811752407349
 21
164.4422269769828
 31
0.0
 11
265.5656625377871
 21
164.4612727686105
 31
0.0
  0
SPLINE
  5
1B7
330
4B
100
AcDbEntity
  8
1
  6
Continuous
 62
     7
100
AcDbSpline
210
0.0
220
0.0
230
1.0
 70
    11
 71
     3
 72
    79
 73
    75
 74
    73
 42
0.0000000001
 43
0.0000000001
 44
0.00000001
 40
0.0
 40
0.0
 40
0.0
 40
0.0
 40
0.2251440043915674
 40
0.4498541163684111
 40
0.6980863442793359
 40
0.9458096979691566
 40
1.225753246444218
 40
1.505341882254262
 40
1.820037946962807
 40
2.134517093609428
 40
2.48253380261996
 40
2.830421094392968
 40
3.20713564662236
 40
3.583774048987494
 40
3.982383404506722
 40
4.380950216893979
 40
4.79322995618397
 40
5.205490581551527
 40
5.622408661135276
 40
6.039326740719024
 40
6.45158736608661
 40
6.86386710537657
 40
7.262433917763775
 40
7.661043273283003
 40
8.037681675648129
 40
8.414396227877557
 40
8.762283519650522
 40
9.11030022866108
 40
9.424779375307779
 40
9.739475440016324
 40
10.01906407582638
 40
10.29900762430146
 40
10.54673097799117
 40
10.79496320590209
 40
11.01967331787904
 40
11.24481732227054
 40
11.46116996799182
 40
11.67752261371311
 40
11.90266661810462
 40
12.12737673008145
 40
12.37560895799236
 40
12.6233323116821
 40
12.90327586015722
 40
13.1828644959673
 40
13.49756056067576
 40
13.8120397073224
 40
14.16005641633296
 40
14.50794370810599
 40
14.88465826033543
 40
15.26129666270057
 40
15.65990601821979
 40
16.058472830607
 40
16.47075256989695
 40
16.88301319526457
 40
17.29993127484829
 40
17.71684935443202
 40
18.12910997979958
 40
18.54138971908959
 40
18.93995653147681
 40
19.33856588699602
 40
19.71520428936114
 40
20.09191884159061
 40
20.43980613336364
 40
20.78782284237416
 40
21.10230198902076
 40
21.41699805372924
 40
21.69658668953928
 40
21.97653023801442
 40
22.22425359170416
 40
22.47248581961512
 40
22.69719593159195
 40
22.92233993598346
 40
23.13869258170475
 40
23.35504522742604
 40
23.35504522742604
 40
23.35504522742604
 40
23.35504522742604
 10
246.0781036566409
 20
164.4612727686105
 30
0.0
 10
246.1515387115996
 20
164.4776224386866
 30
0.0
 10
246.2982672991462
 20
164.510290270126
 30
0.0
 10
246.5111556415432
 20
164.6077206394705
 30
0.0
 10
246.7152885261454
 20
164.7353391429971
 30
0.0
 10
246.9150875580467
 20
164.9006420756351
 30
0.0
 10
247.1022397365152
 20
165.094679113833
 30
0.0
 10
247.2832744201209
 20
165.3235365204544
 30
0.0
 10
247.4496336654665
 20
165.5771304628971
 30
0.0
 10
247.6071185693621
 20
165.8625663908115
 30
0.0
 10
247.7485820432729
 20
166.1685074886847
 30
0.0
 10
247.8781897085808
 20
166.5019459841657
 30
0.0
 10
247.9907705679929
 20
166.8515522134491
 30
0.0
 10
248.0888441968534
 20
167.2229754670198
 30
0.0
 10
248.1691344202232
 20
167.6060920665443
 30
0.0
 10
248.2328925881712
 20
168.0043178334938
 30
0.0
 10
248.2783510389404
 20
168.4096255442178
 30
0.0
 10
248.3060208503529
 20
168.8226558129013
 30
0.0
 10
248.3151276384598
 20
169.2380585002927
 30
0.0
 10
248.3060208503546
 20
169.6534611877012
 30
0.0
 10
248.2783510389335
 20
170.0664914563336
 30
0.0
 10
248.2328925881971
 20
170.4717991672425
 30
0.0
 10
248.1691344201303
 20
170.870024933525
 30
0.0
 10
248.0888441971927
 20
171.2531415354755
 30
0.0
 10
247.9907705668035
 20
171.6245647804686
 30
0.0
 10
247.8781897128856
 20
171.9741710405766
 30
0.0
 10
247.7485820285655
 20
172.307609429392
 30
0.0
 10
247.6071186221788
 20
172.6135509061022
 30
0.0
 10
247.4496334892936
 20
172.8989855492948
 30
0.0
 10
247.2832750492395
 20
173.1525840097382
 30
0.0
 10
247.1022376766944
 20
173.3814263303598
 30
0.0
 10
246.9150949111528
 20
173.5755161787481
 30
0.0
 10
246.7152645493099
 20
173.740643338197
 30
0.0
 10
246.5112420933136
 20
173.8688813892647
 30
0.0
 10
246.2979782009801
 20
173.9642047770191
 30
0.0
 10
246.0820381004386
 20
174.0201919481087
 30
0.0
 10
245.862590953693
 20
174.0406026790154
 30
0.0
 10
245.6431438069477
 20
174.0201919481087
 30
0.0
 10
245.4272037064061
 20
173.9642047770191
 30
0.0
 10
245.2139398140726
 20
173.8688813892646
 30
0.0
 10
245.0099173580764
 20
173.740643338197
 30
0.0
 10
244.8100869962336
 20
173.5755161787479
 30
0.0
 10
244.6229442306919
 20
173.3814263303597
 30
0.0
 10
244.4419068581467
 20
173.1525840097382
 30
0.0
 10
244.2755484180926
 20
172.8989855492949
 30
0.0
 10
244.1180632852077
 20
172.6135509061022
 30
0.0
 10
243.976599878821
 20
172.3076094293919
 30
0.0
 10
243.8469921945008
 20
171.9741710405766
 30
0.0
 10
243.7344113405827
 20
171.6245647804686
 30
0.0
 10
243.6363377101934
 20
171.2531415354755
 30
0.0
 10
243.5560474872559
 20
170.870024933525
 30
0.0
 10
243.4922893191892
 20
170.4717991672424
 30
0.0
 10
243.446830868453
 20
170.0664914563338
 30
0.0
 10
243.4191610570316
 20
169.6534611877005
 30
0.0
 10
243.4100542689267
 20
169.2380585002952
 30
0.0
 10
243.4191610570314
 20
168.8226558128913
 30
0.0
 10
243.4468308684535
 20
168.4096255442545
 30
0.0
 10
243.4922893191874
 20
168.0043178333588
 30
0.0
 10
243.5560474872626
 20
167.6060920670293
 30
0.0
 10
243.6363377101694
 20
167.2229754652495
 30
0.0
 10
243.7344113406664
 20
166.8515522196529
 30
0.0
 10
243.846992194198
 20
166.5019459617137
 30
0.0
 10
243.9765998798559
 20
166.1685075653933
 30
0.0
 10
244.1180632814914
 20
165.8625661153383
 30
0.0
 10
244.2755484304883
 20
165.5771313817515
 30
0.0
 10
244.4419068138813
 20
165.3235332391988
 30
0.0
 10
244.6229443756228
 20
165.094689857113
 30
0.0
 10
244.8100864788625
 20
164.9006037244961
 30
0.0
 10
245.0099190451076
 20
164.7354641974912
 30
0.0
 10
245.2139337312501
 20
164.6072697383327
 30
0.0
 10
245.4272240476071
 20
164.5117981015024
 30
0.0
 10
245.6430687338054
 20
164.4563462420854
 30
0.0
 10
245.8628590252013
 20
164.4340103358802
 30
0.0
 10
246.0063554461611
 20
164.4521852910337
 30
0.0
 10
246.0781036566409
 20
164.4612727686105
 30
0.0
 11
246.0781036566409
 21
164.4612727686105
 31
0.0
 11
246.296018937811
 21
164.5178656387095
 31
0.0
 11
246.5016650794541
 21
164.6084432234198
 31
0.0
 11
246.712233454277
 21
164.7398973922317
 31
0.0
 11
246.9038054003494
 21
164.8969548640099
 31
0.0
 11
247.0988543762627
 21
165.0977639457965
 31
0.0
 11
247.2728451112504
 21
165.3166178454935
 31
0.0
 11
247.4462262080809
 21
165.579244212039
 31
0.0
 11
247.5985562293889
 21
165.8543672722937
 31
0.0
 11
247.7452626222747
 21
166.1699506432703
 31
0.0
 11
247.8715994569228
 21
166.494087299618
 31
0.0
 11
247.9875580923488
 21
166.852510860132
 31
0.0
 11
248.0839114630947
 21
167.2166159467238
 31
0.0
 11
248.1660111277516
 21
167.6066788434093
 31
0.0
 11
248.2291232349989
 21
168.0002171082011
 31
0.0
 11
248.2752846843319
 21
168.4099044329068
 31
0.0
 11
248.3028465772363
 21
168.8212426943024
 31
0.0
 11
248.3120806964763
 21
169.2380585002955
 31
0.0
 11
248.3028465772363
 21
169.6548743062886
 31
0.0
 11
248.2752846843319
 21
170.0662125676843
 31
0.0
 11
248.229123234999
 21
170.4758998923899
 31
0.0
 11
248.1660111277516
 21
170.8694381571817
 31
0.0
 11
248.0839114630947
 21
171.2595010538672
 31
0.0
 11
247.9875580923488
 21
171.623606140459
 31
0.0
 11
247.8715994569228
 21
171.982029700973
 31
0.0
 11
247.7452626222746
 21
172.3061663573207
 31
0.0
 11
247.5985562293888
 21
172.6217497282973
 31
0.0
 11
247.4462262080808
 21
172.896872788552
 31
0.0
 11
247.2728451112504
 21
173.1594991550976
 31
0.0
 11
247.0988543762628
 21
173.3783530547946
 31
0.0
 11
246.9038054003494
 21
173.5791621365812
 31
0.0
 11
246.7122334542771
 21
173.7362196083593
 31
0.0
 11
246.5016650794541
 21
173.8676737771712
 31
0.0
 11
246.2960189378109
 21
173.9582513618816
 31
0.0
 11
246.0781036566409
 21
174.0148442319805
 31
0.0
 11
245.8625909536931
 21
174.0338900236082
 31
0.0
 11
245.6470782507453
 21
174.0148442319805
 31
0.0
 11
245.4291629695753
 21
173.9582513618816
 31
0.0
 11
245.2235168279322
 21
173.8676737771712
 31
0.0
 11
245.0129484531092
 21
173.7362196083593
 31
0.0
 11
244.8213765070369
 21
173.5791621365812
 31
0.0
 11
244.6263275311235
 21
173.3783530547945
 31
0.0
 11
244.4523367961357
 21
173.1594991550976
 31
0.0
 11
244.2789556993054
 21
172.8968727885521
 31
0.0
 11
244.1266256779975
 21
172.6217497282973
 31
0.0
 11
243.9799192851119
 21
172.3061663573206
 31
0.0
 11
243.8535824504636
 21
171.982029700973
 31
0.0
 11
243.7376238150374
 21
171.623606140459
 31
0.0
 11
243.6412704442914
 21
171.2595010538672
 31
0.0
 11
243.5591707796345
 21
170.8694381571817
 31
0.0
 11
243.4960586723873
 21
170.4758998923899
 31
0.0
 11
243.4498972230545
 21
170.0662125676842
 31
0.0
 11
243.42233533015
 21
169.6548743062886
 31
0.0
 11
243.4131012109099
 21
169.2380585002955
 31
0.0
 11
243.42233533015
 21
168.8212426943024
 31
0.0
 11
243.4498972230545
 21
168.4099044329068
 31
0.0
 11
243.4960586723873
 21
168.0002171082011
 31
0.0
 11
243.5591707796346
 21
167.6066788434093
 31
0.0
 11
243.6412704442914
 21
167.2166159467238
 31
0.0
 11
243.7376238150374
 21
166.852510860132
 31
0.0
 11
243.8535824504636
 21
166.494087299618
 31
0.0
 11
243.9799192851119
 21
166.1699506432704
 31
0.0
 11
244.1266256779975
 21
165.8543672722937
 31
0.0
 11
244.2789556993054
 21
165.579244212039
 31
0.0
 11
244.4523367961357
 21
165.3166178454935
 31
0.0
 11
244.6263275311235
 21
165.0977639457965
 31
0.0
 11
244.8213765070369
 21
164.8969548640099
 31
0.0
 11
245.0129484531092
 21
164.7398973922317
 31
0.0
 11
245.2235168279322
 21
164.6084432234198
 31
0.0
 11
245.4291629695753
 21
164.5178656387094
 31
0.0
 11
245.6470782507453
 21
164.4612727686105
 31
0.0
 11
245.8625909536931
 21
164.4422269769828
 31
0.0
 11
246.0781036566409
 21
164.4612727686105
 31
0.0
  0
SPLINE
  5
1B8
330
4B
100
AcDbEntity
  8
1
  6
Continuous
 62
     7
100
AcDbSpline
210
0.0
220
0.0
230
1.0
 70
    11
 71
     3
 72
    79
 73
    75
 74
    73
 42
0.0000000001
 43
0.0000000001
 44
0.00000001
 40
0.0
 40
0.0
 40
0.0
 40
0.0
 40
0.3724305897016171
 40
0.7448259659054364
 40
1.122241116444178
 40
1.499594494002879
 40
1.884512815567103
 40
2.269356005872835
 40
2.663282545184309
 40
3.057133335632738
 40
3.460428049575119
 40
3.863655724149408
 40
4.275562502336131
 40
4.687416446300203
 40
5.106213939220851
 40
5.524975444234613
 40
5.948208199313498
 40
6.371422820826798
 40
6.796179387437184
 40
7.22093595404757
 40
7.644150575560953
 40
8.06738333063981
 40
8.486144835653628
 40
8.904942328574293
 40
9.316796272538321
 40
9.728703050725015
 40
10.1319307252993
 40
10.53522543924168
 40
10.92907622969017
 40
11.32300276900162
 40
11.70784595930734
 40
12.09276428087155
 40
12.47011765843023
 40
12.84753280896899
 40
13.21992818517281
 40
13.5923587748744
 40
13.96303024910142
 40
14.33370172332845
 40
14.70613231303006
 40
15.07852768923386
 40
15.45594283977258
 40
15.83329621733129
 40
16.21821453889555
 40
16.60305772920128
 40
16.99698426851269
 40
17.39083505896116
 40
17.79412977290351
 40
18.19735744747773
 40
18.60926422566443
 40
19.02111816962855
 40
19.43991566254923
 40
19.85867716756305
 40
20.28190992264193
 40
20.70512454415529
 40
21.12988111076567
 40
21.55463767737606
 40
21.97785229888939
 40
22.40108505396826
 40
22.81984655898198
 40
23.23864405190267
 40
23.65049799586679
 40
24.06240477405345
 40
24.46563244862767
 40
24.86892716257015
 40
25.2627779530186
 40
25.65670449233002
 40
26.04154768263571
 40
26.42646600419989
 40
26.80381938175863
 40
27.18123453229742
 40
27.55362990850123
 40
27.92606049820279
 40
28.29673197242975
 40
28.66740344665676
 40
28.66740344665676
 40
28.66740344665676
 40
28.66740344665676
 10
111.9420838785967
 20
174.0938427816867
 30
0.0
 10
112.0653012201802
 20
174.0778600618743
 30
0.0
 10
112.311724253086
 20
174.0458961334236
 30
0.0
 10
112.6744913378093
 20
173.9508605030724
 30
0.0
 10
113.028317686782
 20
173.823106440638
 30
0.0
 10
113.371599389992
 20
173.6589201232586
 30
0.0
 10
113.7000825324978
 20
173.4621241021762
 30
0.0
 10
114.0131490587011
 20
173.2321776200918
 30
0.0
 10
114.3064732892808
 20
172.9730315256865
 30
0.0
 10
114.579805312079
 20
172.6843885944962
 30
0.0
 10
114.8292636628496
 20
172.3709169564845
 30
0.0
 10
115.054653710248
 20
172.0324959845275
 30
0.0
 10
115.2528753358423
 20
171.6742194421959
 30
0.0
 10
115.4236216761609
 20
171.2963867616114
 30
0.0
 10
115.5647427839199
 20
170.9040932915886
 30
0.0
 10
115.6758149551014
 20
170.4983398177025
 30
0.0
 10
115.7556327336741
 20
170.0838019741674
 30
0.0
 10
115.8037977226442
 20
169.6624031351819
 30
0.0
 10
115.819896567277
 20
169.2380585002971
 30
0.0
 10
115.8037977226447
 20
168.8137138654037
 30
0.0
 10
115.7556327336721
 20
168.3923150264434
 30
0.0
 10
115.6758149551088
 20
167.9777771828159
 30
0.0
 10
115.5647427838928
 20
167.5720237092711
 30
0.0
 10
115.4236216762614
 20
167.179730237984
 30
0.0
 10
115.2528753354745
 20
166.8018975620428
 30
0.0
 10
115.0546537116098
 20
166.4436210025627
 30
0.0
 10
114.8292636578862
 20
166.1052000933178
 30
0.0
 10
114.5798053304358
 20
165.7917282240913
 30
0.0
 10
114.3064732225472
 20
165.5030861365527
 30
0.0
 10
114.0131493055762
 20
165.2439369327925
 30
0.0
 10
113.7000816346473
 20
165.0140018003842
 30
0.0
 10
113.3716027163065
 20
164.8171638977341
 30
0.0
 10
113.028305542666
 20
164.6531309659094
 30
0.0
 10
112.6745364437333
 20
164.5248092832555
 30
0.0
 10
112.3115583924791
 20
164.4318653347405
 30
0.0
 10
111.9432839830228
 20
164.376221327147
 30
0.0
 10
111.5718830972142
 20
164.3573044031158
 30
0.0
 10
111.2004822114056
 20
164.3762213271469
 30
0.0
 10
110.8322078019492
 20
164.4318653347405
 30
0.0
 10
110.4692297506951
 20
164.5248092832555
 30
0.0
 10
110.1154606517624
 20
164.6531309659094
 30
0.0
 10
109.7721634781218
 20
164.8171638977341
 30
0.0
 10
109.4436845597811
 20
165.0140018003841
 30
0.0
 10
109.1306168888521
 20
165.2439369327925
 30
0.0
 10
108.8372929718812
 20
165.5030861365527
 30
0.0
 10
108.5639608639926
 20
165.7917282240913
 30
0.0
 10
108.3145025365423
 20
166.1052000933177
 30
0.0
 10
108.0891124828186
 20
166.4436210025626
 30
0.0
 10
107.8908908589538
 20
166.8018975620426
 30
0.0
 10
107.720144518167
 20
167.179730237984
 30
0.0
 10
107.5790234105357
 20
167.5720237092711
 30
0.0
 10
107.4679512393196
 20
167.9777771828159
 30
0.0
 10
107.3881334607562
 20
168.3923150264433
 30
0.0
 10
107.3399684717836
 20
168.8137138654041
 30
0.0
 10
107.3238696271515
 20
169.2380585002957
 30
0.0
 10
107.3399684717836
 20
169.6624031351869
 30
0.0
 10
107.3881334607564
 20
170.0838019741493
 30
0.0
 10
107.4679512393191
 20
170.4983398177701
 30
0.0
 10
107.5790234105377
 20
170.9040932913393
 30
0.0
 10
107.7201445181599
 20
171.2963867625357
 30
0.0
 10
107.8908908589802
 20
171.6742194388097
 30
0.0
 10
108.0891124827211
 20
172.0324959970615
 30
0.0
 10
108.3145025368978
 20
172.3709169107981
 30
0.0
 10
108.5639608626778
 20
172.6843887634638
 30
0.0
 10
108.837292976661
 20
172.9730309114294
 30
0.0
 10
109.1306168711695
 20
173.2321798924805
 30
0.0
 10
109.44368462409
 20
173.4621158378145
 30
0.0
 10
109.7721632398731
 20
173.6589507406786
 30
0.0
 10
110.1154615215901
 20
173.8229946588116
 30
0.0
 10
110.4692265199634
 20
173.951275685416
 30
0.0
 10
110.8322196817887
 20
174.0443694515689
 30
0.0
 10
111.2004379391964
 20
174.0994567252587
 30
0.0
 10
111.5720474595564
 20
174.1204422101187
 30
0.0
 10
111.8187384055833
 20
174.1027092578307
 30
0.0
 10
111.9420838785968
 20
174.0938427816867
 30
0.0
 11
111.9420838785967
 21
174.0938427816867
 31
0.0
 11
112.3103216984544
 21
174.0381161976182
 31
0.0
 11
112.6711405301206
 21
173.9459853833754
 31
0.0
 11
113.0259400169743
 21
173.8173015849215
 31
0.0
 11
113.3665465240553
 21
173.6548738197794
 31
0.0
 11
113.6967691110177
 21
173.4570982971895
 31
0.0
 11
114.0071137978404
 21
173.2295231305179
 31
0.0
 11
114.3024225517278
 21
172.96881091705
 31
0.0
 11
114.5734219061543
 21
172.6830176437959
 31
0.0
 11
114.824672955379
 21
172.3675504718788
 31
0.0
 11
115.0483741446625
 21
172.032065247978
 31
0.0
 11
115.2479126241167
 21
171.6717159880464
 31
0.0
 11
115.4176715902292
 21
171.2964753125018
 31
0.0
 11
115.5595424854156
 21
170.9024397948443
 31
0.0
 11
115.6702121382738
 21
170.4985667627938
 31
0.0
 11
115.7503015869654
 21
170.0829808568972
 31
0.0
 11
115.7984080044398
 21
169.662509230672
 31
0.0
 11
115.8145237843334
 21
169.2380585002956
 31
0.0
 11
115.7984080044398
 21
168.8136077699192
 31
0.0
 11
115.7503015869654
 21
168.393136143694
 31
0.0
 11
115.6702121382738
 21
167.9775502377974
 31
0.0
 11
115.5595424854156
 21
167.5736772057468
 31
0.0
 11
115.4176715902292
 21
167.1796416880893
 31
0.0
 11
115.2479126241168
 21
166.8044010125447
 31
0.0
 11
115.0483741446625
 21
166.4440517526131
 31
0.0
 11
114.824672955379
 21
166.1085665287124
 31
0.0
 11
114.5734219061543
 21
165.7930993567953
 31
0.0
 11
114.3024225517278
 21
165.5073060835412
 31
0.0
 11
114.0071137978403
 21
165.2465938700733
 31
0.0
 11
113.6967691110177
 21
165.0190187034016
 31
0.0
 11
113.3665465240553
 21
164.8212431808117
 31
0.0
 11
113.0259400169744
 21
164.6588154156696
 31
0.0
 11
112.6711405301207
 21
164.5301316172157
 31
0.0
 11
112.3103216984545
 21
164.438000802973
 31
0.0
 11
111.9420838785968
 21
164.3822742189044
 31
0.0
 11
111.5718830972142
 21
164.3636000852076
 31
0.0
 11
111.2016823158316
 21
164.3822742189044
 31
0.0
 11
110.8334444959739
 21
164.438000802973
 31
0.0
 11
110.4726256643077
 21
164.5301316172157
 31
0.0
 11
110.117826177454
 21
164.6588154156696
 31
0.0
 11
109.777219670373
 21
164.8212431808117
 31
0.0
 11
109.4469970834107
 21
165.0190187034016
 31
0.0
 11
109.136652396588
 21
165.2465938700733
 31
0.0
 11
108.8413436427006
 21
165.5073060835412
 31
0.0
 11
108.5703442882741
 21
165.7930993567953
 31
0.0
 11
108.3190932390495
 21
166.1085665287124
 31
0.0
 11
108.0953920497659
 21
166.444051752613
 31
0.0
 11
107.8958535703116
 21
166.8044010125446
 31
0.0
 11
107.7260946041992
 21
167.1796416880893
 31
0.0
 11
107.5842237090128
 21
167.5736772057468
 31
0.0
 11
107.4735540561546
 21
167.9775502377974
 31
0.0
 11
107.393464607463
 21
168.393136143694
 31
0.0
 11
107.3453581899885
 21
168.8136077699192
 31
0.0
 11
107.329242410095
 21
169.2380585002956
 31
0.0
 11
107.3453581899885
 21
169.662509230672
 31
0.0
 11
107.3934646074629
 21
170.0829808568972
 31
0.0
 11
107.4735540561546
 21
170.4985667627938
 31
0.0
 11
107.5842237090128
 21
170.9024397948442
 31
0.0
 11
107.7260946041993
 21
171.2964753125018
 31
0.0
 11
107.8958535703116
 21
171.6717159880465
 31
0.0
 11
108.0953920497659
 21
172.032065247978
 31
0.0
 11
108.3190932390494
 21
172.3675504718787
 31
0.0
 11
108.5703442882741
 21
172.6830176437959
 31
0.0
 11
108.8413436427006
 21
172.96881091705
 31
0.0
 11
109.136652396588
 21
173.2295231305179
 31
0.0
 11
109.4469970834107
 21
173.4570982971895
 31
0.0
 11
109.777219670373
 21
173.6548738197793
 31
0.0
 11
110.117826177454
 21
173.8173015849215
 31
0.0
 11
110.4726256643077
 21
173.9459853833754
 31
0.0
 11
110.8334444959739
 21
174.0381161976182
 31
0.0
 11
111.2016823158316
 21
174.0938427816867
 31
0.0
 11
111.5718830972141
 21
174.1125169153835
 31
0.0
 11
111.9420838785968
 21
174.0938427816867
 31
0.0
  0
SPLINE
  5
1B9
330
4B
100
AcDbEntity
  8
1
  6
Continuous
 62
     7
100
AcDbSpline
210
0.0
220
0.0
230
1.0
 70
    11
 71
     3
 72
    79
 73
    75
 74
    73
 42
0.0000000001
 43
0.0000000001
 44
0.00000001
 40
0.0
 40
0.0
 40
0.0
 40
0.0
 40
0.3724305897016312
 40
0.7448259659054367
 40
1.122241116444191
 40
1.499594494002867
 40
1.884512815567079
 40
2.2693560058728
 40
2.663282545184273
 40
3.057133335632702
 40
3.460428049575093
 40
3.863655724149389
 40
4.275562502336105
 40
4.687416446300182
 40
5.106213939220845
 40
5.524975444234597
 40
5.948208199313485
 40
6.371422820826783
 40
6.796179387437169
 40
7.220935954047554
 40
7.644150575560938
 40
8.067383330639801
 40
8.486144835653615
 40
8.904942328574286
 40
9.316796272538332
 40
9.728703050725025
 40
10.13193072529928
 40
10.53522543924167
 40
10.92907622969016
 40
11.3230027690016
 40
11.7078459593073
 40
12.09276428087154
 40
12.47011765843026
 40
12.84753280896901
 40
13.21992818517282
 40
13.59235877487445
 40
13.96303024910145
 40
14.33370172332845
 40
14.70613231303002
 40
15.0785276892338
 40
15.45594283977253
 40
15.83329621733124
 40
16.2182145388955
 40
16.60305772920123
 40
16.99698426851267
 40
17.39083505896111
 40
17.79412977290347
 40
18.19735744747769
 40
18.60926422566439
 40
19.02111816962852
 40
19.43991566254921
 40
19.85867716756303
 40
20.2819099226419
 40
20.70512454415526
 40
21.12988111076565
 40
21.55463767737603
 40
21.97785229888936
 40
22.40108505396823
 40
22.81984655898194
 40
23.23864405190264
 40
23.65049799586677
 40
24.06240477405344
 40
24.46563244862767
 40
24.86892716257013
 40
25.26277795301859
 40
25.65670449232999
 40
26.04154768263568
 40
26.4264660041999
 40
26.80381938175861
 40
27.18123453229742
 40
27.55362990850121
 40
27.92606049820277
 40
28.29673197242974
 40
28.66740344665675
 40
28.66740344665675
 40
28.66740344665675
 40
28.66740344665675
 10
99.70168231583126
 20
174.0938427816867
 30
0.0
 10
99.57846497424782
 20
174.0778600618743
 30
0.0
 10
99.33204194134197
 20
174.0458961334236
 30
0.0
 10
98.96927485661867
 20
173.9508605030725
 30
0.0
 10
98.61544850764601
 20
173.823106440638
 30
0.0
 10
98.272166804436
 20
173.6589201232587
 30
0.0
 10
97.94368366193024
 20
173.4621241021762
 30
0.0
 10
97.63061713572695
 20
173.2321776200918
 30
0.0
 10
97.33729290514721
 20
172.9730315256865
 30
0.0
 10
97.06396088234908
 20
172.6843885944961
 30
0.0
 10
96.81450253157838
 20
172.3709169564844
 30
0.0
 10
96.58911248417996
 20
172.0324959845275
 30
0.0
 10
96.39089085858576
 20
171.6742194421959
 30
0.0
 10
96.22014451826711
 20
171.2963867616114
 30
0.0
 10
96.07902341050813
 20
170.9040932915886
 30
0.0
 10
95.96795123932655
 20
170.4983398177024
 30
0.0
 10
95.88813346075396
 20
170.0838019741674
 30
0.0
 10
95.83996847178385
 20
169.6624031351819
 30
0.0
 10
95.82386962715104
 20
169.238058500297
 30
0.0
 10
95.83996847178335
 20
168.8137138654036
 30
0.0
 10
95.88813346075588
 20
168.3923150264435
 30
0.0
 10
95.96795123931923
 20
167.9777771828158
 30
0.0
 10
96.07902341053526
 20
167.5720237092711
 30
0.0
 10
96.22014451816665
 20
167.179730237984
 30
0.0
 10
96.39089085895363
 20
166.8018975620428
 30
0.0
 10
96.58911248281828
 20
166.4436210025627
 30
0.0
 10
96.81450253654188
 20
166.1052000933177
 30
0.0
 10
97.06396086399229
 20
165.7917282240913
 30
0.0
 10
97.33729297188091
 20
165.5030861365527
 30
0.0
 10
97.63061688885185
 20
165.2439369327925
 30
0.0
 10
97.94368455978075
 20
165.0140018003841
 30
0.0
 10
98.27216347812154
 20
164.8171638977341
 30
0.0
 10
98.61546065176202
 20
164.6531309659093
 30
0.0
 10
98.96922975069484
 20
164.5248092832555
 30
0.0
 10
99.33220780194894
 20
164.4318653347405
 30
0.0
 10
99.70048221140533
 20
164.376221327147
 30
0.0
 10
100.0718830972139
 20
164.3573044031158
 30
0.0
 10
100.4432839830225
 20
164.376221327147
 30
0.0
 10
100.8115583924788
 20
164.4318653347405
 30
0.0
 10
101.1745364437329
 20
164.5248092832555
 30
0.0
 10
101.5283055426657
 20
164.6531309659093
 30
0.0
 10
101.8716027163061
 20
164.8171638977341
 30
0.0
 10
102.200081634647
 20
165.0140018003841
 30
0.0
 10
102.5131493055759
 20
165.2439369327925
 30
0.0
 10
102.8064732225468
 20
165.5030861365526
 30
0.0
 10
103.0798053304354
 20
165.7917282240913
 30
0.0
 10
103.3292636578857
 20
166.1052000933177
 30
0.0
 10
103.5546537116094
 20
166.4436210025626
 30
0.0
 10
103.7528753354742
 20
166.8018975620426
 30
0.0
 10
103.923621676261
 20
167.1797302379841
 30
0.0
 10
104.0647427838924
 20
167.5720237092711
 30
0.0
 10
104.1758149551085
 20
167.9777771828159
 30
0.0
 10
104.2556327336718
 20
168.3923150264434
 30
0.0
 10
104.3037977226445
 20
168.813713865404
 30
0.0
 10
104.3198965672766
 20
169.2380585002957
 30
0.0
 10
104.3037977226445
 20
169.6624031351868
 30
0.0
 10
104.2556327336716
 20
170.0838019741493
 30
0.0
 10
104.175814955109
 20
170.4983398177701
 30
0.0
 10
104.0647427838904
 20
170.9040932913392
 30
0.0
 10
103.9236216762682
 20
171.2963867625358
 30
0.0
 10
103.7528753354478
 20
171.6742194388097
 30
0.0
 10
103.5546537117069
 20
172.0324959970615
 30
0.0
 10
103.3292636575302
 20
172.3709169107981
 30
0.0
 10
103.0798053317503
 20
172.6843887634638
 30
0.0
 10
102.806473217767
 20
172.9730309114294
 30
0.0
 10
102.5131493232584
 20
173.2321798924806
 30
0.0
 10
102.2000815703381
 20
173.4621158378145
 30
0.0
 10
101.8716029545549
 20
173.6589507406786
 30
0.0
 10
101.528304672838
 20
173.8229946588117
 30
0.0
 10
101.1745396744646
 20
173.951275685416
 30
0.0
 10
100.8115465126393
 20
174.0443694515689
 30
0.0
 10
100.4433282552316
 20
174.0994567252587
 30
0.0
 10
100.0717187348716
 20
174.1204422101188
 30
0.0
 10
99.82502778884469
 20
174.1027092578306
 30
0.0
 10
99.70168231583126
 20
174.0938427816867
 30
0.0
 11
99.70168231583126
 21
174.0938427816867
 31
0.0
 11
99.33344449597355
 21
174.0381161976182
 31
0.0
 11
98.97262566430737
 21
173.9459853833754
 31
0.0
 11
98.61782617745367
 21
173.8173015849215
 31
0.0
 11
98.27721967037273
 21
173.6548738197794
 31
0.0
 11
97.94699708341037
 21
173.4570982971895
 31
0.0
 11
97.63665239658768
 21
173.2295231305179
 31
0.0
 11
97.34134364270022
 21
172.96881091705
 31
0.0
 11
97.07034428827372
 21
172.6830176437959
 31
0.0
 11
96.81909323904901
 21
172.3675504718788
 31
0.0
 11
96.59539204976554
 21
172.032065247978
 31
0.0
 11
96.39585357031132
 21
171.6717159880464
 31
0.0
 11
96.22609460419885
 21
171.2964753125018
 31
0.0
 11
96.08422370901235
 21
170.9024397948443
 31
0.0
 11
95.97355405615426
 21
170.4985667627938
 31
0.0
 11
95.89346460746263
 21
170.0829808568972
 31
0.0
 11
95.84535818998823
 21
169.662509230672
 31
0.0
 11
95.82924241009467
 21
169.2380585002956
 31
0.0
 11
95.84535818998822
 21
168.8136077699192
 31
0.0
 11
95.89346460746263
 21
168.393136143694
 31
0.0
 11
95.97355405615427
 21
167.9775502377974
 31
0.0
 11
96.08422370901239
 21
167.5736772057468
 31
0.0
 11
96.22609460419884
 21
167.1796416880893
 31
0.0
 11
96.39585357031129
 21
166.8044010125447
 31
0.0
 11
96.59539204976556
 21
166.4440517526131
 31
0.0
 11
96.81909323904905
 21
166.1085665287124
 31
0.0
 11
97.07034428827376
 21
165.7930993567953
 31
0.0
 11
97.3413436427003
 21
165.5073060835412
 31
0.0
 11
97.63665239658771
 21
165.2465938700733
 31
0.0
 11
97.94699708341034
 21
165.0190187034016
 31
0.0
 11
98.27721967037272
 21
164.8212431808117
 31
0.0
 11
98.61782617745368
 21
164.6588154156696
 31
0.0
 11
98.9726256643074
 21
164.5301316172157
 31
0.0
 11
99.3334444959736
 21
164.438000802973
 31
0.0
 11
99.70168231583129
 21
164.3822742189044
 31
0.0
 11
100.0718830972139
 21
164.3636000852076
 31
0.0
 11
100.4420838785965
 21
164.3822742189044
 31
0.0
 11
100.8103216984542
 21
164.438000802973
 31
0.0
 11
101.1711405301203
 21
164.5301316172157
 31
0.0
 11
101.525940016974
 21
164.6588154156696
 31
0.0
 11
101.866546524055
 21
164.8212431808117
 31
0.0
 11
102.1967691110174
 21
165.0190187034016
 31
0.0
 11
102.50711379784
 21
165.2465938700733
 31
0.0
 11
102.8024225517275
 21
165.5073060835412
 31
0.0
 11
103.0734219061539
 21
165.7930993567953
 31
0.0
 11
103.3246729553786
 21
166.1085665287124
 31
0.0
 11
103.5483741446621
 21
166.444051752613
 31
0.0
 11
103.7479126241165
 21
166.8044010125446
 31
0.0
 11
103.9176715902289
 21
167.1796416880893
 31
0.0
 11
104.0595424854153
 21
167.5736772057468
 31
0.0
 11
104.1702121382734
 21
167.9775502377974
 31
0.0
 11
104.2503015869651
 21
168.393136143694
 31
0.0
 11
104.2984080044395
 21
168.8136077699192
 31
0.0
 11
104.3145237843331
 21
169.2380585002956
 31
0.0
 11
104.2984080044396
 21
169.662509230672
 31
0.0
 11
104.2503015869651
 21
170.0829808568972
 31
0.0
 11
104.1702121382734
 21
170.4985667627938
 31
0.0
 11
104.0595424854153
 21
170.9024397948442
 31
0.0
 11
103.9176715902288
 21
171.2964753125018
 31
0.0
 11
103.7479126241164
 21
171.6717159880465
 31
0.0
 11
103.5483741446621
 21
172.032065247978
 31
0.0
 11
103.3246729553786
 21
172.3675504718787
 31
0.0
 11
103.0734219061539
 21
172.6830176437959
 31
0.0
 11
102.8024225517274
 21
172.96881091705
 31
0.0
 11
102.5071137978401
 21
173.2295231305179
 31
0.0
 11
102.1967691110174
 21
173.4570982971895
 31
0.0
 11
101.866546524055
 21
173.6548738197793
 31
0.0
 11
101.525940016974
 21
173.8173015849215
 31
0.0
 11
101.1711405301203
 21
173.9459853833754
 31
0.0
 11
100.8103216984541
 21
174.0381161976182
 31
0.0
 11
100.4420838785965
 21
174.0938427816867
 31
0.0
 11
100.0718830972139
 21
174.1125169153835
 31
0.0
 11
99.70168231583126
 21
174.0938427816867
 31
0.0
  0
ENDBLK
  5
4D
330
4B
100
AcDbEntity
  8
0
100
AcDbBlockEnd
  0
BLOCK
  5
4F
330
4E
100
AcDbEntity
  8
0
100
AcDbBlockBegin
  2
37-1-13
 70
     0
 71
     0
 10
378.3175889873587
 20
-448.4256338759111
 30
0.0
  3
37-1-13
  1

  0
LINE
  5
1BA
330
4E
100
AcDbEntity
  8
1
  6
Continuous
 62
     7
100
AcDbLine
 10
111.9921748245151
 20
433.7701327433637
 30
0.0
 11
118.8217455047092
 21
433.7701327433637
 31
0.0
  0
LINE
  5
1BB
330
4E
100
AcDbEntity
  8
1
  6
Continuous
 62
     7
100
AcDbLine
 10
106.7597342318921
 20
155.0076968941596
 30
0.0
 11
107.7975139329353
 21
154.4085345044027
 31
0.0
  0
LINE
  5
1BC
330
4E
100
AcDbEntity
  8
1
  6
Continuous
 62
     7
100
AcDbLine
 10
103.8462522614923
 20
154.4085345044027
 30
0.0
 11
104.8840319625356
 21
155.0076968941596
 31
0.0
  0
LINE
  5
1BD
330
4E
100
AcDbEntity
  8
1
  6
Continuous
 62
     7
100
AcDbLine
 10
94.79751393293553
 20
131.8918740060073
 30
0.0
 11
93.75973423189213
 21
132.4910363957642
 31
0.0
  0
LINE
  5
1BE
330
4E
100
AcDbEntity
  8
1
  6
Continuous
 62
     7
100
AcDbLine
 10
92.82188309721383
 20
134.115442210963
 30
0.0
 11
92.82188309721383
 21
135.313766990477
 31
0.0
  0
LINE
  5
1BF
330
4E
100
AcDbEntity
  8
1
  6
Continuous
 62
     7
100
AcDbLine
 10
117.8840319625356
 20
132.4910363957642
 30
0.0
 11
116.8462522614925
 21
131.8918740060075
 31
0.0
  0
LINE
  5
1C0
330
4E
100
AcDbEntity
  8
1
  6
Continuous
 62
     7
100
AcDbLine
 10
118.8218830972138
 20
135.3137669904764
 30
0.0
 11
118.8218830972138
 21
134.1154422109631
 31
0.0
  0
LINE
  5
1C1
330
4E
100
AcDbEntity
  8
1
  6
Continuous
 62
     7
100
AcDbLine
 10
239.3218830972141
 20
127.4673442860242
 30
0.0
 11
239.3218830972141
 21
153.6087727145671
 31
0.0
  0
LINE
  5
1C2
330
4E
100
AcDbEntity
  8
0
  6
Continuous
 62
     7
100
AcDbLine
 10
232.2511688829428
 20
135.6927117213988
 30
0.0
 11
232.2511688829428
 21
131.8627756937516
 31
0.0
  0
LINE
  5
1C3
330
4E
100
AcDbEntity
  8
0
  6
Continuous
 62
     7
100
AcDbLine
 10
232.2511688829428
 20
149.2133413068396
 30
0.0
 11
232.2511688829428
 21
145.3834052791925
 31
0.0
  0
LINE
  5
1C4
330
4E
100
AcDbEntity
  8
1
  6
Continuous
 62
     7
100
AcDbLine
 10
225.3218830972141
 20
146.5380585002956
 30
0.0
 11
225.3218830972141
 21
134.5380585002957
 31
0.0
  0
LINE
  5
1C5
330
4E
100
AcDbEntity
  8
1
  6
Continuous
 62
     7
100
AcDbLine
 10
92.82174550470933
 20
427.0073819821204
 30
0.0
 11
92.82174550470933
 21
433.7701327433637
 31
0.0
  0
LINE
  5
1C6
330
4E
100
AcDbEntity
  8
1
  6
Continuous
 62
     7
100
AcDbLine
 10
92.82174550470933
 20
433.7701327433637
 30
0.0
 11
99.65159136991289
 21
433.7701327433637
 31
0.0
  0
LINE
  5
1C7
330
4E
100
AcDbEntity
  8
1
  6
Continuous
 62
     7
100
AcDbLine
 10
118.8217455047092
 20
427.0072713448548
 30
0.0
 11
118.8217455047092
 21
433.7701327433637
 31
0.0
  0
LINE
  5
1C8
330
4E
100
AcDbEntity
  8
1
  6
Continuous
 62
     7
100
AcDbLine
 10
118.3217455047089
 20
426.2701327433637
 30
0.0
 11
105.821745504709
 21
426.2701327433637
 31
0.0
  0
LINE
  5
1C9
330
4E
100
AcDbEntity
  8
1
  6
Continuous
 62
     7
100
AcDbLine
 10
105.821745504709
 20
426.2701327433637
 30
0.0
 11
93.32174550470923
 21
426.2701327433637
 31
0.0
  0
LINE
  5
1CA
330
4E
100
AcDbEntity
  8
1
  6
Continuous
 62
     7
100
AcDbLine
 10
118.8217455047092
 20
426.6994185290926
 30
0.0
 11
118.8217455047092
 21
427.0072713448548
 31
0.0
  0
LINE
  5
1CB
330
4E
100
AcDbEntity
  8
1
  6
Continuous
 62
     7
100
AcDbLine
 10
92.82174550470933
 20
426.6994185290919
 30
0.0
 11
92.82174550470933
 21
427.0073819821204
 31
0.0
  0
LINE
  5
1CC
330
4E
100
AcDbEntity
  8
1
  6
Continuous
 62
     7
100
AcDbLine
 10
111.821745504709
 20
419.7701327433637
 30
0.0
 11
99.821745504709
 21
419.7701327433637
 31
0.0
  0
ARC
  5
1CD
330
4E
100
AcDbEntity
  8
1
  6
Continuous
 62
     7
100
AcDbCircle
 10
105.8218830972139
 20
140.5380585002956
 30
0.0
 40
14.50000000000003
100
AcDbArc
 50
86.2915552747296
 51
93.70844472527081
  0
ARC
  5
1CE
330
4E
100
AcDbEntity
  8
1
  6
Continuous
 62
     7
100
AcDbCircle
 10
105.8218830972139
 20
140.5380585002956
 30
0.0
 40
14.50000000000007
100
AcDbArc
 50
-153.7084447252707
 51
-146.2915552747296
  0
ARC
  5
1CF
330
4E
100
AcDbEntity
  8
1
  6
Continuous
 62
     7
100
AcDbCircle
 10
105.8218830972139
 20
140.5380585002956
 30
0.0
 40
14.49999999999994
100
AcDbArc
 50
-33.7084447252706
 51
-26.2915552747293
  0
ARC
  5
1D0
330
4E
100
AcDbEntity
  8
1
  6
Continuous
 62
     7
100
AcDbCircle
 10
211.9154278920992
 20
166.4445137054105
 30
0.0
 40
23.99999999999998
100
AcDbArc
 50
-56.04080749990246
 51
-33.95919250009762
  0
ARC
  5
1D1
330
4E
100
AcDbEntity
  8
1
  6
Continuous
 62
     7
100
AcDbCircle
 10
235.8218830972141
 20
150.0380585002956
 30
0.0
 40
5.000000000000057
100
AcDbArc
 50
45.57299599919494
 51
143.1301023541568
  0
ARC
  5
1D2
330
4E
100
AcDbEntity
  8
1
  6
Continuous
 62
     7
100
AcDbCircle
 10
235.8218830972141
 20
131.0380585002956
 30
0.0
 40
4.999999999999881
100
AcDbArc
 50
-143.1301023541578
 51
-45.57299599919402
  0
ARC
  5
1D3
330
4E
100
AcDbEntity
  8
1
  6
Continuous
 62
     7
100
AcDbCircle
 10
211.9154278920992
 20
114.6316032951808
 30
0.0
 40
24.00000000000004
100
AcDbArc
 50
33.95919250009764
 51
56.04080749990249
  0
ARC
  5
1D4
330
4E
100
AcDbEntity
  8
1
  6
Continuous
 62
     7
100
AcDbCircle
 10
115.321745504709
 20
430.2701327433637
 30
0.0
 40
4.999999999999941
100
AcDbArc
 50
-53.1301023541569
 51
-45.57299599919011
  0
ARC
  5
1D5
330
4E
100
AcDbEntity
  8
1
  6
Continuous
 62
     7
100
AcDbCircle
 10
96.32174550470903
 20
430.2701327433637
 30
0.0
 40
5.000000000000092
100
AcDbArc
 50
-134.4270040007999
 51
-126.8698976458422
  0
ARC
  5
1D6
330
4E
100
AcDbEntity
  8
1
  6
Continuous
 62
     7
100
AcDbCircle
 10
79.91529029959423
 20
406.3636775382486
 30
0.0
 40
23.99999999999997
100
AcDbArc
 50
33.95919250009804
 51
56.04080749990259
  0
ARC
  5
1D7
330
4E
100
AcDbEntity
  8
1
  6
Continuous
 62
     7
100
AcDbCircle
 10
131.7282007098239
 20
406.3636775382486
 30
0.0
 40
24.00000000000019
100
AcDbArc
 50
123.9591925000975
 51
146.0408074999021
  0
SPLINE
  5
1D8
330
4E
100
AcDbEntity
  8
1
  6
Continuous
 62
     7
100
AcDbSpline
210
0.0
220
0.0
230
1.0
 70
    11
 71
     3
 72
    79
 73
    75
 74
    73
 42
0.0000000001
 43
0.0000000001
 44
0.00000001
 40
0.0
 40
0.0
 40
0.0
 40
0.0
 40
0.2813091385367265
 40
0.5626019606352407
 40
0.8464226525144079
 40
1.130214060738723
 40
1.41783571126218
 40
1.705420542401918
 40
1.997635978226898
 40
2.28981285437118
 40
2.586839035183133
 40
2.883829792124879
 40
3.185307045384598
 40
3.486755461402766
 40
3.791812980111064
 40
4.096850365689704
 40
4.404220799428707
 40
4.711580931801325
 40
5.019747232346072
 40
5.327913532890879
 40
5.635273665263497
 40
5.94264409900251
 40
6.247681484581135
 40
6.552739003289453
 40
6.854187419307582
 40
7.155664672567301
 40
7.45265542950907
 40
7.749681610321066
 40
8.041858486465369
 40
8.334073922290253
 40
8.621658753429983
 40
8.909280403953483
 40
9.193071812177822
 40
9.476892504057007
 40
9.758185326155473
 40
10.03949446469225
 40
10.31992040211366
 40
10.60034633953501
 40
10.88165547807174
 40
11.16294830017021
 40
11.44676899204935
 40
11.73056040027366
 40
12.01818205079718
 40
12.30576688193695
 40
12.5979823177619
 40
12.89015919390625
 40
13.1871853747182
 40
13.48417613165996
 40
13.78565338491959
 40
14.08710180093776
 40
14.39215931964604
 40
14.69719670522472
 40
15.00456713896373
 40
15.31192727133637
 40
15.62009357188118
 40
15.92825987242593
 40
16.23562000479855
 40
16.54299043853764
 40
16.84802782411628
 40
17.15308534282458
 40
17.45453375884267
 40
17.75601101210238
 40
18.05300176904416
 40
18.35002794985602
 40
18.64220482600037
 40
18.93442026182537
 40
19.22200509296518
 40
19.50962674348867
 40
19.79341815171298
 40
20.07723884359208
 40
20.35853166569055
 40
20.63984080422728
 40
20.92026674164865
 40
21.20069267907003
 40
21.20069267907003
 40
21.20069267907003
 40
21.20069267907003
 10
232.2646908679707
 20
152.0764884858363
 30
0.0
 10
232.2762622714577
 20
152.1696154368572
 30
0.0
 10
232.2994044072693
 20
152.3558639373677
 30
0.0
 10
232.3681665476366
 20
152.6301655224736
 30
0.0
 10
232.4607346744711
 20
152.8979094510507
 30
0.0
 10
232.5795870103017
 20
153.1575220870563
 30
0.0
 10
232.7222489259352
 20
153.4062391839748
 30
0.0
 10
232.888791826869
 20
153.6430830993507
 30
0.0
 10
233.0767495461922
 20
153.8652985186668
 30
0.0
 10
233.2859117579993
 20
154.0721615706698
 30
0.0
 10
233.5133643344822
 20
154.2612203055412
 30
0.0
 10
233.7587099188353
 20
154.4318602502025
 30
0.0
 10
234.0187384771752
 20
154.5821239790684
 30
0.0
 10
234.2927612232315
 20
154.7114313311952
 30
0.0
 10
234.5775089086148
 20
154.818422133143
 30
0.0
 10
234.8718717581636
 20
154.902554472319
 30
0.0
 10
235.1727622381324
 20
154.963073456524
 30
0.0
 10
235.4785485600901
 20
154.9995545945187
 30
0.0
 10
235.7865259900774
 20
155.0117733760517
 30
0.0
 10
236.0945034200707
 20
154.9995545945189
 30
0.0
 10
236.400289742011
 20
154.9630734565226
 30
0.0
 10
236.701180222043
 20
154.9025544723239
 30
0.0
 10
236.9955430713577
 20
154.8184221331253
 30
0.0
 10
237.2802907576102
 20
154.7114313312613
 30
0.0
 10
237.5543135004586
 20
154.5821239788249
 30
0.0
 10
237.8143420706832
 20
154.4318602511061
 30
0.0
 10
238.059687611312
 20
154.2612203022242
 30
0.0
 10
238.2871403495964
 20
154.0721615829715
 30
0.0
 10
238.4963019669511
 20
153.8652984735863
 30
0.0
 10
238.6842618857428
 20
153.6430832665837
 30
0.0
 10
238.8507967020012
 20
153.406238570798
 30
0.0
 10
238.993488559222
 20
153.1575243641262
 30
0.0
 10
239.1122305663843
 20
152.8979010781489
 30
0.0
 10
239.2052081115176
 20
152.6301966705175
 30
0.0
 10
239.2724551893248
 20
152.3557488371731
 30
0.0
 10
239.3127705354194
 20
152.0772100145143
 30
0.0
 10
239.3264322143922
 20
151.796388749493
 30
0.0
 10
239.3127705354194
 20
151.5155674844716
 30
0.0
 10
239.2724551893249
 20
151.237028661813
 30
0.0
 10
239.2052081115175
 20
150.9625808284685
 30
0.0
 10
239.1122305663843
 20
150.6948764208372
 30
0.0
 10
238.9934885592219
 20
150.4352531348599
 30
0.0
 10
238.8507967020013
 20
150.186538928188
 30
0.0
 10
238.6842618857429
 20
149.9496942324023
 30
0.0
 10
238.4963019669511
 20
149.7274790253996
 30
0.0
 10
238.2871403495964
 20
149.5206159160145
 30
0.0
 10
238.059687611312
 20
149.3315571967617
 30
0.0
 10
237.8143420706832
 20
149.1609172478799
 30
0.0
 10
237.5543135004586
 20
149.0106535201612
 30
0.0
 10
237.2802907576103
 20
148.8813461677247
 30
0.0
 10
236.9955430713577
 20
148.7743553658609
 30
0.0
 10
236.7011802220431
 20
148.6902230266622
 30
0.0
 10
236.400289742011
 20
148.6297040424632
 30
0.0
 10
236.0945034200705
 20
148.5932229044669
 30
0.0
 10
235.7865259900783
 20
148.5810041229343
 30
0.0
 10
235.4785485600867
 20
148.5932229044669
 30
0.0
 10
235.1727622381447
 20
148.6297040424633
 30
0.0
 10
234.8718717581173
 20
148.6902230266618
 30
0.0
 10
234.5775089087858
 20
148.7743553658621
 30
0.0
 10
234.2927612225956
 20
148.8813461677199
 30
0.0
 10
234.0187384795173
 20
149.0106535201785
 30
0.0
 10
233.7587099101447
 20
149.1609172478151
 30
0.0
 10
233.5133643663814
 20
149.3315571969994
 30
0.0
 10
233.2859116396957
 20
149.5206159151326
 30
0.0
 10
233.0767499797289
 20
149.7274790286312
 30
0.0
 10
232.8887902186014
 20
149.9496942204146
 30
0.0
 10
232.7222548228096
 20
150.1865389721423
 30
0.0
 10
232.5795651118903
 20
150.4352529716328
 30
0.0
 10
232.4608151960429
 20
150.6948770210315
 30
0.0
 10
232.367866999224
 20
150.9625785956847
 30
0.0
 10
232.3005113172525
 20
151.2370369125352
 30
0.0
 10
232.2606001294532
 20
151.515536721994
 30
0.0
 10
232.2454345512146
 20
151.7965031576663
 30
0.0
 10
232.2582720957187
 20
151.983160043113
 30
0.0
 10
232.2646908679707
 20
152.0764884858363
 30
0.0
 11
232.2646908679707
 21
152.0764884858363
 31
0.0
 11
232.3050461121106
 21
152.3548879931898
 31
0.0
 11
232.3718544546695
 21
152.6281320180626
 31
0.0
 11
232.4649849558586
 21
152.8962381442273
 31
0.0
 11
232.5828755692351
 21
153.1543841623249
 31
0.0
 11
232.7259825826919
 21
153.403876840673
 31
0.0
 11
232.8912628732856
 21
153.6392222477727
 31
0.0
 11
233.0799356657886
 21
153.8623644407876
 31
0.0
 11
233.287566079091
 21
154.0679293658728
 31
0.0
 11
233.5159451618208
 21
154.2578439431417
 31
0.0
 11
233.7596869686328
 21
154.4275302458325
 31
0.0
 11
234.0206831852818
 21
154.5784259353931
 31
0.0
 11
234.2932582451601
 21
154.7071659223909
 31
0.0
 11
234.5788062137368
 21
154.8145085856808
 31
0.0
 11
234.8720794825353
 21
154.89840492892
 31
0.0
 11
235.1734104457152
 21
154.9590368855595
 31
0.0
 11
235.4786017042957
 21
154.995486119546
 31
0.0
 11
235.7865259900784
 21
155.0076968941593
 31
0.0
 11
236.0944502758611
 21
154.9954861195459
 31
0.0
 11
236.3996415344415
 21
154.9590368855594
 31
0.0
 11
236.7009724976215
 21
154.89840492892
 31
0.0
 11
236.99424576642
 21
154.8145085856809
 31
0.0
 11
237.2797937349968
 21
154.707165922391
 31
0.0
 11
237.552368794875
 21
154.5784259353931
 31
0.0
 11
237.8133650115239
 21
154.4275302458325
 31
0.0
 11
238.0571068183359
 21
154.2578439431417
 31
0.0
 11
238.2854859010658
 21
154.0679293658728
 31
0.0
 11
238.4931163143683
 21
153.8623644407876
 31
0.0
 11
238.6817891068712
 21
153.6392222477728
 31
0.0
 11
238.8470693974648
 21
153.403876840673
 31
0.0
 11
238.9901764109216
 21
153.1543841623249
 31
0.0
 11
239.1080670242982
 21
152.8962381442273
 31
0.0
 11
239.2011975254874
 21
152.6281320180626
 31
0.0
 11
239.2680058680463
 21
152.3548879931898
 31
0.0
 11
239.3083611121862
 21
152.0764884858363
 31
0.0
 11
239.3218830972141
 21
151.796388749493
 31
0.0
 11
239.3083611121862
 21
151.5162890131497
 31
0.0
 11
239.2680058680463
 21
151.2378895057962
 31
0.0
 11
239.2011975254873
 21
150.9646454809235
 31
0.0
 11
239.1080670242982
 21
150.6965393547588
 31
0.0
 11
238.9901764109216
 21
150.4383933366613
 31
0.0
 11
238.8470693974648
 21
150.1889006583131
 31
0.0
 11
238.6817891068712
 21
149.9535552512133
 31
0.0
 11
238.4931163143683
 21
149.7304130581983
 31
0.0
 11
238.2854859010658
 21
149.5248481331131
 31
0.0
 11
238.0571068183359
 21
149.3349335558442
 31
0.0
 11
237.8133650115239
 21
149.1652472531535
 31
0.0
 11
237.552368794875
 21
149.014351563593
 31
0.0
 11
237.2797937349968
 21
148.8856115765951
 31
0.0
 11
236.9942457664201
 21
148.7782689133052
 31
0.0
 11
236.7009724976215
 21
148.694372570066
 31
0.0
 11
236.3996415344416
 21
148.6337406134264
 31
0.0
 11
236.0944502758611
 21
148.5972913794399
 31
0.0
 11
235.7865259900784
 21
148.5850806048267
 31
0.0
 11
235.4786017042957
 21
148.5972913794399
 31
0.0
 11
235.1734104457152
 21
148.6337406134264
 31
0.0
 11
234.8720794825352
 21
148.694372570066
 31
0.0
 11
234.5788062137367
 21
148.7782689133051
 31
0.0
 11
234.29325824516
 21
148.885611576595
 31
0.0
 11
234.0206831852817
 21
149.0143515635928
 31
0.0
 11
233.7596869686328
 21
149.1652472531534
 31
0.0
 11
233.5159451618208
 21
149.3349335558442
 31
0.0
 11
233.2875660790911
 21
149.524848133113
 31
0.0
 11
233.0799356657886
 21
149.7304130581983
 31
0.0
 11
232.8912628732856
 21
149.9535552512133
 31
0.0
 11
232.7259825826919
 21
150.1889006583131
 31
0.0
 11
232.5828755692351
 21
150.4383933366613
 31
0.0
 11
232.4649849558586
 21
150.6965393547588
 31
0.0
 11
232.3718544546696
 21
150.9646454809235
 31
0.0
 11
232.3050461121106
 21
151.2378895057962
 31
0.0
 11
232.2646908679707
 21
151.5162890131497
 31
0.0
 11
232.2511688829428
 21
151.796388749493
 31
0.0
 11
232.2646908679707
 21
152.0764884858363
 31
0.0
  0
SPLINE
  5
1D9
330
4E
100
AcDbEntity
  8
1
  6
Continuous
 62
     7
100
AcDbSpline
210
0.0
220
0.0
230
1.0
 70
    11
 71
     3
 72
    79
 73
    75
 74
    73
 42
0.0000000001
 43
0.0000000001
 44
0.00000001
 40
0.0
 40
0.0
 40
0.0
 40
0.0
 40
0.2813091385367546
 40
0.5626019606352413
 40
0.8464226525144083
 40
1.130214060738749
 40
1.417835711262206
 40
1.705420542401944
 40
1.997635978226903
 40
2.289812854371195
 40
2.586839035183139
 40
2.883829792124884
 40
3.185307045384604
 40
3.486755461402772
 40
3.791812980111079
 40
4.096850365689717
 40
4.404220799428716
 40
4.711580931801337
 40
5.019747232346085
 40
5.327913532890892
 40
5.635273665263513
 40
5.942644099002532
 40
6.24768148458115
 40
6.552739003289457
 40
6.854187419307586
 40
7.155664672567319
 40
7.45265542950908
 40
7.749681610321086
 40
8.041858486465388
 40
8.334073922290273
 40
8.621658753429967
 40
8.909280403953478
 40
9.193071812177816
 40
9.476892504057055
 40
9.758185326155521
 40
10.03949446469224
 40
10.31992040211362
 40
10.600346339535
 40
10.88165547807173
 40
11.1629483001702
 40
11.44676899204936
 40
11.73056040027367
 40
12.01818205079719
 40
12.30576688193695
 40
12.5979823177619
 40
12.89015919390624
 40
13.18718537471823
 40
13.48417613165998
 40
13.78565338491962
 40
14.08710180093779
 40
14.39215931964609
 40
14.69719670522476
 40
15.00456713896376
 40
15.3119272713364
 40
15.6200935718812
 40
15.92825987242595
 40
16.23562000479857
 40
16.54299043853766
 40
16.84802782411631
 40
17.1530853428246
 40
17.4545337588427
 40
17.7560110121024
 40
18.05300176904419
 40
18.35002794985606
 40
18.64220482600036
 40
18.93442026182539
 40
19.22200509296519
 40
19.50962674348869
 40
19.79341815171295
 40
20.07723884359204
 40
20.35853166569057
 40
20.63984080422733
 40
20.92026674164873
 40
21.20069267907006
 40
21.20069267907006
 40
21.20069267907006
 40
21.20069267907006
 10
232.2646908679707
 20
128.9996285147548
 30
0.0
 10
232.2762622714577
 20
128.9065015637338
 30
0.0
 10
232.2994044072692
 20
128.7202530632234
 30
0.0
 10
232.3681665476368
 20
128.4459514781173
 30
0.0
 10
232.4607346744711
 20
128.1782075495403
 30
0.0
 10
232.5795870103016
 20
127.9185949135347
 30
0.0
 10
232.7222489259352
 20
127.6698778166162
 30
0.0
 10
232.8887918268689
 20
127.4330339012403
 30
0.0
 10
233.0767495461923
 20
127.2108184819242
 30
0.0
 10
233.2859117579993
 20
127.0039554299211
 30
0.0
 10
233.5133643344821
 20
126.8148966950498
 30
0.0
 10
233.7587099188353
 20
126.6442567503886
 30
0.0
 10
234.0187384771752
 20
126.4939930215226
 30
0.0
 10
234.2927612232315
 20
126.3646856693958
 30
0.0
 10
234.5775089086148
 20
126.257694867448
 30
0.0
 10
234.8718717581635
 20
126.1735625282719
 30
0.0
 10
235.1727622381324
 20
126.1130435440671
 30
0.0
 10
235.47854856009
 20
126.0765624060723
 30
0.0
 10
235.7865259900775
 20
126.0643436245392
 30
0.0
 10
236.0945034200706
 20
126.0765624060721
 30
0.0
 10
236.4002897420109
 20
126.1130435440683
 30
0.0
 10
236.701180222043
 20
126.1735625282672
 30
0.0
 10
236.9955430713577
 20
126.2576948674658
 30
0.0
 10
237.2802907576103
 20
126.3646856693296
 30
0.0
 10
237.5543135004585
 20
126.4939930217661
 30
0.0
 10
237.8143420706832
 20
126.6442567494849
 30
0.0
 10
238.059687611312
 20
126.8148966983668
 30
0.0
 10
238.2871403495965
 20
127.0039554176195
 30
0.0
 10
238.496301966951
 20
127.2108185270047
 30
0.0
 10
238.6842618857428
 20
127.4330337340073
 30
0.0
 10
238.8507967020013
 20
127.6698784297929
 30
0.0
 10
238.993488559222
 20
127.9185926364648
 30
0.0
 10
239.1122305663843
 20
128.1782159224421
 30
0.0
 10
239.2052081115177
 20
128.4459203300735
 30
0.0
 10
239.2724551893249
 20
128.720368163418
 30
0.0
 10
239.3127705354193
 20
128.9989069860767
 30
0.0
 10
239.3264322143922
 20
129.279728251098
 30
0.0
 10
239.3127705354194
 20
129.5605495161193
 30
0.0
 10
239.2724551893248
 20
129.839088338778
 30
0.0
 10
239.2052081115176
 20
130.1135361721225
 30
0.0
 10
239.1122305663843
 20
130.3812405797538
 30
0.0
 10
238.993488559222
 20
130.6408638657311
 30
0.0
 10
238.8507967020013
 20
130.889578072403
 30
0.0
 10
238.6842618857429
 20
131.1264227681887
 30
0.0
 10
238.496301966951
 20
131.3486379751914
 30
0.0
 10
238.2871403495965
 20
131.5555010845766
 30
0.0
 10
238.0596876113121
 20
131.7445598038294
 30
0.0
 10
237.8143420706831
 20
131.915199752711
 30
0.0
 10
237.5543135004587
 20
132.06546348043
 30
0.0
 10
237.2802907576102
 20
132.1947708328663
 30
0.0
 10
236.9955430713577
 20
132.3017616347303
 30
0.0
 10
236.7011802220431
 20
132.3858939739289
 30
0.0
 10
236.4002897420111
 20
132.4464129581278
 30
0.0
 10
236.0945034200704
 20
132.482894096124
 30
0.0
 10
235.7865259900783
 20
132.4951128776567
 30
0.0
 10
235.4785485600866
 20
132.4828940961241
 30
0.0
 10
235.1727622381448
 20
132.4464129581277
 30
0.0
 10
234.8718717581173
 20
132.3858939739292
 30
0.0
 10
234.5775089087859
 20
132.3017616347289
 30
0.0
 10
234.2927612225956
 20
132.1947708328711
 30
0.0
 10
234.0187384795173
 20
132.0654634804125
 30
0.0
 10
233.7587099101447
 20
131.915199752776
 30
0.0
 10
233.5133643663815
 20
131.7445598035916
 30
0.0
 10
233.2859116396956
 20
131.5555010854584
 30
0.0
 10
233.0767499797289
 20
131.3486379719598
 30
0.0
 10
232.8887902186014
 20
131.1264227801764
 30
0.0
 10
232.7222548228095
 20
130.8895780284488
 30
0.0
 10
232.5795651118903
 20
130.6408640289582
 30
0.0
 10
232.4608151960429
 20
130.3812399795595
 30
0.0
 10
232.367866999224
 20
130.1135384049064
 30
0.0
 10
232.3005113172525
 20
129.8390800880558
 30
0.0
 10
232.2606001294532
 20
129.560580278597
 30
0.0
 10
232.2454345512146
 20
129.2796138429247
 30
0.0
 10
232.2582720957187
 20
129.0929569574781
 30
0.0
 10
232.2646908679707
 20
128.9996285147548
 30
0.0
 11
232.2646908679707
 21
128.9996285147548
 31
0.0
 11
232.3050461121106
 21
128.7212290074012
 31
0.0
 11
232.3718544546695
 21
128.4479849825285
 31
0.0
 11
232.4649849558586
 21
128.1798788563638
 31
0.0
 11
232.5828755692351
 21
127.9217328382661
 31
0.0
 11
232.7259825826919
 21
127.672240159918
 31
0.0
 11
232.8912628732856
 21
127.4368947528183
 31
0.0
 11
233.0799356657886
 21
127.2137525598034
 31
0.0
 11
233.287566079091
 21
127.0081876347182
 31
0.0
 11
233.5159451618208
 21
126.8182730574493
 31
0.0
 11
233.7596869686328
 21
126.6485867547585
 31
0.0
 11
234.0206831852818
 21
126.497691065198
 31
0.0
 11
234.2932582451601
 21
126.3689510782001
 31
0.0
 11
234.5788062137368
 21
126.2616084149102
 31
0.0
 11
234.8720794825353
 21
126.177712071671
 31
0.0
 11
235.1734104457152
 21
126.1170801150315
 31
0.0
 11
235.4786017042957
 21
126.080630881045
 31
0.0
 11
235.7865259900784
 21
126.0684201064317
 31
0.0
 11
236.0944502758611
 21
126.080630881045
 31
0.0
 11
236.3996415344415
 21
126.1170801150316
 31
0.0
 11
236.7009724976215
 21
126.177712071671
 31
0.0
 11
236.99424576642
 21
126.2616084149101
 31
0.0
 11
237.2797937349968
 21
126.3689510782
 31
0.0
 11
237.552368794875
 21
126.4976910651979
 31
0.0
 11
237.8133650115239
 21
126.6485867547585
 31
0.0
 11
238.0571068183359
 21
126.8182730574493
 31
0.0
 11
238.2854859010658
 21
127.0081876347182
 31
0.0
 11
238.4931163143683
 21
127.2137525598034
 31
0.0
 11
238.6817891068712
 21
127.4368947528183
 31
0.0
 11
238.8470693974648
 21
127.672240159918
 31
0.0
 11
238.9901764109216
 21
127.9217328382661
 31
0.0
 11
239.1080670242982
 21
128.1798788563637
 31
0.0
 11
239.2011975254874
 21
128.4479849825285
 31
0.0
 11
239.2680058680463
 21
128.7212290074012
 31
0.0
 11
239.3083611121862
 21
128.9996285147547
 31
0.0
 11
239.3218830972141
 21
129.279728251098
 31
0.0
 11
239.3083611121862
 21
129.5598279874413
 31
0.0
 11
239.2680058680463
 21
129.8382274947948
 31
0.0
 11
239.2011975254873
 21
130.1114715196675
 31
0.0
 11
239.1080670242982
 21
130.3795776458322
 31
0.0
 11
238.9901764109216
 21
130.6377236639297
 31
0.0
 11
238.8470693974648
 21
130.8872163422779
 31
0.0
 11
238.6817891068712
 21
131.1225617493777
 31
0.0
 11
238.4931163143683
 21
131.3457039423927
 31
0.0
 11
238.2854859010658
 21
131.5512688674779
 31
0.0
 11
238.0571068183359
 21
131.7411834447468
 31
0.0
 11
237.8133650115239
 21
131.9108697474375
 31
0.0
 11
237.552368794875
 21
132.0617654369981
 31
0.0
 11
237.2797937349968
 21
132.190505423996
 31
0.0
 11
236.9942457664201
 21
132.2978480872859
 31
0.0
 11
236.7009724976215
 21
132.3817444305251
 31
0.0
 11
236.3996415344416
 21
132.4423763871646
 31
0.0
 11
236.0944502758611
 21
132.4788256211511
 31
0.0
 11
235.7865259900784
 21
132.4910363957643
 31
0.0
 11
235.4786017042957
 21
132.4788256211511
 31
0.0
 11
235.1734104457152
 21
132.4423763871646
 31
0.0
 11
234.8720794825352
 21
132.381744430525
 31
0.0
 11
234.5788062137367
 21
132.2978480872858
 31
0.0
 11
234.29325824516
 21
132.190505423996
 31
0.0
 11
234.0206831852817
 21
132.0617654369981
 31
0.0
 11
233.7596869686328
 21
131.9108697474376
 31
0.0
 11
233.5159451618208
 21
131.7411834447468
 31
0.0
 11
233.2875660790911
 21
131.5512688674779
 31
0.0
 11
233.0799356657886
 21
131.3457039423927
 31
0.0
 11
232.8912628732856
 21
131.1225617493777
 31
0.0
 11
232.7259825826919
 21
130.8872163422779
 31
0.0
 11
232.5828755692351
 21
130.6377236639298
 31
0.0
 11
232.4649849558586
 21
130.3795776458322
 31
0.0
 11
232.3718544546696
 21
130.1114715196676
 31
0.0
 11
232.3050461121106
 21
129.8382274947948
 31
0.0
 11
232.2646908679707
 21
129.5598279874413
 31
0.0
 11
232.2511688829428
 21
129.279728251098
 31
0.0
 11
232.2646908679707
 21
128.9996285147548
 31
0.0
  0
SPLINE
  5
1DA
330
4E
100
AcDbEntity
  8
1
  6
Continuous
 62
     7
100
AcDbSpline
210
0.0
220
0.0
230
1.0
 70
    11
 71
     3
 72
    79
 73
    75
 74
    73
 42
0.0000000001
 43
0.0000000001
 44
0.00000001
 40
0.0
 40
0.0
 40
0.0
 40
0.0
 40
0.3219191133369199
 40
0.6433817983663183
 40
0.9928750068869364
 40
1.341795140507108
 40
1.729749028413415
 40
2.117262757272405
 40
2.547908615556957
 40
2.978266915974182
 40
3.450266276154558
 40
3.922086452275948
 40
4.429962878428792
 40
4.937730797563058
 40
5.47311150154246
 40
6.008430500180165
 40
6.561033308980363
 40
7.113608122002704
 40
7.672061093536168
 40
8.230514065069691
 40
8.783088878092087
 40
9.335691686892258
 40
9.87101068552993
 40
10.40639138950934
 40
10.91415930864363
 40
11.42203573479645
 40
11.89385591091783
 40
12.36585527109823
 40
12.79621357151539
 40
13.22685942979994
 40
13.61437315865895
 40
14.0023270465653
 40
14.35124718018548
 40
14.70074038870602
 40
15.02220307373545
 40
15.34412218707234
 40
15.65570035748474
 40
15.96727852789718
 40
16.28919764123407
 40
16.61066032626348
 40
16.96015353478401
 40
17.30907366840421
 40
17.69702755631052
 40
18.08454128516955
 40
18.51518714345414
 40
18.94554544387138
 40
19.41754480405174
 40
19.88936498017313
 40
20.39724140632597
 40
20.90500932546024
 40
21.44039002943962
 40
21.97570902807737
 40
22.52831183687748
 40
23.08088664989985
 40
23.63933962143338
 40
24.1977925929669
 40
24.7503674059893
 40
25.30297021478945
 40
25.8382892134271
 40
26.37366991740652
 40
26.88143783654084
 40
27.38931426269362
 40
27.86113443881499
 40
28.33313379899541
 40
28.76349209941272
 40
29.19413795769728
 40
29.58165168655626
 40
29.96960557446258
 40
30.31852570808281
 40
30.66801891660333
 40
30.98948160163273
 40
31.31140071496969
 40
31.62297888538209
 40
31.93455705579444
 40
31.93455705579444
 40
31.93455705579444
 40
31.93455705579444
 10
235.4759784916231
 20
146.9353527146599
 30
0.0
 10
235.3706595659633
 20
146.9136286977105
 30
0.0
 10
235.1601710395424
 20
146.8702114648916
 30
0.0
 10
234.8536778925991
 20
146.7406180109407
 30
0.0
 10
234.5587581826918
 20
146.570102903056
 30
0.0
 10
234.2705591162226
 20
146.3493240219177
 30
0.0
 10
233.999604185514
 20
146.0893664839774
 30
0.0
 10
233.7382335633253
 20
145.7831346709085
 30
0.0
 10
233.497385755764
 20
145.4430840245297
 30
0.0
 10
233.2699638453575
 20
145.060893500524
 30
0.0
 10
233.0652856189555
 20
144.6506612501056
 30
0.0
 10
232.8781176557597
 20
144.2040904181092
 30
0.0
 10
232.7153247393212
 20
143.735425796462
 30
0.0
 10
232.5736979774272
 20
143.2379279203736
 30
0.0
 10
232.4576460557387
 20
142.7244656971664
 30
0.0
 10
232.3655753874089
 20
142.1910261166058
 30
0.0
 10
232.2998843199492
 20
141.6479251388361
 30
0.0
 10
232.2599313851979
 20
141.0946094353515
 30
0.0
 10
232.2467644517577
 20
140.5380585002992
 30
0.0
 10
232.259931385196
 20
139.9815075652258
 30
0.0
 10
232.2998843199571
 20
139.4281918618034
 30
0.0
 10
232.36557538738
 20
138.8850908838087
 30
0.0
 10
232.457646055843
 20
138.3516513040615
 30
0.0
 10
232.5736979770458
 20
137.8381890778911
 30
0.0
 10
232.7153247406637
 20
137.3406912123161
 30
0.0
 10
232.8781176508904
 20
136.8720265527855
 30
0.0
 10
233.0652856357023
 20
136.4254558526208
 30
0.0
 10
233.269963785013
 20
136.0152231320386
 30
0.0
 10
233.4973859590609
 20
135.6330342159299
 30
0.0
 10
233.7382328339156
 20
135.2929778811548
 30
0.0
 10
233.999606607647
 20
134.9867652887307
 30
0.0
 10
234.2705504192012
 20
134.7267399372321
 30
0.0
 10
234.5587870528773
 20
134.5061901711783
 30
0.0
 10
234.8535732358306
 20
134.3348607083821
 30
0.0
 10
235.1605271989733
 20
134.2080776827733
 30
0.0
 10
235.4712784234091
 20
134.1334304250601
 30
0.0
 10
235.7865259900783
 20
134.106594919931
 30
0.0
 10
236.1017735567478
 20
134.1334304250602
 30
0.0
 10
236.4125247811833
 20
134.2080776827733
 30
0.0
 10
236.7194787443263
 20
134.3348607083821
 30
0.0
 10
237.0142649272796
 20
134.5061901711781
 30
0.0
 10
237.3025015609555
 20
134.726739937232
 30
0.0
 10
237.5734453725099
 20
134.9867652887305
 30
0.0
 10
237.8348191462412
 20
135.2929778811548
 30
0.0
 10
238.0756660210959
 20
135.6330342159298
 30
0.0
 10
238.3030881951438
 20
136.0152231320386
 30
0.0
 10
238.5077663444546
 20
136.4254558526207
 30
0.0
 10
238.6949343292662
 20
136.8720265527855
 30
0.0
 10
238.8577272394933
 20
137.3406912123161
 30
0.0
 10
238.9993540031109
 20
137.8381890778911
 30
0.0
 10
239.1154059243138
 20
138.3516513040615
 30
0.0
 10
239.207476592777
 20
138.8850908838087
 30
0.0
 10
239.2731676601997
 20
139.4281918618031
 30
0.0
 10
239.3131205949611
 20
139.9815075652266
 30
0.0
 10
239.3262875283987
 20
140.5380585002959
 30
0.0
 10
239.3131205949611
 20
141.0946094353636
 30
0.0
 10
239.2731676601993
 20
141.6479251387916
 30
0.0
 10
239.207476592779
 20
142.1910261167701
 30
0.0
 10
239.1154059243065
 20
142.7244656965748
 30
0.0
 10
238.9993540031377
 20
143.2379279225358
 30
0.0
 10
238.8577272393985
 20
143.7354257888534
 30
0.0
 10
238.6949343296101
 20
144.2040904457085
 30
0.0
 10
238.5077663432718
 20
144.6506611551831
 30
0.0
 10
238.3030881994053
 20
145.0608938425629
 30
0.0
 10
238.0756660067393
 20
145.4430828722196
 30
0.0
 10
237.8348191977513
 20
145.7831388052864
 30
0.0
 10
237.5734452014615
 20
146.0893527550516
 30
0.0
 10
237.3025021751297
 20
146.3493733176304
 30
0.0
 10
237.0142628884986
 20
146.5699392635422
 30
0.0
 10
236.7194861350732
 20
146.7412112174812
 30
0.0
 10
236.4124996295922
 20
146.8681927124786
 30
0.0
 10
236.1018665568782
 20
146.9421193858292
 30
0.0
 10
235.7861912467327
 20
146.9715636151968
 30
0.0
 10
235.5793827433263
 20
146.9474230148389
 30
0.0
 10
235.4759784916231
 20
146.9353527146599
 30
0.0
 11
235.4759784916231
 21
146.9353527146599
 31
0.0
 11
235.1629962654508
 21
146.8600264799745
 31
0.0
 11
234.8653371798983
 21
146.7386290885102
 31
0.0
 11
234.5627697392435
 21
146.5637049716548
 31
0.0
 11
234.2849302285474
 21
146.3526351586979
 31
0.0
 11
234.0042096059028
 21
146.0848588506278
 31
0.0
 11
233.7519484185176
 21
145.7906970186488
 31
0.0
 11
233.5021332311107
 21
145.4399147109443
 31
0.0
 11
233.2815144198524
 21
145.0704074622238
 31
0.0
 11
233.0699834548121
 21
144.648461912609
 31
0.0
 11
232.8871944698543
 21
144.21348781502
 31
0.0
 11
232.7199176387207
 21
143.7339495725328
 31
0.0
 11
232.5806163444976
 21
143.2456633766091
 31
0.0
 11
232.4621399849103
 21
142.7235562511909
 31
0.0
 11
232.3709479333047
 21
142.1960617583036
 31
0.0
 11
232.3043118408563
 21
141.6474913476204
 31
0.0
 11
232.2645051228919
 21
141.0963522098416
 31
0.0
 11
232.2511688829428
 21
140.5380585002957
 31
0.0
 11
232.2645051228919
 21
139.9797647907497
 31
0.0
 11
232.3043118408563
 21
139.4286256529708
 31
0.0
 11
232.3709479333047
 21
138.8800552422877
 31
0.0
 11
232.4621399849103
 21
138.3525607494004
 31
0.0
 11
232.5806163444976
 21
137.8304536239822
 31
0.0
 11
232.7199176387209
 21
137.3421674280585
 31
0.0
 11
232.8871944698543
 21
136.8626291855713
 31
0.0
 11
233.0699834548121
 21
136.4276550879823
 31
0.0
 11
233.2815144198524
 21
136.0057095383675
 31
0.0
 11
233.5021332311107
 21
135.636202289647
 31
0.0
 11
233.7519484185176
 21
135.2854199819425
 31
0.0
 11
234.0042096059029
 21
134.9912581499636
 31
0.0
 11
234.2849302285475
 21
134.7234818418935
 31
0.0
 11
234.5627697392436
 21
134.5124120289365
 31
0.0
 11
234.8653371798983
 21
134.3374879120811
 31
0.0
 11
235.1629962654508
 21
134.2160905206168
 31
0.0
 11
235.4759784916231
 21
134.1407642859314
 31
0.0
 11
235.7865259900784
 21
134.1154422109631
 31
0.0
 11
236.0970734885337
 21
134.1407642859314
 31
0.0
 11
236.4100557147059
 21
134.2160905206168
 31
0.0
 11
236.7077148002585
 21
134.3374879120811
 31
0.0
 11
237.0102822409133
 21
134.5124120289364
 31
0.0
 11
237.2881217516094
 21
134.7234818418933
 31
0.0
 11
237.5688423742539
 21
134.9912581499635
 31
0.0
 11
237.8211035616391
 21
135.2854199819425
 31
0.0
 11
238.0709187490461
 21
135.636202289647
 31
0.0
 11
238.2915375603043
 21
136.0057095383675
 31
0.0
 11
238.5030685253447
 21
136.4276550879823
 31
0.0
 11
238.6858575103025
 21
136.8626291855713
 31
0.0
 11
238.853134341436
 21
137.3421674280585
 31
0.0
 11
238.9924356356592
 21
137.8304536239822
 31
0.0
 11
239.1109119952465
 21
138.3525607494004
 31
0.0
 11
239.2021040468521
 21
138.8800552422877
 31
0.0
 11
239.2687401393006
 21
139.4286256529708
 31
0.0
 11
239.308546857265
 21
139.9797647907496
 31
0.0
 11
239.3218830972141
 21
140.5380585002956
 31
0.0
 11
239.308546857265
 21
141.0963522098416
 31
0.0
 11
239.2687401393006
 21
141.6474913476205
 31
0.0
 11
239.2021040468521
 21
142.1960617583036
 31
0.0
 11
239.1109119952465
 21
142.7235562511908
 31
0.0
 11
238.9924356356592
 21
143.245663376609
 31
0.0
 11
238.853134341436
 21
143.7339495725328
 31
0.0
 11
238.6858575103025
 21
144.21348781502
 31
0.0
 11
238.5030685253447
 21
144.6484619126089
 31
0.0
 11
238.2915375603043
 21
145.0704074622238
 31
0.0
 11
238.0709187490461
 21
145.4399147109444
 31
0.0
 11
237.8211035616392
 21
145.7906970186489
 31
0.0
 11
237.5688423742539
 21
146.0848588506278
 31
0.0
 11
237.2881217516094
 21
146.352635158698
 31
0.0
 11
237.0102822409133
 21
146.5637049716549
 31
0.0
 11
236.7077148002585
 21
146.7386290885102
 31
0.0
 11
236.4100557147059
 21
146.8600264799744
 31
0.0
 11
236.0970734885336
 21
146.9353527146599
 31
0.0
 11
235.7865259900783
 21
146.9606747896282
 31
0.0
 11
235.4759784916231
 21
146.9353527146599
 31
0.0
  0
SPLINE
  5
1DB
330
4E
100
AcDbEntity
  8
1
  6
Continuous
 62
     7
100
AcDbSpline
210
0.0
220
0.0
230
1.0
 70
     8
 71
     3
 72
    41
 73
    37
 74
    35
 42
0.0000000001
 43
0.0000000001
 44
0.00000001
 40
0.0
 40
0.0
 40
0.0
 40
0.0
 40
0.1595843431691527
 40
0.3196485254062895
 40
0.6792350850076463
 40
1.038514384677638
 40
1.428416938583896
 40
1.818091610708536
 40
2.237936058479127
 40
2.657625323943576
 40
3.103827941347388
 40
3.549930703012268
 40
4.01654336825443
 40
4.483097007962956
 40
4.962568040660629
 40
5.442011709781201
 40
5.925861414068289
 40
6.40971111835542
 40
6.889154787475984
 40
7.368625820173615
 40
7.835179459882108
 40
8.301792125124186
 40
8.747894886789062
 40
9.194097504192884
 40
9.613786769657359
 40
10.03363121742794
 40
10.42330588955259
 40
10.81320844345882
 40
11.1724877431288
 40
11.53207430273018
 40
11.86463929912515
 40
12.19754681583333
 40
12.51156830824892
 40
12.82583337421948
 40
13.1332652795494
 40
13.44069718487948
 40
13.44069718487948
 40
13.44069718487948
 40
13.44069718487948
 10
107.1075930843231
 20
429.0516562556019
 30
0.0
 10
107.1352732210666
 20
429.0062103000465
 30
0.0
 10
107.1907167233388
 20
428.9151817417901
 30
0.0
 10
107.3225415118637
 20
428.7309230800744
 30
0.0
 10
107.5102171224766
 20
428.5052564542981
 30
0.0
 10
107.7750282547312
 20
428.2466177198317
 30
0.0
 10
108.0700377114922
 20
428.0069081055266
 30
0.0
 10
108.4008180027437
 20
427.7815915801551
 30
0.0
 10
108.756881004573
 20
427.5780337290316
 30
0.0
 10
109.1436152246259
 20
427.39255049284
 30
0.0
 10
109.5502880902203
 20
427.2307873062804
 30
0.0
 10
109.9812643342693
 20
427.0904259394297
 30
0.0
 10
110.4266377454573
 20
426.9751879638961
 30
0.0
 10
110.8888506166095
 20
426.8839386110412
 30
0.0
 10
111.3597689972979
 20
426.8187339477627
 30
0.0
 10
111.8393004352542
 20
426.7791452046794
 30
0.0
 10
112.3217455046781
 20
426.7660601853985
 30
0.0
 10
112.8041905742893
 20
426.7791452045939
 30
0.0
 10
113.2837220116888
 20
426.8187339481014
 30
0.0
 10
113.7546403943965
 20
426.8839386097849
 30
0.0
 10
114.2168532582166
 20
426.9751879684469
 30
0.0
 10
114.6622266962125
 20
427.0904259227438
 30
0.0
 10
115.0932028444147
 20
427.230787365524
 30
0.0
 10
115.4998760573597
 20
427.3925502769127
 30
0.0
 10
115.8866090544219
 20
427.5780344819568
 30
0.0
 10
116.242676454499
 20
427.7815888487908
 30
0.0
 10
116.5734414509363
 20
428.006917490706
 30
0.0
 10
116.8685056360777
 20
428.2465837492168
 30
0.0
 10
117.1331277030512
 20
428.5053722610988
 30
0.0
 10
117.3583133421546
 20
428.7747929014391
 30
0.0
 10
117.5482918236496
 20
429.0596639711118
 30
0.0
 10
117.6959926454054
 20
429.3517423204084
 30
0.0
 10
117.8046932923544
 20
429.6541815569328
 30
0.0
 10
117.8682763769391
 20
429.9603143345003
 30
0.0
 10
117.8931758673101
 20
430.2705395310952
 30
0.0
 10
117.8725274583423
 20
430.4748129596653
 30
0.0
 10
117.8622032538584
 20
430.5769496739503
 30
0.0
 11
107.1075930843231
 21
429.0516562556019
 31
0.0
 11
107.1922768842761
 21
428.9163942261545
 31
0.0
 11
107.2847774533312
 21
428.7857642634364
 31
0.0
 11
107.514834564503
 21
428.5094017850765
 31
0.0
 11
107.7711959031643
 21
428.2576867096218
 31
0.0
 11
108.073361784572
 21
428.0112728673651
 31
0.0
 11
108.3951022525819
 21
427.7914333319302
 31
0.0
 11
108.7592606348785
 21
427.5824882843054
 31
0.0
 11
109.137507145365
 21
427.4006403894842
 31
0.0
 11
109.5519213710026
 21
427.235238982697
 31
0.0
 11
109.97601532772
 21
427.0968482682659
 31
0.0
 11
110.4276584878083
 21
426.9796056339137
 31
0.0
 11
110.8853515967638
 21
426.8891107901932
 31
0.0
 11
111.3602597805156
 21
426.8231207288075
 31
0.0
 11
111.8380764657621
 21
426.7836562237442
 31
0.0
 11
112.3217455047094
 21
426.7704351382187
 31
0.0
 11
112.8054145436568
 21
426.7836562237442
 31
0.0
 11
113.2832312289032
 21
426.8231207288073
 31
0.0
 11
113.758139412655
 21
426.8891107901932
 31
0.0
 11
114.2158325216104
 21
426.9796056339138
 31
0.0
 11
114.6674756816986
 21
427.0968482682659
 31
0.0
 11
115.0915696384161
 21
427.235238982697
 31
0.0
 11
115.5059838640537
 21
427.4006403894841
 31
0.0
 11
115.8842303745402
 21
427.5824882843053
 31
0.0
 11
116.2483887568368
 21
427.7914333319301
 31
0.0
 11
116.5701292248466
 21
428.0112728673652
 31
0.0
 11
116.8722951062543
 21
428.2576867096218
 31
0.0
 11
117.1286564449157
 21
428.5094017850764
 31
0.0
 11
117.3587135560875
 21
428.7857642634363
 31
0.0
 11
117.5424877026397
 21
429.0629402722939
 31
0.0
 11
117.6923813696123
 21
429.3601932004247
 31
0.0
 11
117.7975813288035
 21
429.6560689619954
 31
0.0
 11
117.8622032538584
 21
429.9636182076321
 31
0.0
 11
117.883894370031
 21
430.2702839407911
 31
0.0
 11
117.8622032538584
 21
430.5769496739503
 31
0.0
  0
SPLINE
  5
1DC
330
4E
100
AcDbEntity
  8
1
  6
Continuous
 62
     7
100
AcDbSpline
210
0.0
220
0.0
230
1.0
 70
     8
 71
     3
 72
    41
 73
    37
 74
    35
 42
0.0000000001
 43
0.0000000001
 44
0.00000001
 40
0.0
 40
0.0
 40
0.0
 40
0.0
 40
0.1595843431693605
 40
0.3196485254065766
 40
0.6792350850079515
 40
1.038514384677943
 40
1.428416938584213
 40
1.818091610708782
 40
2.237936058479373
 40
2.657625323943835
 40
3.10382794134766
 40
3.549930703012568
 40
4.016543368254729
 40
4.483097007963242
 40
4.9625680406609
 40
5.442011709781514
 40
5.925861414068617
 40
6.40971111835572
 40
6.889154787476269
 40
7.368625820173914
 40
7.835179459882394
 40
8.301792125124486
 40
8.747894886789362
 40
9.194097504193197
 40
9.61378676965766
 40
10.03363121742827
 40
10.4233058895529
 40
10.81320844345914
 40
11.17248774312912
 40
11.5320743027305
 40
11.86463929912548
 40
12.19754681583365
 40
12.51156830824924
 40
12.8258333742198
 40
13.13326527954972
 40
13.4406971848798
 40
13.4406971848798
 40
13.4406971848798
 40
13.4406971848798
 10
104.536173110105
 20
429.0516562556022
 30
0.0
 10
104.5084929733615
 20
429.0062103000467
 30
0.0
 10
104.4530494710893
 20
428.9151817417902
 30
0.0
 10
104.3212246825644
 20
428.7309230800745
 30
0.0
 10
104.1335490719514
 20
428.5052564542979
 30
0.0
 10
103.8687379396968
 20
428.2466177198317
 30
0.0
 10
103.5737284829358
 20
428.0069081055265
 30
0.0
 10
103.2429481916844
 20
427.781591580155
 30
0.0
 10
102.8868851898551
 20
427.5780337290316
 30
0.0
 10
102.5001509698022
 20
427.3925504928401
 30
0.0
 10
102.0934781042078
 20
427.2307873062803
 30
0.0
 10
101.6625018601587
 20
427.0904259394299
 30
0.0
 10
101.2171284489708
 20
426.975187963896
 30
0.0
 10
100.7549155778185
 20
426.8839386110413
 30
0.0
 10
100.2839971971301
 20
426.8187339477627
 30
0.0
 10
99.80446575917381
 20
426.7791452046794
 30
0.0
 10
99.32202068974992
 20
426.7660601853985
 30
0.0
 10
98.83957562013868
 20
426.7791452045938
 30
0.0
 10
98.36004418273922
 20
426.8187339481013
 30
0.0
 10
97.88912580003147
 20
426.8839386097848
 30
0.0
 10
97.42691293621138
 20
426.9751879684469
 30
0.0
 10
96.98153949821551
 20
427.0904259227438
 30
0.0
 10
96.55056335001336
 20
427.230787365524
 30
0.0
 10
96.14389013706827
 20
427.3925502769125
 30
0.0
 10
95.75715714000619
 20
427.5780344819569
 30
0.0
 10
95.40108973992895
 20
427.7815888487907
 30
0.0
 10
95.0703247434917
 20
428.006917490706
 30
0.0
 10
94.77526055835023
 20
428.2465837492169
 30
0.0
 10
94.51063849137677
 20
428.505372261099
 30
0.0
 10
94.2854528522733
 20
428.7747929014389
 30
0.0
 10
94.09547437077843
 20
429.0596639711118
 30
0.0
 10
93.94777354902254
 20
429.3517423204084
 30
0.0
 10
93.83907290207351
 20
429.6541815569328
 30
0.0
 10
93.7754898174889
 20
429.9603143345004
 30
0.0
 10
93.75059032711789
 20
430.2705395310951
 30
0.0
 10
93.77123873608569
 20
430.4748129596652
 30
0.0
 10
93.7815629405696
 20
430.5769496739503
 30
0.0
 11
104.536173110105
 21
429.0516562556022
 31
0.0
 11
104.4514893101519
 21
428.9163942261545
 31
0.0
 11
104.3589887410968
 21
428.7857642634364
 31
0.0
 11
104.128931629925
 21
428.5094017850765
 31
0.0
 11
103.8725702912637
 21
428.2576867096218
 31
0.0
 11
103.5704044098559
 21
428.0112728673651
 31
0.0
 11
103.2486639418462
 21
427.7914333319302
 31
0.0
 11
102.8845055595496
 21
427.5824882843054
 31
0.0
 11
102.5062590490631
 21
427.4006403894842
 31
0.0
 11
102.0918448234255
 21
427.235238982697
 31
0.0
 11
101.667750866708
 21
427.0968482682659
 31
0.0
 11
101.2161077066197
 21
426.9796056339137
 31
0.0
 11
100.7584145976643
 21
426.8891107901932
 31
0.0
 11
100.2835064139124
 21
426.8231207288075
 31
0.0
 11
99.80568972866593
 21
426.7836562237442
 31
0.0
 11
99.32202068971859
 21
426.7704351382187
 31
0.0
 11
98.83835165077124
 21
426.7836562237442
 31
0.0
 11
98.36053496552481
 21
426.8231207288073
 31
0.0
 11
97.885626781773
 21
426.8891107901932
 31
0.0
 11
97.42793367281766
 21
426.9796056339138
 31
0.0
 11
96.97629051272941
 21
427.0968482682659
 31
0.0
 11
96.55219655601191
 21
427.235238982697
 31
0.0
 11
96.13778233037425
 21
427.4006403894841
 31
0.0
 11
95.75953581988777
 21
427.5824882843053
 31
0.0
 11
95.39537743759118
 21
427.7914333319301
 31
0.0
 11
95.0736369695814
 21
428.0112728673652
 31
0.0
 11
94.77147108817363
 21
428.2576867096218
 31
0.0
 11
94.51510974951232
 21
428.5094017850764
 31
0.0
 11
94.28505263834046
 21
428.7857642634363
 31
0.0
 11
94.10127849178828
 21
429.0629402722939
 31
0.0
 11
93.95138482481572
 21
429.3601932004247
 31
0.0
 11
93.84618486562447
 21
429.6560689619954
 31
0.0
 11
93.78156294056959
 21
429.9636182076321
 31
0.0
 11
93.759871824397
 21
430.2702839407911
 31
0.0
 11
93.7815629405696
 21
430.5769496739503
 31
0.0
  0
SPLINE
  5
1DD
330
4E
100
AcDbEntity
  8
1
  6
Continuous
 62
     7
100
AcDbSpline
210
0.0
220
0.0
230
1.0
 70
     8
 71
     3
 72
    25
 73
    21
 74
    19
 42
0.0000000001
 43
0.0000000001
 44
0.00000001
 40
0.0
 40
0.0
 40
0.0
 40
0.0
 40
0.3142650659703953
 40
0.6282865583857591
 40
0.9611940750939217
 40
1.293759071488948
 40
1.653345631090279
 40
2.012624930760272
 40
2.402527484666539
 40
2.792202156791201
 40
3.212046604561782
 40
3.631735870026308
 40
4.077938487430106
 40
4.524041249095
 40
4.990653914337079
 40
5.457207554045596
 40
5.936678586743236
 40
6.416122255863789
 40
6.823700703590952
 40
7.231117436061198
 40
7.231117436061198
 40
7.231117436061198
 40
7.231117436061198
 10
93.7815629405696
 20
430.5769496739503
 30
0.0
 10
93.80015547624812
 20
430.6802170525049
 30
0.0
 10
93.83732613731752
 20
430.8866717714387
 30
0.0
 10
93.9482727941999
 20
431.1887439772427
 30
0.0
 10
94.09533782881198
 20
431.4809262234212
 30
0.0
 10
94.28549273850989
 20
431.765768462128
 30
0.0
 10
94.51062749418718
 20
432.0351974176788
 30
0.0
 10
94.77526378424437
 20
432.2939836048412
 30
0.0
 10
95.07032385229189
 20
432.533650538006
 30
0.0
 10
95.40108999918392
 20
432.7589789846824
 30
0.0
 10
95.75715706899187
 20
432.9625334345101
 30
0.0
 10
96.14389015572087
 20
433.1480175126775
 30
0.0
 10
96.55056335178578
 20
433.3097808710453
 30
0.0
 10
96.98153947171744
 20
433.4501406145855
 30
0.0
 10
97.42691304594152
 20
433.5653851854187
 30
0.0
 10
97.88912538489147
 20
433.656609398052
 30
0.0
 10
98.36004578011226
 20
433.7219103830434
 30
0.0
 10
98.81421977312267
 20
433.7590628582349
 30
0.0
 10
99.24567634698752
 20
433.7737511533646
 30
0.0
 10
99.5173105177613
 20
433.7672084945826
 30
0.0
 10
99.65310065366995
 20
433.7639378143045
 30
0.0
 11
93.7815629405696
 21
430.5769496739503
 31
0.0
 11
93.84618486562449
 21
430.8844989195868
 31
0.0
 11
93.95138482481571
 21
431.1803746811573
 31
0.0
 11
94.10127849178825
 21
431.4776276092881
 31
0.0
 11
94.28505263834043
 21
431.7548036181457
 31
0.0
 11
94.51510974951228
 21
432.0311660965056
 31
0.0
 11
94.77147108817367
 21
432.2828811719601
 31
0.0
 11
95.07363696958147
 21
432.5292950142168
 31
0.0
 11
95.39537743759121
 21
432.7491345496519
 31
0.0
 11
95.75953581988767
 21
432.9580795972769
 31
0.0
 11
96.13778233037422
 21
433.1399274920981
 31
0.0
 11
96.55219655601191
 21
433.3053288988851
 31
0.0
 11
96.97629051272941
 21
433.4437196133162
 31
0.0
 11
97.42793367281765
 21
433.5609622476683
 31
0.0
 11
97.88562678177301
 21
433.651457091389
 31
0.0
 11
98.36053496552481
 21
433.7174471527749
 31
0.0
 11
98.83835165077124
 21
433.7569116578381
 31
0.0
 11
99.24572615222058
 21
433.769803772505
 31
0.0
 11
99.65310065366995
 21
433.7639378143045
 31
0.0
  0
SPLINE
  5
1DE
330
4E
100
AcDbEntity
  8
1
  6
Continuous
 62
     7
100
AcDbSpline
210
0.0
220
0.0
230
1.0
 70
     8
 71
     3
 72
    25
 73
    21
 74
    19
 42
0.0000000001
 43
0.0000000001
 44
0.00000001
 40
0.0
 40
0.0
 40
0.0
 40
0.0
 40
0.3142650659703865
 40
0.6282865583857551
 40
0.9611940750939241
 40
1.293759071488942
 40
1.653345631090292
 40
2.012624930760275
 40
2.402527484666541
 40
2.792202156791203
 40
3.212046604561822
 40
3.631735870026322
 40
4.077938487430133
 40
4.524041249095
 40
4.99065391433712
 40
5.457207554045596
 40
5.936678586743249
 40
6.416122255863827
 40
6.823700703591263
 40
7.231117436061752
 40
7.231117436061752
 40
7.231117436061752
 40
7.231117436061752
 10
117.8622032538584
 20
430.5769496739503
 30
0.0
 10
117.8436107181799
 20
430.680217052505
 30
0.0
 10
117.8064400571105
 20
430.8866717714387
 30
0.0
 10
117.6954934002282
 20
431.1887439772427
 30
0.0
 10
117.548428365616
 20
431.4809262234211
 30
0.0
 10
117.3582734559182
 20
431.765768462128
 30
0.0
 10
117.1331387002408
 20
432.0351974176788
 30
0.0
 10
116.8685024101837
 20
432.2939836048412
 30
0.0
 10
116.5734423421361
 20
432.533650538006
 30
0.0
 10
116.2426761952441
 20
432.7589789846825
 30
0.0
 10
115.8866091254361
 20
432.9625334345101
 30
0.0
 10
115.4998760387071
 20
433.1480175126777
 30
0.0
 10
115.0932028426422
 20
433.3097808710453
 30
0.0
 10
114.6622267227105
 20
433.4501406145856
 30
0.0
 10
114.2168531484865
 20
433.5653851854187
 30
0.0
 10
113.7546408095365
 20
433.656609398052
 30
0.0
 10
113.2837204143157
 20
433.7219103830435
 30
0.0
 10
112.8295464213052
 20
433.7590628582348
 30
0.0
 10
112.3980898474402
 20
433.7737511533649
 30
0.0
 10
112.1264556766662
 20
433.7672084945826
 30
0.0
 10
111.9906655407575
 20
433.7639378143044
 30
0.0
 11
117.8622032538584
 21
430.5769496739503
 31
0.0
 11
117.7975813288036
 21
430.8844989195868
 31
0.0
 11
117.6923813696123
 21
431.1803746811573
 31
0.0
 11
117.5424877026398
 21
431.4776276092881
 31
0.0
 11
117.3587135560876
 21
431.7548036181457
 31
0.0
 11
117.1286564449157
 21
432.0311660965056
 31
0.0
 11
116.8722951062543
 21
432.2828811719601
 31
0.0
 11
116.5701292248465
 21
432.5292950142168
 31
0.0
 11
116.2483887568368
 21
432.7491345496519
 31
0.0
 11
115.8842303745403
 21
432.9580795972769
 31
0.0
 11
115.5059838640538
 21
433.1399274920981
 31
0.0
 11
115.0915696384161
 21
433.3053288988851
 31
0.0
 11
114.6674756816986
 21
433.4437196133162
 31
0.0
 11
114.2158325216103
 21
433.5609622476683
 31
0.0
 11
113.758139412655
 21
433.651457091389
 31
0.0
 11
113.2832312289032
 21
433.7174471527749
 31
0.0
 11
112.8054145436567
 21
433.756911657838
 31
0.0
 11
112.3980400422071
 21
433.7698037725051
 31
0.0
 11
111.9906655407575
 21
433.7639378143044
 31
0.0
  0
ENDBLK
  5
50
330
4E
100
AcDbEntity
  8
0
100
AcDbBlockEnd
  0
BLOCK
  5
52
330
51
100
AcDbEntity
  8
0
100
AcDbBlockBegin
  2
42-15
 70
     0
 71
     0
 10
410.1115321067989
 20
52.43379841369212
 30
0.0
  3
42-15
  1

  0
LINE
  5
1DF
330
51
100
AcDbEntity
  8
1
  6
Continuous
 62
     7
100
AcDbLine
 10
112.8264687155291
 20
402.7701327433637
 30
0.0
 11
111.8264687155292
 21
402.5008105443407
 31
0.0
  0
LINE
  5
1E0
330
51
100
AcDbEntity
  8
1
  6
Continuous
 62
     7
100
AcDbLine
 10
112.8264687155291
 20
405.7701327433637
 30
0.0
 11
112.8264687155291
 21
402.7701327433637
 31
0.0
  0
LINE
  5
1E1
330
51
100
AcDbEntity
  8
1
  6
Continuous
 62
     2
100
AcDbLine
 10
111.8264687155291
 20
402.7701327433637
 30
0.0
 11
111.8264687155291
 21
405.7701327433637
 31
0.0
  0
LINE
  5
1E2
330
51
100
AcDbEntity
  8
1
  6
Continuous
 62
     2
100
AcDbLine
 10
110.8264687155291
 20
402.7701327433637
 30
0.0
 11
110.8264687155291
 21
405.7701327433637
 31
0.0
  0
LINE
  5
1E3
330
51
100
AcDbEntity
  8
1
  6
Continuous
 62
     2
100
AcDbLine
 10
109.8264687155291
 20
402.9600591518162
 30
0.0
 11
109.8264687155291
 21
405.6040844309122
 31
0.0
  0
LINE
  5
1E4
330
51
100
AcDbEntity
  8
1
  6
Continuous
 62
     2
100
AcDbLine
 10
108.8264687155291
 20
403.0736062496914
 30
0.0
 11
108.8264687155291
 21
405.4094322631261
 31
0.0
  0
LINE
  5
1E5
330
51
100
AcDbEntity
  8
1
  6
Continuous
 62
     2
100
AcDbLine
 10
107.8264687155291
 20
403.2844794314597
 30
0.0
 11
107.8264687155291
 21
405.0525699555179
 31
0.0
  0
LINE
  5
1E6
330
51
100
AcDbEntity
  8
1
  6
Continuous
 62
     2
100
AcDbLine
 10
106.8264687155291
 20
403.5277946411927
 30
0.0
 11
106.8264687155291
 21
404.7930337318031
 31
0.0
  0
LINE
  5
1E7
330
51
100
AcDbEntity
  8
1
  6
Continuous
 62
     2
100
AcDbLine
 10
104.8264687155291
 20
404.7930337318031
 30
0.0
 11
104.8264687155291
 21
403.5277946411927
 31
0.0
  0
LINE
  5
1E8
330
51
100
AcDbEntity
  8
1
  6
Continuous
 62
     2
100
AcDbLine
 10
103.8264687155291
 20
405.0525699555179
 30
0.0
 11
103.8264687155291
 21
403.2844794314597
 31
0.0
  0
LINE
  5
1E9
330
51
100
AcDbEntity
  8
1
  6
Continuous
 62
     2
100
AcDbLine
 10
102.8264687155291
 20
405.4094322631261
 30
0.0
 11
102.8264687155291
 21
403.0736062496914
 31
0.0
  0
LINE
  5
1EA
330
51
100
AcDbEntity
  8
1
  6
Continuous
 62
     2
100
AcDbLine
 10
101.8264687155291
 20
405.6040844309122
 30
0.0
 11
101.8264687155291
 21
402.9600591518162
 31
0.0
  0
LINE
  5
1EB
330
51
100
AcDbEntity
  8
1
  6
Continuous
 62
     7
100
AcDbLine
 10
112.8264687155291
 20
405.7701327433637
 30
0.0
 11
98.8264687155291
 21
405.7701327433637
 31
0.0
  0
LINE
  5
1EC
330
51
100
AcDbEntity
  8
1
  6
Continuous
 62
     2
100
AcDbLine
 10
100.8264687155291
 20
405.7701327433637
 30
0.0
 11
100.8264687155291
 21
402.7701327433637
 31
0.0
  0
LINE
  5
1ED
330
51
100
AcDbEntity
  8
1
  6
Continuous
 62
     7
100
AcDbLine
 10
98.8264687155291
 20
402.7701327433637
 30
0.0
 11
112.8264687155291
 21
402.7701327433637
 31
0.0
  0
LINE
  5
1EE
330
51
100
AcDbEntity
  8
1
  6
Continuous
 62
     7
100
AcDbLine
 10
99.8264687155291
 20
402.5008105443407
 30
0.0
 11
98.8264687155291
 21
402.7701327433637
 31
0.0
  0
LINE
  5
1EF
330
51
100
AcDbEntity
  8
1
  6
Continuous
 62
     2
100
AcDbLine
 10
99.8264687155291
 20
405.7701327433637
 30
0.0
 11
99.8264687155291
 21
402.7701327433637
 31
0.0
  0
LINE
  5
1F0
330
51
100
AcDbEntity
  8
1
  6
Continuous
 62
     7
100
AcDbLine
 10
98.8264687155291
 20
402.7701327433637
 30
0.0
 11
98.8264687155291
 21
405.7701327433637
 31
0.0
  0
LINE
  5
1F1
330
51
100
AcDbEntity
  8
1
  6
Continuous
 62
     2
100
AcDbLine
 10
210.3842892688449
 20
142.0453134338943
 30
0.0
 11
209.0355629389923
 21
142.0453134338943
 31
0.0
  0
LINE
  5
1F2
330
51
100
AcDbEntity
  8
1
  6
Continuous
 62
     2
100
AcDbLine
 10
210.7083339065367
 20
143.0453134338943
 30
0.0
 11
208.7903399699282
 21
143.0453134338943
 31
0.0
  0
LINE
  5
1F3
330
51
100
AcDbEntity
  8
1
  6
Continuous
 62
     2
100
AcDbLine
 10
211.0674103969521
 20
144.0453134338943
 30
0.0
 11
208.5976647799492
 21
144.0453134338943
 31
0.0
  0
LINE
  5
1F4
330
51
100
AcDbEntity
  8
1
  6
Continuous
 62
     2
100
AcDbLine
 10
211.2162957710267
 20
145.0453134338943
 30
0.0
 11
208.4662953322363
 21
145.0453134338943
 31
0.0
  0
LINE
  5
1F5
330
51
100
AcDbEntity
  8
1
  6
Continuous
 62
     7
100
AcDbLine
 10
211.3218830972141
 20
145.5453134338943
 30
0.0
 11
211.3218830972141
 21
146.0453134338943
 31
0.0
  0
LINE
  5
1F6
330
51
100
AcDbEntity
  8
1
  6
Continuous
 62
     7
100
AcDbLine
 10
208.3218830972141
 20
145.5453134338943
 30
0.0
 11
208.3218830972141
 21
146.0453134338943
 31
0.0
  0
LINE
  5
1F7
330
51
100
AcDbEntity
  8
1
  6
Continuous
 62
     2
100
AcDbLine
 10
211.3218830972141
 20
146.0453134338943
 30
0.0
 11
208.3218830972141
 21
146.0453134338943
 31
0.0
  0
LINE
  5
1F8
330
51
100
AcDbEntity
  8
1
  6
Continuous
 62
     7
100
AcDbLine
 10
211.3218830972141
 20
146.5453134338943
 30
0.0
 11
211.3218830972141
 21
147.0453134338943
 31
0.0
  0
LINE
  5
1F9
330
51
100
AcDbEntity
  8
1
  6
Continuous
 62
     7
100
AcDbLine
 10
208.3218830972141
 20
146.5453134338943
 30
0.0
 11
208.3218830972141
 21
147.0453134338943
 31
0.0
  0
LINE
  5
1FA
330
51
100
AcDbEntity
  8
1
  6
Continuous
 62
     2
100
AcDbLine
 10
211.3218830972141
 20
147.0453134338943
 30
0.0
 11
208.3218830972141
 21
147.0453134338943
 31
0.0
  0
LINE
  5
1FB
330
51
100
AcDbEntity
  8
1
  6
Continuous
 62
     7
100
AcDbLine
 10
208.3218830972141
 20
147.5453134338943
 30
0.0
 11
211.3218830972141
 21
147.5453134338943
 31
0.0
  0
LINE
  5
1FC
330
51
100
AcDbEntity
  8
1
  6
Continuous
 62
     7
100
AcDbLine
 10
211.3218830972141
 20
147.0453134338943
 30
0.0
 11
211.3218830972141
 21
147.5453134338943
 31
0.0
  0
LINE
  5
1FD
330
51
100
AcDbEntity
  8
1
  6
Continuous
 62
     7
100
AcDbLine
 10
208.0525608981909
 20
146.5453134338944
 30
0.0
 11
208.3218830972141
 21
147.5453134338943
 31
0.0
  0
LINE
  5
1FE
330
51
100
AcDbEntity
  8
1
  6
Continuous
 62
     7
100
AcDbLine
 10
208.3218830972141
 20
147.0453134338943
 30
0.0
 11
208.3218830972141
 21
147.5453134338943
 31
0.0
  0
LINE
  5
1FF
330
51
100
AcDbEntity
  8
1
  6
Continuous
 62
     2
100
AcDbLine
 10
211.3218830972141
 20
146.5453134338943
 30
0.0
 11
208.3218830972141
 21
146.5453134338943
 31
0.0
  0
LINE
  5
200
330
51
100
AcDbEntity
  8
1
  6
Continuous
 62
     7
100
AcDbLine
 10
208.3218830972141
 20
146.0453134338943
 30
0.0
 11
208.3218830972141
 21
146.5453134338943
 31
0.0
  0
LINE
  5
201
330
51
100
AcDbEntity
  8
1
  6
Continuous
 62
     7
100
AcDbLine
 10
211.3218830972141
 20
146.0453134338943
 30
0.0
 11
211.3218830972141
 21
146.5453134338943
 31
0.0
  0
LINE
  5
202
330
51
100
AcDbEntity
  8
1
  6
Continuous
 62
     2
100
AcDbLine
 10
211.3218830972141
 20
145.5453134338943
 30
0.0
 11
208.3218830972141
 21
145.5453134338943
 31
0.0
  0
LINE
  5
203
330
51
100
AcDbEntity
  8
1
  6
Continuous
 62
     2
100
AcDbLine
 10
211.1558347847625
 20
144.5453134338943
 30
0.0
 11
208.5118095056664
 21
144.5453134338943
 31
0.0
  0
LINE
  5
204
330
51
100
AcDbEntity
  8
1
  6
Continuous
 62
     2
100
AcDbLine
 10
210.9611826169764
 20
143.5453134338943
 30
0.0
 11
208.6253566035417
 21
143.5453134338943
 31
0.0
  0
LINE
  5
205
330
51
100
AcDbEntity
  8
1
  6
Continuous
 62
     2
100
AcDbLine
 10
210.6043203093684
 20
142.5453134338943
 30
0.0
 11
208.8362297853101
 21
142.5453134338943
 31
0.0
  0
LINE
  5
206
330
51
100
AcDbEntity
  8
1
  6
Continuous
 62
     2
100
AcDbLine
 10
210.3447840856533
 20
141.5453134338943
 30
0.0
 11
209.0795449950429
 21
141.5453134338943
 31
0.0
  0
LINE
  5
207
330
51
100
AcDbEntity
  8
1
  6
Continuous
 62
     7
100
AcDbLine
 10
207.9921173770104
 20
140.5453134338943
 30
0.0
 11
207.9921173770104
 21
146.2953134338943
 31
0.0
  0
LINE
  5
208
330
51
100
AcDbEntity
  8
1
  6
Continuous
 62
     2
100
AcDbLine
 10
209.0355629389923
 20
139.0453134338943
 30
0.0
 11
210.3842892688449
 21
139.0453134338943
 31
0.0
  0
LINE
  5
209
330
51
100
AcDbEntity
  8
1
  6
Continuous
 62
     2
100
AcDbLine
 10
208.7903399699282
 20
138.0453134338943
 30
0.0
 11
210.7083339065367
 21
138.0453134338943
 31
0.0
  0
LINE
  5
20A
330
51
100
AcDbEntity
  8
1
  6
Continuous
 62
     2
100
AcDbLine
 10
208.5976647799492
 20
137.0453134338943
 30
0.0
 11
211.0674103969521
 21
137.0453134338943
 31
0.0
  0
LINE
  5
20B
330
51
100
AcDbEntity
  8
1
  6
Continuous
 62
     2
100
AcDbLine
 10
208.4662953322363
 20
136.0453134338943
 30
0.0
 11
211.2162957710267
 21
136.0453134338943
 31
0.0
  0
LINE
  5
20C
330
51
100
AcDbEntity
  8
1
  6
Continuous
 62
     7
100
AcDbLine
 10
211.3218830972141
 20
135.0453134338943
 30
0.0
 11
211.3218830972141
 21
135.5453134338943
 31
0.0
  0
LINE
  5
20D
330
51
100
AcDbEntity
  8
1
  6
Continuous
 62
     7
100
AcDbLine
 10
208.3218830972141
 20
135.0453134338943
 30
0.0
 11
208.3218830972141
 21
135.5453134338943
 31
0.0
  0
LINE
  5
20E
330
51
100
AcDbEntity
  8
1
  6
Continuous
 62
     2
100
AcDbLine
 10
208.3218830972141
 20
135.0453134338943
 30
0.0
 11
211.3218830972141
 21
135.0453134338943
 31
0.0
  0
LINE
  5
20F
330
51
100
AcDbEntity
  8
1
  6
Continuous
 62
     7
100
AcDbLine
 10
211.3218830972141
 20
134.0453134338943
 30
0.0
 11
211.3218830972141
 21
134.5453134338943
 31
0.0
  0
LINE
  5
210
330
51
100
AcDbEntity
  8
1
  6
Continuous
 62
     7
100
AcDbLine
 10
208.3218830972141
 20
134.0453134338943
 30
0.0
 11
208.3218830972141
 21
134.5453134338943
 31
0.0
  0
LINE
  5
211
330
51
100
AcDbEntity
  8
1
  6
Continuous
 62
     2
100
AcDbLine
 10
208.3218830972141
 20
134.0453134338943
 30
0.0
 11
211.3218830972141
 21
134.0453134338943
 31
0.0
  0
LINE
  5
212
330
51
100
AcDbEntity
  8
1
  6
Continuous
 62
     7
100
AcDbLine
 10
211.3218830972141
 20
135.5453134338943
 30
0.0
 11
211.3218830972141
 21
145.5453134338943
 31
0.0
  0
LINE
  5
213
330
51
100
AcDbEntity
  8
1
  6
Continuous
 62
     7
100
AcDbLine
 10
211.3218830972141
 20
133.5453134338943
 30
0.0
 11
208.3218830972141
 21
133.5453134338943
 31
0.0
  0
LINE
  5
214
330
51
100
AcDbEntity
  8
1
  6
Continuous
 62
     7
100
AcDbLine
 10
211.3218830972141
 20
133.5453134338943
 30
0.0
 11
211.3218830972141
 21
134.0453134338943
 31
0.0
  0
LINE
  5
215
330
51
100
AcDbEntity
  8
1
  6
Continuous
 62
     7
100
AcDbLine
 10
208.3218830972141
 20
133.5453134338943
 30
0.0
 11
208.0525608981909
 21
134.5453134338942
 31
0.0
  0
LINE
  5
216
330
51
100
AcDbEntity
  8
1
  6
Continuous
 62
     7
100
AcDbLine
 10
208.3218830972141
 20
133.5453134338943
 30
0.0
 11
208.3218830972141
 21
134.0453134338943
 31
0.0
  0
LINE
  5
217
330
51
100
AcDbEntity
  8
1
  6
Continuous
 62
     2
100
AcDbLine
 10
208.3218830972141
 20
134.5453134338943
 30
0.0
 11
211.3218830972141
 21
134.5453134338943
 31
0.0
  0
LINE
  5
218
330
51
100
AcDbEntity
  8
1
  6
Continuous
 62
     7
100
AcDbLine
 10
208.3218830972141
 20
134.5453134338943
 30
0.0
 11
208.3218830972141
 21
135.0453134338943
 31
0.0
  0
LINE
  5
219
330
51
100
AcDbEntity
  8
1
  6
Continuous
 62
     7
100
AcDbLine
 10
211.3218830972141
 20
134.5453134338943
 30
0.0
 11
211.3218830972141
 21
135.0453134338943
 31
0.0
  0
LINE
  5
21A
330
51
100
AcDbEntity
  8
1
  6
Continuous
 62
     2
100
AcDbLine
 10
208.3218830972141
 20
135.5453134338943
 30
0.0
 11
211.3218830972141
 21
135.5453134338943
 31
0.0
  0
LINE
  5
21B
330
51
100
AcDbEntity
  8
1
  6
Continuous
 62
     2
100
AcDbLine
 10
208.5118095056664
 20
136.5453134338943
 30
0.0
 11
211.1558347847625
 21
136.5453134338943
 31
0.0
  0
LINE
  5
21C
330
51
100
AcDbEntity
  8
1
  6
Continuous
 62
     2
100
AcDbLine
 10
208.6253566035417
 20
137.5453134338943
 30
0.0
 11
210.9611826169764
 21
137.5453134338943
 31
0.0
  0
LINE
  5
21D
330
51
100
AcDbEntity
  8
1
  6
Continuous
 62
     2
100
AcDbLine
 10
208.8362297853101
 20
138.5453134338943
 30
0.0
 11
210.6043203093684
 21
138.5453134338943
 31
0.0
  0
LINE
  5
21E
330
51
100
AcDbEntity
  8
1
  6
Continuous
 62
     2
100
AcDbLine
 10
209.0795449950429
 20
139.5453134338943
 30
0.0
 11
210.3447840856533
 21
139.5453134338943
 31
0.0
  0
LINE
  5
21F
330
51
100
AcDbEntity
  8
1
  6
Continuous
 62
     7
100
AcDbLine
 10
207.9921173770104
 20
134.7953134338943
 30
0.0
 11
207.9921173770104
 21
140.5453134338943
 31
0.0
  0
LINE
  5
220
330
51
100
AcDbEntity
  8
1
  6
Continuous
 62
     7
100
AcDbLine
 10
208.3218830972141
 20
135.5453134338943
 30
0.0
 11
208.3218830972141
 21
145.5453134338943
 31
0.0
  0
ARC
  5
221
330
51
100
AcDbEntity
  8
1
  6
Continuous
 62
     7
100
AcDbCircle
 10
232.3218830972141
 20
140.5453134338943
 30
0.0
 40
24.99999999999999
100
AcDbArc
 50
166.7029282527909
 51
179.9833729167932
  0
ARC
  5
222
330
51
100
AcDbEntity
  8
1
  6
Continuous
 62
     7
100
AcDbCircle
 10
105.8264687155291
 20
426.7701327433637
 30
0.0
 40
25.00000000000008
100
AcDbArc
 50
-76.70292825279098
 51
-76.1134596373707
  0
ARC
  5
223
330
51
100
AcDbEntity
  8
1
  6
Continuous
 62
     7
100
AcDbCircle
 10
105.8264687155291
 20
426.7701327433637
 30
0.0
 40
25.0
100
AcDbArc
 50
-90.0
 51
-76.70292825279098
  0
ARC
  5
224
330
51
100
AcDbEntity
  8
1
  6
Continuous
 62
     7
100
AcDbCircle
 10
105.8264687155291
 20
426.7701327433637
 30
0.0
 40
24.99999999999982
100
AcDbArc
 50
-103.8865403626291
 51
-103.297071747209
  0
ARC
  5
225
330
51
100
AcDbEntity
  8
1
  6
Continuous
 62
     7
100
AcDbCircle
 10
105.8264687155291
 20
426.7701327433637
 30
0.0
 40
25.00000000000008
100
AcDbArc
 50
-103.297071747209
 51
-90.0
  0
ARC
  5
226
330
51
100
AcDbEntity
  8
1
  6
Continuous
 62
     7
100
AcDbCircle
 10
232.3218830972141
 20
140.5453134338943
 30
0.0
 40
25.00000000000004
100
AcDbArc
 50
166.1134596373708
 51
166.7029282527909
  0
ARC
  5
227
330
51
100
AcDbEntity
  8
1
  6
Continuous
 62
     7
100
AcDbCircle
 10
232.3218830972141
 20
140.5453134338943
 30
0.0
 40
24.99999999999999
100
AcDbArc
 50
-166.7029282527909
 51
-166.1134596373708
  0
ARC
  5
228
330
51
100
AcDbEntity
  8
1
  6
Continuous
 62
     7
100
AcDbCircle
 10
232.3218830972141
 20
140.5453134338943
 30
0.0
 40
25.00000000000005
100
AcDbArc
 50
179.9833729167932
 51
-166.7029282527909
  0
CIRCLE
  5
229
330
51
100
AcDbEntity
  8
0
  6
Continuous
 62
     7
100
AcDbCircle
 10
105.821883097214
 20
140.5380585002956
 30
0.0
 40
7.0
  0
ENDBLK
  5
53
330
51
100
AcDbEntity
  8
0
100
AcDbBlockEnd
  0
BLOCK
  5
55
330
54
100
AcDbEntity
  8
0
100
AcDbBlockBegin
  2
21-1A
 70
     0
 71
     0
 10
115.8807985881307
 20
-617.2999955608441
 30
0.0
  3
21-1A
  1

  0
LINE
  5
22A
330
54
100
AcDbEntity
  8
1
  6
Continuous
 62
     7
100
AcDbLine
 10
99.321883097214
 20
415.4212366588412
 30
0.0
 11
99.321883097214
 21
409.0942255659646
 31
0.0
  0
LINE
  5
22B
330
54
100
AcDbEntity
  8
1
  6
Continuous
 62
     7
100
AcDbLine
 10
112.321883097214
 20
415.7601836816738
 30
0.0
 11
112.321883097214
 21
409.4331725887972
 31
0.0
  0
LINE
  5
22C
330
54
100
AcDbEntity
  8
1
  6
Continuous
 62
     7
100
AcDbLine
 10
78.17611396823213
 20
416.2005461928836
 30
0.0
 11
78.62802206722438
 21
412.985052988013
 31
0.0
  0
LINE
  5
22D
330
54
100
AcDbEntity
  8
1
  6
Continuous
 62
     7
100
AcDbLine
 10
132.9725181918247
 20
416.7701327433637
 30
0.0
 11
78.67124800260268
 21
416.7701327433637
 31
0.0
  0
LINE
  5
22E
330
54
100
AcDbEntity
  8
1
  6
Continuous
 62
     7
100
AcDbLine
 10
133.0157441272032
 20
412.985052988013
 30
0.0
 11
133.4676522261956
 21
416.2005461928836
 31
0.0
  0
LINE
  5
22F
330
54
100
AcDbEntity
  8
1
  6
Continuous
 62
     7
100
AcDbLine
 10
131.7151588789443
 20
148.7954178131762
 30
0.0
 11
121.739323393982
 21
138.819582328214
 31
0.0
  0
LINE
  5
230
330
54
100
AcDbEntity
  8
1
  6
Continuous
 62
     7
100
AcDbLine
 10
111.6174380549485
 20
113.9851442296805
 30
0.0
 11
115.2688472664189
 21
127.6123889261133
 31
0.0
  0
LINE
  5
231
330
54
100
AcDbEntity
  8
1
  6
Continuous
 62
     7
100
AcDbLine
 10
100.0263281394797
 20
113.9851442296805
 30
0.0
 11
96.37491892800924
 21
127.6123889261133
 31
0.0
  0
LINE
  5
232
330
54
100
AcDbEntity
  8
1
  6
Continuous
 62
     7
100
AcDbLine
 10
79.92860731548387
 20
148.7954178131762
 30
0.0
 11
89.90444280044623
 21
138.819582328214
 31
0.0
  0
LINE
  5
233
330
54
100
AcDbEntity
  8
1
  6
Continuous
 62
     7
100
AcDbLine
 10
85.72416227321816
 20
158.8336134580299
 30
0.0
 11
99.351406969651
 21
155.1822042465595
 31
0.0
  0
LINE
  5
234
330
54
100
AcDbEntity
  8
1
  6
Continuous
 62
     7
100
AcDbLine
 10
126.6801088238304
 20
159.0373901325271
 30
0.0
 11
112.2923592247771
 21
155.1822042465595
 31
0.0
  0
LINE
  5
235
330
54
100
AcDbEntity
  8
1
  6
Continuous
 62
     7
100
AcDbLine
 10
222.3218830972141
 20
158.4628327882214
 30
0.0
 11
222.3218830972141
 21
110.1132427039062
 31
0.0
  0
LINE
  5
236
330
54
100
AcDbEntity
  8
1
  6
Continuous
 62
     7
100
AcDbLine
 10
218.5368033418634
 20
110.0700167685277
 30
0.0
 11
221.752296546734
 21
109.6181086695352
 31
0.0
  0
LINE
  5
237
330
54
100
AcDbEntity
  8
1
  6
Continuous
 62
     7
100
AcDbLine
 10
217.3628064914703
 20
158.3407443546467
 30
0.0
 11
221.7522611645015
 21
158.9579618486543
 31
0.0
  0
LINE
  5
238
330
54
100
AcDbEntity
  8
1
  6
Continuous
 62
     7
100
AcDbLine
 10
220.3836683107855
 20
127.6123889261133
 30
0.0
 11
214.0566572179089
 21
127.6123889261133
 31
0.0
  0
LINE
  5
239
330
54
100
AcDbEntity
  8
1
  6
Continuous
 62
     7
100
AcDbLine
 10
220.0447212879529
 20
138.819582328214
 30
0.0
 11
213.7177101950762
 21
138.819582328214
 31
0.0
  0
ARC
  5
23A
330
54
100
AcDbEntity
  8
1
  6
Continuous
 62
     7
100
AcDbCircle
 10
107.4589734481029
 20
533.1402852836879
 30
0.0
 40
127.4948334081408
100
AcDbArc
 50
-100.8094932463521
 51
-92.53411689479721
  0
ARC
  5
23B
330
54
100
AcDbEntity
  8
1
  6
Continuous
 62
     7
100
AcDbCircle
 10
104.1847927463245
 20
533.1402852836879
 30
0.0
 40
127.4948334081407
100
AcDbArc
 50
-87.46588310520252
 51
-79.19050675364777
  0
ARC
  5
23C
330
54
100
AcDbEntity
  8
1
  6
Continuous
 62
     7
100
AcDbCircle
 10
127.472518191825
 20
153.0380585002955
 30
0.0
 40
6.000000000000028
100
AcDbArc
 50
-45.00000000000019
 51
97.5242410789413
  0
ARC
  5
23D
330
54
100
AcDbEntity
  8
1
  6
Continuous
 62
     7
100
AcDbCircle
 10
84.17124800260314
 20
153.0380585002955
 30
0.0
 40
5.999999999999959
100
AcDbArc
 50
75.00000000000094
 51
-134.9999999999996
  0
ARC
  5
23E
330
54
100
AcDbEntity
  8
1
  6
Continuous
 62
     7
100
AcDbCircle
 10
105.8218830972141
 20
115.5380585002955
 30
0.0
 40
5.999999999999956
100
AcDbArc
 50
-165.0000000000011
 51
-90.0
  0
ARC
  5
23F
330
54
100
AcDbEntity
  8
1
  6
Continuous
 62
     7
100
AcDbCircle
 10
105.8218830972141
 20
115.5380585002955
 30
0.0
 40
6.0
100
AcDbArc
 50
-90.0
 51
-14.99999999999894
  0
ARC
  5
240
330
54
100
AcDbEntity
  8
1
  6
Continuous
 62
     7
100
AcDbCircle
 10
361.321883097214
 20
140.5380585002955
 30
0.0
 40
150.0533238552215
100
AcDbArc
 50
-178.4724745577871
 51
-170.1970982062322
  0
ARC
  5
241
330
54
100
AcDbEntity
  8
1
  6
Continuous
 62
     7
100
AcDbCircle
 10
286.2337041059132
 20
140.9022541655423
 30
0.0
 40
75.0
100
AcDbArc
 50
170.4085075173349
 51
177.2213610340375
  0
ARC
  5
242
330
54
100
AcDbEntity
  8
1
  6
Continuous
 62
     7
100
AcDbCircle
 10
78.67124800260268
 20
416.2701327433637
 30
0.0
 40
0.5
100
AcDbArc
 50
90.0
 51
-171.9999999999891
  0
ARC
  5
243
330
54
100
AcDbEntity
  8
1
  6
Continuous
 62
     7
100
AcDbCircle
 10
84.56963047967383
 20
413.8200915937733
 30
0.0
 40
6.00000000000002
100
AcDbArc
 50
-172.0000000000009
 51
-99.80290179376699
  0
ARC
  5
244
330
54
100
AcDbEntity
  8
1
  6
Continuous
 62
     7
100
AcDbCircle
 10
127.0741357147538
 20
413.8200915937733
 30
0.0
 40
6.000000000000019
100
AcDbArc
 50
-80.19709820623221
 51
-7.99999999999919
  0
ARC
  5
245
330
54
100
AcDbEntity
  8
1
  6
Continuous
 62
     7
100
AcDbCircle
 10
132.9725181918247
 20
416.2701327433637
 30
0.0
 40
0.5000000000001429
100
AcDbArc
 50
-8.00000000000506
 51
90.0
  0
ARC
  5
246
330
54
100
AcDbEntity
  8
1
  6
Continuous
 62
     7
100
AcDbCircle
 10
139.4169929236456
 20
121.1419127985503
 30
0.0
 40
24.99999999999996
100
AcDbArc
 50
134.9999999999998
 51
165.0
  0
ARC
  5
247
330
54
100
AcDbEntity
  8
1
  6
Continuous
 62
     7
100
AcDbCircle
 10
72.22677327078247
 20
121.1419127985503
 30
0.0
 40
25.00000000000005
100
AcDbArc
 50
14.99999999999993
 51
44.99999999999993
  0
ARC
  5
248
330
54
100
AcDbEntity
  8
1
  6
Continuous
 62
     7
100
AcDbCircle
 10
105.8218830972141
 20
179.3303499037862
 30
0.0
 40
25.00000000000002
100
AcDbArc
 50
-105.0000000000002
 51
-75.00000000000004
  0
ARC
  5
249
330
54
100
AcDbEntity
  8
1
  6
Continuous
 62
     7
100
AcDbCircle
 10
219.3718419476236
 20
116.0116251809772
 30
0.0
 40
5.999999999999971
100
AcDbArc
 50
-170.1970982062301
 51
-97.99999999999822
  0
ARC
  5
24A
330
54
100
AcDbEntity
  8
1
  6
Continuous
 62
     7
100
AcDbCircle
 10
218.1982696840218
 20
152.3991956294496
 30
0.0
 40
5.999999999999962
100
AcDbArc
 50
98.00409437170187
 51
170.4085075173346
  0
ARC
  5
24B
330
54
100
AcDbEntity
  8
1
  6
Continuous
 62
     7
100
AcDbCircle
 10
221.8218830972141
 20
110.1132427039062
 30
0.0
 40
0.5000000000002172
100
AcDbArc
 50
-98.00000000000715
 51
0.0
  0
ARC
  5
24C
330
54
100
AcDbEntity
  8
1
  6
Continuous
 62
     7
100
AcDbCircle
 10
221.8218830972141
 20
158.4628327882214
 30
0.0
 40
0.5
100
AcDbArc
 50
0.0
 51
98.00409437170302
  0
ENDBLK
  5
56
330
54
100
AcDbEntity
  8
0
100
AcDbBlockEnd
  0
BLOCK
  5
5A
330
57
100
AcDbEntity
  8
0
100
AcDbBlockBegin
  2
R10A
 70
     0
 71
     0
 10
72.88079858813066
 20
-662.2999955608442
 30
0.0
  3
R10A
  1

  0
INSERT
  5
58
330
57
100
AcDbEntity
  8
0
100
AcDbBlockReference
  2
42-15
 10
410.1115321067989
 20
52.43379841369212
 30
0.0
  0
INSERT
  5
59
330
57
100
AcDbEntity
  8
0
100
AcDbBlockReference
  2
21-1A
 10
115.8807985881307
 20
-617.2999955608441
 30
0.0
  0
ENDBLK
  5
5B
330
57
100
AcDbEntity
  8
0
100
AcDbBlockEnd
  0
BLOCK
  5
26D
330
264
100
AcDbEntity
  8
0
100
AcDbBlockBegin
  2
*D013
 70
     1
 71
     0
 10
0.0
 20
0.0
 30
0.0
  3
*D013
  1

  0
LINE
  5
265
330
264
100
AcDbEntity
  8
1
  6
Continuous
 62
     2
100
AcDbLine
 10
155.821883097214
 20
494.9110164489205
 30
0.0
 11
155.821883097214
 21
480.9110164489205
 31
0.0
  0
LINE
  5
266
330
264
100
AcDbEntity
  8
1
  6
Continuous
 62
     2
100
AcDbLine
 10
155.821883097214
 20
510.9110164489205
 30
0.0
 11
155.821883097214
 21
494.9110164489205
 31
0.0
  0
LINE
  5
267
330
264
100
AcDbEntity
  8
1
  6
Continuous
 62
     2
100
AcDbLine
 10
155.821883097214
 20
524.9110164489205
 30
0.0
 11
155.821883097214
 21
510.9110164489205
 31
0.0
  0
LINE
  5
268
330
264
100
AcDbEntity
  8
1
  6
Continuous
 62
     2
100
AcDbLine
 10
135.821883097214
 20
510.9110164489205
 30
0.0
 11
157.821883097214
 21
510.9110164489205
 31
0.0
  0
LINE
  5
269
330
264
100
AcDbEntity
  8
1
  6
Continuous
 62
     2
100
AcDbLine
 10
118.0260515739013
 20
494.9110164489205
 30
0.0
 11
157.821883097214
 21
494.9110164489205
 31
0.0
  0
SOLID
  5
26A
330
264
100
AcDbEntity
  8
1
 62
     2
100
AcDbTrace
 10
154.9003156141022
 20
517.9110164489205
 30
0.0
 11
156.7434505803258
 21
517.9110164489205
 31
0.0
 12
155.821883097214
 22
510.9110164489205
 32
0.0
 13
155.821883097214
 23
510.9110164489205
 33
0.0
  0
SOLID
  5
26B
330
264
100
AcDbEntity
  8
1
 62
     2
100
AcDbTrace
 10
156.7434505803258
 20
487.9110164489205
 30
0.0
 11
154.9003156141022
 21
487.9110164489205
 31
0.0
 12
155.821883097214
 22
494.9110164489205
 32
0.0
 13
155.821883097214
 23
494.9110164489205
 33
0.0
  0
MTEXT
  5
26C
330
264
100
AcDbEntity
  8
1
 62
     7
100
AcDbMText
 10
153.821883097214
 20
498.6165777976769
 30
0.0
 40
7.0
 41
0.0
 71
     7
 72
     1
  1
16
  7
CONVERTER_2
 11
0.0
 21
1.0
 31
0.0
 73
     1
 44
0.60024009603842
  0
ENDBLK
  5
26E
330
264
100
AcDbEntity
  8
0
100
AcDbBlockEnd
  0
BLOCK
  5
278
330
271
100
AcDbEntity
  8
0
100
AcDbBlockBegin
  2
*D114
 70
     1
 71
     0
 10
0.0
 20
0.0
 30
0.0
  3
*D114
  1

  0
LINE
  5
272
330
271
100
AcDbEntity
  8
1
  6
Continuous
 62
     2
100
AcDbLine
 10
369.821883097214
 20
170.5380585002956
 30
0.0
 11
369.821883097214
 21
110.5380585002956
 31
0.0
  0
LINE
  5
273
330
271
100
AcDbEntity
  8
1
  6
Continuous
 62
     2
100
AcDbLine
 10
316.4627668027711
 20
170.5380585002956
 30
0.0
 11
371.821883097214
 21
170.5380585002956
 31
0.0
  0
LINE
  5
274
330
271
100
AcDbEntity
  8
1
  6
Continuous
 62
     2
100
AcDbLine
 10
316.4627668027711
 20
110.5380585002956
 30
0.0
 11
371.821883097214
 21
110.5380585002956
 31
0.0
  0
SOLID
  5
275
330
271
100
AcDbEntity
  8
1
 62
     2
100
AcDbTrace
 10
370.7434505803258
 20
163.5380585002956
 30
0.0
 11
368.9003156141023
 21
163.5380585002956
 31
0.0
 12
369.821883097214
 22
170.5380585002956
 32
0.0
 13
369.821883097214
 23
170.5380585002956
 33
0.0
  0
SOLID
  5
276
330
271
100
AcDbEntity
  8
1
 62
     2
100
AcDbTrace
 10
368.9003156141023
 20
117.5380585002956
 30
0.0
 11
370.7434505803258
 21
117.5380585002956
 31
0.0
 12
369.821883097214
 22
110.5380585002956
 32
0.0
 13
369.821883097214
 23
110.5380585002956
 33
0.0
  0
MTEXT
  5
277
330
271
100
AcDbEntity
  8
1
 62
     7
100
AcDbMText
 10
367.821883097214
 20
132.836885622973
 30
0.0
 40
7.0
 41
0.0
 71
     7
 72
     1
  1
{\Fgdt;n}60
  7
CONVERTER_2
 11
0.0
 21
1.0
 31
0.0
 73
     1
 44
0.60024009603842
  0
ENDBLK
  5
279
330
271
100
AcDbEntity
  8
0
100
AcDbBlockEnd
  0
BLOCK
  5
283
330
27C
100
AcDbEntity
  8
0
100
AcDbBlockBegin
  2
*D215
 70
     1
 71
     0
 10
0.0
 20
0.0
 30
0.0
  3
*D215
  1

  0
LINE
  5
27D
330
27C
100
AcDbEntity
  8
1
  6
Continuous
 62
     2
100
AcDbLine
 10
255.8218830972141
 20
90.53805850029561
 30
0.0
 11
349.821883097214
 21
90.53805850029561
 31
0.0
  0
LINE
  5
27E
330
27C
100
AcDbEntity
  8
1
  6
Continuous
 62
     2
100
AcDbLine
 10
349.821883097214
 20
131.7932464981433
 30
0.0
 11
349.821883097214
 21
88.53805850029561
 31
0.0
  0
LINE
  5
27F
330
27C
100
AcDbEntity
  8
1
  6
Continuous
 62
     2
100
AcDbLine
 10
255.8218830972141
 20
122.0380585002956
 30
0.0
 11
255.8218830972141
 21
88.53805850029561
 31
0.0
  0
SOLID
  5
280
330
27C
100
AcDbEntity
  8
1
 62
     2
100
AcDbTrace
 10
262.8218830972141
 20
91.45962598340738
 30
0.0
 11
262.8218830972141
 21
89.61649101718383
 31
0.0
 12
255.8218830972141
 22
90.53805850029561
 32
0.0
 13
255.8218830972141
 23
90.53805850029561
 33
0.0
  0
SOLID
  5
281
330
27C
100
AcDbEntity
  8
1
 62
     2
100
AcDbTrace
 10
342.821883097214
 20
89.61649101718383
 30
0.0
 11
342.821883097214
 21
91.45962598340738
 31
0.0
 12
349.821883097214
 22
90.53805850029561
 32
0.0
 13
349.821883097214
 23
90.53805850029561
 33
0.0
  0
MTEXT
  5
282
330
27C
100
AcDbEntity
  8
1
 62
     7
100
AcDbMText
 10
297.5741330588884
 20
92.53805850029561
 30
0.0
 40
7.0
 41
0.0
 71
     7
 72
     1
  1
94
  7
CONVERTER_2
 11
0.9999999999970621
 21
2.424068405545307E-6
 31
0.0
 73
     1
 44
0.60024009603842
  0
ENDBLK
  5
284
330
27C
100
AcDbEntity
  8
0
100
AcDbBlockEnd
  0
BLOCK
  5
28E
330
287
100
AcDbEntity
  8
0
100
AcDbBlockBegin
  2
*D316
 70
     1
 71
     0
 10
0.0
 20
0.0
 30
0.0
  3
*D316
  1

  0
LINE
  5
288
330
287
100
AcDbEntity
  8
1
  6
Continuous
 62
     2
100
AcDbLine
 10
207.3218841498954
 20
90.53805850029561
 30
0.0
 11
255.8218830972141
 21
90.53805850029561
 31
0.0
  0
LINE
  5
289
330
287
100
AcDbEntity
  8
1
  6
Continuous
 62
     2
100
AcDbLine
 10
207.3218841498954
 20
140.5525683674666
 30
0.0
 11
207.3218841498954
 21
88.53805850029561
 31
0.0
  0
LINE
  5
28A
330
287
100
AcDbEntity
  8
1
  6
Continuous
 62
     2
100
AcDbLine
 10
255.8218830972141
 20
122.0380585002956
 30
0.0
 11
255.8218830972141
 21
88.53805850029561
 31
0.0
  0
SOLID
  5
28B
330
287
100
AcDbEntity
  8
1
 62
     2
100
AcDbTrace
 10
214.3218841498954
 20
91.45962598340738
 30
0.0
 11
214.3218841498954
 21
89.61649101718383
 31
0.0
 12
207.3218841498954
 22
90.53805850029561
 32
0.0
 13
207.3218841498954
 23
90.53805850029561
 33
0.0
  0
SOLID
  5
28C
330
287
100
AcDbEntity
  8
1
 62
     2
100
AcDbTrace
 10
248.8218830972141
 20
89.61649101718383
 30
0.0
 11
248.8218830972141
 21
91.45962598340738
 31
0.0
 12
255.8218830972141
 22
90.53805850029561
 32
0.0
 13
255.8218830972141
 23
90.53805850029561
 33
0.0
  0
MTEXT
  5
28D
330
287
100
AcDbEntity
  8
1
 62
     7
100
AcDbMText
 10
212.9342102190433
 20
92.53805850029561
 30
0.0
 40
7.0
 41
0.0
 71
     7
 72
     1
  1
49リフト5
  7
CONVERTER_1
 11
0.9999999999970621
 21
2.424068405545307E-6
 31
0.0
 73
     1
 44
0.60024009603842
  0
ENDBLK
  5
28F
330
287
100
AcDbEntity
  8
0
100
AcDbBlockEnd
  0
BLOCK
  5
299
330
292
100
AcDbEntity
  8
0
100
AcDbBlockBegin
  2
*D417
 70
     1
 71
     0
 10
0.0
 20
0.0
 30
0.0
  3
*D417
  1

  0
LINE
  5
293
330
292
100
AcDbEntity
  8
1
  6
Continuous
 62
     2
100
AcDbLine
 10
187.3218841498953
 20
172.5380585002956
 30
0.0
 11
187.3218841498953
 21
140.5380585002956
 31
0.0
  0
LINE
  5
294
330
292
100
AcDbEntity
  8
1
  6
Continuous
 62
     2
100
AcDbLine
 10
243.7845523833964
 20
172.5380585002956
 30
0.0
 11
185.3218841498953
 21
172.5380585002956
 31
0.0
  0
LINE
  5
295
330
292
100
AcDbEntity
  8
1
  6
Continuous
 62
     2
100
AcDbLine
 10
201.3218841498953
 20
140.5380585002956
 30
0.0
 11
185.3218841498953
 21
140.5380585002956
 31
0.0
  0
SOLID
  5
296
330
292
100
AcDbEntity
  8
1
 62
     2
100
AcDbTrace
 10
188.2434516330071
 20
165.5380585002956
 30
0.0
 11
186.4003166667835
 21
165.5380585002956
 31
0.0
 12
187.3218841498953
 22
172.5380585002956
 32
0.0
 13
187.3218841498953
 23
172.5380585002956
 33
0.0
  0
SOLID
  5
297
330
292
100
AcDbEntity
  8
1
 62
     2
100
AcDbTrace
 10
186.4003166667835
 20
147.5380585002956
 30
0.0
 11
188.2434516330071
 21
147.5380585002956
 31
0.0
 12
187.3218841498953
 22
140.5380585002956
 32
0.0
 13
187.3218841498953
 23
140.5380585002956
 33
0.0
  0
MTEXT
  5
298
330
292
100
AcDbEntity
  8
1
 62
     7
100
AcDbMText
 10
185.3218841498953
 20
151.001708476304
 30
0.0
 40
7.0
 41
0.0
 71
     7
 72
     1
  1
32
  7
CONVERTER_2
 11
0.0
 21
1.0
 31
0.0
 73
     1
 44
0.60024009603842
  0
ENDBLK
  5
29A
330
292
100
AcDbEntity
  8
0
100
AcDbBlockEnd
  0
BLOCK
  5
2A6
330
29D
100
AcDbEntity
  8
0
100
AcDbBlockBegin
  2
*D518
 70
     1
 71
     0
 10
0.0
 20
0.0
 30
0.0
  3
*D518
  1

  0
LINE
  5
29E
330
29D
100
AcDbEntity
  8
0
  6
Continuous
 62
     2
100
AcDbLine
 10
275.647405158966
 20
392.5380585002956
 30
0.0
 11
255.821883097214
 21
392.5380585002956
 31
0.0
  0
LINE
  5
29F
330
29D
100
AcDbEntity
  8
0
  6
Continuous
 62
     2
100
AcDbLine
 10
255.821883097214
 20
392.5380585002956
 30
0.0
 11
240.821883097214
 21
392.5380585002956
 31
0.0
  0
LINE
  5
2A0
330
29D
100
AcDbEntity
  8
0
  6
Continuous
 62
     2
100
AcDbLine
 10
240.821883097214
 20
392.5380585002956
 30
0.0
 11
226.821883097214
 21
392.5380585002956
 31
0.0
  0
LINE
  5
2A1
330
29D
100
AcDbEntity
  8
0
  6
Continuous
 62
     2
100
AcDbLine
 10
240.821883097214
 20
375.7944099079722
 30
0.0
 11
240.821883097214
 21
394.5380585002956
 31
0.0
  0
LINE
  5
2A2
330
29D
100
AcDbEntity
  8
0
  6
Continuous
 62
     2
100
AcDbLine
 10
255.821883097214
 20
204.5380585002956
 30
0.0
 11
255.821883097214
 21
394.5380585002956
 31
0.0
  0
SOLID
  5
2A3
330
29D
100
AcDbEntity
  8
0
 62
     2
100
AcDbTrace
 10
262.821883097214
 20
393.4596259834074
 30
0.0
 11
262.821883097214
 21
391.6164910171839
 31
0.0
 12
255.821883097214
 22
392.5380585002956
 32
0.0
 13
255.821883097214
 23
392.5380585002956
 33
0.0
  0
SOLID
  5
2A4
330
29D
100
AcDbEntity
  8
0
 62
     2
100
AcDbTrace
 10
233.821883097214
 20
391.6164910171839
 30
0.0
 11
233.821883097214
 21
393.4596259834074
 31
0.0
 12
240.821883097214
 22
392.5380585002956
 32
0.0
 13
240.821883097214
 23
392.5380585002956
 33
0.0
  0
MTEXT
  5
2A5
330
29D
100
AcDbEntity
  8
0
 62
     7
100
AcDbMText
 10
267.247405158966
 20
394.5380585002956
 30
0.0
 40
7.0
 41
0.0
 71
     7
 72
     1
  1
15
  7
CONVERTER_2
 11
0.9999999999970621
 21
2.424068405545307E-6
 31
0.0
 73
     1
 44
0.60024009603842
  0
ENDBLK
  5
2A7
330
29D
100
AcDbEntity
  8
0
100
AcDbBlockEnd
  0
BLOCK
  5
2B2
330
2AA
100
AcDbEntity
  8
0
100
AcDbBlockBegin
  2
*D619
 70
     1
 71
     0
 10
0.0
 20
0.0
 30
0.0
  3
*D619
  1

  0
LINE
  5
2AB
330
2AA
100
AcDbEntity
  8
1
  6
Continuous
 62
     2
100
AcDbLine
 10
87.82401556179984
 20
486.6766932442001
 30
0.0
 11
113.8240155617999
 21
486.6766932442001
 31
0.0
  0
LINE
  5
2AC
330
2AA
100
AcDbEntity
  8
1
  6
Continuous
 62
     2
100
AcDbLine
 10
66.26042325709523
 20
486.6766932442001
 30
0.0
 11
87.82401556179984
 21
486.6766932442001
 31
0.0
  0
LINE
  5
2AD
330
2AA
100
AcDbEntity
  8
1
  6
Continuous
 62
     2
100
AcDbLine
 10
92.82188309721406
 20
478.0201327433637
 30
0.0
 11
86.82401556179983
 21
488.408744051769
 31
0.0
  0
LINE
  5
2AE
330
2AA
100
AcDbEntity
  8
1
  6
Continuous
 62
     2
100
AcDbLine
 10
118.8218830972139
 20
478.0201327433639
 30
0.0
 11
112.8240155617999
 21
488.408744051769
 31
0.0
  0
SOLID
  5
2AF
330
2AA
100
AcDbEntity
  8
1
 62
     2
100
AcDbTrace
 10
94.82401556179984
 20
487.5982607273119
 30
0.0
 11
94.82401556179984
 21
485.7551257610884
 31
0.0
 12
87.82401556179984
 22
486.6766932442001
 32
0.0
 13
87.82401556179984
 23
486.6766932442001
 33
0.0
  0
SOLID
  5
2B0
330
2AA
100
AcDbEntity
  8
1
 62
     2
100
AcDbTrace
 10
106.8240155617999
 20
485.7551257610884
 30
0.0
 11
106.8240155617999
 21
487.5982607273119
 31
0.0
 12
113.8240155617999
 22
486.6766932442001
 32
0.0
 13
113.8240155617999
 23
486.6766932442001
 33
0.0
  0
MTEXT
  5
2B1
330
2AA
100
AcDbEntity
  8
1
 62
     7
100
AcDbMText
 10
66.26042325709523
 20
488.6766932442001
 30
0.0
 40
7.0
 41
0.0
 71
     7
 72
     1
  1
26
  7
CONVERTER_2
 11
0.9999999999970621
 21
2.424068405545307E-6
 31
0.0
 73
     1
 44
0.60024009603842
  0
ENDBLK
  5
2B3
330
2AA
100
AcDbEntity
  8
0
100
AcDbBlockEnd
  0
BLOCK
  5
2BE
330
2B6
100
AcDbEntity
  8
0
100
AcDbBlockBegin
  2
*D720
 70
     1
 71
     0
 10
0.0
 20
0.0
 30
0.0
  3
*D720
  1

  0
LINE
  5
2B7
330
2B6
100
AcDbEntity
  8
1
  6
Continuous
 62
     2
100
AcDbLine
 10
80.84948989886148
 20
187.5849101137359
 30
0.0
 11
103.8494898988615
 21
187.5849101137359
 31
0.0
  0
LINE
  5
2B8
330
2B6
100
AcDbEntity
  8
1
  6
Continuous
 62
     2
100
AcDbLine
 10
65.97826670310046
 20
187.5849101137359
 30
0.0
 11
80.84948989886148
 21
187.5849101137359
 31
0.0
  0
LINE
  5
2B9
330
2B6
100
AcDbEntity
  8
1
  6
Continuous
 62
     2
100
AcDbLine
 10
94.32188309721383
 20
174.1125169153835
 30
0.0
 11
79.43527633648837
 21
188.999123676109
 31
0.0
  0
LINE
  5
2BA
330
2B6
100
AcDbEntity
  8
1
  6
Continuous
 62
     2
100
AcDbLine
 10
117.3218830972138
 20
174.1125169153835
 30
0.0
 11
102.4352763364884
 21
188.999123676109
 31
0.0
  0
SOLID
  5
2BB
330
2B6
100
AcDbEntity
  8
1
 62
     2
100
AcDbTrace
 10
87.84948989886148
 20
188.5064775968477
 30
0.0
 11
87.84948989886148
 21
186.6633426306241
 31
0.0
 12
80.84948989886148
 22
187.5849101137359
 32
0.0
 13
80.84948989886148
 23
187.5849101137359
 33
0.0
  0
SOLID
  5
2BC
330
2B6
100
AcDbEntity
  8
1
 62
     2
100
AcDbTrace
 10
96.84948989886148
 20
186.6633426306241
 30
0.0
 11
96.84948989886148
 21
188.5064775968477
 31
0.0
 12
103.8494898988615
 22
187.5849101137359
 32
0.0
 13
103.8494898988615
 23
187.5849101137359
 33
0.0
  0
MTEXT
  5
2BD
330
2B6
100
AcDbEntity
  8
1
 62
     7
100
AcDbMText
 10
65.97826670310046
 20
189.5849101137359
 30
0.0
 40
7.0
 41
0.0
 71
     7
 72
     1
  1
23
  7
CONVERTER_2
 11
0.9999999999970621
 21
2.424068405545307E-6
 31
0.0
 73
     1
 44
0.60024009603842
  0
ENDBLK
  5
2BF
330
2B6
100
AcDbEntity
  8
0
100
AcDbBlockEnd
  0
BLOCK
  5
2CB
330
2C2
100
AcDbEntity
  8
0
100
AcDbBlockBegin
  2
*D821
 70
     1
 71
     0
 10
0.0
 20
0.0
 30
0.0
  3
*D821
  1

  0
LINE
  5
2C3
330
2C2
100
AcDbEntity
  8
1
  6
Continuous
 62
     2
100
AcDbLine
 10
247.1718830972141
 20
408.5380585002956
 30
0.0
 11
261.1718830972141
 21
408.5380585002956
 31
0.0
  0
LINE
  5
2C4
330
2C2
100
AcDbEntity
  8
1
  6
Continuous
 62
     2
100
AcDbLine
 10
234.471883097214
 20
408.5380585002956
 30
0.0
 11
247.1718830972141
 21
408.5380585002956
 31
0.0
  0
LINE
  5
2C5
330
2C2
100
AcDbEntity
  8
1
  6
Continuous
 62
     2
100
AcDbLine
 10
220.471883097214
 20
408.5380585002956
 30
0.0
 11
234.471883097214
 21
408.5380585002956
 31
0.0
  0
LINE
  5
2C6
330
2C2
100
AcDbEntity
  8
1
  6
Continuous
 62
     2
100
AcDbLine
 10
234.471883097214
 20
372.5380585002956
 30
0.0
 11
234.471883097214
 21
410.5380585002956
 31
0.0
  0
LINE
  5
2C7
330
2C2
100
AcDbEntity
  8
1
  6
Continuous
 62
     2
100
AcDbLine
 10
247.1718830972141
 20
372.5380585002956
 30
0.0
 11
247.1718830972141
 21
410.5380585002956
 31
0.0
  0
SOLID
  5
2C8
330
2C2
100
AcDbEntity
  8
1
 62
     2
100
AcDbTrace
 10
227.471883097214
 20
407.6164910171838
 30
0.0
 11
227.471883097214
 21
409.4596259834073
 31
0.0
 12
234.471883097214
 22
408.5380585002956
 32
0.0
 13
234.471883097214
 23
408.5380585002956
 33
0.0
  0
SOLID
  5
2C9
330
2C2
100
AcDbEntity
  8
1
 62
     2
100
AcDbTrace
 10
254.1718830972141
 20
409.4596259834073
 30
0.0
 11
254.1718830972141
 21
407.6164910171838
 31
0.0
 12
247.1718830972141
 22
408.5380585002956
 32
0.0
 13
247.1718830972141
 23
408.5380585002956
 33
0.0
  0
MTEXT
  5
2CA
330
2C2
100
AcDbEntity
  8
1
 62
     7
100
AcDbMText
 10
229.420685168798
 20
411.2380585002956
 30
0.0
 40
7.0
 41
0.0
 71
     7
 72
     1
  1
{\Fgdt;n}12,7
  7
CONVERTER_2
 11
0.9999999999970621
 21
2.424068405545307E-6
 31
0.0
 73
     1
 44
0.60024009603842
  0
ENDBLK
  5
2CC
330
2C2
100
AcDbEntity
  8
0
100
AcDbBlockEnd
  0
BLOCK
  5
2D6
330
2CF
100
AcDbEntity
  8
0
100
AcDbBlockBegin
  2
*D922
 70
     1
 71
     0
 10
0.0
 20
0.0
 30
0.0
  3
*D922
  1

  0
LINE
  5
2D0
330
2CF
100
AcDbEntity
  8
1
  6
Continuous
 62
     2
100
AcDbLine
 10
187.3218841498953
 20
172.5380585002956
 30
0.0
 11
187.3218841498953
 21
372.5380585002956
 31
0.0
  0
LINE
  5
2D1
330
2CF
100
AcDbEntity
  8
1
  6
Continuous
 62
     2
100
AcDbLine
 10
234.471883097214
 20
372.5380585002956
 30
0.0
 11
185.3218841498953
 21
372.5380585002956
 31
0.0
  0
LINE
  5
2D2
330
2CF
100
AcDbEntity
  8
1
  6
Continuous
 62
     2
100
AcDbLine
 10
243.7845523833964
 20
172.5380585002956
 30
0.0
 11
185.3218841498953
 21
172.5380585002956
 31
0.0
  0
SOLID
  5
2D3
330
2CF
100
AcDbEntity
  8
1
 62
     2
100
AcDbTrace
 10
186.4003166667835
 20
179.5380585002956
 30
0.0
 11
188.2434516330071
 21
179.5380585002956
 31
0.0
 12
187.3218841498953
 22
172.5380585002956
 32
0.0
 13
187.3218841498953
 23
172.5380585002956
 33
0.0
  0
SOLID
  5
2D4
330
2CF
100
AcDbEntity
  8
1
 62
     2
100
AcDbTrace
 10
188.2434516330071
 20
365.5380585002956
 30
0.0
 11
186.4003166667835
 21
365.5380585002956
 31
0.0
 12
187.3218841498953
 22
372.5380585002956
 32
0.0
 13
187.3218841498953
 23
372.5380585002956
 33
0.0
  0
MTEXT
  5
2D5
330
2CF
100
AcDbEntity
  8
1
 62
     7
100
AcDbMText
 10
185.3218841498953
 20
267.4606046920264
 30
0.0
 40
7.0
 41
0.0
 71
     7
 72
     1
  1
200
  7
CONVERTER_2
 11
0.0
 21
1.0
 31
0.0
 73
     1
 44
0.60024009603842
  0
ENDBLK
  5
2D7
330
2CF
100
AcDbEntity
  8
0
100
AcDbBlockEnd
  0
ENDSEC
  0
SECTION
  2
ENTITIES
  0
INSERT
  5
5C
330
1F
100
AcDbEntity
  8
1
100
AcDbBlockReference
  2
V22-0A-13
 10
133.7385709387331
 20
2318.277740897449
 30
0.0
  0
INSERT
  5
5D
330
1F
100
AcDbEntity
  8
0
100
AcDbBlockReference
  2
78-167
 10
261.383449161693
 20
384.262230591504
 30
0.0
  0
INSERT
  5
5E
330
1F
100
AcDbEntity
  8
1
100
AcDbBlockReference
  2
64-7-13-75-M11
 10
146.572807280944
 20
936.871119885507
 30
0.0
  0
INSERT
  5
5F
330
1F
100
AcDbEntity
  8
1
100
AcDbBlockReference
  2
V22-0A-13-__________
 10
0.00000000000004
 20
2192.5
 30
0.0
  0
INSERT
  5
60
330
1F
100
AcDbEntity
  8
1
100
AcDbBlockReference
  2
_J__A4
 10
0.0
 20
0.0
 30
0.0
 41
2.0
 42
2.0
 43
2.0
  0
INSERT
  5
61
330
1F
100
AcDbEntity
  8
0
100
AcDbBlockReference
  2
66-16-15-200
 10
453.6799498023069
 20
51.63793457449393
 30
0.0
  0
INSERT
  5
62
330
1F
100
AcDbEntity
  8
1
100
AcDbBlockReference
  2
36-1A-13
 10
254.021883097214
 20
140.5380585002956
 30
0.0
  0
INSERT
  5
63
330
1F
100
AcDbEntity
  8
0
100
AcDbBlockReference
  2
32-12-M2
 10
243.321883097214
 20
-327.1138900216624
 30
0.0
  0
INSERT
  5
64
330
1F
100
AcDbEntity
  8
0
100
AcDbBlockReference
  2
37-1-13
 10
378.3175889873587
 20
-448.4256338759111
 30
0.0
  0
INSERT
  5
65
330
1F
100
AcDbEntity
  8
0
100
AcDbBlockReference
  2
R10A
 10
72.88079858813066
 20
-662.2999955608442
 30
0.0
  0
LINE
  5
24D
330
1F
100
AcDbEntity
  8
1
  6
DASH_CENTER
 62
     2
100
AcDbLine
 10
201.3218841498953
 20
140.5380585002956
 30
0.0
 11
354.6615811679142
 21
140.5380585002956
 31
0.0
  0
LINE
  5
24E
330
1F
100
AcDbEntity
  8
1
  6
DASH_CENTER
 62
     2
100
AcDbLine
 10
255.821883097214
 20
204.5380585002956
 30
0.0
 11
255.8218830972141
 21
122.0380585002956
 31
0.0
  0
LINE
  5
24F
330
1F
100
AcDbEntity
  8
1
  6
DASH_CENTER
 62
     2
100
AcDbLine
 10
87.62573831617091
 20
130.0324917651199
 30
0.0
 11
137.8647567944794
 21
159.0381732337914
 31
0.0
  0
LINE
  5
250
330
1F
100
AcDbEntity
  8
1
  6
DASH_CENTER
 62
     2
100
AcDbLine
 10
124.0180355199206
 20
130.0325050008305
 30
0.0
 11
73.77894315718987
 21
159.0380585002955
 31
0.0
  0
LINE
  5
251
330
1F
100
AcDbEntity
  8
1
  6
DASH_CENTER
 62
     2
100
AcDbLine
 10
69.8218830972137
 20
140.5380585002956
 30
0.0
 11
141.8218830972137
 21
140.5380585002956
 31
0.0
  0
LINE
  5
252
330
1F
100
AcDbEntity
  8
1
  6
DASH_CENTER
 62
     2
100
AcDbLine
 10
105.8218830972139
 20
103.5380585002955
 30
0.0
 11
105.8218830972139
 21
378.5380585002956
 31
0.0
  0
LINE
  5
253
330
1F
100
AcDbEntity
  8
1
  6
DASH_CENTER
 62
     2
100
AcDbLine
 10
93.47188309721391
 20
435.2701327433636
 30
0.0
 11
118.171883097214
 21
435.2701327433636
 31
0.0
  0
LINE
  5
254
330
1F
100
AcDbEntity
  8
1
  6
DASH_CENTER
 62
     2
100
AcDbLine
 10
87.321883097214
 20
450.2701327433636
 30
0.0
 11
124.321883097214
 21
450.2701327433636
 31
0.0
  0
LINE
  5
255
330
1F
100
AcDbEntity
  8
1
  6
DASH_CENTER
 62
     2
100
AcDbLine
 10
105.821883097214
 20
395.7701331639217
 30
0.0
 11
105.8218830972139
 21
550.2701327433636
 31
0.0
  0
LINE
  5
256
330
1F
100
AcDbEntity
  8
1
  6
DASH_CENTER
 62
     2
100
AcDbLine
 10
240.821883097214
 20
277.5380585002956
 30
0.0
 11
240.821883097214
 21
375.7944099079722
 31
0.0
  0
LINE
  5
257
330
1F
100
AcDbEntity
  8
1
  6
DASH_CENTER
 62
     2
100
AcDbLine
 10
253.8880342701644
 20
219.6483890049561
 30
0.0
 11
242.7557319242636
 21
262.4277279956352
 31
0.0
  0
ARC
  5
258
330
1F
100
AcDbEntity
  8
1
  6
DASH_CENTER
 62
     2
100
AcDbCircle
 10
300.8218830972141
 20
277.5380585002956
 30
0.0
 40
60.00000000000009
100
AcDbArc
 50
180.0
 51
-165.4136479153897
  0
ARC
  5
259
330
1F
100
AcDbEntity
  8
1
  6
DASH_CENTER
 62
     2
100
AcDbCircle
 10
195.821883097214
 20
204.5380585002956
 30
0.0
 40
60.0
100
AcDbArc
 50
0.0
 51
14.58635208461039
  0
SOLID
  5
25A
330
1F
100
AcDbEntity
  8
1
 62
     2
100
AcDbTrace
 10
344.3892222202909
 20
157.292821316136
 30
0.0
 11
345.9854239236439
 21
156.3712538330242
 31
0.0
 12
341.6873230719674
 22
150.769859748089
 32
0.0
 13
341.6873230719674
 23
150.769859748089
 33
0.0
  0
LEADER
  5
25B
330
1F
100
AcDbEntity
  8
1
  6
Continuous
 62
     2
100
AcDbLeader
  3
Standard
 71
     0
 76
     3
 10
341.6873230719674
 20
150.769859748089
 30
0.0
 10
357.9577614227629
 20
178.951085633084
 30
0.0
 10
384.86610138305
 20
178.951085633084
 30
0.0
  0
MTEXT
  5
25D
330
1F
100
AcDbEntity
  8
0
 62
     7
100
AcDbMText
 10
187.5
 20
34.0
 30
0.0
 40
7.0
 41
0.0
 71
     5
 72
     1
  1
2
  7
CONVERTER_2
 73
     1
 44
0.7202881152461
  0
MTEXT
  5
25E
330
1F
100
AcDbEntity
  8
0
 62
     7
100
AcDbMText
 10
170.5
 20
34.0
 30
0.0
 40
7.0
 41
0.0
 71
     5
 72
     1
  1
1
  7
CONVERTER_2
 73
     1
 44
0.7202881152461
  0
MTEXT
  5
25F
330
1F
100
AcDbEntity
  8
1
 62
     7
100
AcDbMText
 10
114.0
 20
28.5
 30
0.0
 40
7.0
 41
0.0
 71
     5
 72
     1
  1
V22J-13
  7
CONVERTER_2
 73
     1
 44
0.7202881152461
  0
MTEXT
  5
260
330
1F
100
AcDbEntity
  8
1
 62
     7
100
AcDbMText
 10
68.0
 20
75.0
 30
0.0
 40
7.0
 41
0.0
 71
     4
 72
     1
  1
JIS
  7
CONVERTER_2
 73
     1
 44
1.32052821128451
  0
MTEXT
  5
261
330
1F
100
AcDbEntity
  8
0
 62
     7
100
AcDbMText
 10
371.4119314029065
 20
184.951085633084
 30
0.0
 40
7.0
 41
0.0
 71
     5
 72
     1
  1
R1/2
  7
CONVERTER_2
 73
     1
 44
1.32052821128451
  0
MTEXT
  5
262
330
1F
100
AcDbEntity
  8
1
 62
     7
100
AcDbMText
 10
114.0
 20
45.50000000000002
 30
0.0
 40
7.0
 41
0.0
 71
     5
 72
     1
  1
アングル止水栓
  7
CONVERTER_1
 73
     1
 44
0.7202881152461
  0
MTEXT
  5
263
330
1F
100
AcDbEntity
  8
1
 62
     7
100
AcDbMText
 10
68.0
 20
61.00000000000001
 30
0.0
 40
7.0
 41
0.0
 71
     4
 72
     1
  1
共用形
  7
CONVERTER_1
 73
     1
 44
0.7202881152461
  0
DIMENSION
  5
270
330
1F
100
AcDbEntity
  8
1
100
AcDbDimension
  2
*D013
 10
155.821883097214
 20
510.9110164489205
 30
0.0
 11
150.321883097214
 21
502.8165777976769
 31
0.0
  1
<>
 71
     5
 42
0.0
 53
90.0
  3
ME10_DIM_0
100
AcDbAlignedDimension
 13
118.0260515739013
 23
494.9110164489206
 33
0.0
 14
135.821883097214
 24
510.9110164489206
 34
0.0
 50
90.0
100
AcDbRotatedDimension
  0
DIMENSION
  5
27B
330
1F
100
AcDbEntity
  8
1
100
AcDbDimension
  2
*D114
 10
369.821883097214
 20
170.5380585002956
 30
0.0
 11
364.321883097214
 21
141.586885622973
 31
0.0
  1
^N1^O60
 71
     5
 42
0.0
 53
90.0
  3
ME10_DIM_1
100
AcDbAlignedDimension
 13
316.462766802771
 23
110.5380585002956
 33
0.0
 14
316.462766802771
 24
170.5380585002956
 34
0.0
 50
90.0
100
AcDbRotatedDimension
  0
DIMENSION
  5
286
330
1F
100
AcDbEntity
  8
1
100
AcDbDimension
  2
*D215
 10
255.8218830972141
 20
90.53805850029561
 30
0.0
 11
302.8241330588884
 21
96.03805850029561
 31
0.0
  1
<>
 71
     5
 42
0.0
 53
0.00013888888889
  3
ME10_DIM_2
100
AcDbAlignedDimension
 13
349.821883097214
 23
131.7932464981433
 33
0.0
 14
255.8218830972141
 24
122.0380585002956
 34
0.0
100
AcDbRotatedDimension
  0
DIMENSION
  5
291
330
1F
100
AcDbEntity
  8
1
100
AcDbDimension
  2
*D316
 10
207.3218841498954
 20
90.53805850029561
 30
0.0
 11
231.8342102190433
 21
96.03805850029561
 31
0.0
  1
49リフト5
 71
     5
 42
0.0
 53
0.00013888888889
  3
ME10_DIM_3
100
AcDbAlignedDimension
 13
255.8218830972141
 23
122.0380585002956
 33
0.0
 14
207.3218841498953
 24
140.5525683674665
 34
0.0
100
AcDbRotatedDimension
  0
DIMENSION
  5
29C
330
1F
100
AcDbEntity
  8
1
100
AcDbDimension
  2
*D417
 10
187.3218841498953
 20
172.5380585002956
 30
0.0
 11
181.8218841498953
 21
156.251708476304
 31
0.0
  1
<>
 71
     5
 42
0.0
 53
90.0
  3
ME10_DIM_4
100
AcDbAlignedDimension
 13
201.3218841498953
 23
140.5380585002956
 33
0.0
 14
243.7845523833965
 24
172.5380585002956
 34
0.0
 50
90.0
100
AcDbRotatedDimension
  0
DIMENSION
  5
2A9
330
1F
100
AcDbEntity
  8
0
100
AcDbDimension
  2
*D518
 10
255.821883097214
 20
392.5380585002956
 30
0.0
 11
271.447405158966
 21
398.0380585002956
 31
0.0
  1
<>
 71
     5
 42
0.0
 53
0.00013888888889
  3
ME10_DIM_5
100
AcDbAlignedDimension
 13
240.821883097214
 23
375.7944099079722
 33
0.0
 14
255.821883097214
 24
204.5380585002956
 34
0.0
100
AcDbRotatedDimension
  0
DIMENSION
  5
2B5
330
1F
100
AcDbEntity
  8
1
100
AcDbDimension
  2
*D619
 10
87.82401556179984
 20
486.6766932442001
 30
0.0
 11
71.51042325709523
 21
492.1766932442001
 31
0.0
 70
     1
  1
<>
 71
     5
 42
0.0
 52
120.0
 53
0.00013888888889
  3
ME10_DIM_6
100
AcDbAlignedDimension
 13
118.8218830972139
 23
478.0201327433639
 33
0.0
 14
92.82188309721404
 24
478.0201327433636
 34
0.0
  0
DIMENSION
  5
2C1
330
1F
100
AcDbEntity
  8
1
100
AcDbDimension
  2
*D720
 10
80.84948989886148
 20
187.5849101137359
 30
0.0
 11
71.22826670310046
 21
193.0849101137359
 31
0.0
 70
     1
  1
<>
 71
     5
 42
0.0
 52
135.0
 53
0.00013888888889
  3
ME10_DIM_7
100
AcDbAlignedDimension
 13
117.3218830972138
 23
174.1125169153835
 33
0.0
 14
94.32188309721383
 24
174.1125169153835
 34
0.0
  0
DIMENSION
  5
2CE
330
1F
100
AcDbEntity
  8
1
100
AcDbDimension
  2
*D821
 10
234.471883097214
 20
408.5380585002956
 30
0.0
 11
241.495685168798
 21
414.3880585002956
 31
0.0
 70
     1
  1
^N1^O12,7
 71
     5
 42
0.0
 53
0.00013888888889
  3
ME10_DIM_8
100
AcDbAlignedDimension
 13
247.1718830972141
 23
372.5380585002956
 33
0.0
 14
234.471883097214
 24
372.5380585002956
 34
0.0
  0
DIMENSION
  5
2D9
330
1F
100
AcDbEntity
  8
1
100
AcDbDimension
  2
*D922
 10
187.3218841498953
 20
172.5380585002956
 30
0.0
 11
181.8218841498953
 21
275.8606046920264
 31
0.0
  1
200
 71
     5
 42
0.0
 53
90.0
  3
ME10_DIM_9
100
AcDbAlignedDimension
 13
234.471883097214
 23
372.5380585002956
 33
0.0
 14
243.7845523833965
 24
172.5380585002956
 34
0.0
 50
90.0
100
AcDbRotatedDimension
  0
ENDSEC
  0
SECTION
  2
OBJECTS
  0
DICTIONARY
  5
C
330
0
100
AcDbDictionary
281
     1
  3
ACAD_GROUP
350
D
  3
ACAD_LAYOUT
350
1A
  3
ACAD_MLINESTYLE
350
17
  3
ACAD_PLOTSETTINGS
350
19
  3
ACAD_PLOTSTYLENAME
350
E
  3
ACAD_TABLESTYLE
350
2A
  3
AcDbVariableDictionary
350
2C
  0
DICTIONARY
  5
D
102
{ACAD_REACTORS
330
C
102
}
330
C
100
AcDbDictionary
281
     1
  0
DICTIONARY
  5
1A
102
{ACAD_REACTORS
330
C
102
}
330
C
100
AcDbDictionary
281
     1
  3
Layout1
350
1E
  3
Layout2
350
26
  3
Model
350
22
  0
DICTIONARY
  5
17
102
{ACAD_REACTORS
330
C
102
}
330
C
100
AcDbDictionary
281
     1
  3
Standard
350
18
  0
DICTIONARY
  5
19
102
{ACAD_REACTORS
330
C
102
}
330
C
100
AcDbDictionary
281
     1
  0
ACDBDICTIONARYWDFLT
  5
E
102
{ACAD_REACTORS
330
C
102
}
330
C
100
AcDbDictionary
281
     1
  3
Normal
350
F
100
AcDbDictionaryWithDefault
340
F
  0
DICTIONARY
  5
2A
102
{ACAD_REACTORS
330
C
102
}
330
C
100
AcDbDictionary
281
     1
  3
Standard
350
2B
  0
DICTIONARY
  5
2C
102
{ACAD_REACTORS
330
C
102
}
330
C
100
AcDbDictionary
281
     1
  3
CTABLESTYLE
350
2D
  0
LAYOUT
  5
1E
102
{ACAD_REACTORS
330
1A
102
}
330
1A
100
AcDbPlotSettings
  1

  2

  4

  6

 40
0.0
 41
0.0
 42
0.0
 43
0.0
 44
0.0
 45
0.0
 46
0.0
 47
0.0
 48
0.0
 49
0.0
140
0.0
141
0.0
142
1.0
143
1.0
 70
   688
 72
     0
 73
     0
 74
     5
  7

 75
    16
147
1.0
148
0.0
149
0.0
100
AcDbLayout
  1
Layout1
 70
     1
 71
     1
 10
0.0
 20
0.0
 11
12.0
 21
9.0
 12
0.0
 22
0.0
 32
0.0
 14
1.00000000000000E+20
 24
1.00000000000000E+20
 34
1.00000000000000E+20
 15
-1.00000000000000E+20
 25
-1.00000000000000E+20
 35
-1.00000000000000E+20
146
0.0
 13
0.0
 23
0.0
 33
0.0
 16
1.0
 26
0.0
 36
0.0
 17
0.0
 27
1.0
 37
0.0
 76
     0
330
1B
  0
LAYOUT
  5
26
102
{ACAD_REACTORS
330
1A
102
}
330
1A
100
AcDbPlotSettings
  1

  2

  4

  6

 40
0.0
 41
0.0
 42
0.0
 43
0.0
 44
0.0
 45
0.0
 46
0.0
 47
0.0
 48
0.0
 49
0.0
140
0.0
141
0.0
142
1.0
143
1.0
 70
   688
 72
     0
 73
     0
 74
     5
  7

 75
    16
147
1.0
148
0.0
149
0.0
100
AcDbLayout
  1
Layout2
 70
     1
 71
     2
 10
0.0
 20
0.0
 11
0.0
 21
0.0
 12
0.0
 22
0.0
 32
0.0
 14
0.0
 24
0.0
 34
0.0
 15
0.0
 25
0.0
 35
0.0
146
0.0
 13
0.0
 23
0.0
 33
0.0
 16
1.0
 26
0.0
 36
0.0
 17
0.0
 27
1.0
 37
0.0
 76
     0
330
23
  0
LAYOUT
  5
22
102
{ACAD_REACTORS
330
1A
102
}
330
1A
100
AcDbPlotSettings
  1

  2

  4

  6

 40
0.0
 41
0.0
 42
0.0
 43
0.0
 44
0.0
 45
0.0
 46
0.0
 47
0.0
 48
0.0
 49
0.0
140
0.0
141
0.0
142
1.0
143
1.0
 70
  1712
 72
     0
 73
     0
 74
     0
  7

 75
     0
147
1.0
148
0.0
149
0.0
100
AcDbLayout
  1
Model
 70
     1
 71
     0
 10
0.0
 20
0.0
 11
0.0
 21
0.0
 12
0.0
 22
0.0
 32
0.0
 14
0.0
 24
0.0
 34
0.0
 15
420.0000000000002
 25
594.0
 35
0.0
146
0.0
 13
0.0
 23
0.0
 33
0.0
 16
1.0
 26
0.0
 36
0.0
 17
0.0
 27
1.0
 37
0.0
 76
     0
330
1F
  0
MLINESTYLE
  5
18
102
{ACAD_REACTORS
330
17
102
}
330
17
100
AcDbMlineStyle
  2
Standard
 70
     0
  3

 62
   256
 51
90.0
 52
90.0
 71
     2
 49
0.5
 62
   256
  6
BYLAYER
 49
-0.5
 62
   256
  6
BYLAYER
  0
ACDBPLACEHOLDER
  5
F
102
{ACAD_REACTORS
330
E
102
}
330
E
  0
TABLESTYLE
  5
2B
102
{ACAD_REACTORS
330
2A
102
}
330
2A
100
AcDbTableStyle
  3
Standard
 70
     0
 71
     0
 40
0.06
 41
0.06
280
     0
281
     0
  7
Standard
140
0.18
170
     2
 62
     0
 63
     7
283
     0
274
    -2
284
     1
 64
     0
275
    -2
285
     1
 65
     0
276
    -2
286
     1
 66
     0
277
    -2
287
     1
 67
     0
278
    -2
288
     1
 68
     0
279
    -2
289
     1
 69
     0
  7
Standard
140
0.25
170
     5
 62
     0
 63
     7
283
     0
274
    -2
284
     1
 64
     0
275
    -2
285
     1
 65
     0
276
    -2
286
     1
 66
     0
277
    -2
287
     1
 67
     0
278
    -2
288
     1
 68
     0
279
    -2
289
     1
 69
     0
  7
Standard
140
0.18
170
     5
 62
     0
 63
     7
283
     0
274
    -2
284
     1
 64
     0
275
    -2
285
     1
 65
     0
276
    -2
286
     1
 66
     0
277
    -2
287
     1
 67
     0
278
    -2
288
     1
 68
     0
279
    -2
289
     1
 69
     0
  0
DICTIONARYVAR
  5
2D
102
{ACAD_REACTORS
330
2C
102
}
330
2C
100
DictionaryVariables
280
     0
  1
Standard
  0
ENDSEC
  0
EOF
