  0
SECTION
  2
HEADER
  9
$ACADVER
  1
AC1015
  9
$ACADMAINTVER
 70
     6
  9
$DWGCODEPAGE
  3
DOS932
  9
$INSBASE
 10
0.0
 20
0.0
 30
0.0
  9
$EXTMIN
 10
0.0
 20
0.0
 30
0.0
  9
$EXTMAX
 10
420.0000000000002
 20
594.0
 30
0.0
  9
$LIMMIN
 10
0.0
 20
0.0
  9
$LIMMAX
 10
12.0
 20
9.0
  9
$ORTHOMODE
 70
     0
  9
$REGENMODE
 70
     1
  9
$FILLMODE
 70
     1
  9
$QTEXTMODE
 70
     0
  9
$MIRRTEXT
 70
     1
  9
$LTSCALE
 40
1.0
  9
$ATTMODE
 70
     1
  9
$TEXTSIZE
 40
0.2
  9
$TRACEWID
 40
0.05
  9
$TEXTSTYLE
  7
Standard
  9
$CLAYER
  8
0
  9
$CELTYPE
  6
ByLayer
  9
$CECOLOR
 62
   256
  9
$CELTSCALE
 40
1.0
  9
$DISPSILH
 70
     0
  9
$DIMSCALE
 40
1.0
  9
$DIMASZ
 40
0.18
  9
$DIMEXO
 40
0.0625
  9
$DIMDLI
 40
0.38
  9
$DIMRND
 40
0.0
  9
$DIMDLE
 40
0.0
  9
$DIMEXE
 40
0.18
  9
$DIMTP
 40
0.0
  9
$DIMTM
 40
0.0
  9
$DIMTXT
 40
0.18
  9
$DIMCEN
 40
0.09
  9
$DIMTSZ
 40
0.0
  9
$DIMTOL
 70
     0
  9
$DIMLIM
 70
     0
  9
$DIMTIH
 70
     1
  9
$DIMTOH
 70
     1
  9
$DIMSE1
 70
     0
  9
$DIMSE2
 70
     0
  9
$DIMTAD
 70
     0
  9
$DIMZIN
 70
     0
  9
$DIMBLK
  1

  9
$DIMASO
 70
     1
  9
$DIMSHO
 70
     1
  9
$DIMPOST
  1

  9
$DIMAPOST
  1

  9
$DIMALT
 70
     0
  9
$DIMALTD
 70
     2
  9
$DIMALTF
 40
25.4
  9
$DIMLFAC
 40
1.0
  9
$DIMTOFL
 70
     0
  9
$DIMTVP
 40
0.0
  9
$DIMTIX
 70
     0
  9
$DIMSOXD
 70
     0
  9
$DIMSAH
 70
     0
  9
$DIMBLK1
  1

  9
$DIMBLK2
  1

  9
$DIMSTYLE
  2
Standard
  9
$DIMCLRD
 70
     0
  9
$DIMCLRE
 70
     0
  9
$DIMCLRT
 70
     0
  9
$DIMTFAC
 40
1.0
  9
$DIMGAP
 40
0.09
  9
$DIMJUST
 70
     0
  9
$DIMSD1
 70
     0
  9
$DIMSD2
 70
     0
  9
$DIMTOLJ
 70
     1
  9
$DIMTZIN
 70
     0
  9
$DIMALTZ
 70
     0
  9
$DIMALTTZ
 70
     0
  9
$DIMUPT
 70
     0
  9
$DIMDEC
 70
     4
  9
$DIMTDEC
 70
     4
  9
$DIMALTU
 70
     2
  9
$DIMALTTD
 70
     2
  9
$DIMTXSTY
  7
Standard
  9
$DIMAUNIT
 70
     0
  9
$DIMADEC
 70
     0
  9
$DIMALTRND
 40
0.0
  9
$DIMAZIN
 70
     0
  9
$DIMDSEP
 70
    46
  9
$DIMATFIT
 70
     3
  9
$DIMFRAC
 70
     0
  9
$DIMLDRBLK
  1

  9
$DIMLUNIT
 70
     2
  9
$DIMLWD
 70
    -2
  9
$DIMLWE
 70
    -2
  9
$DIMTMOVE
 70
     0
  9
$LUNITS
 70
     2
  9
$LUPREC
 70
     4
  9
$SKETCHINC
 40
0.1
  9
$FILLETRAD
 40
0.5
  9
$AUNITS
 70
     0
  9
$AUPREC
 70
     0
  9
$MENU
  1
.
  9
$ELEVATION
 40
0.0
  9
$PELEVATION
 40
0.0
  9
$THICKNESS
 40
0.0
  9
$LIMCHECK
 70
     0
  9
$CHAMFERA
 40
0.5
  9
$CHAMFERB
 40
0.5
  9
$CHAMFERC
 40
1.0
  9
$CHAMFERD
 40
0.0
  9
$SKPOLY
 70
     0
  9
$TDCREATE
 40
2456143.422563658
  9
$TDUCREATE
 40
2456143.047563658
  9
$TDUPDATE
 40
2456143.422563669
  9
$TDUUPDATE
 40
2456143.047563669
  9
$TDINDWG
 40
0.0000000116
  9
$TDUSRTIMER
 40
0.0000000116
  9
$USRTIMER
 70
     1
  9
$ANGBASE
 50
0.0
  9
$ANGDIR
 70
     0
  9
$PDMODE
 70
     0
  9
$PDSIZE
 40
0.0
  9
$PLINEWID
 40
0.0
  9
$SPLFRAME
 70
     0
  9
$SPLINETYPE
 70
     6
  9
$SPLINESEGS
 70
     8
  9
$HANDSEED
  5
28A
  9
$SURFTAB1
 70
     6
  9
$SURFTAB2
 70
     6
  9
$SURFTYPE
 70
     6
  9
$SURFU
 70
     6
  9
$SURFV
 70
     6
  9
$UCSBASE
  2

  9
$UCSNAME
  2

  9
$UCSORG
 10
0.0
 20
0.0
 30
0.0
  9
$UCSXDIR
 10
1.0
 20
0.0
 30
0.0
  9
$UCSYDIR
 10
0.0
 20
1.0
 30
0.0
  9
$UCSORTHOREF
  2

  9
$UCSORTHOVIEW
 70
     0
  9
$UCSORGTOP
 10
0.0
 20
0.0
 30
0.0
  9
$UCSORGBOTTOM
 10
0.0
 20
0.0
 30
0.0
  9
$UCSORGLEFT
 10
0.0
 20
0.0
 30
0.0
  9
$UCSORGRIGHT
 10
0.0
 20
0.0
 30
0.0
  9
$UCSORGFRONT
 10
0.0
 20
0.0
 30
0.0
  9
$UCSORGBACK
 10
0.0
 20
0.0
 30
0.0
  9
$PUCSBASE
  2

  9
$PUCSNAME
  2

  9
$PUCSORG
 10
0.0
 20
0.0
 30
0.0
  9
$PUCSXDIR
 10
1.0
 20
0.0
 30
0.0
  9
$PUCSYDIR
 10
0.0
 20
1.0
 30
0.0
  9
$PUCSORTHOREF
  2

  9
$PUCSORTHOVIEW
 70
     0
  9
$PUCSORGTOP
 10
0.0
 20
0.0
 30
0.0
  9
$PUCSORGBOTTOM
 10
0.0
 20
0.0
 30
0.0
  9
$PUCSORGLEFT
 10
0.0
 20
0.0
 30
0.0
  9
$PUCSORGRIGHT
 10
0.0
 20
0.0
 30
0.0
  9
$PUCSORGFRONT
 10
0.0
 20
0.0
 30
0.0
  9
$PUCSORGBACK
 10
0.0
 20
0.0
 30
0.0
  9
$USERI1
 70
     0
  9
$USERI2
 70
     0
  9
$USERI3
 70
     0
  9
$USERI4
 70
     0
  9
$USERI5
 70
     0
  9
$USERR1
 40
13.2
  9
$USERR2
 40
0.0
  9
$USERR3
 40
0.0
  9
$USERR4
 40
0.0
  9
$USERR5
 40
0.0
  9
$WORLDVIEW
 70
     1
  9
$SHADEDGE
 70
     3
  9
$SHADEDIF
 70
    70
  9
$TILEMODE
 70
     1
  9
$MAXACTVP
 70
    64
  9
$PINSBASE
 10
0.0
 20
0.0
 30
0.0
  9
$PLIMCHECK
 70
     0
  9
$PEXTMIN
 10
1.00000000000000E+20
 20
1.00000000000000E+20
 30
1.00000000000000E+20
  9
$PEXTMAX
 10
-1.00000000000000E+20
 20
-1.00000000000000E+20
 30
-1.00000000000000E+20
  9
$PLIMMIN
 10
0.0
 20
0.0
  9
$PLIMMAX
 10
12.0
 20
9.0
  9
$UNITMODE
 70
     0
  9
$VISRETAIN
 70
     1
  9
$PLINEGEN
 70
     0
  9
$PSLTSCALE
 70
     1
  9
$TREEDEPTH
 70
  3020
  9
$CMLSTYLE
  2
Standard
  9
$CMLJUST
 70
     0
  9
$CMLSCALE
 40
1.0
  9
$PROXYGRAPHICS
 70
     1
  9
$MEASUREMENT
 70
     1
  9
$CELWEIGHT
370
    -1
  9
$ENDCAPS
280
     0
  9
$JOINSTYLE
280
     0
  9
$LWDISPLAY
290
     0
  9
$INSUNITS
 70
     1
  9
$HYPERLINKBASE
  1

  9
$STYLESHEET
  1

  9
$XEDIT
290
     1
  9
$CEPSNTYPE
380
     0
  9
$PSTYLEMODE
290
     0
  9
$FINGERPRINTGUID
  2
{FAEB1C30-E019-11D5-929B-00C0DF256EC4}
  9
$VERSIONGUID
  2
{FAEB1C32-E019-11D5-929B-00C0DF256EC4}
  9
$EXTNAMES
290
     1
  9
$PSVPSCALE
 40
0.0
  9
$OLESTARTUP
290
     0
  0
ENDSEC
  0
SECTION
  2
CLASSES
  0
CLASS
  1
ACDBDICTIONARYWDFLT
  2
AcDbDictionaryWithDefault
  3
ObjectDBX Classes
 90
        0
280
     0
281
     0
  0
CLASS
  1
TABLESTYLE
  2
AcDbTableStyle
  3
ObjectDBX Classes
 90
     2047
280
     0
281
     0
  0
CLASS
  1
DICTIONARYVAR
  2
AcDbDictionaryVar
  3
ObjectDBX Classes
 90
        0
280
     0
281
     0
  0
CLASS
  1

  2
exOdDbSpline
  3

 90
        0
280
     0
281
     1
  0
CLASS
  1

  2
exOdDbCircle
  3

 90
        0
280
     0
281
     1
  0
CLASS
  1
ACDBPLACEHOLDER
  2
AcDbPlaceHolder
  3
ObjectDBX Classes
 90
        0
280
     0
281
     0
  0
CLASS
  1
LAYOUT
  2
AcDbLayout
  3
ObjectDBX Classes
 90
        0
280
     0
281
     0
  0
ENDSEC
  0
SECTION
  2
TABLES
  0
TABLE
  2
VPORT
  5
8
330
0
100
AcDbSymbolTable
 70
     2
  0
VPORT
  5
29
330
8
100
AcDbSymbolTableRecord
100
AcDbViewportTableRecord
  2
*Active
 70
     0
 10
0.0
 20
0.0
 11
1.0
 21
1.0
 12
210.0000000000001
 22
297.0
 13
0.0
 23
0.0
 14
0.5
 24
0.5
 15
0.5
 25
0.5
 16
0.0
 26
0.0
 36
1.0
 17
0.0
 27
0.0
 37
0.0
 40
653.4000000000001
 41
1.60267857142857
 42
50.0
 43
0.0
 44
0.0
 50
0.0
 51
0.0
 71
     0
 72
   100
 73
     1
 74
     3
 75
     0
 76
     0
 77
     0
 78
     0
281
     0
 65
     1
110
0.0
120
0.0
130
0.0
111
1.0
121
0.0
131
0.0
112
0.0
122
1.0
132
0.0
 79
     0
146
0.0
  0
ENDTAB
  0
TABLE
  2
LTYPE
  5
5
330
0
100
AcDbSymbolTable
 70
     8
  0
LTYPE
  5
14
330
5
100
AcDbSymbolTableRecord
100
AcDbLinetypeTableRecord
  2
ByBlock
 70
     0
  3

 72
    65
 73
     0
 40
0.0
  0
LTYPE
  5
15
330
5
100
AcDbSymbolTableRecord
100
AcDbLinetypeTableRecord
  2
ByLayer
 70
     0
  3

 72
    65
 73
     0
 40
0.0
  0
LTYPE
  5
16
330
5
100
AcDbSymbolTableRecord
100
AcDbLinetypeTableRecord
  2
Continuous
 70
     0
  3
Solid line
 72
    65
 73
     0
 40
0.0
  0
LTYPE
  5
2E
330
5
100
AcDbSymbolTableRecord
100
AcDbLinetypeTableRecord
  2
DASHED
 70
     0
  3
Dashed
 72
    65
 73
     2
 40
15.0
 49
7.0
 74
     0
 49
-8.0
 74
     0
  0
LTYPE
  5
2F
330
5
100
AcDbSymbolTableRecord
100
AcDbLinetypeTableRecord
  2
DOTTED
 70
     0
  3
Dotted
 72
    65
 73
     2
 40
1.0
 49
0.0
 74
     0
 49
-1.0
 74
     0
  0
LTYPE
  5
30
330
5
100
AcDbSymbolTableRecord
100
AcDbLinetypeTableRecord
  2
DOT_CENTER
 70
     0
  3
Dot_Center
 72
    65
 73
     4
 40
14.0
 49
12.0
 74
     0
 49
-1.0
 74
     0
 49
0.0
 74
     0
 49
-1.0
 74
     0
  0
LTYPE
  5
31
330
5
100
AcDbSymbolTableRecord
100
AcDbLinetypeTableRecord
  2
LONG_DASHED
 70
     0
  3
Long_Dashed
 72
    65
 73
     2
 40
15.0
 49
10.0
 74
     0
 49
-5.0
 74
     0
  0
LTYPE
  5
32
330
5
100
AcDbSymbolTableRecord
100
AcDbLinetypeTableRecord
  2
DASH_CENTER
 70
     0
  3
Dash_Center
 72
    65
 73
     4
 40
14.0
 49
11.0
 74
     0
 49
-1.0
 74
     0
 49
1.0
 74
     0
 49
-1.0
 74
     0
  0
LTYPE
  5
33
330
5
100
AcDbSymbolTableRecord
100
AcDbLinetypeTableRecord
  2
PHANTOM
 70
     0
  3
Phantom
 72
    65
 73
     6
 40
13.0
 49
10.0
 74
     0
 49
-1.0
 74
     0
 49
0.0
 74
     0
 49
-1.0
 74
     0
 49
0.0
 74
     0
 49
-1.0
 74
     0
  0
LTYPE
  5
34
330
5
100
AcDbSymbolTableRecord
100
AcDbLinetypeTableRecord
  2
CENTER_DASH_DASH
 70
     0
  3
Center_Dash_Dash
 72
    65
 73
     6
 40
14.0
 49
9.0
 74
     0
 49
-1.0
 74
     0
 49
1.0
 74
     0
 49
-1.0
 74
     0
 49
1.0
 74
     0
 49
-1.0
 74
     0
  0
ENDTAB
  0
TABLE
  2
LAYER
  5
2
330
0
100
AcDbSymbolTable
 70
     2
  0
LAYER
  5
10
330
2
100
AcDbSymbolTableRecord
100
AcDbLayerTableRecord
  2
0
 70
     0
 62
     7
  6
Continuous
370
    -3
390
F
  0
LAYER
  5
35
330
2
100
AcDbSymbolTableRecord
100
AcDbLayerTableRecord
  2
1
 70
     0
 62
     7
  6
Continuous
370
    -3
390
F
  0
ENDTAB
  0
TABLE
  2
STYLE
  5
3
330
0
100
AcDbSymbolTable
 70
     3
  0
STYLE
  5
11
330
3
100
AcDbSymbolTableRecord
100
AcDbTextStyleTableRecord
  2
Standard
 70
     0
 40
0.0
 41
1.0
 50
0.0
 71
     0
 42
0.2
  3
txt
  4

  0
STYLE
  5
1F0
330
3
100
AcDbSymbolTableRecord
100
AcDbTextStyleTableRecord
  2
CONVERTER_1
 70
     0
 40
0.0
 41
0.89
 50
0.0
 71
     0
 42
0.2
  3
msmincho.ttc
  4

1001
ACAD
1000
MS Mincho
1071
    32785
  0
STYLE
  5
20D
330
3
100
AcDbSymbolTableRecord
100
AcDbTextStyleTableRecord
  2
CONVERTER_2
 70
     0
 40
0.0
 41
0.9
 50
0.0
 71
     0
 42
0.2
  3
txt.shx
  4

  0
ENDTAB
  0
TABLE
  2
VIEW
  5
6
330
0
100
AcDbSymbolTable
 70
     0
  0
ENDTAB
  0
TABLE
  2
UCS
  5
7
330
0
100
AcDbSymbolTable
 70
     0
  0
ENDTAB
  0
TABLE
  2
APPID
  5
9
330
0
100
AcDbSymbolTable
 70
     1
  0
APPID
  5
12
330
9
100
AcDbSymbolTableRecord
100
AcDbRegAppTableRecord
  2
ACAD
 70
     0
  0
ENDTAB
  0
TABLE
  2
DIMSTYLE
  5
A
330
0
100
AcDbSymbolTable
 70
    11
100
AcDbDimStyleTable
  0
DIMSTYLE
105
27
330
A
100
AcDbSymbolTableRecord
100
AcDbDimStyleTableRecord
  2
Standard
 70
     0
340
11
  0
DIMSTYLE
105
21E
102
{ACAD_REACTORS
330
21F
102
}
330
A
100
AcDbSymbolTableRecord
100
AcDbDimStyleTableRecord
  2
ME10_DIM_0
 70
     0
 41
7.0
 42
0.0
 44
2.0
 73
     0
 74
     0
 77
     1
 78
     8
140
7.0
147
0.625
172
     1
173
     1
176
     2
177
     2
178
     7
271
     2
340
20D
  0
DIMSTYLE
105
229
102
{ACAD_REACTORS
330
22A
102
}
330
A
100
AcDbSymbolTableRecord
100
AcDbDimStyleTableRecord
  2
ME10_DIM_1
 70
     0
 41
7.0
 42
0.0
 44
2.0
 73
     0
 74
     0
 77
     1
 78
     8
140
7.0
147
0.625
172
     1
173
     1
176
     2
177
     2
178
     7
271
     2
340
20D
  0
DIMSTYLE
105
235
102
{ACAD_REACTORS
330
236
102
}
330
A
100
AcDbSymbolTableRecord
100
AcDbDimStyleTableRecord
  2
ME10_DIM_2
 70
     0
 41
7.0
 42
0.0
 44
2.0
 73
     0
 74
     0
 77
     1
 78
     8
140
7.0
147
0.625
172
     1
173
     1
176
     2
177
     2
178
     7
271
     2
340
1F0
  0
DIMSTYLE
105
240
102
{ACAD_REACTORS
330
241
102
}
330
A
100
AcDbSymbolTableRecord
100
AcDbDimStyleTableRecord
  2
ME10_DIM_3
 70
     0
 41
7.0
 42
0.0
 44
2.0
 73
     0
 74
     0
 77
     1
 78
     8
140
7.0
147
0.625
172
     1
173
     1
176
     2
177
     2
178
     7
271
     2
340
20D
  0
DIMSTYLE
105
24B
102
{ACAD_REACTORS
330
24C
102
}
330
A
100
AcDbSymbolTableRecord
100
AcDbDimStyleTableRecord
  2
ME10_DIM_4
 70
     0
 41
7.0
 42
0.0
 44
2.0
 73
     0
 74
     0
 77
     1
 78
     8
140
7.0
147
0.625
172
     1
173
     1
176
     2
177
     2
178
     7
271
     2
340
20D
  0
DIMSTYLE
105
257
102
{ACAD_REACTORS
330
258
102
}
330
A
100
AcDbSymbolTableRecord
100
AcDbDimStyleTableRecord
  2
ME10_DIM_5
 70
     0
 41
7.0
 42
0.0
 44
2.0
 73
     0
 74
     0
 77
     1
 78
     8
140
7.0
147
0.625
172
     1
173
     1
176
     2
177
     2
178
     7
271
     2
340
20D
  0
DIMSTYLE
105
263
102
{ACAD_REACTORS
330
264
102
}
330
A
100
AcDbSymbolTableRecord
100
AcDbDimStyleTableRecord
  2
ME10_DIM_6
 70
     0
 41
7.0
 42
0.0
 44
2.0
 73
     0
 74
     0
 77
     1
 78
     8
140
7.0
147
0.625
172
     1
173
     1
176
     2
177
     2
178
     7
271
     2
340
20D
  0
DIMSTYLE
105
270
102
{ACAD_REACTORS
330
271
102
}
330
A
100
AcDbSymbolTableRecord
100
AcDbDimStyleTableRecord
  2
ME10_DIM_7
 70
     0
 41
7.0
 42
0.0
 44
2.0
 73
     0
 74
     0
 77
     1
 78
     8
140
7.0
147
0.625
172
     1
173
     1
176
     2
177
     2
178
     7
271
     2
340
20D
  0
DIMSTYLE
105
27D
102
{ACAD_REACTORS
330
27E
102
}
330
A
100
AcDbSymbolTableRecord
100
AcDbDimStyleTableRecord
  2
ME10_DIM_8
 70
     0
 41
7.0
 42
0.0
 44
2.0
 73
     0
 74
     0
 77
     1
 78
     8
140
7.0
147
0.625
172
     1
173
     1
176
     2
177
     2
178
     7
271
     2
340
20D
  0
DIMSTYLE
105
288
102
{ACAD_REACTORS
330
289
102
}
330
A
100
AcDbSymbolTableRecord
100
AcDbDimStyleTableRecord
  2
ME10_DIM_9
 70
     0
 41
7.0
 42
0.0
 44
2.0
 73
     0
 74
     0
 77
     1
 78
     8
140
7.0
147
0.625
172
     1
173
     1
176
     2
177
     2
178
     7
271
     2
340
20D
  0
ENDTAB
  0
TABLE
  2
BLOCK_RECORD
  5
1
330
0
100
AcDbSymbolTable
 70
    20
  0
BLOCK_RECORD
  5
1F
330
1
100
AcDbSymbolTableRecord
100
AcDbBlockTableRecord
  2
*Model_Space
340
22
  0
BLOCK_RECORD
  5
1B
330
1
100
AcDbSymbolTableRecord
100
AcDbBlockTableRecord
  2
*Paper_Space
340
1E
  0
BLOCK_RECORD
  5
23
330
1
100
AcDbSymbolTableRecord
100
AcDbBlockTableRecord
  2
*Paper_Space0
340
26
  0
BLOCK_RECORD
  5
36
330
1
100
AcDbSymbolTableRecord
100
AcDbBlockTableRecord
  2
V22-0A-13
340
0
102
{BLKREFS
331
51
102
}
  0
BLOCK_RECORD
  5
39
330
1
100
AcDbSymbolTableRecord
100
AcDbBlockTableRecord
  2
64--13-75-M11
340
0
102
{BLKREFS
331
52
102
}
  0
BLOCK_RECORD
  5
3C
330
1
100
AcDbSymbolTableRecord
100
AcDbBlockTableRecord
  2
78-167
340
0
102
{BLKREFS
331
53
102
}
  0
BLOCK_RECORD
  5
3F
330
1
100
AcDbSymbolTableRecord
100
AcDbBlockTableRecord
  2
V22-0A-13-__________
340
0
102
{BLKREFS
331
54
102
}
  0
BLOCK_RECORD
  5
42
330
1
100
AcDbSymbolTableRecord
100
AcDbBlockTableRecord
  2
36-45
340
0
102
{BLKREFS
331
55
102
}
  0
BLOCK_RECORD
  5
45
330
1
100
AcDbSymbolTableRecord
100
AcDbBlockTableRecord
  2
66-16-15-200
340
0
102
{BLKREFS
331
56
102
}
  0
BLOCK_RECORD
  5
48
330
1
100
AcDbSymbolTableRecord
100
AcDbBlockTableRecord
  2
32-12-M2
340
0
102
{BLKREFS
331
57
102
}
  0
BLOCK_RECORD
  5
4B
330
1
100
AcDbSymbolTableRecord
100
AcDbBlockTableRecord
  2
37-1-13
340
0
102
{BLKREFS
331
58
102
}
  0
BLOCK_RECORD
  5
4E
330
1
100
AcDbSymbolTableRecord
100
AcDbBlockTableRecord
  2
_J__A4
340
0
102
{BLKREFS
331
59
102
}
  0
BLOCK_RECORD
  5
213
330
1
100
AcDbSymbolTableRecord
100
AcDbBlockTableRecord
  2
*D010
340
0
  0
BLOCK_RECORD
  5
220
330
1
100
AcDbSymbolTableRecord
100
AcDbBlockTableRecord
  2
*D111
340
0
  0
BLOCK_RECORD
  5
22B
330
1
100
AcDbSymbolTableRecord
100
AcDbBlockTableRecord
  2
*D212
340
0
  0
BLOCK_RECORD
  5
237
330
1
100
AcDbSymbolTableRecord
100
AcDbBlockTableRecord
  2
*D313
340
0
  0
BLOCK_RECORD
  5
242
330
1
100
AcDbSymbolTableRecord
100
AcDbBlockTableRecord
  2
*D414
340
0
  0
BLOCK_RECORD
  5
24D
330
1
100
AcDbSymbolTableRecord
100
AcDbBlockTableRecord
  2
*D515
340
0
  0
BLOCK_RECORD
  5
259
330
1
100
AcDbSymbolTableRecord
100
AcDbBlockTableRecord
  2
*D616
340
0
  0
BLOCK_RECORD
  5
265
330
1
100
AcDbSymbolTableRecord
100
AcDbBlockTableRecord
  2
*D717
340
0
  0
BLOCK_RECORD
  5
272
330
1
100
AcDbSymbolTableRecord
100
AcDbBlockTableRecord
  2
*D818
340
0
  0
BLOCK_RECORD
  5
27F
330
1
100
AcDbSymbolTableRecord
100
AcDbBlockTableRecord
  2
*D919
340
0
  0
ENDTAB
  0
ENDSEC
  0
SECTION
  2
BLOCKS
  0
BLOCK
  5
20
330
1F
100
AcDbEntity
  8
0
100
AcDbBlockBegin
  2
*Model_Space
 70
     0
 71
     0
 10
0.0
 20
0.0
 30
0.0
  3
*Model_Space
  1

  0
ENDBLK
  5
21
330
1F
100
AcDbEntity
  8
0
100
AcDbBlockEnd
  0
BLOCK
  5
1C
330
1B
100
AcDbEntity
 67
     1
  8
0
100
AcDbBlockBegin
  2
*Paper_Space
 70
     0
 71
     0
 10
0.0
 20
0.0
 30
0.0
  3
*Paper_Space
  1

  0
ENDBLK
  5
1D
330
1B
100
AcDbEntity
 67
     1
  8
0
100
AcDbBlockEnd
  0
BLOCK
  5
24
330
23
100
AcDbEntity
  8
0
100
AcDbBlockBegin
  2
*Paper_Space0
 70
     0
 71
     0
 10
0.0
 20
0.0
 30
0.0
  3
*Paper_Space0
  1

  0
ENDBLK
  5
25
330
23
100
AcDbEntity
  8
0
100
AcDbBlockEnd
  0
BLOCK
  5
37
330
36
100
AcDbEntity
  8
0
100
AcDbBlockBegin
  2
V22-0A-13
 70
     0
 71
     0
 10
133.7385709387331
 20
2917.277740897449
 30
0.0
  3
V22-0A-13
  1

  0
LINE
  5
5A
330
36
100
AcDbEntity
  8
1
  6
Continuous
 62
     7
100
AcDbLine
 10
96.13488309721392
 20
418.7701327433636
 30
0.0
 11
100.9718830972139
 21
418.7701327433636
 31
0.0
  0
LINE
  5
5B
330
36
100
AcDbEntity
  8
1
  6
Continuous
 62
     2
100
AcDbLine
 10
96.13488309721392
 20
417.3401327433638
 30
0.0
 11
96.13488309721392
 21
418.7701327433636
 31
0.0
  0
LINE
  5
5C
330
36
100
AcDbEntity
  8
1
  6
Continuous
 62
     7
100
AcDbLine
 10
119.321883097214
 20
417.3401327433638
 30
0.0
 11
119.321883097214
 21
418.7701327433636
 31
0.0
  0
LINE
  5
5D
330
36
100
AcDbEntity
  8
1
  6
Continuous
 62
     7
100
AcDbLine
 10
267.821883097214
 20
176.7380585002954
 30
0.0
 11
267.821883097214
 21
175.0380585002956
 31
0.0
  0
LINE
  5
5E
330
36
100
AcDbEntity
  8
1
  6
Continuous
 62
     2
100
AcDbLine
 10
266.6598830972141
 20
176.7380585002954
 30
0.0
 11
266.6598830972141
 21
175.0380585002956
 31
0.0
  0
LINE
  5
5F
330
36
100
AcDbEntity
  8
1
  6
Continuous
 62
     7
100
AcDbLine
 10
246.8218830972141
 20
176.7380585002954
 30
0.0
 11
246.8218830972141
 21
175.0380585002956
 31
0.0
  0
LINE
  5
60
330
36
100
AcDbEntity
  8
1
  6
Continuous
 62
     7
100
AcDbLine
 10
240.8218830972142
 20
142.0380585002956
 30
0.0
 11
242.3218830972141
 21
142.0380585002956
 31
0.0
  0
LINE
  5
61
330
36
100
AcDbEntity
  8
1
  6
Continuous
 62
     2
100
AcDbLine
 10
240.8218830972142
 20
165.2250585002958
 30
0.0
 11
242.3218830972141
 21
165.2250585002958
 31
0.0
  0
LINE
  5
62
330
36
100
AcDbEntity
  8
1
  6
PHANTOM
 62
     4
100
AcDbLine
 10
107.321883097214
 20
467.7701327433636
 30
0.0
 11
107.321883097214
 21
406.7701327433636
 31
0.0
  0
LINE
  5
63
330
36
100
AcDbEntity
  8
1
  6
Continuous
 62
     7
100
AcDbLine
 10
107.321883097214
 20
454.7701327433636
 30
0.0
 11
107.321883097214
 21
459.5090257444335
 31
0.0
  0
LINE
  5
64
330
36
100
AcDbEntity
  8
1
  6
Continuous
 62
     7
100
AcDbLine
 10
242.3218830972141
 20
142.8510585002955
 30
0.0
 11
242.3218830972141
 21
165.2250585002958
 31
0.0
  0
LINE
  5
65
330
36
100
AcDbEntity
  8
1
  6
Continuous
 62
     7
100
AcDbLine
 10
247.9838830972141
 20
175.0380585002956
 30
0.0
 11
266.6598830972141
 21
175.0380585002956
 31
0.0
  0
LINE
  5
66
330
36
100
AcDbEntity
  8
1
  6
Continuous
 62
     7
100
AcDbLine
 10
283.0607760982839
 20
146.5325050008305
 30
0.0
 11
278.321883097214
 21
146.5325050008305
 31
0.0
  0
LINE
  5
67
330
36
100
AcDbEntity
  8
1
  6
Continuous
 62
     7
100
AcDbLine
 10
283.0607760982839
 20
161.5436119997607
 30
0.0
 11
278.321883097214
 21
161.5436119997607
 31
0.0
  0
LINE
  5
68
330
36
100
AcDbEntity
  8
1
  6
PHANTOM
 62
     4
100
AcDbLine
 10
288.321883097214
 20
154.0380585002956
 30
0.0
 11
233.3218830972141
 21
154.0380585002956
 31
0.0
  0
LINE
  5
69
330
36
100
AcDbEntity
  8
1
  6
PHANTOM
 62
     4
100
AcDbLine
 10
91.82188309721391
 20
433.7701327433636
 30
0.0
 11
122.821883097214
 21
433.7701327433636
 31
0.0
  0
LINE
  5
6A
330
36
100
AcDbEntity
  8
1
  6
Continuous
 62
     7
100
AcDbLine
 10
267.821883097214
 20
173.0254154619006
 30
0.0
 11
267.821883097214
 21
171.5380585002957
 31
0.0
  0
LINE
  5
6B
330
36
100
AcDbEntity
  8
1
  6
Continuous
 62
     7
100
AcDbLine
 10
267.821883097214
 20
175.0380585002956
 30
0.0
 11
267.821883097214
 21
173.0254154619006
 31
0.0
  0
LINE
  5
6C
330
36
100
AcDbEntity
  8
1
  6
Continuous
 62
     7
100
AcDbLine
 10
246.8218830972141
 20
175.0380585002956
 30
0.0
 11
246.8218830972141
 21
173.0254154619006
 31
0.0
  0
LINE
  5
6D
330
36
100
AcDbEntity
  8
1
  6
Continuous
 62
     7
100
AcDbLine
 10
283.0607760982838
 20
139.0269515013654
 30
0.0
 11
278.321883097214
 21
139.0269515013654
 31
0.0
  0
LINE
  5
6E
330
36
100
AcDbEntity
  8
1
  6
Continuous
 62
     7
100
AcDbLine
 10
285.321883097214
 20
141.2880585002956
 30
0.0
 11
283.0607760982838
 21
139.0269515013654
 31
0.0
  0
LINE
  5
6F
330
36
100
AcDbEntity
  8
1
  6
Continuous
 62
     7
100
AcDbLine
 10
283.0607760982838
 20
169.0491654992259
 30
0.0
 11
278.321883097214
 21
169.0491654992259
 31
0.0
  0
LINE
  5
70
330
36
100
AcDbEntity
  8
1
  6
Continuous
 62
     7
100
AcDbLine
 10
283.0607760982838
 20
169.0491654992259
 30
0.0
 11
285.321883097214
 21
166.7880585002956
 31
0.0
  0
LINE
  5
71
330
36
100
AcDbEntity
  8
1
  6
Continuous
 62
     7
100
AcDbLine
 10
242.3218830972141
 20
166.0380585002957
 30
0.0
 11
240.8218830972142
 21
166.0380585002957
 31
0.0
  0
LINE
  5
72
330
36
100
AcDbEntity
  8
1
  6
Continuous
 62
     7
100
AcDbLine
 10
242.3218830972141
 20
165.2250585002958
 30
0.0
 11
242.3218830972141
 21
166.0380585002957
 31
0.0
  0
LINE
  5
73
330
36
100
AcDbEntity
  8
1
  6
Continuous
 62
     7
100
AcDbLine
 10
243.7300404037676
 20
166.0380585002957
 30
0.0
 11
242.3218830972141
 21
166.0380585002957
 31
0.0
  0
LINE
  5
74
330
36
100
AcDbEntity
  8
1
  6
Continuous
 62
     7
100
AcDbLine
 10
246.8218830972141
 20
175.0380585002956
 30
0.0
 11
247.9838830972141
 21
175.0380585002956
 31
0.0
  0
LINE
  5
75
330
36
100
AcDbEntity
  8
1
  6
Continuous
 62
     7
100
AcDbLine
 10
266.6598830972141
 20
175.0380585002956
 30
0.0
 11
267.821883097214
 21
175.0380585002956
 31
0.0
  0
LINE
  5
76
330
36
100
AcDbEntity
  8
1
  6
Continuous
 62
     7
100
AcDbLine
 10
242.3218830972141
 20
142.0380585002956
 30
0.0
 11
243.7300404037676
 21
142.0380585002956
 31
0.0
  0
LINE
  5
77
330
36
100
AcDbEntity
  8
1
  6
Continuous
 62
     7
100
AcDbLine
 10
242.3218830972141
 20
142.0380585002956
 30
0.0
 11
242.3218830972141
 21
142.8510585002955
 31
0.0
  0
LINE
  5
78
330
36
100
AcDbEntity
  8
1
  6
Continuous
 62
     2
100
AcDbLine
 10
243.7300404037676
 20
166.0380585002957
 30
0.0
 11
242.3218830972141
 21
165.2250585002958
 31
0.0
  0
LINE
  5
79
330
36
100
AcDbEntity
  8
1
  6
Continuous
 62
     2
100
AcDbLine
 10
247.9838830972141
 20
175.0380585002956
 30
0.0
 11
247.9838830972141
 21
176.7380585002954
 31
0.0
  0
LINE
  5
7A
330
36
100
AcDbEntity
  8
1
  6
Continuous
 62
     2
100
AcDbLine
 10
246.8218830972141
 20
173.0254154619006
 30
0.0
 11
247.9838830972141
 21
175.0380585002956
 31
0.0
  0
LINE
  5
7B
330
36
100
AcDbEntity
  8
1
  6
Continuous
 62
     2
100
AcDbLine
 10
266.6598830972141
 20
175.0380585002956
 30
0.0
 11
267.821883097214
 21
173.0254154619006
 31
0.0
  0
LINE
  5
7C
330
36
100
AcDbEntity
  8
1
  6
Continuous
 62
     2
100
AcDbLine
 10
242.3218830972141
 20
142.8510585002955
 30
0.0
 11
240.8218830972142
 21
142.8510585002955
 31
0.0
  0
LINE
  5
7D
330
36
100
AcDbEntity
  8
1
  6
Continuous
 62
     2
100
AcDbLine
 10
242.3218830972141
 20
142.8510585002955
 30
0.0
 11
243.7300404037676
 21
142.0380585002956
 31
0.0
  0
LINE
  5
7E
330
36
100
AcDbEntity
  8
1
  6
Continuous
 62
     7
100
AcDbLine
 10
285.321883097214
 20
141.2880585002956
 30
0.0
 11
285.321883097214
 21
166.7880585002956
 31
0.0
  0
LINE
  5
7F
330
36
100
AcDbEntity
  8
1
  6
PHANTOM
 62
     4
100
AcDbLine
 10
257.3218830972141
 20
187.0380585002956
 30
0.0
 11
257.3218830972141
 21
136.9177367708506
 31
0.0
  0
LINE
  5
80
330
36
100
AcDbEntity
  8
1
  6
Continuous
 62
     7
100
AcDbLine
 10
278.321883097214
 20
139.0269515013654
 30
0.0
 11
277.2752421923511
 21
140.0735924062283
 31
0.0
  0
LINE
  5
81
330
36
100
AcDbEntity
  8
1
  6
Continuous
 62
     7
100
AcDbLine
 10
278.321883097214
 20
169.0491654992259
 30
0.0
 11
277.275242192351
 21
168.002524594363
 31
0.0
  0
LINE
  5
82
330
36
100
AcDbEntity
  8
1
  6
Continuous
 62
     7
100
AcDbLine
 10
272.821883097214
 20
166.5380585002957
 30
0.0
 11
273.7397082864184
 21
166.5380585002957
 31
0.0
  0
LINE
  5
83
330
36
100
AcDbEntity
  8
1
  6
Continuous
 62
     7
100
AcDbLine
 10
243.7300404037676
 20
166.0380585002957
 30
0.0
 11
244.2300404037675
 21
166.5380585002956
 31
0.0
  0
LINE
  5
84
330
36
100
AcDbEntity
  8
1
  6
Continuous
 62
     7
100
AcDbLine
 10
243.7300404037676
 20
142.0380585002956
 30
0.0
 11
244.2300404037676
 21
141.5380585002956
 31
0.0
  0
LINE
  5
85
330
36
100
AcDbEntity
  8
1
  6
Continuous
 62
     7
100
AcDbLine
 10
244.2300404037676
 20
141.5380585002956
 30
0.0
 11
273.7397082864184
 21
141.5380585002956
 31
0.0
  0
LINE
  5
86
330
36
100
AcDbEntity
  8
1
  6
Continuous
 62
     7
100
AcDbLine
 10
119.821883097214
 20
420.6782900499172
 30
0.0
 11
119.821883097214
 21
450.1879579325678
 31
0.0
  0
LINE
  5
87
330
36
100
AcDbEntity
  8
1
  6
Continuous
 62
     7
100
AcDbLine
 10
119.321883097214
 20
420.1782900499172
 30
0.0
 11
119.821883097214
 21
420.6782900499172
 31
0.0
  0
LINE
  5
88
330
36
100
AcDbEntity
  8
1
  6
Continuous
 62
     7
100
AcDbLine
 10
95.32188309721391
 20
420.1782900499172
 30
0.0
 11
94.82188309721401
 21
420.6782900499171
 31
0.0
  0
LINE
  5
89
330
36
100
AcDbEntity
  8
1
  6
Continuous
 62
     7
100
AcDbLine
 10
94.82188309721401
 20
420.6782900499171
 30
0.0
 11
94.82188309721391
 21
450.1879579325678
 31
0.0
  0
LINE
  5
8A
330
36
100
AcDbEntity
  8
1
  6
Continuous
 62
     2
100
AcDbLine
 10
118.5088830972141
 20
418.7701327433636
 30
0.0
 11
119.321883097214
 21
420.1782900499172
 31
0.0
  0
LINE
  5
8B
330
36
100
AcDbEntity
  8
1
  6
Continuous
 62
     2
100
AcDbLine
 10
118.5088830972141
 20
418.7701327433636
 30
0.0
 11
118.5088830972141
 21
417.3401327433638
 31
0.0
  0
LINE
  5
8C
330
36
100
AcDbEntity
  8
1
  6
Continuous
 62
     2
100
AcDbLine
 10
95.32188309721391
 20
420.1782900499172
 30
0.0
 11
96.13488309721392
 21
418.7701327433636
 31
0.0
  0
LINE
  5
8D
330
36
100
AcDbEntity
  8
1
  6
Continuous
 62
     7
100
AcDbLine
 10
119.321883097214
 20
418.7701327433636
 30
0.0
 11
118.5088830972141
 21
418.7701327433636
 31
0.0
  0
LINE
  5
8E
330
36
100
AcDbEntity
  8
1
  6
Continuous
 62
     7
100
AcDbLine
 10
119.321883097214
 20
418.7701327433636
 30
0.0
 11
119.321883097214
 21
420.1782900499172
 31
0.0
  0
LINE
  5
8F
330
36
100
AcDbEntity
  8
1
  6
Continuous
 62
     7
100
AcDbLine
 10
95.32188309721391
 20
420.1782900499172
 30
0.0
 11
95.32188309721391
 21
418.7701327433636
 31
0.0
  0
LINE
  5
90
330
36
100
AcDbEntity
  8
1
  6
Continuous
 62
     7
100
AcDbLine
 10
96.13488309721392
 20
418.7701327433636
 30
0.0
 11
95.32188309721391
 21
418.7701327433636
 31
0.0
  0
LINE
  5
91
330
36
100
AcDbEntity
  8
1
  6
Continuous
 62
     7
100
AcDbLine
 10
95.32188309721391
 20
418.7701327433636
 30
0.0
 11
95.32188309721391
 21
417.3401327433638
 31
0.0
  0
LINE
  5
92
330
36
100
AcDbEntity
  8
1
  6
Continuous
 62
     7
100
AcDbLine
 10
94.32188309721401
 20
461.5201327433636
 30
0.0
 11
94.57188309721401
 21
461.7701327433636
 31
0.0
  0
LINE
  5
93
330
36
100
AcDbEntity
  8
1
  6
Continuous
 62
     7
100
AcDbLine
 10
94.32188309721401
 20
461.5201327433636
 30
0.0
 11
94.32188309721401
 21
459.5090257444335
 31
0.0
  0
LINE
  5
94
330
36
100
AcDbEntity
  8
1
  6
Continuous
 62
     7
100
AcDbLine
 10
120.071883097214
 20
461.7701327433636
 30
0.0
 11
120.3218830972139
 21
461.5201327433638
 31
0.0
  0
LINE
  5
95
330
36
100
AcDbEntity
  8
1
  6
Continuous
 62
     7
100
AcDbLine
 10
120.3218830972139
 20
461.5201327433638
 30
0.0
 11
120.3218830972139
 21
452.3674074043383
 31
0.0
  0
LINE
  5
96
330
36
100
AcDbEntity
  8
1
  6
Continuous
 62
     7
100
AcDbLine
 10
120.071883097214
 20
461.7701327433636
 30
0.0
 11
94.57188309721401
 21
461.7701327433636
 31
0.0
  0
LINE
  5
97
330
36
100
AcDbEntity
  8
1
  6
Continuous
 62
     7
100
AcDbLine
 10
94.32188309721401
 20
459.5090257444335
 30
0.0
 11
94.32188309721401
 21
452.3674074043383
 31
0.0
  0
LINE
  5
98
330
36
100
AcDbEntity
  8
1
  6
Continuous
 62
     7
100
AcDbLine
 10
113.671883097214
 20
418.7701327433636
 30
0.0
 11
118.5088830972141
 21
418.7701327433636
 31
0.0
  0
ARC
  5
99
330
36
100
AcDbEntity
  8
1
  6
Continuous
 62
     7
100
AcDbCircle
 10
237.4070661759837
 20
173.0254154619006
 30
0.0
 40
9.414816921230441
100
AcDbArc
 50
-43.55560474847164
 51
0.0
  0
SPLINE
  5
9A
330
36
100
AcDbEntity
  8
1
  6
Continuous
 62
     7
100
AcDbSpline
210
0.0
220
0.0
230
1.0
 70
     8
 71
     3
 72
    33
 73
    29
 74
    27
 42
0.0000000001
 43
0.0000000001
 44
0.00000001
 40
0.0
 40
0.0
 40
0.0
 40
0.0
 40
0.4133569006800341
 40
0.8267148991711948
 40
1.047477429691464
 40
1.268240273685991
 40
1.504227369535069
 40
1.740225682305841
 40
2.001195139144792
 40
2.262139231593001
 40
2.573023665195157
 40
2.884147975817023
 40
3.395079514214073
 40
3.905704156215929
 40
4.367715781294264
 40
4.829727406372547
 40
5.340352048374502
 40
5.851283586771551
 40
6.16240789739334
 40
6.473292330995494
 40
6.734236423443782
 40
6.995205880282717
 40
7.231204193053443
 40
7.467191288902464
 40
7.687954132897063
 40
7.90871666341728
 40
8.3220746619085
 40
8.735431562588495
 40
8.735431562588495
 40
8.735431562588495
 40
8.735431562588495
 10
278.321883097214
 20
139.0269515013654
 30
0.0
 10
278.2252666434948
 20
139.1252017030701
 30
0.0
 10
278.0320334794582
 20
139.3217023674166
 30
0.0
 10
277.7977565241266
 20
139.5807562360295
 30
0.0
 10
277.612663446347
 20
139.7974390425289
 30
0.0
 10
277.4700415664948
 20
139.9725740398376
 30
0.0
 10
277.3288971643344
 20
140.1553707284253
 30
0.0
 10
277.1853887688258
 20
140.3531470117232
 30
0.0
 10
277.0441058793808
 20
140.5626630570714
 30
0.0
 10
276.8982750758916
 20
140.798961467443
 30
0.0
 10
276.7560529656512
 20
141.0568320192966
 30
0.0
 10
276.5942266700235
 20
141.3982978032127
 30
0.0
 10
276.4410626015909
 20
141.8165046093825
 30
0.0
 10
276.3337679422173
 20
142.3010887778839
 30
0.0
 10
276.3004521579332
 20
142.7797282510979
 30
0.0
 10
276.3337679422175
 20
143.258367724312
 30
0.0
 10
276.4410626015908
 20
143.7429518928134
 30
0.0
 10
276.5942266700236
 20
144.1611586989832
 30
0.0
 10
276.7560529656512
 20
144.5026244828993
 30
0.0
 10
276.8982750758916
 20
144.7604950347529
 30
0.0
 10
277.0441058793809
 20
144.9967934451246
 30
0.0
 10
277.1853887688258
 20
145.2063094904727
 30
0.0
 10
277.3288971643345
 20
145.4040857737705
 30
0.0
 10
277.4700415664949
 20
145.5868824623584
 30
0.0
 10
277.6126634463471
 20
145.7620174596669
 30
0.0
 10
277.7977565241267
 20
145.9787002661664
 30
0.0
 10
278.0320334794582
 20
146.2377541347793
 30
0.0
 10
278.2252666434948
 20
146.4342547991258
 30
0.0
 10
278.321883097214
 20
146.5325050008305
 30
0.0
 11
278.321883097214
 21
139.0269515013654
 31
0.0
 11
278.0341166222995
 21
139.3236910896496
 31
0.0
 11
277.7566063474816
 21
139.6300452675012
 31
0.0
 11
277.6133263025166
 21
139.7979944371822
 31
0.0
 11
277.4739679726152
 21
139.9692121032557
 31
0.0
 11
277.329837626753
 21
140.1560712823423
 31
0.0
 11
277.191329597749
 21
140.3471490924932
 31
0.0
 11
277.0455758638308
 21
140.5636228933369
 31
0.0
 11
276.9086912228827
 21
140.785781427848
 31
0.0
 11
276.758925481472
 21
141.0582137199058
 31
0.0
 11
276.6260528480165
 21
141.3395377322803
 31
0.0
 11
276.4519153012726
 21
141.8198783944596
 31
0.0
 11
276.3434144731502
 21
142.3188424165256
 31
0.0
 11
276.311181117786
 21
142.779728251098
 31
0.0
 11
276.3434144731502
 21
143.2406140856703
 31
0.0
 11
276.4519153012726
 21
143.7395781077364
 31
0.0
 11
276.6260528480165
 21
144.2199187699157
 31
0.0
 11
276.758925481472
 21
144.5012427822902
 31
0.0
 11
276.9086912228826
 21
144.7736750743479
 31
0.0
 11
277.0455758638308
 21
144.9958336088591
 31
0.0
 11
277.191329597749
 21
145.2123074097028
 31
0.0
 11
277.3298376267531
 21
145.4033852198536
 31
0.0
 11
277.4739679726152
 21
145.5902443989402
 31
0.0
 11
277.6133263025167
 21
145.7614620650137
 31
0.0
 11
277.7566063474816
 21
145.9294112346947
 31
0.0
 11
278.0341166222996
 21
146.2357654125463
 31
0.0
 11
278.321883097214
 21
146.5325050008305
 31
0.0
  0
SPLINE
  5
9B
330
36
100
AcDbEntity
  8
1
  6
Continuous
 62
     7
100
AcDbSpline
210
0.0
220
0.0
230
1.0
 70
     8
 71
     3
 72
    33
 73
    29
 74
    27
 42
0.0000000001
 43
0.0000000001
 44
0.00000001
 40
0.0
 40
0.0
 40
0.0
 40
0.0
 40
0.4133569006801133
 40
0.8267148991713121
 40
1.047477429691545
 40
1.268240273686107
 40
1.504227369535116
 40
1.740225682305888
 40
2.001195139144839
 40
2.262139231593078
 40
2.573023665195234
 40
2.8841479758171
 40
3.395079514214208
 40
3.905704156216028
 40
4.367715781294367
 40
4.82972740637265
 40
5.340352048374593
 40
5.851283586771682
 40
6.162407897393471
 40
6.473292330995652
 40
6.734236423443909
 40
6.995205880282845
 40
7.231204193053571
 40
7.467191288902592
 40
7.687954132897083
 40
7.908716663417374
 40
8.322074661908555
 40
8.735431562588628
 40
8.735431562588628
 40
8.735431562588628
 40
8.735431562588628
 10
283.0607760982838
 20
139.0269515013654
 30
0.0
 10
283.1573925520031
 20
139.1252017030701
 30
0.0
 10
283.3506257160396
 20
139.3217023674166
 30
0.0
 10
283.5849026713714
 20
139.5807562360296
 30
0.0
 10
283.769995749151
 20
139.7974390425289
 30
0.0
 10
283.9126176290032
 20
139.9725740398375
 30
0.0
 10
284.0537620311634
 20
140.1553707284253
 30
0.0
 10
284.1972704266722
 20
140.3531470117233
 30
0.0
 10
284.3385533161169
 20
140.5626630570714
 30
0.0
 10
284.4843841196064
 20
140.7989614674431
 30
0.0
 10
284.6266062298468
 20
141.0568320192966
 30
0.0
 10
284.7884325254743
 20
141.3982978032128
 30
0.0
 10
284.9415965939074
 20
141.8165046093824
 30
0.0
 10
285.0488912532804
 20
142.3010887778839
 30
0.0
 10
285.0822070375649
 20
142.779728251098
 30
0.0
 10
285.0488912532804
 20
143.258367724312
 30
0.0
 10
284.9415965939074
 20
143.7429518928135
 30
0.0
 10
284.7884325254743
 20
144.1611586989832
 30
0.0
 10
284.6266062298468
 20
144.5026244828993
 30
0.0
 10
284.4843841196062
 20
144.7604950347529
 30
0.0
 10
284.3385533161172
 20
144.9967934451247
 30
0.0
 10
284.197270426672
 20
145.2063094904727
 30
0.0
 10
284.0537620311636
 20
145.4040857737706
 30
0.0
 10
283.9126176290031
 20
145.5868824623583
 30
0.0
 10
283.769995749151
 20
145.762017459667
 30
0.0
 10
283.5849026713712
 20
145.9787002661663
 30
0.0
 10
283.3506257160399
 20
146.2377541347794
 30
0.0
 10
283.1573925520032
 20
146.4342547991258
 30
0.0
 10
283.0607760982839
 20
146.5325050008305
 30
0.0
 11
283.0607760982838
 21
139.0269515013654
 31
0.0
 11
283.3485425731984
 21
139.3236910896496
 31
0.0
 11
283.6260528480164
 21
139.6300452675012
 31
0.0
 11
283.7693328929813
 21
139.7979944371822
 31
0.0
 11
283.9086912228827
 21
139.9692121032557
 31
0.0
 11
284.0528215687448
 21
140.1560712823423
 31
0.0
 11
284.1913295977489
 21
140.3471490924932
 31
0.0
 11
284.3370833316671
 21
140.5636228933369
 31
0.0
 11
284.4739679726152
 21
140.785781427848
 31
0.0
 11
284.623733714026
 21
141.0582137199058
 31
0.0
 11
284.7566063474815
 21
141.3395377322803
 31
0.0
 11
284.9307438942255
 21
141.8198783944596
 31
0.0
 11
285.0392447223478
 21
142.3188424165256
 31
0.0
 11
285.071478077712
 21
142.779728251098
 31
0.0
 11
285.0392447223478
 21
143.2406140856703
 31
0.0
 11
284.9307438942254
 21
143.7395781077364
 31
0.0
 11
284.7566063474815
 21
144.2199187699157
 31
0.0
 11
284.623733714026
 21
144.5012427822902
 31
0.0
 11
284.4739679726152
 21
144.7736750743479
 31
0.0
 11
284.3370833316672
 21
144.9958336088591
 31
0.0
 11
284.1913295977489
 21
145.2123074097028
 31
0.0
 11
284.0528215687448
 21
145.4033852198536
 31
0.0
 11
283.9086912228827
 21
145.5902443989402
 31
0.0
 11
283.7693328929814
 21
145.7614620650137
 31
0.0
 11
283.6260528480164
 21
145.9294112346947
 31
0.0
 11
283.3485425731985
 21
146.2357654125463
 31
0.0
 11
283.0607760982839
 21
146.5325050008305
 31
0.0
  0
SPLINE
  5
9C
330
36
100
AcDbEntity
  8
1
  6
Continuous
 62
     7
100
AcDbSpline
210
0.0
220
0.0
230
1.0
 70
     8
 71
     3
 72
    33
 73
    29
 74
    27
 42
0.0000000001
 43
0.0000000001
 44
0.00000001
 40
0.0
 40
0.0
 40
0.0
 40
0.0
 40
0.6660942076091816
 40
1.332190222770858
 40
1.699632944385033
 40
2.067077053321414
 40
2.470589213764434
 40
2.874107007989113
 40
3.334983200372721
 40
3.795855500931638
 40
4.367402403401176
 40
4.939051291210259
 40
5.929102491977377
 40
6.919199823136911
 40
7.841546055180305
 40
8.763892287223671
 40
9.753989618383262
 40
10.74404081915035
 40
11.31568970695942
 40
11.88723660942899
 40
12.34810890998786
 40
12.8089851023714
 40
13.21250289659608
 40
13.61601505703908
 40
13.98345916597548
 40
14.35090188758961
 40
15.01699790275131
 40
15.68309211036057
 40
15.68309211036057
 40
15.68309211036057
 40
15.68309211036057
 10
283.0607760982839
 20
161.5436119997607
 30
0.0
 10
283.1587140119275
 20
161.344335721328
 30
0.0
 10
283.3545901049847
 20
160.9457826236947
 30
0.0
 10
283.5877855712995
 20
160.4293356905367
 30
0.0
 10
283.7711644209505
 20
159.9998403083463
 30
0.0
 10
283.9142173699812
 20
159.6483490043588
 30
0.0
 10
284.0551388578905
 20
159.2830731305623
 30
0.0
 10
284.1992070990992
 20
158.8857192009037
 30
0.0
 10
284.3402245219572
 20
158.4670249771174
 30
0.0
 10
284.4868488689931
 20
157.9912882876422
 30
0.0
 10
284.6286475611335
 20
157.4756219268523
 30
0.0
 10
284.7922807573224
 20
156.7834802226909
 30
0.0
 10
284.9443563728744
 20
155.9458645190858
 30
0.0
 10
285.0492981189334
 20
154.9831894004765
 30
0.0
 10
285.0826458851341
 20
154.0380585002956
 30
0.0
 10
285.0492981189335
 20
153.0929276001147
 30
0.0
 10
284.9443563728743
 20
152.1302524815054
 30
0.0
 10
284.7922807573225
 20
151.2926367779003
 30
0.0
 10
284.6286475611333
 20
150.600495073739
 30
0.0
 10
284.486848868993
 20
150.084828712949
 30
0.0
 10
284.3402245219571
 20
149.6090920234739
 30
0.0
 10
284.1992070990991
 20
149.1903977996876
 30
0.0
 10
284.0551388578904
 20
148.793043870029
 30
0.0
 10
283.9142173699811
 20
148.4277679962324
 30
0.0
 10
283.7711644209505
 20
148.0762766922451
 30
0.0
 10
283.5877855712995
 20
147.6467813100546
 30
0.0
 10
283.3545901049847
 20
147.1303343768966
 30
0.0
 10
283.1587140119275
 20
146.7317812792632
 30
0.0
 10
283.0607760982839
 20
146.5325050008305
 30
0.0
 11
283.0607760982839
 21
161.5436119997607
 31
0.0
 11
283.3513160911629
 21
160.9442223051977
 31
0.0
 11
283.6260528480165
 21
160.3374244674891
 31
0.0
 11
283.7702031065187
 21
159.9994379934387
 31
0.0
 11
283.9086912228827
 21
159.65909079598
 31
0.0
 11
284.0538550240222
 21
159.2825944022866
 31
0.0
 11
284.1913295977491
 21
158.9032168175052
 31
0.0
 11
284.3383310915293
 21
158.4664131710777
 31
0.0
 11
284.4739679726152
 21
158.0259521467955
 31
0.0
 11
284.625297221445
 21
157.474803056103
 31
0.0
 11
284.7566063474815
 21
156.9184395379309
 31
0.0
 11
284.9327506010575
 21
155.944183625928
 31
0.0
 11
285.0392447223478
 21
154.95983016944
 31
0.0
 11
285.0717956321263
 21
154.0380585002956
 31
0.0
 11
285.0392447223478
 21
153.1162868311512
 31
0.0
 11
284.9327506010575
 21
152.1319333746632
 31
0.0
 11
284.7566063474815
 21
151.1576774626603
 31
0.0
 11
284.6252972214449
 21
150.6013139444882
 31
0.0
 11
284.4739679726152
 21
150.0501648537957
 31
0.0
 11
284.3383310915292
 21
149.6097038295135
 31
0.0
 11
284.191329597749
 21
149.1729001830861
 31
0.0
 11
284.0538550240221
 21
148.7935225983047
 31
0.0
 11
283.9086912228827
 21
148.4170262046113
 31
0.0
 11
283.7702031065186
 21
148.0766790071526
 31
0.0
 11
283.6260528480165
 21
147.7386925331023
 31
0.0
 11
283.3513160911629
 21
147.1318946953936
 31
0.0
 11
283.0607760982839
 21
146.5325050008305
 31
0.0
  0
SPLINE
  5
9D
330
36
100
AcDbEntity
  8
1
  6
Continuous
 62
     7
100
AcDbSpline
210
0.0
220
0.0
230
1.0
 70
     8
 71
     3
 72
    33
 73
    29
 74
    27
 42
0.0000000001
 43
0.0000000001
 44
0.00000001
 40
0.0
 40
0.0
 40
0.0
 40
0.0
 40
0.6660942076092064
 40
1.332190222770859
 40
1.699632944385012
 40
2.067077053321393
 40
2.470589213764433
 40
2.874107007989074
 40
3.334983200372681
 40
3.795855500931632
 40
4.367402403401139
 40
4.939051291210223
 40
5.929102491977351
 40
6.919199823136879
 40
7.841546055180271
 40
8.763892287223635
 40
9.753989618383214
 40
10.74404081915031
 40
11.31568970695937
 40
11.88723660942892
 40
12.34810890998782
 40
12.80898510237137
 40
13.21250289659605
 40
13.61601505703907
 40
13.98345916597547
 40
14.3509018875896
 40
15.01699790275128
 40
15.68309211036051
 40
15.68309211036051
 40
15.68309211036051
 40
15.68309211036051
 10
278.321883097214
 20
161.5436119997607
 30
0.0
 10
278.2239451835704
 20
161.344335721328
 30
0.0
 10
278.0280690905132
 20
160.9457826236947
 30
0.0
 10
277.7948736241984
 20
160.4293356905367
 30
0.0
 10
277.6114947745475
 20
159.9998403083462
 30
0.0
 10
277.4684418255168
 20
159.6483490043588
 30
0.0
 10
277.3275203376074
 20
159.2830731305624
 30
0.0
 10
277.183452096399
 20
158.8857192009037
 30
0.0
 10
277.0424346735408
 20
158.4670249771174
 30
0.0
 10
276.8958103265047
 20
157.9912882876422
 30
0.0
 10
276.7540116343647
 20
157.4756219268523
 30
0.0
 10
276.5903784381755
 20
156.7834802226909
 30
0.0
 10
276.4383028226237
 20
155.9458645190858
 30
0.0
 10
276.3333610765645
 20
154.9831894004765
 30
0.0
 10
276.3000133103641
 20
154.0380585002956
 30
0.0
 10
276.3333610765646
 20
153.0929276001147
 30
0.0
 10
276.4383028226235
 20
152.1302524815053
 30
0.0
 10
276.5903784381755
 20
151.2926367779003
 30
0.0
 10
276.7540116343646
 20
150.600495073739
 30
0.0
 10
276.8958103265047
 20
150.084828712949
 30
0.0
 10
277.0424346735408
 20
149.6090920234739
 30
0.0
 10
277.183452096399
 20
149.1903977996876
 30
0.0
 10
277.3275203376074
 20
148.793043870029
 30
0.0
 10
277.468441825517
 20
148.4277679962325
 30
0.0
 10
277.6114947745476
 20
148.0762766922451
 30
0.0
 10
277.7948736241985
 20
147.6467813100546
 30
0.0
 10
278.0280690905132
 20
147.1303343768966
 30
0.0
 10
278.2239451835705
 20
146.7317812792632
 30
0.0
 10
278.321883097214
 20
146.5325050008305
 30
0.0
 11
278.321883097214
 21
161.5436119997607
 31
0.0
 11
278.031343104335
 21
160.9442223051977
 31
0.0
 11
277.7566063474815
 21
160.3374244674891
 31
0.0
 11
277.6124560889793
 21
159.9994379934387
 31
0.0
 11
277.4739679726152
 21
159.65909079598
 31
0.0
 11
277.3288041714757
 21
159.2825944022866
 31
0.0
 11
277.191329597749
 21
158.9032168175052
 31
0.0
 11
277.0443281039687
 21
158.4664131710777
 31
0.0
 11
276.9086912228827
 21
158.0259521467955
 31
0.0
 11
276.7573619740531
 21
157.474803056103
 31
0.0
 11
276.6260528480165
 21
156.9184395379309
 31
0.0
 11
276.4499085944405
 21
155.944183625928
 31
0.0
 11
276.3434144731502
 21
154.95983016944
 31
0.0
 11
276.3108635633718
 21
154.0380585002956
 31
0.0
 11
276.3434144731502
 21
153.1162868311512
 31
0.0
 11
276.4499085944404
 21
152.1319333746632
 31
0.0
 11
276.6260528480165
 21
151.1576774626603
 31
0.0
 11
276.757361974053
 21
150.6013139444882
 31
0.0
 11
276.9086912228827
 21
150.0501648537957
 31
0.0
 11
277.0443281039687
 21
149.6097038295135
 31
0.0
 11
277.191329597749
 21
149.1729001830861
 31
0.0
 11
277.3288041714758
 21
148.7935225983047
 31
0.0
 11
277.4739679726153
 21
148.4170262046113
 31
0.0
 11
277.6124560889794
 21
148.0766790071526
 31
0.0
 11
277.7566063474816
 21
147.7386925331023
 31
0.0
 11
278.0313431043351
 21
147.1318946953936
 31
0.0
 11
278.321883097214
 21
146.5325050008305
 31
0.0
  0
SPLINE
  5
9E
330
36
100
AcDbEntity
  8
1
  6
Continuous
 62
     7
100
AcDbSpline
210
0.0
220
0.0
230
1.0
 70
     8
 71
     3
 72
    33
 73
    29
 74
    27
 42
0.0000000001
 43
0.0000000001
 44
0.00000001
 40
0.0
 40
0.0
 40
0.0
 40
0.0
 40
0.4133569006800341
 40
0.8267148991711948
 40
1.047477429691529
 40
1.268240273686034
 40
1.504227369535112
 40
1.740225682305838
 40
2.001195139144766
 40
2.262139231592999
 40
2.573023665195255
 40
2.884147975817069
 40
3.395079514214066
 40
3.905704156216005
 40
4.367715781294283
 40
4.829727406372623
 40
5.340352048374522
 40
5.851283586771572
 40
6.162407897393413
 40
6.473292330995617
 40
6.734236423443904
 40
6.995205880282864
 40
7.23120419305359
 40
7.467191288902566
 40
7.687954132897097
 40
7.908716663417271
 40
8.32207466190847
 40
8.735431562588566
 40
8.735431562588566
 40
8.735431562588566
 40
8.735431562588566
 10
278.321883097214
 20
169.0491654992259
 30
0.0
 10
278.2252666434948
 20
168.9509152975212
 30
0.0
 10
278.0320334794582
 20
168.7544146331747
 30
0.0
 10
277.7977565241266
 20
168.4953607645617
 30
0.0
 10
277.612663446347
 20
168.2786779580624
 30
0.0
 10
277.4700415664948
 20
168.1035429607537
 30
0.0
 10
277.3288971643344
 20
167.9207462721659
 30
0.0
 10
277.1853887688258
 20
167.7229699888681
 30
0.0
 10
277.0441058793809
 20
167.51345394352
 30
0.0
 10
276.8982750758917
 20
167.2771555331482
 30
0.0
 10
276.7560529656512
 20
167.0192849812946
 30
0.0
 10
276.5942266700236
 20
166.6778191973785
 30
0.0
 10
276.4410626015908
 20
166.2596123912088
 30
0.0
 10
276.3337679422174
 20
165.7750282227074
 30
0.0
 10
276.3004521579331
 20
165.2963887494933
 30
0.0
 10
276.3337679422174
 20
164.8177492762792
 30
0.0
 10
276.4410626015908
 20
164.3331651077778
 30
0.0
 10
276.5942266700236
 20
163.9149583016081
 30
0.0
 10
276.7560529656512
 20
163.5734925176919
 30
0.0
 10
276.8982750758916
 20
163.3156219658383
 30
0.0
 10
277.0441058793807
 20
163.0793235554665
 30
0.0
 10
277.1853887688258
 20
162.8698075101185
 30
0.0
 10
277.3288971643344
 20
162.6720312268206
 30
0.0
 10
277.4700415664949
 20
162.4892345382328
 30
0.0
 10
277.612663446347
 20
162.3140995409243
 30
0.0
 10
277.7977565241268
 20
162.097416734425
 30
0.0
 10
278.0320334794582
 20
161.838362865812
 30
0.0
 10
278.2252666434948
 20
161.6418622014655
 30
0.0
 10
278.321883097214
 20
161.5436119997607
 30
0.0
 11
278.321883097214
 21
169.0491654992259
 31
0.0
 11
278.0341166222995
 21
168.7524259109417
 31
0.0
 11
277.7566063474816
 21
168.4460717330902
 31
0.0
 11
277.6133263025166
 21
168.278122563409
 31
0.0
 11
277.4739679726152
 21
168.1069048973356
 31
0.0
 11
277.329837626753
 21
167.920045718249
 31
0.0
 11
277.191329597749
 21
167.7289679080981
 31
0.0
 11
277.0455758638308
 21
167.5124941072544
 31
0.0
 11
276.9086912228827
 21
167.2903355727433
 31
0.0
 11
276.758925481472
 21
167.0179032806854
 31
0.0
 11
276.6260528480165
 21
166.7365792683109
 31
0.0
 11
276.4519153012726
 21
166.2562386061317
 31
0.0
 11
276.3434144731502
 21
165.7572745840656
 31
0.0
 11
276.311181117786
 21
165.2963887494933
 31
0.0
 11
276.3434144731502
 21
164.8355029149209
 31
0.0
 11
276.4519153012726
 21
164.3365388928549
 31
0.0
 11
276.6260528480165
 21
163.8561982306756
 31
0.0
 11
276.758925481472
 21
163.5748742183011
 31
0.0
 11
276.9086912228826
 21
163.3024419262432
 31
0.0
 11
277.0455758638308
 21
163.0802833917321
 31
0.0
 11
277.191329597749
 21
162.8638095908884
 31
0.0
 11
277.3298376267531
 21
162.6727317807375
 31
0.0
 11
277.4739679726152
 21
162.485872601651
 31
0.0
 11
277.6133263025167
 21
162.3146549355776
 31
0.0
 11
277.7566063474816
 21
162.1467057658966
 31
0.0
 11
278.0341166222996
 21
161.8403515880451
 31
0.0
 11
278.321883097214
 21
161.5436119997607
 31
0.0
  0
SPLINE
  5
9F
330
36
100
AcDbEntity
  8
1
  6
Continuous
 62
     7
100
AcDbSpline
210
0.0
220
0.0
230
1.0
 70
     8
 71
     3
 72
    33
 73
    29
 74
    27
 42
0.0000000001
 43
0.0000000001
 44
0.00000001
 40
0.0
 40
0.0
 40
0.0
 40
0.0
 40
0.4133569006801133
 40
0.8267148991713121
 40
1.04747742969161
 40
1.26824027368615
 40
1.504227369535159
 40
1.740225682305884
 40
2.001195139144812
 40
2.262139231593075
 40
2.573023665195331
 40
2.884147975817146
 40
3.3950795142142
 40
3.905704156216103
 40
4.367715781294386
 40
4.829727406372726
 40
5.340352048374613
 40
5.851283586771701
 40
6.162407897393542
 40
6.473292330995773
 40
6.73423642344403
 40
6.99520588028299
 40
7.231204193053716
 40
7.467191288902692
 40
7.687954132897116
 40
7.908716663417364
 40
8.322074661908525
 40
8.735431562588701
 40
8.735431562588701
 40
8.735431562588701
 40
8.735431562588701
 10
283.0607760982838
 20
169.0491654992259
 30
0.0
 10
283.1573925520031
 20
168.9509152975212
 30
0.0
 10
283.3506257160397
 20
168.7544146331747
 30
0.0
 10
283.5849026713713
 20
168.4953607645618
 30
0.0
 10
283.769995749151
 20
168.2786779580624
 30
0.0
 10
283.9126176290031
 20
168.1035429607537
 30
0.0
 10
284.0537620311635
 20
167.9207462721659
 30
0.0
 10
284.1972704266721
 20
167.7229699888681
 30
0.0
 10
284.338553316117
 20
167.5134539435199
 30
0.0
 10
284.4843841196064
 20
167.2771555331482
 30
0.0
 10
284.6266062298467
 20
167.0192849812946
 30
0.0
 10
284.7884325254743
 20
166.6778191973785
 30
0.0
 10
284.9415965939074
 20
166.2596123912088
 30
0.0
 10
285.0488912532804
 20
165.7750282227073
 30
0.0
 10
285.0822070375648
 20
165.2963887494933
 30
0.0
 10
285.0488912532804
 20
164.8177492762792
 30
0.0
 10
284.9415965939073
 20
164.3331651077778
 30
0.0
 10
284.7884325254743
 20
163.9149583016081
 30
0.0
 10
284.6266062298467
 20
163.5734925176919
 30
0.0
 10
284.4843841196063
 20
163.3156219658383
 30
0.0
 10
284.3385533161171
 20
163.0793235554665
 30
0.0
 10
284.1972704266721
 20
162.8698075101185
 30
0.0
 10
284.0537620311634
 20
162.6720312268206
 30
0.0
 10
283.9126176290031
 20
162.4892345382329
 30
0.0
 10
283.7699957491511
 20
162.3140995409242
 30
0.0
 10
283.5849026713711
 20
162.0974167344251
 30
0.0
 10
283.3506257160399
 20
161.8383628658121
 30
0.0
 10
283.1573925520032
 20
161.6418622014654
 30
0.0
 10
283.0607760982839
 20
161.5436119997607
 30
0.0
 11
283.0607760982838
 21
169.0491654992259
 31
0.0
 11
283.3485425731984
 21
168.7524259109417
 31
0.0
 11
283.6260528480164
 21
168.4460717330902
 31
0.0
 11
283.7693328929813
 21
168.278122563409
 31
0.0
 11
283.9086912228827
 21
168.1069048973356
 31
0.0
 11
284.0528215687448
 21
167.920045718249
 31
0.0
 11
284.1913295977489
 21
167.7289679080981
 31
0.0
 11
284.3370833316671
 21
167.5124941072544
 31
0.0
 11
284.4739679726152
 21
167.2903355727433
 31
0.0
 11
284.623733714026
 21
167.0179032806854
 31
0.0
 11
284.7566063474815
 21
166.7365792683109
 31
0.0
 11
284.9307438942255
 21
166.2562386061317
 31
0.0
 11
285.0392447223478
 21
165.7572745840656
 31
0.0
 11
285.071478077712
 21
165.2963887494933
 31
0.0
 11
285.0392447223478
 21
164.8355029149209
 31
0.0
 11
284.9307438942254
 21
164.3365388928549
 31
0.0
 11
284.7566063474815
 21
163.8561982306756
 31
0.0
 11
284.623733714026
 21
163.5748742183011
 31
0.0
 11
284.4739679726152
 21
163.3024419262432
 31
0.0
 11
284.3370833316672
 21
163.0802833917321
 31
0.0
 11
284.1913295977489
 21
162.8638095908884
 31
0.0
 11
284.0528215687448
 21
162.6727317807375
 31
0.0
 11
283.9086912228827
 21
162.485872601651
 31
0.0
 11
283.7693328929814
 21
162.3146549355776
 31
0.0
 11
283.6260528480164
 21
162.1467057658966
 31
0.0
 11
283.3485425731985
 21
161.8403515880451
 31
0.0
 11
283.0607760982839
 21
161.5436119997607
 31
0.0
  0
SPLINE
  5
A0
330
36
100
AcDbEntity
  8
1
  6
Continuous
 62
     7
100
AcDbSpline
210
0.0
220
0.0
230
1.0
 70
     8
 71
     3
 72
    33
 73
    29
 74
    27
 42
0.0000000001
 43
0.0000000001
 44
0.00000001
 40
0.0
 40
0.0
 40
0.0
 40
0.0
 40
0.5939249141922411
 40
1.187851599377286
 40
1.513819741513111
 40
1.839789281990845
 40
2.196317437918314
 40
2.552851935104856
 40
2.958199561198958
 40
3.363541512548646
 40
3.863542578220888
 40
4.363662706811109
 40
5.224160052688683
 40
6.084683379167822
 40
6.883623439069091
 40
7.682563498970324
 40
8.543086825449391
 40
9.40358417132699
 40
9.903704299917266
 40
10.40370536558956
 40
10.80904731693924
 40
11.2143949430334
 40
11.57092944021994
 40
11.92745759614739
 40
12.25342713662521
 40
12.57939527876098
 40
13.17332196394598
 40
13.76724687813818
 40
13.76724687813818
 40
13.76724687813818
 40
13.76724687813818
 10
107.321883097214
 20
459.5090257444335
 30
0.0
 10
107.1496949019958
 20
459.6067493756535
 30
0.0
 10
106.8053179981206
 20
459.8021969294906
 30
0.0
 10
106.3577954548491
 20
460.035584321988
 30
0.0
 10
105.9853082393135
 20
460.2192351582674
 30
0.0
 10
105.6810578928225
 20
460.3622279234589
 30
0.0
 10
105.364666309827
 20
460.5031874101309
 30
0.0
 10
105.0207588435093
 20
460.6471813933218
 30
0.0
 10
104.6580990475937
 20
460.7882429724783
 30
0.0
 10
104.2464424800921
 20
460.9347699573098
 30
0.0
 10
103.7998132456702
 20
461.0766350442065
 30
0.0
 10
103.2013624292346
 20
461.2400575552535
 30
0.0
 10
102.4759795309031
 20
461.3922667773287
 30
0.0
 10
101.6415844629049
 20
461.4975022699152
 30
0.0
 10
100.821883097214
 20
461.5308620712893
 30
0.0
 10
100.0021817315232
 20
461.497502269915
 30
0.0
 10
99.16778666352499
 20
461.3922667773288
 30
0.0
 10
98.44240376519343
 20
461.2400575552534
 30
0.0
 10
97.84395294875787
 20
461.0766350442066
 30
0.0
 10
97.39732371433593
 20
460.9347699573099
 30
0.0
 10
96.98566714683422
 20
460.7882429724784
 30
0.0
 10
96.62300735091876
 20
460.6471813933216
 30
0.0
 10
96.27909988460084
 20
460.5031874101312
 30
0.0
 10
95.9627083016054
 20
460.3622279234592
 30
0.0
 10
95.65845795511459
 20
460.2192351582669
 30
0.0
 10
95.28597073957877
 20
460.0355843219882
 30
0.0
 10
94.83844819630755
 20
459.8021969294902
 30
0.0
 10
94.4940712924323
 20
459.6067493756535
 30
0.0
 10
94.32188309721401
 20
459.5090257444335
 30
0.0
 11
107.321883097214
 21
459.5090257444335
 31
0.0
 11
106.8036231672785
 21
459.7991178827645
 31
0.0
 11
106.2772940525387
 21
460.074302494166
 31
0.0
 11
105.9848657835335
 21
460.2183196361114
 31
0.0
 11
105.6898398607695
 21
460.3569408690321
 31
0.0
 11
105.3641351196121
 21
460.5019537910656
 31
0.0
 11
105.0352337933506
 21
460.6395792438985
 31
0.0
 11
104.6574136072878
 21
460.7864077322227
 31
0.0
 11
104.2755003026735
 21
460.9222176187648
 31
0.0
 11
103.7988862026289
 21
461.0733469187434
 31
0.0
 11
103.3163662483852
 21
461.2048559936311
 31
0.0
 11
102.4740376926357
 21
461.3807488201796
 31
0.0
 11
101.6201607791821
 21
461.4874943684974
 31
0.0
 11
100.821883097214
 21
461.5200206930165
 31
0.0
 11
100.023605415246
 21
461.4874943684973
 31
0.0
 11
99.16972850179242
 21
461.3807488201797
 31
0.0
 11
98.32739994604286
 21
461.2048559936311
 31
0.0
 11
97.84487999179916
 21
461.0733469187434
 31
0.0
 11
97.36826589175449
 21
460.9222176187648
 31
0.0
 11
96.98635258714019
 21
460.7864077322228
 31
0.0
 11
96.60853240107733
 21
460.6395792438985
 31
0.0
 11
96.27963107481578
 21
460.5019537910656
 31
0.0
 11
95.9539263336585
 21
460.3569408690321
 31
0.0
 11
95.6589004108944
 21
460.2183196361112
 31
0.0
 11
95.36647214188926
 21
460.0743024941659
 31
0.0
 11
94.84014302714959
 21
459.7991178827643
 31
0.0
 11
94.32188309721401
 21
459.5090257444335
 31
0.0
  0
SPLINE
  5
A1
330
36
100
AcDbEntity
  8
1
  6
Continuous
 62
     7
100
AcDbSpline
210
0.0
220
0.0
230
1.0
 70
     8
 71
     3
 72
    33
 73
    29
 74
    27
 42
0.0000000001
 43
0.0000000001
 44
0.00000001
 40
0.0
 40
0.0
 40
0.0
 40
0.0
 40
0.593924914192328
 40
1.187851599377297
 40
1.513819741512995
 40
1.839789281990677
 40
2.196317437918159
 40
2.552851935104846
 40
2.958199561199001
 40
3.363541512548716
 40
3.863542578220945
 40
4.363662706811192
 40
5.224160052688724
 40
6.084683379167877
 40
6.883623439069103
 40
7.682563498970308
 40
8.543086825449418
 40
9.40358417132699
 40
9.903704299917266
 40
10.40370536558955
 40
10.80904731693927
 40
11.21439494303341
 40
11.57092944021991
 40
11.92745759614733
 40
12.25342713662515
 40
12.57939527876092
 40
13.17332196394595
 40
13.76724687813819
 40
13.76724687813819
 40
13.76724687813819
 40
13.76724687813819
 10
107.321883097214
 20
459.5090257444335
 30
0.0
 10
107.4940712924323
 20
459.6067493756536
 30
0.0
 10
107.8384481963075
 20
459.8021969294904
 30
0.0
 10
108.2859707395789
 20
460.0355843219883
 30
0.0
 10
108.6584579551145
 20
460.2192351582673
 30
0.0
 10
108.9627083016053
 20
460.3622279234591
 30
0.0
 10
109.2790998846008
 20
460.5031874101311
 30
0.0
 10
109.6230073509187
 20
460.6471813933216
 30
0.0
 10
109.9856671468343
 20
460.7882429724785
 30
0.0
 10
110.3973237143359
 20
460.9347699573098
 30
0.0
 10
110.8439529487579
 20
461.0766350442066
 30
0.0
 10
111.4424037651934
 20
461.2400575552534
 30
0.0
 10
112.167786663525
 20
461.3922667773287
 30
0.0
 10
113.0021817315232
 20
461.4975022699151
 30
0.0
 10
113.821883097214
 20
461.5308620712893
 30
0.0
 10
114.6415844629048
 20
461.4975022699149
 30
0.0
 10
115.475979530903
 20
461.3922667773288
 30
0.0
 10
116.2013624292345
 20
461.2400575552533
 30
0.0
 10
116.7998132456701
 20
461.0766350442067
 30
0.0
 10
117.2464424800921
 20
460.9347699573096
 30
0.0
 10
117.6580990475938
 20
460.7882429724787
 30
0.0
 10
118.0207588435092
 20
460.6471813933216
 30
0.0
 10
118.3646663098271
 20
460.503187410131
 30
0.0
 10
118.6810578928226
 20
460.3622279234594
 30
0.0
 10
118.9853082393133
 20
460.2192351582669
 30
0.0
 10
119.3577954548492
 20
460.0355843219881
 30
0.0
 10
119.8053179981204
 20
459.8021969294903
 30
0.0
 10
120.1496949019957
 20
459.6067493756535
 30
0.0
 10
120.321883097214
 20
459.5090257444335
 30
0.0
 11
107.321883097214
 21
459.5090257444335
 31
0.0
 11
107.8401430271496
 21
459.7991178827645
 31
0.0
 11
108.3664721418893
 21
460.074302494166
 31
0.0
 11
108.6589004108943
 21
460.2183196361114
 31
0.0
 11
108.9539263336584
 21
460.3569408690321
 31
0.0
 11
109.2796310748157
 21
460.5019537910656
 31
0.0
 11
109.6085324010774
 21
460.6395792438985
 31
0.0
 11
109.9863525871403
 21
460.7864077322227
 31
0.0
 11
110.3682658917546
 21
460.9222176187648
 31
0.0
 11
110.8448799917992
 21
461.0733469187434
 31
0.0
 11
111.3273999460429
 21
461.2048559936311
 31
0.0
 11
112.1697285017924
 21
461.3807488201796
 31
0.0
 11
113.023605415246
 21
461.4874943684974
 31
0.0
 11
113.821883097214
 21
461.5200206930165
 31
0.0
 11
114.620160779182
 21
461.4874943684973
 31
0.0
 11
115.4740376926356
 21
461.3807488201797
 31
0.0
 11
116.3163662483851
 21
461.2048559936311
 31
0.0
 11
116.7988862026288
 21
461.0733469187434
 31
0.0
 11
117.2755003026735
 21
460.9222176187648
 31
0.0
 11
117.6574136072878
 21
460.7864077322228
 31
0.0
 11
118.0352337933507
 21
460.6395792438985
 31
0.0
 11
118.3641351196122
 21
460.5019537910656
 31
0.0
 11
118.6898398607694
 21
460.3569408690321
 31
0.0
 11
118.9848657835335
 21
460.2183196361112
 31
0.0
 11
119.2772940525387
 21
460.0743024941659
 31
0.0
 11
119.8036231672784
 21
459.7991178827643
 31
0.0
 11
120.321883097214
 21
459.5090257444335
 31
0.0
  0
SPLINE
  5
A2
330
36
100
AcDbEntity
  8
1
  6
Continuous
 62
     7
100
AcDbSpline
210
0.0
220
0.0
230
1.0
 70
     8
 71
     3
 72
    33
 73
    29
 74
    27
 42
0.0000000001
 43
0.0000000001
 44
0.00000001
 40
0.0
 40
0.0
 40
0.0
 40
0.0
 40
0.5939249141922411
 40
1.187851599377233
 40
1.513819741513059
 40
1.839789281990913
 40
2.196317437918428
 40
2.552851935104883
 40
2.958199561199026
 40
3.363541512548733
 40
3.86354257822101
 40
4.363662706811216
 40
5.22416005268879
 40
6.084683379167893
 40
6.883623439069166
 40
7.682563498970392
 40
8.543086825449475
 40
9.403584171327063
 40
9.903704299917308
 40
10.40370536558962
 40
10.80904731693936
 40
11.21439494303348
 40
11.57092944022002
 40
11.92745759614745
 40
12.25342713662534
 40
12.57939527876112
 40
13.17332196394613
 40
13.76724687813836
 40
13.76724687813836
 40
13.76724687813836
 40
13.76724687813836
 10
107.321883097214
 20
454.7701327433636
 30
0.0
 10
107.1496949019958
 20
454.6724091121436
 30
0.0
 10
106.8053179981206
 20
454.4769615583065
 30
0.0
 10
106.3577954548491
 20
454.243574165809
 30
0.0
 10
105.9853082393134
 20
454.05992332953
 30
0.0
 10
105.6810578928226
 20
453.9169305643379
 30
0.0
 10
105.3646663098271
 20
453.7759710776656
 30
0.0
 10
105.0207588435092
 20
453.6319770944754
 30
0.0
 10
104.6580990475937
 20
453.4909155153184
 30
0.0
 10
104.2464424800921
 20
453.3443885304872
 30
0.0
 10
103.7998132456702
 20
453.2025234435901
 30
0.0
 10
103.2013624292346
 20
453.0391009325433
 30
0.0
 10
102.4759795309031
 20
452.8868917104681
 30
0.0
 10
101.6415844629049
 20
452.781656217882
 30
0.0
 10
100.821883097214
 20
452.7482964165076
 30
0.0
 10
100.0021817315233
 20
452.7816562178819
 30
0.0
 10
99.16778666352496
 20
452.8868917104681
 30
0.0
 10
98.44240376519349
 20
453.0391009325435
 30
0.0
 10
97.84395294875783
 20
453.20252344359
 30
0.0
 10
97.39732371433591
 20
453.3443885304871
 30
0.0
 10
96.98566714683427
 20
453.4909155153185
 30
0.0
 10
96.62300735091868
 20
453.631977094475
 30
0.0
 10
96.2790998846009
 20
453.7759710776659
 30
0.0
 10
95.96270830160529
 20
453.9169305643376
 30
0.0
 10
95.65845795511463
 20
454.05992332953
 30
0.0
 10
95.28597073957879
 20
454.2435741658089
 30
0.0
 10
94.83844819630757
 20
454.4769615583069
 30
0.0
 10
94.49407129243228
 20
454.6724091121436
 30
0.0
 10
94.32188309721401
 20
454.7701327433636
 30
0.0
 11
107.321883097214
 21
454.7701327433636
 31
0.0
 11
106.8036231672785
 21
454.4800406050326
 31
0.0
 11
106.2772940525387
 21
454.2048559936312
 31
0.0
 11
105.9848657835335
 21
454.0608388516858
 31
0.0
 11
105.6898398607695
 21
453.9222176187648
 31
0.0
 11
105.3641351196121
 21
453.7772046967313
 31
0.0
 11
105.0352337933506
 21
453.6395792438985
 31
0.0
 11
104.6574136072878
 21
453.4927507555742
 31
0.0
 11
104.2755003026735
 21
453.3569408690321
 31
0.0
 11
103.7988862026289
 21
453.2058115690533
 31
0.0
 11
103.3163662483852
 21
453.0743024941657
 31
0.0
 11
102.4740376926357
 21
452.8984096676172
 31
0.0
 11
101.6201607791821
 21
452.7916641192996
 31
0.0
 11
100.821883097214
 21
452.7591377947804
 31
0.0
 11
100.023605415246
 21
452.7916641192995
 31
0.0
 11
99.16972850179242
 21
452.8984096676172
 31
0.0
 11
98.32739994604286
 21
453.0743024941658
 31
0.0
 11
97.84487999179916
 21
453.2058115690533
 31
0.0
 11
97.36826589175449
 21
453.356940869032
 31
0.0
 11
96.98635258714019
 21
453.4927507555742
 31
0.0
 11
96.60853240107733
 21
453.6395792438984
 31
0.0
 11
96.27963107481578
 21
453.7772046967313
 31
0.0
 11
95.9539263336585
 21
453.9222176187647
 31
0.0
 11
95.6589004108944
 21
454.0608388516858
 31
0.0
 11
95.36647214188926
 21
454.2048559936312
 31
0.0
 11
94.84014302714959
 21
454.4800406050327
 31
0.0
 11
94.32188309721401
 21
454.7701327433636
 31
0.0
  0
SPLINE
  5
A3
330
36
100
AcDbEntity
  8
1
  6
Continuous
 62
     7
100
AcDbSpline
210
0.0
220
0.0
230
1.0
 70
     8
 71
     3
 72
    33
 73
    29
 74
    27
 42
0.0000000001
 43
0.0000000001
 44
0.00000001
 40
0.0
 40
0.0
 40
0.0
 40
0.0
 40
0.593924914192328
 40
1.187851599377245
 40
1.513819741512942
 40
1.839789281990746
 40
2.196317437918273
 40
2.552851935104873
 40
2.958199561199069
 40
3.363541512548803
 40
3.863542578221066
 40
4.363662706811299
 40
5.224160052688831
 40
6.084683379167948
 40
6.883623439069178
 40
7.682563498970376
 40
8.543086825449501
 40
9.403584171327061
 40
9.903704299917306
 40
10.40370536558961
 40
10.80904731693939
 40
11.21439494303349
 40
11.57092944021999
 40
11.92745759614738
 40
12.25342713662527
 40
12.57939527876107
 40
13.1733219639461
 40
13.76724687813836
 40
13.76724687813836
 40
13.76724687813836
 40
13.76724687813836
 10
107.321883097214
 20
454.7701327433636
 30
0.0
 10
107.4940712924323
 20
454.6724091121436
 30
0.0
 10
107.8384481963075
 20
454.4769615583066
 30
0.0
 10
108.2859707395788
 20
454.2435741658092
 30
0.0
 10
108.6584579551145
 20
454.05992332953
 30
0.0
 10
108.9627083016053
 20
453.9169305643378
 30
0.0
 10
109.2790998846007
 20
453.7759710776658
 30
0.0
 10
109.6230073509188
 20
453.6319770944753
 30
0.0
 10
109.9856671468343
 20
453.4909155153184
 30
0.0
 10
110.397323714336
 20
453.3443885304873
 30
0.0
 10
110.8439529487579
 20
453.2025234435899
 30
0.0
 10
111.4424037651935
 20
453.0391009325434
 30
0.0
 10
112.1677866635249
 20
452.886891710468
 30
0.0
 10
113.0021817315232
 20
452.781656217882
 30
0.0
 10
113.821883097214
 20
452.7482964165077
 30
0.0
 10
114.6415844629048
 20
452.7816562178816
 30
0.0
 10
115.475979530903
 20
452.8868917104683
 30
0.0
 10
116.2013624292345
 20
453.0391009325434
 30
0.0
 10
116.7998132456702
 20
453.2025234435901
 30
0.0
 10
117.2464424800921
 20
453.344388530487
 30
0.0
 10
117.6580990475937
 20
453.4909155153185
 30
0.0
 10
118.0207588435093
 20
453.6319770944753
 30
0.0
 10
118.3646663098271
 20
453.7759710776659
 30
0.0
 10
118.6810578928226
 20
453.9169305643376
 30
0.0
 10
118.9853082393133
 20
454.0599233295299
 30
0.0
 10
119.3577954548492
 20
454.243574165809
 30
0.0
 10
119.8053179981204
 20
454.4769615583068
 30
0.0
 10
120.1496949019957
 20
454.6724091121436
 30
0.0
 10
120.321883097214
 20
454.7701327433636
 30
0.0
 11
107.321883097214
 21
454.7701327433636
 31
0.0
 11
107.8401430271496
 21
454.4800406050326
 31
0.0
 11
108.3664721418893
 21
454.2048559936312
 31
0.0
 11
108.6589004108943
 21
454.0608388516858
 31
0.0
 11
108.9539263336584
 21
453.9222176187648
 31
0.0
 11
109.2796310748157
 21
453.7772046967313
 31
0.0
 11
109.6085324010774
 21
453.6395792438985
 31
0.0
 11
109.9863525871403
 21
453.4927507555742
 31
0.0
 11
110.3682658917546
 21
453.3569408690321
 31
0.0
 11
110.8448799917992
 21
453.2058115690533
 31
0.0
 11
111.3273999460429
 21
453.0743024941657
 31
0.0
 11
112.1697285017924
 21
452.8984096676172
 31
0.0
 11
113.023605415246
 21
452.7916641192996
 31
0.0
 11
113.821883097214
 21
452.7591377947804
 31
0.0
 11
114.620160779182
 21
452.7916641192995
 31
0.0
 11
115.4740376926356
 21
452.8984096676172
 31
0.0
 11
116.3163662483851
 21
453.0743024941658
 31
0.0
 11
116.7988862026288
 21
453.2058115690533
 31
0.0
 11
117.2755003026735
 21
453.356940869032
 31
0.0
 11
117.6574136072878
 21
453.4927507555742
 31
0.0
 11
118.0352337933507
 21
453.6395792438984
 31
0.0
 11
118.3641351196122
 21
453.7772046967313
 31
0.0
 11
118.6898398607694
 21
453.9222176187647
 31
0.0
 11
118.9848657835335
 21
454.0608388516858
 31
0.0
 11
119.2772940525387
 21
454.2048559936312
 31
0.0
 11
119.8036231672784
 21
454.4800406050327
 31
0.0
 11
120.321883097214
 21
454.7701327433636
 31
0.0
  0
ARC
  5
A4
330
36
100
AcDbEntity
  8
1
  6
Continuous
 62
     7
100
AcDbCircle
 10
273.7397082864184
 20
171.5380585002957
 30
0.0
 40
5.0
100
AcDbArc
 50
-90.0
 51
-45.00000000000092
  0
ARC
  5
A5
330
36
100
AcDbEntity
  8
1
  6
Continuous
 62
     7
100
AcDbCircle
 10
272.821883097214
 20
171.5380585002957
 30
0.0
 40
5.0
100
AcDbArc
 50
180.0
 51
-90.0
  0
ARC
  5
A6
330
36
100
AcDbEntity
  8
1
  6
Continuous
 62
     7
100
AcDbCircle
 10
273.7397082864184
 20
136.5380585002956
 30
0.0
 40
4.99999999999992
100
AcDbArc
 50
45.00000000000046
 51
90.0
  0
ARC
  5
A7
330
36
100
AcDbEntity
  8
1
  6
Continuous
 62
     7
100
AcDbCircle
 10
124.821883097214
 20
450.1879579325678
 30
0.0
 40
5.00000000000014
100
AcDbArc
 50
154.1580672368322
 51
180.0
  0
ARC
  5
A8
330
36
100
AcDbEntity
  8
1
  6
Continuous
 62
     7
100
AcDbCircle
 10
89.82188309721389
 20
450.1879579325678
 30
0.0
 40
5.000000000000028
100
AcDbArc
 50
0.0
 51
25.8419327631677
  0
ENDBLK
  5
38
330
36
100
AcDbEntity
  8
0
100
AcDbBlockEnd
  0
BLOCK
  5
3A
330
39
100
AcDbEntity
  8
0
100
AcDbBlockBegin
  2
64--13-75-M11
 70
     0
 71
     0
 10
573.3593262220693
 20
387.190624556221
 30
0.0
  3
64--13-75-M11
  1

  0
LINE
  5
A9
330
39
100
AcDbEntity
  8
1
  6
Continuous
 62
     7
100
AcDbLine
 10
97.02188309721407
 20
468.8788085958358
 30
0.0
 11
97.02188309721407
 21
491.7701327433636
 31
0.0
  0
LINE
  5
AA
330
39
100
AcDbEntity
  8
1
  6
Continuous
 62
     7
100
AcDbLine
 10
97.02188309721407
 20
491.7701327433636
 30
0.0
 11
97.02188309721407
 21
495.5967526354441
 31
0.0
  0
LINE
  5
AB
330
39
100
AcDbEntity
  8
1
  6
Continuous
 62
     7
100
AcDbLine
 10
97.07693177664453
 20
513.7701327433633
 30
0.0
 11
97.35227433667978
 21
526.6098308140636
 31
0.0
  0
LINE
  5
AC
330
39
100
AcDbEntity
  8
1
  6
Continuous
 62
     7
100
AcDbLine
 10
116.4044385261556
 20
513.7701327433633
 30
0.0
 11
97.07693177664453
 21
513.7701327433633
 31
0.0
  0
LINE
  5
AD
330
39
100
AcDbEntity
  8
1
  6
Continuous
 62
     7
100
AcDbLine
 10
97.35227433667978
 20
526.6098308140636
 30
0.0
 11
98.57877165084278
 21
527.7701327433636
 31
0.0
  0
LINE
  5
AE
330
39
100
AcDbEntity
  8
1
  6
Continuous
 62
     7
100
AcDbLine
 10
97.02188309721407
 20
511.661456890891
 30
0.0
 11
97.07693177664453
 21
513.7701327433633
 31
0.0
  0
LINE
  5
AF
330
39
100
AcDbEntity
  8
1
  6
Continuous
 62
     2
100
AcDbLine
 10
98.23932766827255
 20
513.7701327433633
 30
0.0
 11
98.57877165084278
 21
527.7701327433636
 31
0.0
  0
LINE
  5
B0
330
39
100
AcDbEntity
  8
1
  6
Continuous
 62
     2
100
AcDbLine
 10
98.23932766827255
 20
513.7701327433633
 30
0.0
 11
97.02188309721407
 21
511.661456890891
 31
0.0
  0
LINE
  5
B1
330
39
100
AcDbEntity
  8
1
  6
Continuous
 62
     2
100
AcDbLine
 10
97.02188309721407
 20
468.8788085958358
 30
0.0
 11
98.23932766827255
 21
466.7701327433636
 31
0.0
  0
LINE
  5
B2
330
39
100
AcDbEntity
  8
1
  6
Continuous
 62
     7
100
AcDbLine
 10
97.07693177664453
 20
466.7701327433636
 30
0.0
 11
97.02188309721407
 21
468.8788085958358
 31
0.0
  0
LINE
  5
B3
330
39
100
AcDbEntity
  8
1
  6
Continuous
 62
     7
100
AcDbLine
 10
97.07693177664453
 20
466.7701327433636
 30
0.0
 11
98.23932766827255
 21
466.7701327433636
 31
0.0
  0
LINE
  5
B4
330
39
100
AcDbEntity
  8
1
  6
Continuous
 62
     7
100
AcDbLine
 10
107.321883097214
 20
527.7701327433636
 30
0.0
 11
98.57877165084278
 21
527.7701327433636
 31
0.0
  0
LINE
  5
B5
330
39
100
AcDbEntity
  8
1
  6
PHANTOM
 62
     4
100
AcDbLine
 10
107.321883097214
 20
530.5704924555937
 30
0.0
 11
107.321883097214
 21
450.0884780671045
 31
0.0
  0
LINE
  5
B6
330
39
100
AcDbEntity
  8
1
  6
Continuous
 62
     7
100
AcDbLine
 10
117.5668344177835
 20
466.7701327433636
 30
0.0
 11
117.4596112733922
 21
461.7701327433636
 31
0.0
  0
LINE
  5
B7
330
39
100
AcDbEntity
  8
1
  6
Continuous
 62
     7
100
AcDbLine
 10
98.23932766827255
 20
466.7701327433636
 30
0.0
 11
117.5668344177835
 21
466.7701327433636
 31
0.0
  0
LINE
  5
B8
330
39
100
AcDbEntity
  8
1
  6
Continuous
 62
     7
100
AcDbLine
 10
117.621883097214
 20
468.8788085958358
 30
0.0
 11
117.5668344177835
 21
466.7701327433636
 31
0.0
  0
LINE
  5
B9
330
39
100
AcDbEntity
  8
1
  6
Continuous
 62
     2
100
AcDbLine
 10
116.4044385261556
 20
466.7701327433636
 30
0.0
 11
116.2832085323805
 21
461.7701327433634
 31
0.0
  0
LINE
  5
BA
330
39
100
AcDbEntity
  8
1
  6
Continuous
 62
     2
100
AcDbLine
 10
116.4044385261556
 20
466.7701327433636
 30
0.0
 11
117.621883097214
 21
468.8788085958358
 31
0.0
  0
LINE
  5
BB
330
39
100
AcDbEntity
  8
1
  6
Continuous
 62
     2
100
AcDbLine
 10
117.621883097214
 20
511.661456890891
 30
0.0
 11
116.4044385261556
 21
513.7701327433633
 31
0.0
  0
LINE
  5
BC
330
39
100
AcDbEntity
  8
1
  6
Continuous
 62
     2
100
AcDbLine
 10
116.0649945435854
 20
527.7701327433636
 30
0.0
 11
116.4044385261556
 21
513.7701327433633
 31
0.0
  0
LINE
  5
BD
330
39
100
AcDbEntity
  8
1
  6
Continuous
 62
     7
100
AcDbLine
 10
117.5668344177835
 20
513.7701327433633
 30
0.0
 11
117.621883097214
 21
511.661456890891
 31
0.0
  0
LINE
  5
BE
330
39
100
AcDbEntity
  8
1
  6
Continuous
 62
     7
100
AcDbLine
 10
116.0649945435854
 20
527.7701327433636
 30
0.0
 11
117.2914918577484
 21
526.6098308140636
 31
0.0
  0
LINE
  5
BF
330
39
100
AcDbEntity
  8
1
  6
Continuous
 62
     7
100
AcDbLine
 10
117.5668344177835
 20
513.7701327433633
 30
0.0
 11
116.4044385261556
 21
513.7701327433633
 31
0.0
  0
LINE
  5
C0
330
39
100
AcDbEntity
  8
1
  6
Continuous
 62
     7
100
AcDbLine
 10
117.2914918577484
 20
526.6098308140636
 30
0.0
 11
117.5668344177835
 21
513.7701327433633
 31
0.0
  0
LINE
  5
C1
330
39
100
AcDbEntity
  8
1
  6
Continuous
 62
     7
100
AcDbLine
 10
116.0649945435854
 20
527.7701327433636
 30
0.0
 11
107.321883097214
 21
527.7701327433636
 31
0.0
  0
LINE
  5
C2
330
39
100
AcDbEntity
  8
1
  6
Continuous
 62
     7
100
AcDbLine
 10
117.621883097214
 20
511.661456890891
 30
0.0
 11
117.621883097214
 21
511.5967526354441
 31
0.0
  0
LINE
  5
C3
330
39
100
AcDbEntity
  8
1
  6
Continuous
 62
     7
100
AcDbLine
 10
117.621883097214
 20
491.7701327433635
 30
0.0
 11
117.621883097214
 21
468.8788085958358
 31
0.0
  0
LINE
  5
C4
330
39
100
AcDbEntity
  8
1
  6
Continuous
 62
     7
100
AcDbLine
 10
117.2914918577484
 20
526.6098308140636
 30
0.0
 11
97.29149185774838
 21
526.6098308140636
 31
0.0
  0
LINE
  5
C5
330
39
100
AcDbEntity
  8
1
  6
Continuous
 62
     7
100
AcDbLine
 10
97.02188309721407
 20
511.5967526354441
 30
0.0
 11
97.02188309721407
 21
511.661456890891
 31
0.0
  0
LINE
  5
C6
330
39
100
AcDbEntity
  8
1
  6
Continuous
 62
     7
100
AcDbLine
 10
117.621883097214
 20
495.5967526354441
 30
0.0
 11
117.621883097214
 21
491.7701327433635
 31
0.0
  0
LINE
  5
C7
330
39
100
AcDbEntity
  8
1
  6
Continuous
 62
     7
100
AcDbLine
 10
97.18415492103588
 20
461.7701327433636
 30
0.0
 11
97.07693177664453
 21
466.7701327433636
 31
0.0
  0
LINE
  5
C8
330
39
100
AcDbEntity
  8
1
  6
Continuous
 62
     2
100
AcDbLine
 10
98.36055766204765
 20
461.7701327433634
 30
0.0
 11
98.23932766827255
 21
466.7701327433636
 31
0.0
  0
LINE
  5
C9
330
39
100
AcDbEntity
  8
1
  6
Continuous
 62
     2
100
AcDbLine
 10
285.321883097214
 20
162.999383935462
 30
0.0
 11
290.3218830972141
 21
163.1206139292371
 31
0.0
  0
LINE
  5
CA
330
39
100
AcDbEntity
  8
1
  6
Continuous
 62
     7
100
AcDbLine
 10
285.3218830972141
 20
164.1757866764737
 30
0.0
 11
290.3218830972141
 21
164.2830098208651
 31
0.0
  0
LINE
  5
CB
330
39
100
AcDbEntity
  8
1
  6
Continuous
 62
     7
100
AcDbLine
 10
319.1485029892947
 20
143.7380585002956
 30
0.0
 11
315.3218830972141
 21
143.7380585002956
 31
0.0
  0
LINE
  5
CC
330
39
100
AcDbEntity
  8
1
  6
Continuous
 62
     7
100
AcDbLine
 10
335.1485029892947
 20
164.3380585002956
 30
0.0
 11
335.2132072447416
 21
164.3380585002956
 31
0.0
  0
LINE
  5
CD
330
39
100
AcDbEntity
  8
1
  6
Continuous
 62
     7
100
AcDbLine
 10
350.1615811679142
 20
144.0684497397613
 30
0.0
 11
350.1615811679142
 21
164.0684497397613
 31
0.0
  0
LINE
  5
CE
330
39
100
AcDbEntity
  8
1
  6
Continuous
 62
     7
100
AcDbLine
 10
315.3218830972141
 20
143.7380585002956
 30
0.0
 11
292.4305589496864
 21
143.7380585002956
 31
0.0
  0
LINE
  5
CF
330
39
100
AcDbEntity
  8
1
  6
Continuous
 62
     7
100
AcDbLine
 10
335.2132072447416
 20
143.7380585002956
 30
0.0
 11
335.1485029892947
 21
143.7380585002956
 31
0.0
  0
LINE
  5
D0
330
39
100
AcDbEntity
  8
1
  6
Continuous
 62
     7
100
AcDbLine
 10
351.3218830972141
 20
145.2949470539243
 30
0.0
 11
351.3218830972141
 21
154.0380585002956
 31
0.0
  0
LINE
  5
D1
330
39
100
AcDbEntity
  8
1
  6
Continuous
 62
     7
100
AcDbLine
 10
350.1615811679142
 20
144.0684497397613
 30
0.0
 11
337.3218830972139
 21
143.7931071797261
 31
0.0
  0
LINE
  5
D2
330
39
100
AcDbEntity
  8
1
  6
Continuous
 62
     7
100
AcDbLine
 10
337.3218830972139
 20
143.7931071797261
 30
0.0
 11
337.3218830972139
 21
144.9555030713541
 31
0.0
  0
LINE
  5
D3
330
39
100
AcDbEntity
  8
1
  6
Continuous
 62
     7
100
AcDbLine
 10
351.3218830972141
 20
145.2949470539243
 30
0.0
 11
350.1615811679142
 21
144.0684497397613
 31
0.0
  0
LINE
  5
D4
330
39
100
AcDbEntity
  8
1
  6
Continuous
 62
     7
100
AcDbLine
 10
337.3218830972139
 20
143.7931071797261
 30
0.0
 11
335.2132072447416
 21
143.7380585002956
 31
0.0
  0
LINE
  5
D5
330
39
100
AcDbEntity
  8
1
  6
Continuous
 62
     2
100
AcDbLine
 10
351.3218830972141
 20
145.2949470539243
 30
0.0
 11
337.3218830972139
 21
144.9555030713541
 31
0.0
  0
LINE
  5
D6
330
39
100
AcDbEntity
  8
1
  6
Continuous
 62
     2
100
AcDbLine
 10
335.2132072447416
 20
143.7380585002956
 30
0.0
 11
337.3218830972139
 21
144.9555030713541
 31
0.0
  0
LINE
  5
D7
330
39
100
AcDbEntity
  8
1
  6
Continuous
 62
     2
100
AcDbLine
 10
290.3218830972141
 20
144.9555030713541
 30
0.0
 11
292.4305589496864
 21
143.7380585002956
 31
0.0
  0
LINE
  5
D8
330
39
100
AcDbEntity
  8
1
  6
Continuous
 62
     2
100
AcDbLine
 10
290.3218830972141
 20
144.9555030713541
 30
0.0
 11
285.321883097214
 21
145.0767330651292
 31
0.0
  0
LINE
  5
D9
330
39
100
AcDbEntity
  8
1
  6
Continuous
 62
     7
100
AcDbLine
 10
292.4305589496864
 20
143.7380585002956
 30
0.0
 11
290.3218830972141
 21
143.7931071797261
 31
0.0
  0
LINE
  5
DA
330
39
100
AcDbEntity
  8
1
  6
Continuous
 62
     7
100
AcDbLine
 10
290.3218830972141
 20
163.1206139292371
 30
0.0
 11
290.3218830972141
 21
143.7931071797261
 31
0.0
  0
LINE
  5
DB
330
39
100
AcDbEntity
  8
1
  6
Continuous
 62
     7
100
AcDbLine
 10
290.3218830972141
 20
143.7931071797261
 30
0.0
 11
285.3218830972141
 21
143.9003303241175
 31
0.0
  0
LINE
  5
DC
330
39
100
AcDbEntity
  8
1
  6
PHANTOM
 62
     4
100
AcDbLine
 10
354.1222428094442
 20
154.0380585002956
 30
0.0
 11
273.6402284209551
 21
154.0380585002956
 31
0.0
  0
LINE
  5
DD
330
39
100
AcDbEntity
  8
1
  6
Continuous
 62
     7
100
AcDbLine
 10
351.3218830972141
 20
154.0380585002956
 30
0.0
 11
351.3218830972141
 21
162.7811699466669
 31
0.0
  0
LINE
  5
DE
330
39
100
AcDbEntity
  8
1
  6
Continuous
 62
     7
100
AcDbLine
 10
290.3218830972141
 20
164.2830098208651
 30
0.0
 11
290.3218830972141
 21
163.1206139292371
 31
0.0
  0
LINE
  5
DF
330
39
100
AcDbEntity
  8
1
  6
Continuous
 62
     7
100
AcDbLine
 10
290.3218830972141
 20
164.2830098208651
 30
0.0
 11
292.4305589496864
 21
164.3380585002956
 31
0.0
  0
LINE
  5
E0
330
39
100
AcDbEntity
  8
1
  6
Continuous
 62
     2
100
AcDbLine
 10
292.4305589496864
 20
164.3380585002956
 30
0.0
 11
290.3218830972141
 21
163.1206139292371
 31
0.0
  0
LINE
  5
E1
330
39
100
AcDbEntity
  8
1
  6
Continuous
 62
     2
100
AcDbLine
 10
337.3218830972139
 20
163.1206139292371
 30
0.0
 11
335.2132072447416
 21
164.3380585002956
 31
0.0
  0
LINE
  5
E2
330
39
100
AcDbEntity
  8
1
  6
Continuous
 62
     2
100
AcDbLine
 10
337.3218830972139
 20
163.1206139292371
 30
0.0
 11
351.3218830972141
 21
162.7811699466669
 31
0.0
  0
LINE
  5
E3
330
39
100
AcDbEntity
  8
1
  6
Continuous
 62
     7
100
AcDbLine
 10
335.2132072447416
 20
164.3380585002956
 30
0.0
 11
337.3218830972139
 21
164.2830098208651
 31
0.0
  0
LINE
  5
E4
330
39
100
AcDbEntity
  8
1
  6
Continuous
 62
     7
100
AcDbLine
 10
350.1615811679142
 20
164.0076672608299
 30
0.0
 11
351.3218830972141
 21
162.7811699466669
 31
0.0
  0
LINE
  5
E5
330
39
100
AcDbEntity
  8
1
  6
Continuous
 62
     7
100
AcDbLine
 10
337.3218830972139
 20
144.9555030713541
 30
0.0
 11
337.3218830972139
 21
164.2830098208651
 31
0.0
  0
LINE
  5
E6
330
39
100
AcDbEntity
  8
1
  6
Continuous
 62
     7
100
AcDbLine
 10
337.3218830972139
 20
164.2830098208651
 30
0.0
 11
350.1615811679142
 21
164.0076672608299
 31
0.0
  0
LINE
  5
E7
330
39
100
AcDbEntity
  8
1
  6
Continuous
 62
     7
100
AcDbLine
 10
315.3218830972141
 20
164.3380585002956
 30
0.0
 11
319.1485029892947
 21
164.3380585002956
 31
0.0
  0
LINE
  5
E8
330
39
100
AcDbEntity
  8
1
  6
Continuous
 62
     7
100
AcDbLine
 10
292.4305589496864
 20
164.3380585002956
 30
0.0
 11
315.3218830972141
 21
164.3380585002956
 31
0.0
  0
ENDBLK
  5
3B
330
39
100
AcDbEntity
  8
0
100
AcDbBlockEnd
  0
BLOCK
  5
3D
330
3C
100
AcDbEntity
  8
0
100
AcDbBlockBegin
  2
78-167
 70
     0
 71
     0
 10
262.883449161693
 20
417.762230591504
 30
0.0
  3
78-167
  1

  0
LINE
  5
E9
330
3C
100
AcDbEntity
  8
1
  6
Continuous
 62
     7
100
AcDbLine
 10
77.62188309721381
 20
511.5967526354442
 30
0.0
 11
137.3218830972138
 21
511.5967526354442
 31
0.0
  0
LINE
  5
EA
330
3C
100
AcDbEntity
  8
1
  6
Continuous
 62
     7
100
AcDbLine
 10
95.1177146205265
 20
495.5967526354442
 30
0.0
 11
119.5260515739011
 21
495.5967526354442
 31
0.0
  0
LINE
  5
EB
330
3C
100
AcDbEntity
  8
1
  6
Continuous
 62
     7
100
AcDbLine
 10
77.62188309721381
 20
511.5967526354442
 30
0.0
 11
77.3218830972138
 21
511.5967526354442
 31
0.0
  0
LINE
  5
EC
330
3C
100
AcDbEntity
  8
1
  6
Continuous
 62
     7
100
AcDbLine
 10
77.3218830972138
 20
511.5967526354442
 30
0.0
 11
77.3218830972138
 21
509.5967526354442
 31
0.0
  0
LINE
  5
ED
330
3C
100
AcDbEntity
  8
1
  6
Continuous
 62
     7
100
AcDbLine
 10
137.3218830972138
 20
509.5967526354442
 30
0.0
 11
137.3218830972138
 21
511.5967526354442
 31
0.0
  0
LINE
  5
EE
330
3C
100
AcDbEntity
  8
1
  6
Continuous
 62
     7
100
AcDbLine
 10
119.3252127350511
 20
495.8967526354442
 30
0.0
 11
119.5260515739011
 21
495.8967526354442
 31
0.0
  0
LINE
  5
EF
330
3C
100
AcDbEntity
  8
1
  6
Continuous
 62
     7
100
AcDbLine
 10
319.4485029892946
 20
142.0347288624583
 30
0.0
 11
319.4485029892946
 21
141.8338900236083
 31
0.0
  0
LINE
  5
F0
330
3C
100
AcDbEntity
  8
1
  6
Continuous
 62
     7
100
AcDbLine
 10
333.1485029892946
 20
124.0380585002956
 30
0.0
 11
335.1485029892946
 21
124.0380585002956
 31
0.0
  0
LINE
  5
F1
330
3C
100
AcDbEntity
  8
1
  6
Continuous
 62
     7
100
AcDbLine
 10
335.1485029892946
 20
184.0380585002956
 30
0.0
 11
333.1485029892946
 21
184.0380585002956
 31
0.0
  0
LINE
  5
F2
330
3C
100
AcDbEntity
  8
1
  6
Continuous
 62
     7
100
AcDbLine
 10
335.1485029892946
 20
183.7380585002956
 30
0.0
 11
335.1485029892946
 21
184.0380585002956
 31
0.0
  0
LINE
  5
F3
330
3C
100
AcDbEntity
  8
1
  6
Continuous
 62
     7
100
AcDbLine
 10
319.1485029892946
 20
166.2422269769829
 30
0.0
 11
319.1485029892946
 21
141.8338900236083
 31
0.0
  0
LINE
  5
F4
330
3C
100
AcDbEntity
  8
1
  6
Continuous
 62
     7
100
AcDbLine
 10
335.1485029892946
 20
183.7380585002956
 30
0.0
 11
335.1485029892946
 21
124.0380585002956
 31
0.0
  0
ARC
  5
F5
330
3C
100
AcDbEntity
  8
1
  6
Continuous
 62
     7
100
AcDbCircle
 10
95.1177146205265
 20
520.5967526354442
 30
0.0
 40
25.00000000000013
100
AcDbArc
 50
-113.5564643091011
 51
-90.0
  0
ARC
  5
F6
330
3C
100
AcDbEntity
  8
1
  6
Continuous
 62
     7
100
AcDbCircle
 10
90.3218830972138
 20
509.5967526354442
 30
0.0
 40
13.0
100
AcDbArc
 50
180.0
 51
-113.5564643091011
  0
ARC
  5
F7
330
3C
100
AcDbEntity
  8
1
  6
Continuous
 62
     7
100
AcDbCircle
 10
124.3218830972138
 20
509.5967526354442
 30
0.0
 40
13.00000000000015
100
AcDbArc
 50
-66.44353569089876
 51
0.0
  0
ARC
  5
F8
330
3C
100
AcDbEntity
  8
1
  6
Continuous
 62
     7
100
AcDbCircle
 10
119.5260515739011
 20
520.5967526354442
 30
0.0
 40
25.0
100
AcDbArc
 50
-90.0
 51
-66.4435356908988
  0
ARC
  5
F9
330
3C
100
AcDbEntity
  8
1
  6
Continuous
 62
     7
100
AcDbCircle
 10
344.1485029892946
 20
141.8338900236083
 30
0.0
 40
25.0
100
AcDbArc
 50
180.0
 51
-156.4435356908989
  0
ARC
  5
FA
330
3C
100
AcDbEntity
  8
1
  6
Continuous
 62
     7
100
AcDbCircle
 10
333.1485029892946
 20
137.0380585002956
 30
0.0
 40
13.00000000000014
100
AcDbArc
 50
-156.4435356908989
 51
-90.0
  0
ARC
  5
FB
330
3C
100
AcDbEntity
  8
1
  6
Continuous
 62
     7
100
AcDbCircle
 10
333.1485029892946
 20
171.0380585002956
 30
0.0
 40
13.0
100
AcDbArc
 50
90.0
 51
156.4435356908988
  0
ARC
  5
FC
330
3C
100
AcDbEntity
  8
1
  6
Continuous
 62
     7
100
AcDbCircle
 10
344.1485029892946
 20
166.2422269769829
 30
0.0
 40
25.00000000000014
100
AcDbArc
 50
156.4435356908988
 51
180.0
  0
ARC
  5
FD
330
3C
100
AcDbEntity
  8
1
  6
Continuous
 62
     7
100
AcDbCircle
 10
107.321883097214
 20
154.0380585002956
 30
0.0
 40
30.00000000000004
100
AcDbArc
 50
112.5403104635169
 51
0.0
  0
ARC
  5
FE
330
3C
100
AcDbEntity
  8
1
  6
Continuous
 62
     7
100
AcDbCircle
 10
107.321883097214
 20
154.0380585002956
 30
0.0
 40
30.0
100
AcDbArc
 50
0.0
 51
67.45968953648337
  0
ENDBLK
  5
3E
330
3C
100
AcDbEntity
  8
0
100
AcDbBlockEnd
  0
BLOCK
  5
40
330
3F
100
AcDbEntity
  8
0
100
AcDbBlockBegin
  2
V22-0A-13-__________
 70
     0
 71
     0
 10
0.00000000000004
 20
1623.5
 30
0.0
  3
V22-0A-13-__________
  1

  0
LINE
  5
FF
330
3F
100
AcDbEntity
  8
1
  6
Continuous
 62
     7
100
AcDbLine
 10
96.821883097214
 20
177.0249092212392
 30
0.0
 11
96.821883097214
 21
175.0380585002956
 31
0.0
  0
LINE
  5
100
330
3F
100
AcDbEntity
  8
1
  6
Continuous
 62
     2
100
AcDbLine
 10
116.659883097214
 20
176.7380585002956
 30
0.0
 11
116.659883097214
 21
175.0380585002956
 31
0.0
  0
LINE
  5
101
330
3F
100
AcDbEntity
  8
1
  6
Continuous
 62
     7
100
AcDbLine
 10
117.821883097214
 20
177.0227412112233
 30
0.0
 11
117.821883097214
 21
175.0380585002956
 31
0.0
  0
LINE
  5
102
330
3F
100
AcDbEntity
  8
1
  6
Continuous
 62
     7
100
AcDbLine
 10
96.12566993407188
 20
162.5850288155814
 30
0.0
 11
94.321883097214
 21
161.5436119997607
 31
0.0
  0
LINE
  5
103
330
3F
100
AcDbEntity
  8
1
  6
Continuous
 62
     7
100
AcDbLine
 10
97.983883097214
 20
175.0380585002956
 30
0.0
 11
116.659883097214
 21
175.0380585002956
 31
0.0
  0
LINE
  5
104
330
3F
100
AcDbEntity
  8
1
  6
Continuous
 62
     7
100
AcDbLine
 10
120.321883097214
 20
161.5436119997607
 30
0.0
 11
118.5180962603562
 21
162.5850288155814
 31
0.0
  0
LINE
  5
105
330
3F
100
AcDbEntity
  8
1
  6
PHANTOM
 62
     4
100
AcDbLine
 10
91.321883097214
 20
154.0380585002956
 30
0.0
 11
122.321883097214
 21
154.0380585002956
 31
0.0
  0
LINE
  5
106
330
3F
100
AcDbEntity
  8
1
  6
Continuous
 62
     7
100
AcDbLine
 10
96.821883097214
 20
175.0380585002956
 30
0.0
 11
97.983883097214
 21
175.0380585002956
 31
0.0
  0
LINE
  5
107
330
3F
100
AcDbEntity
  8
1
  6
Continuous
 62
     7
100
AcDbLine
 10
117.821883097214
 20
175.0380585002956
 30
0.0
 11
117.821883097214
 21
173.0254154619007
 31
0.0
  0
LINE
  5
108
330
3F
100
AcDbEntity
  8
1
  6
Continuous
 62
     7
100
AcDbLine
 10
116.659883097214
 20
175.0380585002956
 30
0.0
 11
117.821883097214
 21
175.0380585002956
 31
0.0
  0
LINE
  5
109
330
3F
100
AcDbEntity
  8
1
  6
Continuous
 62
     7
100
AcDbLine
 10
96.821883097214
 20
175.0380585002956
 30
0.0
 11
96.821883097214
 21
173.0254154619007
 31
0.0
  0
LINE
  5
10A
330
3F
100
AcDbEntity
  8
1
  6
Continuous
 62
     2
100
AcDbLine
 10
97.983883097214
 20
175.0380585002956
 30
0.0
 11
97.983883097214
 21
176.7380585002956
 31
0.0
  0
LINE
  5
10B
330
3F
100
AcDbEntity
  8
1
  6
Continuous
 62
     2
100
AcDbLine
 10
96.821883097214
 20
173.0254154619007
 30
0.0
 11
97.983883097214
 21
175.0380585002956
 31
0.0
  0
LINE
  5
10C
330
3F
100
AcDbEntity
  8
1
  6
Continuous
 62
     2
100
AcDbLine
 10
116.659883097214
 20
175.0380585002956
 30
0.0
 11
117.821883097214
 21
173.0254154619007
 31
0.0
  0
LINE
  5
10D
330
3F
100
AcDbEntity
  8
1
  6
Continuous
 62
     7
100
AcDbLine
 10
107.321883097214
 20
139.0269515013655
 30
0.0
 11
120.321883097214
 21
146.5325050008305
 31
0.0
  0
LINE
  5
10E
330
3F
100
AcDbEntity
  8
1
  6
Continuous
 62
     7
100
AcDbLine
 10
94.321883097214
 20
146.5325050008305
 30
0.0
 11
107.321883097214
 21
139.0269515013655
 31
0.0
  0
LINE
  5
10F
330
3F
100
AcDbEntity
  8
1
  6
Continuous
 62
     7
100
AcDbLine
 10
94.321883097214
 20
161.5436119997607
 30
0.0
 11
94.321883097214
 21
146.5325050008305
 31
0.0
  0
LINE
  5
110
330
3F
100
AcDbEntity
  8
1
  6
PHANTOM
 62
     4
100
AcDbLine
 10
107.321883097214
 20
186.0380585002956
 30
0.0
 11
107.321883097214
 21
136.7880585002956
 31
0.0
  0
LINE
  5
111
330
3F
100
AcDbEntity
  8
1
  6
Continuous
 62
     7
100
AcDbLine
 10
120.321883097214
 20
146.5325050008305
 30
0.0
 11
120.321883097214
 21
161.5436119997607
 31
0.0
  0
ARC
  5
112
330
3F
100
AcDbEntity
  8
1
  6
Continuous
 62
     7
100
AcDbCircle
 10
196.4518141940668
 20
173.0254154619008
 30
0.0
 40
78.6299310968528
100
AcDbArc
 50
-179.9999999999999
 51
-172.3698027158717
  0
ARC
  5
113
330
3F
100
AcDbEntity
  8
1
  6
Continuous
 62
     7
100
AcDbCircle
 10
18.19195200036122
 20
173.0254154619008
 30
0.0
 40
78.62993109685279
100
AcDbArc
 50
-7.63019728412835
 51
-0.00000000000006
  0
ENDBLK
  5
41
330
3F
100
AcDbEntity
  8
0
100
AcDbBlockEnd
  0
BLOCK
  5
43
330
42
100
AcDbEntity
  8
0
100
AcDbBlockBegin
  2
36-45
 70
     0
 71
     0
 10
1639.088093660643
 20
87.94528158258061
 30
0.0
  3
36-45
  1

  0
LINE
  5
114
330
42
100
AcDbEntity
  8
1
  6
Continuous
 62
     7
100
AcDbLine
 10
225.3218830972141
 20
154.9380585002956
 30
0.0
 11
224.3218830972141
 21
154.9380585002956
 31
0.0
  0
LINE
  5
115
330
42
100
AcDbEntity
  8
1
  6
Continuous
 62
     7
100
AcDbLine
 10
225.3218830972141
 20
158.7880585002956
 30
0.0
 11
225.3218830972141
 21
154.9380585002956
 31
0.0
  0
LINE
  5
116
330
42
100
AcDbEntity
  8
1
  6
Continuous
 62
     7
100
AcDbLine
 10
225.3218830972141
 20
153.1380585002956
 30
0.0
 11
226.8218830972139
 21
153.1380585002956
 31
0.0
  0
LINE
  5
117
330
42
100
AcDbEntity
  8
1
  6
Continuous
 62
     7
100
AcDbLine
 10
225.3218830972141
 20
149.2880585002956
 30
0.0
 11
225.3218830972141
 21
153.1380585002956
 31
0.0
  0
LINE
  5
118
330
42
100
AcDbEntity
  8
1
  6
Continuous
 62
     7
100
AcDbLine
 10
102.5718830972137
 20
403.2701327433635
 30
0.0
 11
102.5718830972137
 21
401.7701327433635
 31
0.0
  0
LINE
  5
119
330
42
100
AcDbEntity
  8
1
  6
Continuous
 62
     7
100
AcDbLine
 10
112.0718830972137
 20
401.7701327433635
 30
0.0
 11
106.4218830972138
 21
401.7701327433635
 31
0.0
  0
LINE
  5
11A
330
42
100
AcDbEntity
  8
1
  6
Continuous
 62
     7
100
AcDbLine
 10
102.5718830972137
 20
401.7701327433635
 30
0.0
 11
106.4218830972138
 21
401.7701327433635
 31
0.0
  0
LINE
  5
11B
330
42
100
AcDbEntity
  8
1
  6
Continuous
 62
     7
100
AcDbLine
 10
111.0718830972137
 20
400.7701327433635
 30
0.0
 11
108.2218830972137
 21
400.7701327433635
 31
0.0
  0
LINE
  5
11C
330
42
100
AcDbEntity
  8
1
  6
Continuous
 62
     7
100
AcDbLine
 10
112.0718830972137
 20
401.7701327433635
 30
0.0
 11
112.0718830972137
 21
403.2701327433635
 31
0.0
  0
LINE
  5
11D
330
42
100
AcDbEntity
  8
1
  6
Continuous
 62
     7
100
AcDbLine
 10
111.0718830972137
 20
400.7701327433635
 30
0.0
 11
112.0718830972137
 21
401.7701327433635
 31
0.0
  0
LINE
  5
11E
330
42
100
AcDbEntity
  8
1
  6
Continuous
 62
     7
100
AcDbLine
 10
102.5718830972137
 20
401.7701327433635
 30
0.0
 11
103.5718830972137
 21
400.7701327433635
 31
0.0
  0
LINE
  5
11F
330
42
100
AcDbEntity
  8
1
  6
Continuous
 62
     7
100
AcDbLine
 10
108.2218830972137
 20
400.7701327433635
 30
0.0
 11
103.5718830972137
 21
400.7701327433635
 31
0.0
  0
LINE
  5
120
330
42
100
AcDbEntity
  8
1
  6
Continuous
 62
     7
100
AcDbLine
 10
102.6314673373908
 20
153.2880585002956
 30
0.0
 11
112.0122988570369
 21
153.2880585002956
 31
0.0
  0
LINE
  5
121
330
42
100
AcDbEntity
  8
1
  6
Continuous
 62
     7
100
AcDbLine
 10
102.6314673373908
 20
154.7880585002956
 30
0.0
 11
112.0122988570369
 21
154.7880585002956
 31
0.0
  0
LINE
  5
122
330
42
100
AcDbEntity
  8
1
  6
Continuous
 62
     7
100
AcDbLine
 10
224.3218830972141
 20
154.9380585002956
 30
0.0
 11
224.3218830972141
 21
157.7880585002956
 31
0.0
  0
LINE
  5
123
330
42
100
AcDbEntity
  8
1
  6
Continuous
 62
     7
100
AcDbLine
 10
226.8218830972139
 20
154.9380585002956
 30
0.0
 11
225.3218830972141
 21
154.9380585002956
 31
0.0
  0
LINE
  5
124
330
42
100
AcDbEntity
  8
1
  6
Continuous
 62
     7
100
AcDbLine
 10
225.3218830972141
 20
158.7880585002956
 30
0.0
 11
224.3218830972141
 21
157.7880585002956
 31
0.0
  0
LINE
  5
125
330
42
100
AcDbEntity
  8
1
  6
Continuous
 62
     7
100
AcDbLine
 10
226.8218830972139
 20
158.7880585002956
 30
0.0
 11
225.3218830972141
 21
158.7880585002956
 31
0.0
  0
LINE
  5
126
330
42
100
AcDbEntity
  8
1
  6
Continuous
 62
     7
100
AcDbLine
 10
224.3218830972141
 20
150.2880585002956
 30
0.0
 11
224.3218830972141
 21
153.1380585002956
 31
0.0
  0
LINE
  5
127
330
42
100
AcDbEntity
  8
1
  6
Continuous
 62
     7
100
AcDbLine
 10
224.3218830972141
 20
153.1380585002956
 30
0.0
 11
225.3218830972141
 21
153.1380585002956
 31
0.0
  0
LINE
  5
128
330
42
100
AcDbEntity
  8
1
  6
Continuous
 62
     7
100
AcDbLine
 10
224.3218830972141
 20
150.2880585002956
 30
0.0
 11
225.3218830972141
 21
149.2880585002956
 31
0.0
  0
LINE
  5
129
330
42
100
AcDbEntity
  8
1
  6
Continuous
 62
     7
100
AcDbLine
 10
225.3218830972141
 20
149.2880585002956
 30
0.0
 11
226.8218830972139
 21
149.2880585002956
 31
0.0
  0
ARC
  5
12A
330
42
100
AcDbEntity
  8
1
  6
Continuous
 62
     7
100
AcDbCircle
 10
107.3218830972138
 20
154.0380585002956
 30
0.0
 40
4.749999999999573
100
AcDbArc
 50
170.9152797126081
 51
-170.9152797126081
  0
ARC
  5
12B
330
42
100
AcDbEntity
  8
1
  6
Continuous
 62
     7
100
AcDbCircle
 10
107.3218830972138
 20
154.0380585002956
 30
0.0
 40
4.749999999999671
100
AcDbArc
 50
-9.08472028739171
 51
9.08472028739171
  0
ARC
  5
12C
330
42
100
AcDbEntity
  8
1
  6
Continuous
 62
     7
100
AcDbCircle
 10
107.3218830972138
 20
154.0380585002956
 30
0.0
 40
4.749999999999671
100
AcDbArc
 50
9.08472028739171
 51
170.9152797126081
  0
ARC
  5
12D
330
42
100
AcDbEntity
  8
1
  6
Continuous
 62
     7
100
AcDbCircle
 10
107.3218830972138
 20
154.0380585002956
 30
0.0
 40
3.750000000000332
100
AcDbArc
 50
11.53695903281445
 51
168.4630409671852
  0
ARC
  5
12E
330
42
100
AcDbEntity
  8
1
  6
Continuous
 62
     7
100
AcDbCircle
 10
107.3218830972138
 20
154.0380585002956
 30
0.0
 40
4.749999999999573
100
AcDbArc
 50
-170.9152797126081
 51
-9.08472028739171
  0
ARC
  5
12F
330
42
100
AcDbEntity
  8
1
  6
Continuous
 62
     7
100
AcDbCircle
 10
107.3218830972138
 20
154.0380585002956
 30
0.0
 40
3.750000000000234
100
AcDbArc
 50
-168.4630409671852
 51
-11.53695903281445
  0
ENDBLK
  5
44
330
42
100
AcDbEntity
  8
0
100
AcDbBlockEnd
  0
BLOCK
  5
46
330
45
100
AcDbEntity
  8
0
100
AcDbBlockBegin
  2
66-16-15-200
 70
     0
 71
     0
 10
455.1799498023069
 20
65.13793457449393
 30
0.0
  3
66-16-15-200
  1

  0
LINE
  5
130
330
45
100
AcDbEntity
  8
1
  6
Continuous
 62
     7
100
AcDbLine
 10
103.4704158794138
 20
227.5322985605538
 30
0.0
 11
111.671883097214
 21
227.5322985605538
 31
0.0
  0
LINE
  5
131
330
45
100
AcDbEntity
  8
1
  6
Continuous
 62
     7
100
AcDbLine
 10
102.971883097214
 20
283.8486885206726
 30
0.0
 11
111.671883097214
 21
283.8486885206726
 31
0.0
  0
LINE
  5
132
330
45
100
AcDbEntity
  8
1
  6
Continuous
 62
     7
100
AcDbLine
 10
100.971883097214
 20
386.0380585002956
 30
0.0
 11
113.671883097214
 21
386.0380585002956
 31
0.0
  0
LINE
  5
133
330
45
100
AcDbEntity
  8
1
  6
Continuous
 62
     7
100
AcDbLine
 10
100.971883097214
 20
296.5758412587657
 30
0.0
 11
100.971883097214
 21
386.0380585002956
 31
0.0
  0
LINE
  5
134
330
45
100
AcDbEntity
  8
1
  6
Continuous
 62
     7
100
AcDbLine
 10
113.671883097214
 20
298.8151939137632
 30
0.0
 11
113.671883097214
 21
386.0380585002956
 31
0.0
  0
LINE
  5
135
330
45
100
AcDbEntity
  8
1
  6
Continuous
 62
     7
100
AcDbLine
 10
100.971883097214
 20
296.5758412587657
 30
0.0
 11
100.971883097214
 21
188.7380585002955
 31
0.0
  0
LINE
  5
136
330
45
100
AcDbEntity
  8
1
  6
Continuous
 62
     7
100
AcDbLine
 10
113.671883097214
 20
298.8151939137632
 30
0.0
 11
113.671883097214
 21
188.7380585002955
 31
0.0
  0
LINE
  5
137
330
45
100
AcDbEntity
  8
1
  6
Continuous
 62
     7
100
AcDbLine
 10
248.6718830972141
 20
300.8151939137632
 30
0.0
 11
248.6718830972141
 21
386.0380585002956
 31
0.0
  0
LINE
  5
138
330
45
100
AcDbEntity
  8
1
  6
Continuous
 62
     7
100
AcDbLine
 10
261.5333686026351
 20
234.7475656500326
 30
0.0
 11
250.4010662567342
 21
277.5269046407118
 31
0.0
  0
LINE
  5
139
330
45
100
AcDbEntity
  8
1
  6
Continuous
 62
     7
100
AcDbLine
 10
249.2426999376939
 20
231.5492123598793
 30
0.0
 11
238.110397591793
 21
274.3285513505586
 31
0.0
  0
LINE
  5
13A
330
45
100
AcDbEntity
  8
1
  6
Continuous
 62
     7
100
AcDbLine
 10
235.971883097214
 20
296.5758412587657
 30
0.0
 11
235.971883097214
 21
291.0380585002956
 31
0.0
  0
LINE
  5
13B
330
45
100
AcDbEntity
  8
1
  6
Continuous
 62
     7
100
AcDbLine
 10
235.971883097214
 20
386.0380585002956
 30
0.0
 11
235.971883097214
 21
296.5758412587657
 31
0.0
  0
LINE
  5
13C
330
45
100
AcDbEntity
  8
1
  6
Continuous
 62
     7
100
AcDbLine
 10
248.6718830972141
 20
386.0380585002956
 30
0.0
 11
235.971883097214
 21
386.0380585002956
 31
0.0
  0
LINE
  5
13D
330
45
100
AcDbEntity
  8
1
  6
Continuous
 62
     7
100
AcDbLine
 10
263.6718830972141
 20
218.0380585002956
 30
0.0
 11
263.6718830972141
 21
188.7380585002955
 31
0.0
  0
LINE
  5
13E
330
45
100
AcDbEntity
  8
1
  6
Continuous
 62
     7
100
AcDbLine
 10
250.971883097214
 20
218.0380585002956
 30
0.0
 11
250.971883097214
 21
188.7380585002955
 31
0.0
  0
LINE
  5
13F
330
45
100
AcDbEntity
  8
1
  6
Continuous
 62
     7
100
AcDbLine
 10
248.6718830972141
 20
291.0380585002956
 30
0.0
 11
248.6718830972141
 21
300.8151939137632
 31
0.0
  0
LINE
  5
140
330
45
100
AcDbEntity
  8
1
  6
Continuous
 62
     7
100
AcDbLine
 10
100.9718830972139
 20
433.7701327433636
 30
0.0
 11
100.9718830972139
 21
418.7701327433636
 31
0.0
  0
LINE
  5
141
330
45
100
AcDbEntity
  8
1
  6
Continuous
 62
     7
100
AcDbLine
 10
113.671883097214
 20
433.7701327433636
 30
0.0
 11
113.671883097214
 21
418.7701327433636
 31
0.0
  0
ARC
  5
142
330
45
100
AcDbEntity
  8
1
  6
Continuous
 62
     7
100
AcDbCircle
 10
302.3218830972141
 20
291.0380585002956
 30
0.0
 40
66.35000000000008
100
AcDbArc
 50
180.0
 51
-165.4136479153897
  0
ARC
  5
143
330
45
100
AcDbEntity
  8
1
  6
Continuous
 62
     7
100
AcDbCircle
 10
302.3218830972141
 20
291.0380585002956
 30
0.0
 40
53.64999999999998
100
AcDbArc
 50
180.0
 51
-165.4136479153898
  0
ARC
  5
144
330
45
100
AcDbEntity
  8
1
  6
Continuous
 62
     7
100
AcDbCircle
 10
197.321883097214
 20
218.0380585002956
 30
0.0
 40
53.65000000000001
100
AcDbArc
 50
0.0
 51
14.58635208461014
  0
ARC
  5
145
330
45
100
AcDbEntity
  8
1
  6
Continuous
 62
     7
100
AcDbCircle
 10
197.321883097214
 20
218.0380585002956
 30
0.0
 40
66.35000000000011
100
AcDbArc
 50
0.0
 51
14.58635208461032
  0
ARC
  5
146
330
45
100
AcDbEntity
  8
1
  6
Continuous
 62
     7
100
AcDbCircle
 10
107.321883097214
 20
418.7701327433636
 30
0.0
 40
6.350000000000009
100
AcDbArc
 50
0.0
 51
180.0
  0
ARC
  5
147
330
45
100
AcDbEntity
  8
1
  6
Continuous
 62
     7
100
AcDbCircle
 10
107.321883097214
 20
418.7701327433636
 30
0.0
 40
6.350000000000094
100
AcDbArc
 50
180.0
 51
0.0
  0
ARC
  5
148
330
45
100
AcDbEntity
  8
1
  6
Continuous
 62
     7
100
AcDbCircle
 10
107.321883097214
 20
433.7701327433636
 30
0.0
 40
6.350000000000009
100
AcDbArc
 50
0.0
 51
180.0
  0
CIRCLE
  5
149
330
45
100
AcDbEntity
  8
1
  6
Continuous
 62
     7
100
AcDbCircle
 10
107.321883097214
 20
418.7701327433636
 30
0.0
 40
5.649999999999977
  0
ENDBLK
  5
47
330
45
100
AcDbEntity
  8
0
100
AcDbBlockEnd
  0
BLOCK
  5
49
330
48
100
AcDbEntity
  8
0
100
AcDbBlockBegin
  2
32-12-M2
 70
     0
 71
     0
 10
244.821883097214
 20
-313.6138900216624
 30
0.0
  3
32-12-M2
  1

  0
LINE
  5
14A
330
48
100
AcDbEntity
  8
1
  6
Continuous
 62
     7
100
AcDbLine
 10
117.3145237843333
 20
426.2603303426257
 30
0.0
 11
113.671883097214
 21
424.1572507613562
 31
0.0
  0
LINE
  5
14B
330
48
100
AcDbEntity
  8
1
  6
Continuous
 62
     7
100
AcDbLine
 10
95.82188309721403
 20
428.8711532577972
 30
0.0
 11
95.82188309721403
 21
438.6691122289298
 31
0.0
  0
LINE
  5
14C
330
48
100
AcDbEntity
  8
1
  6
Continuous
 62
     7
100
AcDbLine
 10
97.32924241009494
 20
441.2799351441015
 30
0.0
 11
105.8145237843333
 21
446.1789146296677
 31
0.0
  0
LINE
  5
14D
330
48
100
AcDbEntity
  8
1
  6
Continuous
 62
     7
100
AcDbLine
 10
108.8292424100949
 20
446.1789146296677
 30
0.0
 11
117.3145237843333
 21
441.2799351441015
 31
0.0
  0
LINE
  5
14E
330
48
100
AcDbEntity
  8
1
  6
Continuous
 62
     7
100
AcDbLine
 10
268.206492788039
 20
176.7380585002955
 30
0.0
 11
246.4218830972126
 21
176.7380585002955
 31
0.0
  0
LINE
  5
14F
330
48
100
AcDbEntity
  8
1
  6
Continuous
 62
     7
100
AcDbLine
 10
268.206492788039
 20
188.7380585002955
 30
0.0
 11
246.4218830972126
 21
188.7380585002955
 31
0.0
  0
LINE
  5
150
330
48
100
AcDbEntity
  8
1
  6
Continuous
 62
     7
100
AcDbLine
 10
97.55703088908192
 20
188.7380585002956
 30
0.0
 11
117.3145237843333
 21
188.7380585002956
 31
0.0
  0
LINE
  5
151
330
48
100
AcDbEntity
  8
1
  6
Continuous
 62
     7
100
AcDbLine
 10
95.82188309721401
 20
187.6125169153835
 30
0.0
 11
95.82188309721401
 21
177.8636000852076
 31
0.0
  0
LINE
  5
152
330
48
100
AcDbEntity
  8
1
  6
Continuous
 62
     7
100
AcDbLine
 10
97.32924241009482
 20
176.7380585002956
 30
0.0
 11
117.3145237843333
 21
176.7380585002956
 31
0.0
  0
LINE
  5
153
330
48
100
AcDbEntity
  8
1
  6
Continuous
 62
     7
100
AcDbLine
 10
118.821883097214
 20
187.6125169153835
 30
0.0
 11
118.821883097214
 21
177.8636000852076
 31
0.0
  0
LINE
  5
154
330
48
100
AcDbEntity
  8
1
  6
Continuous
 62
     7
100
AcDbLine
 10
118.821883097214
 20
438.6691122289298
 30
0.0
 11
118.821883097214
 21
428.8711532577972
 31
0.0
  0
LINE
  5
155
330
48
100
AcDbEntity
  8
1
  6
Continuous
 62
     7
100
AcDbLine
 10
100.9718830972139
 20
424.1572507613564
 30
0.0
 11
97.32924241009494
 21
426.2603303426257
 31
0.0
  0
ARC
  5
156
330
48
100
AcDbEntity
  8
1
  6
Continuous
 62
     7
100
AcDbCircle
 10
107.321883097214
 20
433.7701327433636
 30
0.0
 40
10.89230484541336
100
AcDbArc
 50
180.0
 51
-125.6604407724851
  0
ARC
  5
157
330
48
100
AcDbEntity
  8
1
  6
Continuous
 62
     7
100
AcDbCircle
 10
107.321883097214
 20
433.7701327433636
 30
0.0
 40
12.5
100
AcDbArc
 50
-156.9260819343687
 51
-143.0739180656303
  0
ARC
  5
158
330
48
100
AcDbEntity
  8
1
  6
Continuous
 62
     7
100
AcDbCircle
 10
107.321883097214
 20
433.7701327433636
 30
0.0
 40
12.49999999999984
100
AcDbArc
 50
143.0739180656303
 51
156.9260819343696
  0
ARC
  5
159
330
48
100
AcDbEntity
  8
1
  6
Continuous
 62
     7
100
AcDbCircle
 10
107.321883097214
 20
433.7701327433636
 30
0.0
 40
12.4999999999999
100
AcDbArc
 50
83.07391806563003
 51
96.92608193436901
  0
ARC
  5
15A
330
48
100
AcDbEntity
  8
1
  6
Continuous
 62
     7
100
AcDbCircle
 10
107.321883097214
 20
433.7701327433636
 30
0.0
 40
10.89230484541349
100
AcDbArc
 50
-54.33955922751532
 51
180.0
  0
ARC
  5
15B
330
48
100
AcDbEntity
  8
1
  6
Continuous
 62
     7
100
AcDbCircle
 10
107.321883097214
 20
433.7701327433636
 30
0.0
 40
6.700000000000023
100
AcDbArc
 50
-18.60129618818481
 51
180.0
  0
ARC
  5
15C
330
48
100
AcDbEntity
  8
1
  6
Continuous
 62
     7
100
AcDbCircle
 10
107.321883097214
 20
433.7701327433636
 30
0.0
 40
6.700000000000003
100
AcDbArc
 50
180.0
 51
-161.3987038118154
  0
ARC
  5
15D
330
48
100
AcDbEntity
  8
1
  6
Continuous
 62
     7
100
AcDbCircle
 10
256.814187942626
 20
182.7380585002955
 30
0.0
 40
12.00000000000017
100
AcDbArc
 50
164.0379858371525
 51
-150.0000000000003
  0
ARC
  5
15E
330
48
100
AcDbEntity
  8
1
  6
Continuous
 62
     7
100
AcDbCircle
 10
257.814187942626
 20
182.7380585002955
 30
0.0
 40
11.99999999999975
100
AcDbArc
 50
-30.00000000000068
 51
30.00000000000068
  0
ARC
  5
15F
330
48
100
AcDbEntity
  8
0
  6
Continuous
 62
     7
100
AcDbCircle
 10
257.314187942626
 20
182.7769100035057
 30
0.0
 40
4.835606911877526
100
AcDbArc
 50
-2.15882136915022
 51
-177.84117863085
  0
ARC
  5
160
330
48
100
AcDbEntity
  8
0
  6
Continuous
 62
     7
100
AcDbCircle
 10
257.314187942626
 20
182.4125989930018
 30
0.0
 40
4.835606911877949
100
AcDbArc
 50
177.841178630851
 51
2.15882136914921
  0
ARC
  5
161
330
48
100
AcDbEntity
  8
1
  6
Continuous
 62
     7
100
AcDbCircle
 10
98.64761963895602
 20
185.1565617571163
 30
0.0
 40
3.743862009043068
100
AcDbArc
 50
106.9358291036609
 51
139.0048526480481
  0
ARC
  5
162
330
48
100
AcDbEntity
  8
1
  6
Continuous
 62
     7
100
AcDbCircle
 10
99.61102314798652
 20
181.3660096073776
 30
0.0
 40
5.159889028395418
100
AcDbArc
 50
-137.2519203604477
 51
-116.2452975634023
  0
ARC
  5
163
330
48
100
AcDbEntity
  8
1
  6
Continuous
 62
     7
100
AcDbCircle
 10
115.1073951394239
 20
181.2660332679054
 30
0.0
 40
5.037258416171508
100
AcDbArc
 50
-64.01341503332337
 51
-42.48936704282357
  0
ARC
  5
164
330
48
100
AcDbEntity
  8
1
  6
Continuous
 62
     7
100
AcDbCircle
 10
115.1073951394237
 20
184.2100837326855
 30
0.0
 40
5.037258416171807
100
AcDbArc
 50
42.48936704282372
 51
64.01341503332289
  0
ARC
  5
165
330
48
100
AcDbEntity
  8
1
  6
Continuous
 62
     7
100
AcDbCircle
 10
256.814187942626
 20
182.7380585002955
 30
0.0
 40
12.00000000000012
100
AcDbArc
 50
150.0000000000003
 51
164.0379858371525
  0
ARC
  5
166
330
48
100
AcDbEntity
  8
1
  6
Continuous
 62
     7
100
AcDbCircle
 10
107.321883097214
 20
433.7701327433636
 30
0.0
 40
12.49999999999994
100
AcDbArc
 50
23.07391806563032
 51
36.92608193436908
  0
ARC
  5
167
330
48
100
AcDbEntity
  8
1
  6
Continuous
 62
     7
100
AcDbCircle
 10
107.321883097214
 20
433.7701327433636
 30
0.0
 40
12.50000000000003
100
AcDbArc
 50
-36.92608193436908
 51
-23.07391806563128
  0
SPLINE
  5
168
330
48
100
AcDbEntity
  8
1
  6
Continuous
 62
     7
100
AcDbSpline
210
0.0
220
0.0
230
1.0
 70
    11
 71
     3
 72
    79
 73
    75
 74
    73
 42
0.0000000001
 43
0.0000000001
 44
0.00000001
 40
0.0
 40
0.0
 40
0.0
 40
0.0
 40
0.2265624242895732
 40
0.4526039592328598
 40
0.7048887932906046
 40
0.9565882941072217
 40
1.243864632662588
 40
1.530757343221075
 40
1.856092863656579
 40
2.181202538828859
 40
2.542813069743985
 40
2.904292090545557
 40
3.297016762265197
 40
3.68966525400086
 40
4.106065197055985
 40
4.522422984820226
 40
4.953581884481891
 40
5.384721943469685
 40
5.820885410523304
 40
6.257048877576922
 40
6.688188936564773
 40
7.119347836226438
 40
7.535705623990659
 40
7.952105567045801
 40
8.344754058781492
 40
8.737478730501078
 40
9.098957751302571
 40
9.460568282217743
 40
9.785677957390124
 40
10.11101347782559
 40
10.39790618838401
 40
10.68518252693932
 40
10.936882027756
 40
11.18916686181371
 40
11.41520839675704
 40
11.64177082104668
 40
11.85843918706116
 40
12.07510755307553
 40
12.30166997736511
 40
12.52771151230838
 40
12.77999634636609
 40
13.03169584718262
 40
13.31897218573789
 40
13.60586489629639
 40
13.93120041673197
 40
14.25631009190432
 40
14.61792062281944
 40
14.979399643621
 40
15.37212431534058
 40
15.76477280707623
 40
16.1811727501314
 40
16.59753053789569
 40
17.02868943755738
 40
17.45982949654517
 40
17.89599296359875
 40
18.33215643065234
 40
18.76329648964013
 40
19.19445538930179
 40
19.61081317706605
 40
20.02721312012121
 40
20.41986161185694
 40
20.81258628357648
 40
21.17406530437808
 40
21.53567583529322
 40
21.86078551046553
 40
22.18612103090107
 40
22.47301374145955
 40
22.76029008001488
 40
23.01198958083146
 40
23.26427441488922
 40
23.49031594983253
 40
23.71687837412209
 40
23.93354674013646
 40
24.15021510615094
 40
24.15021510615094
 40
24.15021510615094
 40
24.15021510615094
 10
267.5046115846113
 20
187.5924878038401
 30
0.0
 10
267.5783565314562
 20
187.5752917644775
 30
0.0
 10
267.7256768782438
 20
187.5409392211417
 30
0.0
 10
267.9388834462143
 20
187.4385710591718
 30
0.0
 10
268.1428415632842
 20
187.3048652226435
 30
0.0
 10
268.3426884549702
 20
187.1316581860012
 30
0.0
 10
268.5294519133946
 20
186.9287189245502
 30
0.0
 10
268.7104397193756
 20
186.6891789529228
 30
0.0
 10
268.8764838043503
 20
186.4240700751862
 30
0.0
 10
269.033915187518
 20
186.1254098909536
 30
0.0
 10
269.1751757250518
 20
185.8055497100783
 30
0.0
 10
269.3047415965739
 20
185.456700201581
 30
0.0
 10
269.4172040745089
 20
185.0911238743915
 30
0.0
 10
269.5152483424774
 20
184.7025522259073
 30
0.0
 10
269.5954745002808
 20
184.3018746311297
 30
0.0
 10
269.6592145895352
 20
183.8852778842926
 30
0.0
 10
269.7046428440451
 20
183.4613456310628
 30
0.0
 10
269.7323063453301
 20
183.0292790631528
 30
0.0
 10
269.7414045662297
 20
182.5947544982571
 30
0.0
 10
269.7323063453322
 20
182.1602299333422
 30
0.0
 10
269.704642844037
 20
181.7281633654889
 30
0.0
 10
269.6592145895654
 20
181.3042311120544
 30
0.0
 10
269.5954745001725
 20
180.8876343659552
 30
0.0
 10
269.5152483428723
 20
180.4869567684957
 30
0.0
 10
269.4172040731282
 20
180.0983851294753
 30
0.0
 10
269.3047416015642
 20
179.7328087683279
 30
0.0
 10
269.1751757080646
 20
179.3839593769738
 30
0.0
 10
269.0339152484053
 20
179.0640987810161
 30
0.0
 10
268.8764836023979
 20
178.7654399977534
 30
0.0
 10
268.7104404385696
 20
178.5003262101892
 30
0.0
 10
268.5294495780266
 20
178.2608025197676
 30
0.0
 10
268.3426967620732
 20
178.0578065325874
 30
0.0
 10
268.1428147699498
 20
177.8847865857584
 30
0.0
 10
267.9389797208096
 20
177.7504247814477
 30
0.0
 10
267.7253585420331
 20
177.650266548023
 30
0.0
 10
267.509005493297
 20
177.591517555304
 30
0.0
 10
267.2888703953233
 20
177.5699005830652
 30
0.0
 10
267.0687352973496
 20
177.591517555304
 30
0.0
 10
266.8523822486136
 20
177.6502665480229
 30
0.0
 10
266.6387610698371
 20
177.7504247814478
 30
0.0
 10
266.4349260206971
 20
177.8847865857584
 30
0.0
 10
266.2350440285737
 20
178.0578065325875
 30
0.0
 10
266.0482912126204
 20
178.2608025197677
 30
0.0
 10
265.8673003520773
 20
178.5003262101891
 30
0.0
 10
265.701257188249
 20
178.7654399977533
 30
0.0
 10
265.5438255422415
 20
179.064098781016
 30
0.0
 10
265.4025650825823
 20
179.3839593769739
 30
0.0
 10
265.2729991890827
 20
179.7328087683279
 30
0.0
 10
265.1605367175187
 20
180.0983851294753
 30
0.0
 10
265.0624924477745
 20
180.4869567684957
 30
0.0
 10
264.9822662904744
 20
180.8876343659553
 30
0.0
 10
264.9185262010814
 20
181.3042311120545
 30
0.0
 10
264.8730979466099
 20
181.7281633654887
 30
0.0
 10
264.8454344453146
 20
182.1602299333431
 30
0.0
 10
264.8363362244179
 20
182.5947544982541
 30
0.0
 10
264.8454344453144
 20
183.0292790631639
 30
0.0
 10
264.8730979466105
 20
183.4613456310223
 30
0.0
 10
264.9185262010792
 20
183.885277884442
 30
0.0
 10
264.9822662904821
 20
184.3018746305931
 30
0.0
 10
265.0624924477467
 20
184.7025522278645
 30
0.0
 10
265.1605367176156
 20
185.091123867549
 30
0.0
 10
265.2729991887322
 20
185.4567002263131
 30
0.0
 10
265.4025650837746
 20
185.8055496258891
 30
0.0
 10
265.5438255379679
 20
186.1254101927131
 30
0.0
 10
265.7012572024236
 20
186.4240690743069
 30
0.0
 10
265.8673003015986
 20
186.6891825172611
 30
0.0
 10
266.0482913765346
 20
186.9287073504243
 30
0.0
 10
266.2350434455167
 20
187.1316993561521
 30
0.0
 10
266.4349279012614
 20
187.3047324343976
 30
0.0
 10
266.6387543125383
 20
187.4390481977934
 30
0.0
 10
266.8524045919219
 20
187.5393615411713
 30
0.0
 10
267.0686529360936
 20
187.5975524451905
 30
0.0
 10
267.2891629203691
 20
187.6211676092942
 30
0.0
 10
267.4327953631973
 20
187.6020477389915
 30
0.0
 10
267.5046115846113
 20
187.5924878038401
 30
0.0
 11
267.5046115846113
 21
187.5924878038401
 31
0.0
 11
267.7232349338583
 21
187.533037292791
 31
0.0
 11
267.9284798908222
 21
187.4383309933151
 31
0.0
 11
268.1396183969244
 21
187.3002434531948
 31
0.0
 11
268.3305967326659
 21
187.1362925032472
 31
0.0
 11
268.5259548657756
 21
186.9256674939969
 31
0.0
 11
268.6994695624246
 21
186.6971941313955
 31
0.0
 11
268.8730108755889
 21
186.4220094416284
 31
0.0
 11
269.0250372082893
 21
186.1346346079071
 31
0.0
 11
269.1718213248191
 21
185.8041552602872
 31
0.0
 11
269.2979852046428
 21
185.4654079239029
 31
0.0
 11
269.4139754022547
 21
185.090202724265
 31
0.0
 11
269.5102399362955
 21
184.7095375465193
 31
0.0
 11
269.5923461032829
 21
184.3013127433545
 31
0.0
 11
269.6554199538965
 21
183.8897601989562
 31
0.0
 11
269.7015771967433
 21
183.4610790754037
 31
0.0
 11
269.7291292109906
 21
183.0308202730824
 31
0.0
 11
269.7383601381067
 21
182.5947544982539
 31
0.0
 11
269.7291292109906
 21
182.1586887234254
 31
0.0
 11
269.7015771967433
 21
181.7284299211041
 31
0.0
 11
269.6554199538965
 21
181.2997487975516
 31
0.0
 11
269.5923461032829
 21
180.8881962531533
 31
0.0
 11
269.5102399362955
 21
180.4799714499885
 31
0.0
 11
269.4139754022547
 21
180.0993062722427
 31
0.0
 11
269.2979852046428
 21
179.7241010726049
 31
0.0
 11
269.1718213248191
 21
179.3853537362207
 31
0.0
 11
269.0250372082892
 21
179.0548743886008
 31
0.0
 11
268.8730108755888
 21
178.7674995548794
 31
0.0
 11
268.6994695624245
 21
178.4923148651123
 31
0.0
 11
268.5259548657757
 21
178.2638415025108
 31
0.0
 11
268.330596732666
 21
178.0532164932606
 31
0.0
 11
268.1396183969244
 21
177.889265543313
 31
0.0
 11
267.9284798908222
 21
177.7511780031927
 31
0.0
 11
267.7232349338582
 21
177.6564717037169
 31
0.0
 11
267.5046115846112
 21
177.5970211926677
 31
0.0
 11
267.2888703953233
 21
177.5769982039794
 31
0.0
 11
267.0731292060355
 21
177.5970211926677
 31
0.0
 11
266.8545058567885
 21
177.6564717037169
 31
0.0
 11
266.6492608998246
 21
177.7511780031927
 31
0.0
 11
266.4381223937224
 21
177.8892655433129
 31
0.0
 11
266.247144057981
 21
178.0532164932606
 31
0.0
 11
266.0517859248714
 21
178.2638415025108
 31
0.0
 11
265.8782712282224
 21
178.4923148651123
 31
0.0
 11
265.704729915058
 21
178.7674995548795
 31
0.0
 11
265.5527035823576
 21
179.0548743886008
 31
0.0
 11
265.4059194658278
 21
179.3853537362207
 31
0.0
 11
265.2797555860041
 21
179.724101072605
 31
0.0
 11
265.1637653883922
 21
180.0993062722428
 31
0.0
 11
265.0675008543513
 21
180.4799714499885
 31
0.0
 11
264.985394687364
 21
180.8881962531533
 31
0.0
 11
264.9223208367503
 21
181.2997487975516
 31
0.0
 11
264.8761635939035
 21
181.7284299211042
 31
0.0
 11
264.8486115796563
 21
182.1586887234254
 31
0.0
 11
264.8393806525402
 21
182.5947544982539
 31
0.0
 11
264.8486115796563
 21
183.0308202730824
 31
0.0
 11
264.8761635939035
 21
183.4610790754037
 31
0.0
 11
264.9223208367503
 21
183.8897601989562
 31
0.0
 11
264.985394687364
 21
184.3013127433545
 31
0.0
 11
265.0675008543512
 21
184.7095375465194
 31
0.0
 11
265.1637653883922
 21
185.0902027242651
 31
0.0
 11
265.2797555860039
 21
185.4654079239029
 31
0.0
 11
265.4059194658278
 21
185.8041552602872
 31
0.0
 11
265.5527035823577
 21
186.1346346079071
 31
0.0
 11
265.704729915058
 21
186.4220094416284
 31
0.0
 11
265.8782712282223
 21
186.6971941313956
 31
0.0
 11
266.0517859248712
 21
186.9256674939971
 31
0.0
 11
266.247144057981
 21
187.1362925032472
 31
0.0
 11
266.4381223937224
 21
187.3002434531949
 31
0.0
 11
266.6492608998247
 21
187.4383309933151
 31
0.0
 11
266.8545058567886
 21
187.533037292791
 31
0.0
 11
267.0731292060356
 21
187.5924878038401
 31
0.0
 11
267.2888703953234
 21
187.6125107925284
 31
0.0
 11
267.5046115846113
 21
187.5924878038401
 31
0.0
  0
SPLINE
  5
169
330
48
100
AcDbEntity
  8
1
  6
Continuous
 62
     7
100
AcDbSpline
210
0.0
220
0.0
230
1.0
 70
    11
 71
     3
 72
    79
 73
    75
 74
    73
 42
0.0000000001
 43
0.0000000001
 44
0.00000001
 40
0.0
 40
0.0
 40
0.0
 40
0.0
 40
0.2265624242896281
 40
0.4526039592329146
 40
0.7048887932906595
 40
0.9565882941072765
 40
1.243864632662643
 40
1.530757343221095
 40
1.856092863656584
 40
2.181202538828877
 40
2.542813069744015
 40
2.904292090545577
 40
3.297016762265225
 40
3.689665254000902
 40
4.106065197056016
 40
4.52242298482027
 40
4.953581884481928
 40
5.384721943469719
 40
5.820885410523338
 40
6.257048877576956
 40
6.688188936564805
 40
7.119347836226467
 40
7.535705623990689
 40
7.95210556704583
 40
8.344754058781534
 40
8.73747873050112
 40
9.098957751302613
 40
9.460568282217762
 40
9.785677957390117
 40
10.11101347782562
 40
10.39790618838403
 40
10.68518252693938
 40
10.93688202775602
 40
11.18916686181378
 40
11.41520839675706
 40
11.64177082104669
 40
11.85843918706106
 40
12.07510755307555
 40
12.30166997736515
 40
12.52771151230842
 40
12.77999634636614
 40
13.03169584718269
 40
13.31897218573798
 40
13.60586489629642
 40
13.93120041673203
 40
14.25631009190436
 40
14.61792062281949
 40
14.97939964362105
 40
15.37212431534063
 40
15.76477280707627
 40
16.18117275013145
 40
16.59753053789574
 40
17.02868943755742
 40
17.45982949654522
 40
17.8959929635988
 40
18.33215643065239
 40
18.76329648964019
 40
19.19445538930185
 40
19.61081317706611
 40
20.02721312012127
 40
20.41986161185698
 40
20.81258628357655
 40
21.17406530437811
 40
21.53567583529327
 40
21.86078551046559
 40
22.18612103090115
 40
22.47301374145961
 40
22.76029008001491
 40
23.01198958083151
 40
23.26427441488925
 40
23.49031594983251
 40
23.71687837412208
 40
23.93354674013653
 40
24.15021510615092
 40
24.15021510615092
 40
24.15021510615092
 40
24.15021510615092
 10
247.1391546098169
 20
187.5924878038401
 30
0.0
 10
247.065409662972
 20
187.5752917644775
 30
0.0
 10
246.9180893161844
 20
187.5409392211418
 30
0.0
 10
246.7048827482139
 20
187.4385710591718
 30
0.0
 10
246.500924631144
 20
187.3048652226435
 30
0.0
 10
246.3010777394579
 20
187.1316581860013
 30
0.0
 10
246.1143142810336
 20
186.9287189245502
 30
0.0
 10
245.9333264750526
 20
186.6891789529227
 30
0.0
 10
245.767282390078
 20
186.4240700751862
 30
0.0
 10
245.6098510069103
 20
186.1254098909536
 30
0.0
 10
245.4685904693764
 20
185.8055497100783
 30
0.0
 10
245.3390245978542
 20
185.4567002015808
 30
0.0
 10
245.2265621199194
 20
185.0911238743914
 30
0.0
 10
245.1285178519506
 20
184.7025522259074
 30
0.0
 10
245.0482916941474
 20
184.3018746311297
 30
0.0
 10
244.9845516048929
 20
183.8852778842926
 30
0.0
 10
244.939123350383
 20
183.4613456310628
 30
0.0
 10
244.9114598490982
 20
183.0292790631529
 30
0.0
 10
244.9023616281986
 20
182.5947544982571
 30
0.0
 10
244.9114598490961
 20
182.1602299333422
 30
0.0
 10
244.9391233503912
 20
181.7281633654888
 30
0.0
 10
244.9845516048628
 20
181.3042311120544
 30
0.0
 10
245.0482916942557
 20
180.8876343659552
 30
0.0
 10
245.1285178515557
 20
180.4869567684957
 30
0.0
 10
245.2265621213001
 20
180.0983851294753
 30
0.0
 10
245.339024592864
 20
179.7328087683278
 30
0.0
 10
245.4685904863637
 20
179.3839593769739
 30
0.0
 10
245.6098509460229
 20
179.0640987810161
 30
0.0
 10
245.7672825920303
 20
178.7654399977533
 30
0.0
 10
245.9333257558586
 20
178.5003262101892
 30
0.0
 10
246.1143166164016
 20
178.2608025197677
 30
0.0
 10
246.301069432355
 20
178.0578065325875
 30
0.0
 10
246.5009514244784
 20
177.8847865857584
 30
0.0
 10
246.7047864736185
 20
177.7504247814478
 30
0.0
 10
246.9184076523951
 20
177.650266548023
 30
0.0
 10
247.1347607011311
 20
177.5915175553039
 30
0.0
 10
247.3548957991048
 20
177.5699005830653
 30
0.0
 10
247.5750308970785
 20
177.591517555304
 30
0.0
 10
247.7913839458146
 20
177.650266548023
 30
0.0
 10
248.0050051245911
 20
177.7504247814478
 30
0.0
 10
248.2088401737312
 20
177.8847865857583
 30
0.0
 10
248.4087221658545
 20
178.0578065325875
 30
0.0
 10
248.5954749818078
 20
178.2608025197677
 30
0.0
 10
248.7764658423509
 20
178.5003262101892
 30
0.0
 10
248.9425090061793
 20
178.7654399977533
 30
0.0
 10
249.0999406521868
 20
179.0640987810161
 30
0.0
 10
249.2412011118459
 20
179.3839593769739
 30
0.0
 10
249.3707670053455
 20
179.7328087683279
 30
0.0
 10
249.4832294769095
 20
180.0983851294754
 30
0.0
 10
249.5812737466537
 20
180.4869567684957
 30
0.0
 10
249.6614999039539
 20
180.8876343659553
 30
0.0
 10
249.7252399933469
 20
181.3042311120545
 30
0.0
 10
249.7706682478183
 20
181.7281633654887
 30
0.0
 10
249.7983317491137
 20
182.1602299333431
 30
0.0
 10
249.8074299700103
 20
182.5947544982541
 30
0.0
 10
249.7983317491139
 20
183.029279063164
 30
0.0
 10
249.7706682478177
 20
183.4613456310222
 30
0.0
 10
249.7252399933489
 20
183.885277884442
 30
0.0
 10
249.6614999039462
 20
184.3018746305931
 30
0.0
 10
249.5812737466814
 20
184.7025522278644
 30
0.0
 10
249.4832294768127
 20
185.091123867549
 30
0.0
 10
249.3707670056958
 20
185.4567002263131
 30
0.0
 10
249.2412011106536
 20
185.8055496258891
 30
0.0
 10
249.0999406564602
 20
186.1254101927132
 30
0.0
 10
248.9425089920046
 20
186.4240690743069
 30
0.0
 10
248.7764658928294
 20
186.6891825172612
 30
0.0
 10
248.5954748178937
 20
186.9287073504243
 30
0.0
 10
248.4087227489114
 20
187.1316993561521
 30
0.0
 10
248.2088382931668
 20
187.3047324343976
 30
0.0
 10
248.0050118818899
 20
187.4390481977935
 30
0.0
 10
247.7913616025063
 20
187.5393615411712
 30
0.0
 10
247.5751132583346
 20
187.5975524451906
 30
0.0
 10
247.3546032740591
 20
187.6211676092943
 30
0.0
 10
247.2109708312309
 20
187.6020477389915
 30
0.0
 10
247.1391546098169
 20
187.5924878038401
 30
0.0
 11
247.1391546098169
 21
187.5924878038401
 31
0.0
 11
246.9205312605699
 21
187.533037292791
 31
0.0
 11
246.715286303606
 21
187.4383309933151
 31
0.0
 11
246.5041477975038
 21
187.3002434531948
 31
0.0
 11
246.3131694617623
 21
187.1362925032472
 31
0.0
 11
246.1178113286526
 21
186.9256674939969
 31
0.0
 11
245.9442966320037
 21
186.6971941313955
 31
0.0
 11
245.7707553188393
 21
186.4220094416284
 31
0.0
 11
245.6187289861389
 21
186.1346346079071
 31
0.0
 11
245.4719448696091
 21
185.8041552602872
 31
0.0
 11
245.3457809897854
 21
185.4654079239029
 31
0.0
 11
245.2297907921735
 21
185.090202724265
 31
0.0
 11
245.1335262581326
 21
184.7095375465193
 31
0.0
 11
245.0514200911453
 21
184.3013127433545
 31
0.0
 11
244.9883462405316
 21
183.8897601989562
 31
0.0
 11
244.9421889976849
 21
183.4610790754037
 31
0.0
 11
244.9146369834376
 21
183.0308202730824
 31
0.0
 11
244.9054060563215
 21
182.5947544982539
 31
0.0
 11
244.9146369834376
 21
182.1586887234254
 31
0.0
 11
244.9421889976849
 21
181.7284299211041
 31
0.0
 11
244.9883462405317
 21
181.2997487975516
 31
0.0
 11
245.0514200911453
 21
180.8881962531533
 31
0.0
 11
245.1335262581326
 21
180.4799714499885
 31
0.0
 11
245.2297907921736
 21
180.0993062722427
 31
0.0
 11
245.3457809897854
 21
179.7241010726049
 31
0.0
 11
245.4719448696092
 21
179.3853537362207
 31
0.0
 11
245.618728986139
 21
179.0548743886008
 31
0.0
 11
245.7707553188394
 21
178.7674995548794
 31
0.0
 11
245.9442966320037
 21
178.4923148651123
 31
0.0
 11
246.1178113286525
 21
178.2638415025108
 31
0.0
 11
246.3131694617622
 21
178.0532164932606
 31
0.0
 11
246.5041477975038
 21
177.889265543313
 31
0.0
 11
246.715286303606
 21
177.7511780031927
 31
0.0
 11
246.9205312605699
 21
177.6564717037169
 31
0.0
 11
247.139154609817
 21
177.5970211926677
 31
0.0
 11
247.3548957991048
 21
177.5769982039794
 31
0.0
 11
247.5706369883927
 21
177.5970211926677
 31
0.0
 11
247.7892603376397
 21
177.6564717037169
 31
0.0
 11
247.9945052946036
 21
177.7511780031927
 31
0.0
 11
248.2056438007058
 21
177.8892655433129
 31
0.0
 11
248.3966221364472
 21
178.0532164932606
 31
0.0
 11
248.5919802695568
 21
178.2638415025108
 31
0.0
 11
248.7654949662058
 21
178.4923148651123
 31
0.0
 11
248.9390362793702
 21
178.7674995548795
 31
0.0
 11
249.0910626120706
 21
179.0548743886008
 31
0.0
 11
249.2378467286004
 21
179.3853537362207
 31
0.0
 11
249.3640106084242
 21
179.724101072605
 31
0.0
 11
249.480000806036
 21
180.0993062722428
 31
0.0
 11
249.5762653400769
 21
180.4799714499885
 31
0.0
 11
249.6583715070643
 21
180.8881962531533
 31
0.0
 11
249.721445357678
 21
181.2997487975516
 31
0.0
 11
249.7676026005246
 21
181.7284299211042
 31
0.0
 11
249.795154614772
 21
182.1586887234254
 31
0.0
 11
249.804385541888
 21
182.5947544982539
 31
0.0
 11
249.795154614772
 21
183.0308202730824
 31
0.0
 11
249.7676026005246
 21
183.4610790754037
 31
0.0
 11
249.7214453576779
 21
183.8897601989562
 31
0.0
 11
249.6583715070642
 21
184.3013127433545
 31
0.0
 11
249.5762653400769
 21
184.7095375465194
 31
0.0
 11
249.480000806036
 21
185.0902027242651
 31
0.0
 11
249.3640106084242
 21
185.4654079239029
 31
0.0
 11
249.2378467286004
 21
185.8041552602872
 31
0.0
 11
249.0910626120705
 21
186.1346346079071
 31
0.0
 11
248.9390362793701
 21
186.4220094416284
 31
0.0
 11
248.7654949662058
 21
186.6971941313956
 31
0.0
 11
248.5919802695569
 21
186.9256674939971
 31
0.0
 11
248.3966221364472
 21
187.1362925032472
 31
0.0
 11
248.2056438007057
 21
187.3002434531949
 31
0.0
 11
247.9945052946035
 21
187.4383309933151
 31
0.0
 11
247.7892603376396
 21
187.533037292791
 31
0.0
 11
247.5706369883927
 21
187.5924878038401
 31
0.0
 11
247.3548957991048
 21
187.6125107925284
 31
0.0
 11
247.1391546098169
 21
187.5924878038401
 31
0.0
  0
SPLINE
  5
16A
330
48
100
AcDbEntity
  8
1
  6
Continuous
 62
     7
100
AcDbSpline
210
0.0
220
0.0
230
1.0
 70
    11
 71
     3
 72
    79
 73
    75
 74
    73
 42
0.0000000001
 43
0.0000000001
 44
0.00000001
 40
0.0
 40
0.0
 40
0.0
 40
0.0
 40
0.3729957930071171
 40
0.7459453134660228
 40
1.125130588852998
 40
1.504236006077334
 40
1.892702753362437
 40
2.281074623440249
 40
2.680633324434394
 40
3.080098845015009
 40
3.49113825905524
 40
3.90209725257844
 40
4.323645589105585
 40
4.745131880640378
 40
5.175059675696788
 40
5.60494587519413
 40
6.040254452020811
 40
6.475542272734398
 40
6.912697681083753
 40
7.349853089433108
 40
7.785140910146695
 40
8.220449486973429
 40
8.650335686470795
 40
9.080263481527187
 40
9.501749773061949
 40
9.923298109589025
 40
10.33425710311227
 40
10.74529651715254
 40
11.14476203773319
 40
11.54432073872731
 40
11.93269260880511
 40
12.32115935609022
 40
12.70026477331455
 40
13.07945004870155
 40
13.45239956916046
 40
13.82539536216757
 40
14.19620116362187
 40
14.56700696507619
 40
14.9400027580833
 40
15.31295227854227
 40
15.69213755392925
 40
16.07124297115356
 40
16.45970971843867
 40
16.84808158851649
 40
17.24764028951064
 40
17.6471058100913
 40
18.05814522413152
 40
18.46910421765478
 40
18.89065255418191
 40
19.31213884571667
 40
19.74206664077303
 40
20.17195284027038
 40
20.60726141709711
 40
21.04254923781067
 40
21.47970464616008
 40
21.91686005450944
 40
22.35214787522305
 40
22.78745645204977
 40
23.21734265154711
 40
23.64727044660349
 40
24.06875673813823
 40
24.49030507466537
 40
24.90126406818858
 40
25.31230348222885
 40
25.71176900280948
 40
26.11132770380368
 40
26.49969957388147
 40
26.88816632116655
 40
27.26727173839086
 40
27.64645701377785
 40
28.01940653423685
 40
28.39240232724395
 40
28.76320812869826
 40
29.13401393015257
 40
29.13401393015257
 40
29.13401393015257
 40
29.13401393015257
 10
113.4421891036358
 20
187.5932649098509
 30
0.0
 10
113.565538553632
 20
187.5767910914587
 30
0.0
 10
113.8122221513247
 20
187.5438454983585
 30
0.0
 10
114.1752525548079
 20
187.4458485138806
 30
0.0
 10
114.5291405351233
 20
187.3142487561334
 30
0.0
 10
114.8726203798824
 20
187.1450117334737
 30
0.0
 10
115.2010137038757
 20
186.9423646704399
 30
0.0
 10
115.5141794304843
 20
186.7054399499043
 30
0.0
 10
115.8073140889785
 20
186.4386880063742
 30
0.0
 10
116.0806603026188
 20
186.1413943147213
 30
0.0
 10
116.3298953746772
 20
185.8188101322702
 30
0.0
 10
116.5552462077382
 20
185.4703524459375
 30
0.0
 10
116.7532649732476
 20
185.1017168170898
 30
0.0
 10
116.9239518768253
 20
184.7127719010784
 30
0.0
 10
117.0649220853988
 20
184.3091562466501
 30
0.0
 10
117.1759429777615
 20
183.8915472386367
 30
0.0
 10
117.2556728910449
 20
183.4650359183573
 30
0.0
 10
117.303817435998
 20
183.0313871081311
 30
0.0
 10
117.3198884177238
 20
182.5947544982555
 30
0.0
 10
117.3038174359986
 20
182.1581218883707
 30
0.0
 10
117.2556728910428
 20
181.7244730781717
 30
0.0
 10
117.1759429777696
 20
181.2979617577932
 30
0.0
 10
117.0649220853691
 20
180.8803527501446
 30
0.0
 10
116.9239518769357
 20
180.4767370943669
 30
0.0
 10
116.7532649728445
 20
180.0877921832969
 30
0.0
 10
116.5552462092277
 20
179.7191565362364
 30
0.0
 10
116.3298953692726
 20
179.3706989162456
 30
0.0
 10
116.0806603225703
 20
179.0481144897944
 30
0.0
 10
115.8073140168377
 20
178.7508216843405
 30
0.0
 10
115.5141796968558
 20
178.4840664833256
 30
0.0
 10
115.2010127405409
 20
178.2471535961861
 30
0.0
 10
114.872623942841
 20
178.044462976877
 30
0.0
 10
114.5291275922824
 20
177.8753847886308
 30
0.0
 10
114.1753005729563
 20
177.7431984065847
 30
0.0
 10
113.8120462045956
 20
177.6473566239983
 30
0.0
 10
113.4435688002565
 20
177.590033277894
 30
0.0
 10
113.0718830972139
 20
177.5704998567509
 30
0.0
 10
112.7001973941713
 20
177.5900332778941
 30
0.0
 10
112.3317199898323
 20
177.6473566239984
 30
0.0
 10
111.9684656214714
 20
177.7431984065847
 30
0.0
 10
111.6146386021452
 20
177.8753847886308
 30
0.0
 10
111.2711422515868
 20
178.0444629768768
 30
0.0
 10
110.9427534538869
 20
178.2471535961863
 30
0.0
 10
110.629586497572
 20
178.4840664833255
 30
0.0
 10
110.33645217759
 20
178.7508216843405
 30
0.0
 10
110.0631058718574
 20
179.0481144897944
 30
0.0
 10
109.813870825155
 20
179.3706989162455
 30
0.0
 10
109.5885199852
 20
179.7191565362363
 30
0.0
 10
109.3905012215832
 20
180.0877921832969
 30
0.0
 10
109.219814317492
 20
180.476737094367
 30
0.0
 10
109.0788441090587
 20
180.8803527501445
 30
0.0
 10
108.9678232166581
 20
181.2979617577932
 30
0.0
 10
108.888093303385
 20
181.7244730781715
 30
0.0
 10
108.8399487584291
 20
182.1581218883711
 30
0.0
 10
108.8238777767041
 20
182.594754498254
 30
0.0
 10
108.839948758429
 20
183.0313871081363
 30
0.0
 10
108.8880933033851
 20
183.4650359183378
 30
0.0
 10
108.9678232166576
 20
183.891547238709
 30
0.0
 10
109.0788441090609
 20
184.3091562463837
 30
0.0
 10
109.2198143174842
 20
184.7127719020648
 30
0.0
 10
109.390501221612
 20
185.1017168134886
 30
0.0
 10
109.5885199850933
 20
185.4703524592454
 30
0.0
 10
109.8138708255419
 20
185.8188100839851
 30
0.0
 10
110.0631058704292
 20
186.1413944929699
 30
0.0
 10
110.3364521827541
 20
186.4386873618612
 30
0.0
 10
110.6295864785041
 20
186.7054423296934
 30
0.0
 10
110.942753522846
 20
186.9423560639111
 30
0.0
 10
111.271141996537
 20
187.1450435653006
 30
0.0
 10
111.6146395286418
 20
187.314133123503
 30
0.0
 10
111.9684621841543
 20
187.4462775128064
 30
0.0
 10
112.3317325847516
 20
187.5422735727366
 30
0.0
 10
112.7001504733459
 20
187.5990242020512
 30
0.0
 10
113.0720570701424
 20
187.6206832718288
 30
0.0
 10
113.318811759138
 20
187.6024043638436
 30
0.0
 10
113.4421891036358
 20
187.5932649098509
 30
0.0
 11
113.4421891036358
 21
187.5932649098509
 31
0.0
 11
113.8107373453284
 21
187.5358362136587
 31
0.0
 11
114.1714237396611
 21
187.4409854374162
 31
0.0
 11
114.5266419261578
 21
187.3083147433942
 31
0.0
 11
114.8669270145934
 21
187.1412010816032
 31
0.0
 11
115.19756664596
 21
186.9372799009573
 31
0.0
 11
115.5075000182613
 21
186.7032414122388
 31
0.0
 11
115.8031456808231
 21
186.4344649293603
 31
0.0
 11
116.0737444042842
 21
186.1406128696534
 31
0.0
 11
116.3252193132808
 21
185.8154763290436
 31
0.0
 11
116.5485993148661
 21
185.4705289863239
 31
0.0
 11
116.7482528879462
 21
185.0992589353029
 31
0.0
 11
116.9177987030318
 21
184.7133769448723
 31
0.0
 11
117.0597030217002
 21
184.3075431447702
 31
0.0
 11
117.1702633489915
 21
183.8921173890117
 31
0.0
 11
117.2503429861037
 21
183.4642379564856
 31
0.0
 11
117.298418468917
 21
183.0316131365621
 31
0.0
 11
117.314523784333
 21
182.5947544982539
 31
0.0
 11
117.298418468917
 21
182.1578958599458
 31
0.0
 11
117.2503429861037
 21
181.7252710400223
 31
0.0
 11
117.1702633489915
 21
181.2973916074961
 31
0.0
 11
117.0597030217002
 21
180.8819658517376
 31
0.0
 11
116.9177987030318
 21
180.4761320516356
 31
0.0
 11
116.7482528879462
 21
180.0902500612049
 31
0.0
 11
116.5485993148661
 21
179.718980010184
 31
0.0
 11
116.3252193132808
 21
179.3740326674643
 31
0.0
 11
116.0737444042842
 21
179.0488961268545
 31
0.0
 11
115.8031456808231
 21
178.7550440671475
 31
0.0
 11
115.5075000182613
 21
178.4862675842691
 31
0.0
 11
115.19756664596
 21
178.2522290955506
 31
0.0
 11
114.8669270145934
 21
178.0483079149046
 31
0.0
 11
114.5266419261578
 21
177.8811942531137
 31
0.0
 11
114.171423739661
 21
177.7485235590916
 31
0.0
 11
113.8107373453284
 21
177.653672782849
 31
0.0
 11
113.4421891036358
 21
177.5962440866569
 31
0.0
 11
113.0718830972139
 21
177.5769982039794
 31
0.0
 11
112.701577090792
 21
177.596244086657
 31
0.0
 11
112.3330288490994
 21
177.653672782849
 31
0.0
 11
111.9723424547667
 21
177.7485235590916
 31
0.0
 11
111.61712426827
 21
177.8811942531136
 31
0.0
 11
111.2768391798343
 21
178.0483079149045
 31
0.0
 11
110.9461995484678
 21
178.2522290955506
 31
0.0
 11
110.6362661761664
 21
178.486267584269
 31
0.0
 11
110.3406205136046
 21
178.7550440671475
 31
0.0
 11
110.0700217901435
 21
179.0488961268545
 31
0.0
 11
109.8185468811469
 21
179.3740326674642
 31
0.0
 11
109.5951668795617
 21
179.7189800101839
 31
0.0
 11
109.3955133064815
 21
180.0902500612049
 31
0.0
 11
109.2259674913959
 21
180.4761320516356
 31
0.0
 11
109.0840631727275
 21
180.8819658517376
 31
0.0
 11
108.9735028454362
 21
181.2973916074961
 31
0.0
 11
108.893423208324
 21
181.7252710400222
 31
0.0
 11
108.8453477255107
 21
182.1578958599457
 31
0.0
 11
108.8292424100947
 21
182.5947544982539
 31
0.0
 11
108.8453477255107
 21
183.031613136562
 31
0.0
 11
108.893423208324
 21
183.4642379564856
 31
0.0
 11
108.9735028454363
 21
183.8921173890117
 31
0.0
 11
109.0840631727276
 21
184.3075431447702
 31
0.0
 11
109.225967491396
 21
184.7133769448723
 31
0.0
 11
109.3955133064815
 21
185.0992589353029
 31
0.0
 11
109.5951668795617
 21
185.4705289863239
 31
0.0
 11
109.8185468811469
 21
185.8154763290436
 31
0.0
 11
110.0700217901435
 21
186.1406128696534
 31
0.0
 11
110.3406205136046
 21
186.4344649293603
 31
0.0
 11
110.6362661761664
 21
186.7032414122388
 31
0.0
 11
110.9461995484678
 21
186.9372799009573
 31
0.0
 11
111.2768391798343
 21
187.1412010816032
 31
0.0
 11
111.61712426827
 21
187.3083147433942
 31
0.0
 11
111.9723424547667
 21
187.4409854374162
 31
0.0
 11
112.3330288490994
 21
187.5358362136589
 31
0.0
 11
112.701577090792
 21
187.5932649098509
 31
0.0
 11
113.0718830972139
 21
187.6125107925284
 31
0.0
 11
113.4421891036358
 21
187.5932649098509
 31
0.0
  0
SPLINE
  5
16B
330
48
100
AcDbEntity
  8
1
  6
Continuous
 62
     7
100
AcDbSpline
210
0.0
220
0.0
230
1.0
 70
    11
 71
     3
 72
    79
 73
    75
 74
    73
 42
0.0000000001
 43
0.0000000001
 44
0.00000001
 40
0.0
 40
0.0
 40
0.0
 40
0.0
 40
0.3729957930071171
 40
0.7459453134660228
 40
1.125130588852998
 40
1.504236006077334
 40
1.892702753362461
 40
2.281074623440285
 40
2.68063332443443
 40
3.080098845015026
 40
3.491138259055265
 40
3.902097252578465
 40
4.323645589105629
 40
4.745131880640406
 40
5.175059675696815
 40
5.604945875194161
 40
6.040254452020842
 40
6.475542272734429
 40
6.912697681083784
 40
7.349853089433138
 40
7.785140910146725
 40
8.220449486973459
 40
8.650335686470836
 40
9.080263481527222
 40
9.501749773061972
 40
9.923298109589055
 40
10.3342571031123
 40
10.74529651715256
 40
11.1447620377332
 40
11.54432073872734
 40
11.93269260880515
 40
12.32115935609027
 40
12.7002647733146
 40
13.07945004870159
 40
13.45239956916052
 40
13.82539536216762
 40
14.19620116362194
 40
14.56700696507626
 40
14.94000275808339
 40
15.31295227854231
 40
15.69213755392931
 40
16.07124297115362
 40
16.45970971843873
 40
16.84808158851655
 40
17.24764028951066
 40
17.64710581009132
 40
18.05814522413152
 40
18.46910421765481
 40
18.89065255418195
 40
19.3121388457167
 40
19.74206664077305
 40
20.17195284027039
 40
20.60726141709713
 40
21.04254923781069
 40
21.47970464616011
 40
21.91686005450946
 40
22.35214787522308
 40
22.78745645204979
 40
23.21734265154713
 40
23.64727044660351
 40
24.06875673813826
 40
24.49030507466538
 40
24.9012640681886
 40
25.31230348222887
 40
25.71176900280952
 40
26.11132770380369
 40
26.49969957388149
 40
26.8881663211666
 40
27.26727173839091
 40
27.64645701377789
 40
28.01940653423686
 40
28.39240232724398
 40
28.7632081286983
 40
29.13401393015259
 40
29.13401393015259
 40
29.13401393015259
 40
29.13401393015259
 10
101.2015770907922
 20
187.5932649098509
 30
0.0
 10
101.078227640796
 20
187.5767910914587
 30
0.0
 10
100.8315440431033
 20
187.5438454983585
 30
0.0
 10
100.4685136396201
 20
187.4458485138806
 30
0.0
 10
100.1146256593047
 20
187.3142487561334
 30
0.0
 10
99.77114581454563
 20
187.1450117334737
 30
0.0
 10
99.44275249055234
 20
186.9423646704399
 30
0.0
 10
99.12958676394364
 20
186.7054399499043
 30
0.0
 10
98.83645210544944
 20
186.4386880063742
 30
0.0
 10
98.5631058918092
 20
186.1413943147213
 30
0.0
 10
98.31387081975076
 20
185.8188101322703
 30
0.0
 10
98.08851998668976
 20
185.4703524459375
 30
0.0
 10
97.89050122118037
 20
185.1017168170898
 30
0.0
 10
97.7198143176027
 20
184.7127719010785
 30
0.0
 10
97.57884410902915
 20
184.3091562466501
 30
0.0
 10
97.46782321666652
 20
183.8915472386367
 30
0.0
 10
97.38809330338302
 20
183.4650359183573
 30
0.0
 10
97.33994875842991
 20
183.0313871081311
 30
0.0
 10
97.32387777670417
 20
182.5947544982554
 30
0.0
 10
97.33994875842933
 20
182.1581218883707
 30
0.0
 10
97.38809330338523
 20
181.7244730781716
 30
0.0
 10
97.46782321665836
 20
181.2979617577932
 30
0.0
 10
97.57884410905893
 20
180.8803527501446
 30
0.0
 10
97.71981431749231
 20
180.476737094367
 30
0.0
 10
97.89050122158342
 20
180.0877921832968
 30
0.0
 10
98.08851998520026
 20
179.7191565362365
 30
0.0
 10
98.31387082515532
 20
179.3706989162456
 30
0.0
 10
98.56310587185769
 20
179.0481144897944
 30
0.0
 10
98.83645217759025
 20
178.7508216843405
 30
0.0
 10
99.12958649757222
 20
178.4840664833256
 30
0.0
 10
99.44275345388708
 20
178.2471535961862
 30
0.0
 10
99.77114225158702
 20
178.0444629768769
 30
0.0
 10
100.1146386021456
 20
177.8753847886309
 30
0.0
 10
100.4684656214717
 20
177.7431984065847
 30
0.0
 10
100.8317199898325
 20
177.6473566239984
 30
0.0
 10
101.2001973941714
 20
177.590033277894
 30
0.0
 10
101.5718830972141
 20
177.5704998567509
 30
0.0
 10
101.9435688002567
 20
177.590033277894
 30
0.0
 10
102.3120462045958
 20
177.6473566239984
 30
0.0
 10
102.6753005729566
 20
177.7431984065848
 30
0.0
 10
103.0291275922828
 20
177.8753847886308
 30
0.0
 10
103.3726239428412
 20
178.0444629768768
 30
0.0
 10
103.7010127405411
 20
178.2471535961862
 30
0.0
 10
104.014179696856
 20
178.4840664833255
 30
0.0
 10
104.307314016838
 20
178.7508216843405
 30
0.0
 10
104.5806603225705
 20
179.0481144897944
 30
0.0
 10
104.8298953692729
 20
179.3706989162456
 30
0.0
 10
105.055246209228
 20
179.7191565362363
 30
0.0
 10
105.2532649728448
 20
180.0877921832968
 30
0.0
 10
105.4239518769359
 20
180.476737094367
 30
0.0
 10
105.5649220853692
 20
180.8803527501445
 30
0.0
 10
105.6759429777699
 20
181.2979617577932
 30
0.0
 10
105.755672891043
 20
181.7244730781714
 30
0.0
 10
105.803817435999
 20
182.1581218883711
 30
0.0
 10
105.8198884177239
 20
182.594754498254
 30
0.0
 10
105.803817435999
 20
183.0313871081364
 30
0.0
 10
105.7556728910428
 20
183.4650359183378
 30
0.0
 10
105.6759429777705
 20
183.8915472387091
 30
0.0
 10
105.5649220853671
 20
184.3091562463837
 30
0.0
 10
105.4239518769439
 20
184.7127719020648
 30
0.0
 10
105.2532649728159
 20
185.1017168134885
 30
0.0
 10
105.0552462093347
 20
185.4703524592454
 30
0.0
 10
104.8298953688861
 20
185.8188100839852
 30
0.0
 10
104.5806603239988
 20
186.1413944929699
 30
0.0
 10
104.3073140116738
 20
186.4386873618612
 30
0.0
 10
104.0141797159239
 20
186.7054423296934
 30
0.0
 10
103.701012671582
 20
186.9423560639112
 30
0.0
 10
103.372624197891
 20
187.1450435653006
 30
0.0
 10
103.0291266657862
 20
187.3141331235031
 30
0.0
 10
102.6753040102737
 20
187.4462775128064
 30
0.0
 10
102.3120336096764
 20
187.5422735727366
 30
0.0
 10
101.9436157210822
 20
187.5990242020512
 30
0.0
 10
101.5717091242856
 20
187.6206832718288
 30
0.0
 10
101.32495443529
 20
187.6024043638435
 30
0.0
 10
101.2015770907922
 20
187.5932649098509
 30
0.0
 11
101.2015770907922
 21
187.5932649098509
 31
0.0
 11
100.8330288490996
 21
187.5358362136587
 31
0.0
 11
100.472342454767
 21
187.4409854374162
 31
0.0
 11
100.1171242682702
 21
187.3083147433942
 31
0.0
 11
99.77683917983458
 21
187.1412010816032
 31
0.0
 11
99.44619954846799
 21
186.9372799009573
 31
0.0
 11
99.13626617616662
 21
186.7032414122388
 31
0.0
 11
98.84062051360482
 21
186.4344649293603
 31
0.0
 11
98.57002179014381
 21
186.1406128696534
 31
0.0
 11
98.31854688114717
 21
185.8154763290436
 31
0.0
 11
98.0951668795619
 21
185.4705289863239
 31
0.0
 11
97.89551330648175
 21
185.0992589353029
 31
0.0
 11
97.7259674913962
 21
184.7133769448723
 31
0.0
 11
97.58406317272777
 21
184.3075431447702
 31
0.0
 11
97.47350284543647
 21
183.8921173890117
 31
0.0
 11
97.39342320832424
 21
183.4642379564856
 31
0.0
 11
97.34534772551099
 21
183.0316131365621
 31
0.0
 11
97.32924241009494
 21
182.5947544982539
 31
0.0
 11
97.34534772551098
 21
182.1578958599458
 31
0.0
 11
97.39342320832424
 21
181.7252710400223
 31
0.0
 11
97.47350284543646
 21
181.2973916074961
 31
0.0
 11
97.58406317272777
 21
180.8819658517376
 31
0.0
 11
97.72596749139622
 21
180.4761320516356
 31
0.0
 11
97.89551330648176
 21
180.0902500612049
 31
0.0
 11
98.0951668795619
 21
179.718980010184
 31
0.0
 11
98.31854688114717
 21
179.3740326674643
 31
0.0
 11
98.5700217901438
 21
179.0488961268545
 31
0.0
 11
98.84062051360482
 21
178.7550440671475
 31
0.0
 11
99.13626617616663
 21
178.4862675842691
 31
0.0
 11
99.44619954846799
 21
178.2522290955506
 31
0.0
 11
99.77683917983457
 21
178.0483079149046
 31
0.0
 11
100.1171242682702
 21
177.8811942531137
 31
0.0
 11
100.472342454767
 21
177.7485235590916
 31
0.0
 11
100.8330288490996
 21
177.653672782849
 31
0.0
 11
101.2015770907922
 21
177.5962440866569
 31
0.0
 11
101.5718830972141
 21
177.5769982039794
 31
0.0
 11
101.942189103636
 21
177.596244086657
 31
0.0
 11
102.3107373453286
 21
177.653672782849
 31
0.0
 11
102.6714237396613
 21
177.7485235590916
 31
0.0
 11
103.0266419261581
 21
177.8811942531136
 31
0.0
 11
103.3669270145937
 21
178.0483079149045
 31
0.0
 11
103.6975666459602
 21
178.2522290955506
 31
0.0
 11
104.0075000182616
 21
178.486267584269
 31
0.0
 11
104.3031456808234
 21
178.7550440671475
 31
0.0
 11
104.5737444042844
 21
179.0488961268545
 31
0.0
 11
104.825219313281
 21
179.3740326674642
 31
0.0
 11
105.0485993148663
 21
179.7189800101839
 31
0.0
 11
105.2482528879465
 21
180.0902500612049
 31
0.0
 11
105.417798703032
 21
180.4761320516356
 31
0.0
 11
105.5597030217004
 21
180.8819658517376
 31
0.0
 11
105.6702633489917
 21
181.2973916074961
 31
0.0
 11
105.750342986104
 21
181.7252710400222
 31
0.0
 11
105.7984184689173
 21
182.1578958599457
 31
0.0
 11
105.8145237843334
 21
182.5947544982539
 31
0.0
 11
105.7984184689173
 21
183.031613136562
 31
0.0
 11
105.750342986104
 21
183.4642379564856
 31
0.0
 11
105.6702633489918
 21
183.8921173890117
 31
0.0
 11
105.5597030217005
 21
184.3075431447702
 31
0.0
 11
105.417798703032
 21
184.7133769448723
 31
0.0
 11
105.2482528879465
 21
185.0992589353029
 31
0.0
 11
105.0485993148664
 21
185.4705289863239
 31
0.0
 11
104.8252193132811
 21
185.8154763290436
 31
0.0
 11
104.5737444042845
 21
186.1406128696534
 31
0.0
 11
104.3031456808234
 21
186.4344649293603
 31
0.0
 11
104.0075000182616
 21
186.7032414122388
 31
0.0
 11
103.6975666459602
 21
186.9372799009573
 31
0.0
 11
103.3669270145936
 21
187.1412010816032
 31
0.0
 11
103.026641926158
 21
187.3083147433942
 31
0.0
 11
102.6714237396613
 21
187.4409854374162
 31
0.0
 11
102.3107373453286
 21
187.5358362136589
 31
0.0
 11
101.942189103636
 21
187.5932649098509
 31
0.0
 11
101.5718830972141
 21
187.6125107925284
 31
0.0
 11
101.2015770907922
 21
187.5932649098509
 31
0.0
  0
ENDBLK
  5
4A
330
48
100
AcDbEntity
  8
0
100
AcDbBlockEnd
  0
BLOCK
  5
4C
330
4B
100
AcDbEntity
  8
0
100
AcDbBlockBegin
  2
37-1-13
 70
     0
 71
     0
 10
379.8175889873587
 20
-434.9256338759111
 30
0.0
  3
37-1-13
  1

  0
LINE
  5
16C
330
4B
100
AcDbEntity
  8
1
  6
Continuous
 62
     7
100
AcDbLine
 10
113.4921748245151
 20
417.2701327433636
 30
0.0
 11
120.3217455047092
 21
417.2701327433636
 31
0.0
  0
LINE
  5
16D
330
4B
100
AcDbEntity
  8
1
  6
Continuous
 62
     7
100
AcDbLine
 10
94.32188309721373
 20
154.0380585002956
 30
0.0
 11
94.32188309721373
 21
160.4606747896281
 31
0.0
  0
LINE
  5
16E
330
4B
100
AcDbEntity
  8
1
  6
Continuous
 62
     7
100
AcDbLine
 10
95.25973423189213
 20
162.085080604827
 30
0.0
 11
100.8218830972137
 21
165.2963887494932
 31
0.0
  0
LINE
  5
16F
330
4B
100
AcDbEntity
  8
1
  6
Continuous
 62
     7
100
AcDbLine
 10
113.8218830972139
 20
165.2963887494933
 30
0.0
 11
119.3840319625354
 21
162.085080604827
 31
0.0
  0
LINE
  5
170
330
4B
100
AcDbEntity
  8
1
  6
Continuous
 62
     7
100
AcDbLine
 10
120.3218830972139
 20
160.4606747896281
 30
0.0
 11
120.3218830972139
 21
154.0380585002956
 31
0.0
  0
LINE
  5
171
330
4B
100
AcDbEntity
  8
1
  6
Continuous
 62
     7
100
AcDbLine
 10
120.3218830972139
 20
154.0380585002956
 30
0.0
 11
120.3218830972139
 21
147.615442210963
 31
0.0
  0
LINE
  5
172
330
4B
100
AcDbEntity
  8
1
  6
Continuous
 62
     7
100
AcDbLine
 10
119.3840319625354
 20
145.9910363957641
 30
0.0
 11
113.8218830972139
 21
142.7797282510979
 31
0.0
  0
LINE
  5
173
330
4B
100
AcDbEntity
  8
1
  6
Continuous
 62
     7
100
AcDbLine
 10
113.8218830972139
 20
142.7797282510979
 30
0.0
 11
108.2597342318921
 21
139.5684201064315
 31
0.0
  0
LINE
  5
174
330
4B
100
AcDbEntity
  8
1
  6
Continuous
 62
     7
100
AcDbLine
 10
106.3840319625354
 20
139.5684201064316
 30
0.0
 11
100.8218830972139
 21
142.7797282510979
 31
0.0
  0
LINE
  5
175
330
4B
100
AcDbEntity
  8
1
  6
Continuous
 62
     7
100
AcDbLine
 10
100.8218830972139
 20
142.7797282510979
 30
0.0
 11
95.25973423189213
 21
145.9910363957641
 31
0.0
  0
LINE
  5
176
330
4B
100
AcDbEntity
  8
1
  6
Continuous
 62
     7
100
AcDbLine
 10
94.32188309721373
 20
147.6154422109629
 30
0.0
 11
94.32188309721373
 21
154.0380585002956
 31
0.0
  0
LINE
  5
177
330
4B
100
AcDbEntity
  8
1
  6
Continuous
 62
     7
100
AcDbLine
 10
100.8218830972137
 20
165.2963887494932
 30
0.0
 11
106.3840319625354
 21
168.5076968941595
 31
0.0
  0
LINE
  5
178
330
4B
100
AcDbEntity
  8
1
  6
Continuous
 62
     7
100
AcDbLine
 10
108.2597342318921
 20
168.5076968941595
 30
0.0
 11
113.8218830972139
 21
165.2963887494933
 31
0.0
  0
LINE
  5
179
330
4B
100
AcDbEntity
  8
1
  6
Continuous
 62
     7
100
AcDbLine
 10
240.8218830972142
 20
140.9673442860242
 30
0.0
 11
240.8218830972142
 21
167.1087727145671
 31
0.0
  0
LINE
  5
17A
330
4B
100
AcDbEntity
  8
0
  6
Continuous
 62
     7
100
AcDbLine
 10
233.7511688829429
 20
149.1927117213988
 30
0.0
 11
233.7511688829429
 21
145.3627756937516
 31
0.0
  0
LINE
  5
17B
330
4B
100
AcDbEntity
  8
0
  6
Continuous
 62
     7
100
AcDbLine
 10
233.7511688829429
 20
162.7133413068396
 30
0.0
 11
233.7511688829429
 21
158.8834052791925
 31
0.0
  0
LINE
  5
17C
330
4B
100
AcDbEntity
  8
1
  6
Continuous
 62
     7
100
AcDbLine
 10
226.8218830972142
 20
160.0380585002956
 30
0.0
 11
226.8218830972142
 21
148.0380585002957
 31
0.0
  0
LINE
  5
17D
330
4B
100
AcDbEntity
  8
1
  6
Continuous
 62
     7
100
AcDbLine
 10
94.32174550470933
 20
410.5073819821203
 30
0.0
 11
94.32174550470933
 21
417.2701327433636
 31
0.0
  0
LINE
  5
17E
330
4B
100
AcDbEntity
  8
1
  6
Continuous
 62
     7
100
AcDbLine
 10
94.32174550470933
 20
417.2701327433636
 30
0.0
 11
101.1515913699129
 21
417.2701327433636
 31
0.0
  0
LINE
  5
17F
330
4B
100
AcDbEntity
  8
1
  6
Continuous
 62
     7
100
AcDbLine
 10
120.3217455047092
 20
410.5072713448546
 30
0.0
 11
120.3217455047092
 21
417.2701327433636
 31
0.0
  0
LINE
  5
180
330
4B
100
AcDbEntity
  8
1
  6
Continuous
 62
     7
100
AcDbLine
 10
119.8217455047089
 20
409.7701327433636
 30
0.0
 11
107.321745504709
 21
409.7701327433636
 31
0.0
  0
LINE
  5
181
330
4B
100
AcDbEntity
  8
1
  6
Continuous
 62
     7
100
AcDbLine
 10
107.321745504709
 20
409.7701327433636
 30
0.0
 11
94.82174550470923
 21
409.7701327433636
 31
0.0
  0
LINE
  5
182
330
4B
100
AcDbEntity
  8
1
  6
Continuous
 62
     7
100
AcDbLine
 10
120.3217455047092
 20
410.1994185290924
 30
0.0
 11
120.3217455047092
 21
410.5072713448546
 31
0.0
  0
LINE
  5
183
330
4B
100
AcDbEntity
  8
1
  6
Continuous
 62
     7
100
AcDbLine
 10
94.32174550470933
 20
410.1994185290918
 30
0.0
 11
94.32174550470933
 21
410.5073819821203
 31
0.0
  0
LINE
  5
184
330
4B
100
AcDbEntity
  8
1
  6
Continuous
 62
     7
100
AcDbLine
 10
113.321745504709
 20
403.2701327433636
 30
0.0
 11
101.321745504709
 21
403.2701327433636
 31
0.0
  0
ARC
  5
185
330
4B
100
AcDbEntity
  8
1
  6
Continuous
 62
     7
100
AcDbCircle
 10
107.3218830972139
 20
154.0380585002955
 30
0.0
 40
14.50000000000006
100
AcDbArc
 50
146.2915552747292
 51
150.0000000000001
  0
ARC
  5
186
330
4B
100
AcDbEntity
  8
1
  6
Continuous
 62
     7
100
AcDbCircle
 10
107.3218830972139
 20
154.0380585002955
 30
0.0
 40
14.50000000000022
100
AcDbArc
 50
150.0000000000001
 51
153.7084447252709
  0
ARC
  5
187
330
4B
100
AcDbEntity
  8
1
  6
Continuous
 62
     7
100
AcDbCircle
 10
107.3218830972139
 20
154.0380585002955
 30
0.0
 40
14.50000000000001
100
AcDbArc
 50
26.29155527472943
 51
33.70844472527141
  0
ARC
  5
188
330
4B
100
AcDbEntity
  8
1
  6
Continuous
 62
     7
100
AcDbCircle
 10
107.3218830972139
 20
154.0380585002955
 30
0.0
 40
14.49999999999982
100
AcDbArc
 50
-30.00000000000003
 51
-26.29155527472912
  0
ARC
  5
189
330
4B
100
AcDbEntity
  8
1
  6
Continuous
 62
     7
100
AcDbCircle
 10
107.3218830972139
 20
154.0380585002955
 30
0.0
 40
14.49999999999979
100
AcDbArc
 50
-33.70844472527113
 51
-30.00000000000003
  0
ARC
  5
18A
330
4B
100
AcDbEntity
  8
1
  6
Continuous
 62
     7
100
AcDbCircle
 10
107.3218830972139
 20
154.0380585002955
 30
0.0
 40
14.49999999999993
100
AcDbArc
 50
-93.70844472527162
 51
-86.2915552747296
  0
ARC
  5
18B
330
4B
100
AcDbEntity
  8
1
  6
Continuous
 62
     7
100
AcDbCircle
 10
107.3218830972139
 20
154.0380585002955
 30
0.0
 40
14.50000000000017
100
AcDbArc
 50
-153.7084447252708
 51
-146.2915552747295
  0
ARC
  5
18C
330
4B
100
AcDbEntity
  8
1
  6
Continuous
 62
     7
100
AcDbCircle
 10
107.3218830972139
 20
154.0380585002955
 30
0.0
 40
13.00000000000017
100
AcDbArc
 50
179.9999999999996
 51
-120.0000000000002
  0
ARC
  5
18D
330
4B
100
AcDbEntity
  8
1
  6
Continuous
 62
     7
100
AcDbCircle
 10
107.3218830972139
 20
154.0380585002955
 30
0.0
 40
13.00000000000008
100
AcDbArc
 50
120.0000000000008
 51
179.9999999999996
  0
ARC
  5
18E
330
4B
100
AcDbEntity
  8
1
  6
Continuous
 62
     7
100
AcDbCircle
 10
107.3218830972139
 20
154.0380585002955
 30
0.0
 40
13.00000000000008
100
AcDbArc
 50
60.00000000000021
 51
120.0000000000008
  0
ARC
  5
18F
330
4B
100
AcDbEntity
  8
1
  6
Continuous
 62
     7
100
AcDbCircle
 10
107.3218830972139
 20
154.0380585002955
 30
0.0
 40
13.0
100
AcDbArc
 50
0.00000000000038
 51
60.00000000000021
  0
ARC
  5
190
330
4B
100
AcDbEntity
  8
1
  6
Continuous
 62
     7
100
AcDbCircle
 10
107.3218830972139
 20
154.0380585002955
 30
0.0
 40
12.99999999999991
100
AcDbArc
 50
-59.99999999999978
 51
0.00000000000038
  0
ARC
  5
191
330
4B
100
AcDbEntity
  8
1
  6
Continuous
 62
     7
100
AcDbCircle
 10
107.3218830972139
 20
154.0380585002955
 30
0.0
 40
12.99999999999991
100
AcDbArc
 50
-120.0000000000002
 51
-59.99999999999978
  0
ARC
  5
192
330
4B
100
AcDbEntity
  8
1
  6
Continuous
 62
     7
100
AcDbCircle
 10
107.3218830972139
 20
154.0380585002955
 30
0.0
 40
14.5
100
AcDbArc
 50
86.29155527472959
 51
93.70844472527159
  0
ARC
  5
193
330
4B
100
AcDbEntity
  8
1
  6
Continuous
 62
     7
100
AcDbCircle
 10
213.4154278920993
 20
179.9445137054105
 30
0.0
 40
23.99999999999996
100
AcDbArc
 50
-56.04080749990252
 51
-33.95919250009765
  0
ARC
  5
194
330
4B
100
AcDbEntity
  8
1
  6
Continuous
 62
     7
100
AcDbCircle
 10
237.3218830972142
 20
163.5380585002956
 30
0.0
 40
5.000000000000057
100
AcDbArc
 50
45.57299599919494
 51
143.1301023541568
  0
ARC
  5
195
330
4B
100
AcDbEntity
  8
1
  6
Continuous
 62
     7
100
AcDbCircle
 10
237.3218830972142
 20
144.5380585002956
 30
0.0
 40
4.999999999999881
100
AcDbArc
 50
-143.1301023541578
 51
-45.57299599919402
  0
ARC
  5
196
330
4B
100
AcDbEntity
  8
1
  6
Continuous
 62
     7
100
AcDbCircle
 10
213.4154278920993
 20
128.1316032951808
 30
0.0
 40
24.00000000000001
100
AcDbArc
 50
33.95919250009765
 51
56.04080749990252
  0
ARC
  5
197
330
4B
100
AcDbEntity
  8
1
  6
Continuous
 62
     7
100
AcDbCircle
 10
116.821745504709
 20
413.7701327433636
 30
0.0
 40
4.999999999999941
100
AcDbArc
 50
-53.1301023541569
 51
-45.57299599919102
  0
ARC
  5
198
330
4B
100
AcDbEntity
  8
1
  6
Continuous
 62
     7
100
AcDbCircle
 10
97.82174550470903
 20
413.7701327433636
 30
0.0
 40
5.000000000000051
100
AcDbArc
 50
-134.4270040008003
 51
-126.8698976458422
  0
ARC
  5
199
330
4B
100
AcDbEntity
  8
1
  6
Continuous
 62
     7
100
AcDbCircle
 10
81.41529029959423
 20
389.8636775382485
 30
0.0
 40
23.99999999999997
100
AcDbArc
 50
33.95919250009804
 51
56.04080749990259
  0
ARC
  5
19A
330
4B
100
AcDbEntity
  8
1
  6
Continuous
 62
     7
100
AcDbCircle
 10
133.2282007098239
 20
389.8636775382485
 30
0.0
 40
24.00000000000019
100
AcDbArc
 50
123.9591925000975
 51
146.0408074999021
  0
CIRCLE
  5
19B
330
4B
100
AcDbEntity
  8
1
  6
Continuous
 62
     7
100
AcDbCircle
 10
107.3218830972139
 20
154.0380585002955
 30
0.0
 40
5.999999999999933
  0
CIRCLE
  5
19C
330
4B
100
AcDbEntity
  8
1
  6
Continuous
 62
     7
100
AcDbCircle
 10
107.3218830972139
 20
154.0380585002955
 30
0.0
 40
5.000000000000048
  0
SPLINE
  5
19D
330
4B
100
AcDbEntity
  8
1
  6
Continuous
 62
     7
100
AcDbSpline
210
0.0
220
0.0
230
1.0
 70
    11
 71
     3
 72
    79
 73
    75
 74
    73
 42
0.0000000001
 43
0.0000000001
 44
0.00000001
 40
0.0
 40
0.0
 40
0.0
 40
0.0
 40
0.2813091385367628
 40
0.5626019606352076
 40
0.8464226525143479
 40
1.130214060738677
 40
1.417835711262169
 40
1.705420542401868
 40
1.997635978226845
 40
2.289812854371167
 40
2.586839035183138
 40
2.88382979212486
 40
3.185307045384506
 40
3.486755461402725
 40
3.791812980111103
 40
4.096850365689709
 40
4.404220799428678
 40
4.711580931801299
 40
5.019747232346047
 40
5.327913532890852
 40
5.635273665263449
 40
5.942644099002428
 40
6.247681484581026
 40
6.55273900328937
 40
6.854187419307577
 40
7.155664672567296
 40
7.452655429509072
 40
7.749681610321145
 40
8.041858486465447
 40
8.334073922290314
 40
8.621658753429987
 40
8.909280403953472
 40
9.193071812177863
 40
9.47689250405703
 40
9.758185326155456
 40
10.03949446469227
 40
10.31992040211368
 40
10.60034633953509
 40
10.88165547807181
 40
11.16294830017027
 40
11.44676899204938
 40
11.73056040027365
 40
12.01818205079713
 40
12.30576688193693
 40
12.59798231776194
 40
12.89015919390623
 40
13.18718537471823
 40
13.48417613166002
 40
13.78565338491969
 40
14.08710180093784
 40
14.39215931964609
 40
14.69719670522474
 40
15.00456713896377
 40
15.31192727133639
 40
15.6200935718812
 40
15.92825987242595
 40
16.2356200047986
 40
16.54299043853766
 40
16.84802782411634
 40
17.15308534282463
 40
17.45453375884272
 40
17.75601101210241
 40
18.0530017690442
 40
18.35002794985611
 40
18.64220482600039
 40
18.93442026182539
 40
19.22200509296515
 40
19.50962674348865
 40
19.79341815171295
 40
20.07723884359205
 40
20.35853166569054
 40
20.63984080422731
 40
20.92026674164871
 40
21.20069267907012
 40
21.20069267907012
 40
21.20069267907012
 40
21.20069267907012
 10
233.7646908679708
 20
165.5764884858367
 30
0.0
 10
233.7762622714578
 20
165.6696154368576
 30
0.0
 10
233.7994044072693
 20
165.855863937368
 30
0.0
 10
233.868166547637
 20
166.1301655224741
 30
0.0
 10
233.9607346744713
 20
166.397909451051
 30
0.0
 10
234.0795870103017
 20
166.6575220870567
 30
0.0
 10
234.2222489259353
 20
166.9062391839752
 30
0.0
 10
234.388791826869
 20
167.1430830993511
 30
0.0
 10
234.5767495461923
 20
167.3652985186672
 30
0.0
 10
234.7859117579995
 20
167.5721615706703
 30
0.0
 10
235.0133643344823
 20
167.7612203055415
 30
0.0
 10
235.2587099188354
 20
167.9318602502029
 30
0.0
 10
235.5187384771752
 20
168.0821239790689
 30
0.0
 10
235.7927612232317
 20
168.2114313311956
 30
0.0
 10
236.0775089086149
 20
168.3184221331434
 30
0.0
 10
236.3718717581638
 20
168.4025544723194
 30
0.0
 10
236.6727622381324
 20
168.4630734565243
 30
0.0
 10
236.9785485600902
 20
168.4995545945191
 30
0.0
 10
237.2865259900775
 20
168.5117733760522
 30
0.0
 10
237.5945034200707
 20
168.4995545945194
 30
0.0
 10
237.9002897420111
 20
168.463073456523
 30
0.0
 10
238.2011802220431
 20
168.4025544723243
 30
0.0
 10
238.4955430713577
 20
168.3184221331257
 30
0.0
 10
238.7802907576103
 20
168.2114313312617
 30
0.0
 10
239.0543135004587
 20
168.0821239788252
 30
0.0
 10
239.3143420706833
 20
167.9318602511065
 30
0.0
 10
239.5596876113122
 20
167.7612203022246
 30
0.0
 10
239.7871403495967
 20
167.5721615829719
 30
0.0
 10
239.9963019669513
 20
167.3652984735866
 30
0.0
 10
240.184261885743
 20
167.1430832665841
 30
0.0
 10
240.3507967020014
 20
166.9062385707985
 30
0.0
 10
240.4934885592221
 20
166.6575243641266
 30
0.0
 10
240.6122305663844
 20
166.3979010781492
 30
0.0
 10
240.7052081115178
 20
166.1301966705179
 30
0.0
 10
240.7724551893249
 20
165.8557488371734
 30
0.0
 10
240.8127705354195
 20
165.5772100145147
 30
0.0
 10
240.8264322143924
 20
165.2963887494933
 30
0.0
 10
240.8127705354195
 20
165.015567484472
 30
0.0
 10
240.772455189325
 20
164.7370286618133
 30
0.0
 10
240.7052081115178
 20
164.4625808284688
 30
0.0
 10
240.6122305663844
 20
164.1948764208375
 30
0.0
 10
240.493488559222
 20
163.9352531348603
 30
0.0
 10
240.3507967020015
 20
163.6865389281884
 30
0.0
 10
240.1842618857429
 20
163.4496942324027
 30
0.0
 10
239.9963019669513
 20
163.2274790254
 30
0.0
 10
239.7871403495966
 20
163.0206159160148
 30
0.0
 10
239.5596876113121
 20
162.8315571967621
 30
0.0
 10
239.3143420706831
 20
162.6609172478803
 30
0.0
 10
239.0543135004587
 20
162.5106535201616
 30
0.0
 10
238.7802907576103
 20
162.381346167725
 30
0.0
 10
238.4955430713578
 20
162.2743553658612
 30
0.0
 10
238.2011802220431
 20
162.1902230266625
 30
0.0
 10
237.9002897420112
 20
162.1297040424636
 30
0.0
 10
237.5945034200705
 20
162.0932229044672
 30
0.0
 10
237.2865259900784
 20
162.0810041229346
 30
0.0
 10
236.9785485600868
 20
162.0932229044672
 30
0.0
 10
236.6727622381449
 20
162.1297040424637
 30
0.0
 10
236.3718717581174
 20
162.1902230266622
 30
0.0
 10
236.0775089087859
 20
162.2743553658625
 30
0.0
 10
235.7927612225957
 20
162.3813461677203
 30
0.0
 10
235.5187384795174
 20
162.510653520179
 30
0.0
 10
235.2587099101448
 20
162.6609172478155
 30
0.0
 10
235.0133643663815
 20
162.8315571969998
 30
0.0
 10
234.7859116396957
 20
163.020615915133
 30
0.0
 10
234.576749979729
 20
163.2274790286316
 30
0.0
 10
234.3887902186015
 20
163.4496942204149
 30
0.0
 10
234.2222548228096
 20
163.6865389721426
 30
0.0
 10
234.0795651118905
 20
163.9352529716331
 30
0.0
 10
233.960815196043
 20
164.1948770210318
 30
0.0
 10
233.8678669992241
 20
164.462578595685
 30
0.0
 10
233.8005113172527
 20
164.7370369125356
 30
0.0
 10
233.7606001294533
 20
165.0155367219944
 30
0.0
 10
233.7454345512146
 20
165.2965031576666
 30
0.0
 10
233.7582720957187
 20
165.4831600431133
 30
0.0
 10
233.7646908679708
 20
165.5764884858367
 30
0.0
 11
233.7646908679708
 21
165.5764884858367
 31
0.0
 11
233.8050461121107
 21
165.8548879931902
 31
0.0
 11
233.8718544546697
 21
166.1281320180629
 31
0.0
 11
233.9649849558588
 21
166.3962381442276
 31
0.0
 11
234.0828755692353
 21
166.6543841623252
 31
0.0
 11
234.225982582692
 21
166.9038768406734
 31
0.0
 11
234.3912628732857
 21
167.1392222477731
 31
0.0
 11
234.5799356657887
 21
167.362364440788
 31
0.0
 11
234.7875660790912
 21
167.5679293658732
 31
0.0
 11
235.015945161821
 21
167.7578439431421
 31
0.0
 11
235.2596869686329
 21
167.9275302458329
 31
0.0
 11
235.5206831852818
 21
168.0784259353935
 31
0.0
 11
235.7932582451601
 21
168.2071659223913
 31
0.0
 11
236.078806213737
 21
168.3145085856812
 31
0.0
 11
236.3720794825354
 21
168.3984049289203
 31
0.0
 11
236.6734104457154
 21
168.4590368855598
 31
0.0
 11
236.9786017042958
 21
168.4954861195464
 31
0.0
 11
237.2865259900785
 21
168.5076968941597
 31
0.0
 11
237.5944502758612
 21
168.4954861195464
 31
0.0
 11
237.8996415344416
 21
168.4590368855598
 31
0.0
 11
238.2009724976216
 21
168.3984049289204
 31
0.0
 11
238.4942457664201
 21
168.3145085856813
 31
0.0
 11
238.7797937349968
 21
168.2071659223914
 31
0.0
 11
239.0523687948751
 21
168.0784259353935
 31
0.0
 11
239.3133650115241
 21
167.9275302458329
 31
0.0
 11
239.5571068183361
 21
167.7578439431422
 31
0.0
 11
239.785485901066
 21
167.5679293658732
 31
0.0
 11
239.9931163143685
 21
167.362364440788
 31
0.0
 11
240.1817891068714
 21
167.1392222477731
 31
0.0
 11
240.3470693974649
 21
166.9038768406734
 31
0.0
 11
240.4901764109217
 21
166.6543841623252
 31
0.0
 11
240.6080670242983
 21
166.3962381442276
 31
0.0
 11
240.7011975254875
 21
166.1281320180629
 31
0.0
 11
240.7680058680464
 21
165.8548879931902
 31
0.0
 11
240.8083611121863
 21
165.5764884858366
 31
0.0
 11
240.8218830972142
 21
165.2963887494933
 31
0.0
 11
240.8083611121863
 21
165.01628901315
 31
0.0
 11
240.7680058680464
 21
164.7378895057965
 31
0.0
 11
240.7011975254875
 21
164.4646454809238
 31
0.0
 11
240.6080670242984
 21
164.1965393547592
 31
0.0
 11
240.4901764109217
 21
163.9383933366617
 31
0.0
 11
240.347069397465
 21
163.6889006583135
 31
0.0
 11
240.1817891068714
 21
163.4535552512136
 31
0.0
 11
239.9931163143685
 21
163.2304130581986
 31
0.0
 11
239.785485901066
 21
163.0248481331134
 31
0.0
 11
239.5571068183361
 21
162.8349335558446
 31
0.0
 11
239.313365011524
 21
162.6652472531539
 31
0.0
 11
239.0523687948751
 21
162.5143515635933
 31
0.0
 11
238.7797937349968
 21
162.3856115765954
 31
0.0
 11
238.4942457664201
 21
162.2782689133055
 31
0.0
 11
238.2009724976217
 21
162.1943725700663
 31
0.0
 11
237.8996415344417
 21
162.1337406134268
 31
0.0
 11
237.5944502758612
 21
162.0972913794403
 31
0.0
 11
237.2865259900785
 21
162.085080604827
 31
0.0
 11
236.9786017042958
 21
162.0972913794402
 31
0.0
 11
236.6734104457153
 21
162.1337406134268
 31
0.0
 11
236.3720794825353
 21
162.1943725700663
 31
0.0
 11
236.0788062137368
 21
162.2782689133055
 31
0.0
 11
235.7932582451601
 21
162.3856115765954
 31
0.0
 11
235.5206831852819
 21
162.5143515635933
 31
0.0
 11
235.2596869686329
 21
162.6652472531538
 31
0.0
 11
235.0159451618209
 21
162.8349335558445
 31
0.0
 11
234.7875660790911
 21
163.0248481331134
 31
0.0
 11
234.5799356657887
 21
163.2304130581987
 31
0.0
 11
234.3912628732857
 21
163.4535552512136
 31
0.0
 11
234.225982582692
 21
163.6889006583134
 31
0.0
 11
234.0828755692353
 21
163.9383933366616
 31
0.0
 11
233.9649849558587
 21
164.1965393547591
 31
0.0
 11
233.8718544546696
 21
164.4646454809238
 31
0.0
 11
233.8050461121107
 21
164.7378895057965
 31
0.0
 11
233.7646908679708
 21
165.0162890131501
 31
0.0
 11
233.7511688829428
 21
165.2963887494934
 31
0.0
 11
233.7646908679708
 21
165.5764884858367
 31
0.0
  0
SPLINE
  5
19E
330
4B
100
AcDbEntity
  8
1
  6
Continuous
 62
     7
100
AcDbSpline
210
0.0
220
0.0
230
1.0
 70
    11
 71
     3
 72
    79
 73
    75
 74
    73
 42
0.0000000001
 43
0.0000000001
 44
0.00000001
 40
0.0
 40
0.0
 40
0.0
 40
0.0
 40
0.2813091385367628
 40
0.5626019606352628
 40
0.8464226525144567
 40
1.130214060738786
 40
1.417835711262253
 40
1.705420542401929
 40
1.997635978226863
 40
2.289812854371184
 40
2.586839035183155
 40
2.883829792124878
 40
3.185307045384524
 40
3.486755461402756
 40
3.791812980111143
 40
4.096850365689749
 40
4.404220799428723
 40
4.711580931801341
 40
5.019747232346089
 40
5.327913532890896
 40
5.635273665263489
 40
5.94264409900248
 40
6.247681484581078
 40
6.552739003289411
 40
6.854187419307618
 40
7.155664672567351
 40
7.452655429509144
 40
7.749681610321162
 40
8.041858486465465
 40
8.334073922290331
 40
8.621658753430005
 40
8.909280403953513
 40
9.193071812177852
 40
9.476892504057075
 40
9.758185326155527
 40
10.03949446469223
 40
10.31992040211364
 40
10.60034633953507
 40
10.88165547807183
 40
11.16294830017031
 40
11.44676899204944
 40
11.73056040027374
 40
12.0181820507972
 40
12.30576688193695
 40
12.5979823177619
 40
12.89015919390624
 40
13.18718537471828
 40
13.48417613166007
 40
13.78565338491974
 40
14.08710180093788
 40
14.39215931964615
 40
14.6971967052248
 40
15.00456713896382
 40
15.31192727133644
 40
15.62009357188124
 40
15.92825987242599
 40
16.23562000479863
 40
16.5429904385377
 40
16.84802782411638
 40
17.15308534282466
 40
17.45453375884276
 40
17.75601101210244
 40
18.05300176904423
 40
18.35002794985612
 40
18.64220482600038
 40
18.93442026182543
 40
19.22200509296521
 40
19.50962674348871
 40
19.79341815171296
 40
20.07723884359206
 40
20.35853166569055
 40
20.63984080422734
 40
20.92026674164875
 40
21.2006926790701
 40
21.2006926790701
 40
21.2006926790701
 40
21.2006926790701
 10
233.7646908679708
 20
142.4996285147548
 30
0.0
 10
233.7762622714577
 20
142.4065015637339
 30
0.0
 10
233.7994044072693
 20
142.2202530632234
 30
0.0
 10
233.868166547637
 20
141.9459514781173
 30
0.0
 10
233.9607346744712
 20
141.6782075495403
 30
0.0
 10
234.0795870103019
 20
141.4185949135347
 30
0.0
 10
234.2222489259352
 20
141.1698778166161
 30
0.0
 10
234.3887918268691
 20
140.9330339012403
 30
0.0
 10
234.5767495461923
 20
140.7108184819242
 30
0.0
 10
234.7859117579995
 20
140.5039554299212
 30
0.0
 10
235.0133643344823
 20
140.3148966950499
 30
0.0
 10
235.2587099188354
 20
140.1442567503885
 30
0.0
 10
235.5187384771752
 20
139.9939930215226
 30
0.0
 10
235.7927612232317
 20
139.8646856693958
 30
0.0
 10
236.0775089086149
 20
139.757694867448
 30
0.0
 10
236.3718717581638
 20
139.673562528272
 30
0.0
 10
236.6727622381324
 20
139.613043544067
 30
0.0
 10
236.9785485600901
 20
139.5765624060723
 30
0.0
 10
237.2865259900776
 20
139.5643436245392
 30
0.0
 10
237.5945034200707
 20
139.576562406072
 30
0.0
 10
237.9002897420111
 20
139.6130435440684
 30
0.0
 10
238.2011802220431
 20
139.6735625282672
 30
0.0
 10
238.4955430713578
 20
139.7576948674658
 30
0.0
 10
238.7802907576103
 20
139.8646856693296
 30
0.0
 10
239.0543135004587
 20
139.9939930217662
 30
0.0
 10
239.3143420706833
 20
140.1442567494849
 30
0.0
 10
239.5596876113122
 20
140.3148966983669
 30
0.0
 10
239.7871403495967
 20
140.5039554176195
 30
0.0
 10
239.9963019669513
 20
140.7108185270047
 30
0.0
 10
240.184261885743
 20
140.9330337340073
 30
0.0
 10
240.3507967020013
 20
141.1698784297929
 30
0.0
 10
240.4934885592222
 20
141.4185926364648
 30
0.0
 10
240.6122305663844
 20
141.6782159224421
 30
0.0
 10
240.7052081115178
 20
141.9459203300735
 30
0.0
 10
240.7724551893249
 20
142.220368163418
 30
0.0
 10
240.8127705354195
 20
142.4989069860766
 30
0.0
 10
240.8264322143923
 20
142.779728251098
 30
0.0
 10
240.8127705354194
 20
143.0605495161193
 30
0.0
 10
240.7724551893251
 20
143.3390883387782
 30
0.0
 10
240.7052081115177
 20
143.6135361721225
 30
0.0
 10
240.6122305663845
 20
143.881240579754
 30
0.0
 10
240.4934885592221
 20
144.1408638657311
 30
0.0
 10
240.3507967020015
 20
144.3895780724031
 30
0.0
 10
240.1842618857431
 20
144.6264227681887
 30
0.0
 10
239.9963019669512
 20
144.8486379751913
 30
0.0
 10
239.7871403495965
 20
145.0555010845766
 30
0.0
 10
239.5596876113122
 20
145.2445598038294
 30
0.0
 10
239.3143420706832
 20
145.4151997527111
 30
0.0
 10
239.0543135004586
 20
145.5654634804299
 30
0.0
 10
238.7802907576103
 20
145.6947708328664
 30
0.0
 10
238.4955430713578
 20
145.8017616347303
 30
0.0
 10
238.2011802220432
 20
145.8858939739289
 30
0.0
 10
237.9002897420111
 20
145.9464129581278
 30
0.0
 10
237.5945034200706
 20
145.9828940961241
 30
0.0
 10
237.2865259900784
 20
145.9951128776567
 30
0.0
 10
236.9785485600868
 20
145.9828940961242
 30
0.0
 10
236.6727622381449
 20
145.9464129581277
 30
0.0
 10
236.3718717581174
 20
145.8858939739293
 30
0.0
 10
236.0775089087859
 20
145.8017616347289
 30
0.0
 10
235.7927612225958
 20
145.6947708328711
 30
0.0
 10
235.5187384795174
 20
145.5654634804124
 30
0.0
 10
235.2587099101448
 20
145.4151997527758
 30
0.0
 10
235.0133643663816
 20
145.2445598035916
 30
0.0
 10
234.7859116396957
 20
145.0555010854584
 30
0.0
 10
234.576749979729
 20
144.8486379719598
 30
0.0
 10
234.3887902186016
 20
144.6264227801764
 30
0.0
 10
234.2222548228097
 20
144.3895780284488
 30
0.0
 10
234.0795651118904
 20
144.1408640289582
 30
0.0
 10
233.960815196043
 20
143.8812399795596
 30
0.0
 10
233.8678669992241
 20
143.6135384049064
 30
0.0
 10
233.8005113172526
 20
143.3390800880558
 30
0.0
 10
233.7606001294532
 20
143.060580278597
 30
0.0
 10
233.7454345512147
 20
142.7796138429247
 30
0.0
 10
233.7582720957188
 20
142.5929569574781
 30
0.0
 10
233.7646908679708
 20
142.4996285147548
 30
0.0
 11
233.7646908679708
 21
142.4996285147548
 31
0.0
 11
233.8050461121107
 21
142.2212290074012
 31
0.0
 11
233.8718544546697
 21
141.9479849825285
 31
0.0
 11
233.9649849558588
 21
141.6798788563637
 31
0.0
 11
234.0828755692353
 21
141.4217328382661
 31
0.0
 11
234.225982582692
 21
141.172240159918
 31
0.0
 11
234.3912628732857
 21
140.9368947528183
 31
0.0
 11
234.5799356657887
 21
140.7137525598034
 31
0.0
 11
234.7875660790912
 21
140.5081876347182
 31
0.0
 11
235.015945161821
 21
140.3182730574493
 31
0.0
 11
235.2596869686329
 21
140.1485867547585
 31
0.0
 11
235.5206831852818
 21
139.997691065198
 31
0.0
 11
235.7932582451601
 21
139.8689510782
 31
0.0
 11
236.078806213737
 21
139.7616084149101
 31
0.0
 11
236.3720794825354
 21
139.677712071671
 31
0.0
 11
236.6734104457154
 21
139.6170801150315
 31
0.0
 11
236.9786017042958
 21
139.580630881045
 31
0.0
 11
237.2865259900785
 21
139.5684201064317
 31
0.0
 11
237.5944502758612
 21
139.580630881045
 31
0.0
 11
237.8996415344416
 21
139.6170801150315
 31
0.0
 11
238.2009724976216
 21
139.677712071671
 31
0.0
 11
238.4942457664201
 21
139.7616084149101
 31
0.0
 11
238.7797937349968
 21
139.8689510782
 31
0.0
 11
239.0523687948751
 21
139.9976910651979
 31
0.0
 11
239.3133650115241
 21
140.1485867547585
 31
0.0
 11
239.5571068183361
 21
140.3182730574493
 31
0.0
 11
239.785485901066
 21
140.5081876347182
 31
0.0
 11
239.9931163143685
 21
140.7137525598034
 31
0.0
 11
240.1817891068714
 21
140.9368947528183
 31
0.0
 11
240.3470693974649
 21
141.172240159918
 31
0.0
 11
240.4901764109217
 21
141.4217328382662
 31
0.0
 11
240.6080670242983
 21
141.6798788563638
 31
0.0
 11
240.7011975254875
 21
141.9479849825285
 31
0.0
 11
240.7680058680464
 21
142.2212290074012
 31
0.0
 11
240.8083611121863
 21
142.4996285147547
 31
0.0
 11
240.8218830972142
 21
142.779728251098
 31
0.0
 11
240.8083611121863
 21
143.0598279874413
 31
0.0
 11
240.7680058680464
 21
143.3382274947949
 31
0.0
 11
240.7011975254875
 21
143.6114715196676
 31
0.0
 11
240.6080670242984
 21
143.8795776458323
 31
0.0
 11
240.4901764109217
 21
144.1377236639298
 31
0.0
 11
240.347069397465
 21
144.3872163422779
 31
0.0
 11
240.1817891068714
 21
144.6225617493777
 31
0.0
 11
239.9931163143685
 21
144.8457039423927
 31
0.0
 11
239.785485901066
 21
145.0512688674779
 31
0.0
 11
239.5571068183361
 21
145.2411834447468
 31
0.0
 11
239.313365011524
 21
145.4108697474375
 31
0.0
 11
239.0523687948751
 21
145.5617654369981
 31
0.0
 11
238.7797937349968
 21
145.690505423996
 31
0.0
 11
238.4942457664201
 21
145.7978480872859
 31
0.0
 11
238.2009724976217
 21
145.8817444305251
 31
0.0
 11
237.8996415344417
 21
145.9423763871646
 31
0.0
 11
237.5944502758612
 21
145.9788256211511
 31
0.0
 11
237.2865259900785
 21
145.9910363957643
 31
0.0
 11
236.9786017042958
 21
145.9788256211511
 31
0.0
 11
236.6734104457153
 21
145.9423763871646
 31
0.0
 11
236.3720794825353
 21
145.881744430525
 31
0.0
 11
236.0788062137368
 21
145.7978480872858
 31
0.0
 11
235.7932582451601
 21
145.6905054239959
 31
0.0
 11
235.5206831852819
 21
145.5617654369981
 31
0.0
 11
235.2596869686329
 21
145.4108697474375
 31
0.0
 11
235.0159451618209
 21
145.2411834447468
 31
0.0
 11
234.7875660790911
 21
145.0512688674779
 31
0.0
 11
234.5799356657887
 21
144.8457039423927
 31
0.0
 11
234.3912628732857
 21
144.6225617493777
 31
0.0
 11
234.225982582692
 21
144.3872163422779
 31
0.0
 11
234.0828755692353
 21
144.1377236639298
 31
0.0
 11
233.9649849558587
 21
143.8795776458323
 31
0.0
 11
233.8718544546696
 21
143.6114715196676
 31
0.0
 11
233.8050461121107
 21
143.3382274947949
 31
0.0
 11
233.7646908679708
 21
143.0598279874413
 31
0.0
 11
233.7511688829428
 21
142.779728251098
 31
0.0
 11
233.7646908679708
 21
142.4996285147548
 31
0.0
  0
SPLINE
  5
19F
330
4B
100
AcDbEntity
  8
1
  6
Continuous
 62
     7
100
AcDbSpline
210
0.0
220
0.0
230
1.0
 70
     8
 71
     3
 72
    45
 73
    41
 74
    39
 42
0.0000000001
 43
0.0000000001
 44
0.00000001
 40
0.0
 40
0.0
 40
0.0
 40
0.0
 40
0.1554027434397105
 40
0.3118336112661898
 40
0.6337527246030754
 40
0.9552154096324309
 40
1.304708618153006
 40
1.653628751773224
 40
2.04158263967959
 40
2.429096368538577
 40
2.859742226823168
 40
3.29010052724036
 40
3.762099887420723
 40
4.233920063542113
 40
4.741796489694947
 40
5.249564408829221
 40
5.784945112808581
 40
6.320264111446324
 40
6.872866920246465
 40
7.425441733268921
 40
7.983894704802443
 40
8.542347676335938
 40
9.094922489358307
 40
9.647525298158477
 40
10.18284429679614
 40
10.71822500077549
 40
11.22599291990975
 40
11.73386934606263
 40
12.20568952218404
 40
12.67768888236447
 40
13.10804718278168
 40
13.53869304106626
 40
13.92620676992523
 40
14.31416065783155
 40
14.66308079145173
 40
15.01257399997232
 40
15.33403668500174
 40
15.65595579833867
 40
15.96753396875099
 40
16.27911213916339
 40
16.27911213916339
 40
16.27911213916339
 40
16.27911213916339
 10
237.2865259900667
 20
147.6154422109631
 30
0.0
 10
237.3383456530662
 20
147.6166588265711
 30
0.0
 10
237.4423278112319
 20
147.6191001067583
 30
0.0
 10
237.6521393165037
 20
147.6459982117544
 30
0.0
 10
237.9125657949419
 20
147.7079276548023
 30
0.0
 10
238.2194666925117
 20
147.8349047938147
 30
0.0
 10
238.5142682518438
 20
148.0061780099521
 30
0.0
 10
238.8025005594447
 20
148.22674360075
 30
0.0
 10
239.0734456514322
 20
148.4867642684357
 30
0.0
 10
239.3348190622456
 20
148.7929781884101
 30
0.0
 10
239.5756660445069
 20
149.1330341302935
 30
0.0
 10
239.8030881881949
 20
149.5152231574579
 30
0.0
 10
240.0077663463831
 20
149.9254558455665
 30
0.0
 10
240.1949343287057
 20
150.3720265548366
 30
0.0
 10
240.3577272396479
 20
150.8406912117506
 30
0.0
 10
240.4993540030672
 20
151.3381890780518
 30
0.0
 10
240.6154059243259
 20
151.8516513040175
 30
0.0
 10
240.7074765927738
 20
152.3850908838209
 30
0.0
 10
240.7731676602008
 20
152.9281918617999
 30
0.0
 10
240.8131205949609
 20
153.4815075652276
 30
0.0
 10
240.8262875283989
 20
154.0380585002957
 30
0.0
 10
240.8131205949613
 20
154.5946094353638
 30
0.0
 10
240.7731676601994
 20
155.1479251387916
 30
0.0
 10
240.7074765927792
 20
155.6910261167701
 30
0.0
 10
240.6154059243065
 20
156.2244656965748
 30
0.0
 10
240.4993540031381
 20
156.7379279225359
 30
0.0
 10
240.3577272393985
 20
157.2354257888533
 30
0.0
 10
240.1949343296102
 20
157.7040904457085
 30
0.0
 10
240.007766343272
 20
158.1506611551832
 30
0.0
 10
239.8030881994054
 20
158.560893842563
 30
0.0
 10
239.5756660067394
 20
158.9430828722196
 30
0.0
 10
239.3348191977515
 20
159.2831388052864
 30
0.0
 10
239.0734452014616
 20
159.5893527550516
 30
0.0
 10
238.8025021751299
 20
159.8493733176304
 30
0.0
 10
238.5142628884988
 20
160.0699392635421
 30
0.0
 10
238.2194861350733
 20
160.2412112174812
 30
0.0
 10
237.9124996295924
 20
160.3681927124785
 30
0.0
 10
237.6018665568783
 20
160.4421193858292
 30
0.0
 10
237.2861912467328
 20
160.4715636151968
 30
0.0
 10
237.0793827433264
 20
160.4474230148389
 30
0.0
 10
236.9759784916232
 20
160.4353527146599
 30
0.0
 11
237.2865259900667
 21
147.6154422109631
 31
0.0
 11
237.4417997393003
 21
147.6217727297047
 31
0.0
 11
237.5970734885338
 21
147.6407642859315
 31
0.0
 11
237.910055714706
 21
147.7160905206168
 31
0.0
 11
238.2077148002585
 21
147.8374879120811
 31
0.0
 11
238.5102822409134
 21
148.0124120289364
 31
0.0
 11
238.7881217516095
 21
148.2234818418934
 31
0.0
 11
239.068842374254
 21
148.4912581499636
 31
0.0
 11
239.3211035616392
 21
148.7854199819425
 31
0.0
 11
239.5709187490462
 21
149.136202289647
 31
0.0
 11
239.7915375603045
 21
149.5057095383675
 31
0.0
 11
240.0030685253448
 21
149.9276550879823
 31
0.0
 11
240.1858575103026
 21
150.3626291855713
 31
0.0
 11
240.3531343414361
 21
150.8421674280585
 31
0.0
 11
240.4924356356593
 21
151.3304536239822
 31
0.0
 11
240.6109119952467
 21
151.8525607494003
 31
0.0
 11
240.7021040468523
 21
152.3800552422877
 31
0.0
 11
240.7687401393007
 21
152.9286256529708
 31
0.0
 11
240.8085468572651
 21
153.4797647907497
 31
0.0
 11
240.8218830972142
 21
154.0380585002957
 31
0.0
 11
240.8085468572651
 21
154.5963522098417
 31
0.0
 11
240.7687401393008
 21
155.1474913476205
 31
0.0
 11
240.7021040468523
 21
155.6960617583036
 31
0.0
 11
240.6109119952467
 21
156.2235562511909
 31
0.0
 11
240.4924356356593
 21
156.745663376609
 31
0.0
 11
240.3531343414361
 21
157.2339495725327
 31
0.0
 11
240.1858575103025
 21
157.71348781502
 31
0.0
 11
240.0030685253448
 21
158.148461912609
 31
0.0
 11
239.7915375603045
 21
158.5704074622239
 31
0.0
 11
239.5709187490462
 21
158.9399147109444
 31
0.0
 11
239.3211035616393
 21
159.2906970186489
 31
0.0
 11
239.0688423742541
 21
159.5848588506278
 31
0.0
 11
238.7881217516095
 21
159.852635158698
 31
0.0
 11
238.5102822409134
 21
160.0637049716549
 31
0.0
 11
238.2077148002586
 21
160.2386290885102
 31
0.0
 11
237.910055714706
 21
160.3600264799744
 31
0.0
 11
237.5970734885337
 21
160.4353527146598
 31
0.0
 11
237.2865259900785
 21
160.4606747896282
 31
0.0
 11
236.9759784916232
 21
160.4353527146599
 31
0.0
  0
SPLINE
  5
1A0
330
4B
100
AcDbEntity
  8
1
  6
Continuous
 62
     7
100
AcDbSpline
210
0.0
220
0.0
230
1.0
 70
     8
 71
     3
 72
    43
 73
    39
 74
    37
 42
0.0000000001
 43
0.0000000001
 44
0.00000001
 40
0.0
 40
0.0
 40
0.0
 40
0.0
 40
0.3219191133368856
 40
0.643381798366284
 40
0.9928750068869021
 40
1.341795140507102
 40
1.729749028413449
 40
2.117262757272439
 40
2.547908615557004
 40
2.978266915974152
 40
3.450266276154541
 40
3.922086452275942
 40
4.429962878428785
 40
4.937730797563122
 40
5.473111501542546
 40
6.008430500180195
 40
6.561033308980311
 40
7.113608122002711
 40
7.672061093536234
 40
8.230514065069785
 40
8.7830888780921
 40
9.335691686892247
 40
9.871010685529962
 40
10.40639138950935
 40
10.91415930864363
 40
11.42203573479647
 40
11.89385591091785
 40
12.36585527109825
 40
12.79621357151539
 40
13.22685942979991
 40
13.61437315865893
 40
14.00232704656534
 40
14.35124718018554
 40
14.70074038870607
 40
15.02220307373542
 40
15.3441221870724
 40
15.50055305488716
 40
15.65595579831507
 40
15.65595579831507
 40
15.65595579831507
 40
15.65595579831507
 10
236.9759784916232
 20
160.4353527146599
 30
0.0
 10
236.8706595659634
 20
160.4136286977106
 30
0.0
 10
236.6601710395424
 20
160.3702114648915
 30
0.0
 10
236.3536778925993
 20
160.2406180109407
 30
0.0
 10
236.058758182692
 20
160.070102903056
 30
0.0
 10
235.7705591162227
 20
159.8493240219177
 30
0.0
 10
235.4996041855142
 20
159.5893664839774
 30
0.0
 10
235.2382335633254
 20
159.2831346709085
 30
0.0
 10
234.9973857557642
 20
158.9430840245296
 30
0.0
 10
234.7699638453575
 20
158.5608935005239
 30
0.0
 10
234.5652856189557
 20
158.1506612501057
 30
0.0
 10
234.3781176557598
 20
157.7040904181092
 30
0.0
 10
234.2153247393213
 20
157.235425796462
 30
0.0
 10
234.0736979774273
 20
156.7379279203737
 30
0.0
 10
233.9576460557388
 20
156.2244656971663
 30
0.0
 10
233.8655753874091
 20
155.6910261166059
 30
0.0
 10
233.7998843199492
 20
155.1479251388361
 30
0.0
 10
233.7599313851981
 20
154.5946094353517
 30
0.0
 10
233.7467644517575
 20
154.0380585002989
 30
0.0
 10
233.7599313851963
 20
153.4815075652266
 30
0.0
 10
233.7998843199562
 20
152.9281918618001
 30
0.0
 10
233.8655753873833
 20
152.3850908838208
 30
0.0
 10
233.9576460558312
 20
151.8516513040176
 30
0.0
 10
234.0736979770898
 20
151.3381890780518
 30
0.0
 10
234.215324740509
 20
150.8406912117506
 30
0.0
 10
234.3781176514513
 20
150.3720265548367
 30
0.0
 10
234.5652856337739
 20
149.9254558455664
 30
0.0
 10
234.7699637919621
 20
149.515223157458
 30
0.0
 10
234.9973859356502
 20
149.1330341302935
 30
0.0
 10
235.2382329179113
 20
148.79297818841
 30
0.0
 10
235.4996063287248
 20
148.4867642684357
 30
0.0
 10
235.7705514207122
 20
148.2267436007501
 30
0.0
 10
236.0587837283132
 20
148.0061780099522
 30
0.0
 10
236.3535852876452
 20
147.8349047938148
 30
0.0
 10
236.660486185215
 20
147.7079276548022
 30
0.0
 10
236.9209126636495
 20
147.6459982117552
 30
0.0
 10
237.1307241689134
 20
147.6191001067596
 30
0.0
 10
237.2347063270712
 20
147.6166588265716
 30
0.0
 10
237.2865259900667
 20
147.6154422109631
 30
0.0
 11
236.9759784916232
 21
160.4353527146599
 31
0.0
 11
236.662996265451
 21
160.3600264799745
 31
0.0
 11
236.3653371798985
 21
160.2386290885102
 31
0.0
 11
236.0627697392436
 21
160.0637049716548
 31
0.0
 11
235.7849302285475
 21
159.8526351586979
 31
0.0
 11
235.5042096059029
 21
159.5848588506278
 31
0.0
 11
235.2519484185177
 21
159.2906970186488
 31
0.0
 11
235.0021332311108
 21
158.9399147109443
 31
0.0
 11
234.7815144198526
 21
158.5704074622238
 31
0.0
 11
234.5699834548123
 21
158.148461912609
 31
0.0
 11
234.3871944698544
 21
157.71348781502
 31
0.0
 11
234.2199176387209
 21
157.2339495725328
 31
0.0
 11
234.0806163444977
 21
156.745663376609
 31
0.0
 11
233.9621399849104
 21
156.2235562511908
 31
0.0
 11
233.8709479333048
 21
155.6960617583036
 31
0.0
 11
233.8043118408563
 21
155.1474913476205
 31
0.0
 11
233.7645051228919
 21
154.5963522098416
 31
0.0
 11
233.7511688829428
 21
154.0380585002956
 31
0.0
 11
233.7645051228919
 21
153.4797647907496
 31
0.0
 11
233.8043118408563
 21
152.9286256529708
 31
0.0
 11
233.8709479333048
 21
152.3800552422877
 31
0.0
 11
233.9621399849104
 21
151.8525607494004
 31
0.0
 11
234.0806163444977
 21
151.3304536239822
 31
0.0
 11
234.2199176387209
 21
150.8421674280585
 31
0.0
 11
234.3871944698544
 21
150.3626291855713
 31
0.0
 11
234.5699834548122
 21
149.9276550879823
 31
0.0
 11
234.7815144198526
 21
149.5057095383675
 31
0.0
 11
235.0021332311108
 21
149.136202289647
 31
0.0
 11
235.2519484185176
 21
148.7854199819425
 31
0.0
 11
235.5042096059029
 21
148.4912581499636
 31
0.0
 11
235.7849302285475
 21
148.2234818418934
 31
0.0
 11
236.0627697392436
 21
148.0124120289364
 31
0.0
 11
236.3653371798984
 21
147.8374879120811
 31
0.0
 11
236.6629962654508
 21
147.7160905206168
 31
0.0
 11
236.9759784916232
 21
147.6407642859314
 31
0.0
 11
237.131252240845
 21
147.6217727297056
 31
0.0
 11
237.2865259900667
 21
147.6154422109631
 31
0.0
  0
SPLINE
  5
1A1
330
4B
100
AcDbEntity
  8
1
  6
Continuous
 62
     7
100
AcDbSpline
210
0.0
220
0.0
230
1.0
 70
     8
 71
     3
 72
    41
 73
    37
 74
    35
 42
0.0000000001
 43
0.0000000001
 44
0.00000001
 40
0.0
 40
0.0
 40
0.0
 40
0.0
 40
0.1595843431558555
 40
0.319648525379714
 40
0.679235084981027
 40
1.038514384650969
 40
1.428416938557285
 40
1.818091610681854
 40
2.237936058452474
 40
2.657625323916899
 40
3.103827941320716
 40
3.549930702985641
 40
4.016543368227788
 40
4.483097007936323
 40
4.962568040634016
 40
5.442011709754594
 40
5.925861414041698
 40
6.409711118328803
 40
6.889154787449346
 40
7.368625820147007
 40
7.835179459855475
 40
8.301792125097553
 40
8.747894886762433
 40
9.194097504166303
 40
9.613786769630776
 40
10.03363121740133
 40
10.42330588952597
 40
10.81320844343225
 40
11.17248774310223
 40
11.53207430270353
 40
11.86463929909851
 40
12.19754681580667
 40
12.51156830822225
 40
12.82583337419287
 40
13.13326527952279
 40
13.44069718485271
 40
13.44069718485271
 40
13.44069718485271
 40
13.44069718485271
 10
106.0361731100914
 20
412.5516562555789
 30
0.0
 10
106.0084929733498
 20
412.5062103000275
 30
0.0
 10
105.9530494710815
 20
412.4151817417792
 30
0.0
 10
105.8212246825615
 20
412.2309230800707
 30
0.0
 10
105.6335490719514
 20
412.0052564542982
 30
0.0
 10
105.3687379396968
 20
411.7466177198315
 30
0.0
 10
105.0737284829358
 20
411.5069081055266
 30
0.0
 10
104.7429481916844
 20
411.2815915801551
 30
0.0
 10
104.3868851898551
 20
411.0780337290314
 30
0.0
 10
104.0001509698022
 20
410.89255049284
 30
0.0
 10
103.5934781042078
 20
410.7307873062804
 30
0.0
 10
103.1625018601587
 20
410.5904259394297
 30
0.0
 10
102.7171284489707
 20
410.475187963896
 30
0.0
 10
102.2549155778185
 20
410.3839386110412
 30
0.0
 10
101.7839971971301
 20
410.3187339477626
 30
0.0
 10
101.3044657591738
 20
410.2791452046795
 30
0.0
 10
100.8220206897499
 20
410.2660601853983
 30
0.0
 10
100.3395756201387
 20
410.279145204594
 30
0.0
 10
99.8600441827392
 20
410.3187339481011
 30
0.0
 10
99.38912580003151
 20
410.383938609785
 30
0.0
 10
98.92691293621137
 20
410.4751879684468
 30
0.0
 10
98.48153949821551
 20
410.5904259227436
 30
0.0
 10
98.05056335001339
 20
410.7307873655241
 30
0.0
 10
97.64389013706827
 20
410.8925502769125
 30
0.0
 10
97.25715714000621
 20
411.0780344819571
 30
0.0
 10
96.90108973992892
 20
411.2815888487905
 30
0.0
 10
96.57032474349168
 20
411.506917490706
 30
0.0
 10
96.27526055835025
 20
411.7465837492169
 30
0.0
 10
96.01063849137678
 20
412.005372261099
 30
0.0
 10
95.78545285227331
 20
412.274792901439
 30
0.0
 10
95.59547437077836
 20
412.5596639711116
 30
0.0
 10
95.44777354902259
 20
412.8517423204084
 30
0.0
 10
95.33907290207353
 20
413.1541815569326
 30
0.0
 10
95.2754898174889
 20
413.4603143345003
 30
0.0
 10
95.25059032711785
 20
413.770539531095
 30
0.0
 10
95.27123873608569
 20
413.9748129596651
 30
0.0
 10
95.2815629405696
 20
414.0769496739501
 30
0.0
 11
106.0361731100914
 21
412.5516562555789
 31
0.0
 11
105.9514893101445
 21
412.4163942261433
 31
0.0
 11
105.8589887410968
 21
412.2857642634363
 31
0.0
 11
105.628931629925
 21
412.0094017850764
 31
0.0
 11
105.3725702912637
 21
411.7576867096218
 31
0.0
 11
105.0704044098559
 21
411.5112728673651
 31
0.0
 11
104.7486639418462
 21
411.2914333319301
 31
0.0
 11
104.3845055595496
 21
411.0824882843053
 31
0.0
 11
104.0062590490631
 21
410.9006403894842
 31
0.0
 11
103.5918448234255
 21
410.735238982697
 31
0.0
 11
103.167750866708
 21
410.5968482682658
 31
0.0
 11
102.7161077066197
 21
410.4796056339137
 31
0.0
 11
102.2584145976643
 21
410.3891107901931
 31
0.0
 11
101.7835064139124
 21
410.3231207288073
 31
0.0
 11
101.3056897286659
 21
410.2836562237441
 31
0.0
 11
100.8220206897186
 21
410.2704351382186
 31
0.0
 11
100.3383516507712
 21
410.2836562237441
 31
0.0
 11
99.86053496552481
 21
410.3231207288072
 31
0.0
 11
99.385626781773
 21
410.3891107901932
 31
0.0
 11
98.92793367281766
 21
410.4796056339138
 31
0.0
 11
98.47629051272941
 21
410.5968482682658
 31
0.0
 11
98.05219655601192
 21
410.7352389826969
 31
0.0
 11
97.63778233037425
 21
410.9006403894841
 31
0.0
 11
97.25953581988779
 21
411.0824882843054
 31
0.0
 11
96.89537743759119
 21
411.2914333319301
 31
0.0
 11
96.5736369695814
 21
411.5112728673651
 31
0.0
 11
96.27147108817363
 21
411.7576867096218
 31
0.0
 11
96.01510974951231
 21
412.0094017850764
 31
0.0
 11
95.78505263834045
 21
412.2857642634362
 31
0.0
 11
95.60127849178826
 21
412.5629402722938
 31
0.0
 11
95.45138482481573
 21
412.8601932004245
 31
0.0
 11
95.34618486562449
 21
413.1560689619953
 31
0.0
 11
95.28156294056959
 21
413.463618207632
 31
0.0
 11
95.25987182439697
 21
413.7702839407911
 31
0.0
 11
95.2815629405696
 21
414.0769496739501
 31
0.0
  0
SPLINE
  5
1A2
330
4B
100
AcDbEntity
  8
1
  6
Continuous
 62
     7
100
AcDbSpline
210
0.0
220
0.0
230
1.0
 70
     8
 71
     3
 72
    41
 73
    37
 74
    35
 42
0.0000000001
 43
0.0000000001
 44
0.00000001
 40
0.0
 40
0.0
 40
0.0
 40
0.0
 40
0.1595843431553012
 40
0.3196485253785943
 40
0.6792350849798109
 40
1.038514384649832
 40
1.428416938556115
 40
1.81809161068072
 40
2.237936058451327
 40
2.657625323915777
 40
3.103827941319594
 40
3.549930702984506
 40
4.016543368226653
 40
4.483097007935188
 40
4.962568040632881
 40
5.442011709753444
 40
5.925861414040535
 40
6.409711118327667
 40
6.889154787448211
 40
7.368625820145872
 40
7.835179459854354
 40
8.301792125096418
 40
8.747894886761298
 40
9.194097504165153
 40
9.613786769629654
 40
10.03363121740018
 40
10.42330588952481
 40
10.81320844343109
 40
11.17248774310109
 40
11.53207430270239
 40
11.86463929909739
 40
12.19754681580554
 40
12.51156830822113
 40
12.82583337419176
 40
13.13326527952167
 40
13.44069718485159
 40
13.44069718485159
 40
13.44069718485159
 40
13.44069718485159
 10
108.6075930843371
 20
412.5516562555779
 30
0.0
 10
108.6352732210786
 20
412.5062103000267
 30
0.0
 10
108.6907167233468
 20
412.4151817417786
 30
0.0
 10
108.8225415118666
 20
412.2309230800708
 30
0.0
 10
109.0102171224767
 20
412.005256454298
 30
0.0
 10
109.2750282547312
 20
411.7466177198315
 30
0.0
 10
109.5700377114921
 20
411.5069081055265
 30
0.0
 10
109.9008180027436
 20
411.2815915801551
 30
0.0
 10
110.2568810045729
 20
411.0780337290315
 30
0.0
 10
110.6436152246258
 20
410.89255049284
 30
0.0
 10
111.0502880902203
 20
410.7307873062804
 30
0.0
 10
111.4812643342693
 20
410.5904259394297
 30
0.0
 10
111.9266377454573
 20
410.4751879638961
 30
0.0
 10
112.3888506166095
 20
410.3839386110412
 30
0.0
 10
112.8597689972979
 20
410.3187339477625
 30
0.0
 10
113.3393004352542
 20
410.2791452046794
 30
0.0
 10
113.8217455046781
 20
410.2660601853983
 30
0.0
 10
114.3041905742893
 20
410.279145204594
 30
0.0
 10
114.7837220116888
 20
410.3187339481011
 30
0.0
 10
115.2546403943965
 20
410.3839386097851
 30
0.0
 10
115.7168532582166
 20
410.4751879684467
 30
0.0
 10
116.1622266962125
 20
410.5904259227437
 30
0.0
 10
116.5932028444146
 20
410.7307873655239
 30
0.0
 10
116.9998760573597
 20
410.8925502769126
 30
0.0
 10
117.3866090544218
 20
411.0780344819568
 30
0.0
 10
117.7426764544991
 20
411.2815888487907
 30
0.0
 10
118.0734414509363
 20
411.5069174907061
 30
0.0
 10
118.3685056360777
 20
411.7465837492167
 30
0.0
 10
118.6331277030512
 20
412.0053722610989
 30
0.0
 10
118.8583133421547
 20
412.2747929014391
 30
0.0
 10
119.0482918236496
 20
412.5596639711116
 30
0.0
 10
119.1959926454055
 20
412.8517423204083
 30
0.0
 10
119.3046932923545
 20
413.1541815569328
 30
0.0
 10
119.3682763769392
 20
413.4603143345003
 30
0.0
 10
119.3931758673102
 20
413.770539531095
 30
0.0
 10
119.3725274583423
 20
413.9748129596651
 30
0.0
 10
119.3622032538584
 20
414.0769496739501
 30
0.0
 11
108.6075930843371
 21
412.5516562555779
 31
0.0
 11
108.6922768842838
 21
412.4163942261428
 31
0.0
 11
108.7847774533312
 21
412.2857642634363
 31
0.0
 11
109.014834564503
 21
412.0094017850765
 31
0.0
 11
109.2711959031643
 21
411.7576867096218
 31
0.0
 11
109.573361784572
 21
411.5112728673651
 31
0.0
 11
109.8951022525818
 21
411.2914333319301
 31
0.0
 11
110.2592606348784
 21
411.0824882843053
 31
0.0
 11
110.6375071453649
 21
410.9006403894842
 31
0.0
 11
111.0519213710025
 21
410.735238982697
 31
0.0
 11
111.47601532772
 21
410.5968482682658
 31
0.0
 11
111.9276584878083
 21
410.4796056339137
 31
0.0
 11
112.3853515967637
 21
410.3891107901931
 31
0.0
 11
112.8602597805156
 21
410.3231207288073
 31
0.0
 11
113.3380764657621
 21
410.2836562237441
 31
0.0
 11
113.8217455047094
 21
410.2704351382186
 31
0.0
 11
114.3054145436568
 21
410.2836562237441
 31
0.0
 11
114.7832312289032
 21
410.3231207288072
 31
0.0
 11
115.258139412655
 21
410.3891107901932
 31
0.0
 11
115.7158325216104
 21
410.4796056339138
 31
0.0
 11
116.1674756816986
 21
410.5968482682658
 31
0.0
 11
116.5915696384161
 21
410.7352389826969
 31
0.0
 11
117.0059838640537
 21
410.9006403894841
 31
0.0
 11
117.3842303745402
 21
411.0824882843054
 31
0.0
 11
117.7483887568368
 21
411.2914333319301
 31
0.0
 11
118.0701292248466
 21
411.5112728673651
 31
0.0
 11
118.3722951062543
 21
411.7576867096218
 31
0.0
 11
118.6286564449157
 21
412.0094017850764
 31
0.0
 11
118.8587135560876
 21
412.2857642634362
 31
0.0
 11
119.0424877026398
 21
412.5629402722938
 31
0.0
 11
119.1923813696123
 21
412.8601932004245
 31
0.0
 11
119.2975813288035
 21
413.1560689619953
 31
0.0
 11
119.3622032538585
 21
413.463618207632
 31
0.0
 11
119.3838943700311
 21
413.7702839407911
 31
0.0
 11
119.3622032538584
 21
414.0769496739501
 31
0.0
  0
SPLINE
  5
1A3
330
4B
100
AcDbEntity
  8
1
  6
Continuous
 62
     7
100
AcDbSpline
210
0.0
220
0.0
230
1.0
 70
     8
 71
     3
 72
    25
 73
    21
 74
    19
 42
0.0000000001
 43
0.0000000001
 44
0.00000001
 40
0.0
 40
0.0
 40
0.0
 40
0.0
 40
0.3142650659705095
 40
0.6282865583859316
 40
0.9611940750941006
 40
1.293759071489159
 40
1.653345631090428
 40
2.012624930760421
 40
2.402527484666723
 40
2.792202156791342
 40
3.212046604561932
 40
3.631735870026396
 40
4.077938487430228
 40
4.524041249095092
 40
4.990653914337199
 40
5.457207554045692
 40
5.936678586743331
 40
6.416122255863875
 40
6.823700703592292
 40
7.231117436063762
 40
7.231117436063762
 40
7.231117436063762
 40
7.231117436063762
 10
95.2815629405696
 20
414.0769496739501
 30
0.0
 10
95.30015547624814
 20
414.1802170525048
 30
0.0
 10
95.33732613731753
 20
414.3866717714386
 30
0.0
 10
95.4482727941999
 20
414.6887439772424
 30
0.0
 10
95.59533782881204
 20
414.9809262234212
 30
0.0
 10
95.78549273850985
 20
415.265768462128
 30
0.0
 10
96.01062749418719
 20
415.5351974176788
 30
0.0
 10
96.27526378424436
 20
415.7939836048411
 30
0.0
 10
96.57032385229184
 20
416.033650538006
 30
0.0
 10
96.90108999918392
 20
416.2589789846825
 30
0.0
 10
97.25715706899186
 20
416.4625334345099
 30
0.0
 10
97.64389015572093
 20
416.6480175126773
 30
0.0
 10
98.05056335178576
 20
416.8097808710454
 30
0.0
 10
98.48153947171748
 20
416.9501406145851
 30
0.0
 10
98.92691304594149
 20
417.0653851854186
 30
0.0
 10
99.38912538489144
 20
417.1566093980517
 30
0.0
 10
99.86004578011226
 20
417.2219103830432
 30
0.0
 10
100.3142197731231
 20
417.2590628582348
 30
0.0
 10
100.7456763469887
 20
417.2737511533648
 30
0.0
 10
101.0173105177633
 20
417.2672084945825
 30
0.0
 10
101.1531006536724
 20
417.2639378143043
 30
0.0
 11
95.2815629405696
 21
414.0769496739501
 31
0.0
 11
95.34618486562451
 21
414.3844989195867
 31
0.0
 11
95.45138482481573
 21
414.6803746811573
 31
0.0
 11
95.60127849178829
 21
414.9776276092881
 31
0.0
 11
95.78505263834045
 21
415.2548036181457
 31
0.0
 11
96.01510974951226
 21
415.5311660965055
 31
0.0
 11
96.27147108817366
 21
415.7828811719601
 31
0.0
 11
96.57363696958146
 21
416.0292950142168
 31
0.0
 11
96.89537743759118
 21
416.2491345496518
 31
0.0
 11
97.25953581988769
 21
416.4580795972768
 31
0.0
 11
97.63778233037422
 21
416.6399274920979
 31
0.0
 11
98.05219655601192
 21
416.8053288988849
 31
0.0
 11
98.47629051272941
 21
416.9437196133159
 31
0.0
 11
98.92793367281765
 21
417.0609622476682
 31
0.0
 11
99.385626781773
 21
417.1514570913888
 31
0.0
 11
99.86053496552479
 21
417.2174471527747
 31
0.0
 11
100.3383516507712
 21
417.256911657838
 31
0.0
 11
100.7457261522218
 21
417.269803772505
 31
0.0
 11
101.1531006536724
 21
417.2639378143043
 31
0.0
  0
SPLINE
  5
1A4
330
4B
100
AcDbEntity
  8
1
  6
Continuous
 62
     7
100
AcDbSpline
210
0.0
220
0.0
230
1.0
 70
     8
 71
     3
 72
    25
 73
    21
 74
    19
 42
0.0000000001
 43
0.0000000001
 44
0.00000001
 40
0.0
 40
0.0
 40
0.0
 40
0.0
 40
0.3142650659705036
 40
0.6282865583859353
 40
0.9611940750941044
 40
1.29375907148917
 40
1.653345631090439
 40
2.012624930760422
 40
2.402527484666725
 40
2.792202156791355
 40
3.212046604561945
 40
3.631735870026396
 40
4.077938487430215
 40
4.524041249095078
 40
4.990653914337213
 40
5.457207554045692
 40
5.936678586743345
 40
6.416122255863917
 40
6.823700703591467
 40
7.231117436062057
 40
7.231117436062057
 40
7.231117436062057
 40
7.231117436062057
 10
119.3622032538584
 20
414.0769496739501
 30
0.0
 10
119.3436107181799
 20
414.1802170525048
 30
0.0
 10
119.3064400571105
 20
414.3866717714386
 30
0.0
 10
119.1954934002281
 20
414.6887439772425
 30
0.0
 10
119.048428365616
 20
414.9809262234211
 30
0.0
 10
118.8582734559182
 20
415.2657684621279
 30
0.0
 10
118.6331387002408
 20
415.5351974176788
 30
0.0
 10
118.3685024101836
 20
415.7939836048412
 30
0.0
 10
118.0734423421362
 20
416.0336505380058
 30
0.0
 10
117.7426761952441
 20
416.2589789846826
 30
0.0
 10
117.3866091254361
 20
416.4625334345099
 30
0.0
 10
116.9998760387071
 20
416.6480175126774
 30
0.0
 10
116.5932028426423
 20
416.8097808710451
 30
0.0
 10
116.1622267227105
 20
416.9501406145853
 30
0.0
 10
115.7168531484865
 20
417.0653851854186
 30
0.0
 10
115.2546408095365
 20
417.1566093980518
 30
0.0
 10
114.7837204143157
 20
417.2219103830432
 30
0.0
 10
114.3295464213052
 20
417.2590628582347
 30
0.0
 10
113.8980898474401
 20
417.2737511533649
 30
0.0
 10
113.6264556766661
 20
417.2672084945825
 30
0.0
 10
113.4906655407573
 20
417.2639378143043
 30
0.0
 11
119.3622032538584
 21
414.0769496739501
 31
0.0
 11
119.2975813288035
 21
414.3844989195867
 31
0.0
 11
119.1923813696123
 21
414.6803746811573
 31
0.0
 11
119.0424877026397
 21
414.9776276092881
 31
0.0
 11
118.8587135560875
 21
415.2548036181457
 31
0.0
 11
118.6286564449157
 21
415.5311660965055
 31
0.0
 11
118.3722951062543
 21
415.7828811719601
 31
0.0
 11
118.0701292248465
 21
416.0292950142168
 31
0.0
 11
117.7483887568368
 21
416.2491345496518
 31
0.0
 11
117.3842303745403
 21
416.4580795972768
 31
0.0
 11
117.0059838640538
 21
416.6399274920979
 31
0.0
 11
116.5915696384161
 21
416.8053288988849
 31
0.0
 11
116.1674756816986
 21
416.9437196133159
 31
0.0
 11
115.7158325216103
 21
417.0609622476682
 31
0.0
 11
115.258139412655
 21
417.1514570913888
 31
0.0
 11
114.7832312289032
 21
417.2174471527747
 31
0.0
 11
114.3054145436567
 21
417.256911657838
 31
0.0
 11
113.898040042207
 21
417.269803772505
 31
0.0
 11
113.4906655407573
 21
417.2639378143043
 31
0.0
  0
ENDBLK
  5
4D
330
4B
100
AcDbEntity
  8
0
100
AcDbBlockEnd
  0
BLOCK
  5
4F
330
4E
100
AcDbEntity
  8
0
100
AcDbBlockBegin
  2
_J__A4
 70
     0
 71
     0
 10
0.0
 20
0.0
 30
0.0
  3
_J__A4
  1

  0
POINT
  5
1A5
330
4E
100
AcDbEntity
  8
1
 62
     4
100
AcDbPoint
 10
34.0
 20
34.0
 30
0.0
  0
POINT
  5
1A6
330
4E
100
AcDbEntity
  8
1
 62
     4
100
AcDbPoint
 10
57.0
 20
12.25
 30
0.0
  0
POINT
  5
1A7
330
4E
100
AcDbEntity
  8
1
 62
     4
100
AcDbPoint
 10
57.0
 20
20.75000000000001
 30
0.0
  0
POINT
  5
1A8
330
4E
100
AcDbEntity
  8
1
 62
     4
100
AcDbPoint
 10
57.0
 20
24.75000000000001
 30
0.0
  0
POINT
  5
1A9
330
4E
100
AcDbEntity
  8
1
 62
     4
100
AcDbPoint
 10
57.0
 20
16.25
 30
0.0
  0
POINT
  5
1AA
330
4E
100
AcDbEntity
  8
1
 62
     4
100
AcDbPoint
 10
157.5
 20
19.00000000000001
 30
0.0
  0
POINT
  5
1AB
330
4E
100
AcDbEntity
  8
1
 62
     4
100
AcDbPoint
 10
47.5
 20
282.0000000000003
 30
0.0
  0
POINT
  5
1AC
330
4E
100
AcDbEntity
  8
1
 62
     4
100
AcDbPoint
 10
57.0
 20
22.75000000000001
 30
0.0
  0
POINT
  5
1AD
330
4E
100
AcDbEntity
  8
1
 62
     4
100
AcDbPoint
 10
57.0
 20
14.25
 30
0.0
  0
POINT
  5
1AE
330
4E
100
AcDbEntity
  8
1
 62
     4
100
AcDbPoint
 10
157.5
 20
12.5
 30
0.0
  0
POINT
  5
1AF
330
4E
100
AcDbEntity
  8
1
 62
     4
100
AcDbPoint
 10
163.25
 20
12.5
 30
0.0
  0
POINT
  5
1B0
330
4E
100
AcDbEntity
  8
1
 62
     4
100
AcDbPoint
 10
151.75
 20
12.5
 30
0.0
  0
POINT
  5
1B1
330
4E
100
AcDbEntity
  8
1
 62
     4
100
AcDbPoint
 10
134.75
 20
12.5
 30
0.0
  0
POINT
  5
1B2
330
4E
100
AcDbEntity
  8
1
 62
     4
100
AcDbPoint
 10
146.25
 20
12.5
 30
0.0
  0
POINT
  5
1B3
330
4E
100
AcDbEntity
  8
1
 62
     4
100
AcDbPoint
 10
140.5
 20
12.5
 30
0.0
  0
POINT
  5
1B4
330
4E
100
AcDbEntity
  8
1
 62
     4
100
AcDbPoint
 10
140.5
 20
19.00000000000001
 30
0.0
  0
POINT
  5
1B5
330
4E
100
AcDbEntity
  8
1
 62
     4
100
AcDbPoint
 10
117.75
 20
12.5
 30
0.0
  0
POINT
  5
1B6
330
4E
100
AcDbEntity
  8
1
 62
     4
100
AcDbPoint
 10
129.25
 20
12.5
 30
0.0
  0
POINT
  5
1B7
330
4E
100
AcDbEntity
  8
1
 62
     4
100
AcDbPoint
 10
123.5
 20
12.5
 30
0.0
  0
POINT
  5
1B8
330
4E
100
AcDbEntity
  8
1
 62
     4
100
AcDbPoint
 10
123.5
 20
19.00000000000001
 30
0.0
  0
POINT
  5
1B9
330
4E
100
AcDbEntity
  8
1
 62
     4
100
AcDbPoint
 10
100.75
 20
12.5
 30
0.0
  0
POINT
  5
1BA
330
4E
100
AcDbEntity
  8
1
 62
     4
100
AcDbPoint
 10
112.25
 20
12.5
 30
0.0
  0
POINT
  5
1BB
330
4E
100
AcDbEntity
  8
1
 62
     4
100
AcDbPoint
 10
106.5
 20
12.5
 30
0.0
  0
POINT
  5
1BC
330
4E
100
AcDbEntity
  8
1
 62
     4
100
AcDbPoint
 10
106.5
 20
19.00000000000001
 30
0.0
  0
POINT
  5
1BD
330
4E
100
AcDbEntity
  8
1
 62
     4
100
AcDbPoint
 10
85.25
 20
17.0
 30
0.0
  0
POINT
  5
1BE
330
4E
100
AcDbEntity
  8
1
 62
     4
100
AcDbPoint
 10
93.75
 20
17.0
 30
0.0
  0
LINE
  5
1BF
330
4E
100
AcDbEntity
  8
1
  6
Continuous
 62
     2
100
AcDbLine
 10
81.0
 20
27.00000000000001
 30
0.0
 11
81.0
 21
10.0
 31
0.0
  0
LINE
  5
1C0
330
4E
100
AcDbEntity
  8
1
  6
DOT_CENTER
 62
     2
100
AcDbLine
 10
187.0
 20
26.50000000000001
 30
0.0
 11
187.0
 21
20.50000000000001
 31
0.0
  0
LINE
  5
1C1
330
4E
100
AcDbEntity
  8
1
  6
DOT_CENTER
 62
     2
100
AcDbLine
 10
184.0
 20
23.50000000000001
 30
0.0
 11
197.0
 21
23.50000000000001
 31
0.0
  0
LINE
  5
1C2
330
4E
100
AcDbEntity
  8
1
  6
Continuous
 62
     7
100
AcDbLine
 10
196.0
 20
21.50000000000001
 30
0.0
 11
191.0
 21
22.30000000000001
 31
0.0
  0
LINE
  5
1C3
330
4E
100
AcDbEntity
  8
1
  6
Continuous
 62
     7
100
AcDbLine
 10
196.0
 20
25.50000000000001
 30
0.0
 11
196.0
 21
21.50000000000001
 31
0.0
  0
LINE
  5
1C4
330
4E
100
AcDbEntity
  8
1
  6
Continuous
 62
     7
100
AcDbLine
 10
191.0
 20
24.70000000000001
 30
0.0
 11
196.0
 21
25.50000000000001
 31
0.0
  0
LINE
  5
1C5
330
4E
100
AcDbEntity
  8
1
  6
Continuous
 62
     7
100
AcDbLine
 10
191.0
 20
24.70000000000001
 30
0.0
 11
191.0
 21
22.30000000000001
 31
0.0
  0
LINE
  5
1C6
330
4E
100
AcDbEntity
  8
1
  6
Continuous
 62
     2
100
AcDbLine
 10
33.0
 20
27.0
 30
0.0
 11
33.0
 21
10.0
 31
0.0
  0
LINE
  5
1C7
330
4E
100
AcDbEntity
  8
1
  6
Continuous
 62
     2
100
AcDbLine
 10
25.0
 20
18.50000000000001
 30
0.0
 11
81.0
 21
18.50000000000001
 31
0.0
  0
LINE
  5
1C8
330
4E
100
AcDbEntity
  8
1
  6
Continuous
 62
     7
100
AcDbLine
 10
200.0
 20
287.0000000000003
 30
0.0
 11
105.0
 21
287.0000000000003
 31
0.0
  0
LINE
  5
1C9
330
4E
100
AcDbEntity
  8
1
  6
Continuous
 62
     7
100
AcDbLine
 10
200.0
 20
10.0
 30
0.0
 11
200.0
 21
148.5
 31
0.0
  0
LINE
  5
1CA
330
4E
100
AcDbEntity
  8
1
  6
Continuous
 62
     7
100
AcDbLine
 10
25.0
 20
10.0
 30
0.0
 11
105.0
 21
10.0
 31
0.0
  0
LINE
  5
1CB
330
4E
100
AcDbEntity
  8
1
  6
PHANTOM
 62
     4
100
AcDbLine
 10
0.0
 20
297.0
 30
0.0
 11
0.0
 21
0.0
 31
0.0
  0
LINE
  5
1CC
330
4E
100
AcDbEntity
  8
1
  6
PHANTOM
 62
     4
100
AcDbLine
 10
210.0000000000001
 20
297.0
 30
0.0
 11
0.0
 21
297.0
 31
0.0
  0
LINE
  5
1CD
330
4E
100
AcDbEntity
  8
1
  6
PHANTOM
 62
     4
100
AcDbLine
 10
210.0000000000001
 20
0.0
 30
0.0
 11
210.0000000000001
 21
297.0
 31
0.0
  0
LINE
  5
1CE
330
4E
100
AcDbEntity
  8
1
  6
PHANTOM
 62
     4
100
AcDbLine
 10
0.0
 20
0.0
 30
0.0
 11
210.0000000000001
 21
0.0
 31
0.0
  0
LINE
  5
1CF
330
4E
100
AcDbEntity
  8
1
  6
Continuous
 62
     7
100
AcDbLine
 10
25.0
 20
41.0
 30
0.0
 11
200.0
 21
41.0
 31
0.0
  0
LINE
  5
1D0
330
4E
100
AcDbEntity
  8
1
  6
Continuous
 62
     7
100
AcDbLine
 10
200.0
 20
27.00000000000001
 30
0.0
 11
25.0
 21
27.00000000000001
 31
0.0
  0
LINE
  5
1D1
330
4E
100
AcDbEntity
  8
1
  6
Continuous
 62
     2
100
AcDbLine
 10
33.0
 20
41.0
 30
0.0
 11
33.0
 21
27.0
 31
0.0
  0
LINE
  5
1D2
330
4E
100
AcDbEntity
  8
1
  6
Continuous
 62
     2
100
AcDbLine
 10
55.0
 20
287.0000000000003
 30
0.0
 11
55.0
 21
277.0000000000003
 31
0.0
  0
LINE
  5
1D3
330
4E
100
AcDbEntity
  8
1
  6
Continuous
 62
     2
100
AcDbLine
 10
40.0
 20
287.0000000000003
 30
0.0
 11
40.0
 21
277.0000000000003
 31
0.0
  0
LINE
  5
1D4
330
4E
100
AcDbEntity
  8
1
  6
Continuous
 62
     7
100
AcDbLine
 10
25.0
 20
10.0
 30
0.0
 11
25.0
 21
148.5
 31
0.0
  0
LINE
  5
1D5
330
4E
100
AcDbEntity
  8
1
  6
Continuous
 62
     2
100
AcDbLine
 10
55.0
 20
277.0000000000003
 30
0.0
 11
25.0
 21
277.0000000000003
 31
0.0
  0
LINE
  5
1D6
330
4E
100
AcDbEntity
  8
1
  6
Continuous
 62
     2
100
AcDbLine
 10
166.0
 20
27.00000000000001
 30
0.0
 11
166.0
 21
10.0
 31
0.0
  0
LINE
  5
1D7
330
4E
100
AcDbEntity
  8
1
  6
Continuous
 62
     2
100
AcDbLine
 10
132.0
 20
27.00000000000001
 30
0.0
 11
132.0
 21
9.99999999999999
 31
0.0
  0
LINE
  5
1D8
330
4E
100
AcDbEntity
  8
1
  6
Continuous
 62
     2
100
AcDbLine
 10
149.0
 20
27.00000000000001
 30
0.0
 11
149.0
 21
10.0
 31
0.0
  0
LINE
  5
1D9
330
4E
100
AcDbEntity
  8
1
  6
Continuous
 62
     2
100
AcDbLine
 10
115.0
 20
27.00000000000001
 30
0.0
 11
115.0
 21
9.99999999999999
 31
0.0
  0
LINE
  5
1DA
330
4E
100
AcDbEntity
  8
1
  6
Continuous
 62
     2
100
AcDbLine
 10
98.0
 20
27.00000000000001
 30
0.0
 11
98.0
 21
9.99999999999999
 31
0.0
  0
LINE
  5
1DB
330
4E
100
AcDbEntity
  8
1
  6
Continuous
 62
     2
100
AcDbLine
 10
166.0
 20
20.00000000000001
 30
0.0
 11
200.0
 21
20.00000000000001
 31
0.0
  0
LINE
  5
1DC
330
4E
100
AcDbEntity
  8
1
  6
Continuous
 62
     2
100
AcDbLine
 10
105.0
 20
287.0000000000003
 30
0.0
 11
105.0
 21
292.0000000000003
 31
0.0
  0
LINE
  5
1DD
330
4E
100
AcDbEntity
  8
1
  6
Continuous
 62
     7
100
AcDbLine
 10
105.0
 20
287.0000000000003
 30
0.0
 11
25.0
 21
287.0000000000003
 31
0.0
  0
LINE
  5
1DE
330
4E
100
AcDbEntity
  8
1
  6
Continuous
 62
     2
100
AcDbLine
 10
25.0
 20
148.5
 30
0.0
 11
20.0
 21
148.5
 31
0.0
  0
LINE
  5
1DF
330
4E
100
AcDbEntity
  8
1
  6
Continuous
 62
     7
100
AcDbLine
 10
25.0
 20
148.5
 30
0.0
 11
25.0
 21
287.0000000000003
 31
0.0
  0
LINE
  5
1E0
330
4E
100
AcDbEntity
  8
1
  6
Continuous
 62
     2
100
AcDbLine
 10
200.0
 20
148.5
 30
0.0
 11
205.0
 21
148.5
 31
0.0
  0
LINE
  5
1E1
330
4E
100
AcDbEntity
  8
1
  6
Continuous
 62
     7
100
AcDbLine
 10
200.0
 20
148.5
 30
0.0
 11
200.0
 21
287.0000000000003
 31
0.0
  0
LINE
  5
1E2
330
4E
100
AcDbEntity
  8
1
  6
Continuous
 62
     2
100
AcDbLine
 10
105.0
 20
10.0
 30
0.0
 11
105.0
 21
5.0
 31
0.0
  0
LINE
  5
1E3
330
4E
100
AcDbEntity
  8
1
  6
Continuous
 62
     7
100
AcDbLine
 10
105.0
 20
10.0
 30
0.0
 11
200.0
 21
10.0
 31
0.0
  0
CIRCLE
  5
1E4
330
4E
100
AcDbEntity
  8
1
  6
DOT_CENTER
 62
     7
100
AcDbCircle
 10
89.5
 20
18.0
 30
0.0
 40
0.1000000000000227
  0
CIRCLE
  5
1E5
330
4E
100
AcDbEntity
  8
1
  6
DOT_CENTER
 62
     7
100
AcDbCircle
 10
89.5
 20
16.0
 30
0.0
 40
0.1000000000000227
  0
CIRCLE
  5
1E6
330
4E
100
AcDbEntity
  8
1
  6
Continuous
 62
     7
100
AcDbCircle
 10
187.0
 20
23.50000000000001
 30
0.0
 40
2.0
  0
CIRCLE
  5
1E7
330
4E
100
AcDbEntity
  8
1
  6
Continuous
 62
     7
100
AcDbCircle
 10
187.0
 20
23.50000000000001
 30
0.0
 40
1.200000000000102
  0
CIRCLE
  5
1E8
330
4E
100
AcDbEntity
  8
1
  6
Continuous
 62
     7
100
AcDbCircle
 10
154.5
 20
12.5
 30
0.0
 40
0.3000000000000114
  0
CIRCLE
  5
1E9
330
4E
100
AcDbEntity
  8
1
  6
Continuous
 62
     7
100
AcDbCircle
 10
160.5
 20
12.5
 30
0.0
 40
0.3000000000000114
  0
CIRCLE
  5
1EA
330
4E
100
AcDbEntity
  8
1
  6
Continuous
 62
     7
100
AcDbCircle
 10
143.5
 20
12.5
 30
0.0
 40
0.3000000000000114
  0
CIRCLE
  5
1EB
330
4E
100
AcDbEntity
  8
1
  6
Continuous
 62
     7
100
AcDbCircle
 10
137.5
 20
12.5
 30
0.0
 40
0.3000000000000114
  0
CIRCLE
  5
1EC
330
4E
100
AcDbEntity
  8
1
  6
Continuous
 62
     7
100
AcDbCircle
 10
126.5
 20
12.5
 30
0.0
 40
0.2999999999999972
  0
CIRCLE
  5
1ED
330
4E
100
AcDbEntity
  8
1
  6
Continuous
 62
     7
100
AcDbCircle
 10
120.5
 20
12.5
 30
0.0
 40
0.2999999999999972
  0
CIRCLE
  5
1EE
330
4E
100
AcDbEntity
  8
1
  6
Continuous
 62
     7
100
AcDbCircle
 10
109.5
 20
12.5
 30
0.0
 40
0.2999999999999972
  0
CIRCLE
  5
1EF
330
4E
100
AcDbEntity
  8
1
  6
Continuous
 62
     7
100
AcDbCircle
 10
103.5
 20
12.5
 30
0.0
 40
0.2999999999999972
  0
MTEXT
  5
1F1
330
4E
100
AcDbEntity
  8
1
 62
   250
100
AcDbMText
 10
25.0
 20
5.0
 30
0.0
 40
3.5
 41
0.0
 71
     4
 72
     1
  1
備考欄の文字列 原点位置=4
  7
CONVERTER_1
 73
     1
 44
0.7202881152461
  0
MTEXT
  5
1F2
330
4E
100
AcDbEntity
  8
1
 62
     2
100
AcDbMText
 10
89.5
 20
24.00000000000001
 30
0.0
 40
3.5
 41
0.0
 71
     5
 72
     1
  1
尺度
  7
CONVERTER_1
 73
     1
 44
0.7202881152461
  0
MTEXT
  5
1F3
330
4E
100
AcDbEntity
  8
1
 62
     2
100
AcDbMText
 10
135.5
 20
25.00000000000001
 30
0.0
 40
3.0
 41
0.0
 71
     5
 72
     1
  1
製図
  7
CONVERTER_1
 73
     1
 44
0.78031212484994
  0
MTEXT
  5
1F4
330
4E
100
AcDbEntity
  8
1
 62
     2
100
AcDbMText
 10
152.5
 20
25.00000000000001
 30
0.0
 40
3.0
 41
0.0
 71
     5
 72
     1
  1
設計
  7
CONVERTER_1
 73
     1
 44
0.78031212484994
  0
MTEXT
  5
1F5
330
4E
100
AcDbEntity
  8
1
 62
     2
100
AcDbMText
 10
118.5
 20
25.00000000000001
 30
0.0
 40
3.0
 41
0.0
 71
     5
 72
     1
  1
検図
  7
CONVERTER_1
 73
     1
 44
0.78031212484994
  0
MTEXT
  5
1F6
330
4E
100
AcDbEntity
  8
1
 62
     2
100
AcDbMText
 10
175.0
 20
23.50000000000001
 30
0.0
 40
3.5
 41
0.0
 71
     5
 72
     1
  1
第三角法
  7
CONVERTER_1
 73
     1
 44
0.7202881152461
  0
MTEXT
  5
1F7
330
4E
100
AcDbEntity
  8
1
 62
     2
100
AcDbMText
 10
101.5
 20
25.00000000000001
 30
0.0
 40
3.0
 41
0.0
 71
     5
 72
     1
  1
承認
  7
CONVERTER_1
 73
     1
 44
0.78031212484994
  0
MTEXT
  5
1F8
330
4E
100
AcDbEntity
  8
1
 62
     2
100
AcDbMText
 10
29.0
 20
14.25
 30
0.0
 40
3.5
 41
0.0
 71
     5
 72
     1
  1
品番
  7
CONVERTER_1
 73
     1
 44
0.96038415366146
  0
MTEXT
  5
1F9
330
4E
100
AcDbEntity
  8
1
 62
     2
100
AcDbMText
 10
29.0
 20
22.75
 30
0.0
 40
3.5
 41
0.0
 71
     5
 72
     1
  1
品名
  7
CONVERTER_1
 73
     1
 44
0.96038415366146
  0
MTEXT
  5
1FA
330
4E
100
AcDbEntity
  8
1
 62
     2
100
AcDbMText
 10
29.0
 20
34.0
 30
0.0
 40
3.5
 41
0.0
 71
     5
 72
     1
  1
備考
  7
CONVERTER_1
 73
     1
 44
0.60024009603842
  0
MTEXT
  5
1FB
330
4E
100
AcDbEntity
  8
1
 62
     2
100
AcDbMText
 10
32.5
 20
282.0000000000003
 30
0.0
 40
5.0
 41
0.0
 71
     5
 72
     1
  1
図番
  7
CONVERTER_1
 73
     1
 44
0.60024009603842
  0
MTEXT
  5
1FC
330
4E
100
AcDbEntity
  8
1
 62
     7
100
AcDbMText
 10
171.5
 20
15.0
 30
0.0
 40
2.5
 41
0.0
 71
     5
 72
     1
  1
株式会社
  7
CONVERTER_1
 73
     1
 44
1.32052821128451
  0
MTEXT
  5
1FD
330
4E
100
AcDbEntity
  8
1
 62
     7
100
AcDbMText
 10
188.5
 20
15.0
 30
0.0
 40
3.0
 41
0.0
 71
     5
 72
     1
  1
三栄水栓製作所
  7
CONVERTER_1
 73
     1
 44
1.32052821128451
  0
ENDBLK
  5
50
330
4E
100
AcDbEntity
  8
0
100
AcDbBlockEnd
  0
BLOCK
  5
21C
330
213
100
AcDbEntity
  8
0
100
AcDbBlockBegin
  2
*D010
 70
     1
 71
     0
 10
0.0
 20
0.0
 30
0.0
  3
*D010
  1

  0
LINE
  5
214
330
213
100
AcDbEntity
  8
1
  6
Continuous
 62
     2
100
AcDbLine
 10
335.1485029892946
 20
204.0380585002956
 30
0.0
 11
349.1485029892946
 21
204.0380585002956
 31
0.0
  0
LINE
  5
215
330
213
100
AcDbEntity
  8
1
  6
Continuous
 62
     2
100
AcDbLine
 10
319.1485029892946
 20
204.0380585002956
 30
0.0
 11
335.1485029892946
 21
204.0380585002956
 31
0.0
  0
LINE
  5
216
330
213
100
AcDbEntity
  8
1
  6
Continuous
 62
     2
100
AcDbLine
 10
305.1485029892946
 20
204.0380585002956
 30
0.0
 11
319.1485029892946
 21
204.0380585002956
 31
0.0
  0
LINE
  5
217
330
213
100
AcDbEntity
  8
1
  6
Continuous
 62
     2
100
AcDbLine
 10
319.1485029892946
 20
166.2422269769829
 30
0.0
 11
319.1485029892946
 21
206.0380585002956
 31
0.0
  0
LINE
  5
218
330
213
100
AcDbEntity
  8
1
  6
Continuous
 62
     2
100
AcDbLine
 10
335.1485029892946
 20
184.0380585002956
 30
0.0
 11
335.1485029892946
 21
206.0380585002956
 31
0.0
  0
SOLID
  5
219
330
213
100
AcDbEntity
  8
1
 62
     2
100
AcDbTrace
 10
312.1485029892946
 20
203.1164910171838
 30
0.0
 11
312.1485029892946
 21
204.9596259834074
 31
0.0
 12
319.1485029892946
 22
204.0380585002956
 32
0.0
 13
319.1485029892946
 23
204.0380585002956
 33
0.0
  0
SOLID
  5
21A
330
213
100
AcDbEntity
  8
1
 62
     2
100
AcDbTrace
 10
342.1485029892946
 20
204.9596259834074
 30
0.0
 11
342.1485029892946
 21
203.1164910171838
 31
0.0
 12
335.1485029892946
 22
204.0380585002956
 32
0.0
 13
335.1485029892946
 23
204.0380585002956
 33
0.0
  0
MTEXT
  5
21B
330
213
100
AcDbEntity
  8
1
 62
     7
100
AcDbMText
 10
324.300877891921
 20
206.0380585002956
 30
0.0
 40
7.0
 41
0.0
 71
     7
 72
     1
  1
16
  7
CONVERTER_2
 11
0.9999999999970621
 21
2.424068405545307E-6
 31
0.0
 73
     1
 44
0.60024009603842
  0
ENDBLK
  5
21D
330
213
100
AcDbEntity
  8
0
100
AcDbBlockEnd
  0
BLOCK
  5
227
330
220
100
AcDbEntity
  8
0
100
AcDbBlockBegin
  2
*D111
 70
     1
 71
     0
 10
0.0
 20
0.0
 30
0.0
  3
*D111
  1

  0
LINE
  5
221
330
220
100
AcDbEntity
  8
1
  6
Continuous
 62
     2
100
AcDbLine
 10
257.3218830972141
 20
104.0380585002956
 30
0.0
 11
351.3218830972141
 21
104.0380585002956
 31
0.0
  0
LINE
  5
222
330
220
100
AcDbEntity
  8
1
  6
Continuous
 62
     2
100
AcDbLine
 10
257.3218830972141
 20
135.5380585002956
 30
0.0
 11
257.3218830972141
 21
102.0380585002956
 31
0.0
  0
LINE
  5
223
330
220
100
AcDbEntity
  8
1
  6
Continuous
 62
     2
100
AcDbLine
 10
351.3218830972141
 20
145.2949470539243
 30
0.0
 11
351.3218830972141
 21
102.0380585002956
 31
0.0
  0
SOLID
  5
224
330
220
100
AcDbEntity
  8
1
 62
     2
100
AcDbTrace
 10
264.3218830972141
 20
104.9596259834074
 30
0.0
 11
264.3218830972141
 21
103.1164910171838
 31
0.0
 12
257.3218830972141
 22
104.0380585002956
 32
0.0
 13
257.3218830972141
 23
104.0380585002956
 33
0.0
  0
SOLID
  5
225
330
220
100
AcDbEntity
  8
1
 62
     2
100
AcDbTrace
 10
344.3218830972141
 20
103.1164910171838
 30
0.0
 11
344.3218830972141
 21
104.9596259834074
 31
0.0
 12
351.3218830972141
 22
104.0380585002956
 32
0.0
 13
351.3218830972141
 23
104.0380585002956
 33
0.0
  0
MTEXT
  5
226
330
220
100
AcDbEntity
  8
1
 62
     7
100
AcDbMText
 10
297.222241529188
 20
106.0380585002956
 30
0.0
 40
7.0
 41
0.0
 71
     7
 72
     1
  1
94
  7
CONVERTER_2
 11
0.9999999999970621
 21
2.424068405545307E-6
 31
0.0
 73
     1
 44
0.60024009603842
  0
ENDBLK
  5
228
330
220
100
AcDbEntity
  8
0
100
AcDbBlockEnd
  0
BLOCK
  5
233
330
22B
100
AcDbEntity
  8
0
100
AcDbBlockBegin
  2
*D212
 70
     1
 71
     0
 10
0.0
 20
0.0
 30
0.0
  3
*D212
  1

  0
LINE
  5
22C
330
22B
100
AcDbEntity
  8
1
  6
Continuous
 62
     2
100
AcDbLine
 10
224.3218830972141
 20
104.0380585002956
 30
0.0
 11
257.3218830972141
 21
104.0380585002956
 31
0.0
  0
LINE
  5
22D
330
22B
100
AcDbEntity
  8
1
  6
Continuous
 62
     2
100
AcDbLine
 10
183.053923824672
 20
104.0380585002956
 30
0.0
 11
224.3218830972141
 21
104.0380585002956
 31
0.0
  0
LINE
  5
22E
330
22B
100
AcDbEntity
  8
1
  6
Continuous
 62
     2
100
AcDbLine
 10
224.3218830972141
 20
150.2880585002956
 30
0.0
 11
224.3218830972141
 21
102.0380585002956
 31
0.0
  0
LINE
  5
22F
330
22B
100
AcDbEntity
  8
1
  6
Continuous
 62
     2
100
AcDbLine
 10
257.3218830972141
 20
135.5380585002956
 30
0.0
 11
257.3218830972141
 21
102.0380585002956
 31
0.0
  0
SOLID
  5
230
330
22B
100
AcDbEntity
  8
1
 62
     2
100
AcDbTrace
 10
231.3218830972141
 20
104.9596259834074
 30
0.0
 11
231.3218830972141
 21
103.1164910171838
 31
0.0
 12
224.3218830972141
 22
104.0380585002956
 32
0.0
 13
224.3218830972141
 23
104.0380585002956
 33
0.0
  0
SOLID
  5
231
330
22B
100
AcDbEntity
  8
1
 62
     2
100
AcDbTrace
 10
250.3218830972141
 20
103.1164910171838
 30
0.0
 11
250.3218830972141
 21
104.9596259834074
 31
0.0
 12
257.3218830972141
 22
104.0380585002956
 32
0.0
 13
257.3218830972141
 23
104.0380585002956
 33
0.0
  0
MTEXT
  5
232
330
22B
100
AcDbEntity
  8
1
 62
     7
100
AcDbMText
 10
183.053923824672
 20
106.0380585002956
 30
0.0
 40
7.0
 41
0.0
 71
     7
 72
     1
  1
33リフト5
  7
CONVERTER_1
 11
0.9999999999970621
 21
2.424068405545307E-6
 31
0.0
 73
     1
 44
0.60024009603842
  0
ENDBLK
  5
234
330
22B
100
AcDbEntity
  8
0
100
AcDbBlockEnd
  0
BLOCK
  5
23E
330
237
100
AcDbEntity
  8
0
100
AcDbBlockBegin
  2
*D313
 70
     1
 71
     0
 10
0.0
 20
0.0
 30
0.0
  3
*D313
  1

  0
LINE
  5
238
330
237
100
AcDbEntity
  8
1
  6
Continuous
 62
     2
100
AcDbLine
 10
371.3218830972141
 20
184.0380585002956
 30
0.0
 11
371.3218830972141
 21
124.0380585002956
 31
0.0
  0
LINE
  5
239
330
237
100
AcDbEntity
  8
1
  6
Continuous
 62
     2
100
AcDbLine
 10
335.1485029892946
 20
184.0380585002956
 30
0.0
 11
373.3218830972141
 21
184.0380585002956
 31
0.0
  0
LINE
  5
23A
330
237
100
AcDbEntity
  8
1
  6
Continuous
 62
     2
100
AcDbLine
 10
335.1485029892946
 20
124.0380585002956
 30
0.0
 11
373.3218830972141
 21
124.0380585002956
 31
0.0
  0
SOLID
  5
23B
330
237
100
AcDbEntity
  8
1
 62
     2
100
AcDbTrace
 10
372.2434505803258
 20
177.0380585002956
 30
0.0
 11
370.4003156141023
 21
177.0380585002956
 31
0.0
 12
371.3218830972141
 22
184.0380585002956
 32
0.0
 13
371.3218830972141
 23
184.0380585002956
 33
0.0
  0
SOLID
  5
23C
330
237
100
AcDbEntity
  8
1
 62
     2
100
AcDbTrace
 10
370.4003156141023
 20
131.0380585002956
 30
0.0
 11
372.2434505803258
 21
131.0380585002956
 31
0.0
 12
371.3218830972141
 22
124.0380585002956
 32
0.0
 13
371.3218830972141
 23
124.0380585002956
 33
0.0
  0
MTEXT
  5
23D
330
237
100
AcDbEntity
  8
1
 62
     7
100
AcDbMText
 10
369.3218830972141
 20
143.946619611413
 30
0.0
 40
7.0
 41
0.0
 71
     7
 72
     1
  1
{\Fgdt;n}60
  7
CONVERTER_2
 11
0.0
 21
1.0
 31
0.0
 73
     1
 44
0.60024009603842
  0
ENDBLK
  5
23F
330
237
100
AcDbEntity
  8
0
100
AcDbBlockEnd
  0
BLOCK
  5
249
330
242
100
AcDbEntity
  8
0
100
AcDbBlockBegin
  2
*D414
 70
     1
 71
     0
 10
0.0
 20
0.0
 30
0.0
  3
*D414
  1

  0
LINE
  5
243
330
242
100
AcDbEntity
  8
1
  6
Continuous
 62
     2
100
AcDbLine
 10
204.3218830972141
 20
186.0380585002956
 30
0.0
 11
204.3218830972141
 21
154.0380585002956
 31
0.0
  0
LINE
  5
244
330
242
100
AcDbEntity
  8
1
  6
Continuous
 62
     2
100
AcDbLine
 10
245.2768572288082
 20
186.0380585002956
 30
0.0
 11
202.3218830972141
 21
186.0380585002956
 31
0.0
  0
LINE
  5
245
330
242
100
AcDbEntity
  8
1
  6
Continuous
 62
     2
100
AcDbLine
 10
218.3218830972141
 20
154.0380585002956
 30
0.0
 11
202.3218830972141
 21
154.0380585002956
 31
0.0
  0
SOLID
  5
246
330
242
100
AcDbEntity
  8
1
 62
     2
100
AcDbTrace
 10
205.2434505803259
 20
179.0380585002956
 30
0.0
 11
203.4003156141023
 21
179.0380585002956
 31
0.0
 12
204.3218830972141
 22
186.0380585002956
 32
0.0
 13
204.3218830972141
 23
186.0380585002956
 33
0.0
  0
SOLID
  5
247
330
242
100
AcDbEntity
  8
1
 62
     2
100
AcDbTrace
 10
203.4003156141023
 20
161.0380585002956
 30
0.0
 11
205.2434505803259
 21
161.0380585002956
 31
0.0
 12
204.3218830972141
 22
154.0380585002956
 32
0.0
 13
204.3218830972141
 23
154.0380585002956
 33
0.0
  0
MTEXT
  5
248
330
242
100
AcDbEntity
  8
1
 62
     7
100
AcDbMText
 10
202.3218830972141
 20
163.692330819662
 30
0.0
 40
7.0
 41
0.0
 71
     7
 72
     1
  1
32
  7
CONVERTER_2
 11
0.0
 21
1.0
 31
0.0
 73
     1
 44
0.60024009603842
  0
ENDBLK
  5
24A
330
242
100
AcDbEntity
  8
0
100
AcDbBlockEnd
  0
BLOCK
  5
255
330
24D
100
AcDbEntity
  8
0
100
AcDbBlockBegin
  2
*D515
 70
     1
 71
     0
 10
0.0
 20
0.0
 30
0.0
  3
*D515
  1

  0
LINE
  5
24E
330
24D
100
AcDbEntity
  8
1
  6
Continuous
 62
     2
100
AcDbLine
 10
89.32401556179981
 20
470.1766932442001
 30
0.0
 11
115.3240155617998
 21
470.1766932442001
 31
0.0
  0
LINE
  5
24F
330
24D
100
AcDbEntity
  8
1
  6
Continuous
 62
     2
100
AcDbLine
 10
67.7604232570952
 20
470.1766932442001
 30
0.0
 11
89.32401556179981
 21
470.1766932442001
 31
0.0
  0
LINE
  5
250
330
24D
100
AcDbEntity
  8
1
  6
Continuous
 62
     2
100
AcDbLine
 10
94.32188309721403
 20
461.5201327433637
 30
0.0
 11
88.3240155617998
 21
471.908744051769
 31
0.0
  0
LINE
  5
251
330
24D
100
AcDbEntity
  8
1
  6
Continuous
 62
     2
100
AcDbLine
 10
120.3218830972139
 20
461.5201327433639
 30
0.0
 11
114.3240155617998
 21
471.908744051769
 31
0.0
  0
SOLID
  5
252
330
24D
100
AcDbEntity
  8
1
 62
     2
100
AcDbTrace
 10
96.32401556179981
 20
471.0982607273119
 30
0.0
 11
96.32401556179981
 21
469.2551257610884
 31
0.0
 12
89.32401556179981
 22
470.1766932442001
 32
0.0
 13
89.32401556179981
 23
470.1766932442001
 33
0.0
  0
SOLID
  5
253
330
24D
100
AcDbEntity
  8
1
 62
     2
100
AcDbTrace
 10
108.3240155617998
 20
469.2551257610884
 30
0.0
 11
108.3240155617998
 21
471.0982607273119
 31
0.0
 12
115.3240155617998
 22
470.1766932442001
 32
0.0
 13
115.3240155617998
 23
470.1766932442001
 33
0.0
  0
MTEXT
  5
254
330
24D
100
AcDbEntity
  8
1
 62
     7
100
AcDbMText
 10
67.7604232570952
 20
472.1766932442001
 30
0.0
 40
7.0
 41
0.0
 71
     7
 72
     1
  1
26
  7
CONVERTER_2
 11
0.9999999999970621
 21
2.424068405545307E-6
 31
0.0
 73
     1
 44
0.60024009603842
  0
ENDBLK
  5
256
330
24D
100
AcDbEntity
  8
0
100
AcDbBlockEnd
  0
BLOCK
  5
261
330
259
100
AcDbEntity
  8
0
100
AcDbBlockBegin
  2
*D616
 70
     1
 71
     0
 10
0.0
 20
0.0
 30
0.0
  3
*D616
  1

  0
LINE
  5
25A
330
259
100
AcDbEntity
  8
1
  6
Continuous
 62
     2
100
AcDbLine
 10
85.62603704289157
 20
197.808362969706
 30
0.0
 11
108.6260370428916
 21
197.808362969706
 31
0.0
  0
LINE
  5
25B
330
259
100
AcDbEntity
  8
1
  6
Continuous
 62
     2
100
AcDbLine
 10
68.7914525510852
 20
197.808362969706
 30
0.0
 11
85.62603704289157
 21
197.808362969706
 31
0.0
  0
LINE
  5
25C
330
259
100
AcDbEntity
  8
1
  6
Continuous
 62
     2
100
AcDbLine
 10
95.82188309721401
 20
187.6125169153835
 30
0.0
 11
84.21182348051846
 21
199.2225765320791
 31
0.0
  0
LINE
  5
25D
330
259
100
AcDbEntity
  8
1
  6
Continuous
 62
     2
100
AcDbLine
 10
118.821883097214
 20
187.6125169153835
 30
0.0
 11
107.2118234805185
 21
199.2225765320791
 31
0.0
  0
SOLID
  5
25E
330
259
100
AcDbEntity
  8
1
 62
     2
100
AcDbTrace
 10
92.62603704289157
 20
198.7299304528178
 30
0.0
 11
92.62603704289157
 21
196.8867954865942
 31
0.0
 12
85.62603704289157
 22
197.808362969706
 32
0.0
 13
85.62603704289157
 23
197.808362969706
 33
0.0
  0
SOLID
  5
25F
330
259
100
AcDbEntity
  8
1
 62
     2
100
AcDbTrace
 10
101.6260370428916
 20
196.8867954865942
 30
0.0
 11
101.6260370428916
 21
198.7299304528178
 31
0.0
 12
108.6260370428916
 22
197.808362969706
 32
0.0
 13
108.6260370428916
 23
197.808362969706
 33
0.0
  0
MTEXT
  5
260
330
259
100
AcDbEntity
  8
1
 62
     7
100
AcDbMText
 10
68.7914525510852
 20
199.808362969706
 30
0.0
 40
7.0
 41
0.0
 71
     7
 72
     1
  1
23
  7
CONVERTER_2
 11
0.9999999999970621
 21
2.424068405545307E-6
 31
0.0
 73
     1
 44
0.60024009603842
  0
ENDBLK
  5
262
330
259
100
AcDbEntity
  8
0
100
AcDbBlockEnd
  0
BLOCK
  5
26E
330
265
100
AcDbEntity
  8
0
100
AcDbBlockBegin
  2
*D717
 70
     1
 71
     0
 10
0.0
 20
0.0
 30
0.0
  3
*D717
  1

  0
LINE
  5
266
330
265
100
AcDbEntity
  8
0
  6
Continuous
 62
     2
100
AcDbLine
 10
276.25580580124
 20
386.0380585002956
 30
0.0
 11
257.321883097214
 21
386.0380585002956
 31
0.0
  0
LINE
  5
267
330
265
100
AcDbEntity
  8
0
  6
Continuous
 62
     2
100
AcDbLine
 10
257.321883097214
 20
386.0380585002956
 30
0.0
 11
242.321883097214
 21
386.0380585002956
 31
0.0
  0
LINE
  5
268
330
265
100
AcDbEntity
  8
0
  6
Continuous
 62
     2
100
AcDbLine
 10
242.321883097214
 20
386.0380585002956
 30
0.0
 11
228.321883097214
 21
386.0380585002956
 31
0.0
  0
LINE
  5
269
330
265
100
AcDbEntity
  8
0
  6
Continuous
 62
     2
100
AcDbLine
 10
242.321883097214
 20
389.2944099079722
 30
0.0
 11
242.321883097214
 21
384.0380585002956
 31
0.0
  0
LINE
  5
26A
330
265
100
AcDbEntity
  8
0
  6
Continuous
 62
     2
100
AcDbLine
 10
257.321883097214
 20
218.0380585002956
 30
0.0
 11
257.321883097214
 21
388.0380585002956
 31
0.0
  0
SOLID
  5
26B
330
265
100
AcDbEntity
  8
0
 62
     2
100
AcDbTrace
 10
264.321883097214
 20
386.9596259834074
 30
0.0
 11
264.321883097214
 21
385.1164910171839
 31
0.0
 12
257.321883097214
 22
386.0380585002956
 32
0.0
 13
257.321883097214
 23
386.0380585002956
 33
0.0
  0
SOLID
  5
26C
330
265
100
AcDbEntity
  8
0
 62
     2
100
AcDbTrace
 10
235.321883097214
 20
385.1164910171839
 30
0.0
 11
235.321883097214
 21
386.9596259834074
 31
0.0
 12
242.321883097214
 22
386.0380585002956
 32
0.0
 13
242.321883097214
 23
386.0380585002956
 33
0.0
  0
MTEXT
  5
26D
330
265
100
AcDbEntity
  8
0
 62
     7
100
AcDbMText
 10
267.85580580124
 20
388.0380585002956
 30
0.0
 40
7.0
 41
0.0
 71
     7
 72
     1
  1
15
  7
CONVERTER_2
 11
0.9999999999970621
 21
2.424068405545307E-6
 31
0.0
 73
     1
 44
0.60024009603842
  0
ENDBLK
  5
26F
330
265
100
AcDbEntity
  8
0
100
AcDbBlockEnd
  0
BLOCK
  5
27B
330
272
100
AcDbEntity
  8
0
100
AcDbBlockBegin
  2
*D818
 70
     1
 71
     0
 10
0.0
 20
0.0
 30
0.0
  3
*D818
  1

  0
LINE
  5
273
330
272
100
AcDbEntity
  8
1
  6
Continuous
 62
     2
100
AcDbLine
 10
221.971883097214
 20
422.0380585002956
 30
0.0
 11
235.971883097214
 21
422.0380585002956
 31
0.0
  0
LINE
  5
274
330
272
100
AcDbEntity
  8
1
  6
Continuous
 62
     2
100
AcDbLine
 10
235.971883097214
 20
422.0380585002956
 30
0.0
 11
248.6718830972141
 21
422.0380585002956
 31
0.0
  0
LINE
  5
275
330
272
100
AcDbEntity
  8
1
  6
Continuous
 62
     2
100
AcDbLine
 10
248.6718830972141
 20
422.0380585002956
 30
0.0
 11
262.6718830972141
 21
422.0380585002956
 31
0.0
  0
LINE
  5
276
330
272
100
AcDbEntity
  8
1
  6
Continuous
 62
     2
100
AcDbLine
 10
248.6718830972141
 20
386.0380585002956
 30
0.0
 11
248.6718830972141
 21
424.0380585002956
 31
0.0
  0
LINE
  5
277
330
272
100
AcDbEntity
  8
1
  6
Continuous
 62
     2
100
AcDbLine
 10
235.971883097214
 20
386.0380585002956
 30
0.0
 11
235.971883097214
 21
424.0380585002956
 31
0.0
  0
SOLID
  5
278
330
272
100
AcDbEntity
  8
1
 62
     2
100
AcDbTrace
 10
228.971883097214
 20
421.1164910171838
 30
0.0
 11
228.971883097214
 21
422.9596259834073
 31
0.0
 12
235.971883097214
 22
422.0380585002956
 32
0.0
 13
235.971883097214
 23
422.0380585002956
 33
0.0
  0
SOLID
  5
279
330
272
100
AcDbEntity
  8
1
 62
     2
100
AcDbTrace
 10
255.6718830972141
 20
422.9596259834073
 30
0.0
 11
255.6718830972141
 21
421.1164910171838
 31
0.0
 12
248.6718830972141
 22
422.0380585002956
 32
0.0
 13
248.6718830972141
 23
422.0380585002956
 33
0.0
  0
MTEXT
  5
27A
330
272
100
AcDbEntity
  8
1
 62
     7
100
AcDbMText
 10
230.430606263861
 20
424.7380585002956
 30
0.0
 40
7.0
 41
0.0
 71
     7
 72
     1
  1
{\Fgdt;n}12,7
  7
CONVERTER_2
 11
0.9999999999970621
 21
2.424068405545307E-6
 31
0.0
 73
     1
 44
0.60024009603842
  0
ENDBLK
  5
27C
330
272
100
AcDbEntity
  8
0
100
AcDbBlockEnd
  0
BLOCK
  5
286
330
27F
100
AcDbEntity
  8
0
100
AcDbBlockBegin
  2
*D919
 70
     1
 71
     0
 10
0.0
 20
0.0
 30
0.0
  3
*D919
  1

  0
LINE
  5
280
330
27F
100
AcDbEntity
  8
1
  6
Continuous
 62
     2
100
AcDbLine
 10
204.3218830972141
 20
186.0380585002955
 30
0.0
 11
204.3218830972141
 21
386.0380585002956
 31
0.0
  0
LINE
  5
281
330
27F
100
AcDbEntity
  8
1
  6
Continuous
 62
     2
100
AcDbLine
 10
235.971883097214
 20
386.0380585002956
 30
0.0
 11
202.3218830972141
 21
386.0380585002956
 31
0.0
  0
LINE
  5
282
330
27F
100
AcDbEntity
  8
1
  6
Continuous
 62
     2
100
AcDbLine
 10
245.2768572288082
 20
186.0380585002955
 30
0.0
 11
202.3218830972141
 21
186.0380585002955
 31
0.0
  0
SOLID
  5
283
330
27F
100
AcDbEntity
  8
1
 62
     2
100
AcDbTrace
 10
203.4003156141023
 20
193.0380585002955
 30
0.0
 11
205.2434505803259
 21
193.0380585002955
 31
0.0
 12
204.3218830972141
 22
186.0380585002955
 32
0.0
 13
204.3218830972141
 23
186.0380585002955
 33
0.0
  0
SOLID
  5
284
330
27F
100
AcDbEntity
  8
1
 62
     2
100
AcDbTrace
 10
205.2434505803259
 20
379.0380585002956
 30
0.0
 11
203.4003156141023
 21
379.0380585002956
 31
0.0
 12
204.3218830972141
 22
386.0380585002956
 32
0.0
 13
204.3218830972141
 23
386.0380585002956
 33
0.0
  0
MTEXT
  5
285
330
27F
100
AcDbEntity
  8
1
 62
     7
100
AcDbMText
 10
202.3218830972141
 20
281.6663011570535
 30
0.0
 40
7.0
 41
0.0
 71
     7
 72
     1
  1
200
  7
CONVERTER_2
 11
0.0
 21
1.0
 31
0.0
 73
     1
 44
0.60024009603842
  0
ENDBLK
  5
287
330
27F
100
AcDbEntity
  8
0
100
AcDbBlockEnd
  0
ENDSEC
  0
SECTION
  2
ENTITIES
  0
INSERT
  5
51
330
1F
100
AcDbEntity
  8
1
100
AcDbBlockReference
  2
V22-0A-13
 10
133.7385709387331
 20
2917.277740897449
 30
0.0
  0
INSERT
  5
52
330
1F
100
AcDbEntity
  8
1
100
AcDbBlockReference
  2
64--13-75-M11
 10
573.3593262220693
 20
387.190624556221
 30
0.0
  0
INSERT
  5
53
330
1F
100
AcDbEntity
  8
0
100
AcDbBlockReference
  2
78-167
 10
262.883449161693
 20
417.762230591504
 30
0.0
  0
INSERT
  5
54
330
1F
100
AcDbEntity
  8
1
100
AcDbBlockReference
  2
V22-0A-13-__________
 10
0.00000000000004
 20
1623.5
 30
0.0
  0
INSERT
  5
55
330
1F
100
AcDbEntity
  8
1
100
AcDbBlockReference
  2
36-45
 10
1639.088093660643
 20
87.94528158258061
 30
0.0
  0
INSERT
  5
56
330
1F
100
AcDbEntity
  8
0
100
AcDbBlockReference
  2
66-16-15-200
 10
455.1799498023069
 20
65.13793457449393
 30
0.0
  0
INSERT
  5
57
330
1F
100
AcDbEntity
  8
0
100
AcDbBlockReference
  2
32-12-M2
 10
244.821883097214
 20
-313.6138900216624
 30
0.0
  0
INSERT
  5
58
330
1F
100
AcDbEntity
  8
0
100
AcDbBlockReference
  2
37-1-13
 10
379.8175889873587
 20
-434.9256338759111
 30
0.0
  0
INSERT
  5
59
330
1F
100
AcDbEntity
  8
1
100
AcDbBlockReference
  2
_J__A4
 10
0.0
 20
0.0
 30
0.0
 41
2.0
 42
2.0
 43
2.0
  0
LINE
  5
1FE
330
1F
100
AcDbEntity
  8
1
  6
DASH_CENTER
 62
     2
100
AcDbLine
 10
257.3218830972141
 20
135.5380585002956
 30
0.0
 11
257.321883097214
 21
218.0380585002956
 31
0.0
  0
LINE
  5
1FF
330
1F
100
AcDbEntity
  8
1
  6
DASH_CENTER
 62
     2
100
AcDbLine
 10
218.3218830972141
 20
154.0380585002956
 30
0.0
 11
357.3218830972141
 21
154.0380585002956
 31
0.0
  0
LINE
  5
200
330
1F
100
AcDbEntity
  8
1
  6
DASH_CENTER
 62
     2
100
AcDbLine
 10
71.32188309721397
 20
154.0380585002956
 30
0.0
 11
143.3218830972139
 21
154.0380585002956
 31
0.0
  0
LINE
  5
201
330
1F
100
AcDbEntity
  8
1
  6
DASH_CENTER
 62
     2
100
AcDbLine
 10
107.321883097214
 20
118.0380585002956
 30
0.0
 11
107.321883097214
 21
392.0380585002956
 31
0.0
  0
LINE
  5
202
330
1F
100
AcDbEntity
  8
1
  6
DASH_CENTER
 62
     2
100
AcDbLine
 10
94.97188309721399
 20
418.7701327433636
 30
0.0
 11
119.671883097214
 21
418.7701327433636
 31
0.0
  0
LINE
  5
203
330
1F
100
AcDbEntity
  8
1
  6
DASH_CENTER
 62
     2
100
AcDbLine
 10
88.82188309721397
 20
433.7701327433636
 30
0.0
 11
125.821883097214
 21
433.7701327433636
 31
0.0
  0
LINE
  5
204
330
1F
100
AcDbEntity
  8
1
  6
DASH_CENTER
 62
     2
100
AcDbLine
 10
107.321883097214
 20
394.7701327433635
 30
0.0
 11
107.321883097214
 21
533.7701327433636
 31
0.0
  0
LINE
  5
205
330
1F
100
AcDbEntity
  8
1
  6
DASH_CENTER
 62
     2
100
AcDbLine
 10
242.321883097214
 20
291.0380585002956
 30
0.0
 11
242.321883097214
 21
389.2944099079722
 31
0.0
  0
LINE
  5
206
330
1F
100
AcDbEntity
  8
1
  6
DASH_CENTER
 62
     2
100
AcDbLine
 10
255.3880342701644
 20
233.1483890049561
 30
0.0
 11
244.2557319242636
 21
275.9277279956352
 31
0.0
  0
ARC
  5
207
330
1F
100
AcDbEntity
  8
1
  6
DASH_CENTER
 62
     2
100
AcDbCircle
 10
302.3218830972141
 20
291.0380585002956
 30
0.0
 40
60.00000000000009
100
AcDbArc
 50
180.0
 51
-165.4136479153897
  0
ARC
  5
208
330
1F
100
AcDbEntity
  8
1
  6
DASH_CENTER
 62
     2
100
AcDbCircle
 10
197.321883097214
 20
218.0380585002956
 30
0.0
 40
60.00000000000003
100
AcDbArc
 50
0.0
 51
14.58635208461039
  0
SOLID
  5
209
330
1F
100
AcDbEntity
  8
1
 62
     2
100
AcDbTrace
 10
347.8892933546515
 20
170.7958244486097
 30
0.0
 11
349.4854950580045
 21
169.8742569654979
 31
0.0
 12
345.187394206328
 22
164.2728628805627
 32
0.0
 13
345.187394206328
 23
164.2728628805627
 33
0.0
  0
LEADER
  5
20A
330
1F
100
AcDbEntity
  8
1
  6
Continuous
 62
     2
100
AcDbLeader
  3
Standard
 71
     0
 76
     3
 10
345.187394206328
 20
164.2728628805627
 30
0.0
 10
361.4560986977814
 20
192.451085633084
 30
0.0
 10
389.388906127237
 20
192.451085633084
 30
0.0
  0
MTEXT
  5
20B
330
1F
100
AcDbEntity
  8
1
 62
     7
100
AcDbMText
 10
68.0
 20
61.00000000000001
 30
0.0
 40
7.0
 41
0.0
 71
     4
 72
     1
  1
共用形
  7
CONVERTER_1
 73
     1
 44
0.7202881152461
  0
MTEXT
  5
20C
330
1F
100
AcDbEntity
  8
1
 62
     7
100
AcDbMText
 10
114.0
 20
45.50000000000002
 30
0.0
 40
7.0
 41
0.0
 71
     5
 72
     1
  1
D式アングル止水栓
  7
CONVERTER_1
 73
     1
 44
0.7202881152461
  0
MTEXT
  5
20E
330
1F
100
AcDbEntity
  8
0
 62
     7
100
AcDbMText
 10
375.4225024125092
 20
198.451085633084
 30
0.0
 40
7.0
 41
0.0
 71
     5
 72
     1
  1
R1/2
  7
CONVERTER_2
 73
     1
 44
1.32052821128451
  0
MTEXT
  5
20F
330
1F
100
AcDbEntity
  8
1
 62
     7
100
AcDbMText
 10
68.0
 20
75.0
 30
0.0
 40
7.0
 41
0.0
 71
     4
 72
     1
  1
JIS
  7
CONVERTER_2
 73
     1
 44
1.32052821128451
  0
MTEXT
  5
210
330
1F
100
AcDbEntity
  8
1
 62
     7
100
AcDbMText
 10
114.0
 20
28.5
 30
0.0
 40
7.0
 41
0.0
 71
     5
 72
     1
  1
V22JD-13
  7
CONVERTER_2
 73
     1
 44
0.7202881152461
  0
MTEXT
  5
211
330
1F
100
AcDbEntity
  8
0
 62
     7
100
AcDbMText
 10
170.5
 20
34.0
 30
0.0
 40
7.0
 41
0.0
 71
     5
 72
     1
  1
1
  7
CONVERTER_2
 73
     1
 44
0.7202881152461
  0
MTEXT
  5
212
330
1F
100
AcDbEntity
  8
0
 62
     7
100
AcDbMText
 10
187.5
 20
34.0
 30
0.0
 40
7.0
 41
0.0
 71
     5
 72
     1
  1
2
  7
CONVERTER_2
 73
     1
 44
0.7202881152461
  0
DIMENSION
  5
21F
330
1F
100
AcDbEntity
  8
1
100
AcDbDimension
  2
*D010
 10
319.1485029892946
 20
204.0380585002956
 30
0.0
 11
328.500877891921
 21
209.5380585002956
 31
0.0
  1
<>
 71
     5
 42
0.0
 53
0.00013888888889
  3
ME10_DIM_0
100
AcDbAlignedDimension
 13
335.1485029892946
 23
184.0380585002956
 33
0.0
 14
319.1485029892946
 24
166.2422269769829
 34
0.0
100
AcDbRotatedDimension
  0
DIMENSION
  5
22A
330
1F
100
AcDbEntity
  8
1
100
AcDbDimension
  2
*D111
 10
257.3218830972141
 20
104.0380585002956
 30
0.0
 11
302.472241529188
 21
109.5380585002956
 31
0.0
  1
<>
 71
     5
 42
0.0
 53
0.00013888888889
  3
ME10_DIM_1
100
AcDbAlignedDimension
 13
351.3218830972141
 23
145.2949470539243
 33
0.0
 14
257.3218830972141
 24
135.5380585002956
 34
0.0
100
AcDbRotatedDimension
  0
DIMENSION
  5
236
330
1F
100
AcDbEntity
  8
1
100
AcDbDimension
  2
*D212
 10
224.3218830972141
 20
104.0380585002956
 30
0.0
 11
201.953923824672
 21
109.5380585002956
 31
0.0
  1
33リフト5
 71
     5
 42
0.0
 53
0.00013888888889
  3
ME10_DIM_2
100
AcDbAlignedDimension
 13
257.3218830972141
 23
135.5380585002956
 33
0.0
 14
224.3218830972141
 24
150.2880585002956
 34
0.0
100
AcDbRotatedDimension
  0
DIMENSION
  5
241
330
1F
100
AcDbEntity
  8
1
100
AcDbDimension
  2
*D313
 10
371.3218830972141
 20
184.0380585002956
 30
0.0
 11
365.8218830972141
 21
152.696619611413
 31
0.0
  1
^N1^O60
 71
     5
 42
0.0
 53
90.0
  3
ME10_DIM_3
100
AcDbAlignedDimension
 13
335.1485029892946
 23
124.0380585002956
 33
0.0
 14
335.1485029892946
 24
184.0380585002956
 34
0.0
 50
90.0
100
AcDbRotatedDimension
  0
DIMENSION
  5
24C
330
1F
100
AcDbEntity
  8
1
100
AcDbDimension
  2
*D414
 10
204.3218830972141
 20
186.0380585002956
 30
0.0
 11
198.8218830972141
 21
168.942330819662
 31
0.0
  1
<>
 71
     5
 42
0.0
 53
90.0
  3
ME10_DIM_4
100
AcDbAlignedDimension
 13
218.3218830972141
 23
154.0380585002956
 33
0.0
 14
245.2768572288082
 24
186.0380585002956
 34
0.0
 50
90.0
100
AcDbRotatedDimension
  0
DIMENSION
  5
258
330
1F
100
AcDbEntity
  8
1
100
AcDbDimension
  2
*D515
 10
89.32401556179981
 20
470.1766932442001
 30
0.0
 11
73.0104232570952
 21
475.6766932442001
 31
0.0
 70
     1
  1
<>
 71
     5
 42
0.0
 52
120.0
 53
0.00013888888889
  3
ME10_DIM_5
100
AcDbAlignedDimension
 13
120.3218830972139
 23
461.5201327433638
 33
0.0
 14
94.32188309721401
 24
461.5201327433636
 34
0.0
  0
DIMENSION
  5
264
330
1F
100
AcDbEntity
  8
1
100
AcDbDimension
  2
*D616
 10
85.62603704289157
 20
197.808362969706
 30
0.0
 11
74.0414525510852
 21
203.308362969706
 31
0.0
 70
     1
  1
<>
 71
     5
 42
0.0
 52
135.0
 53
0.00013888888889
  3
ME10_DIM_6
100
AcDbAlignedDimension
 13
118.821883097214
 23
187.6125169153835
 33
0.0
 14
95.82188309721401
 24
187.6125169153835
 34
0.0
  0
DIMENSION
  5
271
330
1F
100
AcDbEntity
  8
0
100
AcDbDimension
  2
*D717
 10
257.321883097214
 20
386.0380585002956
 30
0.0
 11
272.05580580124
 21
391.5380585002956
 31
0.0
  1
<>
 71
     5
 42
0.0
 53
0.00013888888889
  3
ME10_DIM_7
100
AcDbAlignedDimension
 13
242.321883097214
 23
389.2944099079722
 33
0.0
 14
257.321883097214
 24
218.0380585002956
 34
0.0
100
AcDbRotatedDimension
  0
DIMENSION
  5
27E
330
1F
100
AcDbEntity
  8
1
100
AcDbDimension
  2
*D818
 10
235.971883097214
 20
422.0380585002956
 30
0.0
 11
242.505606263861
 21
427.8880585002956
 31
0.0
 70
     1
  1
^N1^O12,7
 71
     5
 42
0.0
 53
0.00013888888889
  3
ME10_DIM_8
100
AcDbAlignedDimension
 13
248.6718830972141
 23
386.0380585002956
 33
0.0
 14
235.971883097214
 24
386.0380585002956
 34
0.0
  0
DIMENSION
  5
289
330
1F
100
AcDbEntity
  8
1
100
AcDbDimension
  2
*D919
 10
204.3218830972141
 20
186.0380585002955
 30
0.0
 11
198.8218830972141
 21
290.0663011570535
 31
0.0
  1
200
 71
     5
 42
0.0
 53
90.0
  3
ME10_DIM_9
100
AcDbAlignedDimension
 13
235.971883097214
 23
386.0380585002956
 33
0.0
 14
245.2768572288082
 24
186.0380585002956
 34
0.0
 50
90.0
100
AcDbRotatedDimension
  0
ENDSEC
  0
SECTION
  2
OBJECTS
  0
DICTIONARY
  5
C
330
0
100
AcDbDictionary
281
     1
  3
ACAD_GROUP
350
D
  3
ACAD_LAYOUT
350
1A
  3
ACAD_MLINESTYLE
350
17
  3
ACAD_PLOTSETTINGS
350
19
  3
ACAD_PLOTSTYLENAME
350
E
  3
ACAD_TABLESTYLE
350
2A
  3
AcDbVariableDictionary
350
2C
  0
DICTIONARY
  5
D
102
{ACAD_REACTORS
330
C
102
}
330
C
100
AcDbDictionary
281
     1
  0
DICTIONARY
  5
1A
102
{ACAD_REACTORS
330
C
102
}
330
C
100
AcDbDictionary
281
     1
  3
Layout1
350
1E
  3
Layout2
350
26
  3
Model
350
22
  0
DICTIONARY
  5
17
102
{ACAD_REACTORS
330
C
102
}
330
C
100
AcDbDictionary
281
     1
  3
Standard
350
18
  0
DICTIONARY
  5
19
102
{ACAD_REACTORS
330
C
102
}
330
C
100
AcDbDictionary
281
     1
  0
ACDBDICTIONARYWDFLT
  5
E
102
{ACAD_REACTORS
330
C
102
}
330
C
100
AcDbDictionary
281
     1
  3
Normal
350
F
100
AcDbDictionaryWithDefault
340
F
  0
DICTIONARY
  5
2A
102
{ACAD_REACTORS
330
C
102
}
330
C
100
AcDbDictionary
281
     1
  3
Standard
350
2B
  0
DICTIONARY
  5
2C
102
{ACAD_REACTORS
330
C
102
}
330
C
100
AcDbDictionary
281
     1
  3
CTABLESTYLE
350
2D
  0
LAYOUT
  5
1E
102
{ACAD_REACTORS
330
1A
102
}
330
1A
100
AcDbPlotSettings
  1

  2

  4

  6

 40
0.0
 41
0.0
 42
0.0
 43
0.0
 44
0.0
 45
0.0
 46
0.0
 47
0.0
 48
0.0
 49
0.0
140
0.0
141
0.0
142
1.0
143
1.0
 70
   688
 72
     0
 73
     0
 74
     5
  7

 75
    16
147
1.0
148
0.0
149
0.0
100
AcDbLayout
  1
Layout1
 70
     1
 71
     1
 10
0.0
 20
0.0
 11
12.0
 21
9.0
 12
0.0
 22
0.0
 32
0.0
 14
1.00000000000000E+20
 24
1.00000000000000E+20
 34
1.00000000000000E+20
 15
-1.00000000000000E+20
 25
-1.00000000000000E+20
 35
-1.00000000000000E+20
146
0.0
 13
0.0
 23
0.0
 33
0.0
 16
1.0
 26
0.0
 36
0.0
 17
0.0
 27
1.0
 37
0.0
 76
     0
330
1B
  0
LAYOUT
  5
26
102
{ACAD_REACTORS
330
1A
102
}
330
1A
100
AcDbPlotSettings
  1

  2

  4

  6

 40
0.0
 41
0.0
 42
0.0
 43
0.0
 44
0.0
 45
0.0
 46
0.0
 47
0.0
 48
0.0
 49
0.0
140
0.0
141
0.0
142
1.0
143
1.0
 70
   688
 72
     0
 73
     0
 74
     5
  7

 75
    16
147
1.0
148
0.0
149
0.0
100
AcDbLayout
  1
Layout2
 70
     1
 71
     2
 10
0.0
 20
0.0
 11
0.0
 21
0.0
 12
0.0
 22
0.0
 32
0.0
 14
0.0
 24
0.0
 34
0.0
 15
0.0
 25
0.0
 35
0.0
146
0.0
 13
0.0
 23
0.0
 33
0.0
 16
1.0
 26
0.0
 36
0.0
 17
0.0
 27
1.0
 37
0.0
 76
     0
330
23
  0
LAYOUT
  5
22
102
{ACAD_REACTORS
330
1A
102
}
330
1A
100
AcDbPlotSettings
  1

  2

  4

  6

 40
0.0
 41
0.0
 42
0.0
 43
0.0
 44
0.0
 45
0.0
 46
0.0
 47
0.0
 48
0.0
 49
0.0
140
0.0
141
0.0
142
1.0
143
1.0
 70
  1712
 72
     0
 73
     0
 74
     0
  7

 75
     0
147
1.0
148
0.0
149
0.0
100
AcDbLayout
  1
Model
 70
     1
 71
     0
 10
0.0
 20
0.0
 11
0.0
 21
0.0
 12
0.0
 22
0.0
 32
0.0
 14
0.0
 24
0.0
 34
0.0
 15
420.0000000000002
 25
594.0
 35
0.0
146
0.0
 13
0.0
 23
0.0
 33
0.0
 16
1.0
 26
0.0
 36
0.0
 17
0.0
 27
1.0
 37
0.0
 76
     0
330
1F
  0
MLINESTYLE
  5
18
102
{ACAD_REACTORS
330
17
102
}
330
17
100
AcDbMlineStyle
  2
Standard
 70
     0
  3

 62
   256
 51
90.0
 52
90.0
 71
     2
 49
0.5
 62
   256
  6
BYLAYER
 49
-0.5
 62
   256
  6
BYLAYER
  0
ACDBPLACEHOLDER
  5
F
102
{ACAD_REACTORS
330
E
102
}
330
E
  0
TABLESTYLE
  5
2B
102
{ACAD_REACTORS
330
2A
102
}
330
2A
100
AcDbTableStyle
  3
Standard
 70
     0
 71
     0
 40
0.06
 41
0.06
280
     0
281
     0
  7
Standard
140
0.18
170
     2
 62
     0
 63
     7
283
     0
274
    -2
284
     1
 64
     0
275
    -2
285
     1
 65
     0
276
    -2
286
     1
 66
     0
277
    -2
287
     1
 67
     0
278
    -2
288
     1
 68
     0
279
    -2
289
     1
 69
     0
  7
Standard
140
0.25
170
     5
 62
     0
 63
     7
283
     0
274
    -2
284
     1
 64
     0
275
    -2
285
     1
 65
     0
276
    -2
286
     1
 66
     0
277
    -2
287
     1
 67
     0
278
    -2
288
     1
 68
     0
279
    -2
289
     1
 69
     0
  7
Standard
140
0.18
170
     5
 62
     0
 63
     7
283
     0
274
    -2
284
     1
 64
     0
275
    -2
285
     1
 65
     0
276
    -2
286
     1
 66
     0
277
    -2
287
     1
 67
     0
278
    -2
288
     1
 68
     0
279
    -2
289
     1
 69
     0
  0
DICTIONARYVAR
  5
2D
102
{ACAD_REACTORS
330
2C
102
}
330
2C
100
DictionaryVariables
280
     0
  1
Standard
  0
ENDSEC
  0
EOF
