  0
SECTION
  2
HEADER
  9
$ACADVER
  1
AC1015
  9
$ACADMAINTVER
 70
     6
  9
$DWGCODEPAGE
  3
DOS932
  9
$INSBASE
 10
0.0
 20
0.0
 30
0.0
  9
$EXTMIN
 10
0.0
 20
0.0
 30
0.0
  9
$EXTMAX
 10
210.0
 20
297.0
 30
0.0
  9
$LIMMIN
 10
0.0
 20
0.0
  9
$LIMMAX
 10
12.0
 20
9.0
  9
$ORTHOMODE
 70
     0
  9
$REGENMODE
 70
     1
  9
$FILLMODE
 70
     1
  9
$QTEXTMODE
 70
     0
  9
$MIRRTEXT
 70
     1
  9
$LTSCALE
 40
1.0
  9
$ATTMODE
 70
     1
  9
$TEXTSIZE
 40
0.2
  9
$TRACEWID
 40
0.05
  9
$TEXTSTYLE
  7
Standard
  9
$CLAYER
  8
0
  9
$CELTYPE
  6
ByLayer
  9
$CECOLOR
 62
   256
  9
$CELTSCALE
 40
1.0
  9
$DISPSILH
 70
     0
  9
$DIMSCALE
 40
1.0
  9
$DIMASZ
 40
0.18
  9
$DIMEXO
 40
0.0625
  9
$DIMDLI
 40
0.38
  9
$DIMRND
 40
0.0
  9
$DIMDLE
 40
0.0
  9
$DIMEXE
 40
0.18
  9
$DIMTP
 40
0.0
  9
$DIMTM
 40
0.0
  9
$DIMTXT
 40
0.18
  9
$DIMCEN
 40
0.09
  9
$DIMTSZ
 40
0.0
  9
$DIMTOL
 70
     0
  9
$DIMLIM
 70
     0
  9
$DIMTIH
 70
     1
  9
$DIMTOH
 70
     1
  9
$DIMSE1
 70
     0
  9
$DIMSE2
 70
     0
  9
$DIMTAD
 70
     0
  9
$DIMZIN
 70
     0
  9
$DIMBLK
  1

  9
$DIMASO
 70
     1
  9
$DIMSHO
 70
     1
  9
$DIMPOST
  1

  9
$DIMAPOST
  1

  9
$DIMALT
 70
     0
  9
$DIMALTD
 70
     2
  9
$DIMALTF
 40
25.4
  9
$DIMLFAC
 40
1.0
  9
$DIMTOFL
 70
     0
  9
$DIMTVP
 40
0.0
  9
$DIMTIX
 70
     0
  9
$DIMSOXD
 70
     0
  9
$DIMSAH
 70
     0
  9
$DIMBLK1
  1

  9
$DIMBLK2
  1

  9
$DIMSTYLE
  2
Standard
  9
$DIMCLRD
 70
     0
  9
$DIMCLRE
 70
     0
  9
$DIMCLRT
 70
     0
  9
$DIMTFAC
 40
1.0
  9
$DIMGAP
 40
0.09
  9
$DIMJUST
 70
     0
  9
$DIMSD1
 70
     0
  9
$DIMSD2
 70
     0
  9
$DIMTOLJ
 70
     1
  9
$DIMTZIN
 70
     0
  9
$DIMALTZ
 70
     0
  9
$DIMALTTZ
 70
     0
  9
$DIMUPT
 70
     0
  9
$DIMDEC
 70
     4
  9
$DIMTDEC
 70
     4
  9
$DIMALTU
 70
     2
  9
$DIMALTTD
 70
     2
  9
$DIMTXSTY
  7
Standard
  9
$DIMAUNIT
 70
     0
  9
$DIMADEC
 70
     0
  9
$DIMALTRND
 40
0.0
  9
$DIMAZIN
 70
     0
  9
$DIMDSEP
 70
    46
  9
$DIMATFIT
 70
     3
  9
$DIMFRAC
 70
     0
  9
$DIMLDRBLK
  1

  9
$DIMLUNIT
 70
     2
  9
$DIMLWD
 70
    -2
  9
$DIMLWE
 70
    -2
  9
$DIMTMOVE
 70
     0
  9
$LUNITS
 70
     2
  9
$LUPREC
 70
     4
  9
$SKETCHINC
 40
0.1
  9
$FILLETRAD
 40
0.5
  9
$AUNITS
 70
     0
  9
$AUPREC
 70
     0
  9
$MENU
  1
.
  9
$ELEVATION
 40
0.0
  9
$PELEVATION
 40
0.0
  9
$THICKNESS
 40
0.0
  9
$LIMCHECK
 70
     0
  9
$CHAMFERA
 40
0.5
  9
$CHAMFERB
 40
0.5
  9
$CHAMFERC
 40
1.0
  9
$CHAMFERD
 40
0.0
  9
$SKPOLY
 70
     0
  9
$TDCREATE
 40
2456143.423089549
  9
$TDUCREATE
 40
2456143.048089549
  9
$TDUPDATE
 40
2456143.42308956
  9
$TDUUPDATE
 40
2456143.04808956
  9
$TDINDWG
 40
0.0000000116
  9
$TDUSRTIMER
 40
0.0000000116
  9
$USRTIMER
 70
     1
  9
$ANGBASE
 50
0.0
  9
$ANGDIR
 70
     0
  9
$PDMODE
 70
     0
  9
$PDSIZE
 40
0.0
  9
$PLINEWID
 40
0.0
  9
$SPLFRAME
 70
     0
  9
$SPLINETYPE
 70
     6
  9
$SPLINESEGS
 70
     8
  9
$HANDSEED
  5
239
  9
$SURFTAB1
 70
     6
  9
$SURFTAB2
 70
     6
  9
$SURFTYPE
 70
     6
  9
$SURFU
 70
     6
  9
$SURFV
 70
     6
  9
$UCSBASE
  2

  9
$UCSNAME
  2

  9
$UCSORG
 10
0.0
 20
0.0
 30
0.0
  9
$UCSXDIR
 10
1.0
 20
0.0
 30
0.0
  9
$UCSYDIR
 10
0.0
 20
1.0
 30
0.0
  9
$UCSORTHOREF
  2

  9
$UCSORTHOVIEW
 70
     0
  9
$UCSORGTOP
 10
0.0
 20
0.0
 30
0.0
  9
$UCSORGBOTTOM
 10
0.0
 20
0.0
 30
0.0
  9
$UCSORGLEFT
 10
0.0
 20
0.0
 30
0.0
  9
$UCSORGRIGHT
 10
0.0
 20
0.0
 30
0.0
  9
$UCSORGFRONT
 10
0.0
 20
0.0
 30
0.0
  9
$UCSORGBACK
 10
0.0
 20
0.0
 30
0.0
  9
$PUCSBASE
  2

  9
$PUCSNAME
  2

  9
$PUCSORG
 10
0.0
 20
0.0
 30
0.0
  9
$PUCSXDIR
 10
1.0
 20
0.0
 30
0.0
  9
$PUCSYDIR
 10
0.0
 20
1.0
 30
0.0
  9
$PUCSORTHOREF
  2

  9
$PUCSORTHOVIEW
 70
     0
  9
$PUCSORGTOP
 10
0.0
 20
0.0
 30
0.0
  9
$PUCSORGBOTTOM
 10
0.0
 20
0.0
 30
0.0
  9
$PUCSORGLEFT
 10
0.0
 20
0.0
 30
0.0
  9
$PUCSORGRIGHT
 10
0.0
 20
0.0
 30
0.0
  9
$PUCSORGFRONT
 10
0.0
 20
0.0
 30
0.0
  9
$PUCSORGBACK
 10
0.0
 20
0.0
 30
0.0
  9
$USERI1
 70
     0
  9
$USERI2
 70
     0
  9
$USERI3
 70
     0
  9
$USERI4
 70
     0
  9
$USERI5
 70
     0
  9
$USERR1
 40
13.2
  9
$USERR2
 40
0.0
  9
$USERR3
 40
0.0
  9
$USERR4
 40
0.0
  9
$USERR5
 40
0.0
  9
$WORLDVIEW
 70
     1
  9
$SHADEDGE
 70
     3
  9
$SHADEDIF
 70
    70
  9
$TILEMODE
 70
     1
  9
$MAXACTVP
 70
    64
  9
$PINSBASE
 10
0.0
 20
0.0
 30
0.0
  9
$PLIMCHECK
 70
     0
  9
$PEXTMIN
 10
1.00000000000000E+20
 20
1.00000000000000E+20
 30
1.00000000000000E+20
  9
$PEXTMAX
 10
-1.00000000000000E+20
 20
-1.00000000000000E+20
 30
-1.00000000000000E+20
  9
$PLIMMIN
 10
0.0
 20
0.0
  9
$PLIMMAX
 10
12.0
 20
9.0
  9
$UNITMODE
 70
     0
  9
$VISRETAIN
 70
     1
  9
$PLINEGEN
 70
     0
  9
$PSLTSCALE
 70
     1
  9
$TREEDEPTH
 70
  3020
  9
$CMLSTYLE
  2
Standard
  9
$CMLJUST
 70
     0
  9
$CMLSCALE
 40
1.0
  9
$PROXYGRAPHICS
 70
     1
  9
$MEASUREMENT
 70
     1
  9
$CELWEIGHT
370
    -1
  9
$ENDCAPS
280
     0
  9
$JOINSTYLE
280
     0
  9
$LWDISPLAY
290
     0
  9
$INSUNITS
 70
     1
  9
$HYPERLINKBASE
  1

  9
$STYLESHEET
  1

  9
$XEDIT
290
     1
  9
$CEPSNTYPE
380
     0
  9
$PSTYLEMODE
290
     0
  9
$FINGERPRINTGUID
  2
{FAEB1C30-E019-11D5-929B-00C0DF256EC4}
  9
$VERSIONGUID
  2
{FAEB1C32-E019-11D5-929B-00C0DF256EC4}
  9
$EXTNAMES
290
     1
  9
$PSVPSCALE
 40
0.0
  9
$OLESTARTUP
290
     0
  0
ENDSEC
  0
SECTION
  2
CLASSES
  0
CLASS
  1
ACDBDICTIONARYWDFLT
  2
AcDbDictionaryWithDefault
  3
ObjectDBX Classes
 90
        0
280
     0
281
     0
  0
CLASS
  1
TABLESTYLE
  2
AcDbTableStyle
  3
ObjectDBX Classes
 90
     2047
280
     0
281
     0
  0
CLASS
  1
DICTIONARYVAR
  2
AcDbDictionaryVar
  3
ObjectDBX Classes
 90
        0
280
     0
281
     0
  0
CLASS
  1

  2
exOdDbCircle
  3

 90
        0
280
     0
281
     1
  0
CLASS
  1

  2
exOdDbSpline
  3

 90
        0
280
     0
281
     1
  0
CLASS
  1
ACDBPLACEHOLDER
  2
AcDbPlaceHolder
  3
ObjectDBX Classes
 90
        0
280
     0
281
     0
  0
CLASS
  1
LAYOUT
  2
AcDbLayout
  3
ObjectDBX Classes
 90
        0
280
     0
281
     0
  0
ENDSEC
  0
SECTION
  2
TABLES
  0
TABLE
  2
VPORT
  5
8
330
0
100
AcDbSymbolTable
 70
     2
  0
VPORT
  5
29
330
8
100
AcDbSymbolTableRecord
100
AcDbViewportTableRecord
  2
*Active
 70
     0
 10
0.0
 20
0.0
 11
1.0
 21
1.0
 12
105.0
 22
148.5
 13
0.0
 23
0.0
 14
0.5
 24
0.5
 15
0.5
 25
0.5
 16
0.0
 26
0.0
 36
1.0
 17
0.0
 27
0.0
 37
0.0
 40
326.7000000000001
 41
1.60267857142857
 42
50.0
 43
0.0
 44
0.0
 50
0.0
 51
0.0
 71
     0
 72
   100
 73
     1
 74
     3
 75
     0
 76
     0
 77
     0
 78
     0
281
     0
 65
     1
110
0.0
120
0.0
130
0.0
111
1.0
121
0.0
131
0.0
112
0.0
122
1.0
132
0.0
 79
     0
146
0.0
  0
ENDTAB
  0
TABLE
  2
LTYPE
  5
5
330
0
100
AcDbSymbolTable
 70
     8
  0
LTYPE
  5
14
330
5
100
AcDbSymbolTableRecord
100
AcDbLinetypeTableRecord
  2
ByBlock
 70
     0
  3

 72
    65
 73
     0
 40
0.0
  0
LTYPE
  5
15
330
5
100
AcDbSymbolTableRecord
100
AcDbLinetypeTableRecord
  2
ByLayer
 70
     0
  3

 72
    65
 73
     0
 40
0.0
  0
LTYPE
  5
16
330
5
100
AcDbSymbolTableRecord
100
AcDbLinetypeTableRecord
  2
Continuous
 70
     0
  3
Solid line
 72
    65
 73
     0
 40
0.0
  0
LTYPE
  5
2E
330
5
100
AcDbSymbolTableRecord
100
AcDbLinetypeTableRecord
  2
DASHED
 70
     0
  3
Dashed
 72
    65
 73
     2
 40
15.0
 49
7.0
 74
     0
 49
-8.0
 74
     0
  0
LTYPE
  5
2F
330
5
100
AcDbSymbolTableRecord
100
AcDbLinetypeTableRecord
  2
DOTTED
 70
     0
  3
Dotted
 72
    65
 73
     2
 40
1.0
 49
0.0
 74
     0
 49
-1.0
 74
     0
  0
LTYPE
  5
30
330
5
100
AcDbSymbolTableRecord
100
AcDbLinetypeTableRecord
  2
DOT_CENTER
 70
     0
  3
Dot_Center
 72
    65
 73
     4
 40
14.0
 49
12.0
 74
     0
 49
-1.0
 74
     0
 49
0.0
 74
     0
 49
-1.0
 74
     0
  0
LTYPE
  5
31
330
5
100
AcDbSymbolTableRecord
100
AcDbLinetypeTableRecord
  2
LONG_DASHED
 70
     0
  3
Long_Dashed
 72
    65
 73
     2
 40
15.0
 49
10.0
 74
     0
 49
-5.0
 74
     0
  0
LTYPE
  5
32
330
5
100
AcDbSymbolTableRecord
100
AcDbLinetypeTableRecord
  2
DASH_CENTER
 70
     0
  3
Dash_Center
 72
    65
 73
     4
 40
14.0
 49
11.0
 74
     0
 49
-1.0
 74
     0
 49
1.0
 74
     0
 49
-1.0
 74
     0
  0
LTYPE
  5
33
330
5
100
AcDbSymbolTableRecord
100
AcDbLinetypeTableRecord
  2
PHANTOM
 70
     0
  3
Phantom
 72
    65
 73
     6
 40
13.0
 49
10.0
 74
     0
 49
-1.0
 74
     0
 49
0.0
 74
     0
 49
-1.0
 74
     0
 49
0.0
 74
     0
 49
-1.0
 74
     0
  0
LTYPE
  5
34
330
5
100
AcDbSymbolTableRecord
100
AcDbLinetypeTableRecord
  2
CENTER_DASH_DASH
 70
     0
  3
Center_Dash_Dash
 72
    65
 73
     6
 40
14.0
 49
9.0
 74
     0
 49
-1.0
 74
     0
 49
1.0
 74
     0
 49
-1.0
 74
     0
 49
1.0
 74
     0
 49
-1.0
 74
     0
  0
ENDTAB
  0
TABLE
  2
LAYER
  5
2
330
0
100
AcDbSymbolTable
 70
     2
  0
LAYER
  5
10
330
2
100
AcDbSymbolTableRecord
100
AcDbLayerTableRecord
  2
0
 70
     0
 62
     7
  6
Continuous
370
    -3
390
F
  0
LAYER
  5
35
330
2
100
AcDbSymbolTableRecord
100
AcDbLayerTableRecord
  2
1
 70
     0
 62
     7
  6
Continuous
370
    -3
390
F
  0
ENDTAB
  0
TABLE
  2
STYLE
  5
3
330
0
100
AcDbSymbolTable
 70
     3
  0
STYLE
  5
11
330
3
100
AcDbSymbolTableRecord
100
AcDbTextStyleTableRecord
  2
Standard
 70
     0
 40
0.0
 41
1.0
 50
0.0
 71
     0
 42
0.2
  3
txt
  4

  0
STYLE
  5
1DB
330
3
100
AcDbSymbolTableRecord
100
AcDbTextStyleTableRecord
  2
CONVERTER_1
 70
     0
 40
0.0
 41
0.89
 50
0.0
 71
     0
 42
0.2
  3
msmincho.ttc
  4

1001
ACAD
1000
MS Mincho
1071
    32785
  0
STYLE
  5
20A
330
3
100
AcDbSymbolTableRecord
100
AcDbTextStyleTableRecord
  2
CONVERTER_2
 70
     0
 40
0.0
 41
0.9
 50
0.0
 71
     0
 42
0.2
  3
txt.shx
  4

  0
ENDTAB
  0
TABLE
  2
VIEW
  5
6
330
0
100
AcDbSymbolTable
 70
     0
  0
ENDTAB
  0
TABLE
  2
UCS
  5
7
330
0
100
AcDbSymbolTable
 70
     0
  0
ENDTAB
  0
TABLE
  2
APPID
  5
9
330
0
100
AcDbSymbolTable
 70
     1
  0
APPID
  5
12
330
9
100
AcDbSymbolTableRecord
100
AcDbRegAppTableRecord
  2
ACAD
 70
     0
  0
ENDTAB
  0
TABLE
  2
DIMSTYLE
  5
A
330
0
100
AcDbSymbolTable
 70
     4
100
AcDbDimStyleTable
  0
DIMSTYLE
105
27
330
A
100
AcDbSymbolTableRecord
100
AcDbDimStyleTableRecord
  2
Standard
 70
     0
340
11
  0
DIMSTYLE
105
221
102
{ACAD_REACTORS
330
222
102
}
330
A
100
AcDbSymbolTableRecord
100
AcDbDimStyleTableRecord
  2
ME10_DIM_0
 70
     0
 41
3.5
 42
0.0
 44
1.0
 73
     0
 74
     0
 77
     1
 78
     8
140
3.5
147
0.625
172
     1
173
     1
176
     2
177
     2
178
     7
271
     2
340
20A
  0
DIMSTYLE
105
22C
102
{ACAD_REACTORS
330
22D
102
}
330
A
100
AcDbSymbolTableRecord
100
AcDbDimStyleTableRecord
  2
ME10_DIM_1
 70
     0
 41
3.5
 42
0.0
 44
1.0
 73
     0
 74
     0
 77
     1
 78
     8
140
3.5
147
0.625
172
     1
173
     1
176
     2
177
     2
178
     7
271
     2
340
20A
  0
DIMSTYLE
105
237
102
{ACAD_REACTORS
330
238
102
}
330
A
100
AcDbSymbolTableRecord
100
AcDbDimStyleTableRecord
  2
ME10_DIM_2
 70
     0
 41
3.5
 42
0.0
 44
1.0
 73
     0
 74
     0
 77
     1
 78
     8
140
3.5
147
0.625
172
     1
173
     1
176
     2
177
     2
178
     7
271
     2
340
1DB
  0
ENDTAB
  0
TABLE
  2
BLOCK_RECORD
  5
1
330
0
100
AcDbSymbolTable
 70
    12
  0
BLOCK_RECORD
  5
1F
330
1
100
AcDbSymbolTableRecord
100
AcDbBlockTableRecord
  2
*Model_Space
340
22
  0
BLOCK_RECORD
  5
1B
330
1
100
AcDbSymbolTableRecord
100
AcDbBlockTableRecord
  2
*Paper_Space
340
1E
  0
BLOCK_RECORD
  5
23
330
1
100
AcDbSymbolTableRecord
100
AcDbBlockTableRecord
  2
*Paper_Space0
340
26
  0
BLOCK_RECORD
  5
36
330
1
100
AcDbSymbolTableRecord
100
AcDbBlockTableRecord
  2
V231-0-13
340
0
102
{BLKREFS
331
53
102
}
  0
BLOCK_RECORD
  5
39
330
1
100
AcDbSymbolTableRecord
100
AcDbBlockTableRecord
  2
21-1A
340
0
102
{BLKREFS
331
49
102
}
  0
BLOCK_RECORD
  5
3C
330
1
100
AcDbSymbolTableRecord
100
AcDbBlockTableRecord
  2
37-1-13
340
0
102
{BLKREFS
331
4A
102
}
  0
BLOCK_RECORD
  5
3F
330
1
100
AcDbSymbolTableRecord
100
AcDbBlockTableRecord
  2
42-1
340
0
102
{BLKREFS
331
4B
102
}
  0
BLOCK_RECORD
  5
42
330
1
100
AcDbSymbolTableRecord
100
AcDbBlockTableRecord
  2
36-1A-13-M4
340
0
102
{BLKREFS
331
4C
102
}
  0
BLOCK_RECORD
  5
45
330
1
100
AcDbSymbolTableRecord
100
AcDbBlockTableRecord
  2
41-1-15
340
0
102
{BLKREFS
331
4D
102
}
  0
BLOCK_RECORD
  5
48
330
1
100
AcDbSymbolTableRecord
100
AcDbBlockTableRecord
  2
R10A
340
0
102
{BLKREFS
331
54
102
}
  0
BLOCK_RECORD
  5
50
330
1
100
AcDbSymbolTableRecord
100
AcDbBlockTableRecord
  2
_J__A4
340
0
102
{BLKREFS
331
55
102
}
  0
BLOCK_RECORD
  5
218
330
1
100
AcDbSymbolTableRecord
100
AcDbBlockTableRecord
  2
*D09
340
0
  0
BLOCK_RECORD
  5
223
330
1
100
AcDbSymbolTableRecord
100
AcDbBlockTableRecord
  2
*D110
340
0
  0
BLOCK_RECORD
  5
22E
330
1
100
AcDbSymbolTableRecord
100
AcDbBlockTableRecord
  2
*D211
340
0
  0
ENDTAB
  0
ENDSEC
  0
SECTION
  2
BLOCKS
  0
BLOCK
  5
20
330
1F
100
AcDbEntity
  8
0
100
AcDbBlockBegin
  2
*Model_Space
 70
     0
 71
     0
 10
0.0
 20
0.0
 30
0.0
  3
*Model_Space
  1

  0
ENDBLK
  5
21
330
1F
100
AcDbEntity
  8
0
100
AcDbBlockEnd
  0
BLOCK
  5
1C
330
1B
100
AcDbEntity
 67
     1
  8
0
100
AcDbBlockBegin
  2
*Paper_Space
 70
     0
 71
     0
 10
0.0
 20
0.0
 30
0.0
  3
*Paper_Space
  1

  0
ENDBLK
  5
1D
330
1B
100
AcDbEntity
 67
     1
  8
0
100
AcDbBlockEnd
  0
BLOCK
  5
24
330
23
100
AcDbEntity
  8
0
100
AcDbBlockBegin
  2
*Paper_Space0
 70
     0
 71
     0
 10
0.0
 20
0.0
 30
0.0
  3
*Paper_Space0
  1

  0
ENDBLK
  5
25
330
23
100
AcDbEntity
  8
0
100
AcDbBlockEnd
  0
BLOCK
  5
37
330
36
100
AcDbEntity
  8
0
100
AcDbBlockBegin
  2
V231-0-13
 70
     0
 71
     0
 10
210.0
 20
0.0
 30
0.0
  3
V231-0-13
  1

  0
LINE
  5
56
330
36
100
AcDbEntity
  8
1
  6
PHANTOM
 62
     4
100
AcDbLine
 10
148.487922361031
 20
124.3141228742612
 30
0.0
 11
148.487922361031
 21
73.31412287426123
 31
0.0
  0
LINE
  5
57
330
36
100
AcDbEntity
  8
1
  6
Continuous
 62
     7
100
AcDbLine
 10
53.40189335400601
 20
95.31412287426124
 30
0.0
 11
71.0074275876641
 21
95.31412287426124
 31
0.0
  0
LINE
  5
58
330
36
100
AcDbEntity
  8
1
  6
Continuous
 62
     7
100
AcDbLine
 10
136.487922361031
 20
117.7438141624462
 30
0.0
 11
136.487922361031
 21
116.3141228742612
 31
0.0
  0
LINE
  5
59
330
36
100
AcDbEntity
  8
1
  6
Continuous
 62
     2
100
AcDbLine
 10
159.674922361031
 20
117.7438141624461
 30
0.0
 11
159.674922361031
 21
116.3141228742612
 31
0.0
  0
LINE
  5
5A
330
36
100
AcDbEntity
  8
1
  6
Continuous
 62
     7
100
AcDbLine
 10
74.20466047083505
 20
114.9059655677077
 30
0.0
 11
74.20466047083505
 21
117.7446896092317
 31
0.0
  0
LINE
  5
5B
330
36
100
AcDbEntity
  8
1
  6
Continuous
 62
     7
100
AcDbLine
 10
50.20466047083505
 20
117.7446896092317
 30
0.0
 11
50.20466047083505
 21
114.9059655677077
 31
0.0
  0
LINE
  5
5C
330
36
100
AcDbEntity
  8
1
  6
Continuous
 62
     2
100
AcDbLine
 10
51.01766047083504
 20
117.7446896092317
 30
0.0
 11
51.01766047083504
 21
116.3141228742612
 31
0.0
  0
LINE
  5
5D
330
36
100
AcDbEntity
  8
1
  6
Continuous
 62
     2
100
AcDbLine
 10
73.39166047083518
 20
117.7446896092317
 30
0.0
 11
73.39166047083518
 21
116.3141228742612
 31
0.0
  0
LINE
  5
5E
330
36
100
AcDbEntity
  8
1
  6
Continuous
 62
     7
100
AcDbLine
 10
49.70466047083505
 20
243.9534535852098
 30
0.0
 11
74.70466047083505
 21
243.9534535852098
 31
0.0
  0
LINE
  5
5F
330
36
100
AcDbEntity
  8
1
  6
Continuous
 62
     7
100
AcDbLine
 10
49.20466047083534
 20
243.0874281814258
 30
0.0
 11
49.70466047083505
 21
243.9534535852098
 31
0.0
  0
LINE
  5
60
330
36
100
AcDbEntity
  8
1
  6
Continuous
 62
     7
100
AcDbLine
 10
74.70466047083505
 20
243.9534535852098
 30
0.0
 11
75.20466047083517
 21
243.0874281814251
 31
0.0
  0
LINE
  5
61
330
36
100
AcDbEntity
  8
1
  6
Continuous
 62
     7
100
AcDbLine
 10
49.20466047083505
 20
184.8194789889942
 30
0.0
 11
49.20466047083522
 21
199.9645605841401
 31
0.0
  0
LINE
  5
62
330
36
100
AcDbEntity
  8
1
  6
Continuous
 62
     7
100
AcDbLine
 10
49.20466047083505
 20
184.8194789889942
 30
0.0
 11
49.20466047083522
 21
199.9645605841401
 31
0.0
  0
LINE
  5
63
330
36
100
AcDbEntity
  8
1
  6
Continuous
 62
     7
100
AcDbLine
 10
49.20466047083505
 20
184.8194789889942
 30
0.0
 11
49.20466047083522
 21
199.9645605841401
 31
0.0
  0
LINE
  5
64
330
36
100
AcDbEntity
  8
1
  6
Continuous
 62
     7
100
AcDbLine
 10
49.70466047083505
 20
183.9534535852098
 30
0.0
 11
49.20466047083505
 21
184.8194789889942
 31
0.0
  0
LINE
  5
65
330
36
100
AcDbEntity
  8
1
  6
Continuous
 62
     7
100
AcDbLine
 10
74.70466047083505
 20
183.9534535852098
 30
0.0
 11
65.52128526119049
 21
183.9534535852098
 31
0.0
  0
LINE
  5
66
330
36
100
AcDbEntity
  8
1
  6
Continuous
 62
     7
100
AcDbLine
 10
75.20466047083522
 20
184.8194789889945
 30
0.0
 11
75.20466047083522
 21
199.9645605841403
 31
0.0
  0
LINE
  5
67
330
36
100
AcDbEntity
  8
1
  6
Continuous
 62
     7
100
AcDbLine
 10
74.70466047083505
 20
183.9534535852098
 30
0.0
 11
75.20466047083522
 21
184.8194789889945
 31
0.0
  0
LINE
  5
68
330
36
100
AcDbEntity
  8
1
  6
Continuous
 62
     7
100
AcDbLine
 10
49.20466047083522
 20
230.3471799800531
 30
0.0
 11
49.20466047083534
 21
243.0874281814258
 31
0.0
  0
LINE
  5
69
330
36
100
AcDbEntity
  8
1
  6
Continuous
 62
     7
100
AcDbLine
 10
75.20466047083522
 20
230.3471799800531
 30
0.0
 11
75.20466047083517
 21
243.0874281814251
 31
0.0
  0
LINE
  5
6A
330
36
100
AcDbEntity
  8
1
  6
Continuous
 62
     7
100
AcDbLine
 10
58.88803568047996
 20
183.9534535852098
 30
0.0
 11
49.70466047083505
 21
183.9534535852098
 31
0.0
  0
LINE
  5
6B
330
36
100
AcDbEntity
  8
1
  6
Continuous
 62
     7
100
AcDbLine
 10
75.20466047083522
 20
199.9645605841403
 30
0.0
 11
75.00321185889055
 21
200.1660091960848
 31
0.0
  0
LINE
  5
6C
330
36
100
AcDbEntity
  8
1
  6
Continuous
 62
     7
100
AcDbLine
 10
49.48644669071831
 20
200.2463468040232
 30
0.0
 11
49.20466047083522
 21
199.9645605841401
 31
0.0
  0
LINE
  5
6D
330
36
100
AcDbEntity
  8
1
  6
Continuous
 62
     7
100
AcDbLine
 10
49.48644669071831
 20
200.2463468040232
 30
0.0
 11
49.20466047083522
 21
199.9645605841401
 31
0.0
  0
LINE
  5
6E
330
36
100
AcDbEntity
  8
1
  6
Continuous
 62
     7
100
AcDbLine
 10
62.20466047083522
 20
229.9534535852098
 30
0.0
 11
62.20466047083522
 21
241.9423465862796
 31
0.0
  0
LINE
  5
6F
330
36
100
AcDbEntity
  8
1
  6
Continuous
 62
     7
100
AcDbLine
 10
164.487922361031
 20
84.80856937479611
 30
0.0
 11
176.4768153621008
 21
84.80856937479611
 31
0.0
  0
LINE
  5
70
330
36
100
AcDbEntity
  8
1
  6
Continuous
 62
     7
100
AcDbLine
 10
164.487922361031
 20
99.81967637372648
 30
0.0
 11
176.4768153621008
 21
99.81967637372648
 31
0.0
  0
LINE
  5
71
330
36
100
AcDbEntity
  8
1
  6
Continuous
 62
     7
100
AcDbLine
 10
120.4990293599612
 20
77.31412287426123
 30
0.0
 11
119.6936937269711
 21
77.31412287426123
 31
0.0
  0
LINE
  5
72
330
36
100
AcDbEntity
  8
1
  6
Continuous
 62
     7
100
AcDbLine
 10
120.4990293599612
 20
84.80856937479611
 30
0.0
 11
132.487922361031
 21
84.80856937479611
 31
0.0
  0
LINE
  5
73
330
36
100
AcDbEntity
  8
1
  6
Continuous
 62
     7
100
AcDbLine
 10
120.4990293599612
 20
99.81967637372648
 30
0.0
 11
132.487922361031
 21
99.81967637372648
 31
0.0
  0
LINE
  5
74
330
36
100
AcDbEntity
  8
1
  6
Continuous
 62
     7
100
AcDbLine
 10
118.487922361031
 20
81.81412287426123
 30
0.0
 11
118.487922361031
 21
105.2256656061414
 31
0.0
  0
LINE
  5
75
330
36
100
AcDbEntity
  8
1
  6
Continuous
 62
     7
100
AcDbLine
 10
118.487922361031
 20
79.40258014238114
 30
0.0
 11
118.487922361031
 21
81.81412287426123
 31
0.0
  0
LINE
  5
76
330
36
100
AcDbEntity
  8
0
  6
Continuous
 62
     7
100
AcDbLine
 10
132.487922361031
 20
77.31412287426123
 30
0.0
 11
132.6676154492449
 21
77.62536043281673
 31
0.0
  0
LINE
  5
77
330
36
100
AcDbEntity
  8
1
  6
Continuous
 62
     7
100
AcDbLine
 10
136.487922361031
 20
116.3141228742612
 30
0.0
 11
136.487922361031
 21
114.9059655677077
 31
0.0
  0
LINE
  5
78
330
36
100
AcDbEntity
  8
1
  6
Continuous
 62
     7
100
AcDbLine
 10
136.487922361031
 20
116.3141228742612
 30
0.0
 11
137.300922361031
 21
116.3141228742612
 31
0.0
  0
LINE
  5
79
330
36
100
AcDbEntity
  8
1
  6
Continuous
 62
     2
100
AcDbLine
 10
137.300922361031
 20
116.3141228742612
 30
0.0
 11
136.487922361031
 21
114.9059655677077
 31
0.0
  0
LINE
  5
7A
330
36
100
AcDbEntity
  8
1
  6
Continuous
 62
     2
100
AcDbLine
 10
137.300922361031
 20
116.3141228742612
 30
0.0
 11
137.300922361031
 21
117.7438141624462
 31
0.0
  0
LINE
  5
7B
330
36
100
AcDbEntity
  8
0
  6
Continuous
 62
     7
100
AcDbLine
 10
136.487922361031
 20
114.9059655677077
 30
0.0
 11
135.6340376151325
 21
108.9258815833736
 31
0.0
  0
LINE
  5
7C
330
36
100
AcDbEntity
  8
1
  6
Continuous
 62
     2
100
AcDbLine
 10
157.987922361031
 20
105.3072731583168
 30
0.0
 11
157.987922361031
 21
105.3141228742612
 31
0.0
  0
LINE
  5
7D
330
36
100
AcDbEntity
  8
1
  6
Continuous
 62
     7
100
AcDbLine
 10
160.487922361031
 20
114.9059655677077
 30
0.0
 11
160.487922361031
 21
116.3141228742612
 31
0.0
  0
LINE
  5
7E
330
36
100
AcDbEntity
  8
1
  6
Continuous
 62
     7
100
AcDbLine
 10
160.487922361031
 20
116.3141228742612
 30
0.0
 11
160.487922361031
 21
117.7438141624461
 31
0.0
  0
LINE
  5
7F
330
36
100
AcDbEntity
  8
1
  6
Continuous
 62
     7
100
AcDbLine
 10
136.487922361031
 20
116.3141228742612
 30
0.0
 11
160.487922361031
 21
116.3141228742612
 31
0.0
  0
LINE
  5
80
330
36
100
AcDbEntity
  8
1
  6
Continuous
 62
     2
100
AcDbLine
 10
160.487922361031
 20
114.9059655677077
 30
0.0
 11
159.674922361031
 21
116.3141228742612
 31
0.0
  0
LINE
  5
81
330
36
100
AcDbEntity
  8
0
  6
Continuous
 62
     7
100
AcDbLine
 10
161.3418071069294
 20
108.9258815833736
 30
0.0
 11
160.487922361031
 21
114.9059655677077
 31
0.0
  0
LINE
  5
82
330
36
100
AcDbEntity
  8
1
  6
PHANTOM
 62
     4
100
AcDbLine
 10
115.487922361031
 20
92.31412287426124
 30
0.0
 11
181.487922361031
 21
92.31412287426124
 31
0.0
  0
LINE
  5
83
330
36
100
AcDbEntity
  8
1
  6
Continuous
 62
     7
100
AcDbLine
 10
178.487922361031
 20
105.2256656061414
 30
0.0
 11
178.487922361031
 21
79.40258014238114
 31
0.0
  0
LINE
  5
84
330
36
100
AcDbEntity
  8
1
  6
Continuous
 62
     7
100
AcDbLine
 10
164.308229272817
 20
77.62536043281673
 30
0.0
 11
164.487922361031
 21
77.31412287426123
 31
0.0
  0
LINE
  5
85
330
36
100
AcDbEntity
  8
1
  6
Continuous
 62
     7
100
AcDbLine
 10
132.487922361031
 20
77.31412287426123
 30
0.0
 11
120.4990293599612
 21
77.31412287426123
 31
0.0
  0
LINE
  5
86
330
36
100
AcDbEntity
  8
1
  6
Continuous
 62
     7
100
AcDbLine
 10
164.487922361031
 20
107.3141228742612
 30
0.0
 11
177.2821509950909
 21
107.3141228742612
 31
0.0
  0
LINE
  5
87
330
36
100
AcDbEntity
  8
1
  6
Continuous
 62
     7
100
AcDbLine
 10
119.693693726971
 20
107.3141228742612
 30
0.0
 11
132.487922361031
 21
107.3141228742612
 31
0.0
  0
LINE
  5
88
330
36
100
AcDbEntity
  8
1
  6
Continuous
 62
     7
100
AcDbLine
 10
118.487922361031
 20
79.40258014238114
 30
0.0
 11
119.6936937269711
 21
77.31412287426123
 31
0.0
  0
LINE
  5
89
330
36
100
AcDbEntity
  8
1
  6
Continuous
 62
     7
100
AcDbLine
 10
118.487922361031
 20
105.2256656061414
 30
0.0
 11
119.693693726971
 21
107.3141228742612
 31
0.0
  0
LINE
  5
8A
330
36
100
AcDbEntity
  8
1
  6
Continuous
 62
     7
100
AcDbLine
 10
177.2821509950909
 20
77.31412287426123
 30
0.0
 11
164.487922361031
 21
77.31412287426123
 31
0.0
  0
LINE
  5
8B
330
36
100
AcDbEntity
  8
1
  6
Continuous
 62
     7
100
AcDbLine
 10
177.2821509950909
 20
77.31412287426123
 30
0.0
 11
178.487922361031
 21
79.40258014238114
 31
0.0
  0
LINE
  5
8C
330
36
100
AcDbEntity
  8
1
  6
Continuous
 62
     7
100
AcDbLine
 10
177.2821509950909
 20
107.3141228742612
 30
0.0
 11
178.487922361031
 21
105.2256656061414
 31
0.0
  0
LINE
  5
8D
330
36
100
AcDbEntity
  8
1
  6
Continuous
 62
     2
100
AcDbLine
 10
74.20466047083505
 20
114.9059655677077
 30
0.0
 11
73.39166047083518
 21
116.3141228742612
 31
0.0
  0
LINE
  5
8E
330
36
100
AcDbEntity
  8
1
  6
Continuous
 62
     2
100
AcDbLine
 10
51.01766047083504
 20
116.3141228742612
 30
0.0
 11
50.20466047083505
 21
114.9059655677077
 31
0.0
  0
LINE
  5
8F
330
36
100
AcDbEntity
  8
1
  6
Continuous
 62
     7
100
AcDbLine
 10
50.20466047083505
 20
116.3141228742612
 30
0.0
 11
74.20466047083505
 21
116.3141228742612
 31
0.0
  0
LINE
  5
90
330
36
100
AcDbEntity
  8
1
  6
Continuous
 62
     7
100
AcDbLine
 10
49.20466047083505
 20
84.80856937479614
 30
0.0
 11
49.20466047083505
 21
99.81967637372634
 31
0.0
  0
LINE
  5
91
330
36
100
AcDbEntity
  8
1
  6
Continuous
 62
     7
100
AcDbLine
 10
49.20466047083505
 20
99.81967637372634
 30
0.0
 11
62.20466047083505
 21
107.3252298731916
 31
0.0
  0
LINE
  5
92
330
36
100
AcDbEntity
  8
1
  6
Continuous
 62
     7
100
AcDbLine
 10
62.20466047083505
 20
107.3252298731916
 30
0.0
 11
75.20466047083517
 21
99.81967637372634
 31
0.0
  0
LINE
  5
93
330
36
100
AcDbEntity
  8
1
  6
Continuous
 62
     7
100
AcDbLine
 10
75.20466047083517
 20
99.81967637372634
 30
0.0
 11
75.20466047083517
 21
84.80856937479614
 31
0.0
  0
LINE
  5
94
330
36
100
AcDbEntity
  8
1
  6
Continuous
 62
     7
100
AcDbLine
 10
62.20466047083505
 20
77.30301587533093
 30
0.0
 11
49.20466047083505
 21
84.80856937479614
 31
0.0
  0
LINE
  5
95
330
36
100
AcDbEntity
  8
1
  6
Continuous
 62
     7
100
AcDbLine
 10
75.20466047083517
 20
84.80856937479614
 30
0.0
 11
62.20466047083505
 21
77.30301587533093
 31
0.0
  0
LINE
  5
96
330
36
100
AcDbEntity
  8
1
  6
Continuous
 62
     7
100
AcDbLine
 10
50.20466047083505
 20
114.9059655677077
 30
0.0
 11
50.20466047083505
 21
106.491569753019
 31
0.0
  0
LINE
  5
97
330
36
100
AcDbEntity
  8
1
  6
Continuous
 62
     7
100
AcDbLine
 10
74.20466047083505
 20
114.9059655677077
 30
0.0
 11
74.20466047083505
 21
106.4915697530191
 31
0.0
  0
ARC
  5
98
330
36
100
AcDbEntity
  8
1
  6
Continuous
 62
     7
100
AcDbCircle
 10
62.20466047083505
 20
92.31412287426124
 30
0.0
 40
9.2999305864682
100
AcDbArc
 50
18.81920911130843
 51
161.1807908886916
  0
ARC
  5
99
330
36
100
AcDbEntity
  8
1
  6
Continuous
 62
     7
100
AcDbCircle
 10
62.20466047083505
 20
92.31412287426124
 30
0.0
 40
9.299930586468193
100
AcDbArc
 50
161.1807908886916
 51
18.81920911130843
  0
ARC
  5
9A
330
36
100
AcDbEntity
  8
1
  6
Continuous
 62
     7
100
AcDbCircle
 10
68.70466047083511
 20
239.452065210344
 30
0.0
 40
11.50971862406432
100
AcDbArc
 50
-124.3842474680401
 51
-100.5189508224744
  0
ARC
  5
9B
330
36
100
AcDbEntity
  8
1
  6
Continuous
 62
     7
100
AcDbCircle
 10
62.20466047083488
 20
213.9534535852098
 30
0.0
 40
15.01110699893056
100
AcDbArc
 50
-34.77072280688158
 51
-11.61329724588189
  0
ARC
  5
9C
330
36
100
AcDbEntity
  8
1
  6
Continuous
 62
     7
100
AcDbCircle
 10
68.70466047083511
 20
188.4548419600757
 30
0.0
 40
11.50971862406436
100
AcDbArc
 50
55.61575253195863
 51
77.02931220309507
  0
ARC
  5
9D
330
36
100
AcDbEntity
  8
1
  6
Continuous
 62
     7
100
AcDbCircle
 10
55.70466047083534
 20
195.463172209274
 30
0.0
 40
11.50971862406422
100
AcDbArc
 50
-124.3842474680419
 51
-76.26027427830273
  0
ARC
  5
9E
330
36
100
AcDbEntity
  8
1
  6
Continuous
 62
     7
100
AcDbCircle
 10
62.72859055798273
 20
144.2899561902925
 30
0.0
 40
58.5168580514101
100
AcDbArc
 50
79.67880069216267
 51
80.92654565591094
  0
ARC
  5
9F
330
36
100
AcDbEntity
  8
1
  6
Continuous
 62
     7
100
AcDbCircle
 10
68.70466047083488
 20
195.463172209274
 30
0.0
 40
11.50971862406337
100
AcDbArc
 50
-103.7397257216962
 51
-55.61575253195721
  0
ARC
  5
A0
330
36
100
AcDbEntity
  8
1
  6
Continuous
 62
     7
100
AcDbCircle
 10
55.70466047083534
 20
188.4548419600757
 30
0.0
 40
11.50971862406346
100
AcDbArc
 50
102.9706877969042
 51
124.3842474680411
  0
ARC
  5
A1
330
36
100
AcDbEntity
  8
1
  6
Continuous
 62
     7
100
AcDbCircle
 10
46.5128617016731
 20
203.0592565771917
 30
0.0
 40
4.091669685661741
100
AcDbArc
 50
-45.00000000000112
 51
34.77072280688185
  0
ARC
  5
A2
330
36
100
AcDbEntity
  8
1
  6
Continuous
 62
     7
100
AcDbCircle
 10
55.70466047083534
 20
239.452065210344
 30
0.0
 40
11.50971862406371
100
AcDbArc
 50
-79.48104917752562
 51
-55.61575253195991
  0
ARC
  5
A3
330
36
100
AcDbEntity
  8
1
  6
Continuous
 62
     7
100
AcDbCircle
 10
68.70466047083488
 20
232.4437349611455
 30
0.0
 40
11.50971862406449
100
AcDbArc
 50
55.61575253195769
 51
124.3842474680395
  0
ARC
  5
A4
330
36
100
AcDbEntity
  8
1
  6
Continuous
 62
     7
100
AcDbCircle
 10
55.70466047083534
 20
232.4437349611455
 30
0.0
 40
11.50971862406423
100
AcDbArc
 50
55.61575253195959
 51
124.3842474680414
  0
ARC
  5
A5
330
36
100
AcDbEntity
  8
1
  6
Continuous
 62
     7
100
AcDbCircle
 10
46.5128617016731
 20
203.0592565771917
 30
0.0
 40
4.091669685661741
100
AcDbArc
 50
-45.00000000000112
 51
34.77072280688185
  0
ARC
  5
A6
330
36
100
AcDbEntity
  8
1
  6
Continuous
 62
     7
100
AcDbCircle
 10
62.20466047083488
 20
213.9534535852098
 30
0.0
 40
15.0111069989299
100
AcDbArc
 50
-168.3867027541176
 51
-145.2292771931169
  0
ARC
  5
A7
330
36
100
AcDbEntity
  8
1
  6
Continuous
 62
     7
100
AcDbCircle
 10
61.68073038368772
 20
144.2899561902925
 30
0.0
 40
58.5168580514097
100
AcDbArc
 50
99.07345434408909
 51
100.3211993078373
  0
ARC
  5
A8
330
36
100
AcDbEntity
  8
1
  6
Continuous
 62
     7
100
AcDbCircle
 10
77.89645923999734
 20
203.0592565771917
 30
0.0
 40
4.09166968566163
100
AcDbArc
 50
145.2292771931182
 51
-134.9999999999989
  0
ARC
  5
A9
330
36
100
AcDbEntity
  8
1
  6
Continuous
 62
     7
100
AcDbCircle
 10
173.9913434577813
 20
81.06134612452867
 30
0.0
 40
4.496582332672944
100
AcDbArc
 50
-56.44433397659181
 51
56.44433397659181
  0
ARC
  5
AA
330
36
100
AcDbEntity
  8
1
  6
Continuous
 62
     7
100
AcDbCircle
 10
166.9733942653506
 20
81.06134612452867
 30
0.0
 40
4.496582332673007
100
AcDbArc
 50
123.5556660234094
 51
-149.6140527892775
  0
ARC
  5
AB
330
36
100
AcDbEntity
  8
1
  6
Continuous
 62
     7
100
AcDbCircle
 10
177.4879223610331
 20
92.31412287426136
 30
0.0
 40
15.01110699893209
100
AcDbArc
 50
150.0000000000041
 51
-150.0000000000036
  0
ARC
  5
AC
330
36
100
AcDbEntity
  8
1
  6
Continuous
 62
     7
100
AcDbCircle
 10
163.4768153620987
 20
92.31412287426136
 30
0.0
 40
15.01110699893215
100
AcDbArc
 50
-29.99999999999637
 51
29.99999999999595
  0
ARC
  5
AD
330
36
100
AcDbEntity
  8
1
  6
Continuous
 62
     7
100
AcDbCircle
 10
173.9913434577813
 20
103.5668996239939
 30
0.0
 40
4.496582332672932
100
AcDbArc
 50
-56.4443339765917
 51
56.4443339765915
  0
ARC
  5
AE
330
36
100
AcDbEntity
  8
1
  6
Continuous
 62
     7
100
AcDbCircle
 10
166.9733942653506
 20
103.5668996239939
 30
0.0
 40
4.496582332673054
100
AcDbArc
 50
130.5623432748936
 51
-123.5556660234095
  0
ARC
  5
AF
330
36
100
AcDbEntity
  8
1
  6
Continuous
 62
     7
100
AcDbCircle
 10
130.0024504567114
 20
103.5668996239939
 30
0.0
 40
4.496582332672994
100
AcDbArc
 50
-56.44433397659049
 51
49.43765672510617
  0
ARC
  5
B0
330
36
100
AcDbEntity
  8
1
  6
Continuous
 62
     7
100
AcDbCircle
 10
130.0024504567114
 20
81.06134612452867
 30
0.0
 40
4.496582332673116
100
AcDbArc
 50
-30.38594721072257
 51
56.4443339765906
  0
ARC
  5
B1
330
36
100
AcDbEntity
  8
1
  6
Continuous
 62
     7
100
AcDbCircle
 10
122.9845012642807
 20
103.5668996239939
 30
0.0
 40
4.496582332672908
100
AcDbArc
 50
123.5556660234085
 51
-123.5556660234083
  0
ARC
  5
B2
330
36
100
AcDbEntity
  8
1
  6
Continuous
 62
     7
100
AcDbCircle
 10
122.9845012642807
 20
81.06134612452867
 30
0.0
 40
4.496582332672944
100
AcDbArc
 50
123.5556660234082
 51
-123.5556660234082
  0
ARC
  5
B3
330
36
100
AcDbEntity
  8
1
  6
Continuous
 62
     7
100
AcDbCircle
 10
133.4990293599633
 20
92.31412287426136
 30
0.0
 40
15.01110699893207
100
AcDbArc
 50
150.000000000004
 51
-150.0000000000036
  0
ARC
  5
B4
330
36
100
AcDbEntity
  8
1
  6
Continuous
 62
     7
100
AcDbCircle
 10
119.4879223610289
 20
92.31412287426136
 30
0.0
 40
15.01110699893215
100
AcDbArc
 50
-29.99999999999637
 51
29.99999999999595
  0
ARC
  5
B5
330
36
100
AcDbEntity
  8
0
  6
Continuous
 62
     7
100
AcDbCircle
 10
148.487922361031
 20
105.8141228742612
 30
0.0
 40
29.49999999999989
100
AcDbArc
 50
-114.0063487668863
 51
-65.99365123311374
  0
ARC
  5
B6
330
36
100
AcDbEntity
  8
0
  6
Continuous
 62
     7
100
AcDbCircle
 10
133.8103151119072
 20
108.6092941967411
 30
0.0
 40
1.850997391177048
100
AcDbArc
 50
-135.5958275301275
 51
9.84806592243101
  0
ARC
  5
B7
330
36
100
AcDbEntity
  8
0
  6
Continuous
 62
     7
100
AcDbCircle
 10
163.1655296101547
 20
108.6092941967411
 30
0.0
 40
1.850997391177291
100
AcDbArc
 50
170.1519340775689
 51
-44.40417246987004
  0
ARC
  5
B8
330
36
100
AcDbEntity
  8
1
  6
Continuous
 62
     7
100
AcDbCircle
 10
62.20466047083505
 20
92.31412287426124
 30
0.0
 40
15.0
100
AcDbArc
 50
0.0
 51
23.89550818616138
  0
ARC
  5
B9
330
36
100
AcDbEntity
  8
1
  6
Continuous
 62
     7
100
AcDbCircle
 10
62.20466047083505
 20
92.31412287426124
 30
0.0
 40
15.0
100
AcDbArc
 50
180.0
 51
0.0
  0
ARC
  5
BA
330
36
100
AcDbEntity
  8
1
  6
Continuous
 62
     7
100
AcDbCircle
 10
62.20466047083505
 20
92.31412287426124
 30
0.0
 40
14.99999999999995
100
AcDbArc
 50
156.1044918138384
 51
180.0
  0
CIRCLE
  5
BB
330
36
100
AcDbEntity
  8
1
  6
Continuous
 62
     7
100
AcDbCircle
 10
62.20466047083505
 20
92.31412287426124
 30
0.0
 40
12.50000000000001
  0
CIRCLE
  5
BC
330
36
100
AcDbEntity
  8
1
  6
Continuous
 62
     2
100
AcDbCircle
 10
62.20466047083505
 20
92.31412287426124
 30
0.0
 40
10.50000000000001
  0
ARC
  5
BD
330
36
100
AcDbEntity
  8
0
  6
Continuous
 62
     7
100
AcDbCircle
 10
135.2656916605983
 20
76.12536043281673
 30
0.0
 40
2.999999999999937
100
AcDbArc
 50
65.99365123311446
 51
150.0000000000008
  0
ARC
  5
BE
330
36
100
AcDbEntity
  8
0
  6
Continuous
 62
     7
100
AcDbCircle
 10
161.7101530614638
 20
76.12536043281673
 30
0.0
 40
2.999999999999877
100
AcDbArc
 50
30.00000000000136
 51
114.0063487668875
  0
ARC
  5
BF
330
36
100
AcDbEntity
  8
1
  6
Continuous
 62
     7
100
AcDbCircle
 10
94.20466047083505
 20
106.4915697530191
 30
0.0
 40
20.0
100
AcDbArc
 50
180.0
 51
-156.1044918138383
  0
ARC
  5
C0
330
36
100
AcDbEntity
  8
1
  6
Continuous
 62
     7
100
AcDbCircle
 10
30.20466047083505
 20
106.491569753019
 30
0.0
 40
20.00000000000002
100
AcDbArc
 50
-23.89550818616123
 51
0.0
  0
ENDBLK
  5
38
330
36
100
AcDbEntity
  8
0
100
AcDbBlockEnd
  0
BLOCK
  5
3A
330
39
100
AcDbEntity
  8
0
100
AcDbBlockBegin
  2
21-1A
 70
     0
 71
     0
 10
263.9303432811662
 20
81.22570787578017
 30
0.0
  3
21-1A
  1

  0
LINE
  5
C1
330
39
100
AcDbEntity
  8
0
  6
Continuous
 62
     7
100
AcDbLine
 10
56.40910551310063
 20
134.8141228742613
 30
0.0
 11
68.00021542856942
 21
134.8141228742613
 31
0.0
  0
LINE
  5
C2
330
39
100
AcDbEntity
  8
0
  6
Continuous
 62
     7
100
AcDbLine
 10
68.00021542856942
 20
134.8141228742613
 30
0.0
 11
89.85529556544593
 21
134.8141228742613
 31
0.0
  0
LINE
  5
C3
330
39
100
AcDbEntity
  8
0
  6
Continuous
 62
     7
100
AcDbLine
 10
34.55402537622402
 20
134.8141228742613
 30
0.0
 11
56.40910551310063
 21
134.8141228742613
 31
0.0
  0
LINE
  5
C4
330
39
100
AcDbEntity
  8
1
  6
Continuous
 62
     7
100
AcDbLine
 10
118.0198806292632
 20
138.5992026296119
 30
0.0
 11
117.5679725302708
 21
135.3837094247413
 31
0.0
  0
LINE
  5
C5
330
39
100
AcDbEntity
  8
1
  6
Continuous
 62
     7
100
AcDbLine
 10
138.0363754312737
 20
144.0030174749466
 30
0.0
 11
138.0363754312737
 21
136.3141228742613
 31
0.0
  0
LINE
  5
C6
330
39
100
AcDbEntity
  8
1
  6
Continuous
 62
     7
100
AcDbLine
 10
146.7694461889495
 20
144.0030174749466
 30
0.0
 11
146.7694461889495
 21
136.3141228742613
 31
0.0
  0
LINE
  5
C7
330
39
100
AcDbEntity
  8
1
  6
Continuous
 62
     7
100
AcDbLine
 10
162.2802137645217
 20
134.8141228742613
 30
0.0
 11
160.7148571334298
 21
134.8141228742613
 31
0.0
  0
LINE
  5
C8
330
39
100
AcDbEntity
  8
1
  6
Continuous
 62
     7
100
AcDbLine
 10
166.2906082153823
 20
139.7731994800049
 30
0.0
 11
166.9078257093899
 21
135.3837448069739
 31
0.0
  0
LINE
  5
C9
330
39
100
AcDbEntity
  8
1
  6
Continuous
 62
     7
100
AcDbLine
 10
142.7379223610311
 20
134.8141228742613
 30
0.0
 11
166.4126966489568
 21
134.8141228742613
 31
0.0
  0
LINE
  5
CA
330
39
100
AcDbEntity
  8
1
  6
Continuous
 62
     7
100
AcDbLine
 10
118.0631065646416
 20
134.8141228742613
 30
0.0
 11
143.7379223610311
 21
134.8141228742613
 31
0.0
  0
LINE
  5
CB
330
39
100
AcDbEntity
  8
1
  6
Continuous
 62
     7
100
AcDbLine
 10
68.00021542856941
 20
187.4005393145948
 30
0.0
 11
71.65162464003983
 21
201.0277840110277
 31
0.0
  0
LINE
  5
CC
330
39
100
AcDbEntity
  8
1
  6
Continuous
 62
     7
100
AcDbLine
 10
56.40910551310053
 20
187.4005393145948
 30
0.0
 11
52.75769630163011
 21
201.0277840110277
 31
0.0
  0
LINE
  5
CD
330
39
100
AcDbEntity
  8
1
  6
Continuous
 62
     7
100
AcDbLine
 10
36.31138468910473
 20
222.2108128980907
 30
0.0
 11
46.2872201740671
 21
212.2349774131284
 31
0.0
  0
LINE
  5
CE
330
39
100
AcDbEntity
  8
1
  6
Continuous
 62
     7
100
AcDbLine
 10
42.10693964683912
 20
232.2490085429444
 30
0.0
 11
55.73418434327191
 21
228.5975993314739
 31
0.0
  0
LINE
  5
CF
330
39
100
AcDbEntity
  8
1
  6
Continuous
 62
     7
100
AcDbLine
 10
83.06288619745132
 20
232.4527852174414
 30
0.0
 11
68.67513659839803
 21
228.5975993314739
 31
0.0
  0
LINE
  5
D0
330
39
100
AcDbEntity
  8
1
  6
Continuous
 62
     7
100
AcDbLine
 10
88.09793625256522
 20
222.2108128980907
 30
0.0
 11
78.1221007676029
 21
212.2349774131284
 31
0.0
  0
ARC
  5
D1
330
39
100
AcDbEntity
  8
1
  6
Continuous
 62
     7
100
AcDbCircle
 10
148.4879223610311
 20
-4.1858771257387
 30
0.0
 40
150.0533238552216
100
AcDbArc
 50
91.52752544221293
 51
99.80290179376775
  0
ARC
  5
D2
330
39
100
AcDbEntity
  8
1
  6
Continuous
 62
     7
100
AcDbCircle
 10
148.8521180262779
 20
70.90230186556209
 30
0.0
 40
74.99999999999999
100
AcDbArc
 50
80.408507517335
 51
87.22136103403746
  0
ARC
  5
D3
330
39
100
AcDbEntity
  8
1
  6
Continuous
 62
     7
100
AcDbCircle
 10
62.20466047083501
 20
188.95345358521
 30
0.0
 40
6.0
100
AcDbArc
 50
-90.0
 51
-15.0000000000009
  0
ARC
  5
D4
330
39
100
AcDbEntity
  8
1
  6
Continuous
 62
     7
100
AcDbCircle
 10
62.20466047083501
 20
188.95345358521
 30
0.0
 40
6.000000000000093
100
AcDbArc
 50
-164.9999999999993
 51
-90.0
  0
ARC
  5
D5
330
39
100
AcDbEntity
  8
1
  6
Continuous
 62
     7
100
AcDbCircle
 10
40.55402537622399
 20
226.45345358521
 30
0.0
 40
5.999999999999989
100
AcDbArc
 50
74.99999999999989
 51
-134.9999999999996
  0
ARC
  5
D6
330
39
100
AcDbEntity
  8
1
  6
Continuous
 62
     7
100
AcDbCircle
 10
83.8552955654459
 20
226.45345358521
 30
0.0
 40
6.000000000000049
100
AcDbArc
 50
-45.0
 51
97.52424107894117
  0
SPLINE
  5
D7
330
39
100
AcDbEntity
  8
0
  6
Continuous
 62
     7
100
AcDbSpline
210
0.0
220
0.0
230
1.0
 70
     8
 71
     3
 72
    27
 73
    23
 74
    21
 42
0.0000000001
 43
0.0000000001
 44
0.00000001
 40
0.0
 40
0.0
 40
0.0
 40
0.0
 40
4.618703466769527
 40
9.231168896018968
 40
14.16779431771699
 40
19.11374070589859
 40
19.52821633538001
 40
19.94144217917131
 40
20.35867862982675
 40
20.7769196042846
 40
21.1994948466545
 40
21.62164873558738
 40
22.04927938356243
 40
22.47707343152682
 40
23.01006105023054
 40
23.54331038460049
 40
23.88091939119893
 40
24.21795787389944
 40
24.65811335193127
 40
25.09931766019799
 40
27.47512396338993
 40
29.84763483709661
 40
29.84763483709661
 40
29.84763483709661
 40
29.84763483709661
 10
66.20466047083502
 20
145.8141228742613
 30
0.0
 10
67.74339143712822
 20
145.7635757080506
 30
0.0
 10
70.81877515413527
 20
145.6625496448137
 30
0.0
 10
75.5330645543025
 20
145.3433809990342
 30
0.0
 10
80.32209132119002
 20
144.6696193697889
 30
0.0
 10
83.68308947745095
 20
143.9606131253714
 30
0.0
 10
85.55192106840264
 20
143.5008530164081
 30
0.0
 10
85.94878829847869
 20
143.3774554367431
 30
0.0
 10
86.33005845375517
 20
143.2081651061203
 30
0.0
 10
86.69502997496571
 20
143.0005743659978
 30
0.0
 10
87.04252220778777
 20
142.7620204689985
 30
0.0
 10
87.37044252320666
 20
142.4921767045895
 30
0.0
 10
87.67418459073056
 20
142.1928716362938
 30
0.0
 10
87.97442818463081
 20
141.8399295307457
 30
0.0
 10
88.25929889263018
 20
141.4302899097501
 30
0.0
 10
88.48641624374093
 20
141.0202477196548
 30
0.0
 10
88.65322735728113
 20
140.6535348285235
 30
0.0
 10
88.78301845688876
 20
140.3049035010371
 30
0.0
 10
88.88893286587397
 20
139.9122864080414
 30
0.0
 10
89.11349994618384
 20
138.8500295840798
 30
0.0
 10
89.44116627767554
 20
137.151321949649
 30
0.0
 10
89.71731635412763
 20
135.5928286906309
 30
0.0
 10
89.85529556544593
 20
134.8141228742613
 30
0.0
 11
66.20466047083502
 21
145.8141228742613
 31
0.0
 11
70.81991684548572
 21
145.6357123639349
 31
0.0
 11
75.41995207839733
 21
145.2973143852277
 31
0.0
 11
80.30918056689973
 21
144.6148809882051
 31
0.0
 11
85.14976226752702
 21
143.599423222309
 31
0.0
 11
85.55130897077227
 21
143.496708605302
 31
0.0
 11
85.94474386786952
 21
143.370357587407
 31
0.0
 11
86.32657943529448
 21
143.2021676495248
 31
0.0
 11
86.69065830077112
 21
142.9963228234332
 31
0.0
 11
87.03895718834856
 21
142.7570369684892
 31
0.0
 11
87.36484133363862
 21
142.4886837874204
 31
0.0
 11
87.66954987866686
 21
142.188649333275
 31
0.0
 11
87.94680825617212
 21
141.8628648346
 31
0.0
 11
88.25155179172967
 21
141.4255924032402
 31
0.0
 11
88.51033474102843
 21
140.9593454324637
 31
0.0
 11
88.64964416138874
 21
140.6518186421913
 31
0.0
 11
88.76670191030932
 21
140.3357610173209
 31
0.0
 11
88.88488859485264
 21
139.9117695640602
 31
0.0
 11
88.97971658811872
 21
139.4808764295985
 31
0.0
 11
89.43545148350113
 21
137.1491900665948
 31
0.0
 11
89.85529556544593
 21
134.8141228742613
 31
0.0
  0
SPLINE
  5
D8
330
39
100
AcDbEntity
  8
0
  6
Continuous
 62
     7
100
AcDbSpline
210
0.0
220
0.0
230
1.0
 70
     8
 71
     3
 72
    45
 73
    41
 74
    39
 42
0.0000000001
 43
0.0000000001
 44
0.00000001
 40
0.0
 40
0.0
 40
0.0
 40
0.0
 40
1.742390132797728
 40
3.474062694534097
 40
5.197701393275685
 40
5.400404116204419
 40
5.603172535854506
 40
6.048933636473167
 40
6.495048482113931
 40
6.943430426927131
 40
7.391758998255836
 40
7.938281821691415
 40
8.484781357530199
 40
8.843308460597886
 40
9.201752042938463
 40
9.657999233107205
 40
10.11437046698422
 40
10.57247766499583
 40
11.03055605116222
 40
11.48958998599929
 40
11.94863219167635
 40
12.40767187133209
 40
12.86670862771207
 40
13.32480090481272
 40
13.78289355020708
 40
14.23920822585646
 40
14.69551356823081
 40
15.14940219203452
 40
15.60330722265964
 40
16.05447969554464
 40
16.50558720948674
 40
16.95386075606703
 40
17.40229604766888
 40
17.84842343386954
 40
18.29417263654389
 40
18.49693985762087
 40
18.69964374715336
 40
20.42328908971638
 40
22.15496045558051
 40
23.89734607929125
 40
23.89734607929125
 40
23.89734607929125
 40
23.89734607929125
 10
68.00021542856942
 20
134.8141228742613
 30
0.0
 10
67.96311151189477
 20
135.3937707382439
 30
0.0
 10
67.88913190749152
 20
136.5495010091649
 30
0.0
 10
67.6921715006817
 20
138.2720865180647
 30
0.0
 10
67.42961298161836
 20
139.4669909005313
 30
0.0
 10
67.21859502636723
 20
140.1446483172761
 30
0.0
 10
67.12575212058115
 20
140.4128385226194
 30
0.0
 10
66.98164177579156
 20
140.7487407066554
 30
0.0
 10
66.76822392565789
 20
141.141855697109
 30
0.0
 10
66.52110599036836
 20
141.5157492288361
 30
0.0
 10
66.22141416960584
 20
141.8928474846315
 30
0.0
 10
65.8632408250146
 20
142.2625814431755
 30
0.0
 10
65.49127786967254
 20
142.5734663524919
 30
0.0
 10
65.14578419104157
 20
142.8148394333765
 30
0.0
 10
64.81047766517322
 20
143.0166712169952
 30
0.0
 10
64.43132003300498
 20
143.2069412913989
 30
0.0
 10
64.00651922259252
 20
143.3766672104854
 30
0.0
 10
63.56825022159273
 20
143.5098901485723
 30
0.0
 10
63.11944258261261
 20
143.6058421144862
 30
0.0
 10
62.66383407063387
 20
143.6636529488994
 30
0.0
 10
62.20466137002466
 20
143.6830118587939
 30
0.0
 10
61.74548738701
 20
143.6636578816592
 30
0.0
 10
61.28987430753799
 20
143.6058432863654
 30
0.0
 10
60.84106844566584
 20
143.5098779958242
 30
0.0
 10
60.40281800789964
 20
143.3766677152255
 30
0.0
 10
59.97800414167611
 20
143.2069722993685
 30
0.0
 10
59.5703970185977
 20
143.0024069626963
 30
0.0
 10
59.18250679383505
 20
142.7640796173007
 30
0.0
 10
58.81787873590405
 20
142.4943439116263
 30
0.0
 10
58.47866261884001
 20
142.1946704735221
 30
0.0
 10
58.16812039443759
 20
141.8679346798957
 30
0.0
 10
57.88824608830809
 20
141.5157450176891
 30
0.0
 10
57.64110028061797
 20
141.1418713256265
 30
0.0
 10
57.42766812486095
 20
140.748740922947
 30
0.0
 10
57.28356789895783
 20
140.4128350246186
 30
0.0
 10
57.19072719727303
 20
140.1446483178734
 30
0.0
 10
56.97970442262081
 20
139.4669901100778
 30
0.0
 10
56.71714104178221
 20
138.2720842011241
 30
0.0
 10
56.52018247708134
 20
136.5494980259724
 30
0.0
 10
56.44620721621771
 20
135.3937693767236
 30
0.0
 10
56.40910551310063
 20
134.8141228742613
 30
0.0
 11
68.00021542856942
 21
134.8141228742613
 31
0.0
 11
67.87439817500535
 21
136.5519644647339
 31
0.0
 11
67.66246216291484
 21
138.2706188767231
 31
0.0
 11
67.27828863377144
 21
139.9508989317452
 31
0.0
 11
67.21759244949789
 21
140.1443010183352
 31
0.0
 11
67.15082343875352
 21
140.3357610173209
 31
0.0
 11
66.97554239596852
 21
140.7456140578915
 31
0.0
 11
66.76306891921973
 21
141.1378811571738
 31
0.0
 11
66.51579940587746
 21
141.5119187972663
 31
0.0
 11
66.23680946564772
 21
141.8628648346
 31
0.0
 11
65.85671085795586
 21
142.2555635040231
 31
0.0
 11
65.43743479946033
 21
142.6060907204336
 31
0.0
 11
65.14354673897027
 21
142.8114477060355
 31
0.0
 11
64.83645881558621
 21
142.9963228234332
 31
0.0
 11
64.42870897843662
 21
143.2010215504477
 31
0.0
 11
64.00491656498713
 21
143.370357587407
 31
0.0
 11
63.56662728945284
 21
143.5036419294044
 31
0.0
 11
63.11867444394082
 21
143.599423222309
 31
0.0
 11
62.66329583099079
 21
143.6572373399596
 31
0.0
 11
62.20466047083502
 21
143.6765596847357
 31
0.0
 11
61.74602748206229
 21
143.6572410639819
 31
0.0
 11
61.29064649772923
 21
143.599423222309
 31
0.0
 11
60.84268182960103
 21
143.503630788119
 31
0.0
 11
60.40440437668292
 21
143.370357587407
 31
0.0
 11
59.98065663766709
 21
143.201062174321
 31
0.0
 11
59.57286212608383
 21
142.9963228234332
 31
0.0
 11
59.18615237943997
 21
142.7586876941508
 31
0.0
 11
58.82128573643581
 21
142.4886837874204
 31
0.0
 11
58.48320089083862
 21
142.1899276369119
 31
0.0
 11
58.17251147602224
 21
141.8628648346
 31
0.0
 11
57.89356892234859
 21
141.5119514203313
 31
0.0
 11
57.64625202245031
 21
141.1378811571738
 31
0.0
 11
57.43376695163531
 21
140.7456060758865
 31
0.0
 11
57.25849750291653
 21
140.3357610173209
 31
0.0
 11
57.19172971444549
 21
140.1443018614522
 31
0.0
 11
57.13103230843774
 21
139.950898935581
 31
0.0
 11
56.74685134690631
 21
138.2706137646246
 31
0.0
 11
56.53491682107774
 21
136.551960374288
 31
0.0
 11
56.40910551310063
 21
134.8141228742613
 31
0.0
  0
SPLINE
  5
D9
330
39
100
AcDbEntity
  8
0
  6
Continuous
 62
     7
100
AcDbSpline
210
0.0
220
0.0
230
1.0
 70
     8
 71
     3
 72
    27
 73
    23
 74
    21
 42
0.0000000001
 43
0.0000000001
 44
0.00000001
 40
0.0
 40
0.0
 40
0.0
 40
0.0
 40
4.61870346676961
 40
9.231168896019085
 40
14.16779431771691
 40
19.1137407058983
 40
19.52821633537982
 40
19.94144217917123
 40
20.35867862982667
 40
20.77691960428452
 40
21.1994948466544
 40
21.62164873558729
 40
22.04927938356226
 40
22.47707343152659
 40
23.01006105023043
 40
23.54331038460048
 40
23.88091939119891
 40
24.21795787389939
 40
24.6581133519312
 40
25.0993176601979
 40
27.47512396338982
 40
29.84763483709655
 40
29.84763483709655
 40
29.84763483709655
 40
29.84763483709655
 10
58.20466047083494
 20
145.8141228742613
 30
0.0
 10
56.66592950454172
 20
145.7635757080507
 30
0.0
 10
53.59054578753464
 20
145.6625496448139
 30
0.0
 10
48.87625638736738
 20
145.3433809990343
 30
0.0
 10
44.08722962048007
 20
144.6696193697886
 30
0.0
 10
40.7262314642193
 20
143.9606131253712
 30
0.0
 10
38.85739987326748
 20
143.5008530164082
 30
0.0
 10
38.46053264319141
 20
143.377455436743
 30
0.0
 10
38.07926248791482
 20
143.2081651061203
 30
0.0
 10
37.71429096670435
 20
143.0005743659978
 30
0.0
 10
37.36679873388223
 20
142.7620204689986
 30
0.0
 10
37.03887841846342
 20
142.4921767045895
 30
0.0
 10
36.73513635093966
 20
142.1928716362938
 30
0.0
 10
36.43489275703942
 20
141.8399295307457
 30
0.0
 10
36.15002204903988
 20
141.4302899097501
 30
0.0
 10
35.92290469792891
 20
141.0202477196548
 30
0.0
 10
35.75609358438869
 20
140.6535348285235
 30
0.0
 10
35.62630248478123
 20
140.3049035010371
 30
0.0
 10
35.52038807579608
 20
139.9122864080415
 30
0.0
 10
35.29582099548638
 20
138.8500295840798
 30
0.0
 10
34.96815466399477
 20
137.151321949649
 30
0.0
 10
34.69200458754243
 20
135.592828690631
 30
0.0
 10
34.55402537622402
 20
134.8141228742613
 30
0.0
 11
58.20466047083494
 21
145.8141228742613
 31
0.0
 11
53.58940409618415
 21
145.6357123639349
 31
0.0
 11
48.98936886327252
 21
145.2973143852277
 31
0.0
 11
44.10014037477035
 21
144.6148809882049
 31
0.0
 11
39.25955867414322
 21
143.599423222309
 31
0.0
 11
38.85801197089787
 21
143.496708605302
 31
0.0
 11
38.46457707380051
 21
143.370357587407
 31
0.0
 11
38.08274150637556
 21
143.2021676495248
 31
0.0
 11
37.71866264089891
 21
142.9963228234332
 31
0.0
 11
37.37036375332146
 21
142.7570369684892
 31
0.0
 11
37.04447960803142
 21
142.4886837874204
 31
0.0
 11
36.73977106300333
 21
142.188649333275
 31
0.0
 11
36.46251268549813
 21
141.8628648346
 31
0.0
 11
36.15776914994037
 21
141.4255924032402
 31
0.0
 11
35.89898620064142
 21
140.9593454324637
 31
0.0
 11
35.75967678028111
 21
140.6518186421913
 31
0.0
 11
35.64261903136062
 21
140.3357610173209
 31
0.0
 11
35.52443234681741
 21
139.9117695640602
 31
0.0
 11
35.42960435355141
 21
139.4808764295985
 31
0.0
 11
34.97386945816909
 21
137.1491900665948
 31
0.0
 11
34.55402537622402
 21
134.8141228742613
 31
0.0
  0
ARC
  5
DA
330
39
100
AcDbEntity
  8
1
  6
Continuous
 62
     7
100
AcDbCircle
 10
123.9614890417126
 20
137.7641640238516
 30
0.0
 40
6.000000000000001
100
AcDbArc
 50
99.80290179376685
 51
172.0000000000008
  0
ARC
  5
DB
330
39
100
AcDbEntity
  8
1
  6
Continuous
 62
     7
100
AcDbCircle
 10
118.0631065646416
 20
135.3141228742613
 30
0.0
 40
0.5000000000000184
100
AcDbArc
 50
172.0000000000028
 51
-90.0
  0
ARC
  5
DC
330
39
100
AcDbEntity
  8
1
  6
Continuous
 62
     7
100
AcDbCircle
 10
166.4126966489568
 20
135.3141228742613
 30
0.0
 40
0.5
100
AcDbArc
 50
-90.0
 51
8.00409437169984
  0
ARC
  5
DD
330
39
100
AcDbEntity
  8
1
  6
Continuous
 62
     7
100
AcDbCircle
 10
160.3490594901852
 20
138.9377362874535
 30
0.0
 40
5.99999999999995
100
AcDbArc
 50
8.00409437170106
 51
80.40850751733568
  0
ARC
  5
DE
330
39
100
AcDbEntity
  8
1
  6
Continuous
 62
     7
100
AcDbCircle
 10
28.60955064440344
 20
194.5573078834647
 30
0.0
 40
24.99999999999996
100
AcDbArc
 50
15.00000000000002
 51
45.00000000000009
  0
ARC
  5
DF
330
39
100
AcDbEntity
  8
1
  6
Continuous
 62
     7
100
AcDbCircle
 10
62.204660470835
 20
252.7457449887006
 30
0.0
 40
25.00000000000001
100
AcDbArc
 50
-105.0000000000002
 51
-74.99999999999999
  0
ARC
  5
E0
330
39
100
AcDbEntity
  8
1
  6
Continuous
 62
     7
100
AcDbCircle
 10
95.79977029726652
 20
194.5573078834647
 30
0.0
 40
24.99999999999997
100
AcDbArc
 50
134.9999999999999
 51
165.0
  0
ENDBLK
  5
3B
330
39
100
AcDbEntity
  8
0
100
AcDbBlockEnd
  0
BLOCK
  5
3D
330
3C
100
AcDbEntity
  8
0
100
AcDbBlockBegin
  2
37-1-13
 70
     0
 71
     0
 10
759.9698481701523
 20
90.40016376741102
 30
0.0
  3
37-1-13
  1

  0
LINE
  5
E1
330
3C
100
AcDbEntity
  8
1
  6
Continuous
 62
     7
100
AcDbLine
 10
49.20466047083501
 20
207.5308372958775
 30
0.0
 11
49.20466047083501
 21
208.7291620753911
 31
0.0
  0
LINE
  5
E2
330
3C
100
AcDbEntity
  8
1
  6
Continuous
 62
     7
100
AcDbLine
 10
63.14251160551332
 20
228.423091979074
 30
0.0
 11
64.18029130655653
 21
227.8239295893172
 31
0.0
  0
LINE
  5
E3
330
3C
100
AcDbEntity
  8
1
  6
Continuous
 62
     7
100
AcDbLine
 10
74.26680933615681
 20
205.9064314806786
 30
0.0
 11
73.22902963511372
 21
205.3072690909219
 31
0.0
  0
LINE
  5
E4
330
3C
100
AcDbEntity
  8
1
  6
Continuous
 62
     7
100
AcDbLine
 10
60.22902963511361
 20
227.8239295893172
 30
0.0
 11
61.26680933615681
 21
228.423091979074
 31
0.0
  0
LINE
  5
E5
330
3C
100
AcDbEntity
  8
1
  6
Continuous
 62
     7
100
AcDbLine
 10
75.20466047083501
 20
208.7291620753911
 30
0.0
 11
75.20466047083501
 21
207.5308372958775
 31
0.0
  0
LINE
  5
E6
330
3C
100
AcDbEntity
  8
1
  6
Continuous
 62
     7
100
AcDbLine
 10
51.18029130655641
 20
205.3072690909218
 30
0.0
 11
50.14251160551332
 21
205.9064314806786
 31
0.0
  0
LINE
  5
E7
330
3C
100
AcDbEntity
  8
1
  6
Continuous
 62
     7
100
AcDbLine
 10
154.487922361031
 20
131.7438141624461
 30
0.0
 11
142.487922361031
 21
131.7438141624461
 31
0.0
  0
LINE
  5
E8
330
3C
100
AcDbEntity
  8
1
  6
Continuous
 62
     7
100
AcDbLine
 10
135.4172081467596
 20
117.7438141624462
 30
0.0
 11
161.5586365753024
 21
117.7438141624461
 31
0.0
  0
LINE
  5
E9
330
3C
100
AcDbEntity
  8
0
  6
Continuous
 62
     7
100
AcDbLine
 10
143.6425755821341
 20
124.8145283767175
 30
0.0
 11
139.8126395544869
 21
124.8145283767175
 31
0.0
  0
LINE
  5
EA
330
3C
100
AcDbEntity
  8
0
  6
Continuous
 62
     7
100
AcDbLine
 10
157.1632051675749
 20
124.8145283767175
 30
0.0
 11
153.3332691399279
 21
124.8145283767175
 31
0.0
  0
LINE
  5
EB
330
3C
100
AcDbEntity
  8
1
  6
Continuous
 62
     7
100
AcDbLine
 10
49.20466047083502
 20
124.8154038235032
 30
0.0
 11
49.20466047083502
 21
117.7446896092317
 31
0.0
  0
LINE
  5
EC
330
3C
100
AcDbEntity
  8
1
  6
Continuous
 62
     7
100
AcDbLine
 10
62.20466047083502
 20
117.7446896092317
 30
0.0
 11
49.20466047083502
 21
117.7446896092317
 31
0.0
  0
LINE
  5
ED
330
3C
100
AcDbEntity
  8
1
  6
Continuous
 62
     7
100
AcDbLine
 10
75.20466047083502
 20
124.8154038235031
 30
0.0
 11
75.20466047083502
 21
117.7446896092317
 31
0.0
  0
LINE
  5
EE
330
3C
100
AcDbEntity
  8
1
  6
Continuous
 62
     7
100
AcDbLine
 10
75.20466047083502
 20
117.7446896092317
 30
0.0
 11
62.20466047083502
 21
117.7446896092317
 31
0.0
  0
LINE
  5
EF
330
3C
100
AcDbEntity
  8
1
  6
Continuous
 62
     7
100
AcDbLine
 10
68.20466047083502
 20
131.7446896092317
 30
0.0
 11
56.20466047083502
 21
131.7446896092317
 31
0.0
  0
LINE
  5
F0
330
3C
100
AcDbEntity
  8
1
  6
Continuous
 62
     7
100
AcDbLine
 10
49.20466047083502
 20
124.8154038235032
 30
0.0
 11
75.20466047083502
 21
124.8154038235031
 31
0.0
  0
ARC
  5
F1
330
3C
100
AcDbEntity
  8
1
  6
Continuous
 62
     7
100
AcDbCircle
 10
62.20466047083504
 20
213.95345358521
 30
0.0
 40
14.50000000000001
100
AcDbArc
 50
-153.7084447252708
 51
-146.2915552747294
  0
ARC
  5
F2
330
3C
100
AcDbEntity
  8
1
  6
Continuous
 62
     7
100
AcDbCircle
 10
62.20466047083504
 20
213.95345358521
 30
0.0
 40
14.5
100
AcDbArc
 50
90.00000000000011
 51
93.70844472527053
  0
ARC
  5
F3
330
3C
100
AcDbEntity
  8
1
  6
Continuous
 62
     7
100
AcDbCircle
 10
62.20466047083504
 20
213.95345358521
 30
0.0
 40
14.50000000000001
100
AcDbArc
 50
-33.70844472527054
 51
-26.29155527472927
  0
ARC
  5
F4
330
3C
100
AcDbEntity
  8
1
  6
Continuous
 62
     7
100
AcDbCircle
 10
62.20466047083504
 20
213.95345358521
 30
0.0
 40
14.50000000000001
100
AcDbArc
 50
86.29155527472926
 51
90.00000000000011
  0
ARC
  5
F5
330
3C
100
AcDbEntity
  8
1
  6
Continuous
 62
     7
100
AcDbCircle
 10
174.3943775661458
 20
145.150269367561
 30
0.0
 40
23.99999999999989
100
AcDbArc
 50
-146.0408074999024
 51
-123.959192500098
  0
ARC
  5
F6
330
3C
100
AcDbEntity
  8
1
  6
Continuous
 62
     7
100
AcDbCircle
 10
122.5814671559161
 20
145.150269367561
 30
0.0
 40
23.99999999999992
100
AcDbArc
 50
-56.04080749990189
 51
-33.95919250009748
  0
ARC
  5
F7
330
3C
100
AcDbEntity
  8
1
  6
Continuous
 62
     7
100
AcDbCircle
 10
138.987922361031
 20
121.2438141624461
 30
0.0
 40
5.00000000000004
100
AcDbArc
 50
126.8698976458408
 51
-135.5729959991948
  0
ARC
  5
F8
330
3C
100
AcDbEntity
  8
1
  6
Continuous
 62
     7
100
AcDbCircle
 10
157.987922361031
 20
121.2438141624461
 30
0.0
 40
4.999999999999975
100
AcDbArc
 50
-44.42700400080598
 51
53.13010235415927
  0
ARC
  5
F9
330
3C
100
AcDbEntity
  8
1
  6
Continuous
 62
     7
100
AcDbCircle
 10
36.29820526572013
 20
145.1511448143467
 30
0.0
 40
24.00000000000004
100
AcDbArc
 50
-56.04080749990232
 51
-33.95919250009771
  0
ARC
  5
FA
330
3C
100
AcDbEntity
  8
1
  6
Continuous
 62
     7
100
AcDbCircle
 10
52.70466047083502
 20
121.2446896092317
 30
0.0
 40
5.000000000000012
100
AcDbArc
 50
126.8698976458423
 51
134.4270040008051
  0
ARC
  5
FB
330
3C
100
AcDbEntity
  8
1
  6
Continuous
 62
     7
100
AcDbCircle
 10
88.11111567594992
 20
145.1511448143467
 30
0.0
 40
24.00000000000003
100
AcDbArc
 50
-146.0408074999023
 51
-123.9591925000977
  0
ARC
  5
FC
330
3C
100
AcDbEntity
  8
1
  6
Continuous
 62
     7
100
AcDbCircle
 10
71.70466047083502
 20
121.2446896092317
 30
0.0
 40
4.999999999999986
100
AcDbArc
 50
45.57299599919413
 51
53.13010235415771
  0
SPLINE
  5
FD
330
3C
100
AcDbEntity
  8
1
  6
Continuous
 62
     7
100
AcDbSpline
210
0.0
220
0.0
230
1.0
 70
    11
 71
     3
 72
    79
 73
    75
 74
    73
 42
0.0000000001
 43
0.0000000001
 44
0.00000001
 40
0.0
 40
0.0
 40
0.0
 40
0.0
 40
0.2813058570510202
 40
0.5625954513377066
 40
0.8464058204026675
 40
1.130186998404577
 40
1.417787784763441
 40
1.705351861250094
 40
1.997533866650938
 40
2.289677418676304
 40
2.58665720292858
 40
2.883601653291125
 40
3.185020681157653
 40
3.486410939524291
 40
3.791400830016148
 40
4.096370631708609
 40
4.403667413297436
 40
4.710953915251566
 40
5.019044498149371
 40
5.32713508104719
 40
5.634421583001366
 40
5.941718364590131
 40
6.246688166282565
 40
6.551678056774429
 40
6.853068315141067
 40
7.154487343007578
 40
7.451431793370051
 40
7.748411577622368
 40
8.040555129647784
 40
8.332737135048646
 40
8.620301211535308
 40
8.907901997894159
 40
9.191683175896031
 40
9.47549354496096
 40
9.756783139247647
 40
10.03808899629869
 40
10.31851414590947
 40
10.59893929552025
 40
10.88024515257132
 40
11.16153474685802
 40
11.44534511592293
 40
11.72912629392481
 40
12.01672708028371
 40
12.30429115677033
 40
12.59647316217119
 40
12.88861671419655
 40
13.18559649844889
 40
13.48254094881138
 40
13.7839599766779
 40
14.08535023504454
 40
14.39034012553637
 40
14.69530992722883
 40
15.00260670881761
 40
15.30989321077176
 40
15.61798379366958
 40
15.9260743765674
 40
16.23336087852153
 40
16.54065766011033
 40
16.84562746180283
 40
17.1506173522947
 40
17.45200761066136
 40
17.75342663852781
 40
18.05037108889025
 40
18.34735087314261
 40
18.63949442516802
 40
18.93167643056889
 40
19.21924050705549
 40
19.50684129341441
 40
19.7906224714163
 40
20.0744328404812
 40
20.35572243476792
 40
20.63702829181894
 40
20.91745344142974
 40
21.19787859104046
 40
21.19787859104046
 40
21.19787859104046
 40
21.19787859104046
 10
160.0263517253781
 20
124.8010098624956
 30
0.0
 10
160.119477905856
 20
124.7894414388169
 30
0.0
 10
160.3057248830309
 20
124.7663052602497
 30
0.0
 10
160.5800248700383
 20
124.697561078166
 30
0.0
 10
160.8477683665983
 20
124.6050163798342
 30
0.0
 10
161.1073797094324
 20
124.4861947895998
 30
0.0
 10
161.3560972338106
 20
124.3435686180874
 30
0.0
 10
161.5929404142805
 20
124.1770683299579
 30
0.0
 10
161.8151568978739
 20
123.9891571633305
 30
0.0
 10
162.0220197624613
 20
123.7800478675986
 30
0.0
 10
162.2110798557004
 20
123.5526510845353
 30
0.0
 10
162.3817200070497
 20
123.3073669135564
 30
0.0
 10
162.5319850514721
 20
123.0474017312284
 30
0.0
 10
162.6612927928697
 20
122.7734469415332
 30
0.0
 10
162.7682846246198
 20
122.4887684470114
 30
0.0
 10
162.8524173231374
 20
122.1944780369331
 30
0.0
 10
162.9129369293808
 20
121.8936606657852
 30
0.0
 10
162.9494182141036
 20
121.5879491396509
 30
0.0
 10
162.9616371971487
 20
121.2800467163684
 30
0.0
 10
162.949418214104
 20
120.9721442930799
 30
0.0
 10
162.9129369293796
 20
120.6664327669631
 30
0.0
 10
162.8524173231422
 20
120.3656153957518
 30
0.0
 10
162.7682846246021
 20
120.0713249859077
 30
0.0
 10
162.6612927929357
 20
119.786646490517
 30
0.0
 10
162.5319850512287
 20
119.5126917040282
 30
0.0
 10
162.3817200079527
 20
119.2527265098215
 30
0.0
 10
162.2110798523859
 20
119.0074423825461
 30
0.0
 10
162.0220197747544
 20
118.7800454377545
 30
0.0
 10
161.8151568528228
 20
118.5709367362301
 30
0.0
 10
161.5929405814065
 20
118.3830233709909
 30
0.0
 10
161.3560966209979
 20
118.2165311647114
 30
0.0
 10
161.1073819851816
 20
118.0738750614577
 30
0.0
 10
160.8477599982147
 20
117.9551637674303
 30
0.0
 10
160.5800560015506
 20
117.8622097648584
 30
0.0
 10
160.3056098407539
 20
117.7949802589609
 30
0.0
 10
160.0270722147274
 20
117.7546751312514
 30
0.0
 10
159.7462526102287
 20
117.7410171599956
 30
0.0
 10
159.4654330057301
 20
117.7546751312514
 30
0.0
 10
159.1868953797034
 20
117.7949802589609
 30
0.0
 10
158.9124492189068
 20
117.8622097648585
 30
0.0
 10
158.6447452222427
 20
117.9551637674304
 30
0.0
 10
158.3851232352758
 20
118.0738750614578
 30
0.0
 10
158.1364085994595
 20
118.2165311647114
 30
0.0
 10
157.8995646390509
 20
118.383023370991
 30
0.0
 10
157.6773483676345
 20
118.5709367362301
 30
0.0
 10
157.4704854457031
 20
118.7800454377545
 30
0.0
 10
157.2814253680715
 20
119.0074423825461
 30
0.0
 10
157.1107852125047
 20
119.2527265098214
 30
0.0
 10
156.9605201692287
 20
119.5126917040282
 30
0.0
 10
156.8312124275216
 20
119.786646490517
 30
0.0
 10
156.7242205958554
 20
120.0713249859077
 30
0.0
 10
156.6400878973151
 20
120.3656153957518
 30
0.0
 10
156.5795682910779
 20
120.666432766963
 30
0.0
 10
156.5430870063534
 20
120.9721442930803
 30
0.0
 10
156.5308680233089
 20
121.2800467163675
 30
0.0
 10
156.5430870063534
 20
121.5879491396543
 30
0.0
 10
156.579568291078
 20
121.8936606657727
 30
0.0
 10
156.6400878973148
 20
122.1944780369794
 30
0.0
 10
156.7242205958567
 20
122.4887684468403
 30
0.0
 10
156.8312124275169
 20
122.7734469421687
 30
0.0
 10
156.9605201692461
 20
123.0474017288874
 30
0.0
 10
157.1107852124399
 20
123.3073669222426
 30
0.0
 10
157.2814253683091
 20
123.5526510526508
 30
0.0
 10
157.4704854448219
 20
123.7800479858492
 30
0.0
 10
157.6773483708639
 20
123.9891567299683
 30
0.0
 10
157.8995646270708
 20
124.1770699376037
 30
0.0
 10
158.136408643388
 20
124.3435627232168
 30
0.0
 10
158.3851230721426
 20
124.4862166808652
 30
0.0
 10
158.6447458221159
 20
124.6049358812861
 30
0.0
 10
158.912446987298
 20
124.6978605435888
 30
0.0
 10
159.1869036263109
 20
124.7651986264393
 30
0.0
 10
159.4654022585117
 20
124.8050996938887
 30
0.0
 10
159.7463669627724
 20
124.8202612120888
 30
0.0
 10
159.9330234711762
 20
124.8074269790267
 30
0.0
 10
160.026351725378
 20
124.8010098624956
 30
0.0
 11
160.0263517253781
 21
124.8010098624956
 31
0.0
 11
160.3047494156591
 21
124.7606649587604
 31
0.0
 11
160.5779941800746
 21
124.6938732334236
 31
0.0
 11
160.8460977822518
 21
124.6007669281139
 31
0.0
 11
161.1042456718472
 21
124.4829050424783
 31
0.0
 11
161.3537357227442
 21
124.3398353852561
 31
0.0
 11
161.5890836240533
 21
124.1745947624208
 31
0.0
 11
161.8122235872728
 21
123.9859711130699
 31
0.0
 11
162.0177910516221
 21
123.7783901105889
 31
0.0
 11
162.2077040749948
 21
123.5500700812267
 31
0.0
 11
162.3773925028063
 21
123.30638617928
 31
0.0
 11
162.5282873575086
 21
123.0454567382727
 31
0.0
 11
162.6570288082323
 21
122.7729466894601
 31
0.0
 11
162.7643712147023
 21
122.4874708742402
 31
0.0
 11
162.8482683298331
 21
122.1942681218365
 31
0.0
 11
162.9089003507881
 21
121.8930123002998
 31
0.0
 11
162.9453498062318
 21
121.5878952219822
 31
0.0
 11
162.9575606563664
 21
121.2800467163674
 31
0.0
 11
162.9453498062318
 21
120.9721982107525
 31
0.0
 11
162.9089003507881
 21
120.6670811324349
 31
0.0
 11
162.8482683298331
 21
120.3658253108982
 31
0.0
 11
162.7643712147023
 21
120.0726225584946
 31
0.0
 11
162.6570288082323
 21
119.7871467432747
 31
0.0
 11
162.5282873575085
 21
119.5146366944621
 31
0.0
 11
162.3773925028063
 21
119.2537072534548
 31
0.0
 11
162.2077040749949
 21
119.0100233515081
 31
0.0
 11
162.0177910516221
 21
118.7817033221459
 31
0.0
 11
161.8122235872728
 21
118.5741223196649
 31
0.0
 11
161.5890836240533
 21
118.385498670314
 31
0.0
 11
161.3537357227442
 21
118.2202580474786
 31
0.0
 11
161.1042456718472
 21
118.0771883902565
 31
0.0
 11
160.8460977822518
 21
117.9593265046209
 31
0.0
 11
160.5779941800747
 21
117.8662201993112
 31
0.0
 11
160.3047494156591
 21
117.7994284739744
 31
0.0
 11
160.0263517253781
 21
117.7590835702392
 31
0.0
 11
159.7462526102287
 21
117.7455650560173
 31
0.0
 11
159.4661534950793
 21
117.7590835702392
 31
0.0
 11
159.1877558047983
 21
117.7994284739744
 31
0.0
 11
158.9145110403827
 21
117.8662201993113
 31
0.0
 11
158.6464074382056
 21
117.959326504621
 31
0.0
 11
158.3882595486102
 21
118.0771883902565
 31
0.0
 11
158.1387694977132
 21
118.2202580474787
 31
0.0
 11
157.9034215964041
 21
118.385498670314
 31
0.0
 11
157.6802816331845
 21
118.5741223196649
 31
0.0
 11
157.4747141688353
 21
118.7817033221459
 31
0.0
 11
157.2848011454625
 21
119.0100233515081
 31
0.0
 11
157.115112717651
 21
119.2537072534548
 31
0.0
 11
156.9642178629488
 21
119.5146366944621
 31
0.0
 11
156.8354764122251
 21
119.7871467432747
 31
0.0
 11
156.7281340057551
 21
120.0726225584946
 31
0.0
 11
156.6442368906243
 21
120.3658253108982
 31
0.0
 11
156.5836048696692
 21
120.6670811324349
 31
0.0
 11
156.5471554142256
 21
120.9721982107525
 31
0.0
 11
156.534944564091
 21
121.2800467163674
 31
0.0
 11
156.5471554142256
 21
121.5878952219823
 31
0.0
 11
156.5836048696693
 21
121.8930123002998
 31
0.0
 11
156.6442368906243
 21
122.1942681218365
 31
0.0
 11
156.7281340057551
 21
122.4874708742402
 31
0.0
 11
156.8354764122251
 21
122.7729466894601
 31
0.0
 11
156.9642178629489
 21
123.0454567382728
 31
0.0
 11
157.115112717651
 21
123.30638617928
 31
0.0
 11
157.2848011454625
 21
123.5500700812266
 31
0.0
 11
157.4747141688353
 21
123.7783901105889
 31
0.0
 11
157.6802816331846
 21
123.9859711130699
 31
0.0
 11
157.9034215964041
 21
124.1745947624208
 31
0.0
 11
158.1387694977132
 21
124.3398353852561
 31
0.0
 11
158.3882595486102
 21
124.4829050424783
 31
0.0
 11
158.6464074382056
 21
124.6007669281139
 31
0.0
 11
158.9145110403827
 21
124.6938732334236
 31
0.0
 11
159.1877558047983
 21
124.7606649587604
 31
0.0
 11
159.4661534950793
 21
124.8010098624956
 31
0.0
 11
159.7462526102287
 21
124.8145283767175
 31
0.0
 11
160.026351725378
 21
124.8010098624956
 31
0.0
  0
SPLINE
  5
FE
330
3C
100
AcDbEntity
  8
1
  6
Continuous
 62
     7
100
AcDbSpline
210
0.0
220
0.0
230
1.0
 70
    11
 71
     3
 72
    79
 73
    75
 74
    73
 42
0.0000000001
 43
0.0000000001
 44
0.00000001
 40
0.0
 40
0.0
 40
0.0
 40
0.0
 40
0.2813058570510202
 40
0.5625954513377343
 40
0.8464058204026952
 40
1.130186998404604
 40
1.417787784763469
 40
1.705351861250122
 40
1.997533866650944
 40
2.289677418676329
 40
2.586657202928606
 40
2.883601653291134
 40
3.185020681157677
 40
3.486410939524315
 40
3.791400830016181
 40
4.096370631708634
 40
4.403667413297455
 40
4.710953915251589
 40
5.019044498149394
 40
5.327135081047211
 40
5.63442158300139
 40
5.941718364590155
 40
6.246688166282589
 40
6.551678056774453
 40
6.853068315141091
 40
7.154487343007602
 40
7.451431793370091
 40
7.74841157762239
 40
8.040555129647805
 40
8.332737135048667
 40
8.620301211535329
 40
8.907901997894204
 40
9.191683175896076
 40
9.475493544960978
 40
9.756783139247665
 40
10.03808899629874
 40
10.31851414590952
 40
10.5989392955203
 40
10.88024515257131
 40
11.16153474685804
 40
11.44534511592298
 40
11.72912629392483
 40
12.01672708028371
 40
12.30429115677033
 40
12.59647316217118
 40
12.88861671419659
 40
13.18559649844892
 40
13.4825409488114
 40
13.78395997667792
 40
14.08535023504456
 40
14.3903401255364
 40
14.69530992722884
 40
15.00260670881762
 40
15.30989321077178
 40
15.6179837936696
 40
15.92607437656742
 40
16.23336087852156
 40
16.54065766011036
 40
16.84562746180284
 40
17.15061735229472
 40
17.45200761066137
 40
17.75342663852784
 40
18.05037108889029
 40
18.34735087314261
 40
18.63949442516802
 40
18.93167643056889
 40
19.21924050705554
 40
19.50684129341441
 40
19.79062247141632
 40
20.0744328404812
 40
20.35572243476792
 40
20.63702829181896
 40
20.91745344142974
 40
21.19787859104049
 40
21.19787859104049
 40
21.19787859104049
 40
21.19787859104049
 10
136.949492996684
 20
124.8010098624956
 30
0.0
 10
136.8563668162061
 20
124.789441438817
 30
0.0
 10
136.6701198390311
 20
124.7663052602497
 30
0.0
 10
136.3958198520237
 20
124.6975610781659
 30
0.0
 10
136.1280763554637
 20
124.6050163798342
 30
0.0
 10
135.8684650126297
 20
124.4861947895998
 30
0.0
 10
135.6197474882514
 20
124.3435686180874
 30
0.0
 10
135.3829043077814
 20
124.1770683299579
 30
0.0
 10
135.1606878241882
 20
123.9891571633305
 30
0.0
 10
134.9538249596007
 20
123.7800478675986
 30
0.0
 10
134.7647648663616
 20
123.5526510845353
 30
0.0
 10
134.5941247150123
 20
123.3073669135564
 30
0.0
 10
134.4438596705899
 20
123.0474017312284
 30
0.0
 10
134.3145519291924
 20
122.7734469415331
 30
0.0
 10
134.2075600974422
 20
122.4887684470114
 30
0.0
 10
134.1234273989245
 20
122.1944780369331
 30
0.0
 10
134.0629077926812
 20
121.8936606657851
 30
0.0
 10
134.0264265079583
 20
121.5879491396509
 30
0.0
 10
134.0142075249133
 20
121.2800467163684
 30
0.0
 10
134.0264265079579
 20
120.9721442930799
 30
0.0
 10
134.0629077926826
 20
120.6664327669631
 30
0.0
 10
134.1234273989197
 20
120.3656153957518
 30
0.0
 10
134.2075600974601
 20
120.0713249859077
 30
0.0
 10
134.3145519291263
 20
119.786646490517
 30
0.0
 10
134.4438596708333
 20
119.5126917040282
 30
0.0
 10
134.5941247141092
 20
119.2527265098214
 30
0.0
 10
134.7647648696762
 20
119.0074423825462
 30
0.0
 10
134.9538249473076
 20
118.7800454377544
 30
0.0
 10
135.1606878692391
 20
118.5709367362301
 30
0.0
 10
135.3829041406555
 20
118.3830233709909
 30
0.0
 10
135.6197481010641
 20
118.2165311647113
 30
0.0
 10
135.8684627368805
 20
118.0738750614577
 30
0.0
 10
136.1280847238473
 20
117.9551637674303
 30
0.0
 10
136.3957887205114
 20
117.8622097648584
 30
0.0
 10
136.670234881308
 20
117.7949802589609
 30
0.0
 10
136.9487725073346
 20
117.7546751312513
 30
0.0
 10
137.2295921118333
 20
117.7410171599956
 30
0.0
 10
137.5104117163319
 20
117.7546751312513
 30
0.0
 10
137.7889493423586
 20
117.794980258961
 30
0.0
 10
138.0633955031552
 20
117.8622097648584
 30
0.0
 10
138.3310994998193
 20
117.9551637674304
 30
0.0
 10
138.5907214867862
 20
118.0738750614577
 30
0.0
 10
138.8394361226025
 20
118.2165311647114
 30
0.0
 10
139.0762800830111
 20
118.383023370991
 30
0.0
 10
139.2984963544274
 20
118.5709367362301
 30
0.0
 10
139.5053592763589
 20
118.7800454377545
 30
0.0
 10
139.6944193539906
 20
119.0074423825461
 30
0.0
 10
139.8650595095573
 20
119.2527265098214
 30
0.0
 10
140.0153245528334
 20
119.5126917040282
 30
0.0
 10
140.1446322945403
 20
119.786646490517
 30
0.0
 10
140.2516241262067
 20
120.0713249859077
 30
0.0
 10
140.3357568247469
 20
120.3656153957518
 30
0.0
 10
140.396276430984
 20
120.666432766963
 30
0.0
 10
140.4327577157087
 20
120.9721442930803
 30
0.0
 10
140.4449766987531
 20
121.2800467163674
 30
0.0
 10
140.4327577157087
 20
121.5879491396543
 30
0.0
 10
140.3962764309839
 20
121.8936606657727
 30
0.0
 10
140.3357568247472
 20
122.1944780369794
 30
0.0
 10
140.2516241262053
 20
122.4887684468403
 30
0.0
 10
140.1446322945451
 20
122.7734469421687
 30
0.0
 10
140.0153245528159
 20
123.0474017288874
 30
0.0
 10
139.8650595096221
 20
123.3073669222426
 30
0.0
 10
139.6944193537528
 20
123.5526510526507
 30
0.0
 10
139.5053592772402
 20
123.7800479858492
 30
0.0
 10
139.2984963511981
 20
123.9891567299683
 30
0.0
 10
139.0762800949912
 20
124.1770699376037
 30
0.0
 10
138.8394360786741
 20
124.3435627232168
 30
0.0
 10
138.5907216499194
 20
124.4862166808653
 30
0.0
 10
138.3310988999461
 20
124.6049358812861
 30
0.0
 10
138.063397734764
 20
124.6978605435888
 30
0.0
 10
137.7889410957511
 20
124.7651986264392
 30
0.0
 10
137.5104424635503
 20
124.8050996938887
 30
0.0
 10
137.2294777592896
 20
124.8202612120889
 30
0.0
 10
137.0428212508859
 20
124.8074269790267
 30
0.0
 10
136.949492996684
 20
124.8010098624956
 30
0.0
 11
136.949492996684
 21
124.8010098624956
 31
0.0
 11
136.671095306403
 21
124.7606649587604
 31
0.0
 11
136.3978505419874
 21
124.6938732334236
 31
0.0
 11
136.1297469398103
 21
124.6007669281139
 31
0.0
 11
135.8715990502148
 21
124.4829050424783
 31
0.0
 11
135.6221089993179
 21
124.3398353852561
 31
0.0
 11
135.3867610980087
 21
124.1745947624208
 31
0.0
 11
135.1636211347892
 21
123.9859711130699
 31
0.0
 11
134.9580536704399
 21
123.7783901105889
 31
0.0
 11
134.7681406470672
 21
123.5500700812267
 31
0.0
 11
134.5984522192557
 21
123.30638617928
 31
0.0
 11
134.4475573645534
 21
123.0454567382727
 31
0.0
 11
134.3188159138297
 21
122.7729466894601
 31
0.0
 11
134.2114735073596
 21
122.4874708742402
 31
0.0
 11
134.127576392229
 21
122.1942681218365
 31
0.0
 11
134.0669443712739
 21
121.8930123002998
 31
0.0
 11
134.0304949158302
 21
121.5878952219822
 31
0.0
 11
134.0182840656956
 21
121.2800467163674
 31
0.0
 11
134.0304949158301
 21
120.9721982107525
 31
0.0
 11
134.0669443712739
 21
120.6670811324349
 31
0.0
 11
134.127576392229
 21
120.3658253108982
 31
0.0
 11
134.2114735073597
 21
120.0726225584946
 31
0.0
 11
134.3188159138297
 21
119.7871467432747
 31
0.0
 11
134.4475573645535
 21
119.5146366944621
 31
0.0
 11
134.5984522192557
 21
119.2537072534548
 31
0.0
 11
134.7681406470672
 21
119.0100233515081
 31
0.0
 11
134.9580536704399
 21
118.7817033221459
 31
0.0
 11
135.1636211347892
 21
118.5741223196649
 31
0.0
 11
135.3867610980087
 21
118.385498670314
 31
0.0
 11
135.6221089993179
 21
118.2202580474786
 31
0.0
 11
135.8715990502148
 21
118.0771883902565
 31
0.0
 11
136.1297469398103
 21
117.9593265046209
 31
0.0
 11
136.3978505419873
 21
117.8662201993112
 31
0.0
 11
136.6710953064029
 21
117.7994284739744
 31
0.0
 11
136.9494929966839
 21
117.7590835702392
 31
0.0
 11
137.2295921118333
 21
117.7455650560173
 31
0.0
 11
137.5096912269827
 21
117.7590835702392
 31
0.0
 11
137.7880889172637
 21
117.7994284739744
 31
0.0
 11
138.0613336816793
 21
117.8662201993113
 31
0.0
 11
138.3294372838564
 21
117.959326504621
 31
0.0
 11
138.5875851734518
 21
118.0771883902565
 31
0.0
 11
138.8370752243488
 21
118.2202580474787
 31
0.0
 11
139.0724231256579
 21
118.385498670314
 31
0.0
 11
139.2955630888774
 21
118.5741223196649
 31
0.0
 11
139.5011305532267
 21
118.7817033221459
 31
0.0
 11
139.6910435765995
 21
119.0100233515081
 31
0.0
 11
139.860732004411
 21
119.2537072534548
 31
0.0
 11
140.0116268591132
 21
119.5146366944621
 31
0.0
 11
140.1403683098369
 21
119.7871467432747
 31
0.0
 11
140.247710716307
 21
120.0726225584946
 31
0.0
 11
140.3316078314377
 21
120.3658253108982
 31
0.0
 11
140.3922398523927
 21
120.6670811324349
 31
0.0
 11
140.4286893078365
 21
120.9721982107525
 31
0.0
 11
140.440900157971
 21
121.2800467163674
 31
0.0
 11
140.4286893078365
 21
121.5878952219823
 31
0.0
 11
140.3922398523927
 21
121.8930123002998
 31
0.0
 11
140.3316078314377
 21
122.1942681218365
 31
0.0
 11
140.247710716307
 21
122.4874708742402
 31
0.0
 11
140.1403683098369
 21
122.7729466894601
 31
0.0
 11
140.0116268591132
 21
123.0454567382728
 31
0.0
 11
139.860732004411
 21
123.30638617928
 31
0.0
 11
139.6910435765995
 21
123.5500700812266
 31
0.0
 11
139.5011305532267
 21
123.7783901105889
 31
0.0
 11
139.2955630888775
 21
123.9859711130699
 31
0.0
 11
139.0724231256579
 21
124.1745947624208
 31
0.0
 11
138.8370752243488
 21
124.3398353852561
 31
0.0
 11
138.5875851734518
 21
124.4829050424783
 31
0.0
 11
138.3294372838564
 21
124.6007669281139
 31
0.0
 11
138.0613336816793
 21
124.6938732334236
 31
0.0
 11
137.7880889172637
 21
124.7606649587604
 31
0.0
 11
137.5096912269827
 21
124.8010098624956
 31
0.0
 11
137.2295921118333
 21
124.8145283767175
 31
0.0
 11
136.949492996684
 21
124.8010098624956
 31
0.0
  0
SPLINE
  5
FF
330
3C
100
AcDbEntity
  8
1
  6
Continuous
 62
     7
100
AcDbSpline
210
0.0
220
0.0
230
1.0
 70
    11
 71
     3
 72
    79
 73
    75
 74
    73
 42
0.0000000001
 43
0.0000000001
 44
0.00000001
 40
0.0
 40
0.0
 40
0.0
 40
0.0
 40
0.3218487445719693
 40
0.6432406819619752
 40
0.9926746414732537
 40
1.341535176629826
 40
1.729443407640738
 40
2.116911346312167
 40
2.547524805068739
 40
2.977850684345394
 40
3.449829054892649
 40
3.921628254981674
 40
4.429492687682161
 40
4.937248632562599
 40
5.472623777003356
 40
6.007937230905406
 40
6.560538334714697
 40
7.113111450437183
 40
7.671564002537465
 40
8.230016554637773
 40
8.782589670360258
 40
9.335190774169524
 40
9.87050422807155
 40
10.40587937251225
 40
10.91363531739272
 40
11.42149975009326
 40
11.89329895018235
 40
12.36527732072954
 40
12.79560320000618
 40
13.22621665876275
 40
13.61368459743421
 40
14.00159282844512
 40
14.35045336360166
 40
14.69988732311294
 40
15.02127926050293
 40
15.34312800507493
 40
15.6546311471509
 40
15.96613428922684
 40
16.28798303379882
 40
16.60937497118881
 40
16.95880893070009
 40
17.30766946585669
 40
17.69557769686761
 40
18.08304563553902
 40
18.51365909429556
 40
18.94398497357222
 40
19.41596334411949
 40
19.88776254420854
 40
20.39562697690907
 40
20.90338292178953
 40
21.43875806623025
 40
21.97407152013225
 40
22.52667262394154
 40
23.079245739664
 40
23.63769829176431
 40
24.19615084386468
 40
24.74872395958716
 40
25.30132506339642
 40
25.83663851729843
 40
26.37201366173918
 40
26.87976960661961
 40
27.38763403932009
 40
27.85943323940912
 40
28.3314116099564
 40
28.76173748923307
 40
29.19235094798963
 40
29.57981888666105
 40
29.96772711767196
 40
30.31658765282852
 40
30.66602161233981
 40
30.98741354972979
 40
31.30926229430177
 40
31.6207654363777
 40
31.93226857845365
 40
31.93226857845365
 40
31.93226857845365
 40
31.93226857845365
 10
154.885215801727
 20
121.5905188908296
 30
0.0
 10
154.8634912540528
 20
121.6958138168349
 30
0.0
 10
154.8200729928449
 20
121.9062542213821
 30
0.0
 10
154.6904766690182
 20
122.2126740201342
 30
0.0
 10
154.519960260945
 20
122.507519953714
 30
0.0
 10
154.2991793083035
 20
122.795648335321
 30
0.0
 10
154.0392219924581
 20
123.0665335914701
 30
0.0
 10
153.7329892138653
 20
123.3278392837989
 30
0.0
 10
153.3929399471637
 20
123.5686250366189
 30
0.0
 10
153.0107491330096
 20
123.7959902366168
 30
0.0
 10
152.6005186047293
 20
124.0006160801485
 30
0.0
 10
152.153947846056
 20
124.1877373401747
 30
0.0
 10
151.6852848492027
 20
124.3504888926341
 30
0.0
 10
151.1877872719425
 20
124.4920803162073
 30
0.0
 10
150.6743264265956
 20
124.6081029083896
 30
0.0
 10
150.1408873271845
 20
124.7001506067404
 30
0.0
 10
149.5977874618704
 20
124.7658251214626
 30
0.0
 10
149.0444724235316
 20
124.8057681023184
 30
0.0
 10
148.4879223610345
 20
124.8189316931632
 30
0.0
 10
147.9313722985165
 20
124.8057681023204
 30
0.0
 10
147.3780572602398
 20
124.7658251214548
 30
0.0
 10
146.8349573947006
 20
124.7001506067695
 30
0.0
 10
146.3015182961031
 20
124.6081029082852
 30
0.0
 10
145.7880574477925
 20
124.4920803165889
 30
0.0
 10
145.2905598810485
 20
124.350488891291
 30
0.0
 10
144.8218968463011
 20
124.1877373450467
 30
0.0
 10
144.3753262194944
 20
124.0006160633929
 30
0.0
 10
143.9650952209323
 20
123.7959902969926
 30
0.0
 10
143.5829060150318
 20
123.5686248332229
 30
0.0
 10
143.2428510587873
 20
123.3278400135527
 30
0.0
 10
142.9366375039454
 20
123.0665311683096
 30
0.0
 10
142.6766123653412
 20
122.7956570358662
 30
0.0
 10
142.4560605476154
 20
122.5074910735207
 30
0.0
 10
142.284729736098
 20
122.2127787113911
 30
0.0
 10
142.157943877008
 20
121.9058979643787
 30
0.0
 10
142.0832955879355
 20
121.5952208051127
 30
0.0
 10
142.0564585421857
 20
121.2800467163674
 30
0.0
 10
142.0832955879355
 20
120.9648726276222
 30
0.0
 10
142.1579438770079
 20
120.6541954683561
 30
0.0
 10
142.2847297360981
 20
120.3473147213437
 30
0.0
 10
142.4560605476153
 20
120.0526023592141
 30
0.0
 10
142.6766123653412
 20
119.7644363968685
 30
0.0
 10
142.9366375039454
 20
119.4935622644251
 30
0.0
 10
143.2428510587873
 20
119.232253419182
 30
0.0
 10
143.5829060150319
 20
118.991468599512
 30
0.0
 10
143.9650952209323
 20
118.7641031357422
 30
0.0
 10
144.3753262194944
 20
118.5594773693419
 30
0.0
 10
144.8218968463011
 20
118.3723560876881
 30
0.0
 10
145.2905598810485
 20
118.2096045414438
 30
0.0
 10
145.7880574477925
 20
118.0680131161458
 30
0.0
 10
146.3015182961031
 20
117.9519905244496
 30
0.0
 10
146.8349573947007
 20
117.8599428259653
 30
0.0
 10
147.3780572602396
 20
117.7942683112801
 30
0.0
 10
147.9313722985173
 20
117.7543253304143
 30
0.0
 10
148.4879223610313
 20
117.7411617395722
 30
0.0
 10
149.0444724235438
 20
117.7543253304141
 30
0.0
 10
149.5977874618259
 20
117.7942683112806
 30
0.0
 10
150.1408873273489
 20
117.8599428259633
 30
0.0
 10
150.6743264260039
 20
117.951990524457
 30
0.0
 10
151.1877872741053
 20
118.0680131161189
 30
0.0
 10
151.6852848415919
 20
118.2096045415386
 30
0.0
 10
152.1539478736632
 20
118.3723560873441
 30
0.0
 10
152.6005185097821
 20
118.5594773705251
 30
0.0
 10
153.0107494751338
 20
118.7641031314786
 30
0.0
 10
153.392938794606
 20
118.9914686138754
 30
0.0
 10
153.7329933490659
 20
119.2322533676482
 30
0.0
 10
154.0392082614526
 20
119.4935624355442
 30
0.0
 10
154.2992286105417
 20
119.7644357824525
 30
0.0
 10
154.5197966093428
 20
120.0526043986789
 30
0.0
 10
154.6910699092264
 20
120.3473073282447
 30
0.0
 10
154.8180542380303
 20
120.6542206265531
 30
0.0
 10
154.8919819539706
 20
120.96477960361
 30
0.0
 10
154.9214276297129
 20
121.2803815374161
 30
0.0
 10
154.8972864110556
 20
121.4871397730251
 30
0.0
 10
154.885215801727
 20
121.5905188908296
 30
0.0
 11
154.885215801727
 21
121.5905188908296
 31
0.0
 11
154.8098881203153
 21
121.9034283901992
 31
0.0
 11
154.6884909776488
 21
122.2010111705674
 31
0.0
 11
154.5135632603128
 21
122.5035080891754
 31
0.0
 11
154.3024957740803
 21
122.7812745184739
 31
0.0
 11
154.0347156066025
 21
123.0619283579124
 31
0.0
 11
153.7405573041172
 21
123.3141233153903
 31
0.0
 11
153.3897717905773
 21
123.5638781438778
 31
0.0
 11
153.0202681453561
 21
123.7844397419485
 31
0.0
 11
152.598320195719
 21
123.9959190791459
 31
0.0
 11
152.1633491820577
 21
124.1786612540238
 31
0.0
 11
151.6838093029978
 21
124.3458969750687
 31
0.0
 11
151.1955254849605
 21
124.4851629529828
 31
0.0
 11
150.6734174191592
 21
124.6036100420569
 31
0.0
 11
150.1459245874095
 21
124.6947791507577
 31
0.0
 11
149.5973538853606
 21
124.7613987033285
 31
0.0
 11
149.046215730632
 21
124.8011954698016
 31
0.0
 11
148.487922361031
 21
124.8145283767175
 31
0.0
 11
147.9296289914299
 21
124.8011954698017
 31
0.0
 11
147.3784908367014
 21
124.7613987033286
 31
0.0
 11
146.8299201346525
 21
124.6947791507577
 31
0.0
 11
146.3024273029029
 21
124.6036100420569
 31
0.0
 11
145.7803192371016
 21
124.4851629529828
 31
0.0
 11
145.2920354190643
 21
124.3458969750687
 31
0.0
 11
144.8124955400043
 21
124.1786612540238
 31
0.0
 11
144.3775245263429
 21
123.9959190791459
 31
0.0
 11
143.9555765767059
 21
123.7844397419485
 31
0.0
 11
143.5860729314847
 21
123.5638781438778
 31
0.0
 11
143.2352874179448
 21
123.3141233153903
 31
0.0
 11
142.9411291154595
 21
123.0619283579124
 31
0.0
 11
142.6733489479817
 21
122.7812745184739
 31
0.0
 11
142.4622814617492
 21
122.5035080891754
 31
0.0
 11
142.2873537444132
 21
122.2010111705675
 31
0.0
 11
142.1659566017467
 21
121.9034283901992
 31
0.0
 11
142.090628920335
 21
121.5905188908296
 31
0.0
 11
142.0653062741879
 21
121.2800467163674
 31
0.0
 11
142.090628920335
 21
120.9695745419052
 31
0.0
 11
142.1659566017467
 21
120.6566650425356
 31
0.0
 11
142.2873537444132
 21
120.3590822621674
 31
0.0
 11
142.4622814617492
 21
120.0565853435594
 31
0.0
 11
142.6733489479817
 21
119.7788189142609
 31
0.0
 11
142.9411291154595
 21
119.4981650748223
 31
0.0
 11
143.2352874179448
 21
119.2459701173445
 31
0.0
 11
143.5860729314847
 21
118.9962152888571
 31
0.0
 11
143.9555765767059
 21
118.7756536907863
 31
0.0
 11
144.377524526343
 21
118.5641743535888
 31
0.0
 11
144.8124955400043
 21
118.3814321787109
 31
0.0
 11
145.2920354190643
 21
118.2141964576661
 31
0.0
 11
145.7803192371016
 21
118.074930479752
 31
0.0
 11
146.3024273029029
 21
117.9564833906779
 31
0.0
 11
146.8299201346525
 21
117.8653142819771
 31
0.0
 11
147.3784908367015
 21
117.7986947294063
 31
0.0
 11
147.9296289914299
 21
117.7588979629332
 31
0.0
 11
148.487922361031
 21
117.7455650560173
 31
0.0
 11
149.0462157306321
 21
117.7588979629332
 31
0.0
 11
149.5973538853606
 21
117.7986947294062
 31
0.0
 11
150.1459245874096
 21
117.8653142819771
 31
0.0
 11
150.6734174191592
 21
117.9564833906779
 31
0.0
 11
151.1955254849605
 21
118.074930479752
 31
0.0
 11
151.6838093029978
 21
118.2141964576661
 31
0.0
 11
152.1633491820577
 21
118.3814321787109
 31
0.0
 11
152.598320195719
 21
118.5641743535888
 31
0.0
 11
153.0202681453561
 21
118.7756536907863
 31
0.0
 11
153.3897717905773
 21
118.9962152888571
 31
0.0
 11
153.7405573041172
 21
119.2459701173445
 31
0.0
 11
154.0347156066025
 21
119.4981650748224
 31
0.0
 11
154.3024957740803
 21
119.7788189142609
 31
0.0
 11
154.5135632603128
 21
120.0565853435594
 31
0.0
 11
154.6884909776489
 21
120.3590822621674
 31
0.0
 11
154.8098881203153
 21
120.6566650425356
 31
0.0
 11
154.885215801727
 21
120.9695745419052
 31
0.0
 11
154.9105384478741
 21
121.2800467163674
 31
0.0
 11
154.885215801727
 21
121.5905188908296
 31
0.0
  0
SPLINE
  5
100
330
3C
100
AcDbEntity
  8
1
  6
Continuous
 62
     7
100
AcDbSpline
210
0.0
220
0.0
230
1.0
 70
    11
 71
     3
 72
    81
 73
    77
 74
    75
 42
0.0000000001
 43
0.0000000001
 44
0.00000001
 40
0.0
 40
0.0
 40
0.0
 40
0.0
 40
0.3171240089063331
 40
0.634044009143842
 40
0.9694545231318337
 40
1.304528132370368
 40
1.66608910992864
 40
2.027350029498138
 40
2.418688401166397
 40
2.809801279914481
 40
3.230593109103673
 40
3.651230377149632
 40
4.097981219565767
 40
4.544632080559699
 40
5.011500609808118
 40
5.478309845196303
 40
5.957807795116838
 40
6.437278049322963
 40
6.92114626858603
 40
7.405014807161678
 40
7.884588033098362
 40
8.364188643216947
 40
8.830997876869274
 40
9.297866406062363
 40
9.744517267188355
 40
10.19126810634511
 40
10.61190537771974
 40
11.03269723098771
 40
11.42381008635346
 40
11.81514829891029
 40
12.17640936845904
 40
12.53797134448276
 40
12.87304401638107
 40
13.20844847914386
 40
13.52537429945633
 40
13.84253416503902
 40
14.15301689751558
 40
14.46349962999216
 40
14.78065949557486
 40
15.09758531588728
 40
15.43298977864983
 40
15.76806245054764
 40
16.1296244265721
 40
16.49088549612402
 40
16.88222370867755
 40
17.27333656402739
 40
17.69412841731104
 40
18.11476568876018
 40
18.56151652784901
 40
19.00816738867184
 40
19.47503591810536
 40
19.94184515265341
 40
20.42139443267065
 40
20.90091617272436
 40
21.38478455164448
 40
21.86865293056319
 40
22.34817467062159
 40
22.82772395067881
 40
23.29453318517344
 40
23.76140171419391
 40
24.20805257548021
 40
24.6548034179018
 40
25.07544068592527
 40
25.49623251539334
 40
25.88734539392436
 40
26.27868376431944
 40
26.63994468483562
 40
27.00150566720559
 40
27.33657927321877
 40
27.67198977420058
 40
27.98887747926499
 40
28.30596856164042
 40
28.46167831631212
 40
28.61667566278444
 40
28.77170543479981
 40
28.92744806510504
 40
28.92744806510504
 40
28.92744806510504
 40
28.92744806510504
 10
61.24512667666579
 20
120.9701550960582
 30
0.0
 10
61.22654549348544
 20
120.8659194855239
 30
0.0
 10
61.1893950805636
 20
120.6575153201418
 30
0.0
 10
61.07853430748564
 20
120.352493208565
 30
0.0
 10
60.93151150661141
 20
120.0573423851748
 30
0.0
 10
60.74143241590402
 20
119.7696553942224
 30
0.0
 10
60.51629721718293
 20
119.4974227163787
 30
0.0
 10
60.25170707063909
 20
119.2360204088817
 30
0.0
 10
59.95660511981491
 20
118.9938395512862
 30
0.0
 10
59.62585736065809
 20
118.7662203231311
 30
0.0
 10
59.26972649711074
 20
118.5605368023707
 30
0.0
 10
58.88299325353505
 20
118.3731645956549
 30
0.0
 10
58.47625273362995
 20
118.2097205477784
 30
0.0
 10
58.04526386982231
 20
118.0679320467506
 30
0.0
 10
57.59982927216311
 20
117.9515056005338
 30
0.0
 10
57.13761090692199
 20
117.8593356965282
 30
0.0
 10
56.66667565265922
 20
117.7934688625064
 30
0.0
 10
56.18714798616446
 20
117.7534850573768
 30
0.0
 10
55.70468021582535
 20
117.7402689761678
 30
0.0
 10
55.22217843799359
 20
117.753497275331
 30
0.0
 10
54.74258337791506
 20
117.7935007721854
 30
0.0
 10
54.27158278761424
 20
117.8593964167077
 30
0.0
 10
53.80933517901413
 20
117.9515946959321
 30
0.0
 10
53.36390605335608
 20
118.0680420947137
 30
0.0
 10
52.93292386676492
 20
118.2098508612477
 30
0.0
 10
52.52619099946084
 20
118.3733140172031
 30
0.0
 10
52.13946665462406
 20
118.5607044217314
 30
0.0
 10
51.78334513656085
 20
118.7664046897479
 30
0.0
 10
51.4526093596656
 20
118.9940396118763
 30
0.0
 10
51.15751423001612
 20
119.2362334973866
 30
0.0
 10
50.89295133719847
 20
119.4976506260616
 30
0.0
 10
50.6677752874859
 20
119.7698871041748
 30
0.0
 10
50.47790027336204
 20
120.0576077418526
 30
0.0
 10
50.3302039488902
 20
120.3526670955479
 30
0.0
 10
50.22177257656421
 20
120.658045792942
 30
0.0
 10
50.15759725687833
 20
120.967279355459
 30
0.0
 10
50.13504538395404
 20
121.2801776450403
 30
0.0
 10
50.1576119678728
 20
121.593074873992
 30
0.0
 10
50.22180182620877
 20
121.9023054189427
 30
0.0
 10
50.33024755589813
 20
122.2076790180613
 30
0.0
 10
50.47795775252241
 20
122.5027314274375
 30
0.0
 10
50.66784629372047
 20
122.7904431377587
 30
0.0
 10
50.89303514247544
 20
123.0626690288431
 30
0.0
 10
51.15761032561197
 20
123.3240737187192
 30
0.0
 10
51.45271684175843
 20
123.5662537299611
 30
0.0
 10
51.78346332064528
 20
123.7938731021534
 30
0.0
 10
52.13959450940263
 20
123.9995566267528
 30
0.0
 10
52.52632766392054
 20
124.186928849423
 30
0.0
 10
52.93306821592599
 20
124.3503728822767
 30
0.0
 10
53.3640570699587
 20
124.4921613850899
 30
0.0
 10
53.80949166957886
 20
124.6085878375046
 30
0.0
 10
54.27172682341773
 20
124.7007610627307
 30
0.0
 10
54.74269629458216
 20
124.7666312297158
 30
0.0
 10
55.22225859794961
 20
124.8066136068262
 30
0.0
 10
55.70474368276094
 20
124.8198244547435
 30
0.0
 10
56.18722814592949
 20
124.8065909227143
 30
0.0
 10
56.66678856900215
 20
124.7665859988626
 30
0.0
 10
57.13775494268037
 20
124.7006936887315
 30
0.0
 10
57.5999857622779
 20
124.6084987314397
 30
0.0
 10
58.04541488809129
 20
124.4920513391349
 30
0.0
 10
58.47639707688118
 20
124.3502425734264
 30
0.0
 10
58.88312993946286
 20
124.1867794059082
 30
0.0
 10
59.26985427683844
 20
123.9993890048882
 30
0.0
 10
59.62597581750846
 20
123.7936887856039
 30
0.0
 10
59.95671166405563
 20
123.56605385262
 30
0.0
 10
60.25180656173153
 20
123.3238596749087
 30
0.0
 10
60.51636941723415
 20
123.0624430035754
 30
0.0
 10
60.74154554977758
 20
122.7902066361642
 30
0.0
 10
60.93142448994362
 20
122.502486789888
 30
0.0
 10
61.07910171044898
 20
122.2074249654385
 30
0.0
 10
61.18756076719736
 20
121.9021136489602
 30
0.0
 10
61.24112035513021
 20
121.6434854160643
 30
0.0
 10
61.263232025137
 20
121.4352520174789
 30
0.0
 10
61.26849012637818
 20
121.2799857558529
 30
0.0
 10
61.26364814224685
 20
121.1246170157603
 30
0.0
 10
61.25130993243457
 20
121.0217210778037
 30
0.0
 10
61.24512667666579
 20
120.9701550960582
 30
0.0
 11
61.24512667666579
 21
120.9701550960582
 31
0.0
 11
61.18053871194264
 21
120.6596779924938
 31
0.0
 11
61.07532999936835
 21
120.3607308176468
 31
0.0
 11
60.92554192712365
 21
120.0606245926082
 31
0.0
 11
60.74169543573727
 21
119.7804910687075
 31
0.0
 11
60.51177251926281
 21
119.5014538078035
 31
0.0
 11
60.25528767108375
 21
119.2470427729352
 31
0.0
 11
59.95324718439158
 21
118.9982109712323
 31
0.0
 11
59.63136652143925
 21
118.7760350887878
 31
0.0
 11
59.26730884387862
 21
118.56501904456
 31
0.0
 11
58.8889322775674
 21
118.381261363535
 31
0.0
 11
58.47458961672492
 21
118.2142090525498
 31
0.0
 11
58.05038965663431
 21
118.0743827836095
 31
0.0
 11
57.59878858216027
 21
117.9559653307722
 31
0.0
 11
57.14101894910264
 21
117.8645441882833
 31
0.0
 11
56.66617500454926
 21
117.7978995163359
 31
0.0
 11
56.18836436208585
 21
117.7580408332519
 31
0.0
 11
55.70468037594829
 21
117.7446896098289
 31
0.0
 11
55.22099638234889
 21
117.7580521305144
 31
0.0
 11
54.74308428742184
 21
117.7979333110105
 31
0.0
 11
54.26814141460099
 21
117.8646117391773
 31
0.0
 11
53.81037607880248
 21
117.9560543876754
 31
0.0
 11
53.35878057201099
 21
118.0744930713757
 31
0.0
 11
52.93458718660337
 21
118.2143392852001
 31
0.0
 11
52.52025238029047
 21
118.3814110678712
 31
0.0
 11
52.1418844537822
 21
118.5651865457221
 31
0.0
 11
51.77783669755807
 21
118.7762197539261
 31
0.0
 11
51.45596648068497
 21
118.9984107283657
 31
0.0
 11
51.15393769350168
 21
119.2472564804286
 31
0.0
 11
50.89746480660315
 21
119.5016797864708
 31
0.0
 11
50.66755500805736
 21
119.780729149557
 31
0.0
 11
50.48372168862319
 21
120.0608701963868
 31
0.0
 11
50.33394773323585
 21
120.3609767040284
 31
0.0
 11
50.22875306940646
 21
120.6599349925614
 31
0.0
 11
50.16417966350402
 21
120.9704517482873
 31
0.0
 11
50.14251160478285
 21
121.2801774695269
 31
0.0
 11
50.1641942253401
 21
121.589902171693
 31
0.0
 11
50.22878223022195
 21
121.9004158911352
 31
0.0
 11
50.33399094956059
 21
122.1993692335748
 31
0.0
 11
50.48377901439184
 21
122.499468699211
 31
0.0
 11
50.6676255045494
 21
122.7796011027446
 31
0.0
 11
50.8975484224416
 21
123.0586396562361
 31
0.0
 11
51.15403327085442
 21
123.3130509038421
 31
0.0
 11
51.45607375727199
 21
123.5618824556382
 31
0.0
 11
51.77795442017634
 21
123.7840582969625
 31
0.0
 11
52.14201209779286
 21
123.9950743891412
 31
0.0
 11
52.52038866413116
 21
124.1788320779006
 31
0.0
 11
52.93473132494324
 21
124.345884380063
 31
0.0
 11
53.35893128491571
 21
124.485710648815
 31
0.0
 11
53.81053235951733
 21
124.6041281018956
 31
0.0
 11
54.26830199329626
 21
124.695549236483
 31
0.0
 11
54.74319696917499
 21
124.7621996217046
 31
0.0
 11
55.22105927508601
 21
124.8020583192942
 31
0.0
 11
55.70474357884284
 21
124.8154038210852
 31
0.0
 11
56.18842725462208
 21
124.8020355787888
 31
0.0
 11
56.66628768603444
 21
124.7621544143245
 31
0.0
 11
57.14117952779569
 21
124.6954817015251
 31
0.0
 11
57.59894486287499
 21
124.6040390451268
 31
0.0
 11
58.05054036955266
 21
124.4856003616729
 31
0.0
 11
58.47473375506594
 21
124.3457541476571
 31
0.0
 11
58.8890685613343
 21
124.1786823561453
 31
0.0
 11
59.26743648788126
 21
123.9949068860444
 31
0.0
 11
59.6314842444467
 21
123.7838737258852
 31
0.0
 11
59.95335446102714
 21
123.5616827102449
 31
0.0
 11
60.2553832464165
 21
123.3128367077862
 31
0.0
 11
60.51185613484214
 21
123.0584136148979
 31
0.0
 11
60.74176594266891
 21
122.7793655469286
 31
0.0
 11
60.92559925405866
 21
122.4992233775393
 31
0.0
 11
61.0753731609121
 21
122.1991100972688
 31
0.0
 11
61.18055918162169
 21
121.9001891734975
 31
0.0
 11
61.24513247705602
 21
121.5897426498598
 31
0.0
 11
61.26138968967001
 21
121.4348839053926
 31
0.0
 11
61.266809337487
 21
121.2799813397876
 31
0.0
 11
61.26138910508139
 21
121.1250463492535
 31
0.0
 11
61.24512667666579
 21
120.9701550960582
 31
0.0
  0
SPLINE
  5
101
330
3C
100
AcDbEntity
  8
1
  6
Continuous
 62
     7
100
AcDbSpline
210
0.0
220
0.0
230
1.0
 70
    11
 71
     3
 72
    81
 73
    77
 74
    75
 42
0.0000000001
 43
0.0000000001
 44
0.00000001
 40
0.0
 40
0.0
 40
0.0
 40
0.0
 40
0.3171240089063316
 40
0.6340440091438429
 40
0.9694545231318346
 40
1.304528132370368
 40
1.666089109928641
 40
2.027350029498138
 40
2.418688401166393
 40
2.809801279914471
 40
3.230593109103674
 40
3.651230377149628
 40
4.09798121956575
 40
4.544632080559688
 40
5.011500609808119
 40
5.478309845196304
 40
5.957807795116826
 40
6.43727804932295
 40
6.921146268586032
 40
7.405014807161694
 40
7.884588033098371
 40
8.364188643216949
 40
8.830997876869276
 40
9.297866406062351
 40
9.744517267188364
 40
10.19126810634511
 40
10.61190537771975
 40
11.03269723098772
 40
11.42381008635346
 40
11.81514829891029
 40
12.17640936845905
 40
12.53797134448277
 40
12.87304401638108
 40
13.20844847914387
 40
13.52537429945634
 40
13.84253416503903
 40
14.15301689751559
 40
14.46349962999217
 40
14.78065949557487
 40
15.09758531588729
 40
15.43298977864984
 40
15.76806245054765
 40
16.12962442657212
 40
16.49088549612402
 40
16.88222370867755
 40
17.2733365640274
 40
17.69412841731106
 40
18.1147656887602
 40
18.56151652784901
 40
19.00816738867186
 40
19.47503591810538
 40
19.94184515265343
 40
20.42139443267066
 40
20.90091617272437
 40
21.38478455164447
 40
21.8686529305632
 40
22.34817467062162
 40
22.82772395067882
 40
23.29453318517343
 40
23.76140171419394
 40
24.20805257548022
 40
24.65480341790181
 40
25.07544068592528
 40
25.49623251539335
 40
25.88734539392437
 40
26.27868376431946
 40
26.63994468483562
 40
27.0015056672056
 40
27.33657927321878
 40
27.67198977420059
 40
27.988877479265
 40
28.30596856164043
 40
28.46167831631214
 40
28.61667566278445
 40
28.77170543479982
 40
28.92744806510505
 40
28.92744806510505
 40
28.92744806510505
 40
28.92744806510505
 10
63.16419426500427
 20
120.9701550960582
 30
0.0
 10
63.18277544818461
 20
120.8659194855239
 30
0.0
 10
63.21992586110646
 20
120.6575153201418
 30
0.0
 10
63.33078663418442
 20
120.352493208565
 30
0.0
 10
63.47780943505866
 20
120.0573423851748
 30
0.0
 10
63.66788852576604
 20
119.7696553942224
 30
0.0
 10
63.89302372448714
 20
119.4974227163787
 30
0.0
 10
64.15761387103096
 20
119.2360204088817
 30
0.0
 10
64.45271582185515
 20
118.9938395512862
 30
0.0
 10
64.78346358101194
 20
118.7662203231311
 30
0.0
 10
65.13959444455934
 20
118.5605368023707
 30
0.0
 10
65.52632768813498
 20
118.3731645956549
 30
0.0
 10
65.93306820804008
 20
118.2097205477784
 30
0.0
 10
66.36405707184774
 20
118.0679320467505
 30
0.0
 10
66.80949166950694
 20
117.9515056005338
 30
0.0
 10
67.27171003474804
 20
117.8593356965282
 30
0.0
 10
67.74264528901082
 20
117.7934688625064
 30
0.0
 10
68.22217295550561
 20
117.7534850573769
 30
0.0
 10
68.7046407258447
 20
117.7402689761677
 30
0.0
 10
69.18714250367648
 20
117.753497275331
 30
0.0
 10
69.66673756375502
 20
117.7935007721853
 30
0.0
 10
70.13773815405583
 20
117.8593964167078
 30
0.0
 10
70.59998576265591
 20
117.951594695932
 30
0.0
 10
71.045414888314
 20
118.0680420947137
 30
0.0
 10
71.47639707490515
 20
118.2098508612477
 30
0.0
 10
71.88312994220921
 20
118.3733140172031
 30
0.0
 10
72.26985428704602
 20
118.5607044217315
 30
0.0
 10
72.62597580510924
 20
118.7664046897479
 30
0.0
 10
72.95671158200443
 20
118.9940396118763
 30
0.0
 10
73.25180671165396
 20
119.2362334973866
 30
0.0
 10
73.51636960447158
 20
119.4976506260616
 30
0.0
 10
73.74154565418417
 20
119.7698871041747
 30
0.0
 10
73.93142066830801
 20
120.0576077418526
 30
0.0
 10
74.07911699277986
 20
120.3526670955479
 30
0.0
 10
74.1875483651059
 20
120.658045792942
 30
0.0
 10
74.25172368479174
 20
120.9672793554589
 30
0.0
 10
74.27427555771601
 20
121.2801776450403
 30
0.0
 10
74.25170897379726
 20
121.593074873992
 30
0.0
 10
74.18751911546127
 20
121.9023054189426
 30
0.0
 10
74.07907338577195
 20
122.2076790180614
 30
0.0
 10
73.93136318914765
 20
122.5027314274375
 30
0.0
 10
73.7414746479496
 20
122.7904431377588
 30
0.0
 10
73.51628579919459
 20
123.062669028843
 30
0.0
 10
73.25171061605812
 20
123.3240737187192
 30
0.0
 10
72.95660409991166
 20
123.5662537299611
 30
0.0
 10
72.62585762102478
 20
123.7938731021534
 30
0.0
 10
72.26972643226743
 20
123.9995566267528
 30
0.0
 10
71.88299327774951
 20
124.186928849423
 30
0.0
 10
71.47625272574406
 20
124.3503728822767
 30
0.0
 10
71.04526387171134
 20
124.4921613850899
 30
0.0
 10
70.5998292720912
 20
124.6085878375046
 30
0.0
 10
70.13759411825234
 20
124.7007610627307
 30
0.0
 10
69.66662464708791
 20
124.7666312297159
 30
0.0
 10
69.18706234372048
 20
124.8066136068262
 30
0.0
 10
68.70457725890913
 20
124.8198244547435
 30
0.0
 10
68.22209279574057
 20
124.8065909227144
 30
0.0
 10
67.74253237266794
 20
124.7665859988626
 30
0.0
 10
67.27156599898967
 20
124.7006936887315
 30
0.0
 10
66.80933517939216
 20
124.6084987314397
 30
0.0
 10
66.36390605357879
 20
124.492051339135
 30
0.0
 10
65.93292386478885
 20
124.3502425734264
 30
0.0
 10
65.52619100220721
 20
124.1867794059082
 30
0.0
 10
65.13946666483163
 20
123.9993890048883
 30
0.0
 10
64.78334512416159
 20
123.7936887856039
 30
0.0
 10
64.45260927761446
 20
123.56605385262
 30
0.0
 10
64.15751437993848
 20
123.3238596749087
 30
0.0
 10
63.89295152443593
 20
123.0624430035754
 30
0.0
 10
63.66777539189249
 20
122.7902066361642
 30
0.0
 10
63.47789645172642
 20
122.502486789888
 30
0.0
 10
63.33021923122109
 20
122.2074249654385
 30
0.0
 10
63.22176017447269
 20
121.9021136489602
 30
0.0
 10
63.16820058653988
 20
121.6434854160642
 30
0.0
 10
63.14608891653302
 20
121.4352520174789
 30
0.0
 10
63.14083081529187
 20
121.2799857558529
 30
0.0
 10
63.14567279942322
 20
121.1246170157603
 30
0.0
 10
63.15801100923551
 20
121.0217210778038
 30
0.0
 10
63.16419426500427
 20
120.9701550960582
 30
0.0
 11
63.16419426500427
 21
120.9701550960582
 31
0.0
 11
63.22878222972742
 21
120.6596779924938
 31
0.0
 11
63.33399094230171
 21
120.3607308176468
 31
0.0
 11
63.48377901454641
 21
120.0606245926082
 31
0.0
 11
63.66762550593279
 21
119.7804910687075
 31
0.0
 11
63.89754842240726
 21
119.5014538078035
 31
0.0
 11
64.15403327058631
 21
119.2470427729352
 31
0.0
 11
64.45607375727848
 21
118.9982109712323
 31
0.0
 11
64.7779544202308
 21
118.7760350887878
 31
0.0
 11
65.14201209779144
 21
118.56501904456
 31
0.0
 11
65.52038866410265
 21
118.381261363535
 31
0.0
 11
65.93473132494512
 21
118.2142090525498
 31
0.0
 11
66.35893128503574
 21
118.0743827836095
 31
0.0
 11
66.81053235950979
 21
117.9559653307722
 31
0.0
 11
67.26830199256742
 21
117.8645441882833
 31
0.0
 11
67.74314593712079
 21
117.7978995163359
 31
0.0
 11
68.2209565795842
 21
117.7580408332519
 31
0.0
 11
68.70464056572178
 21
117.7446896098289
 31
0.0
 11
69.18832455932119
 21
117.7580521305144
 31
0.0
 11
69.66623665424822
 21
117.7979333110105
 31
0.0
 11
70.14117952706907
 21
117.8646117391773
 31
0.0
 11
70.59894486286758
 21
117.9560543876754
 31
0.0
 11
71.05054036965906
 21
118.0744930713757
 31
0.0
 11
71.47473375506669
 21
118.2143392852001
 31
0.0
 11
71.88906856137959
 21
118.3814110678712
 31
0.0
 11
72.26743648788786
 21
118.5651865457221
 31
0.0
 11
72.631484244112
 21
118.7762197539261
 31
0.0
 11
72.95335446098508
 21
118.9984107283657
 31
0.0
 11
73.25538324816839
 21
119.2472564804286
 31
0.0
 11
73.51185613506692
 21
119.5016797864708
 31
0.0
 11
73.7417659336127
 21
119.780729149557
 31
0.0
 11
73.92559925304687
 21
120.0608701963868
 31
0.0
 11
74.07537320843423
 21
120.3609767040284
 31
0.0
 11
74.18056787226362
 21
120.6599349925614
 31
0.0
 11
74.24514127816605
 21
120.9704517482873
 31
0.0
 11
74.26680933688721
 21
121.2801774695269
 31
0.0
 11
74.24512671632996
 21
121.589902171693
 31
0.0
 11
74.18053871144811
 21
121.9004158911352
 31
0.0
 11
74.07532999210947
 21
122.1993692335748
 31
0.0
 11
73.92554192727822
 21
122.499468699211
 31
0.0
 11
73.74169543712067
 21
122.7796011027446
 31
0.0
 11
73.51177251922844
 21
123.0586396562361
 31
0.0
 11
73.25528767081565
 21
123.3130509038421
 31
0.0
 11
72.95324718439808
 21
123.5618824556382
 31
0.0
 11
72.63136652149372
 21
123.7840582969625
 31
0.0
 11
72.26730884387719
 21
123.9950743891412
 31
0.0
 11
71.88893227753889
 21
124.1788320779006
 31
0.0
 11
71.47458961672683
 21
124.345884380063
 31
0.0
 11
71.05038965675433
 21
124.485710648815
 31
0.0
 11
70.59878858215272
 21
124.6041281018956
 31
0.0
 11
70.1410189483738
 21
124.695549236483
 31
0.0
 11
69.66612397249507
 21
124.7621996217046
 31
0.0
 11
69.18826166658405
 21
124.8020583192942
 31
0.0
 11
68.70457736282724
 21
124.8154038210852
 31
0.0
 11
68.22089368704798
 21
124.8020355787888
 31
0.0
 11
67.7430332556356
 21
124.7621544143245
 31
0.0
 11
67.26814141387438
 21
124.6954817015251
 31
0.0
 11
66.81037607879509
 21
124.6040390451268
 31
0.0
 11
66.35878057211738
 21
124.4856003616729
 31
0.0
 11
65.93458718660412
 21
124.3457541476571
 31
0.0
 11
65.52025238033576
 21
124.1786823561453
 31
0.0
 11
65.14188445378881
 21
123.9949068860444
 31
0.0
 11
64.77783669722336
 21
123.7838737258852
 31
0.0
 11
64.45596648064293
 21
123.5616827102449
 31
0.0
 11
64.15393769525355
 21
123.3128367077862
 31
0.0
 11
63.89746480682793
 21
123.0584136148979
 31
0.0
 11
63.66755499900116
 21
122.7793655469286
 31
0.0
 11
63.4837216876114
 21
122.4992233775393
 31
0.0
 11
63.33394778075797
 21
122.1991100972688
 31
0.0
 11
63.22876176004838
 21
121.9001891734975
 31
0.0
 11
63.16418846461404
 21
121.5897426498598
 31
0.0
 11
63.14793125200004
 21
121.4348839053926
 31
0.0
 11
63.14251160418306
 21
121.2799813397876
 31
0.0
 11
63.14793183658868
 21
121.1250463492535
 31
0.0
 11
63.16419426500427
 21
120.9701550960582
 31
0.0
  0
ENDBLK
  5
3E
330
3C
100
AcDbEntity
  8
0
100
AcDbBlockEnd
  0
BLOCK
  5
40
330
3F
100
AcDbEntity
  8
0
100
AcDbBlockBegin
  2
42-1
 70
     0
 71
     0
 10
60.38366227442749
 20
-57.00384540881331
 30
0.0
  3
42-1
  1

  0
LINE
  5
102
330
3F
100
AcDbEntity
  8
1
  6
Continuous
 62
     7
100
AcDbLine
 10
155.487922361031
 20
148.7858036007715
 30
0.0
 11
155.487922361031
 21
145.7858036007715
 31
0.0
  0
LINE
  5
103
330
3F
100
AcDbEntity
  8
1
  6
Continuous
 62
     7
100
AcDbLine
 10
154.4879223610311
 20
149.0551257997947
 30
0.0
 11
155.487922361031
 21
148.7858036007715
 31
0.0
  0
LINE
  5
104
330
3F
100
AcDbEntity
  8
1
  6
Continuous
 62
     7
100
AcDbLine
 10
154.987922361031
 20
148.7858036007715
 30
0.0
 11
155.487922361031
 21
148.7858036007715
 31
0.0
  0
LINE
  5
105
330
3F
100
AcDbEntity
  8
1
  6
Continuous
 62
     7
100
AcDbLine
 10
153.487922361031
 20
148.7858036007715
 30
0.0
 11
153.987922361031
 21
148.7858036007715
 31
0.0
  0
LINE
  5
106
330
3F
100
AcDbEntity
  8
1
  6
Continuous
 62
     2
100
AcDbLine
 10
153.987922361031
 20
145.7858036007715
 30
0.0
 11
153.987922361031
 21
148.7858036007715
 31
0.0
  0
LINE
  5
107
330
3F
100
AcDbEntity
  8
1
  6
Continuous
 62
     7
100
AcDbLine
 10
153.987922361031
 20
148.7858036007715
 30
0.0
 11
154.487922361031
 21
148.7858036007715
 31
0.0
  0
LINE
  5
108
330
3F
100
AcDbEntity
  8
1
  6
Continuous
 62
     7
100
AcDbLine
 10
154.487922361031
 20
148.7858036007715
 30
0.0
 11
154.987922361031
 21
148.7858036007715
 31
0.0
  0
LINE
  5
109
330
3F
100
AcDbEntity
  8
1
  6
Continuous
 62
     2
100
AcDbLine
 10
154.487922361031
 20
145.7858036007715
 30
0.0
 11
154.487922361031
 21
148.7858036007715
 31
0.0
  0
LINE
  5
10A
330
3F
100
AcDbEntity
  8
1
  6
Continuous
 62
     7
100
AcDbLine
 10
153.987922361031
 20
148.7858036007715
 30
0.0
 11
154.487922361031
 21
148.7858036007715
 31
0.0
  0
LINE
  5
10B
330
3F
100
AcDbEntity
  8
1
  6
Continuous
 62
     2
100
AcDbLine
 10
154.987922361031
 20
145.7858036007715
 30
0.0
 11
154.987922361031
 21
148.7858036007715
 31
0.0
  0
LINE
  5
10C
330
3F
100
AcDbEntity
  8
1
  6
Continuous
 62
     2
100
AcDbLine
 10
153.487922361031
 20
145.7858036007715
 30
0.0
 11
153.487922361031
 21
148.7858036007715
 31
0.0
  0
LINE
  5
10D
330
3F
100
AcDbEntity
  8
1
  6
Continuous
 62
     2
100
AcDbLine
 10
152.987922361031
 20
145.8913909269589
 30
0.0
 11
152.987922361031
 21
148.6413913657493
 31
0.0
  0
LINE
  5
10E
330
3F
100
AcDbEntity
  8
1
  6
Continuous
 62
     2
100
AcDbLine
 10
152.487922361031
 20
145.951851913223
 30
0.0
 11
152.487922361031
 21
148.5958771923192
 31
0.0
  0
LINE
  5
10F
330
3F
100
AcDbEntity
  8
1
  6
Continuous
 62
     2
100
AcDbLine
 10
151.987922361031
 20
146.0402763010335
 30
0.0
 11
151.987922361031
 21
148.5100219180363
 31
0.0
  0
LINE
  5
110
330
3F
100
AcDbEntity
  8
1
  6
Continuous
 62
     2
100
AcDbLine
 10
151.487922361031
 20
146.1465040810092
 30
0.0
 11
151.487922361031
 21
148.4823300944439
 31
0.0
  0
LINE
  5
111
330
3F
100
AcDbEntity
  8
1
  6
Continuous
 62
     2
100
AcDbLine
 10
150.987922361031
 20
146.3993527914488
 30
0.0
 11
150.987922361031
 21
148.3173467280574
 31
0.0
  0
LINE
  5
112
330
3F
100
AcDbEntity
  8
1
  6
Continuous
 62
     2
100
AcDbLine
 10
150.487922361031
 20
146.5033663886173
 30
0.0
 11
150.487922361031
 21
148.2714569126755
 31
0.0
  0
LINE
  5
113
330
3F
100
AcDbEntity
  8
1
  6
Continuous
 62
     2
100
AcDbLine
 10
149.987922361031
 20
146.7233974291407
 30
0.0
 11
149.987922361031
 21
148.0721237589933
 31
0.0
  0
LINE
  5
114
330
3F
100
AcDbEntity
  8
1
  6
Continuous
 62
     2
100
AcDbLine
 10
149.487922361031
 20
146.7629026123323
 30
0.0
 11
149.487922361031
 21
148.0281417029427
 31
0.0
  0
LINE
  5
115
330
3F
100
AcDbEntity
  8
1
  6
Continuous
 62
     7
100
AcDbLine
 10
148.487922361031
 20
149.1155693209752
 30
0.0
 11
154.237922361031
 21
149.1155693209752
 31
0.0
  0
LINE
  5
116
330
3F
100
AcDbEntity
  8
1
  6
Continuous
 62
     7
100
AcDbLine
 10
148.487922361031
 20
148.7858036007715
 30
0.0
 11
153.487922361031
 21
148.7858036007715
 31
0.0
  0
LINE
  5
117
330
3F
100
AcDbEntity
  8
1
  6
Continuous
 62
     7
100
AcDbLine
 10
155.487922361031
 20
148.7858036007715
 30
0.0
 11
154.237922361031
 21
149.1155693209752
 31
0.0
  0
LINE
  5
118
330
3F
100
AcDbEntity
  8
1
  6
Continuous
 62
     7
100
AcDbLine
 10
155.487922361031
 20
148.7858036007715
 30
0.0
 11
155.487922361031
 21
145.7858036007715
 31
0.0
  0
LINE
  5
119
330
3F
100
AcDbEntity
  8
1
  6
Continuous
 62
     2
100
AcDbLine
 10
146.987922361031
 20
148.0721237589933
 30
0.0
 11
146.987922361031
 21
146.7233974291407
 31
0.0
  0
LINE
  5
11A
330
3F
100
AcDbEntity
  8
1
  6
Continuous
 62
     2
100
AcDbLine
 10
145.987922361031
 20
148.3173467280574
 30
0.0
 11
145.987922361031
 21
146.3993527914488
 31
0.0
  0
LINE
  5
11B
330
3F
100
AcDbEntity
  8
1
  6
Continuous
 62
     2
100
AcDbLine
 10
144.987922361031
 20
148.5100219180363
 30
0.0
 11
144.987922361031
 21
146.0402763010335
 31
0.0
  0
LINE
  5
11C
330
3F
100
AcDbEntity
  8
1
  6
Continuous
 62
     2
100
AcDbLine
 10
143.987922361031
 20
148.6413913657493
 30
0.0
 11
143.987922361031
 21
145.8913909269589
 31
0.0
  0
LINE
  5
11D
330
3F
100
AcDbEntity
  8
1
  6
Continuous
 62
     7
100
AcDbLine
 10
142.987922361031
 20
148.7858036007715
 30
0.0
 11
143.487922361031
 21
148.7858036007715
 31
0.0
  0
LINE
  5
11E
330
3F
100
AcDbEntity
  8
1
  6
Continuous
 62
     2
100
AcDbLine
 10
142.987922361031
 20
148.7858036007715
 30
0.0
 11
142.987922361031
 21
145.7858036007715
 31
0.0
  0
LINE
  5
11F
330
3F
100
AcDbEntity
  8
1
  6
Continuous
 62
     7
100
AcDbLine
 10
141.987922361031
 20
148.7858036007715
 30
0.0
 11
142.487922361031
 21
148.7858036007715
 31
0.0
  0
LINE
  5
120
330
3F
100
AcDbEntity
  8
1
  6
Continuous
 62
     2
100
AcDbLine
 10
141.987922361031
 20
148.7858036007715
 30
0.0
 11
141.987922361031
 21
145.7858036007715
 31
0.0
  0
LINE
  5
121
330
3F
100
AcDbEntity
  8
1
  6
Continuous
 62
     7
100
AcDbLine
 10
141.487922361031
 20
145.7858036007715
 30
0.0
 11
141.487922361031
 21
148.7858036007715
 31
0.0
  0
LINE
  5
122
330
3F
100
AcDbEntity
  8
1
  6
Continuous
 62
     7
100
AcDbLine
 10
141.487922361031
 20
148.7858036007715
 30
0.0
 11
142.4879223610309
 21
149.0551257997947
 31
0.0
  0
LINE
  5
123
330
3F
100
AcDbEntity
  8
1
  6
Continuous
 62
     7
100
AcDbLine
 10
141.487922361031
 20
148.7858036007715
 30
0.0
 11
141.987922361031
 21
148.7858036007715
 31
0.0
  0
LINE
  5
124
330
3F
100
AcDbEntity
  8
1
  6
Continuous
 62
     2
100
AcDbLine
 10
142.487922361031
 20
148.7858036007715
 30
0.0
 11
142.487922361031
 21
145.7858036007715
 31
0.0
  0
LINE
  5
125
330
3F
100
AcDbEntity
  8
1
  6
Continuous
 62
     7
100
AcDbLine
 10
142.487922361031
 20
148.7858036007715
 30
0.0
 11
142.987922361031
 21
148.7858036007715
 31
0.0
  0
LINE
  5
126
330
3F
100
AcDbEntity
  8
1
  6
Continuous
 62
     2
100
AcDbLine
 10
143.487922361031
 20
148.7858036007715
 30
0.0
 11
143.487922361031
 21
145.7858036007715
 31
0.0
  0
LINE
  5
127
330
3F
100
AcDbEntity
  8
1
  6
Continuous
 62
     2
100
AcDbLine
 10
144.487922361031
 20
148.5958771923192
 30
0.0
 11
144.487922361031
 21
145.951851913223
 31
0.0
  0
LINE
  5
128
330
3F
100
AcDbEntity
  8
1
  6
Continuous
 62
     2
100
AcDbLine
 10
145.487922361031
 20
148.4823300944439
 30
0.0
 11
145.487922361031
 21
146.1465040810092
 31
0.0
  0
LINE
  5
129
330
3F
100
AcDbEntity
  8
1
  6
Continuous
 62
     2
100
AcDbLine
 10
146.487922361031
 20
148.2714569126755
 30
0.0
 11
146.487922361031
 21
146.5033663886173
 31
0.0
  0
LINE
  5
12A
330
3F
100
AcDbEntity
  8
1
  6
Continuous
 62
     2
100
AcDbLine
 10
147.487922361031
 20
148.0281417029427
 30
0.0
 11
147.487922361031
 21
146.7629026123323
 31
0.0
  0
LINE
  5
12B
330
3F
100
AcDbEntity
  8
1
  6
Continuous
 62
     7
100
AcDbLine
 10
142.737922361031
 20
149.1155693209752
 30
0.0
 11
148.487922361031
 21
149.1155693209752
 31
0.0
  0
LINE
  5
12C
330
3F
100
AcDbEntity
  8
1
  6
Continuous
 62
     7
100
AcDbLine
 10
143.487922361031
 20
148.7858036007715
 30
0.0
 11
148.487922361031
 21
148.7858036007715
 31
0.0
  0
LINE
  5
12D
330
3F
100
AcDbEntity
  8
1
  6
Continuous
 62
     7
100
AcDbLine
 10
148.487922361031
 20
145.7858036007715
 30
0.0
 11
153.487922361031
 21
145.7858036007715
 31
0.0
  0
LINE
  5
12E
330
3F
100
AcDbEntity
  8
1
  6
Continuous
 62
     7
100
AcDbLine
 10
153.487922361031
 20
145.7858036007715
 30
0.0
 11
153.987922361031
 21
145.7858036007715
 31
0.0
  0
LINE
  5
12F
330
3F
100
AcDbEntity
  8
1
  6
Continuous
 62
     7
100
AcDbLine
 10
153.987922361031
 20
145.7858036007715
 30
0.0
 11
154.487922361031
 21
145.7858036007715
 31
0.0
  0
LINE
  5
130
330
3F
100
AcDbEntity
  8
1
  6
Continuous
 62
     7
100
AcDbLine
 10
153.987922361031
 20
145.7858036007715
 30
0.0
 11
154.487922361031
 21
145.7858036007715
 31
0.0
  0
LINE
  5
131
330
3F
100
AcDbEntity
  8
1
  6
Continuous
 62
     7
100
AcDbLine
 10
154.987922361031
 20
145.7858036007715
 30
0.0
 11
155.487922361031
 21
145.7858036007715
 31
0.0
  0
LINE
  5
132
330
3F
100
AcDbEntity
  8
1
  6
Continuous
 62
     7
100
AcDbLine
 10
154.987922361031
 20
145.7858036007715
 30
0.0
 11
155.487922361031
 21
145.7858036007715
 31
0.0
  0
LINE
  5
133
330
3F
100
AcDbEntity
  8
1
  6
Continuous
 62
     7
100
AcDbLine
 10
154.487922361031
 20
145.7858036007715
 30
0.0
 11
154.987922361031
 21
145.7858036007715
 31
0.0
  0
LINE
  5
134
330
3F
100
AcDbEntity
  8
1
  6
Continuous
 62
     7
100
AcDbLine
 10
143.487922361031
 20
145.7858036007715
 30
0.0
 11
148.487922361031
 21
145.7858036007715
 31
0.0
  0
LINE
  5
135
330
3F
100
AcDbEntity
  8
1
  6
Continuous
 62
     7
100
AcDbLine
 10
142.987922361031
 20
145.7858036007715
 30
0.0
 11
143.487922361031
 21
145.7858036007715
 31
0.0
  0
LINE
  5
136
330
3F
100
AcDbEntity
  8
1
  6
Continuous
 62
     7
100
AcDbLine
 10
143.487922361031
 20
145.7858036007715
 30
0.0
 11
148.487922361031
 21
145.7858036007715
 31
0.0
  0
LINE
  5
137
330
3F
100
AcDbEntity
  8
1
  6
Continuous
 62
     7
100
AcDbLine
 10
142.987922361031
 20
145.7858036007715
 30
0.0
 11
143.487922361031
 21
145.7858036007715
 31
0.0
  0
LINE
  5
138
330
3F
100
AcDbEntity
  8
1
  6
Continuous
 62
     7
100
AcDbLine
 10
142.487922361031
 20
145.7858036007715
 30
0.0
 11
142.987922361031
 21
145.7858036007715
 31
0.0
  0
LINE
  5
139
330
3F
100
AcDbEntity
  8
1
  6
Continuous
 62
     7
100
AcDbLine
 10
142.987922361031
 20
145.7858036007715
 30
0.0
 11
143.487922361031
 21
145.7858036007715
 31
0.0
  0
LINE
  5
13A
330
3F
100
AcDbEntity
  8
1
  6
Continuous
 62
     7
100
AcDbLine
 10
142.487922361031
 20
145.7858036007715
 30
0.0
 11
142.987922361031
 21
145.7858036007715
 31
0.0
  0
LINE
  5
13B
330
3F
100
AcDbEntity
  8
1
  6
Continuous
 62
     7
100
AcDbLine
 10
142.987922361031
 20
145.7858036007715
 30
0.0
 11
143.487922361031
 21
145.7858036007715
 31
0.0
  0
LINE
  5
13C
330
3F
100
AcDbEntity
  8
1
  6
Continuous
 62
     7
100
AcDbLine
 10
142.487922361031
 20
145.7858036007715
 30
0.0
 11
142.987922361031
 21
145.7858036007715
 31
0.0
  0
LINE
  5
13D
330
3F
100
AcDbEntity
  8
1
  6
Continuous
 62
     7
100
AcDbLine
 10
141.987922361031
 20
145.7858036007715
 30
0.0
 11
142.487922361031
 21
145.7858036007715
 31
0.0
  0
LINE
  5
13E
330
3F
100
AcDbEntity
  8
1
  6
Continuous
 62
     7
100
AcDbLine
 10
142.487922361031
 20
145.7858036007715
 30
0.0
 11
142.987922361031
 21
145.7858036007715
 31
0.0
  0
LINE
  5
13F
330
3F
100
AcDbEntity
  8
1
  6
Continuous
 62
     7
100
AcDbLine
 10
141.987922361031
 20
145.7858036007715
 30
0.0
 11
142.487922361031
 21
145.7858036007715
 31
0.0
  0
LINE
  5
140
330
3F
100
AcDbEntity
  8
1
  6
Continuous
 62
     7
100
AcDbLine
 10
142.487922361031
 20
145.7858036007715
 30
0.0
 11
142.987922361031
 21
145.7858036007715
 31
0.0
  0
LINE
  5
141
330
3F
100
AcDbEntity
  8
1
  6
Continuous
 62
     7
100
AcDbLine
 10
141.987922361031
 20
145.7858036007715
 30
0.0
 11
142.487922361031
 21
145.7858036007715
 31
0.0
  0
LINE
  5
142
330
3F
100
AcDbEntity
  8
1
  6
Continuous
 62
     7
100
AcDbLine
 10
141.487922361031
 20
145.7858036007715
 30
0.0
 11
141.987922361031
 21
145.7858036007715
 31
0.0
  0
LINE
  5
143
330
3F
100
AcDbEntity
  8
1
  6
Continuous
 62
     7
100
AcDbLine
 10
69.20466047083502
 20
148.7858036007715
 30
0.0
 11
69.20466047083502
 21
145.7858036007715
 31
0.0
  0
LINE
  5
144
330
3F
100
AcDbEntity
  8
1
  6
Continuous
 62
     7
100
AcDbLine
 10
68.20466047083514
 20
149.0551257997947
 30
0.0
 11
69.20466047083502
 21
148.7858036007715
 31
0.0
  0
LINE
  5
145
330
3F
100
AcDbEntity
  8
1
  6
Continuous
 62
     7
100
AcDbLine
 10
68.70466047083502
 20
148.7858036007715
 30
0.0
 11
69.20466047083502
 21
148.7858036007715
 31
0.0
  0
LINE
  5
146
330
3F
100
AcDbEntity
  8
1
  6
Continuous
 62
     7
100
AcDbLine
 10
67.20466047083502
 20
148.7858036007715
 30
0.0
 11
67.70466047083502
 21
148.7858036007715
 31
0.0
  0
LINE
  5
147
330
3F
100
AcDbEntity
  8
1
  6
Continuous
 62
     2
100
AcDbLine
 10
67.70466047083502
 20
145.7858036007715
 30
0.0
 11
67.70466047083502
 21
148.7858036007715
 31
0.0
  0
LINE
  5
148
330
3F
100
AcDbEntity
  8
1
  6
Continuous
 62
     7
100
AcDbLine
 10
67.70466047083502
 20
148.7858036007715
 30
0.0
 11
68.20466047083502
 21
148.7858036007715
 31
0.0
  0
LINE
  5
149
330
3F
100
AcDbEntity
  8
1
  6
Continuous
 62
     7
100
AcDbLine
 10
68.20466047083502
 20
148.7858036007715
 30
0.0
 11
68.70466047083502
 21
148.7858036007715
 31
0.0
  0
LINE
  5
14A
330
3F
100
AcDbEntity
  8
1
  6
Continuous
 62
     2
100
AcDbLine
 10
68.20466047083502
 20
145.7858036007715
 30
0.0
 11
68.20466047083502
 21
148.7858036007715
 31
0.0
  0
LINE
  5
14B
330
3F
100
AcDbEntity
  8
1
  6
Continuous
 62
     7
100
AcDbLine
 10
67.70466047083502
 20
148.7858036007715
 30
0.0
 11
68.20466047083502
 21
148.7858036007715
 31
0.0
  0
LINE
  5
14C
330
3F
100
AcDbEntity
  8
1
  6
Continuous
 62
     2
100
AcDbLine
 10
68.70466047083502
 20
145.7858036007715
 30
0.0
 11
68.70466047083502
 21
148.7858036007715
 31
0.0
  0
LINE
  5
14D
330
3F
100
AcDbEntity
  8
1
  6
Continuous
 62
     2
100
AcDbLine
 10
67.20466047083502
 20
145.7858036007715
 30
0.0
 11
67.20466047083502
 21
148.7858036007715
 31
0.0
  0
LINE
  5
14E
330
3F
100
AcDbEntity
  8
1
  6
Continuous
 62
     2
100
AcDbLine
 10
66.70466047083502
 20
145.8913909269589
 30
0.0
 11
66.70466047083502
 21
148.6413913657493
 31
0.0
  0
LINE
  5
14F
330
3F
100
AcDbEntity
  8
1
  6
Continuous
 62
     2
100
AcDbLine
 10
66.20466047083502
 20
145.951851913223
 30
0.0
 11
66.20466047083502
 21
148.5958771923192
 31
0.0
  0
LINE
  5
150
330
3F
100
AcDbEntity
  8
1
  6
Continuous
 62
     2
100
AcDbLine
 10
65.70466047083502
 20
146.0402763010335
 30
0.0
 11
65.70466047083502
 21
148.5100219180363
 31
0.0
  0
LINE
  5
151
330
3F
100
AcDbEntity
  8
1
  6
Continuous
 62
     2
100
AcDbLine
 10
65.20466047083502
 20
146.1465040810092
 30
0.0
 11
65.20466047083502
 21
148.4823300944439
 31
0.0
  0
LINE
  5
152
330
3F
100
AcDbEntity
  8
1
  6
Continuous
 62
     2
100
AcDbLine
 10
64.70466047083502
 20
146.3993527914488
 30
0.0
 11
64.70466047083502
 21
148.3173467280574
 31
0.0
  0
LINE
  5
153
330
3F
100
AcDbEntity
  8
1
  6
Continuous
 62
     2
100
AcDbLine
 10
64.20466047083502
 20
146.5033663886173
 30
0.0
 11
64.20466047083502
 21
148.2714569126755
 31
0.0
  0
LINE
  5
154
330
3F
100
AcDbEntity
  8
1
  6
Continuous
 62
     2
100
AcDbLine
 10
63.70466047083502
 20
146.7233974291407
 30
0.0
 11
63.70466047083502
 21
148.0721237589933
 31
0.0
  0
LINE
  5
155
330
3F
100
AcDbEntity
  8
1
  6
Continuous
 62
     2
100
AcDbLine
 10
63.20466047083502
 20
146.7629026123323
 30
0.0
 11
63.20466047083502
 21
148.0281417029427
 31
0.0
  0
LINE
  5
156
330
3F
100
AcDbEntity
  8
1
  6
Continuous
 62
     7
100
AcDbLine
 10
62.20466047083502
 20
149.1155693209752
 30
0.0
 11
67.95466047083502
 21
149.1155693209752
 31
0.0
  0
LINE
  5
157
330
3F
100
AcDbEntity
  8
1
  6
Continuous
 62
     7
100
AcDbLine
 10
62.20466047083502
 20
148.7858036007715
 30
0.0
 11
67.20466047083502
 21
148.7858036007715
 31
0.0
  0
LINE
  5
158
330
3F
100
AcDbEntity
  8
1
  6
Continuous
 62
     7
100
AcDbLine
 10
69.20466047083502
 20
148.7858036007715
 30
0.0
 11
67.95466047083502
 21
149.1155693209752
 31
0.0
  0
LINE
  5
159
330
3F
100
AcDbEntity
  8
1
  6
Continuous
 62
     7
100
AcDbLine
 10
69.20466047083502
 20
148.7858036007715
 30
0.0
 11
69.20466047083502
 21
145.7858036007715
 31
0.0
  0
LINE
  5
15A
330
3F
100
AcDbEntity
  8
1
  6
Continuous
 62
     2
100
AcDbLine
 10
60.70466047083502
 20
148.0721237589933
 30
0.0
 11
60.70466047083502
 21
146.7233974291407
 31
0.0
  0
LINE
  5
15B
330
3F
100
AcDbEntity
  8
1
  6
Continuous
 62
     2
100
AcDbLine
 10
59.70466047083502
 20
148.3173467280574
 30
0.0
 11
59.70466047083502
 21
146.3993527914488
 31
0.0
  0
LINE
  5
15C
330
3F
100
AcDbEntity
  8
1
  6
Continuous
 62
     2
100
AcDbLine
 10
58.70466047083502
 20
148.5100219180363
 30
0.0
 11
58.70466047083502
 21
146.0402763010335
 31
0.0
  0
LINE
  5
15D
330
3F
100
AcDbEntity
  8
1
  6
Continuous
 62
     2
100
AcDbLine
 10
57.70466047083502
 20
148.6413913657493
 30
0.0
 11
57.70466047083502
 21
145.8913909269589
 31
0.0
  0
LINE
  5
15E
330
3F
100
AcDbEntity
  8
1
  6
Continuous
 62
     7
100
AcDbLine
 10
56.70466047083502
 20
148.7858036007715
 30
0.0
 11
57.20466047083502
 21
148.7858036007715
 31
0.0
  0
LINE
  5
15F
330
3F
100
AcDbEntity
  8
1
  6
Continuous
 62
     2
100
AcDbLine
 10
56.70466047083502
 20
148.7858036007715
 30
0.0
 11
56.70466047083502
 21
145.7858036007715
 31
0.0
  0
LINE
  5
160
330
3F
100
AcDbEntity
  8
1
  6
Continuous
 62
     7
100
AcDbLine
 10
55.70466047083502
 20
148.7858036007715
 30
0.0
 11
56.20466047083502
 21
148.7858036007715
 31
0.0
  0
LINE
  5
161
330
3F
100
AcDbEntity
  8
1
  6
Continuous
 62
     2
100
AcDbLine
 10
55.70466047083502
 20
148.7858036007715
 30
0.0
 11
55.70466047083502
 21
145.7858036007715
 31
0.0
  0
LINE
  5
162
330
3F
100
AcDbEntity
  8
1
  6
Continuous
 62
     7
100
AcDbLine
 10
55.20466047083502
 20
145.7858036007715
 30
0.0
 11
55.20466047083502
 21
148.7858036007715
 31
0.0
  0
LINE
  5
163
330
3F
100
AcDbEntity
  8
1
  6
Continuous
 62
     7
100
AcDbLine
 10
55.20466047083502
 20
148.7858036007715
 30
0.0
 11
56.20466047083494
 21
149.0551257997947
 31
0.0
  0
LINE
  5
164
330
3F
100
AcDbEntity
  8
1
  6
Continuous
 62
     7
100
AcDbLine
 10
55.20466047083502
 20
148.7858036007715
 30
0.0
 11
55.70466047083502
 21
148.7858036007715
 31
0.0
  0
LINE
  5
165
330
3F
100
AcDbEntity
  8
1
  6
Continuous
 62
     2
100
AcDbLine
 10
56.20466047083502
 20
148.7858036007715
 30
0.0
 11
56.20466047083502
 21
145.7858036007715
 31
0.0
  0
LINE
  5
166
330
3F
100
AcDbEntity
  8
1
  6
Continuous
 62
     7
100
AcDbLine
 10
56.20466047083502
 20
148.7858036007715
 30
0.0
 11
56.70466047083502
 21
148.7858036007715
 31
0.0
  0
LINE
  5
167
330
3F
100
AcDbEntity
  8
1
  6
Continuous
 62
     2
100
AcDbLine
 10
57.20466047083502
 20
148.7858036007715
 30
0.0
 11
57.20466047083502
 21
145.7858036007715
 31
0.0
  0
LINE
  5
168
330
3F
100
AcDbEntity
  8
1
  6
Continuous
 62
     2
100
AcDbLine
 10
58.20466047083502
 20
148.5958771923192
 30
0.0
 11
58.20466047083502
 21
145.951851913223
 31
0.0
  0
LINE
  5
169
330
3F
100
AcDbEntity
  8
1
  6
Continuous
 62
     2
100
AcDbLine
 10
59.20466047083502
 20
148.4823300944439
 30
0.0
 11
59.20466047083502
 21
146.1465040810092
 31
0.0
  0
LINE
  5
16A
330
3F
100
AcDbEntity
  8
1
  6
Continuous
 62
     2
100
AcDbLine
 10
60.20466047083502
 20
148.2714569126755
 30
0.0
 11
60.20466047083502
 21
146.5033663886173
 31
0.0
  0
LINE
  5
16B
330
3F
100
AcDbEntity
  8
1
  6
Continuous
 62
     2
100
AcDbLine
 10
61.20466047083502
 20
148.0281417029427
 30
0.0
 11
61.20466047083502
 21
146.7629026123323
 31
0.0
  0
LINE
  5
16C
330
3F
100
AcDbEntity
  8
1
  6
Continuous
 62
     7
100
AcDbLine
 10
56.45466047083502
 20
149.1155693209752
 30
0.0
 11
62.20466047083502
 21
149.1155693209752
 31
0.0
  0
LINE
  5
16D
330
3F
100
AcDbEntity
  8
1
  6
Continuous
 62
     7
100
AcDbLine
 10
57.20466047083502
 20
148.7858036007715
 30
0.0
 11
62.20466047083502
 21
148.7858036007715
 31
0.0
  0
LINE
  5
16E
330
3F
100
AcDbEntity
  8
1
  6
Continuous
 62
     7
100
AcDbLine
 10
62.20466047083502
 20
145.7858036007715
 30
0.0
 11
67.20466047083502
 21
145.7858036007715
 31
0.0
  0
LINE
  5
16F
330
3F
100
AcDbEntity
  8
1
  6
Continuous
 62
     7
100
AcDbLine
 10
67.20466047083502
 20
145.7858036007715
 30
0.0
 11
67.70466047083502
 21
145.7858036007715
 31
0.0
  0
LINE
  5
170
330
3F
100
AcDbEntity
  8
1
  6
Continuous
 62
     7
100
AcDbLine
 10
67.70466047083502
 20
145.7858036007715
 30
0.0
 11
68.20466047083502
 21
145.7858036007715
 31
0.0
  0
LINE
  5
171
330
3F
100
AcDbEntity
  8
1
  6
Continuous
 62
     7
100
AcDbLine
 10
67.70466047083502
 20
145.7858036007715
 30
0.0
 11
68.20466047083502
 21
145.7858036007715
 31
0.0
  0
LINE
  5
172
330
3F
100
AcDbEntity
  8
1
  6
Continuous
 62
     7
100
AcDbLine
 10
68.70466047083502
 20
145.7858036007715
 30
0.0
 11
69.20466047083502
 21
145.7858036007715
 31
0.0
  0
LINE
  5
173
330
3F
100
AcDbEntity
  8
1
  6
Continuous
 62
     7
100
AcDbLine
 10
68.70466047083502
 20
145.7858036007715
 30
0.0
 11
69.20466047083502
 21
145.7858036007715
 31
0.0
  0
LINE
  5
174
330
3F
100
AcDbEntity
  8
1
  6
Continuous
 62
     7
100
AcDbLine
 10
68.20466047083502
 20
145.7858036007715
 30
0.0
 11
68.70466047083502
 21
145.7858036007715
 31
0.0
  0
LINE
  5
175
330
3F
100
AcDbEntity
  8
1
  6
Continuous
 62
     7
100
AcDbLine
 10
57.20466047083502
 20
145.7858036007715
 30
0.0
 11
62.20466047083502
 21
145.7858036007715
 31
0.0
  0
LINE
  5
176
330
3F
100
AcDbEntity
  8
1
  6
Continuous
 62
     7
100
AcDbLine
 10
56.70466047083502
 20
145.7858036007715
 30
0.0
 11
57.20466047083502
 21
145.7858036007715
 31
0.0
  0
LINE
  5
177
330
3F
100
AcDbEntity
  8
1
  6
Continuous
 62
     7
100
AcDbLine
 10
57.20466047083502
 20
145.7858036007715
 30
0.0
 11
62.20466047083502
 21
145.7858036007715
 31
0.0
  0
LINE
  5
178
330
3F
100
AcDbEntity
  8
1
  6
Continuous
 62
     7
100
AcDbLine
 10
56.70466047083502
 20
145.7858036007715
 30
0.0
 11
57.20466047083502
 21
145.7858036007715
 31
0.0
  0
LINE
  5
179
330
3F
100
AcDbEntity
  8
1
  6
Continuous
 62
     7
100
AcDbLine
 10
56.20466047083502
 20
145.7858036007715
 30
0.0
 11
56.70466047083502
 21
145.7858036007715
 31
0.0
  0
LINE
  5
17A
330
3F
100
AcDbEntity
  8
1
  6
Continuous
 62
     7
100
AcDbLine
 10
56.70466047083502
 20
145.7858036007715
 30
0.0
 11
57.20466047083502
 21
145.7858036007715
 31
0.0
  0
LINE
  5
17B
330
3F
100
AcDbEntity
  8
1
  6
Continuous
 62
     7
100
AcDbLine
 10
56.20466047083502
 20
145.7858036007715
 30
0.0
 11
56.70466047083502
 21
145.7858036007715
 31
0.0
  0
LINE
  5
17C
330
3F
100
AcDbEntity
  8
1
  6
Continuous
 62
     7
100
AcDbLine
 10
56.70466047083502
 20
145.7858036007715
 30
0.0
 11
57.20466047083502
 21
145.7858036007715
 31
0.0
  0
LINE
  5
17D
330
3F
100
AcDbEntity
  8
1
  6
Continuous
 62
     7
100
AcDbLine
 10
56.20466047083502
 20
145.7858036007715
 30
0.0
 11
56.70466047083502
 21
145.7858036007715
 31
0.0
  0
LINE
  5
17E
330
3F
100
AcDbEntity
  8
1
  6
Continuous
 62
     7
100
AcDbLine
 10
55.70466047083502
 20
145.7858036007715
 30
0.0
 11
56.20466047083502
 21
145.7858036007715
 31
0.0
  0
LINE
  5
17F
330
3F
100
AcDbEntity
  8
1
  6
Continuous
 62
     7
100
AcDbLine
 10
56.20466047083502
 20
145.7858036007715
 30
0.0
 11
56.70466047083502
 21
145.7858036007715
 31
0.0
  0
LINE
  5
180
330
3F
100
AcDbEntity
  8
1
  6
Continuous
 62
     7
100
AcDbLine
 10
55.70466047083502
 20
145.7858036007715
 30
0.0
 11
56.20466047083502
 21
145.7858036007715
 31
0.0
  0
LINE
  5
181
330
3F
100
AcDbEntity
  8
1
  6
Continuous
 62
     7
100
AcDbLine
 10
56.20466047083502
 20
145.7858036007715
 30
0.0
 11
56.70466047083502
 21
145.7858036007715
 31
0.0
  0
LINE
  5
182
330
3F
100
AcDbEntity
  8
1
  6
Continuous
 62
     7
100
AcDbLine
 10
55.70466047083502
 20
145.7858036007715
 30
0.0
 11
56.20466047083502
 21
145.7858036007715
 31
0.0
  0
LINE
  5
183
330
3F
100
AcDbEntity
  8
1
  6
Continuous
 62
     7
100
AcDbLine
 10
55.20466047083502
 20
145.7858036007715
 30
0.0
 11
55.70466047083502
 21
145.7858036007715
 31
0.0
  0
ARC
  5
184
330
3F
100
AcDbEntity
  8
1
  6
Continuous
 62
     7
100
AcDbCircle
 10
148.487922361031
 20
124.7858036007715
 30
0.0
 40
24.99999999999998
100
AcDbArc
 50
76.70292825279093
 51
103.2970717472091
  0
ARC
  5
185
330
3F
100
AcDbEntity
  8
1
  6
Continuous
 62
     7
100
AcDbCircle
 10
148.487922361031
 20
124.7858036007715
 30
0.0
 40
24.99999999999998
100
AcDbArc
 50
103.2970717472091
 51
103.8865403626292
  0
ARC
  5
186
330
3F
100
AcDbEntity
  8
1
  6
Continuous
 62
     7
100
AcDbCircle
 10
62.20466047083502
 20
124.7858036007715
 30
0.0
 40
24.99999999999998
100
AcDbArc
 50
76.70292825279093
 51
103.2970717472091
  0
ARC
  5
187
330
3F
100
AcDbEntity
  8
1
  6
Continuous
 62
     7
100
AcDbCircle
 10
62.20466047083502
 20
124.7858036007715
 30
0.0
 40
24.99999999999998
100
AcDbArc
 50
103.2970717472091
 51
103.8865403626292
  0
CIRCLE
  5
188
330
3F
100
AcDbEntity
  8
1
  6
Continuous
 62
     7
100
AcDbCircle
 10
62.20466047083504
 20
213.9534535852098
 30
0.0
 40
6.999999999999943
  0
CIRCLE
  5
189
330
3F
100
AcDbEntity
  8
1
  6
Continuous
 62
     7
100
AcDbCircle
 10
62.20466047083504
 20
213.9534535852098
 30
0.0
 40
5.749999999999943
  0
ENDBLK
  5
41
330
3F
100
AcDbEntity
  8
0
100
AcDbBlockEnd
  0
BLOCK
  5
43
330
42
100
AcDbEntity
  8
0
100
AcDbBlockBegin
  2
36-1A-13-M4
 70
     0
 71
     0
 10
46.10579635159481
 20
-6.2833224086647
 30
0.0
  3
36-1A-13-M4
  1

  0
LINE
  5
18A
330
42
100
AcDbEntity
  8
1
  6
Continuous
 62
     7
100
AcDbLine
 10
153.237922361031
 20
134.8141228742613
 30
0.0
 11
153.237922361031
 21
131.7438141624461
 31
0.0
  0
LINE
  5
18B
330
42
100
AcDbEntity
  8
1
  6
Continuous
 62
     7
100
AcDbLine
 10
143.7379223610311
 20
131.7858036007715
 30
0.0
 11
143.7379223610311
 21
134.8141228742613
 31
0.0
  0
LINE
  5
18C
330
42
100
AcDbEntity
  8
1
  6
Continuous
 62
     7
100
AcDbLine
 10
66.95466047083514
 20
134.8141228742613
 30
0.0
 11
66.95466047083514
 21
131.7438141624461
 31
0.0
  0
LINE
  5
18D
330
42
100
AcDbEntity
  8
1
  6
Continuous
 62
     7
100
AcDbLine
 10
57.45466047083514
 20
131.7858036007715
 30
0.0
 11
57.45466047083514
 21
134.8141228742613
 31
0.0
  0
ENDBLK
  5
44
330
42
100
AcDbEntity
  8
0
100
AcDbBlockEnd
  0
BLOCK
  5
46
330
45
100
AcDbEntity
  8
0
100
AcDbBlockBegin
  2
41-1-15
 70
     0
 71
     0
 10
153.3641393449735
 20
-70.00184251771489
 30
0.0
  3
41-1-15
  1

  0
LINE
  5
18E
330
45
100
AcDbEntity
  8
1
  6
Continuous
 62
     7
100
AcDbLine
 10
70.8208492404203
 20
95.81412287426124
 30
0.0
 11
53.5884717012498
 21
95.81412287426124
 31
0.0
  0
LINE
  5
18F
330
45
100
AcDbEntity
  8
1
  6
Continuous
 62
     7
100
AcDbLine
 10
58.43123909055886
 20
100.8141228742613
 30
0.0
 11
65.97808185111124
 21
100.8141228742613
 31
0.0
  0
ENDBLK
  5
47
330
45
100
AcDbEntity
  8
0
100
AcDbBlockEnd
  0
BLOCK
  5
4E
330
48
100
AcDbEntity
  8
0
100
AcDbBlockBegin
  2
R10A
 70
     0
 71
     0
 10
193.487922361031
 20
92.28580360077149
 30
0.0
  3
R10A
  1

  0
INSERT
  5
49
330
48
100
AcDbEntity
  8
0
100
AcDbBlockReference
  2
21-1A
 10
263.9303432811662
 20
81.22570787578017
 30
0.0
  0
INSERT
  5
4A
330
48
100
AcDbEntity
  8
1
100
AcDbBlockReference
  2
37-1-13
 10
759.9698481701523
 20
90.40016376741102
 30
0.0
  0
INSERT
  5
4B
330
48
100
AcDbEntity
  8
0
100
AcDbBlockReference
  2
42-1
 10
60.38366227442749
 20
-57.00384540881331
 30
0.0
  0
INSERT
  5
4C
330
48
100
AcDbEntity
  8
0
100
AcDbBlockReference
  2
36-1A-13-M4
 10
46.10579635159481
 20
-6.2833224086647
 30
0.0
  0
INSERT
  5
4D
330
48
100
AcDbEntity
  8
0
100
AcDbBlockReference
  2
41-1-15
 10
153.3641393449735
 20
-70.00184251771489
 30
0.0
  0
ENDBLK
  5
4F
330
48
100
AcDbEntity
  8
0
100
AcDbBlockEnd
  0
BLOCK
  5
51
330
50
100
AcDbEntity
  8
0
100
AcDbBlockBegin
  2
_J__A4
 70
     0
 71
     0
 10
0.0
 20
0.0
 30
0.0
  3
_J__A4
  1

  0
POINT
  5
190
330
50
100
AcDbEntity
  8
1
 62
     4
100
AcDbPoint
 10
93.75
 20
17.0
 30
0.0
  0
POINT
  5
191
330
50
100
AcDbEntity
  8
1
 62
     4
100
AcDbPoint
 10
85.25
 20
17.0
 30
0.0
  0
POINT
  5
192
330
50
100
AcDbEntity
  8
1
 62
     4
100
AcDbPoint
 10
106.5
 20
19.00000000000001
 30
0.0
  0
POINT
  5
193
330
50
100
AcDbEntity
  8
1
 62
     4
100
AcDbPoint
 10
106.5
 20
12.5
 30
0.0
  0
POINT
  5
194
330
50
100
AcDbEntity
  8
1
 62
     4
100
AcDbPoint
 10
112.25
 20
12.5
 30
0.0
  0
POINT
  5
195
330
50
100
AcDbEntity
  8
1
 62
     4
100
AcDbPoint
 10
100.75
 20
12.5
 30
0.0
  0
POINT
  5
196
330
50
100
AcDbEntity
  8
1
 62
     4
100
AcDbPoint
 10
123.5
 20
19.00000000000001
 30
0.0
  0
POINT
  5
197
330
50
100
AcDbEntity
  8
1
 62
     4
100
AcDbPoint
 10
123.5
 20
12.5
 30
0.0
  0
POINT
  5
198
330
50
100
AcDbEntity
  8
1
 62
     4
100
AcDbPoint
 10
129.25
 20
12.5
 30
0.0
  0
POINT
  5
199
330
50
100
AcDbEntity
  8
1
 62
     4
100
AcDbPoint
 10
117.75
 20
12.5
 30
0.0
  0
POINT
  5
19A
330
50
100
AcDbEntity
  8
1
 62
     4
100
AcDbPoint
 10
140.5
 20
19.00000000000001
 30
0.0
  0
POINT
  5
19B
330
50
100
AcDbEntity
  8
1
 62
     4
100
AcDbPoint
 10
140.5
 20
12.5
 30
0.0
  0
POINT
  5
19C
330
50
100
AcDbEntity
  8
1
 62
     4
100
AcDbPoint
 10
146.25
 20
12.5
 30
0.0
  0
POINT
  5
19D
330
50
100
AcDbEntity
  8
1
 62
     4
100
AcDbPoint
 10
134.75
 20
12.5
 30
0.0
  0
POINT
  5
19E
330
50
100
AcDbEntity
  8
1
 62
     4
100
AcDbPoint
 10
151.75
 20
12.5
 30
0.0
  0
POINT
  5
19F
330
50
100
AcDbEntity
  8
1
 62
     4
100
AcDbPoint
 10
163.25
 20
12.5
 30
0.0
  0
POINT
  5
1A0
330
50
100
AcDbEntity
  8
1
 62
     4
100
AcDbPoint
 10
157.5
 20
12.5
 30
0.0
  0
POINT
  5
1A1
330
50
100
AcDbEntity
  8
1
 62
     4
100
AcDbPoint
 10
57.0
 20
14.25
 30
0.0
  0
POINT
  5
1A2
330
50
100
AcDbEntity
  8
1
 62
     4
100
AcDbPoint
 10
57.0
 20
22.75000000000001
 30
0.0
  0
POINT
  5
1A3
330
50
100
AcDbEntity
  8
1
 62
     4
100
AcDbPoint
 10
47.5
 20
282.0000000000003
 30
0.0
  0
POINT
  5
1A4
330
50
100
AcDbEntity
  8
1
 62
     4
100
AcDbPoint
 10
157.5
 20
19.00000000000001
 30
0.0
  0
POINT
  5
1A5
330
50
100
AcDbEntity
  8
1
 62
     4
100
AcDbPoint
 10
57.0
 20
16.25
 30
0.0
  0
POINT
  5
1A6
330
50
100
AcDbEntity
  8
1
 62
     4
100
AcDbPoint
 10
57.0
 20
24.75000000000001
 30
0.0
  0
POINT
  5
1A7
330
50
100
AcDbEntity
  8
1
 62
     4
100
AcDbPoint
 10
57.0
 20
20.75000000000001
 30
0.0
  0
POINT
  5
1A8
330
50
100
AcDbEntity
  8
1
 62
     4
100
AcDbPoint
 10
57.0
 20
12.25
 30
0.0
  0
POINT
  5
1A9
330
50
100
AcDbEntity
  8
1
 62
     4
100
AcDbPoint
 10
34.0
 20
34.00000000000001
 30
0.0
  0
LINE
  5
1AA
330
50
100
AcDbEntity
  8
1
  6
Continuous
 62
     7
100
AcDbLine
 10
105.0
 20
10.0
 30
0.0
 11
200.0
 21
10.0
 31
0.0
  0
LINE
  5
1AB
330
50
100
AcDbEntity
  8
1
  6
Continuous
 62
     2
100
AcDbLine
 10
105.0
 20
10.0
 30
0.0
 11
105.0
 21
5.0
 31
0.0
  0
LINE
  5
1AC
330
50
100
AcDbEntity
  8
1
  6
Continuous
 62
     7
100
AcDbLine
 10
200.0
 20
148.5
 30
0.0
 11
200.0
 21
287.0000000000003
 31
0.0
  0
LINE
  5
1AD
330
50
100
AcDbEntity
  8
1
  6
Continuous
 62
     2
100
AcDbLine
 10
200.0
 20
148.5
 30
0.0
 11
205.0
 21
148.5
 31
0.0
  0
LINE
  5
1AE
330
50
100
AcDbEntity
  8
1
  6
Continuous
 62
     7
100
AcDbLine
 10
25.0
 20
148.5
 30
0.0
 11
25.0
 21
287.0000000000003
 31
0.0
  0
LINE
  5
1AF
330
50
100
AcDbEntity
  8
1
  6
Continuous
 62
     2
100
AcDbLine
 10
25.0
 20
148.5
 30
0.0
 11
20.0
 21
148.5
 31
0.0
  0
LINE
  5
1B0
330
50
100
AcDbEntity
  8
1
  6
Continuous
 62
     7
100
AcDbLine
 10
105.0
 20
287.0000000000003
 30
0.0
 11
25.0
 21
287.0000000000003
 31
0.0
  0
LINE
  5
1B1
330
50
100
AcDbEntity
  8
1
  6
Continuous
 62
     2
100
AcDbLine
 10
105.0
 20
287.0000000000003
 30
0.0
 11
105.0
 21
292.0000000000003
 31
0.0
  0
LINE
  5
1B2
330
50
100
AcDbEntity
  8
1
  6
Continuous
 62
     2
100
AcDbLine
 10
166.0
 20
20.00000000000001
 30
0.0
 11
200.0
 21
20.00000000000001
 31
0.0
  0
LINE
  5
1B3
330
50
100
AcDbEntity
  8
1
  6
Continuous
 62
     2
100
AcDbLine
 10
98.0
 20
27.00000000000001
 30
0.0
 11
98.0
 21
9.99999999999999
 31
0.0
  0
LINE
  5
1B4
330
50
100
AcDbEntity
  8
1
  6
Continuous
 62
     2
100
AcDbLine
 10
115.0
 20
27.00000000000001
 30
0.0
 11
115.0
 21
9.99999999999999
 31
0.0
  0
LINE
  5
1B5
330
50
100
AcDbEntity
  8
1
  6
Continuous
 62
     2
100
AcDbLine
 10
149.0
 20
27.00000000000001
 30
0.0
 11
149.0
 21
10.0
 31
0.0
  0
LINE
  5
1B6
330
50
100
AcDbEntity
  8
1
  6
Continuous
 62
     2
100
AcDbLine
 10
132.0
 20
27.00000000000001
 30
0.0
 11
132.0
 21
9.99999999999999
 31
0.0
  0
LINE
  5
1B7
330
50
100
AcDbEntity
  8
1
  6
Continuous
 62
     2
100
AcDbLine
 10
166.0
 20
27.00000000000001
 30
0.0
 11
166.0
 21
10.0
 31
0.0
  0
LINE
  5
1B8
330
50
100
AcDbEntity
  8
1
  6
Continuous
 62
     2
100
AcDbLine
 10
55.0
 20
277.0000000000003
 30
0.0
 11
25.0
 21
277.0000000000003
 31
0.0
  0
LINE
  5
1B9
330
50
100
AcDbEntity
  8
1
  6
Continuous
 62
     7
100
AcDbLine
 10
25.0
 20
10.0
 30
0.0
 11
25.0
 21
148.5
 31
0.0
  0
LINE
  5
1BA
330
50
100
AcDbEntity
  8
1
  6
Continuous
 62
     2
100
AcDbLine
 10
40.0
 20
287.0000000000003
 30
0.0
 11
40.0
 21
277.0000000000003
 31
0.0
  0
LINE
  5
1BB
330
50
100
AcDbEntity
  8
1
  6
Continuous
 62
     2
100
AcDbLine
 10
55.0
 20
287.0000000000003
 30
0.0
 11
55.0
 21
277.0000000000003
 31
0.0
  0
LINE
  5
1BC
330
50
100
AcDbEntity
  8
1
  6
Continuous
 62
     2
100
AcDbLine
 10
33.0
 20
41.00000000000001
 30
0.0
 11
33.0
 21
27.0
 31
0.0
  0
LINE
  5
1BD
330
50
100
AcDbEntity
  8
1
  6
Continuous
 62
     7
100
AcDbLine
 10
200.0
 20
27.00000000000001
 30
0.0
 11
25.0
 21
27.00000000000001
 31
0.0
  0
LINE
  5
1BE
330
50
100
AcDbEntity
  8
1
  6
Continuous
 62
     7
100
AcDbLine
 10
25.0
 20
41.0
 30
0.0
 11
200.0
 21
41.0
 31
0.0
  0
LINE
  5
1BF
330
50
100
AcDbEntity
  8
1
  6
PHANTOM
 62
     4
100
AcDbLine
 10
0.0
 20
0.0
 30
0.0
 11
210.0
 21
0.0
 31
0.0
  0
LINE
  5
1C0
330
50
100
AcDbEntity
  8
1
  6
PHANTOM
 62
     4
100
AcDbLine
 10
210.0
 20
0.0
 30
0.0
 11
210.0
 21
297.0
 31
0.0
  0
LINE
  5
1C1
330
50
100
AcDbEntity
  8
1
  6
PHANTOM
 62
     4
100
AcDbLine
 10
210.0
 20
297.0
 30
0.0
 11
0.0
 21
297.0
 31
0.0
  0
LINE
  5
1C2
330
50
100
AcDbEntity
  8
1
  6
PHANTOM
 62
     4
100
AcDbLine
 10
0.0
 20
297.0
 30
0.0
 11
0.0
 21
0.0
 31
0.0
  0
LINE
  5
1C3
330
50
100
AcDbEntity
  8
1
  6
Continuous
 62
     7
100
AcDbLine
 10
25.0
 20
10.0
 30
0.0
 11
105.0
 21
10.0
 31
0.0
  0
LINE
  5
1C4
330
50
100
AcDbEntity
  8
1
  6
Continuous
 62
     7
100
AcDbLine
 10
200.0
 20
10.0
 30
0.0
 11
200.0
 21
148.5
 31
0.0
  0
LINE
  5
1C5
330
50
100
AcDbEntity
  8
1
  6
Continuous
 62
     7
100
AcDbLine
 10
200.0
 20
287.0000000000003
 30
0.0
 11
105.0
 21
287.0000000000003
 31
0.0
  0
LINE
  5
1C6
330
50
100
AcDbEntity
  8
1
  6
Continuous
 62
     2
100
AcDbLine
 10
25.0
 20
18.50000000000001
 30
0.0
 11
81.0
 21
18.50000000000001
 31
0.0
  0
LINE
  5
1C7
330
50
100
AcDbEntity
  8
1
  6
Continuous
 62
     2
100
AcDbLine
 10
33.0
 20
27.0
 30
0.0
 11
33.0
 21
10.0
 31
0.0
  0
LINE
  5
1C8
330
50
100
AcDbEntity
  8
1
  6
Continuous
 62
     7
100
AcDbLine
 10
191.0
 20
24.70000000000001
 30
0.0
 11
191.0
 21
22.30000000000001
 31
0.0
  0
LINE
  5
1C9
330
50
100
AcDbEntity
  8
1
  6
Continuous
 62
     7
100
AcDbLine
 10
191.0
 20
24.70000000000001
 30
0.0
 11
196.0
 21
25.50000000000001
 31
0.0
  0
LINE
  5
1CA
330
50
100
AcDbEntity
  8
1
  6
Continuous
 62
     7
100
AcDbLine
 10
196.0
 20
25.50000000000001
 30
0.0
 11
196.0
 21
21.50000000000001
 31
0.0
  0
LINE
  5
1CB
330
50
100
AcDbEntity
  8
1
  6
Continuous
 62
     7
100
AcDbLine
 10
196.0
 20
21.50000000000001
 30
0.0
 11
191.0
 21
22.30000000000001
 31
0.0
  0
LINE
  5
1CC
330
50
100
AcDbEntity
  8
1
  6
DOT_CENTER
 62
     2
100
AcDbLine
 10
184.0
 20
23.50000000000001
 30
0.0
 11
197.0
 21
23.50000000000001
 31
0.0
  0
LINE
  5
1CD
330
50
100
AcDbEntity
  8
1
  6
DOT_CENTER
 62
     2
100
AcDbLine
 10
187.0
 20
26.50000000000001
 30
0.0
 11
187.0
 21
20.50000000000001
 31
0.0
  0
LINE
  5
1CE
330
50
100
AcDbEntity
  8
1
  6
Continuous
 62
     2
100
AcDbLine
 10
81.0
 20
27.00000000000001
 30
0.0
 11
81.0
 21
10.0
 31
0.0
  0
CIRCLE
  5
1CF
330
50
100
AcDbEntity
  8
1
  6
Continuous
 62
     7
100
AcDbCircle
 10
103.5
 20
12.5
 30
0.0
 40
0.2999999999999972
  0
CIRCLE
  5
1D0
330
50
100
AcDbEntity
  8
1
  6
Continuous
 62
     7
100
AcDbCircle
 10
109.5
 20
12.5
 30
0.0
 40
0.2999999999999972
  0
CIRCLE
  5
1D1
330
50
100
AcDbEntity
  8
1
  6
Continuous
 62
     7
100
AcDbCircle
 10
120.5
 20
12.5
 30
0.0
 40
0.2999999999999972
  0
CIRCLE
  5
1D2
330
50
100
AcDbEntity
  8
1
  6
Continuous
 62
     7
100
AcDbCircle
 10
126.5
 20
12.5
 30
0.0
 40
0.2999999999999972
  0
CIRCLE
  5
1D3
330
50
100
AcDbEntity
  8
1
  6
Continuous
 62
     7
100
AcDbCircle
 10
137.5
 20
12.5
 30
0.0
 40
0.3000000000000114
  0
CIRCLE
  5
1D4
330
50
100
AcDbEntity
  8
1
  6
Continuous
 62
     7
100
AcDbCircle
 10
143.5
 20
12.5
 30
0.0
 40
0.3000000000000114
  0
CIRCLE
  5
1D5
330
50
100
AcDbEntity
  8
1
  6
Continuous
 62
     7
100
AcDbCircle
 10
160.5
 20
12.5
 30
0.0
 40
0.3000000000000114
  0
CIRCLE
  5
1D6
330
50
100
AcDbEntity
  8
1
  6
Continuous
 62
     7
100
AcDbCircle
 10
154.5
 20
12.5
 30
0.0
 40
0.3000000000000114
  0
CIRCLE
  5
1D7
330
50
100
AcDbEntity
  8
1
  6
Continuous
 62
     7
100
AcDbCircle
 10
187.0
 20
23.50000000000001
 30
0.0
 40
1.200000000000102
  0
CIRCLE
  5
1D8
330
50
100
AcDbEntity
  8
1
  6
Continuous
 62
     7
100
AcDbCircle
 10
187.0
 20
23.50000000000001
 30
0.0
 40
2.0
  0
CIRCLE
  5
1D9
330
50
100
AcDbEntity
  8
1
  6
DOT_CENTER
 62
     7
100
AcDbCircle
 10
89.5
 20
16.0
 30
0.0
 40
0.1000000000000227
  0
CIRCLE
  5
1DA
330
50
100
AcDbEntity
  8
1
  6
DOT_CENTER
 62
     7
100
AcDbCircle
 10
89.5
 20
18.0
 30
0.0
 40
0.1000000000000227
  0
MTEXT
  5
1DC
330
50
100
AcDbEntity
  8
1
 62
     7
100
AcDbMText
 10
188.5
 20
15.0
 30
0.0
 40
3.0
 41
0.0
 71
     5
 72
     1
  1
三栄水栓製作所
  7
CONVERTER_1
 73
     1
 44
1.32052821128451
  0
MTEXT
  5
1DD
330
50
100
AcDbEntity
  8
1
 62
     7
100
AcDbMText
 10
171.5
 20
15.0
 30
0.0
 40
2.5
 41
0.0
 71
     5
 72
     1
  1
株式会社
  7
CONVERTER_1
 73
     1
 44
1.32052821128451
  0
MTEXT
  5
1DE
330
50
100
AcDbEntity
  8
1
 62
     2
100
AcDbMText
 10
32.5
 20
282.0000000000003
 30
0.0
 40
5.0
 41
0.0
 71
     5
 72
     1
  1
図番
  7
CONVERTER_1
 73
     1
 44
0.60024009603842
  0
MTEXT
  5
1DF
330
50
100
AcDbEntity
  8
1
 62
     2
100
AcDbMText
 10
29.0
 20
34.00000000000001
 30
0.0
 40
3.5
 41
0.0
 71
     5
 72
     1
  1
備考
  7
CONVERTER_1
 73
     1
 44
0.60024009603842
  0
MTEXT
  5
1E0
330
50
100
AcDbEntity
  8
1
 62
     2
100
AcDbMText
 10
29.0
 20
22.75
 30
0.0
 40
3.5
 41
0.0
 71
     5
 72
     1
  1
品名
  7
CONVERTER_1
 73
     1
 44
0.96038415366146
  0
MTEXT
  5
1E1
330
50
100
AcDbEntity
  8
1
 62
     2
100
AcDbMText
 10
29.0
 20
14.25
 30
0.0
 40
3.5
 41
0.0
 71
     5
 72
     1
  1
品番
  7
CONVERTER_1
 73
     1
 44
0.96038415366146
  0
MTEXT
  5
1E2
330
50
100
AcDbEntity
  8
1
 62
     2
100
AcDbMText
 10
101.5
 20
25.00000000000001
 30
0.0
 40
3.0
 41
0.0
 71
     5
 72
     1
  1
承認
  7
CONVERTER_1
 73
     1
 44
0.78031212484994
  0
MTEXT
  5
1E3
330
50
100
AcDbEntity
  8
1
 62
     2
100
AcDbMText
 10
175.0
 20
23.50000000000001
 30
0.0
 40
3.5
 41
0.0
 71
     5
 72
     1
  1
第三角法
  7
CONVERTER_1
 73
     1
 44
0.7202881152461
  0
MTEXT
  5
1E4
330
50
100
AcDbEntity
  8
1
 62
     2
100
AcDbMText
 10
118.5
 20
25.00000000000001
 30
0.0
 40
3.0
 41
0.0
 71
     5
 72
     1
  1
検図
  7
CONVERTER_1
 73
     1
 44
0.78031212484994
  0
MTEXT
  5
1E5
330
50
100
AcDbEntity
  8
1
 62
     2
100
AcDbMText
 10
152.5
 20
25.00000000000001
 30
0.0
 40
3.0
 41
0.0
 71
     5
 72
     1
  1
設計
  7
CONVERTER_1
 73
     1
 44
0.78031212484994
  0
MTEXT
  5
1E6
330
50
100
AcDbEntity
  8
1
 62
     2
100
AcDbMText
 10
135.5
 20
25.00000000000001
 30
0.0
 40
3.0
 41
0.0
 71
     5
 72
     1
  1
製図
  7
CONVERTER_1
 73
     1
 44
0.78031212484994
  0
MTEXT
  5
1E7
330
50
100
AcDbEntity
  8
1
 62
     2
100
AcDbMText
 10
89.5
 20
24.00000000000001
 30
0.0
 40
3.5
 41
0.0
 71
     5
 72
     1
  1
尺度
  7
CONVERTER_1
 73
     1
 44
0.7202881152461
  0
MTEXT
  5
1E8
330
50
100
AcDbEntity
  8
1
 62
   250
100
AcDbMText
 10
25.0
 20
5.0
 30
0.0
 40
3.5
 41
0.0
 71
     4
 72
     1
  1
備考欄の文字列 原点位置=4
  7
CONVERTER_1
 73
     1
 44
0.7202881152461
  0
ENDBLK
  5
52
330
50
100
AcDbEntity
  8
0
100
AcDbBlockEnd
  0
BLOCK
  5
21F
330
218
100
AcDbEntity
  8
0
100
AcDbBlockBegin
  2
*D09
 70
     1
 71
     0
 10
0.0
 20
0.0
 30
0.0
  3
*D09
  1

  0
LINE
  5
219
330
218
100
AcDbEntity
  8
1
  6
Continuous
 62
     2
100
AcDbLine
 10
148.487922361031
 20
67.31412287426123
 30
0.0
 11
178.487922361031
 21
67.31412287426123
 31
0.0
  0
LINE
  5
21A
330
218
100
AcDbEntity
  8
1
  6
Continuous
 62
     2
100
AcDbLine
 10
178.487922361031
 20
79.40258014238114
 30
0.0
 11
178.487922361031
 21
66.31412287426123
 31
0.0
  0
LINE
  5
21B
330
218
100
AcDbEntity
  8
1
  6
Continuous
 62
     2
100
AcDbLine
 10
148.487922361031
 20
73.31412287426123
 30
0.0
 11
148.487922361031
 21
66.31412287426123
 31
0.0
  0
SOLID
  5
21C
330
218
100
AcDbEntity
  8
1
 62
     2
100
AcDbTrace
 10
151.987922361031
 20
67.77490661581712
 30
0.0
 11
151.987922361031
 21
66.85333913270534
 31
0.0
 12
148.487922361031
 22
67.31412287426123
 32
0.0
 13
148.487922361031
 23
67.31412287426123
 33
0.0
  0
SOLID
  5
21D
330
218
100
AcDbEntity
  8
1
 62
     2
100
AcDbTrace
 10
174.987922361031
 20
66.85333913270534
 30
0.0
 11
174.987922361031
 21
67.77490661581712
 31
0.0
 12
178.487922361031
 22
67.31412287426123
 32
0.0
 13
178.487922361031
 23
67.31412287426123
 33
0.0
  0
MTEXT
  5
21E
330
218
100
AcDbEntity
  8
1
 62
     7
100
AcDbMText
 10
160.862922361031
 20
68.31412287426123
 30
0.0
 40
3.5
 41
0.0
 71
     7
 72
     1
  1
30
  7
CONVERTER_2
 11
0.9999999999970621
 21
2.424068405545307E-6
 31
0.0
 73
     1
 44
0.60024009603842
  0
ENDBLK
  5
220
330
218
100
AcDbEntity
  8
0
100
AcDbBlockEnd
  0
BLOCK
  5
22A
330
223
100
AcDbEntity
  8
0
100
AcDbBlockBegin
  2
*D110
 70
     1
 71
     0
 10
0.0
 20
0.0
 30
0.0
  3
*D110
  1

  0
LINE
  5
224
330
223
100
AcDbEntity
  8
1
  6
Continuous
 62
     2
100
AcDbLine
 10
118.487922361031
 20
67.31412287426123
 30
0.0
 11
148.487922361031
 21
67.31412287426123
 31
0.0
  0
LINE
  5
225
330
223
100
AcDbEntity
  8
1
  6
Continuous
 62
     2
100
AcDbLine
 10
148.487922361031
 20
74.14090425581215
 30
0.0
 11
148.487922361031
 21
66.31412287426123
 31
0.0
  0
LINE
  5
226
330
223
100
AcDbEntity
  8
1
  6
Continuous
 62
     2
100
AcDbLine
 10
118.487922361031
 20
79.40258014238114
 30
0.0
 11
118.487922361031
 21
66.31412287426123
 31
0.0
  0
SOLID
  5
227
330
223
100
AcDbEntity
  8
1
 62
     2
100
AcDbTrace
 10
121.987922361031
 20
67.77490661581712
 30
0.0
 11
121.987922361031
 21
66.85333913270534
 31
0.0
 12
118.487922361031
 22
67.31412287426123
 32
0.0
 13
118.487922361031
 23
67.31412287426123
 33
0.0
  0
SOLID
  5
228
330
223
100
AcDbEntity
  8
1
 62
     2
100
AcDbTrace
 10
144.987922361031
 20
66.85333913270534
 30
0.0
 11
144.987922361031
 21
67.77490661581712
 31
0.0
 12
148.487922361031
 22
67.31412287426123
 32
0.0
 13
148.487922361031
 23
67.31412287426123
 33
0.0
  0
MTEXT
  5
229
330
223
100
AcDbEntity
  8
1
 62
     7
100
AcDbMText
 10
130.862922361031
 20
68.31412287426123
 30
0.0
 40
3.5
 41
0.0
 71
     7
 72
     1
  1
30
  7
CONVERTER_2
 11
0.9999999999970621
 21
2.424068405545307E-6
 31
0.0
 73
     1
 44
0.60024009603842
  0
ENDBLK
  5
22B
330
223
100
AcDbEntity
  8
0
100
AcDbBlockEnd
  0
BLOCK
  5
235
330
22E
100
AcDbEntity
  8
0
100
AcDbBlockBegin
  2
*D211
 70
     1
 71
     0
 10
0.0
 20
0.0
 30
0.0
  3
*D211
  1

  0
LINE
  5
22F
330
22E
100
AcDbEntity
  8
1
  6
Continuous
 62
     2
100
AcDbLine
 10
108.487922361031
 20
149.7858036007715
 30
0.0
 11
108.487922361031
 21
92.31412287426127
 31
0.0
  0
LINE
  5
230
330
22E
100
AcDbEntity
  8
1
  6
Continuous
 62
     2
100
AcDbLine
 10
146.8920515038737
 20
149.7858036007715
 30
0.0
 11
107.487922361031
 21
149.7858036007715
 31
0.0
  0
LINE
  5
231
330
22E
100
AcDbEntity
  8
1
  6
Continuous
 62
     2
100
AcDbLine
 10
110.4879223610311
 20
92.31412287426127
 30
0.0
 11
107.487922361031
 21
92.31412287426127
 31
0.0
  0
SOLID
  5
232
330
22E
100
AcDbEntity
  8
1
 62
     2
100
AcDbTrace
 10
108.9487061025869
 20
146.2858036007715
 30
0.0
 11
108.0271386194751
 21
146.2858036007715
 31
0.0
 12
108.487922361031
 22
149.7858036007715
 32
0.0
 13
108.487922361031
 23
149.7858036007715
 33
0.0
  0
SOLID
  5
233
330
22E
100
AcDbEntity
  8
1
 62
     2
100
AcDbTrace
 10
108.0271386194751
 20
95.81412287426127
 30
0.0
 11
108.9487061025869
 21
95.81412287426127
 31
0.0
 12
108.487922361031
 22
92.31412287426127
 32
0.0
 13
108.487922361031
 23
92.31412287426127
 33
0.0
  0
MTEXT
  5
234
330
22E
100
AcDbEntity
  8
1
 62
     7
100
AcDbMText
 10
107.487922361031
 20
111.5999632375164
 30
0.0
 40
3.5
 41
0.0
 71
     7
 72
     1
  1
58リフト5
  7
CONVERTER_1
 11
0.0
 21
1.0
 31
0.0
 73
     1
 44
0.60024009603842
  0
ENDBLK
  5
236
330
22E
100
AcDbEntity
  8
0
100
AcDbBlockEnd
  0
ENDSEC
  0
SECTION
  2
ENTITIES
  0
INSERT
  5
53
330
1F
100
AcDbEntity
  8
0
100
AcDbBlockReference
  2
V231-0-13
 10
210.0
 20
0.0
 30
0.0
  0
INSERT
  5
54
330
1F
100
AcDbEntity
  8
0
100
AcDbBlockReference
  2
R10A
 10
193.487922361031
 20
92.28580360077149
 30
0.0
  0
INSERT
  5
55
330
1F
100
AcDbEntity
  8
1
100
AcDbBlockReference
  2
_J__A4
 10
0.0
 20
0.0
 30
0.0
  0
LINE
  5
1E9
330
1F
100
AcDbEntity
  8
1
  6
Continuous
 62
     7
100
AcDbLine
 10
90.39503781720919
 20
105.7041897663194
 30
0.0
 11
90.39503781720919
 21
104.4541897663195
 31
0.0
  0
LINE
  5
1EA
330
1F
100
AcDbEntity
  8
1
  6
Continuous
 62
     7
100
AcDbLine
 10
90.39503781720919
 20
104.4541897663195
 30
0.0
 11
86.93093620207145
 21
106.4541897663194
 31
0.0
  0
LINE
  5
1EB
330
1F
100
AcDbEntity
  8
1
  6
Continuous
 62
     7
100
AcDbLine
 10
90.39503781720919
 20
108.4541897663195
 30
0.0
 11
86.93093620207145
 21
106.4541897663194
 31
0.0
  0
LINE
  5
1EC
330
1F
100
AcDbEntity
  8
1
  6
Continuous
 62
     7
100
AcDbLine
 10
96.39503781720919
 20
107.2041897663194
 30
0.0
 11
90.39503781720919
 21
107.2041897663194
 31
0.0
  0
LINE
  5
1ED
330
1F
100
AcDbEntity
  8
1
  6
Continuous
 62
     7
100
AcDbLine
 10
90.39503781720919
 20
105.7041897663194
 30
0.0
 11
96.39503781720919
 21
105.7041897663194
 31
0.0
  0
LINE
  5
1EE
330
1F
100
AcDbEntity
  8
1
  6
Continuous
 62
     7
100
AcDbLine
 10
90.39503781720919
 20
107.2041897663194
 30
0.0
 11
90.39503781720919
 21
108.4541897663195
 31
0.0
  0
LINE
  5
1EF
330
1F
100
AcDbEntity
  8
1
  6
Continuous
 62
     7
100
AcDbLine
 10
96.39503781720919
 20
105.7041897663194
 30
0.0
 11
96.39503781720919
 21
107.2041897663194
 31
0.0
  0
LINE
  5
1F0
330
1F
100
AcDbEntity
  8
1
  6
DASH_CENTER
 62
     2
100
AcDbLine
 10
36.88750310930871
 20
213.95345358521
 30
0.0
 11
88.082775791445
 21
213.95345358521
 31
0.0
  0
LINE
  5
1F1
330
1F
100
AcDbEntity
  8
1
  6
DASH_CENTER
 62
     2
100
AcDbLine
 10
43.20466047083525
 20
92.31412287426124
 30
0.0
 11
81.20466047083502
 21
92.31412287426124
 31
0.0
  0
LINE
  5
1F2
330
1F
100
AcDbEntity
  8
1
  6
Continuous
 62
     2
100
AcDbLine
 10
148.487922361031
 20
149.7858036007715
 30
0.0
 11
146.8920515038737
 21
149.7858036007715
 31
0.0
  0
LINE
  5
1F3
330
1F
100
AcDbEntity
  8
1
  6
DASH_CENTER
 62
     2
100
AcDbLine
 10
148.487922361031
 20
74.14090425581215
 30
0.0
 11
148.487922361031
 21
133.8141228742612
 31
0.0
  0
LINE
  5
1F4
330
1F
100
AcDbEntity
  8
1
  6
DASH_CENTER
 62
     2
100
AcDbLine
 10
110.487922361031
 20
92.31412287426124
 30
0.0
 11
186.487922361031
 21
92.31412287426124
 31
0.0
  0
LINE
  5
1F5
330
1F
100
AcDbEntity
  8
1
  6
DASH_CENTER
 62
     2
100
AcDbLine
 10
148.487922361031
 20
133.7858036007715
 30
0.0
 11
148.487922361031
 21
152.9729533965005
 31
0.0
  0
LINE
  5
1F6
330
1F
100
AcDbEntity
  8
1
  6
DASH_CENTER
 62
     2
100
AcDbLine
 10
62.20466047083502
 20
133.7858036007715
 30
0.0
 11
62.20466047083502
 21
152.9729533965005
 31
0.0
  0
LINE
  5
1F7
330
1F
100
AcDbEntity
  8
1
  6
DASH_CENTER
 62
     2
100
AcDbLine
 10
62.20466047083502
 20
133.7858036007715
 30
0.0
 11
62.20466047083502
 21
152.9729533965005
 31
0.0
  0
LINE
  5
1F8
330
1F
100
AcDbEntity
  8
1
  6
DASH_CENTER
 62
     2
100
AcDbLine
 10
62.20466047083502
 20
74.14090425581215
 30
0.0
 11
62.20466047083502
 21
133.8141228742612
 31
0.0
  0
LINE
  5
1F9
330
1F
100
AcDbEntity
  8
1
  6
DASH_CENTER
 62
     2
100
AcDbLine
 10
62.20466047083488
 20
179.45345358521
 30
0.0
 11
62.2046604708349
 21
246.45345358521
 31
0.0
  0
LINE
  5
1FA
330
1F
100
AcDbEntity
  8
1
  6
DASH_CENTER
 62
     2
100
AcDbLine
 10
32.73094910340348
 20
230.9701087772139
 30
0.0
 11
77.87596487362569
 21
204.9056217697062
 31
0.0
  0
LINE
  5
1FB
330
1F
100
AcDbEntity
  8
1
  6
DASH_CENTER
 62
     2
100
AcDbLine
 10
91.67016178409699
 20
230.9653687002291
 30
0.0
 11
48.45856395959387
 21
206.0171410641383
 31
0.0
  0
LINE
  5
1FC
330
1F
100
AcDbEntity
  8
1
  6
Continuous
 62
     7
100
AcDbLine
 10
176.561566607804
 20
213.5680983893839
 30
0.0
 11
176.561566607804
 21
192.5680983893839
 31
0.0
  0
LINE
  5
1FD
330
1F
100
AcDbEntity
  8
1
  6
Continuous
 62
     2
100
AcDbLine
 10
176.561566607804
 20
206.5680983893839
 30
0.0
 11
122.561566607804
 21
206.5680983893839
 31
0.0
  0
LINE
  5
1FE
330
1F
100
AcDbEntity
  8
1
  6
Continuous
 62
     7
100
AcDbLine
 10
122.561566607804
 20
192.5680983893839
 30
0.0
 11
122.561566607804
 21
213.5680983893839
 31
0.0
  0
LINE
  5
1FF
330
1F
100
AcDbEntity
  8
1
  6
Continuous
 62
     2
100
AcDbLine
 10
176.561566607804
 20
199.5680983893839
 30
0.0
 11
122.561566607804
 21
199.5680983893839
 31
0.0
  0
LINE
  5
200
330
1F
100
AcDbEntity
  8
1
  6
Continuous
 62
     7
100
AcDbLine
 10
176.561566607804
 20
192.5680983893839
 30
0.0
 11
122.561566607804
 21
192.5680983893839
 31
0.0
  0
LINE
  5
201
330
1F
100
AcDbEntity
  8
1
  6
Continuous
 62
     2
100
AcDbLine
 10
158.561566607804
 20
192.5680983893839
 30
0.0
 11
158.561566607804
 21
213.5680983893839
 31
0.0
  0
LINE
  5
202
330
1F
100
AcDbEntity
  8
1
  6
Continuous
 62
     7
100
AcDbLine
 10
122.561566607804
 20
213.5680983893839
 30
0.0
 11
176.561566607804
 21
213.5680983893839
 31
0.0
  0
SOLID
  5
203
330
1F
100
AcDbEntity
  8
1
 62
     2
100
AcDbTrace
 10
78.55561004499683
 20
95.57560365828471
 30
0.0
 11
79.35371089667331
 21
95.11481991672881
 31
0.0
 12
77.20466047083502
 22
92.31412287426124
 32
0.0
 13
77.20466047083502
 23
92.31412287426124
 33
0.0
  0
LEADER
  5
204
330
1F
100
AcDbEntity
  8
1
  6
Continuous
 62
     2
100
AcDbLeader
  3
Standard
 71
     0
 76
     3
 10
77.20466047083502
 20
92.31412287426124
 30
0.0
 10
83.63638108975556
 20
103.4541897663194
 30
0.0
 10
99.07049341273489
 20
103.4541897663194
 30
0.0
  0
SOLID
  5
205
330
1F
100
AcDbEntity
  8
1
 62
     2
100
AcDbTrace
 10
180.6369727868693
 20
77.99467349666347
 30
0.0
 11
179.8388719351928
 21
77.53388975510758
 31
0.0
 12
178.487922361031
 22
80.79537053913106
 32
0.0
 13
178.487922361031
 23
80.79537053913106
 33
0.0
  0
LEADER
  5
206
330
1F
100
AcDbEntity
  8
1
  6
Continuous
 62
     2
100
AcDbLeader
  3
Standard
 71
     0
 76
     3
 10
178.487922361031
 20
80.79537053913106
 30
0.0
 10
182.9662394737669
 20
73.03869776746737
 30
0.0
 10
198.575911718246
 20
73.03869776746737
 30
0.0
  0
SOLID
  5
207
330
1F
100
AcDbEntity
  8
1
 62
     2
100
AcDbTrace
 10
117.1369727868689
 20
77.53388975510595
 30
0.0
 11
116.3388719351925
 21
77.9946734966619
 31
0.0
 12
118.487922361031
 22
80.79537053912929
 32
0.0
 13
118.487922361031
 23
80.79537053912929
 33
0.0
  0
LEADER
  5
208
330
1F
100
AcDbEntity
  8
1
  6
Continuous
 62
     2
100
AcDbLeader
  3
Standard
 71
     0
 76
     3
 10
118.487922361031
 20
80.79537053912929
 30
0.0
 10
114.0096052482952
 20
73.03869776746737
 30
0.0
 10
97.4732783249689
 20
73.03869776746737
 30
0.0
  0
MTEXT
  5
209
330
1F
100
AcDbEntity
  8
1
 62
     7
100
AcDbMText
 10
34.0
 20
30.50000000000001
 30
0.0
 40
3.5
 41
0.0
 71
     4
 72
     1
  1
共用形
  7
CONVERTER_1
 73
     1
 44
0.7202881152461
  0
MTEXT
  5
20B
330
1F
100
AcDbEntity
  8
0
 62
     7
100
AcDbMText
 10
105.7414417866325
 20
76.03869776746738
 30
0.0
 40
3.5
 41
0.0
 71
     5
 72
     1
  1
Rc1/2
  7
CONVERTER_2
 73
     1
 44
1.32052821128451
  0
MTEXT
  5
20C
330
1F
100
AcDbEntity
  8
0
 62
     7
100
AcDbMText
 10
190.7710755960064
 20
76.03869776746737
 30
0.0
 40
3.5
 41
0.0
 71
     5
 72
     1
  1
Rc1/2
  7
CONVERTER_2
 73
     1
 44
1.32052821128451
  0
MTEXT
  5
20D
330
1F
100
AcDbEntity
  8
1
 62
     7
100
AcDbMText
 10
34.0
 20
37.5
 30
0.0
 40
3.5
 41
0.0
 71
     4
 72
     1
  1
JIS
  7
CONVERTER_2
 73
     1
 44
0.7202881152461
  0
MTEXT
  5
20E
330
1F
100
AcDbEntity
  8
0
 62
     7
100
AcDbMText
 10
57.0
 20
22.75000000000001
 30
0.0
 40
3.5
 41
0.0
 71
     5
 72
     1
  1
B型甲止水栓
  7
CONVERTER_1
 73
     1
 44
1.32052821128451
  0
MTEXT
  5
20F
330
1F
100
AcDbEntity
  8
0
 62
     7
100
AcDbMText
 10
57.0
 20
14.25
 30
0.0
 40
3.5
 41
0.0
 71
     5
 72
     1
  1
V231AG-13-色
  7
CONVERTER_1
 73
     1
 44
0.7202881152461
  0
MTEXT
  5
210
330
1F
100
AcDbEntity
  8
1
 62
     7
100
AcDbMText
 10
85.25
 20
17.0
 30
0.0
 40
3.5
 41
0.0
 71
     5
 72
     1
  1
1
  7
CONVERTER_2
 73
     1
 44
0.7202881152461
  0
MTEXT
  5
211
330
1F
100
AcDbEntity
  8
1
 62
     7
100
AcDbMText
 10
93.75
 20
17.0
 30
0.0
 40
3.5
 41
0.0
 71
     5
 72
     1
  1
1
  7
CONVERTER_2
 73
     1
 44
0.7202881152461
  0
MTEXT
  5
212
330
1F
100
AcDbEntity
  8
1
 62
     7
100
AcDbMText
 10
140.561566607804
 20
210.0680983893839
 30
0.0
 40
3.5
 41
0.0
 71
     5
 72
     1
  1
品番
  7
CONVERTER_1
 73
     1
 44
0.7202881152461
  0
MTEXT
  5
213
330
1F
100
AcDbEntity
  8
1
 62
     7
100
AcDbMText
 10
167.561566607804
 20
210.0680983893839
 30
0.0
 40
3.5
 41
0.0
 71
     5
 72
     1
  1
ビス色
  7
CONVERTER_1
 73
     1
 44
0.7202881152461
  0
MTEXT
  5
214
330
1F
100
AcDbEntity
  8
1
 62
     7
100
AcDbMText
 10
140.561566607804
 20
203.0680983893839
 30
0.0
 40
3.5
 41
0.0
 71
     5
 72
     1
  1
V231AG-13
  7
CONVERTER_2
 73
     1
 44
0.7202881152461
  0
MTEXT
  5
215
330
1F
100
AcDbEntity
  8
1
 62
     7
100
AcDbMText
 10
167.561566607804
 20
203.0680983893839
 30
0.0
 40
3.5
 41
0.0
 71
     5
 72
     1
  1
青
  7
CONVERTER_1
 73
     1
 44
0.7202881152461
  0
MTEXT
  5
216
330
1F
100
AcDbEntity
  8
1
 62
     7
100
AcDbMText
 10
167.561566607804
 20
196.0680983893839
 30
0.0
 40
3.5
 41
0.0
 71
     5
 72
     1
  1
赤
  7
CONVERTER_1
 73
     1
 44
0.7202881152461
  0
MTEXT
  5
217
330
1F
100
AcDbEntity
  8
1
 62
     7
100
AcDbMText
 10
140.561566607804
 20
196.0680983893839
 30
0.0
 40
3.5
 41
0.0
 71
     5
 72
     1
  1
V231AG-13-R
  7
CONVERTER_2
 73
     1
 44
0.7202881152461
  0
DIMENSION
  5
222
330
1F
100
AcDbEntity
  8
1
100
AcDbDimension
  2
*D09
 10
148.487922361031
 20
67.31412287426123
 30
0.0
 11
163.487922361031
 21
70.06412287426123
 31
0.0
  1
<>
 71
     5
 42
0.0
 53
0.00013888888889
  3
ME10_DIM_0
100
AcDbAlignedDimension
 13
178.487922361031
 23
79.40258014238114
 33
0.0
 14
148.487922361031
 24
73.31412287426123
 34
0.0
100
AcDbRotatedDimension
  0
DIMENSION
  5
22D
330
1F
100
AcDbEntity
  8
1
100
AcDbDimension
  2
*D110
 10
118.487922361031
 20
67.31412287426123
 30
0.0
 11
133.487922361031
 21
70.06412287426123
 31
0.0
  1
<>
 71
     5
 42
0.0
 53
0.00013888888889
  3
ME10_DIM_1
100
AcDbAlignedDimension
 13
148.487922361031
 23
74.14090425581215
 33
0.0
 14
118.487922361031
 24
79.40258014238114
 34
0.0
100
AcDbRotatedDimension
  0
DIMENSION
  5
238
330
1F
100
AcDbEntity
  8
1
100
AcDbDimension
  2
*D211
 10
108.487922361031
 20
149.7858036007715
 30
0.0
 11
105.737922361031
 21
121.0499632375164
 31
0.0
  1
58リフト5
 71
     5
 42
0.0
 53
90.0
  3
ME10_DIM_2
100
AcDbAlignedDimension
 13
110.487922361031
 23
92.31412287426124
 33
0.0
 14
146.8920515038737
 24
149.7858036007715
 34
0.0
 50
90.0
100
AcDbRotatedDimension
  0
ENDSEC
  0
SECTION
  2
OBJECTS
  0
DICTIONARY
  5
C
330
0
100
AcDbDictionary
281
     1
  3
ACAD_GROUP
350
D
  3
ACAD_LAYOUT
350
1A
  3
ACAD_MLINESTYLE
350
17
  3
ACAD_PLOTSETTINGS
350
19
  3
ACAD_PLOTSTYLENAME
350
E
  3
ACAD_TABLESTYLE
350
2A
  3
AcDbVariableDictionary
350
2C
  0
DICTIONARY
  5
D
102
{ACAD_REACTORS
330
C
102
}
330
C
100
AcDbDictionary
281
     1
  0
DICTIONARY
  5
1A
102
{ACAD_REACTORS
330
C
102
}
330
C
100
AcDbDictionary
281
     1
  3
Layout1
350
1E
  3
Layout2
350
26
  3
Model
350
22
  0
DICTIONARY
  5
17
102
{ACAD_REACTORS
330
C
102
}
330
C
100
AcDbDictionary
281
     1
  3
Standard
350
18
  0
DICTIONARY
  5
19
102
{ACAD_REACTORS
330
C
102
}
330
C
100
AcDbDictionary
281
     1
  0
ACDBDICTIONARYWDFLT
  5
E
102
{ACAD_REACTORS
330
C
102
}
330
C
100
AcDbDictionary
281
     1
  3
Normal
350
F
100
AcDbDictionaryWithDefault
340
F
  0
DICTIONARY
  5
2A
102
{ACAD_REACTORS
330
C
102
}
330
C
100
AcDbDictionary
281
     1
  3
Standard
350
2B
  0
DICTIONARY
  5
2C
102
{ACAD_REACTORS
330
C
102
}
330
C
100
AcDbDictionary
281
     1
  3
CTABLESTYLE
350
2D
  0
LAYOUT
  5
1E
102
{ACAD_REACTORS
330
1A
102
}
330
1A
100
AcDbPlotSettings
  1

  2

  4

  6

 40
0.0
 41
0.0
 42
0.0
 43
0.0
 44
0.0
 45
0.0
 46
0.0
 47
0.0
 48
0.0
 49
0.0
140
0.0
141
0.0
142
1.0
143
1.0
 70
   688
 72
     0
 73
     0
 74
     5
  7

 75
    16
147
1.0
148
0.0
149
0.0
100
AcDbLayout
  1
Layout1
 70
     1
 71
     1
 10
0.0
 20
0.0
 11
12.0
 21
9.0
 12
0.0
 22
0.0
 32
0.0
 14
1.00000000000000E+20
 24
1.00000000000000E+20
 34
1.00000000000000E+20
 15
-1.00000000000000E+20
 25
-1.00000000000000E+20
 35
-1.00000000000000E+20
146
0.0
 13
0.0
 23
0.0
 33
0.0
 16
1.0
 26
0.0
 36
0.0
 17
0.0
 27
1.0
 37
0.0
 76
     0
330
1B
  0
LAYOUT
  5
26
102
{ACAD_REACTORS
330
1A
102
}
330
1A
100
AcDbPlotSettings
  1

  2

  4

  6

 40
0.0
 41
0.0
 42
0.0
 43
0.0
 44
0.0
 45
0.0
 46
0.0
 47
0.0
 48
0.0
 49
0.0
140
0.0
141
0.0
142
1.0
143
1.0
 70
   688
 72
     0
 73
     0
 74
     5
  7

 75
    16
147
1.0
148
0.0
149
0.0
100
AcDbLayout
  1
Layout2
 70
     1
 71
     2
 10
0.0
 20
0.0
 11
0.0
 21
0.0
 12
0.0
 22
0.0
 32
0.0
 14
0.0
 24
0.0
 34
0.0
 15
0.0
 25
0.0
 35
0.0
146
0.0
 13
0.0
 23
0.0
 33
0.0
 16
1.0
 26
0.0
 36
0.0
 17
0.0
 27
1.0
 37
0.0
 76
     0
330
23
  0
LAYOUT
  5
22
102
{ACAD_REACTORS
330
1A
102
}
330
1A
100
AcDbPlotSettings
  1

  2

  4

  6

 40
0.0
 41
0.0
 42
0.0
 43
0.0
 44
0.0
 45
0.0
 46
0.0
 47
0.0
 48
0.0
 49
0.0
140
0.0
141
0.0
142
1.0
143
1.0
 70
  1712
 72
     0
 73
     0
 74
     0
  7

 75
     0
147
1.0
148
0.0
149
0.0
100
AcDbLayout
  1
Model
 70
     1
 71
     0
 10
0.0
 20
0.0
 11
0.0
 21
0.0
 12
0.0
 22
0.0
 32
0.0
 14
0.0
 24
0.0
 34
0.0
 15
210.0
 25
297.0
 35
0.0
146
0.0
 13
0.0
 23
0.0
 33
0.0
 16
1.0
 26
0.0
 36
0.0
 17
0.0
 27
1.0
 37
0.0
 76
     0
330
1F
  0
MLINESTYLE
  5
18
102
{ACAD_REACTORS
330
17
102
}
330
17
100
AcDbMlineStyle
  2
Standard
 70
     0
  3

 62
   256
 51
90.0
 52
90.0
 71
     2
 49
0.5
 62
   256
  6
BYLAYER
 49
-0.5
 62
   256
  6
BYLAYER
  0
ACDBPLACEHOLDER
  5
F
102
{ACAD_REACTORS
330
E
102
}
330
E
  0
TABLESTYLE
  5
2B
102
{ACAD_REACTORS
330
2A
102
}
330
2A
100
AcDbTableStyle
  3
Standard
 70
     0
 71
     0
 40
0.06
 41
0.06
280
     0
281
     0
  7
Standard
140
0.18
170
     2
 62
     0
 63
     7
283
     0
274
    -2
284
     1
 64
     0
275
    -2
285
     1
 65
     0
276
    -2
286
     1
 66
     0
277
    -2
287
     1
 67
     0
278
    -2
288
     1
 68
     0
279
    -2
289
     1
 69
     0
  7
Standard
140
0.25
170
     5
 62
     0
 63
     7
283
     0
274
    -2
284
     1
 64
     0
275
    -2
285
     1
 65
     0
276
    -2
286
     1
 66
     0
277
    -2
287
     1
 67
     0
278
    -2
288
     1
 68
     0
279
    -2
289
     1
 69
     0
  7
Standard
140
0.18
170
     5
 62
     0
 63
     7
283
     0
274
    -2
284
     1
 64
     0
275
    -2
285
     1
 65
     0
276
    -2
286
     1
 66
     0
277
    -2
287
     1
 67
     0
278
    -2
288
     1
 68
     0
279
    -2
289
     1
 69
     0
  0
DICTIONARYVAR
  5
2D
102
{ACAD_REACTORS
330
2C
102
}
330
2C
100
DictionaryVariables
280
     0
  1
Standard
  0
ENDSEC
  0
EOF
