  0
SECTION
  2
HEADER
  9
$ACADVER
  1
AC1015
  9
$ACADMAINTVER
 70
     6
  9
$DWGCODEPAGE
  3
DOS932
  9
$INSBASE
 10
0.0
 20
0.0
 30
0.0
  9
$EXTMIN
 10
0.0
 20
0.0
 30
0.0
  9
$EXTMAX
 10
315.0
 20
445.5
 30
0.0
  9
$LIMMIN
 10
0.0
 20
0.0
  9
$LIMMAX
 10
12.0
 20
9.0
  9
$ORTHOMODE
 70
     0
  9
$REGENMODE
 70
     1
  9
$FILLMODE
 70
     1
  9
$QTEXTMODE
 70
     0
  9
$MIRRTEXT
 70
     1
  9
$LTSCALE
 40
1.0
  9
$ATTMODE
 70
     1
  9
$TEXTSIZE
 40
0.2
  9
$TRACEWID
 40
0.05
  9
$TEXTSTYLE
  7
Standard
  9
$CLAYER
  8
0
  9
$CELTYPE
  6
ByLayer
  9
$CECOLOR
 62
   256
  9
$CELTSCALE
 40
1.0
  9
$DISPSILH
 70
     0
  9
$DIMSCALE
 40
1.0
  9
$DIMASZ
 40
0.18
  9
$DIMEXO
 40
0.0625
  9
$DIMDLI
 40
0.38
  9
$DIMRND
 40
0.0
  9
$DIMDLE
 40
0.0
  9
$DIMEXE
 40
0.18
  9
$DIMTP
 40
0.0
  9
$DIMTM
 40
0.0
  9
$DIMTXT
 40
0.18
  9
$DIMCEN
 40
0.09
  9
$DIMTSZ
 40
0.0
  9
$DIMTOL
 70
     0
  9
$DIMLIM
 70
     0
  9
$DIMTIH
 70
     1
  9
$DIMTOH
 70
     1
  9
$DIMSE1
 70
     0
  9
$DIMSE2
 70
     0
  9
$DIMTAD
 70
     0
  9
$DIMZIN
 70
     0
  9
$DIMBLK
  1

  9
$DIMASO
 70
     1
  9
$DIMSHO
 70
     1
  9
$DIMPOST
  1

  9
$DIMAPOST
  1

  9
$DIMALT
 70
     0
  9
$DIMALTD
 70
     2
  9
$DIMALTF
 40
25.4
  9
$DIMLFAC
 40
1.0
  9
$DIMTOFL
 70
     0
  9
$DIMTVP
 40
0.0
  9
$DIMTIX
 70
     0
  9
$DIMSOXD
 70
     0
  9
$DIMSAH
 70
     0
  9
$DIMBLK1
  1

  9
$DIMBLK2
  1

  9
$DIMSTYLE
  2
Standard
  9
$DIMCLRD
 70
     0
  9
$DIMCLRE
 70
     0
  9
$DIMCLRT
 70
     0
  9
$DIMTFAC
 40
1.0
  9
$DIMGAP
 40
0.09
  9
$DIMJUST
 70
     0
  9
$DIMSD1
 70
     0
  9
$DIMSD2
 70
     0
  9
$DIMTOLJ
 70
     1
  9
$DIMTZIN
 70
     0
  9
$DIMALTZ
 70
     0
  9
$DIMALTTZ
 70
     0
  9
$DIMUPT
 70
     0
  9
$DIMDEC
 70
     4
  9
$DIMTDEC
 70
     4
  9
$DIMALTU
 70
     2
  9
$DIMALTTD
 70
     2
  9
$DIMTXSTY
  7
Standard
  9
$DIMAUNIT
 70
     0
  9
$DIMADEC
 70
     0
  9
$DIMALTRND
 40
0.0
  9
$DIMAZIN
 70
     0
  9
$DIMDSEP
 70
    46
  9
$DIMATFIT
 70
     3
  9
$DIMFRAC
 70
     0
  9
$DIMLDRBLK
  1

  9
$DIMLUNIT
 70
     2
  9
$DIMLWD
 70
    -2
  9
$DIMLWE
 70
    -2
  9
$DIMTMOVE
 70
     0
  9
$LUNITS
 70
     2
  9
$LUPREC
 70
     4
  9
$SKETCHINC
 40
0.1
  9
$FILLETRAD
 40
0.5
  9
$AUNITS
 70
     0
  9
$AUPREC
 70
     0
  9
$MENU
  1
.
  9
$ELEVATION
 40
0.0
  9
$PELEVATION
 40
0.0
  9
$THICKNESS
 40
0.0
  9
$LIMCHECK
 70
     0
  9
$CHAMFERA
 40
0.5
  9
$CHAMFERB
 40
0.5
  9
$CHAMFERC
 40
1.0
  9
$CHAMFERD
 40
0.0
  9
$SKPOLY
 70
     0
  9
$TDCREATE
 40
2456189.611214907
  9
$TDUCREATE
 40
2456189.236214907
  9
$TDUPDATE
 40
2456189.611214919
  9
$TDUUPDATE
 40
2456189.236214919
  9
$TDINDWG
 40
0.0000000116
  9
$TDUSRTIMER
 40
0.0000000116
  9
$USRTIMER
 70
     1
  9
$ANGBASE
 50
0.0
  9
$ANGDIR
 70
     0
  9
$PDMODE
 70
     0
  9
$PDSIZE
 40
0.0
  9
$PLINEWID
 40
0.0
  9
$SPLFRAME
 70
     0
  9
$SPLINETYPE
 70
     6
  9
$SPLINESEGS
 70
     8
  9
$HANDSEED
  5
2B0
  9
$SURFTAB1
 70
     6
  9
$SURFTAB2
 70
     6
  9
$SURFTYPE
 70
     6
  9
$SURFU
 70
     6
  9
$SURFV
 70
     6
  9
$UCSBASE
  2

  9
$UCSNAME
  2

  9
$UCSORG
 10
0.0
 20
0.0
 30
0.0
  9
$UCSXDIR
 10
1.0
 20
0.0
 30
0.0
  9
$UCSYDIR
 10
0.0
 20
1.0
 30
0.0
  9
$UCSORTHOREF
  2

  9
$UCSORTHOVIEW
 70
     0
  9
$UCSORGTOP
 10
0.0
 20
0.0
 30
0.0
  9
$UCSORGBOTTOM
 10
0.0
 20
0.0
 30
0.0
  9
$UCSORGLEFT
 10
0.0
 20
0.0
 30
0.0
  9
$UCSORGRIGHT
 10
0.0
 20
0.0
 30
0.0
  9
$UCSORGFRONT
 10
0.0
 20
0.0
 30
0.0
  9
$UCSORGBACK
 10
0.0
 20
0.0
 30
0.0
  9
$PUCSBASE
  2

  9
$PUCSNAME
  2

  9
$PUCSORG
 10
0.0
 20
0.0
 30
0.0
  9
$PUCSXDIR
 10
1.0
 20
0.0
 30
0.0
  9
$PUCSYDIR
 10
0.0
 20
1.0
 30
0.0
  9
$PUCSORTHOREF
  2

  9
$PUCSORTHOVIEW
 70
     0
  9
$PUCSORGTOP
 10
0.0
 20
0.0
 30
0.0
  9
$PUCSORGBOTTOM
 10
0.0
 20
0.0
 30
0.0
  9
$PUCSORGLEFT
 10
0.0
 20
0.0
 30
0.0
  9
$PUCSORGRIGHT
 10
0.0
 20
0.0
 30
0.0
  9
$PUCSORGFRONT
 10
0.0
 20
0.0
 30
0.0
  9
$PUCSORGBACK
 10
0.0
 20
0.0
 30
0.0
  9
$USERI1
 70
     0
  9
$USERI2
 70
     0
  9
$USERI3
 70
     0
  9
$USERI4
 70
     0
  9
$USERI5
 70
     0
  9
$USERR1
 40
13.2
  9
$USERR2
 40
0.0
  9
$USERR3
 40
0.0
  9
$USERR4
 40
0.0
  9
$USERR5
 40
0.0
  9
$WORLDVIEW
 70
     1
  9
$SHADEDGE
 70
     3
  9
$SHADEDIF
 70
    70
  9
$TILEMODE
 70
     1
  9
$MAXACTVP
 70
    64
  9
$PINSBASE
 10
0.0
 20
0.0
 30
0.0
  9
$PLIMCHECK
 70
     0
  9
$PEXTMIN
 10
1.00000000000000E+20
 20
1.00000000000000E+20
 30
1.00000000000000E+20
  9
$PEXTMAX
 10
-1.00000000000000E+20
 20
-1.00000000000000E+20
 30
-1.00000000000000E+20
  9
$PLIMMIN
 10
0.0
 20
0.0
  9
$PLIMMAX
 10
12.0
 20
9.0
  9
$UNITMODE
 70
     0
  9
$VISRETAIN
 70
     1
  9
$PLINEGEN
 70
     0
  9
$PSLTSCALE
 70
     1
  9
$TREEDEPTH
 70
  3020
  9
$CMLSTYLE
  2
Standard
  9
$CMLJUST
 70
     0
  9
$CMLSCALE
 40
1.0
  9
$PROXYGRAPHICS
 70
     1
  9
$MEASUREMENT
 70
     1
  9
$CELWEIGHT
370
    -1
  9
$ENDCAPS
280
     0
  9
$JOINSTYLE
280
     0
  9
$LWDISPLAY
290
     0
  9
$INSUNITS
 70
     1
  9
$HYPERLINKBASE
  1

  9
$STYLESHEET
  1

  9
$XEDIT
290
     1
  9
$CEPSNTYPE
380
     0
  9
$PSTYLEMODE
290
     0
  9
$FINGERPRINTGUID
  2
{FAEB1C30-E019-11D5-929B-00C0DF256EC4}
  9
$VERSIONGUID
  2
{FAEB1C32-E019-11D5-929B-00C0DF256EC4}
  9
$EXTNAMES
290
     1
  9
$PSVPSCALE
 40
0.0
  9
$OLESTARTUP
290
     0
  0
ENDSEC
  0
SECTION
  2
CLASSES
  0
CLASS
  1
ACDBDICTIONARYWDFLT
  2
AcDbDictionaryWithDefault
  3
ObjectDBX Classes
 90
        0
280
     0
281
     0
  0
CLASS
  1
TABLESTYLE
  2
AcDbTableStyle
  3
ObjectDBX Classes
 90
     2047
280
     0
281
     0
  0
CLASS
  1
DICTIONARYVAR
  2
AcDbDictionaryVar
  3
ObjectDBX Classes
 90
        0
280
     0
281
     0
  0
CLASS
  1

  2
exOdDbCircle
  3

 90
        0
280
     0
281
     1
  0
CLASS
  1

  2
exOdDbSpline
  3

 90
        0
280
     0
281
     1
  0
CLASS
  1
ACDBPLACEHOLDER
  2
AcDbPlaceHolder
  3
ObjectDBX Classes
 90
        0
280
     0
281
     0
  0
CLASS
  1
LAYOUT
  2
AcDbLayout
  3
ObjectDBX Classes
 90
        0
280
     0
281
     0
  0
ENDSEC
  0
SECTION
  2
TABLES
  0
TABLE
  2
VPORT
  5
8
330
0
100
AcDbSymbolTable
 70
     2
  0
VPORT
  5
29
330
8
100
AcDbSymbolTableRecord
100
AcDbViewportTableRecord
  2
*Active
 70
     0
 10
0.0
 20
0.0
 11
1.0
 21
1.0
 12
157.5
 22
222.75
 13
0.0
 23
0.0
 14
0.5
 24
0.5
 15
0.5
 25
0.5
 16
0.0
 26
0.0
 36
1.0
 17
0.0
 27
0.0
 37
0.0
 40
490.05
 41
1.60267857142857
 42
50.0
 43
0.0
 44
0.0
 50
0.0
 51
0.0
 71
     0
 72
   100
 73
     1
 74
     3
 75
     0
 76
     0
 77
     0
 78
     0
281
     0
 65
     1
110
0.0
120
0.0
130
0.0
111
1.0
121
0.0
131
0.0
112
0.0
122
1.0
132
0.0
 79
     0
146
0.0
  0
ENDTAB
  0
TABLE
  2
LTYPE
  5
5
330
0
100
AcDbSymbolTable
 70
     8
  0
LTYPE
  5
14
330
5
100
AcDbSymbolTableRecord
100
AcDbLinetypeTableRecord
  2
ByBlock
 70
     0
  3

 72
    65
 73
     0
 40
0.0
  0
LTYPE
  5
15
330
5
100
AcDbSymbolTableRecord
100
AcDbLinetypeTableRecord
  2
ByLayer
 70
     0
  3

 72
    65
 73
     0
 40
0.0
  0
LTYPE
  5
16
330
5
100
AcDbSymbolTableRecord
100
AcDbLinetypeTableRecord
  2
Continuous
 70
     0
  3
Solid line
 72
    65
 73
     0
 40
0.0
  0
LTYPE
  5
2E
330
5
100
AcDbSymbolTableRecord
100
AcDbLinetypeTableRecord
  2
DASHED
 70
     0
  3
Dashed
 72
    65
 73
     2
 40
15.0
 49
7.0
 74
     0
 49
-8.0
 74
     0
  0
LTYPE
  5
2F
330
5
100
AcDbSymbolTableRecord
100
AcDbLinetypeTableRecord
  2
DOTTED
 70
     0
  3
Dotted
 72
    65
 73
     2
 40
1.0
 49
0.0
 74
     0
 49
-1.0
 74
     0
  0
LTYPE
  5
30
330
5
100
AcDbSymbolTableRecord
100
AcDbLinetypeTableRecord
  2
DOT_CENTER
 70
     0
  3
Dot_Center
 72
    65
 73
     4
 40
14.0
 49
12.0
 74
     0
 49
-1.0
 74
     0
 49
0.0
 74
     0
 49
-1.0
 74
     0
  0
LTYPE
  5
31
330
5
100
AcDbSymbolTableRecord
100
AcDbLinetypeTableRecord
  2
LONG_DASHED
 70
     0
  3
Long_Dashed
 72
    65
 73
     2
 40
15.0
 49
10.0
 74
     0
 49
-5.0
 74
     0
  0
LTYPE
  5
32
330
5
100
AcDbSymbolTableRecord
100
AcDbLinetypeTableRecord
  2
DASH_CENTER
 70
     0
  3
Dash_Center
 72
    65
 73
     4
 40
14.0
 49
11.0
 74
     0
 49
-1.0
 74
     0
 49
1.0
 74
     0
 49
-1.0
 74
     0
  0
LTYPE
  5
33
330
5
100
AcDbSymbolTableRecord
100
AcDbLinetypeTableRecord
  2
PHANTOM
 70
     0
  3
Phantom
 72
    65
 73
     6
 40
13.0
 49
10.0
 74
     0
 49
-1.0
 74
     0
 49
0.0
 74
     0
 49
-1.0
 74
     0
 49
0.0
 74
     0
 49
-1.0
 74
     0
  0
LTYPE
  5
34
330
5
100
AcDbSymbolTableRecord
100
AcDbLinetypeTableRecord
  2
CENTER_DASH_DASH
 70
     0
  3
Center_Dash_Dash
 72
    65
 73
     6
 40
14.0
 49
9.0
 74
     0
 49
-1.0
 74
     0
 49
1.0
 74
     0
 49
-1.0
 74
     0
 49
1.0
 74
     0
 49
-1.0
 74
     0
  0
ENDTAB
  0
TABLE
  2
LAYER
  5
2
330
0
100
AcDbSymbolTable
 70
     2
  0
LAYER
  5
10
330
2
100
AcDbSymbolTableRecord
100
AcDbLayerTableRecord
  2
0
 70
     0
 62
     7
  6
Continuous
370
    -3
390
F
  0
LAYER
  5
35
330
2
100
AcDbSymbolTableRecord
100
AcDbLayerTableRecord
  2
1
 70
     0
 62
     7
  6
Continuous
370
    -3
390
F
  0
ENDTAB
  0
TABLE
  2
STYLE
  5
3
330
0
100
AcDbSymbolTable
 70
     3
  0
STYLE
  5
11
330
3
100
AcDbSymbolTableRecord
100
AcDbTextStyleTableRecord
  2
Standard
 70
     0
 40
0.0
 41
1.0
 50
0.0
 71
     0
 42
0.2
  3
txt
  4

  0
STYLE
  5
9D
330
3
100
AcDbSymbolTableRecord
100
AcDbTextStyleTableRecord
  2
CONVERTER_1
 70
     0
 40
0.0
 41
0.89
 50
0.0
 71
     0
 42
0.2
  3
msmincho.ttc
  4

1001
ACAD
1000
MS Mincho
1071
    32785
  0
STYLE
  5
271
330
3
100
AcDbSymbolTableRecord
100
AcDbTextStyleTableRecord
  2
CONVERTER_2
 70
     0
 40
0.0
 41
0.9
 50
0.0
 71
     0
 42
0.2
  3
txt.shx
  4

  0
ENDTAB
  0
TABLE
  2
VIEW
  5
6
330
0
100
AcDbSymbolTable
 70
     0
  0
ENDTAB
  0
TABLE
  2
UCS
  5
7
330
0
100
AcDbSymbolTable
 70
     0
  0
ENDTAB
  0
TABLE
  2
APPID
  5
9
330
0
100
AcDbSymbolTable
 70
     1
  0
APPID
  5
12
330
9
100
AcDbSymbolTableRecord
100
AcDbRegAppTableRecord
  2
ACAD
 70
     0
  0
ENDTAB
  0
TABLE
  2
DIMSTYLE
  5
A
330
0
100
AcDbSymbolTable
 70
     6
100
AcDbDimStyleTable
  0
DIMSTYLE
105
27
330
A
100
AcDbSymbolTableRecord
100
AcDbDimStyleTableRecord
  2
Standard
 70
     0
340
11
  0
DIMSTYLE
105
282
102
{ACAD_REACTORS
330
283
102
}
330
A
100
AcDbSymbolTableRecord
100
AcDbDimStyleTableRecord
  2
ME10_DIM_0
 70
     0
 41
5.25
 42
0.0
 44
1.5
 73
     0
 74
     0
 77
     1
 78
     8
140
5.25
147
0.625
172
     1
173
     1
176
     2
177
     2
178
     7
271
     2
340
271
  0
DIMSTYLE
105
28D
102
{ACAD_REACTORS
330
28E
102
}
330
A
100
AcDbSymbolTableRecord
100
AcDbDimStyleTableRecord
  2
ME10_DIM_1
 70
     0
 41
5.25
 42
0.0
 44
1.5
 73
     0
 74
     0
 77
     1
 78
     8
140
5.25
147
0.625
172
     1
173
     1
176
     2
177
     2
178
     7
271
     2
340
9D
  0
DIMSTYLE
105
298
102
{ACAD_REACTORS
330
299
102
}
330
A
100
AcDbSymbolTableRecord
100
AcDbDimStyleTableRecord
  2
ME10_DIM_2
 70
     0
 41
5.25
 42
0.0
 44
1.5
 73
     0
 74
     0
 77
     1
 78
     8
140
5.25
147
0.625
172
     1
173
     1
176
     2
177
     2
178
     7
271
     2
340
271
  0
DIMSTYLE
105
2A3
102
{ACAD_REACTORS
330
2A4
102
}
330
A
100
AcDbSymbolTableRecord
100
AcDbDimStyleTableRecord
  2
ME10_DIM_3
 70
     0
 41
5.25
 42
0.0
 44
1.5
 73
     0
 74
     0
 77
     1
 78
     8
140
5.25
147
0.625
172
     1
173
     1
176
     2
177
     2
178
     7
271
     2
340
271
  0
DIMSTYLE
105
2AE
102
{ACAD_REACTORS
330
2AF
102
}
330
A
100
AcDbSymbolTableRecord
100
AcDbDimStyleTableRecord
  2
ME10_DIM_4
 70
     0
 41
5.25
 42
0.0
 44
1.5
 73
     0
 74
     0
 77
     1
 78
     8
140
5.25
147
0.625
172
     1
173
     1
176
     2
177
     2
178
     7
271
     2
340
271
  0
ENDTAB
  0
TABLE
  2
BLOCK_RECORD
  5
1
330
0
100
AcDbSymbolTable
 70
    13
  0
BLOCK_RECORD
  5
1F
330
1
100
AcDbSymbolTableRecord
100
AcDbBlockTableRecord
  2
*Model_Space
340
22
  0
BLOCK_RECORD
  5
1B
330
1
100
AcDbSymbolTableRecord
100
AcDbBlockTableRecord
  2
*Paper_Space
340
1E
  0
BLOCK_RECORD
  5
23
330
1
100
AcDbSymbolTableRecord
100
AcDbBlockTableRecord
  2
*Paper_Space0
340
26
  0
BLOCK_RECORD
  5
36
330
1
100
AcDbSymbolTableRecord
100
AcDbBlockTableRecord
  2
_J__A4
340
0
102
{BLKREFS
331
4B
102
}
  0
BLOCK_RECORD
  5
39
330
1
100
AcDbSymbolTableRecord
100
AcDbBlockTableRecord
  2
21-1A
340
0
102
{BLKREFS
331
4C
102
}
  0
BLOCK_RECORD
  5
3C
330
1
100
AcDbSymbolTableRecord
100
AcDbBlockTableRecord
  2
36-1-20
340
0
102
{BLKREFS
331
4D
102
}
  0
BLOCK_RECORD
  5
3F
330
1
100
AcDbSymbolTableRecord
100
AcDbBlockTableRecord
  2
01-22-21
340
0
102
{BLKREFS
331
4E
102
}
  0
BLOCK_RECORD
  5
42
330
1
100
AcDbSymbolTableRecord
100
AcDbBlockTableRecord
  2
37-1-20
340
0
102
{BLKREFS
331
4F
102
}
  0
BLOCK_RECORD
  5
45
330
1
100
AcDbSymbolTableRecord
100
AcDbBlockTableRecord
  2
42-1
340
0
102
{BLKREFS
331
50
102
}
  0
BLOCK_RECORD
  5
48
330
1
100
AcDbSymbolTableRecord
100
AcDbBlockTableRecord
  2
V231AG-1-20
340
0
102
{BLKREFS
331
51
102
}
  0
BLOCK_RECORD
  5
279
330
1
100
AcDbSymbolTableRecord
100
AcDbBlockTableRecord
  2
*D08
340
0
  0
BLOCK_RECORD
  5
284
330
1
100
AcDbSymbolTableRecord
100
AcDbBlockTableRecord
  2
*D19
340
0
  0
BLOCK_RECORD
  5
28F
330
1
100
AcDbSymbolTableRecord
100
AcDbBlockTableRecord
  2
*D210
340
0
  0
BLOCK_RECORD
  5
29A
330
1
100
AcDbSymbolTableRecord
100
AcDbBlockTableRecord
  2
*D311
340
0
  0
BLOCK_RECORD
  5
2A5
330
1
100
AcDbSymbolTableRecord
100
AcDbBlockTableRecord
  2
*D412
340
0
  0
ENDTAB
  0
ENDSEC
  0
SECTION
  2
BLOCKS
  0
BLOCK
  5
20
330
1F
100
AcDbEntity
  8
0
100
AcDbBlockBegin
  2
*Model_Space
 70
     0
 71
     0
 10
0.0
 20
0.0
 30
0.0
  3
*Model_Space
  1

  0
ENDBLK
  5
21
330
1F
100
AcDbEntity
  8
0
100
AcDbBlockEnd
  0
BLOCK
  5
1C
330
1B
100
AcDbEntity
 67
     1
  8
0
100
AcDbBlockBegin
  2
*Paper_Space
 70
     0
 71
     0
 10
0.0
 20
0.0
 30
0.0
  3
*Paper_Space
  1

  0
ENDBLK
  5
1D
330
1B
100
AcDbEntity
 67
     1
  8
0
100
AcDbBlockEnd
  0
BLOCK
  5
24
330
23
100
AcDbEntity
  8
0
100
AcDbBlockBegin
  2
*Paper_Space0
 70
     0
 71
     0
 10
0.0
 20
0.0
 30
0.0
  3
*Paper_Space0
  1

  0
ENDBLK
  5
25
330
23
100
AcDbEntity
  8
0
100
AcDbBlockEnd
  0
BLOCK
  5
37
330
36
100
AcDbEntity
  8
0
100
AcDbBlockBegin
  2
_J__A4
 70
     0
 71
     0
 10
0.0
 20
0.0
 30
0.0
  3
_J__A4
  1

  0
POINT
  5
52
330
36
100
AcDbEntity
  8
1
 62
     4
100
AcDbPoint
 10
34.0
 20
34.00000000000001
 30
0.0
  0
POINT
  5
53
330
36
100
AcDbEntity
  8
1
 62
     4
100
AcDbPoint
 10
57.0
 20
12.25
 30
0.0
  0
POINT
  5
54
330
36
100
AcDbEntity
  8
1
 62
     4
100
AcDbPoint
 10
57.0
 20
20.75000000000001
 30
0.0
  0
POINT
  5
55
330
36
100
AcDbEntity
  8
1
 62
     4
100
AcDbPoint
 10
57.0
 20
24.75000000000001
 30
0.0
  0
POINT
  5
56
330
36
100
AcDbEntity
  8
1
 62
     4
100
AcDbPoint
 10
57.0
 20
16.25
 30
0.0
  0
POINT
  5
57
330
36
100
AcDbEntity
  8
1
 62
     4
100
AcDbPoint
 10
157.5
 20
19.00000000000001
 30
0.0
  0
POINT
  5
58
330
36
100
AcDbEntity
  8
1
 62
     4
100
AcDbPoint
 10
47.5
 20
282.0000000000003
 30
0.0
  0
POINT
  5
59
330
36
100
AcDbEntity
  8
1
 62
     4
100
AcDbPoint
 10
57.0
 20
22.75000000000001
 30
0.0
  0
POINT
  5
5A
330
36
100
AcDbEntity
  8
1
 62
     4
100
AcDbPoint
 10
57.0
 20
14.25
 30
0.0
  0
POINT
  5
5B
330
36
100
AcDbEntity
  8
1
 62
     4
100
AcDbPoint
 10
157.5
 20
12.5
 30
0.0
  0
POINT
  5
5C
330
36
100
AcDbEntity
  8
1
 62
     4
100
AcDbPoint
 10
163.25
 20
12.5
 30
0.0
  0
POINT
  5
5D
330
36
100
AcDbEntity
  8
1
 62
     4
100
AcDbPoint
 10
151.75
 20
12.5
 30
0.0
  0
POINT
  5
5E
330
36
100
AcDbEntity
  8
1
 62
     4
100
AcDbPoint
 10
134.75
 20
12.5
 30
0.0
  0
POINT
  5
5F
330
36
100
AcDbEntity
  8
1
 62
     4
100
AcDbPoint
 10
146.25
 20
12.5
 30
0.0
  0
POINT
  5
60
330
36
100
AcDbEntity
  8
1
 62
     4
100
AcDbPoint
 10
140.5
 20
12.5
 30
0.0
  0
POINT
  5
61
330
36
100
AcDbEntity
  8
1
 62
     4
100
AcDbPoint
 10
140.5
 20
19.00000000000001
 30
0.0
  0
POINT
  5
62
330
36
100
AcDbEntity
  8
1
 62
     4
100
AcDbPoint
 10
117.75
 20
12.5
 30
0.0
  0
POINT
  5
63
330
36
100
AcDbEntity
  8
1
 62
     4
100
AcDbPoint
 10
129.25
 20
12.5
 30
0.0
  0
POINT
  5
64
330
36
100
AcDbEntity
  8
1
 62
     4
100
AcDbPoint
 10
123.5
 20
12.5
 30
0.0
  0
POINT
  5
65
330
36
100
AcDbEntity
  8
1
 62
     4
100
AcDbPoint
 10
123.5
 20
19.00000000000001
 30
0.0
  0
POINT
  5
66
330
36
100
AcDbEntity
  8
1
 62
     4
100
AcDbPoint
 10
100.75
 20
12.5
 30
0.0
  0
POINT
  5
67
330
36
100
AcDbEntity
  8
1
 62
     4
100
AcDbPoint
 10
112.25
 20
12.5
 30
0.0
  0
POINT
  5
68
330
36
100
AcDbEntity
  8
1
 62
     4
100
AcDbPoint
 10
106.5
 20
12.5
 30
0.0
  0
POINT
  5
69
330
36
100
AcDbEntity
  8
1
 62
     4
100
AcDbPoint
 10
106.5
 20
19.00000000000001
 30
0.0
  0
POINT
  5
6A
330
36
100
AcDbEntity
  8
1
 62
     4
100
AcDbPoint
 10
85.25
 20
17.0
 30
0.0
  0
POINT
  5
6B
330
36
100
AcDbEntity
  8
1
 62
     4
100
AcDbPoint
 10
93.75
 20
17.0
 30
0.0
  0
LINE
  5
6C
330
36
100
AcDbEntity
  8
1
  6
Continuous
 62
     2
100
AcDbLine
 10
81.0
 20
27.00000000000001
 30
0.0
 11
81.0
 21
10.0
 31
0.0
  0
LINE
  5
6D
330
36
100
AcDbEntity
  8
1
  6
DOT_CENTER
 62
     2
100
AcDbLine
 10
187.0
 20
26.50000000000001
 30
0.0
 11
187.0
 21
20.50000000000001
 31
0.0
  0
LINE
  5
6E
330
36
100
AcDbEntity
  8
1
  6
DOT_CENTER
 62
     2
100
AcDbLine
 10
184.0
 20
23.50000000000001
 30
0.0
 11
197.0
 21
23.50000000000001
 31
0.0
  0
LINE
  5
6F
330
36
100
AcDbEntity
  8
1
  6
Continuous
 62
     7
100
AcDbLine
 10
196.0
 20
21.50000000000001
 30
0.0
 11
191.0
 21
22.30000000000001
 31
0.0
  0
LINE
  5
70
330
36
100
AcDbEntity
  8
1
  6
Continuous
 62
     7
100
AcDbLine
 10
196.0
 20
25.50000000000001
 30
0.0
 11
196.0
 21
21.50000000000001
 31
0.0
  0
LINE
  5
71
330
36
100
AcDbEntity
  8
1
  6
Continuous
 62
     7
100
AcDbLine
 10
191.0
 20
24.70000000000001
 30
0.0
 11
196.0
 21
25.50000000000001
 31
0.0
  0
LINE
  5
72
330
36
100
AcDbEntity
  8
1
  6
Continuous
 62
     7
100
AcDbLine
 10
191.0
 20
24.70000000000001
 30
0.0
 11
191.0
 21
22.30000000000001
 31
0.0
  0
LINE
  5
73
330
36
100
AcDbEntity
  8
1
  6
Continuous
 62
     2
100
AcDbLine
 10
33.0
 20
27.0
 30
0.0
 11
33.0
 21
10.0
 31
0.0
  0
LINE
  5
74
330
36
100
AcDbEntity
  8
1
  6
Continuous
 62
     2
100
AcDbLine
 10
25.0
 20
18.50000000000001
 30
0.0
 11
81.0
 21
18.50000000000001
 31
0.0
  0
LINE
  5
75
330
36
100
AcDbEntity
  8
1
  6
Continuous
 62
     7
100
AcDbLine
 10
200.0
 20
287.0000000000003
 30
0.0
 11
105.0
 21
287.0000000000003
 31
0.0
  0
LINE
  5
76
330
36
100
AcDbEntity
  8
1
  6
Continuous
 62
     7
100
AcDbLine
 10
200.0
 20
10.0
 30
0.0
 11
200.0
 21
148.5
 31
0.0
  0
LINE
  5
77
330
36
100
AcDbEntity
  8
1
  6
Continuous
 62
     7
100
AcDbLine
 10
25.0
 20
10.0
 30
0.0
 11
105.0
 21
10.0
 31
0.0
  0
LINE
  5
78
330
36
100
AcDbEntity
  8
1
  6
PHANTOM
 62
     4
100
AcDbLine
 10
0.0
 20
297.0
 30
0.0
 11
0.0
 21
0.0
 31
0.0
  0
LINE
  5
79
330
36
100
AcDbEntity
  8
1
  6
PHANTOM
 62
     4
100
AcDbLine
 10
210.0
 20
297.0
 30
0.0
 11
0.0
 21
297.0
 31
0.0
  0
LINE
  5
7A
330
36
100
AcDbEntity
  8
1
  6
PHANTOM
 62
     4
100
AcDbLine
 10
210.0
 20
0.0
 30
0.0
 11
210.0
 21
297.0
 31
0.0
  0
LINE
  5
7B
330
36
100
AcDbEntity
  8
1
  6
PHANTOM
 62
     4
100
AcDbLine
 10
0.0
 20
0.0
 30
0.0
 11
210.0
 21
0.0
 31
0.0
  0
LINE
  5
7C
330
36
100
AcDbEntity
  8
1
  6
Continuous
 62
     7
100
AcDbLine
 10
25.0
 20
41.0
 30
0.0
 11
200.0
 21
41.0
 31
0.0
  0
LINE
  5
7D
330
36
100
AcDbEntity
  8
1
  6
Continuous
 62
     7
100
AcDbLine
 10
200.0
 20
27.00000000000001
 30
0.0
 11
25.0
 21
27.00000000000001
 31
0.0
  0
LINE
  5
7E
330
36
100
AcDbEntity
  8
1
  6
Continuous
 62
     2
100
AcDbLine
 10
33.0
 20
41.00000000000001
 30
0.0
 11
33.0
 21
27.0
 31
0.0
  0
LINE
  5
7F
330
36
100
AcDbEntity
  8
1
  6
Continuous
 62
     2
100
AcDbLine
 10
55.0
 20
287.0000000000003
 30
0.0
 11
55.0
 21
277.0000000000003
 31
0.0
  0
LINE
  5
80
330
36
100
AcDbEntity
  8
1
  6
Continuous
 62
     2
100
AcDbLine
 10
40.0
 20
287.0000000000003
 30
0.0
 11
40.0
 21
277.0000000000003
 31
0.0
  0
LINE
  5
81
330
36
100
AcDbEntity
  8
1
  6
Continuous
 62
     7
100
AcDbLine
 10
25.0
 20
10.0
 30
0.0
 11
25.0
 21
148.5
 31
0.0
  0
LINE
  5
82
330
36
100
AcDbEntity
  8
1
  6
Continuous
 62
     2
100
AcDbLine
 10
55.0
 20
277.0000000000003
 30
0.0
 11
25.0
 21
277.0000000000003
 31
0.0
  0
LINE
  5
83
330
36
100
AcDbEntity
  8
1
  6
Continuous
 62
     2
100
AcDbLine
 10
166.0
 20
27.00000000000001
 30
0.0
 11
166.0
 21
10.0
 31
0.0
  0
LINE
  5
84
330
36
100
AcDbEntity
  8
1
  6
Continuous
 62
     2
100
AcDbLine
 10
132.0
 20
27.00000000000001
 30
0.0
 11
132.0
 21
9.99999999999999
 31
0.0
  0
LINE
  5
85
330
36
100
AcDbEntity
  8
1
  6
Continuous
 62
     2
100
AcDbLine
 10
149.0
 20
27.00000000000001
 30
0.0
 11
149.0
 21
10.0
 31
0.0
  0
LINE
  5
86
330
36
100
AcDbEntity
  8
1
  6
Continuous
 62
     2
100
AcDbLine
 10
115.0
 20
27.00000000000001
 30
0.0
 11
115.0
 21
9.99999999999999
 31
0.0
  0
LINE
  5
87
330
36
100
AcDbEntity
  8
1
  6
Continuous
 62
     2
100
AcDbLine
 10
98.0
 20
27.00000000000001
 30
0.0
 11
98.0
 21
9.99999999999999
 31
0.0
  0
LINE
  5
88
330
36
100
AcDbEntity
  8
1
  6
Continuous
 62
     2
100
AcDbLine
 10
166.0
 20
20.00000000000001
 30
0.0
 11
200.0
 21
20.00000000000001
 31
0.0
  0
LINE
  5
89
330
36
100
AcDbEntity
  8
1
  6
Continuous
 62
     2
100
AcDbLine
 10
105.0
 20
287.0000000000003
 30
0.0
 11
105.0
 21
292.0000000000003
 31
0.0
  0
LINE
  5
8A
330
36
100
AcDbEntity
  8
1
  6
Continuous
 62
     7
100
AcDbLine
 10
105.0
 20
287.0000000000003
 30
0.0
 11
25.0
 21
287.0000000000003
 31
0.0
  0
LINE
  5
8B
330
36
100
AcDbEntity
  8
1
  6
Continuous
 62
     2
100
AcDbLine
 10
25.0
 20
148.5
 30
0.0
 11
20.0
 21
148.5
 31
0.0
  0
LINE
  5
8C
330
36
100
AcDbEntity
  8
1
  6
Continuous
 62
     7
100
AcDbLine
 10
25.0
 20
148.5
 30
0.0
 11
25.0
 21
287.0000000000003
 31
0.0
  0
LINE
  5
8D
330
36
100
AcDbEntity
  8
1
  6
Continuous
 62
     2
100
AcDbLine
 10
200.0
 20
148.5
 30
0.0
 11
205.0
 21
148.5
 31
0.0
  0
LINE
  5
8E
330
36
100
AcDbEntity
  8
1
  6
Continuous
 62
     7
100
AcDbLine
 10
200.0
 20
148.5
 30
0.0
 11
200.0
 21
287.0000000000003
 31
0.0
  0
LINE
  5
8F
330
36
100
AcDbEntity
  8
1
  6
Continuous
 62
     2
100
AcDbLine
 10
105.0
 20
10.0
 30
0.0
 11
105.0
 21
5.0
 31
0.0
  0
LINE
  5
90
330
36
100
AcDbEntity
  8
1
  6
Continuous
 62
     7
100
AcDbLine
 10
105.0
 20
10.0
 30
0.0
 11
200.0
 21
10.0
 31
0.0
  0
CIRCLE
  5
91
330
36
100
AcDbEntity
  8
1
  6
DOT_CENTER
 62
     7
100
AcDbCircle
 10
89.5
 20
18.0
 30
0.0
 40
0.1000000000000227
  0
CIRCLE
  5
92
330
36
100
AcDbEntity
  8
1
  6
DOT_CENTER
 62
     7
100
AcDbCircle
 10
89.5
 20
16.0
 30
0.0
 40
0.1000000000000227
  0
CIRCLE
  5
93
330
36
100
AcDbEntity
  8
1
  6
Continuous
 62
     7
100
AcDbCircle
 10
187.0
 20
23.50000000000001
 30
0.0
 40
2.0
  0
CIRCLE
  5
94
330
36
100
AcDbEntity
  8
1
  6
Continuous
 62
     7
100
AcDbCircle
 10
187.0
 20
23.50000000000001
 30
0.0
 40
1.200000000000102
  0
CIRCLE
  5
95
330
36
100
AcDbEntity
  8
1
  6
Continuous
 62
     7
100
AcDbCircle
 10
154.5
 20
12.5
 30
0.0
 40
0.3000000000000114
  0
CIRCLE
  5
96
330
36
100
AcDbEntity
  8
1
  6
Continuous
 62
     7
100
AcDbCircle
 10
160.5
 20
12.5
 30
0.0
 40
0.3000000000000114
  0
CIRCLE
  5
97
330
36
100
AcDbEntity
  8
1
  6
Continuous
 62
     7
100
AcDbCircle
 10
143.5
 20
12.5
 30
0.0
 40
0.3000000000000114
  0
CIRCLE
  5
98
330
36
100
AcDbEntity
  8
1
  6
Continuous
 62
     7
100
AcDbCircle
 10
137.5
 20
12.5
 30
0.0
 40
0.3000000000000114
  0
CIRCLE
  5
99
330
36
100
AcDbEntity
  8
1
  6
Continuous
 62
     7
100
AcDbCircle
 10
126.5
 20
12.5
 30
0.0
 40
0.2999999999999972
  0
CIRCLE
  5
9A
330
36
100
AcDbEntity
  8
1
  6
Continuous
 62
     7
100
AcDbCircle
 10
120.5
 20
12.5
 30
0.0
 40
0.2999999999999972
  0
CIRCLE
  5
9B
330
36
100
AcDbEntity
  8
1
  6
Continuous
 62
     7
100
AcDbCircle
 10
109.5
 20
12.5
 30
0.0
 40
0.2999999999999972
  0
CIRCLE
  5
9C
330
36
100
AcDbEntity
  8
1
  6
Continuous
 62
     7
100
AcDbCircle
 10
103.5
 20
12.5
 30
0.0
 40
0.2999999999999972
  0
MTEXT
  5
9E
330
36
100
AcDbEntity
  8
1
 62
   250
100
AcDbMText
 10
25.0
 20
5.0
 30
0.0
 40
3.5
 41
0.0
 71
     4
 72
     1
  1
備考欄の文字列 原点位置=4
  7
CONVERTER_1
 73
     1
 44
0.7202881152461
  0
MTEXT
  5
9F
330
36
100
AcDbEntity
  8
1
 62
     2
100
AcDbMText
 10
89.5
 20
24.00000000000001
 30
0.0
 40
3.5
 41
0.0
 71
     5
 72
     1
  1
尺度
  7
CONVERTER_1
 73
     1
 44
0.7202881152461
  0
MTEXT
  5
A0
330
36
100
AcDbEntity
  8
1
 62
     2
100
AcDbMText
 10
135.5
 20
25.00000000000001
 30
0.0
 40
3.0
 41
0.0
 71
     5
 72
     1
  1
製図
  7
CONVERTER_1
 73
     1
 44
0.78031212484994
  0
MTEXT
  5
A1
330
36
100
AcDbEntity
  8
1
 62
     2
100
AcDbMText
 10
152.5
 20
25.00000000000001
 30
0.0
 40
3.0
 41
0.0
 71
     5
 72
     1
  1
設計
  7
CONVERTER_1
 73
     1
 44
0.78031212484994
  0
MTEXT
  5
A2
330
36
100
AcDbEntity
  8
1
 62
     2
100
AcDbMText
 10
118.5
 20
25.00000000000001
 30
0.0
 40
3.0
 41
0.0
 71
     5
 72
     1
  1
検図
  7
CONVERTER_1
 73
     1
 44
0.78031212484994
  0
MTEXT
  5
A3
330
36
100
AcDbEntity
  8
1
 62
     2
100
AcDbMText
 10
175.0
 20
23.50000000000001
 30
0.0
 40
3.5
 41
0.0
 71
     5
 72
     1
  1
第三角法
  7
CONVERTER_1
 73
     1
 44
0.7202881152461
  0
MTEXT
  5
A4
330
36
100
AcDbEntity
  8
1
 62
     2
100
AcDbMText
 10
101.5
 20
25.00000000000001
 30
0.0
 40
3.0
 41
0.0
 71
     5
 72
     1
  1
承認
  7
CONVERTER_1
 73
     1
 44
0.78031212484994
  0
MTEXT
  5
A5
330
36
100
AcDbEntity
  8
1
 62
     2
100
AcDbMText
 10
29.0
 20
14.25
 30
0.0
 40
3.5
 41
0.0
 71
     5
 72
     1
  1
品番
  7
CONVERTER_1
 73
     1
 44
0.96038415366146
  0
MTEXT
  5
A6
330
36
100
AcDbEntity
  8
1
 62
     2
100
AcDbMText
 10
29.0
 20
22.75
 30
0.0
 40
3.5
 41
0.0
 71
     5
 72
     1
  1
品名
  7
CONVERTER_1
 73
     1
 44
0.96038415366146
  0
MTEXT
  5
A7
330
36
100
AcDbEntity
  8
1
 62
     2
100
AcDbMText
 10
29.0
 20
34.00000000000001
 30
0.0
 40
3.5
 41
0.0
 71
     5
 72
     1
  1
備考
  7
CONVERTER_1
 73
     1
 44
0.60024009603842
  0
MTEXT
  5
A8
330
36
100
AcDbEntity
  8
1
 62
     2
100
AcDbMText
 10
32.5
 20
282.0000000000003
 30
0.0
 40
5.0
 41
0.0
 71
     5
 72
     1
  1
図番
  7
CONVERTER_1
 73
     1
 44
0.60024009603842
  0
MTEXT
  5
A9
330
36
100
AcDbEntity
  8
1
 62
     7
100
AcDbMText
 10
171.5
 20
15.0
 30
0.0
 40
2.5
 41
0.0
 71
     5
 72
     1
  1
株式会社
  7
CONVERTER_1
 73
     1
 44
1.32052821128451
  0
MTEXT
  5
AA
330
36
100
AcDbEntity
  8
1
 62
     7
100
AcDbMText
 10
188.5
 20
15.0
 30
0.0
 40
3.0
 41
0.0
 71
     5
 72
     1
  1
三栄水栓製作所
  7
CONVERTER_1
 73
     1
 44
1.32052821128451
  0
ENDBLK
  5
38
330
36
100
AcDbEntity
  8
0
100
AcDbBlockEnd
  0
BLOCK
  5
3A
330
39
100
AcDbEntity
  8
0
100
AcDbBlockBegin
  2
21-1A
 70
     0
 71
     0
 10
337.3424209201351
 20
147.3269986244868
 30
0.0
  3
21-1A
  1

  0
LINE
  5
AB
330
39
100
AcDbEntity
  8
1
  6
Continuous
 62
     7
100
AcDbLine
 10
64.80653595587376
 20
324.1200228351318
 30
0.0
 11
74.78237144083616
 21
314.1441873501695
 31
0.0
  0
LINE
  5
AC
330
39
100
AcDbEntity
  8
1
  6
Continuous
 62
     7
100
AcDbLine
 10
84.90425677986954
 20
289.3097492516359
 30
0.0
 11
81.25284756839915
 21
302.9369939480688
 31
0.0
  0
LINE
  5
AD
330
39
100
AcDbEntity
  8
1
  6
Continuous
 62
     7
100
AcDbLine
 10
96.49536669533845
 20
289.3097492516359
 30
0.0
 11
100.1467759068088
 21
302.9369939480688
 31
0.0
  0
LINE
  5
AE
330
39
100
AcDbEntity
  8
1
  6
Continuous
 62
     7
100
AcDbLine
 10
116.5930875193343
 20
324.1200228351318
 30
0.0
 11
106.617252034372
 21
314.1441873501695
 31
0.0
  0
LINE
  5
AF
330
39
100
AcDbEntity
  8
1
  6
Continuous
 62
     7
100
AcDbLine
 10
111.5580374642204
 20
334.3619951544825
 30
0.0
 11
97.17028786516707
 21
330.506809268515
 31
0.0
  0
LINE
  5
B0
330
39
100
AcDbEntity
  8
1
  6
Continuous
 62
     7
100
AcDbLine
 10
70.60209091360815
 20
334.1582184799855
 30
0.0
 11
84.22933561004095
 21
330.506809268515
 31
0.0
  0
LINE
  5
B1
330
39
100
AcDbEntity
  8
1
  6
Continuous
 62
     7
100
AcDbLine
 10
191.4751842036105
 20
201.3835046890734
 30
0.0
 11
217.15
 21
201.3835046890734
 31
0.0
  0
LINE
  5
B2
330
39
100
AcDbEntity
  8
1
  6
Continuous
 62
     7
100
AcDbLine
 10
191.4319582682321
 20
205.1685844444241
 30
0.0
 11
190.9800501692397
 21
201.9530912395535
 31
0.0
  0
LINE
  5
B3
330
39
100
AcDbEntity
  8
1
  6
Continuous
 62
     7
100
AcDbLine
 10
239.7026858543512
 20
206.3425812948171
 30
0.0
 11
240.3199033483588
 21
201.9531266217861
 31
0.0
  0
LINE
  5
B4
330
39
100
AcDbEntity
  8
1
  6
Continuous
 62
     7
100
AcDbLine
 10
216.15
 20
201.3835046890734
 30
0.0
 11
239.8247742879257
 21
201.3835046890734
 31
0.0
  0
LINE
  5
B5
330
39
100
AcDbEntity
  8
0
  6
Continuous
 62
     7
100
AcDbLine
 10
84.90425677986974
 20
201.3835046890734
 30
0.0
 11
96.49536669533856
 21
201.3835046890734
 31
0.0
  0
LINE
  5
B6
330
39
100
AcDbEntity
  8
0
  6
Continuous
 62
     7
100
AcDbLine
 10
96.49536669533856
 20
201.3835046890734
 30
0.0
 11
118.350446832215
 21
201.3835046890734
 31
0.0
  0
LINE
  5
B7
330
39
100
AcDbEntity
  8
0
  6
Continuous
 62
     7
100
AcDbLine
 10
63.04917664299313
 20
201.3835046890734
 30
0.0
 11
84.90425677986974
 21
201.3835046890734
 31
0.0
  0
ARC
  5
B8
330
39
100
AcDbEntity
  8
1
  6
Continuous
 62
     7
100
AcDbCircle
 10
69.04917664299305
 20
328.362663522251
 30
0.0
 40
6.000000000000092
100
AcDbArc
 50
75.00000000000044
 51
-135.0000000000006
  0
ARC
  5
B9
330
39
100
AcDbEntity
  8
1
  6
Continuous
 62
     7
100
AcDbCircle
 10
90.69981173760405
 20
290.862663522251
 30
0.0
 40
6.000000000000099
100
AcDbArc
 50
-165.0000000000002
 51
-90.0
  0
ARC
  5
BA
330
39
100
AcDbEntity
  8
1
  6
Continuous
 62
     7
100
AcDbCircle
 10
90.69981173760405
 20
290.862663522251
 30
0.0
 40
6.0
100
AcDbArc
 50
-90.0
 51
-15.00000000000012
  0
ARC
  5
BB
330
39
100
AcDbEntity
  8
1
  6
Continuous
 62
     7
100
AcDbCircle
 10
112.350446832215
 20
328.362663522251
 30
0.0
 40
5.999999999999958
100
AcDbArc
 50
-44.99999999999933
 51
97.52424107894119
  0
ARC
  5
BC
330
39
100
AcDbEntity
  8
1
  6
Continuous
 62
     7
100
AcDbCircle
 10
221.9
 20
62.38350468907341
 30
0.0
 40
150.0533238552215
100
AcDbArc
 50
91.52752544221293
 51
99.80290179376779
  0
ARC
  5
BD
330
39
100
AcDbEntity
  8
1
  6
Continuous
 62
     7
100
AcDbCircle
 10
222.2641956652468
 20
137.4716836803742
 30
0.0
 40
74.99999999999996
100
AcDbArc
 50
80.40850751733497
 51
87.22136103403746
  0
SPLINE
  5
BE
330
39
100
AcDbEntity
  8
0
  6
Continuous
 62
     7
100
AcDbSpline
210
0.0
220
0.0
230
1.0
 70
     8
 71
     3
 72
    27
 73
    23
 74
    21
 42
0.0000000001
 43
0.0000000001
 44
0.00000001
 40
0.0
 40
0.0
 40
0.0
 40
0.0
 40
4.618703466769469
 40
9.231168896018918
 40
14.16779431771701
 40
19.11374070589866
 40
19.52821633538005
 40
19.94144217917133
 40
20.35867862982678
 40
20.7769196042846
 40
21.19949484665453
 40
21.6216487355874
 40
22.04927938356248
 40
22.47707343152692
 40
23.01006105023063
 40
23.54331038460056
 40
23.88091939119901
 40
24.21795787389947
 40
24.65811335193127
 40
25.09931766019797
 40
27.47512396338991
 40
29.84763483709669
 40
29.84763483709669
 40
29.84763483709669
 40
29.84763483709669
 10
94.69981173760414
 20
212.3835046890734
 30
0.0
 10
96.23854270389731
 20
212.3329575228627
 30
0.0
 10
99.31392642090434
 20
212.2319314596259
 30
0.0
 10
104.0282158210716
 20
211.9127628138463
 30
0.0
 10
108.8172425879593
 20
211.2390011846016
 30
0.0
 10
112.17824074422
 20
210.5299949401837
 30
0.0
 10
114.0470723351718
 20
210.0702348312204
 30
0.0
 10
114.4439395652478
 20
209.9468372515551
 30
0.0
 10
114.8252097205243
 20
209.7775469209324
 30
0.0
 10
115.1901812417347
 20
209.5699561808099
 30
0.0
 10
115.5376734745569
 20
209.3314022838107
 30
0.0
 10
115.8655937899757
 20
209.0615585194016
 30
0.0
 10
116.1693358574997
 20
208.762253451106
 30
0.0
 10
116.4695794514
 20
208.4093113455578
 30
0.0
 10
116.7544501593994
 20
207.9996717245623
 30
0.0
 10
116.9815675105101
 20
207.5896295344668
 30
0.0
 10
117.1483786240503
 20
207.2229166433356
 30
0.0
 10
117.2781697236578
 20
206.8742853158492
 30
0.0
 10
117.3840841326432
 20
206.4816682228537
 30
0.0
 10
117.6086512129531
 20
205.4194113988921
 30
0.0
 10
117.936317544445
 20
203.7207037644612
 30
0.0
 10
118.2124676208969
 20
202.1622105054431
 30
0.0
 10
118.350446832215
 20
201.3835046890734
 30
0.0
 11
94.69981173760414
 21
212.3835046890734
 31
0.0
 11
99.31506811225478
 21
212.205094178747
 31
0.0
 11
103.9151033451664
 21
211.8666962000399
 31
0.0
 11
108.8043318336689
 21
211.1842628030176
 31
0.0
 11
113.6449135342962
 21
210.1688050371212
 31
0.0
 11
114.0464602375414
 21
210.0660904201142
 31
0.0
 11
114.4398951346386
 21
209.9397394022191
 31
0.0
 11
114.8217307020636
 21
209.7715494643369
 31
0.0
 11
115.1858095675402
 21
209.5657046382453
 31
0.0
 11
115.5341084551177
 21
209.3264187833013
 31
0.0
 11
115.8599926004077
 21
209.0580656022325
 31
0.0
 11
116.164701145436
 21
208.7580311480871
 31
0.0
 11
116.4419595229413
 21
208.4322466494121
 31
0.0
 11
116.7467030584989
 21
207.9949742180523
 31
0.0
 11
117.0054860077976
 21
207.5287272472758
 31
0.0
 11
117.1447954281579
 21
207.2212004570034
 31
0.0
 11
117.2618531770784
 21
206.905142832133
 31
0.0
 11
117.3800398616218
 21
206.4811513788724
 31
0.0
 11
117.4748678548879
 21
206.0502582444107
 31
0.0
 11
117.9306027502705
 21
203.7185718814071
 31
0.0
 11
118.350446832215
 21
201.3835046890734
 31
0.0
  0
SPLINE
  5
BF
330
39
100
AcDbEntity
  8
0
  6
Continuous
 62
     7
100
AcDbSpline
210
0.0
220
0.0
230
1.0
 70
     8
 71
     3
 72
    27
 73
    23
 74
    21
 42
0.0000000001
 43
0.0000000001
 44
0.00000001
 40
0.0
 40
0.0
 40
0.0
 40
0.0
 40
4.618703466769582
 40
9.231168896019078
 40
14.16779431771692
 40
19.11374070589832
 40
19.52821633537984
 40
19.94144217917124
 40
20.35867862982668
 40
20.77691960428452
 40
21.19949484665442
 40
21.62164873558733
 40
22.0492793835623
 40
22.47707343152663
 40
23.01006105023045
 40
23.54331038460049
 40
23.88091939119895
 40
24.2179578738994
 40
24.65811335193115
 40
25.09931766019782
 40
27.47512396338986
 40
29.84763483709659
 40
29.84763483709659
 40
29.84763483709659
 40
29.84763483709659
 10
86.69981173760405
 20
212.3835046890734
 30
0.0
 10
85.16108077131084
 20
212.3329575228627
 30
0.0
 10
82.08569705430375
 20
212.2319314596259
 30
0.0
 10
77.37140765413653
 20
211.9127628138465
 30
0.0
 10
72.58238088724912
 20
211.2390011846012
 30
0.0
 10
69.22138273098841
 20
210.5299949401835
 30
0.0
 10
67.35255114003658
 20
210.0702348312204
 30
0.0
 10
66.95568390996057
 20
209.9468372515551
 30
0.0
 10
66.57441375468397
 20
209.7775469209324
 30
0.0
 10
66.2094422334735
 20
209.56995618081
 30
0.0
 10
65.86195000065138
 20
209.3314022838107
 30
0.0
 10
65.53402968523254
 20
209.0615585194016
 30
0.0
 10
65.23028761770875
 20
208.7622534511058
 30
0.0
 10
64.93004402380853
 20
208.4093113455577
 30
0.0
 10
64.64517331580898
 20
207.9996717245622
 30
0.0
 10
64.41805596469803
 20
207.5896295344669
 30
0.0
 10
64.25124485115782
 20
207.2229166433356
 30
0.0
 10
64.12145375155035
 20
206.8742853158493
 30
0.0
 10
64.01553934256519
 20
206.4816682228536
 30
0.0
 10
63.79097226225554
 20
205.4194113988919
 30
0.0
 10
63.46330593076388
 20
203.7207037644612
 30
0.0
 10
63.18715585431153
 20
202.1622105054431
 30
0.0
 10
63.04917664299313
 20
201.3835046890734
 30
0.0
 11
86.69981173760405
 21
212.3835046890734
 31
0.0
 11
82.0845553629533
 21
212.205094178747
 31
0.0
 11
77.48452013004163
 21
211.8666962000399
 31
0.0
 11
72.59529164153942
 21
211.1842628030173
 31
0.0
 11
67.75470994091234
 21
210.1688050371212
 31
0.0
 11
67.35316323766699
 21
210.0660904201142
 31
0.0
 11
66.95972834056965
 21
209.9397394022191
 31
0.0
 11
66.5778927731447
 21
209.7715494643369
 31
0.0
 11
66.21381390766806
 21
209.5657046382453
 31
0.0
 11
65.86551502009058
 21
209.3264187833013
 31
0.0
 11
65.53963087480054
 21
209.0580656022325
 31
0.0
 11
65.23492232977245
 21
208.758031148087
 31
0.0
 11
64.95766395226724
 21
208.4322466494121
 31
0.0
 11
64.65292041670948
 21
207.9949742180523
 31
0.0
 11
64.39413746741053
 21
207.5287272472758
 31
0.0
 11
64.25482804705023
 21
207.2212004570034
 31
0.0
 11
64.13777029812974
 21
206.905142832133
 31
0.0
 11
64.01958361358653
 21
206.4811513788724
 31
0.0
 11
63.92475562032055
 21
206.0502582444107
 31
0.0
 11
63.46902072493821
 21
203.7185718814069
 31
0.0
 11
63.04917664299313
 21
201.3835046890734
 31
0.0
  0
ARC
  5
C0
330
39
100
AcDbEntity
  8
1
  6
Continuous
 62
     7
100
AcDbCircle
 10
57.10470191117244
 20
296.4665178205057
 30
0.0
 40
25.00000000000001
100
AcDbArc
 50
15.00000000000012
 51
45.00000000000009
  0
ARC
  5
C1
330
39
100
AcDbEntity
  8
1
  6
Continuous
 62
     7
100
AcDbCircle
 10
124.2949215640356
 20
296.4665178205057
 30
0.0
 40
25.0
100
AcDbArc
 50
134.9999999999997
 51
164.9999999999999
  0
ARC
  5
C2
330
39
100
AcDbEntity
  8
1
  6
Continuous
 62
     7
100
AcDbCircle
 10
90.69981173760405
 20
354.6549549257416
 30
0.0
 40
24.99999999999994
100
AcDbArc
 50
-105.0000000000002
 51
-74.99999999999996
  0
ARC
  5
C3
330
39
100
AcDbEntity
  8
1
  6
Continuous
 62
     7
100
AcDbCircle
 10
197.3735666806815
 20
204.3335458386637
 30
0.0
 40
6.000000000000019
100
AcDbArc
 50
99.8029017937678
 51
171.9999999999997
  0
ARC
  5
C4
330
39
100
AcDbEntity
  8
1
  6
Continuous
 62
     7
100
AcDbCircle
 10
191.4751842036105
 20
201.8835046890734
 30
0.0
 40
0.5000000000000303
100
AcDbArc
 50
171.9999999999932
 51
-90.0
  0
ARC
  5
C5
330
39
100
AcDbEntity
  8
1
  6
Continuous
 62
     7
100
AcDbCircle
 10
239.8247742879257
 20
201.8835046890734
 30
0.0
 40
0.5
100
AcDbArc
 50
-90.0
 51
8.00409437171274
  0
ARC
  5
C6
330
39
100
AcDbEntity
  8
1
  6
Continuous
 62
     7
100
AcDbCircle
 10
233.7611371291541
 20
205.5071181022656
 30
0.0
 40
5.999999999999965
100
AcDbArc
 50
8.00409437170214
 51
80.40850751733541
  0
ENDBLK
  5
3B
330
39
100
AcDbEntity
  8
0
100
AcDbBlockEnd
  0
BLOCK
  5
3D
330
3C
100
AcDbEntity
  8
0
100
AcDbBlockBegin
  2
36-1-20
 70
     0
 71
     0
 10
137.8661870503599
 20
91.01608715523355
 30
0.0
  3
36-1-20
  1

  0
LINE
  5
C7
330
3C
100
AcDbEntity
  8
1
  6
Continuous
 62
     7
100
AcDbLine
 10
227.4
 20
192.9954246392002
 30
0.0
 11
227.4
 21
187.3780334022766
 31
0.0
  0
LINE
  5
C8
330
3C
100
AcDbEntity
  8
1
  6
Continuous
 62
     7
100
AcDbLine
 10
216.3999999999999
 20
188.7223085380301
 30
0.0
 11
216.3999999999999
 21
201.3835046890734
 31
0.0
  0
LINE
  5
C9
330
3C
100
AcDbEntity
  8
1
  6
Continuous
 62
     7
100
AcDbLine
 10
227.4
 20
201.3835046890734
 30
0.0
 11
227.4
 21
192.9954246392002
 31
0.0
  0
LINE
  5
CA
330
3C
100
AcDbEntity
  8
1
  6
Continuous
 62
     7
100
AcDbLine
 10
216.3999999999999
 20
187.3780334022766
 30
0.0
 11
216.3999999999999
 21
188.7223085380301
 31
0.0
  0
LINE
  5
CB
330
3C
100
AcDbEntity
  8
1
  6
Continuous
 62
     7
100
AcDbLine
 10
96.19981173760414
 20
193.5054246392002
 30
0.0
 11
96.19981173760414
 21
187.3780334022766
 31
0.0
  0
LINE
  5
CC
330
3C
100
AcDbEntity
  8
1
  6
Continuous
 62
     7
100
AcDbLine
 10
85.19981173760405
 20
188.7223085380301
 30
0.0
 11
85.19981173760405
 21
201.3835046890734
 31
0.0
  0
LINE
  5
CD
330
3C
100
AcDbEntity
  8
1
  6
Continuous
 62
     7
100
AcDbLine
 10
96.19981173760414
 20
201.3835046890734
 30
0.0
 11
96.19981173760414
 21
193.5054246392002
 31
0.0
  0
LINE
  5
CE
330
3C
100
AcDbEntity
  8
1
  6
Continuous
 62
     7
100
AcDbLine
 10
85.19981173760405
 20
187.3780334022766
 30
0.0
 11
85.19981173760405
 21
188.7223085380301
 31
0.0
  0
ENDBLK
  5
3E
330
3C
100
AcDbEntity
  8
0
100
AcDbBlockEnd
  0
BLOCK
  5
40
330
3F
100
AcDbEntity
  8
0
100
AcDbBlockBegin
  2
01-22-21
 70
     0
 71
     0
 10
225.3023599400688
 20
326.4323612809269
 30
0.0
  3
01-22-21
  1

  0
LINE
  5
CF
330
3F
100
AcDbEntity
  8
1
  6
Continuous
 62
     7
100
AcDbLine
 10
79.94160032783336
 20
146.3870943494781
 30
0.0
 11
101.4580231473749
 21
146.3870943494781
 31
0.0
  0
LINE
  5
D0
330
3F
100
AcDbEntity
  8
1
  6
Continuous
 62
     7
100
AcDbLine
 10
82.28915702246326
 20
149.3870943494781
 30
0.0
 11
99.11046645274504
 21
149.3870943494781
 31
0.0
  0
LINE
  5
D1
330
3F
100
AcDbEntity
  8
1
  6
Continuous
 62
     7
100
AcDbLine
 10
83.50682120950503
 20
150.3870943494781
 30
0.0
 11
97.89280226570315
 21
150.3870943494781
 31
0.0
  0
ENDBLK
  5
41
330
3F
100
AcDbEntity
  8
0
100
AcDbBlockEnd
  0
BLOCK
  5
43
330
42
100
AcDbEntity
  8
0
100
AcDbBlockBegin
  2
37-1-20
 70
     0
 71
     0
 10
380.7084750762709
 20
89.86831266135124
 30
0.0
  3
37-1-20
  1

  0
LINE
  5
D2
330
42
100
AcDbEntity
  8
1
  6
Continuous
 62
     7
100
AcDbLine
 10
73.19981173760414
 20
171.3870943494781
 30
0.0
 11
73.19981173760465
 21
178.8870943494784
 31
0.0
  0
LINE
  5
D3
330
42
100
AcDbEntity
  8
1
  6
Continuous
 62
     7
100
AcDbLine
 10
97.94981173760414
 20
187.3870943494781
 30
0.0
 11
96.49981173760415
 21
187.3870943494781
 31
0.0
  0
LINE
  5
D4
330
42
100
AcDbEntity
  8
1
  6
Continuous
 62
     7
100
AcDbLine
 10
96.49981173760415
 20
187.3870943494781
 30
0.0
 11
90.69981173760414
 21
187.3870943494781
 31
0.0
  0
LINE
  5
D5
330
42
100
AcDbEntity
  8
1
  6
Continuous
 62
     7
100
AcDbLine
 10
84.89981173760415
 20
187.3870943494781
 30
0.0
 11
83.44981173760414
 21
187.3870943494781
 31
0.0
  0
LINE
  5
D6
330
42
100
AcDbEntity
  8
1
  6
Continuous
 62
     7
100
AcDbLine
 10
90.69981173760414
 20
187.3870943494781
 30
0.0
 11
84.89981173760415
 21
187.3870943494781
 31
0.0
  0
LINE
  5
D7
330
42
100
AcDbEntity
  8
1
  6
Continuous
 62
     7
100
AcDbLine
 10
108.1998117376041
 20
171.3870943494781
 30
0.0
 11
108.1998117376037
 21
178.8870943494784
 31
0.0
  0
LINE
  5
D8
330
42
100
AcDbEntity
  8
1
  6
Continuous
 62
     7
100
AcDbLine
 10
90.69981173760414
 20
171.3870943494781
 30
0.0
 11
73.19981173760414
 21
171.3870943494781
 31
0.0
  0
LINE
  5
D9
330
42
100
AcDbEntity
  8
1
  6
Continuous
 62
     7
100
AcDbLine
 10
108.1998117376041
 20
171.3870943494781
 30
0.0
 11
90.69981173760414
 21
171.3870943494781
 31
0.0
  0
LINE
  5
DA
330
42
100
AcDbEntity
  8
1
  6
Continuous
 62
     7
100
AcDbLine
 10
215.5854788833107
 20
187.3780334022766
 30
0.0
 11
214.1354788833108
 21
187.3780334022766
 31
0.0
  0
LINE
  5
DB
330
42
100
AcDbEntity
  8
1
  6
Continuous
 62
     7
100
AcDbLine
 10
221.3854788833108
 20
187.3780334022766
 30
0.0
 11
215.5854788833107
 21
187.3780334022766
 31
0.0
  0
LINE
  5
DC
330
42
100
AcDbEntity
  8
1
  6
Continuous
 62
     7
100
AcDbLine
 10
227.1854788833109
 20
187.3780334022766
 30
0.0
 11
221.3854788833108
 21
187.3780334022766
 31
0.0
  0
LINE
  5
DD
330
42
100
AcDbEntity
  8
1
  6
Continuous
 62
     7
100
AcDbLine
 10
228.6354788833108
 20
187.3780334022766
 30
0.0
 11
227.1854788833109
 21
187.3780334022766
 31
0.0
  0
LINE
  5
DE
330
42
100
AcDbEntity
  8
1
  6
Continuous
 62
     7
100
AcDbLine
 10
221.3854788833108
 20
171.3780334022766
 30
0.0
 11
203.8854788833108
 21
171.3780334022766
 31
0.0
  0
LINE
  5
DF
330
42
100
AcDbEntity
  8
1
  6
Continuous
 62
     7
100
AcDbLine
 10
238.8854788833108
 20
171.3780334022766
 30
0.0
 11
221.3854788833108
 21
171.3780334022766
 31
0.0
  0
LINE
  5
E0
330
42
100
AcDbEntity
  8
1
  6
Continuous
 62
     7
100
AcDbLine
 10
73.16973979515817
 20
308.4633392287769
 30
0.0
 11
73.16973979515817
 21
315.7568189958477
 31
0.0
  0
LINE
  5
E1
330
42
100
AcDbEntity
  8
1
  6
Continuous
 62
     7
100
AcDbLine
 10
81.83760817022605
 20
300.7546376717873
 30
0.0
 11
75.51173698616995
 21
304.4068811027609
 31
0.0
  0
LINE
  5
E2
330
42
100
AcDbEntity
  8
1
  6
Continuous
 62
     7
100
AcDbLine
 10
105.8277426041463
 20
304.4068811027609
 30
0.0
 11
99.57302239985884
 21
300.7957167091096
 31
0.0
  0
LINE
  5
E3
330
42
100
AcDbEntity
  8
1
  6
Continuous
 62
     7
100
AcDbLine
 10
108.1697397951582
 20
315.6966751109556
 30
0.0
 11
108.1697397951582
 21
308.4633392287769
 31
0.0
  0
LINE
  5
E4
330
42
100
AcDbEntity
  8
1
  6
Continuous
 62
     7
100
AcDbLine
 10
93.01173698616995
 20
334.7177702352162
 30
0.0
 11
99.31156510412686
 21
331.0805627754655
 31
0.0
  0
LINE
  5
E5
330
42
100
AcDbEntity
  8
1
  6
Continuous
 62
     7
100
AcDbLine
 10
82.04697933375925
 20
331.0915698703419
 30
0.0
 11
88.32774260414627
 21
334.7177702352162
 31
0.0
  0
ARC
  5
E6
330
42
100
AcDbEntity
  8
1
  6
Continuous
 62
     7
100
AcDbCircle
 10
14.63286307758924
 20
259.9420912630255
 30
0.0
 40
100.0
100
AcDbArc
 50
-54.1496997387306
 51
-46.51461802458818
  0
ARC
  5
E7
330
42
100
AcDbEntity
  8
1
  6
Continuous
 62
     7
100
AcDbCircle
 10
166.766760397619
 20
259.9420912630255
 30
0.0
 40
99.99999999999996
100
AcDbArc
 50
-133.4853819754118
 51
-125.8503002612694
  0
ARC
  5
E8
330
42
100
AcDbEntity
  8
1
  6
Continuous
 62
     7
100
AcDbCircle
 10
145.3185302232958
 20
259.933030315824
 30
0.0
 40
99.99999999999994
100
AcDbArc
 50
-54.14969973873049
 51
-46.51461802458814
  0
ARC
  5
E9
330
42
100
AcDbEntity
  8
1
  6
Continuous
 62
     7
100
AcDbCircle
 10
297.4524275433258
 20
259.933030315824
 30
0.0
 40
100.0000000000001
100
AcDbArc
 50
-133.4853819754119
 51
-125.8503002612695
  0
ARC
  5
EA
330
42
100
AcDbEntity
  8
1
  6
Continuous
 62
     7
100
AcDbCircle
 10
234.9526059649166
 20
175.1280334022766
 30
0.0
 40
5.434150291649901
100
AcDbArc
 50
-43.6364647192207
 51
43.6364647192275
  0
ARC
  5
EB
330
42
100
AcDbEntity
  8
1
  6
Continuous
 62
     7
100
AcDbCircle
 10
221.3791939093395
 20
185.5745693543111
 30
0.0
 40
14.19703088666195
100
AcDbArc
 50
-89.97463536583514
 51
-87.89768100229347
  0
ARC
  5
EC
330
42
100
AcDbEntity
  8
1
  6
Continuous
 62
     7
100
AcDbCircle
 10
226.9213739820521
 20
175.1277392126309
 30
0.0
 40
1.863429217955756
100
AcDbArc
 50
0.0090455945357
 51
2.04881981628454
  0
ARC
  5
ED
330
42
100
AcDbEntity
  8
1
  6
Continuous
 62
     7
100
AcDbCircle
 10
226.894693535668
 20
175.1267847489918
 30
0.0
 40
1.890126731324855
100
AcDbArc
 50
2.04881981628716
 51
6.07193558755822
  0
ARC
  5
EE
330
42
100
AcDbEntity
  8
1
  6
Continuous
 62
     7
100
AcDbCircle
 10
226.7976585424476
 20
175.1164627694039
 30
0.0
 40
1.987709174273806
100
AcDbArc
 50
6.07193558756127
 51
11.81422521469175
  0
ARC
  5
EF
330
42
100
AcDbEntity
  8
1
  6
Continuous
 62
     7
100
AcDbCircle
 10
226.7188232784262
 20
175.0999727964121
 30
0.0
 40
2.068250580162976
100
AcDbArc
 50
11.81422521469136
 51
17.33373951960473
  0
ARC
  5
F0
330
42
100
AcDbEntity
  8
1
  6
Continuous
 62
     7
100
AcDbCircle
 10
226.6621227649789
 20
175.082275918278
 30
0.0
 40
2.127648624919285
100
AcDbArc
 50
17.33373951960451
 51
21.05107784814785
  0
ARC
  5
F1
330
42
100
AcDbEntity
  8
1
  6
Continuous
 62
     7
100
AcDbCircle
 10
226.5577904427722
 20
175.042119740559
 30
0.0
 40
2.239441970276052
100
AcDbArc
 50
21.051077848144
 51
24.71695094553338
  0
ARC
  5
F2
330
42
100
AcDbEntity
  8
1
  6
Continuous
 62
     7
100
AcDbCircle
 10
226.3820844109698
 20
174.9612410071612
 30
0.0
 40
2.432868905131983
100
AcDbArc
 50
24.71695094553794
 51
26.4042249055282
  0
ARC
  5
F3
330
42
100
AcDbEntity
  8
1
  6
Continuous
 62
     7
100
AcDbCircle
 10
226.4283716997947
 20
174.9842224712498
 30
0.0
 40
2.381190468638493
100
AcDbArc
 50
26.40422490552706
 51
28.12851575957017
  0
ARC
  5
F4
330
42
100
AcDbEntity
  8
1
  6
Continuous
 62
     7
100
AcDbCircle
 10
226.2244872307689
 20
174.875227866581
 30
0.0
 40
2.61238021875052
100
AcDbArc
 50
28.12851575957014
 51
29.70061581958773
  0
ARC
  5
F5
330
42
100
AcDbEntity
  8
1
  6
Continuous
 62
     7
100
AcDbCircle
 10
226.2801915307889
 20
174.9070018318595
 30
0.0
 40
2.548251021731946
100
AcDbArc
 50
29.70061581958806
 51
31.31262615378894
  0
ARC
  5
F6
330
42
100
AcDbEntity
  8
1
  6
Continuous
 62
     7
100
AcDbCircle
 10
226.0764610947775
 20
174.7830702844436
 30
0.0
 40
2.78671510498626
100
AcDbArc
 50
31.31262615378937
 51
34.26080699705537
  0
ARC
  5
F7
330
42
100
AcDbEntity
  8
1
  6
Continuous
 62
     7
100
AcDbCircle
 10
225.9477636148975
 20
174.6954077566908
 30
0.0
 40
2.942432027956913
100
AcDbArc
 50
34.26080699705398
 51
37.22810259030107
  0
ARC
  5
F8
330
42
100
AcDbEntity
  8
1
  6
Continuous
 62
     7
100
AcDbCircle
 10
225.7515470382652
 20
174.5463195228163
 30
0.0
 40
3.188863045536258
100
AcDbArc
 50
37.22810259030133
 51
40.12704477668967
  0
ARC
  5
F9
330
42
100
AcDbEntity
  8
1
  6
Continuous
 62
     7
100
AcDbCircle
 10
225.5999540930033
 20
174.4185440667435
 30
0.0
 40
3.387122946241651
100
AcDbArc
 50
40.12704477668969
 51
42.8559150209459
  0
ARC
  5
FA
330
42
100
AcDbEntity
  8
1
  6
Continuous
 62
     7
100
AcDbCircle
 10
225.3569059985233
 20
174.1930380839575
 30
0.0
 40
3.718672828616507
100
AcDbArc
 50
42.85591502094734
 51
45.34203161654192
  0
ARC
  5
FB
330
42
100
AcDbEntity
  8
1
  6
Continuous
 62
     7
100
AcDbCircle
 10
225.1976027897295
 20
174.0318214844859
 30
0.0
 40
3.945318596891794
100
AcDbArc
 50
45.34203161654121
 51
46.51383146317853
  0
ARC
  5
FC
330
42
100
AcDbEntity
  8
1
  6
Continuous
 62
     7
100
AcDbCircle
 10
225.1095077738563
 20
173.9389438141783
 30
0.0
 40
4.073330289574504
100
AcDbArc
 50
46.5138314631785
 51
47.64875101651649
  0
ARC
  5
FD
330
42
100
AcDbEntity
  8
1
  6
Continuous
 62
     7
100
AcDbCircle
 10
224.9348801172478
 20
173.7473750361332
 30
0.0
 40
4.332547216441331
100
AcDbArc
 50
47.64875101651618
 51
49.92524736752687
  0
ARC
  5
FE
330
42
100
AcDbEntity
  8
1
  6
Continuous
 62
     7
100
AcDbCircle
 10
224.7038629802623
 20
173.4727878805685
 30
0.0
 40
4.691388439800686
100
AcDbArc
 50
49.92524736752801
 51
52.15876528471148
  0
ARC
  5
FF
330
42
100
AcDbEntity
  8
1
  6
Continuous
 62
     7
100
AcDbCircle
 10
224.5485595962861
 20
173.272869219513
 30
0.0
 40
4.944541776955574
100
AcDbArc
 50
52.15876528471011
 51
54.27772176258418
  0
ARC
  5
100
330
42
100
AcDbEntity
  8
1
  6
Continuous
 62
     7
100
AcDbCircle
 10
224.2477188991754
 20
172.8545484221819
 30
0.0
 40
5.459806189192581
100
AcDbArc
 50
54.27772176258344
 51
55.23729013307039
  0
ARC
  5
101
330
42
100
AcDbEntity
  8
1
  6
Continuous
 62
     7
100
AcDbCircle
 10
224.3571538786241
 20
173.0122235982848
 30
0.0
 40
5.267875274835189
100
AcDbArc
 50
55.23729013307042
 51
56.23189014610151
  0
ARC
  5
102
330
42
100
AcDbEntity
  8
1
  6
Continuous
 62
     7
100
AcDbCircle
 10
224.0008129661511
 20
172.4792864678931
 30
0.0
 40
5.908968739824822
100
AcDbArc
 50
56.23189014610156
 51
57.11861372078418
  0
ARC
  5
103
330
42
100
AcDbEntity
  8
1
  6
Continuous
 62
     7
100
AcDbCircle
 10
224.1253936463872
 20
172.671996126043
 30
0.0
 40
5.679496828183314
100
AcDbArc
 50
57.11861372078511
 51
58.04114426986172
  0
ARC
  5
104
330
42
100
AcDbEntity
  8
1
  6
Continuous
 62
     7
100
AcDbCircle
 10
223.7312991466698
 20
172.0403041462575
 30
0.0
 40
6.424040468296424
100
AcDbArc
 50
58.04114426986227
 51
58.85665927329169
  0
ARC
  5
105
330
42
100
AcDbEntity
  8
1
  6
Continuous
 62
     7
100
AcDbCircle
 10
223.7993451961407
 20
172.1529126920033
 30
0.0
 40
6.292469387037736
100
AcDbArc
 50
58.85665927329053
 51
60.72040420311368
  0
ARC
  5
106
330
42
100
AcDbEntity
  8
1
  6
Continuous
 62
     7
100
AcDbCircle
 10
223.4440015740384
 20
171.5191690863496
 30
0.0
 40
7.01903669119883
100
AcDbArc
 50
60.7204042031141
 51
62.39092492904199
  0
ARC
  5
107
330
42
100
AcDbEntity
  8
1
  6
Continuous
 62
     7
100
AcDbCircle
 10
223.4311627069523
 20
171.49462006989
 30
0.0
 40
7.046740314015811
100
AcDbArc
 50
62.39092492904197
 51
64.05491737271321
  0
ARC
  5
108
330
42
100
AcDbEntity
  8
1
  6
Continuous
 62
     7
100
AcDbCircle
 10
223.0297782802308
 20
170.6696540968071
 30
0.0
 40
7.964170591889462
100
AcDbArc
 50
64.05491737271335
 51
65.52731481732606
  0
ARC
  5
109
330
42
100
AcDbEntity
  8
1
  6
Continuous
 62
     7
100
AcDbCircle
 10
223.122451815019
 20
170.8732647862422
 30
0.0
 40
7.740461636095489
100
AcDbArc
 50
65.52731481732546
 51
66.28479049159216
  0
ARC
  5
10A
330
42
100
AcDbEntity
  8
1
  6
Continuous
 62
     7
100
AcDbCircle
 10
222.687706976141
 20
169.8836022796785
 30
0.0
 40
8.821403332871453
100
AcDbArc
 50
66.28479049159202
 51
66.9494059848309
  0
ARC
  5
10B
330
42
100
AcDbEntity
  8
1
  6
Continuous
 62
     7
100
AcDbCircle
 10
222.8206164518762
 20
170.1959502435917
 30
0.0
 40
8.481953514340122
100
AcDbArc
 50
66.94940598483098
 51
68.46495589489433
  0
ARC
  5
10C
330
42
100
AcDbEntity
  8
1
  6
Continuous
 62
     7
100
AcDbCircle
 10
222.4853580055421
 20
169.3463713135487
 30
0.0
 40
9.395289478928989
100
AcDbArc
 50
68.46495589489527
 51
69.83304505761748
  0
ARC
  5
10D
330
42
100
AcDbEntity
  8
1
  6
Continuous
 62
     7
100
AcDbCircle
 10
222.527250870396
 20
169.4604357488956
 30
0.0
 40
9.273775251216046
100
AcDbArc
 50
69.83304505761747
 51
71.21908041670214
  0
ARC
  5
10E
330
42
100
AcDbEntity
  8
1
  6
Continuous
 62
     7
100
AcDbCircle
 10
222.1745498450877
 20
168.4232512356149
 30
0.0
 40
10.36928870519215
100
AcDbArc
 50
71.21908041670132
 51
72.45872110951366
  0
ARC
  5
10F
330
42
100
AcDbEntity
  8
1
  6
Continuous
 62
     7
100
AcDbCircle
 10
222.2228890538484
 20
168.5761793544597
 30
0.0
 40
10.20890264396192
100
AcDbArc
 50
72.45872110951386
 51
73.71781688417062
  0
ARC
  5
110
330
42
100
AcDbEntity
  8
1
  6
Continuous
 62
     7
100
AcDbCircle
 10
221.8849533258611
 20
167.4191938532999
 30
0.0
 40
11.41423081759089
100
AcDbArc
 50
73.71781688417082
 51
74.92424864449538
  0
ARC
  5
111
330
42
100
AcDbEntity
  8
1
  6
Continuous
 62
     7
100
AcDbCircle
 10
222.0018685979465
 20
167.8532313916555
 30
0.0
 40
10.96472245777052
100
AcDbArc
 50
74.92424864449535
 51
76.18007940610794
  0
ARC
  5
112
330
42
100
AcDbEntity
  8
1
  6
Continuous
 62
     7
100
AcDbCircle
 10
221.7003451577657
 20
166.6274877132995
 30
0.0
 40
12.22700766722513
100
AcDbArc
 50
76.1800794061086
 51
77.30626533000402
  0
ARC
  5
113
330
42
100
AcDbEntity
  8
1
  6
Continuous
 62
     7
100
AcDbCircle
 10
221.8148973841374
 20
167.1360553264103
 30
0.0
 40
11.70569851741876
100
AcDbArc
 50
77.3062653300038
 51
78.4826313467253
  0
ARC
  5
114
330
42
100
AcDbEntity
  8
1
  6
Continuous
 62
     7
100
AcDbCircle
 10
221.5558819254172
 20
165.8649261504869
 30
0.0
 40
13.00294883626223
100
AcDbArc
 50
78.48263134672506
 51
80.09584054651664
  0
ARC
  5
115
330
42
100
AcDbEntity
  8
1
  6
Continuous
 62
     7
100
AcDbCircle
 10
221.4180474168511
 20
165.0755083966799
 30
0.0
 40
13.80430939292656
100
AcDbArc
 50
80.09584054651678
 51
90.13517816754433
  0
ARC
  5
116
330
42
100
AcDbEntity
  8
1
  6
Continuous
 62
     7
100
AcDbCircle
 10
221.3479476542074
 20
186.4257603669141
 30
0.0
 40
15.0487952134541
100
AcDbArc
 50
-87.89768100229279
 51
-84.47984492831701
  0
ARC
  5
117
330
42
100
AcDbEntity
  8
1
  6
Continuous
 62
     7
100
AcDbCircle
 10
221.6055601636371
 20
183.7601809348115
 30
0.0
 40
12.37079634977584
100
AcDbArc
 50
-84.47984492831704
 51
-82.73226108992891
  0
ARC
  5
118
330
42
100
AcDbEntity
  8
1
  6
Continuous
 62
     7
100
AcDbCircle
 10
221.3170284781961
 20
186.0226299015004
 30
0.0
 40
14.65156943370475
100
AcDbArc
 50
-82.73226108992941
 51
-80.76493136121765
  0
ARC
  5
119
330
42
100
AcDbEntity
  8
1
  6
Continuous
 62
     7
100
AcDbCircle
 10
221.8208007770671
 20
182.9242628398602
 30
0.0
 40
11.51251464320377
100
AcDbArc
 50
-80.76493136121762
 51
-78.91495303354327
  0
ARC
  5
11A
330
42
100
AcDbEntity
  8
1
  6
Continuous
 62
     7
100
AcDbCircle
 10
221.1541147557687
 20
186.3270904045363
 30
0.0
 40
14.98003619121403
100
AcDbArc
 50
-78.91495303354286
 51
-77.99572159146784
  0
ARC
  5
11B
330
42
100
AcDbEntity
  8
1
  6
Continuous
 62
     7
100
AcDbCircle
 10
222.1387134294573
 20
181.6966180717894
 30
0.0
 40
10.24604120045148
100
AcDbArc
 50
-77.99572159146857
 51
-76.65177494032051
  0
ARC
  5
11C
330
42
100
AcDbEntity
  8
1
  6
Continuous
 62
     7
100
AcDbCircle
 10
221.3195561375713
 20
185.1489156077597
 30
0.0
 40
13.79419240153033
100
AcDbArc
 50
-76.65177494032022
 51
-75.65354860729734
  0
ARC
  5
11D
330
42
100
AcDbEntity
  8
1
  6
Continuous
 62
     7
100
AcDbCircle
 10
222.3411746289235
 20
181.1544796336318
 30
0.0
 40
9.671180990767509
100
AcDbArc
 50
-75.65354860729713
 51
-74.22971869783449
  0
ARC
  5
11E
330
42
100
AcDbEntity
  8
1
  6
Continuous
 62
     7
100
AcDbCircle
 10
221.4815891415747
 20
184.1982153966568
 30
0.0
 40
12.83396688380198
100
AcDbArc
 50
-74.22971869783459
 51
-73.19245443436955
  0
ARC
  5
11F
330
42
100
AcDbEntity
  8
1
  6
Continuous
 62
     7
100
AcDbCircle
 10
222.6149770173928
 20
180.4460395823211
 30
0.0
 40
8.914350650197322
100
AcDbArc
 50
-73.19245443437028
 51
-71.75047401917603
  0
ARC
  5
120
330
42
100
AcDbEntity
  8
1
  6
Continuous
 62
     7
100
AcDbCircle
 10
221.8125972296618
 20
182.879400543584
 30
0.0
 40
11.47658773750164
100
AcDbArc
 50
-71.7504740191758
 51
-70.63046037638996
  0
ARC
  5
121
330
42
100
AcDbEntity
  8
1
  6
Continuous
 62
     7
100
AcDbCircle
 10
222.9031231581056
 20
179.7774216409033
 30
0.0
 40
8.188500160613613
100
AcDbArc
 50
-70.63046037638949
 51
-69.06073715552857
  0
ARC
  5
122
330
42
100
AcDbEntity
  8
1
  6
Continuous
 62
     7
100
AcDbCircle
 10
222.151781341762
 20
181.7409528709201
 30
0.0
 40
10.29087249115782
100
AcDbArc
 50
-69.06073715552876
 51
-67.81167995893308
  0
ARC
  5
123
330
42
100
AcDbEntity
  8
1
  6
Continuous
 62
     7
100
AcDbCircle
 10
223.1983600787086
 20
179.1748947945879
 30
0.0
 40
7.519594608350369
100
AcDbArc
 50
-67.8116799589328
 51
-66.17720172050896
  0
ARC
  5
124
330
42
100
AcDbEntity
  8
1
  6
Continuous
 62
     7
100
AcDbCircle
 10
221.8686287236127
 20
182.1865532272266
 30
0.0
 40
10.81174770193652
100
AcDbArc
 50
-66.1772017205096
 51
-65.63490358840997
  0
ARC
  5
125
330
42
100
AcDbEntity
  8
1
  6
Continuous
 62
     7
100
AcDbCircle
 10
223.4623095086756
 20
178.667606875798
 30
0.0
 40
6.948743447614354
100
AcDbArc
 50
-65.63490358840888
 51
-63.947328601629
  0
ARC
  5
126
330
42
100
AcDbEntity
  8
1
  6
Continuous
 62
     7
100
AcDbCircle
 10
222.9596448907681
 20
179.6958219751444
 30
0.0
 40
8.093251205831814
100
AcDbArc
 50
-63.94732860162966
 51
-62.49851370012188
  0
ARC
  5
127
330
42
100
AcDbEntity
  8
1
  6
Continuous
 62
     7
100
AcDbCircle
 10
223.8255120785744
 20
178.0326119252055
 30
0.0
 40
6.21815289983893
100
AcDbArc
 50
-62.49851370012178
 51
-60.61281543203378
  0
ARC
  5
128
330
42
100
AcDbEntity
  8
1
  6
Continuous
 62
     7
100
AcDbCircle
 10
223.3860497642882
 20
178.8129399375411
 30
0.0
 40
7.113719163447249
100
AcDbArc
 50
-60.61281543203405
 51
-58.96424804436798
  0
ARC
  5
129
330
42
100
AcDbEntity
  8
1
  6
Continuous
 62
     7
100
AcDbCircle
 10
224.4330746288285
 20
177.0728583326157
 30
0.0
 40
5.082920045177414
100
AcDbArc
 50
-58.96424804436777
 51
-57.93355549878478
  0
ARC
  5
12A
330
42
100
AcDbEntity
  8
1
  6
Continuous
 62
     7
100
AcDbCircle
 10
223.1991232986253
 20
179.0425068597566
 30
0.0
 40
7.407172872599301
100
AcDbArc
 50
-57.93355549878533
 51
-57.22620249186954
  0
ARC
  5
12B
330
42
100
AcDbEntity
  8
1
  6
Continuous
 62
     7
100
AcDbCircle
 10
224.6347531532978
 20
176.8126064576152
 30
0.0
 40
4.755100308905568
100
AcDbArc
 50
-57.22620249186966
 51
-56.12430137501078
  0
ARC
  5
12C
330
42
100
AcDbEntity
  8
1
  6
Continuous
 62
     7
100
AcDbCircle
 10
223.5383271893173
 20
178.4457562823842
 30
0.0
 40
6.722161122564801
100
AcDbArc
 50
-56.12430137501072
 51
-55.34487890416344
  0
ARC
  5
12D
330
42
100
AcDbEntity
  8
1
  6
Continuous
 62
     7
100
AcDbCircle
 10
224.6383988701424
 20
176.8543891807907
 30
0.0
 40
4.787579267230748
100
AcDbArc
 50
-55.34487890416374
 51
-53.15632763150282
  0
ARC
  5
12E
330
42
100
AcDbEntity
  8
1
  6
Continuous
 62
     7
100
AcDbCircle
 10
224.3915440442308
 20
177.1838430007971
 30
0.0
 40
5.19925526190692
100
AcDbArc
 50
-53.15632763150312
 51
-51.14118869175481
  0
ARC
  5
12F
330
42
100
AcDbEntity
  8
1
  6
Continuous
 62
     7
100
AcDbCircle
 10
225.00900915349
 20
176.4174834581856
 30
0.0
 40
4.215095666259955
100
AcDbArc
 50
-51.14118869175222
 51
-48.65470766894358
  0
ARC
  5
130
330
42
100
AcDbEntity
  8
1
  6
Continuous
 62
     7
100
AcDbCircle
 10
224.5341584780606
 20
176.9571336883347
 30
0.0
 40
4.933917991216416
100
AcDbArc
 50
-48.65470766894656
 51
-47.71794772055333
  0
ARC
  5
131
330
42
100
AcDbEntity
  8
1
  6
Continuous
 62
     7
100
AcDbCircle
 10
225.4109890351194
 20
175.9929028836974
 30
0.0
 40
3.630624904300141
100
AcDbArc
 50
-47.71794772055159
 51
-46.44463475914053
  0
ARC
  5
132
330
42
100
AcDbEntity
  8
1
  6
Continuous
 62
     7
100
AcDbCircle
 10
224.8300934821729
 20
176.6038556320092
 30
0.0
 40
4.473656875285058
100
AcDbArc
 50
-46.44463475914061
 51
-45.41122832057805
  0
ARC
  5
133
330
42
100
AcDbEntity
  8
1
  6
Continuous
 62
     7
100
AcDbCircle
 10
225.4977380086829
 20
175.9265579015898
 30
0.0
 40
3.522614589469021
100
AcDbArc
 50
-45.41122832057634
 51
-42.78671831690481
  0
ARC
  5
134
330
42
100
AcDbEntity
  8
1
  6
Continuous
 62
     7
100
AcDbCircle
 10
225.4643986976398
 20
175.9574160898178
 30
0.0
 40
3.568042966520749
100
AcDbArc
 50
-42.78671831690731
 51
-40.19624148072793
  0
ARC
  5
135
330
42
100
AcDbEntity
  8
1
  6
Continuous
 62
     7
100
AcDbCircle
 10
225.8649905219711
 20
175.6189347936538
 30
0.0
 40
3.043597166104658
100
AcDbArc
 50
-40.19624148072754
 51
-37.15890588626783
  0
ARC
  5
136
330
42
100
AcDbEntity
  8
1
  6
Continuous
 62
     7
100
AcDbCircle
 10
225.8309196483715
 20
175.6447574996907
 30
0.0
 40
3.086348032469314
100
AcDbArc
 50
-37.15890588626712
 51
-34.33000370108627
  0
ARC
  5
137
330
42
100
AcDbEntity
  8
1
  6
Continuous
 62
     7
100
AcDbCircle
 10
226.181517046186
 20
175.4053270461217
 30
0.0
 40
2.661794764373668
100
AcDbArc
 50
-34.33000370109033
 51
-31.2434294497598
  0
ARC
  5
138
330
42
100
AcDbEntity
  8
1
  6
Continuous
 62
     7
100
AcDbCircle
 10
226.0739976857058
 20
175.4705545265661
 30
0.0
 40
2.78755261535406
100
AcDbArc
 50
-31.2434294497573
 51
-29.76981252361813
  0
ARC
  5
139
330
42
100
AcDbEntity
  8
1
  6
Continuous
 62
     7
100
AcDbCircle
 10
226.4095094903532
 20
175.2786397844103
 30
0.0
 40
2.401030378846857
100
AcDbArc
 50
-29.76981252361885
 51
-28.05931905554174
  0
ARC
  5
13A
330
42
100
AcDbEntity
  8
1
  6
Continuous
 62
     7
100
AcDbCircle
 10
226.2436600009002
 20
175.36704389356
 30
0.0
 40
2.588970102339253
100
AcDbArc
 50
-28.0593190555395
 51
-26.47342160955276
  0
ARC
  5
13B
330
42
100
AcDbEntity
  8
1
  6
Continuous
 62
     7
100
AcDbCircle
 10
226.5484638387106
 20
175.2152508055561
 30
0.0
 40
2.248460893785752
100
AcDbArc
 50
-26.47342160955299
 51
-24.64775424150925
  0
ARC
  5
13C
330
42
100
AcDbEntity
  8
1
  6
Continuous
 62
     7
100
AcDbCircle
 10
226.4019620861894
 20
175.282472300546
 30
0.0
 40
2.409648650394197
100
AcDbArc
 50
-24.64775424151013
 51
-22.94439823311887
  0
ARC
  5
13D
330
42
100
AcDbEntity
  8
1
  6
Continuous
 62
     7
100
AcDbCircle
 10
226.6459859431181
 20
175.1791696807428
 30
0.0
 40
2.144659831745997
100
AcDbArc
 50
-22.94439823311748
 51
-19.1154332663809
  0
ARC
  5
13E
330
42
100
AcDbEntity
  8
1
  6
Continuous
 62
     7
100
AcDbCircle
 10
226.6828684014118
 20
175.1663868574349
 30
0.0
 40
2.105625022901742
100
AcDbArc
 50
-19.11543326638566
 51
-13.69554817836357
  0
ARC
  5
13F
330
42
100
AcDbEntity
  8
1
  6
Continuous
 62
     7
100
AcDbCircle
 10
226.7826493276206
 20
175.1420711030042
 30
0.0
 40
2.002924053341427
100
AcDbArc
 50
-13.69554817835725
 51
-7.99578780034132
  0
ARC
  5
140
330
42
100
AcDbEntity
  8
1
  6
Continuous
 62
     7
100
AcDbCircle
 10
226.8402455624353
 20
175.1339807979657
 30
0.0
 40
1.944762388127669
100
AcDbArc
 50
-7.9957878003418
 51
-4.08462136696628
  0
ARC
  5
141
330
42
100
AcDbEntity
  8
1
  6
Continuous
 62
     7
100
AcDbCircle
 10
226.9206539604193
 20
175.1282387450465
 30
0.0
 40
1.864149227675509
100
AcDbArc
 50
-4.0846213669703
 51
-0.00631133704939
  0
ARC
  5
142
330
42
100
AcDbEntity
  8
1
  6
Continuous
 62
     7
100
AcDbCircle
 10
221.3917638572821
 20
185.5745693543111
 30
0.0
 40
14.19703088666184
100
AcDbArc
 50
-92.10231899770653
 51
-90.02536463416476
  0
ARC
  5
143
330
42
100
AcDbEntity
  8
1
  6
Continuous
 62
     7
100
AcDbCircle
 10
215.8495837845695
 20
175.1277392126309
 30
0.0
 40
1.863429217955652
100
AcDbArc
 50
177.9511801837153
 51
179.9909544054643
  0
ARC
  5
144
330
42
100
AcDbEntity
  8
1
  6
Continuous
 62
     7
100
AcDbCircle
 10
215.8762642309536
 20
175.1267847489918
 30
0.0
 40
1.890126731324795
100
AcDbArc
 50
173.9280644124418
 51
177.9511801837128
  0
ARC
  5
145
330
42
100
AcDbEntity
  8
1
  6
Continuous
 62
     7
100
AcDbCircle
 10
215.973299224174
 20
175.1164627694039
 30
0.0
 40
1.987709174273898
100
AcDbArc
 50
168.1857747853084
 51
173.9280644124387
  0
ARC
  5
146
330
42
100
AcDbEntity
  8
1
  6
Continuous
 62
     7
100
AcDbCircle
 10
216.0521344881954
 20
175.0999727964121
 30
0.0
 40
2.068250580162923
100
AcDbArc
 50
162.6662604803955
 51
168.1857747853088
  0
ARC
  5
147
330
42
100
AcDbEntity
  8
1
  6
Continuous
 62
     7
100
AcDbCircle
 10
216.1088350016427
 20
175.082275918278
 30
0.0
 40
2.127648624919316
100
AcDbArc
 50
158.9489221518519
 51
162.6662604803955
  0
ARC
  5
148
330
42
100
AcDbEntity
  8
1
  6
Continuous
 62
     7
100
AcDbCircle
 10
216.2131673238494
 20
175.042119740559
 30
0.0
 40
2.239441970275996
100
AcDbArc
 50
155.2830490544663
 51
158.9489221518558
  0
ARC
  5
149
330
42
100
AcDbEntity
  8
1
  6
Continuous
 62
     7
100
AcDbCircle
 10
216.3888733556518
 20
174.9612410071612
 30
0.0
 40
2.432868905132012
100
AcDbArc
 50
153.5957750944718
 51
155.2830490544621
  0
ARC
  5
14A
330
42
100
AcDbEntity
  8
1
  6
Continuous
 62
     7
100
AcDbCircle
 10
216.3425860668269
 20
174.9842224712498
 30
0.0
 40
2.381190468638434
100
AcDbArc
 50
151.8714842404285
 51
153.5957750944727
  0
ARC
  5
14B
330
42
100
AcDbEntity
  8
1
  6
Continuous
 62
     7
100
AcDbCircle
 10
216.5464705358528
 20
174.875227866581
 30
0.0
 40
2.612380218750523
100
AcDbArc
 50
150.2993841804132
 51
151.8714842404296
  0
ARC
  5
14C
330
42
100
AcDbEntity
  8
1
  6
Continuous
 62
     7
100
AcDbCircle
 10
216.4907662358327
 20
174.9070018318595
 30
0.0
 40
2.548251021731901
100
AcDbArc
 50
148.6873738462097
 51
150.299384180412
  0
ARC
  5
14D
330
42
100
AcDbEntity
  8
1
  6
Continuous
 62
     7
100
AcDbCircle
 10
216.6944966718442
 20
174.7830702844436
 30
0.0
 40
2.786715104986271
100
AcDbArc
 50
145.7391930029459
 51
148.6873738462106
  0
ARC
  5
14E
330
42
100
AcDbEntity
  8
1
  6
Continuous
 62
     7
100
AcDbCircle
 10
216.8231941517241
 20
174.6954077566908
 30
0.0
 40
2.942432027957038
100
AcDbArc
 50
142.7718974096986
 51
145.739193002946
  0
ARC
  5
14F
330
42
100
AcDbEntity
  8
1
  6
Continuous
 62
     7
100
AcDbCircle
 10
217.0194107283564
 20
174.5463195228163
 30
0.0
 40
3.18886304553607
100
AcDbArc
 50
139.8729552233103
 51
142.7718974096984
  0
ARC
  5
150
330
42
100
AcDbEntity
  8
1
  6
Continuous
 62
     7
100
AcDbCircle
 10
217.1710036736183
 20
174.4185440667435
 30
0.0
 40
3.38712294624187
100
AcDbArc
 50
137.1440849790541
 51
139.8729552233103
  0
ARC
  5
151
330
42
100
AcDbEntity
  8
1
  6
Continuous
 62
     7
100
AcDbCircle
 10
217.4140517680985
 20
174.1930380839575
 30
0.0
 40
3.718672828616442
100
AcDbArc
 50
134.6579683834603
 51
137.1440849790547
  0
ARC
  5
152
330
42
100
AcDbEntity
  8
1
  6
Continuous
 62
     7
100
AcDbCircle
 10
217.5733549768921
 20
174.0318214844859
 30
0.0
 40
3.94531859689189
100
AcDbArc
 50
133.4861685368215
 51
134.6579683834588
  0
ARC
  5
153
330
42
100
AcDbEntity
  8
1
  6
Continuous
 62
     7
100
AcDbCircle
 10
217.6614499927653
 20
173.9389438141783
 30
0.0
 40
4.073330289574548
100
AcDbArc
 50
132.3512489834838
 51
133.4861685368218
  0
ARC
  5
154
330
42
100
AcDbEntity
  8
1
  6
Continuous
 62
     7
100
AcDbCircle
 10
217.8360776493738
 20
173.7473750361332
 30
0.0
 40
4.332547216441254
100
AcDbArc
 50
130.0747526324731
 51
132.3512489834838
  0
ARC
  5
155
330
42
100
AcDbEntity
  8
1
  6
Continuous
 62
     7
100
AcDbCircle
 10
218.0670947863593
 20
173.4727878805685
 30
0.0
 40
4.691388439800657
100
AcDbArc
 50
127.8412347152885
 51
130.074752632472
  0
ARC
  5
156
330
42
100
AcDbEntity
  8
1
  6
Continuous
 62
     7
100
AcDbCircle
 10
218.2223981703355
 20
173.272869219513
 30
0.0
 40
4.94454177695573
100
AcDbArc
 50
125.7222782374161
 51
127.8412347152902
  0
ARC
  5
157
330
42
100
AcDbEntity
  8
1
  6
Continuous
 62
     7
100
AcDbCircle
 10
218.5232388674462
 20
172.8545484221819
 30
0.0
 40
5.459806189192409
100
AcDbArc
 50
124.7627098669287
 51
125.7222782374166
  0
ARC
  5
158
330
42
100
AcDbEntity
  8
1
  6
Continuous
 62
     7
100
AcDbCircle
 10
218.4138038879975
 20
173.0122235982848
 30
0.0
 40
5.267875274835314
100
AcDbArc
 50
123.7681098538982
 51
124.7627098669286
  0
ARC
  5
159
330
42
100
AcDbEntity
  8
1
  6
Continuous
 62
     7
100
AcDbCircle
 10
218.7701448004705
 20
172.4792864678931
 30
0.0
 40
5.908968739824687
100
AcDbArc
 50
122.8813862792158
 51
123.7681098538982
  0
ARC
  5
15A
330
42
100
AcDbEntity
  8
1
  6
Continuous
 62
     7
100
AcDbCircle
 10
218.6455641202344
 20
172.671996126043
 30
0.0
 40
5.679496828183316
100
AcDbArc
 50
121.9588557301378
 51
122.8813862792152
  0
ARC
  5
15B
330
42
100
AcDbEntity
  8
1
  6
Continuous
 62
     7
100
AcDbCircle
 10
219.0396586199518
 20
172.0403041462575
 30
0.0
 40
6.424040468296424
100
AcDbArc
 50
121.1433407267085
 51
121.9588557301373
  0
ARC
  5
15C
330
42
100
AcDbEntity
  8
1
  6
Continuous
 62
     7
100
AcDbCircle
 10
218.9716125704809
 20
172.1529126920033
 30
0.0
 40
6.292469387037853
100
AcDbArc
 50
119.2795957968863
 51
121.1433407267095
  0
ARC
  5
15D
330
42
100
AcDbEntity
  8
1
  6
Continuous
 62
     7
100
AcDbCircle
 10
219.3269561925832
 20
171.5191690863496
 30
0.0
 40
7.019036691198798
100
AcDbArc
 50
117.609075070958
 51
119.2795957968859
  0
ARC
  5
15E
330
42
100
AcDbEntity
  8
1
  6
Continuous
 62
     7
100
AcDbCircle
 10
219.3397950596693
 20
171.49462006989
 30
0.0
 40
7.046740314015874
100
AcDbArc
 50
115.9450826272864
 51
117.6090750709582
  0
ARC
  5
15F
330
42
100
AcDbEntity
  8
1
  6
Continuous
 62
     7
100
AcDbCircle
 10
219.7411794863908
 20
170.6696540968071
 30
0.0
 40
7.964170591889299
100
AcDbArc
 50
114.4726851826734
 51
115.9450826272861
  0
ARC
  5
160
330
42
100
AcDbEntity
  8
1
  6
Continuous
 62
     7
100
AcDbCircle
 10
219.6485059516026
 20
170.8732647862422
 30
0.0
 40
7.74046163609545
100
AcDbArc
 50
113.7152095084079
 51
114.472685182674
  0
ARC
  5
161
330
42
100
AcDbEntity
  8
1
  6
Continuous
 62
     7
100
AcDbCircle
 10
220.0832507904806
 20
169.8836022796785
 30
0.0
 40
8.821403332871412
100
AcDbArc
 50
113.0505940151691
 51
113.715209508408
  0
ARC
  5
162
330
42
100
AcDbEntity
  8
1
  6
Continuous
 62
     7
100
AcDbCircle
 10
219.9503413147454
 20
170.1959502435917
 30
0.0
 40
8.481953514340182
100
AcDbArc
 50
111.5350441051057
 51
113.050594015169
  0
ARC
  5
163
330
42
100
AcDbEntity
  8
1
  6
Continuous
 62
     7
100
AcDbCircle
 10
220.2855997610795
 20
169.3463713135487
 30
0.0
 40
9.395289478928961
100
AcDbArc
 50
110.166954942382
 51
111.5350441051049
  0
ARC
  5
164
330
42
100
AcDbEntity
  8
1
  6
Continuous
 62
     7
100
AcDbCircle
 10
220.2437068962257
 20
169.4604357488956
 30
0.0
 40
9.273775251215961
100
AcDbArc
 50
108.7809195832977
 51
110.1669549423824
  0
ARC
  5
165
330
42
100
AcDbEntity
  8
1
  6
Continuous
 62
     7
100
AcDbCircle
 10
220.5964079215339
 20
168.4232512356149
 30
0.0
 40
10.36928870519236
100
AcDbArc
 50
107.5412788904863
 51
108.7809195832982
  0
ARC
  5
166
330
42
100
AcDbEntity
  8
1
  6
Continuous
 62
     7
100
AcDbCircle
 10
220.5480687127732
 20
168.5761793544597
 30
0.0
 40
10.20890264396169
100
AcDbArc
 50
106.2821831158294
 51
107.541278890486
  0
ARC
  5
167
330
42
100
AcDbEntity
  8
1
  6
Continuous
 62
     7
100
AcDbCircle
 10
220.8860044407605
 20
167.4191938532999
 30
0.0
 40
11.4142308175911
100
AcDbArc
 50
105.0757513555046
 51
106.2821831158292
  0
ARC
  5
168
330
42
100
AcDbEntity
  8
1
  6
Continuous
 62
     7
100
AcDbCircle
 10
220.7690891686751
 20
167.8532313916555
 30
0.0
 40
10.96472245777039
100
AcDbArc
 50
103.8199205938915
 51
105.0757513555047
  0
ARC
  5
169
330
42
100
AcDbEntity
  8
1
  6
Continuous
 62
     7
100
AcDbCircle
 10
221.070612608856
 20
166.6274877132995
 30
0.0
 40
12.22700766722522
100
AcDbArc
 50
102.6937346699965
 51
103.8199205938914
  0
ARC
  5
16A
330
42
100
AcDbEntity
  8
1
  6
Continuous
 62
     7
100
AcDbCircle
 10
220.9560603824842
 20
167.1360553264103
 30
0.0
 40
11.70569851741866
100
AcDbArc
 50
101.5173686532746
 51
102.6937346699962
  0
ARC
  5
16B
330
42
100
AcDbEntity
  8
1
  6
Continuous
 62
     7
100
AcDbCircle
 10
221.2150758412044
 20
165.8649261504869
 30
0.0
 40
13.00294883626225
100
AcDbArc
 50
99.90415945348336
 51
101.5173686532748
  0
ARC
  5
16C
330
42
100
AcDbEntity
  8
1
  6
Continuous
 62
     7
100
AcDbCircle
 10
221.3529103497706
 20
165.0755083966799
 30
0.0
 40
13.80430939292649
100
AcDbArc
 50
89.86482183245605
 51
99.90415945348369
  0
ARC
  5
16D
330
42
100
AcDbEntity
  8
1
  6
Continuous
 62
     7
100
AcDbCircle
 10
221.4230101124142
 20
186.4257603669141
 30
0.0
 40
15.04879521345429
100
AcDbArc
 50
-95.52015507168299
 51
-92.10231899770722
  0
ARC
  5
16E
330
42
100
AcDbEntity
  8
1
  6
Continuous
 62
     7
100
AcDbCircle
 10
221.1653976029845
 20
183.7601809348115
 30
0.0
 40
12.37079634977571
100
AcDbArc
 50
-97.26773891007071
 51
-95.52015507168311
  0
ARC
  5
16F
330
42
100
AcDbEntity
  8
1
  6
Continuous
 62
     7
100
AcDbCircle
 10
221.4539292884255
 20
186.0226299015004
 30
0.0
 40
14.65156943370468
100
AcDbArc
 50
-99.23506863878247
 51
-97.26773891007026
  0
ARC
  5
170
330
42
100
AcDbEntity
  8
1
  6
Continuous
 62
     7
100
AcDbCircle
 10
220.9501569895545
 20
182.9242628398602
 30
0.0
 40
11.51251464320394
100
AcDbArc
 50
-101.0850469664562
 51
-99.23506863878237
  0
ARC
  5
171
330
42
100
AcDbEntity
  8
1
  6
Continuous
 62
     7
100
AcDbCircle
 10
221.6168430108529
 20
186.3270904045363
 30
0.0
 40
14.98003619121393
100
AcDbArc
 50
-102.0042784085321
 51
-101.0850469664567
  0
ARC
  5
172
330
42
100
AcDbEntity
  8
1
  6
Continuous
 62
     7
100
AcDbCircle
 10
220.6322443371643
 20
181.6966180717894
 30
0.0
 40
10.24604120045158
100
AcDbArc
 50
-103.3482250596797
 51
-102.0042784085315
  0
ARC
  5
173
330
42
100
AcDbEntity
  8
1
  6
Continuous
 62
     7
100
AcDbCircle
 10
221.4514016290503
 20
185.1489156077597
 30
0.0
 40
13.79419240153026
100
AcDbArc
 50
-104.3464513927028
 51
-103.3482250596799
  0
ARC
  5
174
330
42
100
AcDbEntity
  8
1
  6
Continuous
 62
     7
100
AcDbCircle
 10
220.4297831376981
 20
181.1544796336318
 30
0.0
 40
9.671180990767487
100
AcDbArc
 50
-105.7702813021655
 51
-104.346451392703
  0
ARC
  5
175
330
42
100
AcDbEntity
  8
1
  6
Continuous
 62
     7
100
AcDbCircle
 10
221.2893686250469
 20
184.1982153966568
 30
0.0
 40
12.83396688380198
100
AcDbArc
 50
-106.8075455656305
 51
-105.7702813021653
  0
ARC
  5
176
330
42
100
AcDbEntity
  8
1
  6
Continuous
 62
     7
100
AcDbCircle
 10
220.1559807492289
 20
180.4460395823211
 30
0.0
 40
8.914350650197346
100
AcDbArc
 50
-108.2495259808238
 51
-106.8075455656303
  0
ARC
  5
177
330
42
100
AcDbEntity
  8
1
  6
Continuous
 62
     7
100
AcDbCircle
 10
220.9583605369598
 20
182.879400543584
 30
0.0
 40
11.47658773750145
100
AcDbArc
 50
-109.3695396236095
 51
-108.2495259808237
  0
ARC
  5
178
330
42
100
AcDbEntity
  8
1
  6
Continuous
 62
     7
100
AcDbCircle
 10
219.8678346085161
 20
179.7774216409033
 30
0.0
 40
8.188500160613661
100
AcDbArc
 50
-110.9392628444718
 51
-109.3695396236103
  0
ARC
  5
179
330
42
100
AcDbEntity
  8
1
  6
Continuous
 62
     7
100
AcDbCircle
 10
220.6191764248597
 20
181.7409528709201
 30
0.0
 40
10.29087249115796
100
AcDbArc
 50
-112.1883200410674
 51
-110.9392628444715
  0
ARC
  5
17A
330
42
100
AcDbEntity
  8
1
  6
Continuous
 62
     7
100
AcDbCircle
 10
219.572597687913
 20
179.1748947945879
 30
0.0
 40
7.519594608350366
100
AcDbArc
 50
-113.8227982794911
 51
-112.1883200410672
  0
ARC
  5
17B
330
42
100
AcDbEntity
  8
1
  6
Continuous
 62
     7
100
AcDbCircle
 10
220.902329043009
 20
182.1865532272266
 30
0.0
 40
10.81174770193656
100
AcDbArc
 50
-114.3650964115901
 51
-113.8227982794908
  0
ARC
  5
17C
330
42
100
AcDbEntity
  8
1
  6
Continuous
 62
     7
100
AcDbCircle
 10
219.308648257946
 20
178.667606875798
 30
0.0
 40
6.948743447614267
100
AcDbArc
 50
-116.0526713983704
 51
-114.3650964115905
  0
ARC
  5
17D
330
42
100
AcDbEntity
  8
1
  6
Continuous
 62
     7
100
AcDbCircle
 10
219.8113128758535
 20
179.6958219751444
 30
0.0
 40
8.093251205831834
100
AcDbArc
 50
-117.5014862998781
 51
-116.0526713983698
  0
ARC
  5
17E
330
42
100
AcDbEntity
  8
1
  6
Continuous
 62
     7
100
AcDbCircle
 10
218.9454456880472
 20
178.0326119252055
 30
0.0
 40
6.218152899838889
100
AcDbArc
 50
-119.3871845679662
 51
-117.5014862998782
  0
ARC
  5
17F
330
42
100
AcDbEntity
  8
1
  6
Continuous
 62
     7
100
AcDbCircle
 10
219.3849080023334
 20
178.8129399375411
 30
0.0
 40
7.113719163447209
100
AcDbArc
 50
-121.035751955632
 51
-119.387184567966
  0
ARC
  5
180
330
42
100
AcDbEntity
  8
1
  6
Continuous
 62
     7
100
AcDbCircle
 10
218.3378831377931
 20
177.0728583326157
 30
0.0
 40
5.082920045177401
100
AcDbArc
 50
-122.0664445012147
 51
-121.0357519556325
  0
ARC
  5
181
330
42
100
AcDbEntity
  8
1
  6
Continuous
 62
     7
100
AcDbCircle
 10
219.5718344679964
 20
179.0425068597566
 30
0.0
 40
7.407172872599357
100
AcDbArc
 50
-122.7737975081305
 51
-122.0664445012149
  0
ARC
  5
182
330
42
100
AcDbEntity
  8
1
  6
Continuous
 62
     7
100
AcDbCircle
 10
218.1362046133238
 20
176.8126064576152
 30
0.0
 40
4.755100308905598
100
AcDbArc
 50
-123.8756986249889
 51
-122.7737975081292
  0
ARC
  5
183
330
42
100
AcDbEntity
  8
1
  6
Continuous
 62
     7
100
AcDbCircle
 10
219.2326305773043
 20
178.4457562823842
 30
0.0
 40
6.722161122564663
100
AcDbArc
 50
-124.6551210958358
 51
-123.8756986249891
  0
ARC
  5
184
330
42
100
AcDbEntity
  8
1
  6
Continuous
 62
     7
100
AcDbCircle
 10
218.1325588964793
 20
176.8543891807907
 30
0.0
 40
4.787579267230743
100
AcDbArc
 50
-126.843672368498
 51
-124.6551210958363
  0
ARC
  5
185
330
42
100
AcDbEntity
  8
1
  6
Continuous
 62
     7
100
AcDbCircle
 10
218.3794137223908
 20
177.1838430007971
 30
0.0
 40
5.199255261906927
100
AcDbArc
 50
-128.8588113082437
 51
-126.8436723684969
  0
ARC
  5
186
330
42
100
AcDbEntity
  8
1
  6
Continuous
 62
     7
100
AcDbCircle
 10
217.7619486131316
 20
176.4174834581856
 30
0.0
 40
4.215095666259932
100
AcDbArc
 50
-131.3452923310556
 51
-128.858811308246
  0
ARC
  5
187
330
42
100
AcDbEntity
  8
1
  6
Continuous
 62
     7
100
AcDbCircle
 10
218.2367992885611
 20
176.9571336883347
 30
0.0
 40
4.933917991216386
100
AcDbArc
 50
-132.2820522794474
 51
-131.3452923310532
  0
ARC
  5
188
330
42
100
AcDbEntity
  8
1
  6
Continuous
 62
     7
100
AcDbCircle
 10
217.3599687315022
 20
175.9929028836974
 30
0.0
 40
3.63062490430012
100
AcDbArc
 50
-133.5553652408595
 51
-132.2820522794484
  0
ARC
  5
189
330
42
100
AcDbEntity
  8
1
  6
Continuous
 62
     7
100
AcDbCircle
 10
217.9408642844487
 20
176.6038556320092
 30
0.0
 40
4.473656875284983
100
AcDbArc
 50
-134.5887716794222
 51
-133.5553652408597
  0
ARC
  5
18A
330
42
100
AcDbEntity
  8
1
  6
Continuous
 62
     7
100
AcDbCircle
 10
217.2732197579387
 20
175.9265579015898
 30
0.0
 40
3.522614589469157
100
AcDbArc
 50
-137.2132816830952
 51
-134.5887716794237
  0
ARC
  5
18B
330
42
100
AcDbEntity
  8
1
  6
Continuous
 62
     7
100
AcDbCircle
 10
217.3065590689818
 20
175.9574160898178
 30
0.0
 40
3.568042966520627
100
AcDbArc
 50
-139.8037585192724
 51
-137.213281683093
  0
ARC
  5
18C
330
42
100
AcDbEntity
  8
1
  6
Continuous
 62
     7
100
AcDbCircle
 10
216.9059672446506
 20
175.6189347936538
 30
0.0
 40
3.043597166104961
100
AcDbArc
 50
-142.8410941137331
 51
-139.8037585192739
  0
ARC
  5
18D
330
42
100
AcDbEntity
  8
1
  6
Continuous
 62
     7
100
AcDbCircle
 10
216.9400381182502
 20
175.6447574996907
 30
0.0
 40
3.086348032469239
100
AcDbArc
 50
-145.6699962989146
 51
-142.8410941137335
  0
ARC
  5
18E
330
42
100
AcDbEntity
  8
1
  6
Continuous
 62
     7
100
AcDbCircle
 10
216.5894407204356
 20
175.4053270461217
 30
0.0
 40
2.661794764373503
100
AcDbArc
 50
-148.7565705502377
 51
-145.6699962989097
  0
ARC
  5
18F
330
42
100
AcDbEntity
  8
1
  6
Continuous
 62
     7
100
AcDbCircle
 10
216.6969600809158
 20
175.4705545265661
 30
0.0
 40
2.787552615354008
100
AcDbArc
 50
-150.2301874763819
 51
-148.7565705502403
  0
ARC
  5
190
330
42
100
AcDbEntity
  8
1
  6
Continuous
 62
     7
100
AcDbCircle
 10
216.3614482762684
 20
175.2786397844103
 30
0.0
 40
2.401030378846826
100
AcDbArc
 50
-151.940680944457
 51
-150.2301874763812
  0
ARC
  5
191
330
42
100
AcDbEntity
  8
1
  6
Continuous
 62
     7
100
AcDbCircle
 10
216.5272977657214
 20
175.36704389356
 30
0.0
 40
2.588970102339215
100
AcDbArc
 50
-153.5265783904473
 51
-151.9406809444596
  0
ARC
  5
192
330
42
100
AcDbEntity
  8
1
  6
Continuous
 62
     7
100
AcDbCircle
 10
216.222493927911
 20
175.2152508055561
 30
0.0
 40
2.248460893785736
100
AcDbArc
 50
-155.3522457584905
 51
-153.5265783904467
  0
ARC
  5
193
330
42
100
AcDbEntity
  8
1
  6
Continuous
 62
     7
100
AcDbCircle
 10
216.3689956804322
 20
175.282472300546
 30
0.0
 40
2.40964865039418
100
AcDbArc
 50
-157.0556017668811
 51
-155.3522457584896
  0
ARC
  5
194
330
42
100
AcDbEntity
  8
1
  6
Continuous
 62
     7
100
AcDbCircle
 10
216.1249718235035
 20
175.1791696807428
 30
0.0
 40
2.144659831746014
100
AcDbArc
 50
-160.8845667336191
 51
-157.0556017668826
  0
ARC
  5
195
330
42
100
AcDbEntity
  8
1
  6
Continuous
 62
     7
100
AcDbCircle
 10
216.0880893652098
 20
175.1663868574349
 30
0.0
 40
2.105625022901622
100
AcDbArc
 50
-166.3044518216361
 51
-160.8845667336146
  0
ARC
  5
196
330
42
100
AcDbEntity
  8
1
  6
Continuous
 62
     7
100
AcDbCircle
 10
215.988308439001
 20
175.1420711030042
 30
0.0
 40
2.002924053341302
100
AcDbArc
 50
-172.0042121996578
 51
-166.3044518216422
  0
ARC
  5
197
330
42
100
AcDbEntity
  8
1
  6
Continuous
 62
     7
100
AcDbCircle
 10
215.9307122041863
 20
175.1339807979657
 30
0.0
 40
1.944762388127637
100
AcDbArc
 50
-175.9153786330338
 51
-172.0042121996574
  0
ARC
  5
198
330
42
100
AcDbEntity
  8
1
  6
Continuous
 62
     7
100
AcDbCircle
 10
215.8503038062023
 20
175.1282387450465
 30
0.0
 40
1.864149227675541
100
AcDbArc
 50
-179.9936886629506
 51
-175.9153786330297
  0
ARC
  5
199
330
42
100
AcDbEntity
  8
1
  6
Continuous
 62
     7
100
AcDbCircle
 10
207.818351801705
 20
175.1280334022766
 30
0.0
 40
5.434150291649884
100
AcDbArc
 50
136.3635352807717
 51
-136.3635352807791
  0
ARC
  5
19A
330
42
100
AcDbEntity
  8
1
  6
Continuous
 62
     7
100
AcDbCircle
 10
90.66973979515817
 20
315.8626635222514
 30
0.0
 40
17.5000000000001
100
AcDbArc
 50
-179.652403796256
 51
-120.3113494532925
  0
ARC
  5
19B
330
42
100
AcDbEntity
  8
1
  6
Continuous
 62
     7
100
AcDbCircle
 10
90.66973979515817
 20
315.8626635222514
 30
0.0
 40
19.00000000000006
100
AcDbArc
 50
-157.0804578484298
 51
-142.9195421515699
  0
ARC
  5
19C
330
42
100
AcDbEntity
  8
1
  6
Continuous
 62
     7
100
AcDbCircle
 10
90.66973979515817
 20
315.8626635222514
 30
0.0
 40
18.99999999999999
100
AcDbArc
 50
-37.08045784843026
 51
-22.91954215157023
  0
ARC
  5
19D
330
42
100
AcDbEntity
  8
1
  6
Continuous
 62
     7
100
AcDbCircle
 10
90.66973979515817
 20
315.8626635222514
 30
0.0
 40
17.49999999999998
100
AcDbArc
 50
-59.41753820468065
 51
-0.54606386077448
  0
ARC
  5
19E
330
42
100
AcDbEntity
  8
1
  6
Continuous
 62
     7
100
AcDbCircle
 10
90.66973979515817
 20
315.8626635222514
 30
0.0
 40
17.49999999999998
100
AcDbArc
 50
60.41043240325832
 51
90.0
  0
ARC
  5
19F
330
42
100
AcDbEntity
  8
1
  6
Continuous
 62
     7
100
AcDbCircle
 10
90.66973979515817
 20
315.8626635222514
 30
0.0
 40
18.99999999999994
100
AcDbArc
 50
82.91954215156999
 51
90.0
  0
ARC
  5
1A0
330
42
100
AcDbEntity
  8
1
  6
Continuous
 62
     7
100
AcDbCircle
 10
90.66973979515817
 20
315.8626635222514
 30
0.0
 40
18.99999999999989
100
AcDbArc
 50
90.0
 51
97.08045784843036
  0
ARC
  5
1A1
330
42
100
AcDbEntity
  8
1
  6
Continuous
 62
     7
100
AcDbCircle
 10
90.66973979515817
 20
315.8626635222514
 30
0.0
 40
17.5
100
AcDbArc
 50
90.0
 51
119.5169235212386
  0
SPLINE
  5
1A2
330
42
100
AcDbEntity
  8
1
  6
Continuous
 62
     7
100
AcDbSpline
210
0.0
220
0.0
230
1.0
 70
    11
 71
     3
 72
   737
 73
   733
 74
   731
 42
0.0000000001
 43
0.0000000001
 44
0.00000001
 40
0.0
 40
0.0
 40
0.0
 40
0.0
 40
0.0340539925253528
 40
0.0681080185747602
 40
0.1019825146336867
 40
0.135857014570229
 40
0.1697304488502559
 40
0.2036037260463031
 40
0.2329076500439509
 40
0.2622116669342493
 40
0.3005145696507231
 40
0.3388176632488014
 40
0.3726624246454566
 40
0.4065070204687918
 40
0.440351466987288
 40
0.4741958818818344
 40
0.508190497752392
 40
0.5421851630379785
 40
0.5761825714955479
 40
0.6101800970574203
 40
0.65068327003654
 40
0.6911865725292774
 40
0.7316922418774472
 40
0.7721977779382061
 40
0.8126998704484031
 40
0.8532023684966766
 40
0.9058263363518719
 40
0.9584499949505094
 40
0.9926369334505756
 40
1.026823573007099
 40
1.061010687653873
 40
1.095197896197697
 40
1.135621131247847
 40
1.176044590160307
 40
1.216473690455698
 40
1.256902673300568
 40
1.297339287650962
 40
1.337776137113084
 40
1.385230593488968
 40
1.432684816786413
 40
1.480139582707741
 40
1.5275951803286
 40
1.575046707841553
 40
1.622496101251424
 40
1.66993174322181
 40
1.717371565471645
 40
1.72706263488577
 40
1.73675210038417
 40
1.786536827256213
 40
1.836354821059306
 40
1.88615914826297
 40
1.935953971997305
 40
1.985752189726428
 40
2.035552736201113
 40
2.085352175539625
 40
2.135151825570008
 40
2.187386313311491
 40
2.239617131639629
 40
2.291894474911318
 40
2.344177025332583
 40
2.396509913891341
 40
2.448839946522129
 40
2.501141356916616
 40
2.553445357160638
 40
2.563471847137838
 40
2.573497279982704
 40
2.628205193522907
 40
2.682938656544424
 40
2.737661525804425
 40
2.792377094278205
 40
2.847095250431258
 40
2.901815223349733
 40
2.956534355972075
 40
3.011253538128761
 40
3.057038805598037
 40
3.102822111233896
 40
3.148622508525259
 40
3.194425111609224
 40
3.240258473578434
 40
3.286091093443865
 40
3.331938524117621
 40
3.377785766666607
 40
3.42360783934978
 40
3.469431144135927
 40
3.478646569599844
 40
3.487861316394275
 40
3.535472960934515
 40
3.583099701901597
 40
3.630720510309134
 40
3.678336904804921
 40
3.725954822549885
 40
3.773573945881595
 40
3.821192670121008
 40
3.868810990930121
 40
3.916429347708613
 40
3.964048120099111
 40
4.013511281477777
 40
4.062973084593192
 40
4.112448519016209
 40
4.161925538086991
 40
4.211427042782526
 40
4.260928004668195
 40
4.310440632316873
 40
4.359953142655981
 40
4.409445585708867
 40
4.458938863350126
 40
4.466508591338082
 40
4.474077979581464
 40
4.525044834517269
 40
4.57602424211995
 40
4.626998622530261
 40
4.677969329586035
 40
4.728941299434562
 40
4.77991427317223
 40
4.830886915297002
 40
4.881859219433161
 40
4.932831551646077
 40
4.983804238319997
 40
5.036290078997941
 40
5.0887747617582
 40
5.141271012938048
 40
5.193768613215999
 40
5.24628673213061
 40
5.298804362294015
 40
5.351331697791039
 40
5.403859003896932
 40
5.45636941278999
 40
5.508880341257871
 40
5.514227567024871
 40
5.519574653479727
 40
5.573124108292568
 40
5.626684670757903
 40
5.680240686384503
 40
5.733793448413928
 40
5.787347323804453
 40
5.840902088854554
 40
5.894456560537067
 40
5.948010730959344
 40
6.001564924734595
 40
6.055119439702552
 40
6.109740953399245
 40
6.164361419018312
 40
6.218992301682311
 40
6.273624403876494
 40
6.328274737569834
 40
6.382924604281767
 40
6.437583024499983
 40
6.492241485495229
 40
6.54688485895266
 40
6.601528521587574
 40
6.604290033486125
 40
6.607051506051631
 40
6.653027528365858
 40
6.699012020790774
 40
6.744993119476344
 40
6.790971700307585
 40
6.836951156005944
 40
6.882931284832799
 40
6.928911161508883
 40
6.974890867886419
 40
7.020870657971045
 40
7.066850455775953
 40
7.11283018133426
 40
7.158810050249379
 40
7.205245965525593
 40
7.251681357344102
 40
7.298118744722206
 40
7.344556735639261
 40
7.391005322832063
 40
7.437453643231461
 40
7.483914828513333
 40
7.53037610994802
 40
7.576846232648197
 40
7.62331631894557
 40
7.669786867906775
 40
7.716257449227822
 40
7.762719203925871
 40
7.80918092915484
 40
7.855632666992002
 40
7.902084412682257
 40
7.948527788146295
 40
7.994971161731543
 40
8.041408535337617
 40
8.0878459084499
 40
8.134280478467121
 40
8.180715052277417
 40
8.227150961660598
 40
8.273586856202138
 40
8.319567003145231
 40
8.365547161207351
 40
8.41153199438857
 40
8.457516829549757
 40
8.503504513310958
 40
8.549492181805048
 40
8.59548057651546
 40
8.641469016808781
 40
8.687455898175834
 40
8.733442661905915
 40
8.779425140357194
 40
8.825407863422049
 40
8.828169372504181
 40
8.830930847787046
 40
8.885553136212108
 40
8.940185522275396
 40
8.994813680362809
 40
9.049438876750141
 40
9.104065080837618
 40
9.158692096592958
 40
9.213318848000299
 40
9.267945317925653
 40
9.322571805064754
 40
9.377198612447403
 40
9.430749069055571
 40
9.484298491606229
 40
9.537858435898315
 40
9.591419539374861
 40
9.644997650284211
 40
9.698575357973937
 40
9.752160857664299
 40
9.805746277259825
 40
9.859316772197456
 40
9.912887836797271
 40
9.918235061460006
 40
9.923582149239753
 40
9.976069345957725
 40
10.0285669603276
 40
10.08106031717573
 40
10.13355062154618
 40
10.18604196921091
 40
10.23853415475333
 40
10.29102607063159
 40
10.34351769100952
 40
10.39600932570631
 40
10.44850131115438
 40
10.4994700805212
 40
10.55043772018717
 40
10.60141716116903
 40
10.65239784623967
 40
10.7033968955747
 40
10.75439556057421
 40
10.80540254951095
 40
10.8564093139302
 40
10.90739943836838
 40
10.95839051206677
 40
10.96596023614751
 40
10.97352962939843
 40
11.02299497098242
 40
11.07247169337819
 40
11.12194387351449
 40
11.17141272142716
 40
11.22088271281764
 40
11.2703536204904
 40
11.31982423706855
 40
11.36929452453863
 40
11.41876482355961
 40
11.46823553050976
 40
11.51585036957284
 40
11.56346389847112
 40
11.6110914835938
 40
11.65872048741454
 40
11.70637053375911
 40
11.75402019651242
 40
11.80167926923546
 40
11.84933792793075
 40
11.89697689738961
 40
11.94461732493196
 40
11.95383274040353
 40
11.96304750063672
 40
12.00883605480713
 40
12.05463785745302
 40
12.10043448470564
 40
12.14622723235709
 40
12.19202131019989
 40
12.23781646810492
 40
12.28361130920737
 40
12.32940571399739
 40
12.37520008282695
 40
12.42099512740986
 40
12.47571067916798
 40
12.53042378728689
 40
12.58517013287862
 40
12.63992000240064
 40
12.69470093885136
 40
12.74947939167363
 40
12.80423496460551
 40
12.85899348839654
 40
12.86901996155435
 40
12.87904541894925
 40
12.9312852593079
 40
12.98354694655874
 40
13.03579960426618
 40
13.08804605938138
 40
13.14029479798345
 40
13.19254492671121
 40
13.24479421387295
 40
13.2970441631574
 40
13.34684014379324
 40
13.39663214301078
 40
13.4464677856217
 40
13.49630862725229
 40
13.54618903978007
 40
13.59606584369771
 40
13.64591249726363
 40
13.6957633749879
 40
13.70545439427444
 40
13.71514388818831
 40
13.76256117792398
 40
13.81000745096364
 40
13.85744182615485
 40
13.90486792873743
 40
13.95229700137317
 40
13.9997281010456
 40
14.04715840336067
 40
14.09458890542749
 40
14.13499751915088
 40
14.1754013307441
 40
14.21585636226026
 40
14.25631721832018
 40
14.29680536912172
 40
14.33729148308438
 40
14.37149071704244
 40
14.40569021608311
 40
14.4398624743652
 40
14.47403431600486
 40
14.5266574182366
 40
14.57928265609198
 40
14.6197870174041
 40
14.66029037217875
 40
14.70079320073843
 40
14.74129631624701
 40
14.78180052680199
 40
14.82230459727074
 40
14.86001935982871
 40
14.89773407014292
 40
14.93544735995901
 40
14.97316072283585
 40
15.01086880904691
 40
15.04857665252519
 40
15.07900072221568
 40
15.1094245891798
 40
15.1398466246284
 40
15.17026913784555
 40
15.22212817346465
 40
15.27398763140578
 40
15.31175100756837
 40
15.34951379670275
 40
15.38728210983912
 40
15.4250505839416
 40
15.4628224151536
 40
15.50059418837755
 40
15.53734679064415
 40
15.57409938593363
 40
15.6108485463918
 40
15.64759761119842
 40
15.6843402169367
 40
15.72108321056331
 40
15.77592095848192
 40
15.83076066263328
 40
15.88560036685671
 40
15.94043811478353
 40
15.97718110221721
 40
16.01392370179623
 40
16.05067276286779
 40
16.08742191955392
 40
16.12417452388029
 40
16.16092713530126
 40
16.1986989329997
 40
16.23647078844231
 40
16.27423927364663
 40
16.31200759853516
 40
16.3497703566458
 40
16.38753369944087
 40
16.43939315206123
 40
16.49125218937734
 40
16.52167485744553
 40
16.55209704685379
 40
16.58252077288789
 40
16.6129446982096
 40
16.65065168612719
 40
16.68835892471318
 40
16.72607182871873
 40
16.76378465107698
 40
16.80150046222009
 40
16.83921635227381
 40
16.87972341375214
 40
16.92023055412815
 40
16.96073492548987
 40
17.00123916943127
 40
17.04173935363294
 40
17.08223997044969
 40
17.13486395643325
 40
17.18748756164635
 40
17.22167455995615
 40
17.25586127930866
 40
17.29004833864813
 40
17.32423548748281
 40
17.3646586928818
 40
17.40508212243512
 40
17.4455112289895
 40
17.48594021806
 40
17.52637684336839
 40
17.56681370363492
 40
17.61426816373033
 40
17.66172239102247
 40
17.70917715699895
 40
17.75663275459268
 40
17.80408428296415
 40
17.85153367730019
 40
17.89896932060332
 40
17.94640914414914
 40
17.95610021356162
 40
17.96578967905906
 40
18.01557440590606
 40
18.06539239975253
 40
18.11519672696628
 40
18.16499155069162
 40
18.21478976841816
 40
18.26459031489538
 40
18.31438975423457
 40
18.36418940426419
 40
18.41642389200538
 40
18.46865471033387
 40
18.5209320536057
 40
18.57321460402685
 40
18.62554749258559
 40
18.67787752521638
 40
18.73017893561088
 40
18.78248293585489
 40
18.79250942583204
 40
18.8025348586768
 40
18.85724277221704
 40
18.91197623523852
 40
18.96669910449853
 40
19.02141467297233
 40
19.07613282912541
 40
19.13085280204392
 40
19.18557193466626
 40
19.24029111682302
 40
19.28607638429234
 40
19.33185968992821
 40
19.37766008721956
 40
19.42346269030346
 40
19.46929605227268
 40
19.51512867213816
 40
19.56097610281199
 40
19.60682334536094
 40
19.652645418044
 40
19.69846872283021
 40
19.70768414829416
 40
19.71689889508866
 40
19.76451053962893
 40
19.81213728059593
 40
19.85975808900341
 40
19.90737448349921
 40
19.95499240124416
 40
20.00261152457583
 40
20.05023024881527
 40
20.09784856962442
 40
20.14546692640285
 40
20.19308569879331
 40
20.24254886017203
 40
20.29201066328744
 40
20.34148609771051
 40
20.39096311678127
 40
20.44046462147677
 40
20.48996558336246
 40
20.53947821101112
 40
20.58899072135023
 40
20.63848316440314
 40
20.6879764420444
 40
20.69554617003236
 40
20.70311555827569
 40
20.75408241321148
 40
20.80506182081425
 40
20.85603620122457
 40
20.90700690828034
 40
20.95797887812889
 40
21.00895185186659
 40
21.0599244939914
 40
21.11089679812751
 40
21.16186913034047
 40
21.2128418170144
 40
21.26532765769231
 40
21.31781234045257
 40
21.37030859163241
 40
21.42280619191039
 40
21.47532431082498
 40
21.52784194098839
 40
21.58036927648546
 40
21.63289658259128
 40
21.68540699148424
 40
21.73791791995214
 40
21.74326514571926
 40
21.74861223217421
 40
21.8021616869871
 40
21.85572224945238
 40
21.909278265079
 40
21.9628310271084
 40
22.01638490249895
 40
22.06993966754906
 40
22.12349413923156
 40
22.1770483096538
 40
22.23060250342904
 40
22.28415701839701
 40
22.33877853209368
 40
22.39339899771277
 40
22.44802988037674
 40
22.50266198257091
 40
22.55731231626424
 40
22.6119621829762
 40
22.66662060319434
 40
22.7212790641896
 40
22.77592243764709
 40
22.83056610028193
 40
22.83332761218049
 40
22.83608908474602
 40
22.88206510706018
 40
22.92804959948519
 40
22.97403069817076
 40
23.02000927900199
 40
23.06598873470036
 40
23.1119688635272
 40
23.15794874020326
 40
23.2039284465808
 40
23.24990823666544
 40
23.29588803447036
 40
23.34186776002867
 40
23.38784762894377
 40
23.43428354421997
 40
23.48071893603845
 40
23.52715632341657
 40
23.57359431433367
 40
23.62004290152644
 40
23.66649122192581
 40
23.7129524072077
 40
23.75941368864236
 40
23.80588381134254
 40
23.85235389763989
 40
23.89882444660109
 40
23.9452950279221
 40
23.99175678262014
 40
24.03821850784912
 40
24.0846702456863
 40
24.13112199137659
 40
24.1775653668406
 40
24.22400874042586
 40
24.27044611403189
 40
24.31688348714417
 40
24.36331805716141
 40
24.40975263097169
 40
24.45618854035487
 40
24.50262443489642
 40
24.54860458183954
 40
24.59458473990166
 40
24.64056957308288
 40
24.68655440824409
 40
24.73254209200534
 40
24.77852976049942
 40
24.82451815520984
 40
24.87050659550315
 40
24.91649347687022
 40
24.96248024060031
 40
25.00846271905161
 40
25.05444544211645
 40
25.05720695119852
 40
25.05996842648135
 40
25.11459071490643
 40
25.16922310096974
 40
25.22385125905714
 40
25.27847645544444
 40
25.33310265953197
 40
25.3877296752873
 40
25.44235642669467
 40
25.49698289662007
 40
25.55160938375916
 40
25.60623619114181
 40
25.65978664774993
 40
25.71333607030059
 40
25.76689601459271
 40
25.82045711806929
 40
25.87403522897863
 40
25.9276129366683
 40
25.98119843635868
 40
26.03478385595424
 40
26.08835435089192
 40
26.14192541549167
 40
26.14727264015436
 40
26.15261972793406
 40
26.20510692465203
 40
26.25760453902194
 40
26.31009789587006
 40
26.36258820024052
 40
26.4150795479053
 40
26.46757173344773
 40
26.52006364932596
 40
26.57255526970389
 40
26.62504690440072
 40
26.67753888984881
 40
26.72850765921561
 40
26.77947529888157
 40
26.83045473986343
 40
26.88143542493406
 40
26.93243447426907
 40
26.9834331392686
 40
27.03444012820536
 40
27.08544689262462
 40
27.13643701706282
 40
27.18742809076118
 40
27.19499781484189
 40
27.20256720809276
 40
27.25203254967675
 40
27.30150927207256
 40
27.35098145220886
 40
27.40045030012155
 40
27.44992029151201
 40
27.49939119918477
 40
27.54886181576292
 40
27.59833210323302
 40
27.64780240225399
 40
27.69727310920415
 40
27.74488794826719
 40
27.79250147716547
 40
27.8401290622881
 40
27.88775806610882
 40
27.9354081124534
 40
27.98305777520665
 40
28.03071684792969
 40
28.07837550662495
 40
28.12601447608381
 40
28.17365490362608
 40
28.18287031909777
 40
28.19208507933102
 40
28.23787363350142
 40
28.2836754361473
 40
28.32947206339993
 40
28.37526481105135
 40
28.42105888889417
 40
28.4668540467992
 40
28.51264888790166
 40
28.55844329269165
 40
28.60423766152121
 40
28.65003270610411
 40
28.70474825786222
 40
28.75946136598114
 40
28.81420771157288
 40
28.86895758109492
 40
28.92373851754568
 40
28.97851697036797
 40
29.03327254329982
 40
29.08803106709088
 40
29.09805754024869
 40
29.10808299764358
 40
29.1603228380023
 40
29.21258452525309
 40
29.26483718296053
 40
29.31708363807574
 40
29.36933237667783
 40
29.4215825054056
 40
29.47383179256733
 40
29.5260817418518
 40
29.57587772248762
 40
29.62566972170514
 40
29.67550536431612
 40
29.72534620594668
 40
29.77522661847448
 40
29.82510342239206
 40
29.87495007595796
 40
29.92480095368221
 40
29.93449197296874
 40
29.94418146688261
 40
29.99159875661832
 40
30.03904502965795
 40
30.08647940484918
 40
30.13390550743174
 40
30.18133458006751
 40
30.22876567973993
 40
30.27619598205505
 40
30.32362648412189
 40
30.36403509784417
 40
30.40443890943626
 40
30.44489394095136
 40
30.48535479701024
 40
30.52584294781398
 40
30.56632906177882
 40
30.60052829574108
 40
30.63472779478595
 40
30.66890005306376
 40
30.70307189469916
 40
30.75569499693084
 40
30.80832023478632
 40
30.84882459618576
 40
30.88932795104771
 40
30.92983077966136
 40
30.97033389522395
 40
31.0108381056389
 40
31.05134217596752
 40
31.08905693818436
 40
31.12677164815747
 40
31.16448493781267
 40
31.20219830052884
 40
31.23990638723465
 40
31.2776142312065
 40
31.30803830166472
 40
31.3384621694022
 40
31.36888420410002
 40
31.39930671654466
 40
31.45116575209876
 40
31.50302521006513
 40
31.54078860233343
 40
31.57855140752988
 40
31.61631973035497
 40
31.65408821420866
 40
31.69186002043454
 40
31.7296317684648
 40
31.76638430663751
 40
31.80313683834604
 40
31.83988596943744
 40
31.87663500321876
 40
31.9133776965091
 40
31.95012078364274
 40
32.00495854859685
 40
32.05979824081211
 40
32.11463791153384
 40
32.16947567495783
 40
32.20622149098767
 40
32.24296689856151
 40
32.27971758801286
 40
32.31646840463305
 40
32.35321684141304
 40
32.38996517806359
 40
32.42402193041125
 40
32.45807862101771
 40
32.45807862101771
 40
32.45807862101771
 40
32.45807862101771
 10
88.29139701112229
 20
174.7410134338644
 30
0.0
 10
88.28931852888147
 20
174.7298538171943
 30
0.0
 10
88.28516156235372
 20
174.7075345728683
 30
0.0
 10
88.27833192838882
 20
174.6742317475433
 30
0.0
 10
88.27108287811397
 20
174.6410798496722
 30
0.0
 10
88.26337130612052
 20
174.6080938999573
 30
0.0
 10
88.25519410305866
 20
174.5752208330447
 30
0.0
 10
88.24693482789029
 20
174.5439415222975
 30
0.0
 10
88.23866360381379
 20
174.5142439812021
 30
0.0
 10
88.22960817193854
 20
174.4832347171412
 30
0.0
 10
88.21922495797227
 20
174.4494911483239
 30
0.0
 10
88.20782789686064
 20
174.4144809898751
 30
0.0
 10
88.19638279761293
 20
174.3810540655599
 30
0.0
 10
88.18496067207008
 20
174.3491938711125
 30
0.0
 10
88.17307842783903
 20
174.3175025167903
 30
0.0
 10
88.16071596643975
 20
174.2859416285904
 30
0.0
 10
88.14786913540203
 20
174.254520708046
 30
0.0
 10
88.13455810719508
 20
174.2232383105273
 30
0.0
 10
88.1208242960933
 20
174.192138233797
 30
0.0
 10
88.10578841877143
 20
174.1592449100241
 30
0.0
 10
88.08938363413088
 20
174.1245961702365
 30
0.0
 10
88.07152610093462
 20
174.0882396469566
 30
0.0
 10
88.05315598315251
 20
174.0521385616779
 30
0.0
 10
88.03428577720827
 20
174.0162968542836
 30
0.0
 10
88.01492758926678
 20
173.9807175612745
 30
0.0
 10
87.99311411773925
 20
173.9418800834874
 30
0.0
 10
87.96867921868447
 20
173.8998857961622
 30
0.0
 10
87.9446071321577
 20
173.8601241345027
 30
0.0
 10
87.92321946930073
 20
173.8259285651887
 30
0.0
 10
87.90475476012919
 20
173.797156127265
 30
0.0
 10
87.88595144844767
 20
173.7686037058888
 30
0.0
 10
87.8656426979866
 20
173.738556581319
 30
0.0
 10
87.84374888847705
 20
173.707075254781
 30
0.0
 10
87.82020914778099
 20
173.6742091303052
 30
0.0
 10
87.79623245932491
 20
173.6416581155022
 30
0.0
 10
87.77183882393123
 20
173.6094130034873
 30
0.0
 10
87.7470502637308
 20
173.5774673206234
 30
0.0
 10
87.72043268642339
 20
173.543980537104
 30
0.0
 10
87.69193408529087
 20
173.5090044515621
 30
0.0
 10
87.66148001488817
 20
173.4726093203056
 30
0.0
 10
87.63055328774088
 20
173.4366145107389
 30
0.0
 10
87.59917816098448
 20
173.4010112714686
 30
0.0
 10
87.56737796254551
 20
173.3657895510302
 30
0.0
 10
87.53511200361061
 20
173.3310023125263
 30
0.0
 10
87.5023372790036
 20
173.2967000713014
 30
0.0
 10
87.47802833065202
 20
173.2717201468643
 30
0.0
 10
87.46246089985571
 20
173.2557903205173
 30
0.0
 10
87.44622642733644
 20
173.2394191826695
 30
0.0
 10
87.41947814641483
 20
173.2146582896922
 30
0.0
 10
87.38204009867864
 20
173.1818194381052
 30
0.0
 10
87.3451904106098
 20
173.1483082726486
 30
0.0
 10
87.3085493979662
 20
173.1145838110609
 30
0.0
 10
87.2717079762775
 20
173.0810791134859
 30
0.0
 10
87.23486390521656
 20
173.0475752879998
 30
0.0
 10
87.19821701928038
 20
173.0138554037131
 30
0.0
 10
87.16077054035434
 20
172.9798058340509
 30
0.0
 10
87.12210231181714
 20
172.9459037785433
 30
0.0
 10
87.08200624991603
 20
172.9123956201229
 30
0.0
 10
87.0409471379716
 20
172.8800493735291
 30
0.0
 10
86.99917040521927
 20
172.8485850021691
 30
0.0
 10
86.95692508692028
 20
172.8177247245619
 30
0.0
 10
86.91431248927204
 20
172.7873634146401
 30
0.0
 10
86.87143526200362
 20
172.7573952696104
 30
0.0
 10
86.84008553313527
 20
172.7355491355013
 30
0.0
 10
86.82034916282491
 20
172.7216861576239
 30
0.0
 10
86.79988660484015
 20
172.707462506954
 30
0.0
 10
86.76638773076634
 20
172.6859033024991
 30
0.0
 10
86.71971919204694
 20
172.6573333080301
 30
0.0
 10
86.67348088530338
 20
172.628059114943
 30
0.0
 10
86.62739845446245
 20
172.5985545230054
 30
0.0
 10
86.58117161993084
 20
172.5692773560205
 30
0.0
 10
86.53493847530598
 20
172.5400082237196
 30
0.0
 10
86.48883879940138
 20
172.510528850417
 30
0.0
 10
86.44512451197176
 20
172.4828469750967
 30
0.0
 10
86.4036079592579
 20
172.4572675810652
 30
0.0
 10
86.36424382540461
 20
172.4338706968396
 30
0.0
 10
86.32440012881867
 20
172.4112882052211
 30
0.0
 10
86.28417610099589
 20
172.3893585339316
 30
0.0
 10
86.2436751719772
 20
172.3679226502553
 30
0.0
 10
86.20294119817046
 20
172.3469010159437
 30
0.0
 10
86.16202873673517
 20
172.3262192095855
 30
0.0
 10
86.12098219205646
 20
172.3058129943654
 30
0.0
 10
86.0798416774127
 20
172.28561574034
 30
0.0
 10
86.04966177433158
 20
172.2708001808866
 30
0.0
 10
86.03046386352996
 20
172.2613048082338
 30
0.0
 10
86.01068997349999
 20
172.2516290225727
 30
0.0
 10
85.97897260166636
 20
172.2372457396825
 30
0.0
 10
85.93524573363418
 20
172.2183915924654
 30
0.0
 10
85.89174073150133
 20
172.1990208665092
 30
0.0
 10
85.84832546904843
 20
172.1794606462624
 30
0.0
 10
85.80485180199176
 20
172.1600310699949
 30
0.0
 10
85.76134973639452
 20
172.140663620128
 30
0.0
 10
85.71785015606861
 20
172.1212901989193
 30
0.0
 10
85.67437578109281
 20
172.1018607911945
 30
0.0
 10
85.63094905545921
 20
172.082325256285
 30
0.0
 10
85.58688629133546
 20
172.062704510639
 30
0.0
 10
85.54206044296845
 20
172.0432911686095
 30
0.0
 10
85.49639586671461
 20
172.0242667135364
 30
0.0
 10
85.4504013036704
 20
172.0060418609288
 30
0.0
 10
85.4041432079208
 20
171.9884624815591
 30
0.0
 10
85.35769208336058
 20
171.971376137773
 30
0.0
 10
85.31107813005156
 20
171.9547045536863
 30
0.0
 10
85.26434050139719
 20
171.9383724013073
 30
0.0
 10
85.21751202478799
 20
171.9223116971435
 30
0.0
 10
85.17062176852042
 20
171.9064529963636
 30
0.0
 10
85.1369713482824
 20
171.8950857475779
 30
0.0
 10
85.11657445006841
 20
171.8881492228637
 30
0.0
 10
85.09569109124337
 20
171.8811172785535
 30
0.0
 10
85.06080329464817
 20
171.8703469086798
 30
0.0
 10
85.01185383816981
 20
171.8561292268542
 30
0.0
 10
84.96305526780766
 20
171.8413899950953
 30
0.0
 10
84.9143192179663
 20
171.8264582325241
 30
0.0
 10
84.86554299569434
 20
171.8116587612159
 30
0.0
 10
84.81674721321008
 20
171.7969221304554
 30
0.0
 10
84.76795321570961
 20
171.7821791315459
 30
0.0
 10
84.71917641923136
 20
171.7673799196638
 30
0.0
 10
84.67043200079759
 20
171.7524745758775
 30
0.0
 10
84.62115405136221
 20
171.7375885403768
 30
0.0
 10
84.57125833966131
 20
171.7230093572122
 30
0.0
 10
84.52069578271568
 20
171.7089128925192
 30
0.0
 10
84.46991609322205
 20
171.6956041804365
 30
0.0
 10
84.41896338643457
 20
171.6829316224144
 30
0.0
 10
84.36788536926309
 20
171.67074462143
 30
0.0
 10
84.31670095020931
 20
171.6589690687648
 30
0.0
 10
84.2654367787392
 20
171.6475324555099
 30
0.0
 10
84.21411648764448
 20
171.636362221793
 30
0.0
 10
84.16276032124736
 20
171.6253849434316
 30
0.0
 10
84.12677794351026
 20
171.617720854871
 30
0.0
 10
84.10617734253111
 20
171.6133057773595
 30
0.0
 10
84.08522944157404
 20
171.6088590458439
 30
0.0
 10
84.04838639204823
 20
171.6019123821972
 30
0.0
 10
83.9956098971695
 20
171.5928178817489
 30
0.0
 10
83.94292430875042
 20
171.5831933816375
 30
0.0
 10
83.89027848126744
 20
171.573372434568
 30
0.0
 10
83.8376078227495
 20
171.5636862404667
 30
0.0
 10
83.78492500936858
 20
171.5540638791216
 30
0.0
 10
83.73224334649625
 20
171.5444345618899
 30
0.0
 10
83.67957221008537
 20
171.5347486830001
 30
0.0
 10
83.6269207592448
 20
171.5249565954696
 30
0.0
 10
83.57388846326873
 20
171.5152662127824
 30
0.0
 10
83.52042598534436
 20
171.5059601487771
 30
0.0
 10
83.46650561289967
 20
171.4972087406206
 30
0.0
 10
83.4124611815153
 20
171.4892348061965
 30
0.0
 10
83.35831857059507
 20
171.4818890673736
 30
0.0
 10
83.30410697528177
 20
171.4750227818191
 30
0.0
 10
83.2498364374913
 20
171.4685657490755
 30
0.0
 10
83.19552399288651
 20
171.4624484564623
 30
0.0
 10
83.14118489239046
 20
171.4565939315082
 30
0.0
 10
83.08683120587679
 20
171.450924754304
 30
0.0
 10
83.04967917726299
 20
171.4470889617228
 30
0.0
 10
83.02973110178412
 20
171.4450155201161
 30
0.0
 10
83.01265467511448
 20
171.4432606184556
 30
0.0
 10
82.98117995653314
 20
171.4406958416616
 30
0.0
 10
82.93530081503533
 20
171.4376556660693
 30
0.0
 10
82.88945029712065
 20
171.4341785221684
 30
0.0
 10
82.84361468992488
 20
171.430542898477
 30
0.0
 10
82.79776987553728
 20
171.4270265655035
 30
0.0
 10
82.75192158105335
 20
171.4235514736462
 30
0.0
 10
82.70607598031916
 20
171.4200396186816
 30
0.0
 10
82.66023080949167
 20
171.4165237189534
 30
0.0
 10
82.61438347984444
 20
171.4130364689899
 30
0.0
 10
82.56853798443703
 20
171.4095248198901
 30
0.0
 10
82.52269848704185
 20
171.4059357345365
 30
0.0
 10
82.47669918528641
 20
171.402439562493
 30
0.0
 10
82.43052703646627
 20
171.3992215873873
 30
0.0
 10
82.38417572922266
 20
171.396400539015
 30
0.0
 10
82.337794767604
 20
171.3941026898838
 30
0.0
 10
82.29138975805603
 20
171.3922522764705
 30
0.0
 10
82.24496787902581
 20
171.3907736928412
 30
0.0
 10
82.19852855164535
 20
171.3896423418552
 30
0.0
 10
82.15207832561976
 20
171.3888338083248
 30
0.0
 10
82.1056168329917
 20
171.3883098379339
 30
0.0
 10
82.05915031165668
 20
171.3880322293223
 30
0.0
 10
82.01267997043962
 20
171.3879664726797
 30
0.0
 10
81.96620960718671
 20
171.3880780188767
 30
0.0
 10
81.91974261865877
 20
171.3883313812107
 30
0.0
 10
81.87327928317566
 20
171.3886910631339
 30
0.0
 10
81.82682326017974
 20
171.3891668635734
 30
0.0
 10
81.78037202715694
 20
171.3897686286674
 30
0.0
 10
81.73392885737457
 20
171.3905060643443
 30
0.0
 10
81.68749100365531
 20
171.3913889637268
 30
0.0
 10
81.64106114061985
 20
171.3924270431571
 30
0.0
 10
81.59463724984542
 20
171.3936301202799
 30
0.0
 10
81.5482211391892
 20
171.3950079069438
 30
0.0
 10
81.50181179340488
 20
171.3965702033335
 30
0.0
 10
81.45540986825523
 20
171.3983267520329
 30
0.0
 10
81.4090156603268
 20
171.4002873251439
 30
0.0
 10
81.36278226716763
 20
171.4024544790575
 30
0.0
 10
81.31671150251617
 20
171.4048353016291
 30
0.0
 10
81.27080260182446
 20
171.407424937503
 30
0.0
 10
81.22490472747037
 20
171.410228851388
 30
0.0
 10
81.17901776842136
 20
171.4132444950234
 30
0.0
 10
81.13314407972092
 20
171.4164691544294
 30
0.0
 10
81.08728425290619
 20
171.4199012105073
 30
0.0
 10
81.04144003476242
 20
171.4235389512786
 30
0.0
 10
80.99561243496669
 20
171.4273771204179
 30
0.0
 10
80.9498021475993
 20
171.4314104756489
 30
0.0
 10
80.90401217892384
 20
171.4356470771077
 30
0.0
 10
80.85824369153107
 20
171.440095142277
 30
0.0
 10
80.82682768301504
 20
171.4432661154456
 30
0.0
 10
80.80974849011764
 20
171.4450156374564
 30
0.0
 10
80.78980666017722
 20
171.4470805357391
 30
0.0
 10
80.75274986142466
 20
171.4517092449525
 30
0.0
 10
80.69865351861637
 20
171.4593026005189
 30
0.0
 10
80.64448283523977
 20
171.4663684003796
 30
0.0
 10
80.59029000582268
 20
171.4732367561775
 30
0.0
 10
80.53611448568054
 20
171.480239530063
 30
0.0
 10
80.48194689252753
 20
171.4873064690554
 30
0.0
 10
80.42777838990715
 20
171.4943672634358
 30
0.0
 10
80.37360255070941
 20
171.501370462712
 30
0.0
 10
80.31941277026424
 20
171.5082646377345
 30
0.0
 10
80.26560018431403
 20
171.5152820886542
 30
0.0
 10
80.21220199186297
 20
171.5226908075265
 30
0.0
 10
80.15924076603014
 20
171.5306425205697
 30
0.0
 10
80.10639442658938
 20
171.5393472980309
 30
0.0
 10
80.05364392318563
 20
171.5486658470002
 30
0.0
 10
80.00097358962366
 20
171.5584583575109
 30
0.0
 10
79.94837295556846
 20
171.5686606047117
 30
0.0
 10
79.89583790478969
 20
171.5792069908904
 30
0.0
 10
79.84336291575724
 20
171.5900359286526
 30
0.0
 10
79.79093920006599
 20
171.601086393933
 30
0.0
 10
79.75426033276619
 20
171.608872960159
 30
0.0
 10
79.73330218007115
 20
171.6133056395728
 30
0.0
 10
79.71270614944436
 20
171.617704675986
 30
0.0
 10
79.67691460590217
 20
171.6261890303806
 30
0.0
 10
79.62603020146041
 20
171.6390795522489
 30
0.0
 10
79.5750190320135
 20
171.6514713004692
 30
0.0
 10
79.52396597892148
 20
171.6636755103437
 30
0.0
 10
79.47294352725292
 20
171.6760065246822
 30
0.0
 10
79.42193555230581
 20
171.688399085266
 30
0.0
 10
79.37092653301515
 20
171.7007878026224
 30
0.0
 10
79.31990379135291
 20
171.7131192838422
 30
0.0
 10
79.26885449104378
 20
171.7253401720537
 30
0.0
 10
79.2183393228169
 20
171.7376121499617
 30
0.0
 10
79.16842529567916
 20
171.7502007062782
 30
0.0
 10
79.11915136791579
 20
171.7632542007506
 30
0.0
 10
79.07007806867773
 20
171.7770577821289
 30
0.0
 10
79.02117163637232
 20
171.7914755436599
 30
0.0
 10
78.97240203993732
 20
171.806370575967
 30
0.0
 10
78.92375165469537
 20
171.8216791508777
 30
0.0
 10
78.87520946186891
 20
171.837335288012
 30
0.0
 10
78.82676696413998
 20
171.8532879097172
 30
0.0
 10
78.77841212238231
 20
171.869486966193
 30
0.0
 10
78.74380422300382
 20
171.8811395783395
 30
0.0
 10
78.72290490501813
 20
171.8881487956085
 30
0.0
 10
78.70250894786067
 20
171.8950596841422
 30
0.0
 10
78.66916670239583
 20
171.9072777265906
 30
0.0
 10
78.62299783894694
 20
171.9250473594987
 30
0.0
 10
78.57664621106332
 20
171.942343632038
 30
0.0
 10
78.5302318103963
 20
171.9594608713514
 30
0.0
 10
78.48386203390422
 20
171.9766982210979
 30
0.0
 10
78.43751385104758
 20
171.9939949031635
 30
0.0
 10
78.39116491784233
 20
172.011289901591
 30
0.0
 10
78.34479487070298
 20
172.0285277768148
 30
0.0
 10
78.29838320235777
 20
172.0456531393773
 30
0.0
 10
78.25261467266013
 20
172.0627350504062
 30
0.0
 10
78.20759086400781
 20
172.0800375869884
 30
0.0
 10
78.16336949196108
 20
172.0977066000423
 30
0.0
 10
78.11944977548838
 20
172.1161251494166
 30
0.0
 10
78.07578137078022
 20
172.1351599765172
 30
0.0
 10
78.03231821639172
 20
172.1546760868034
 30
0.0
 10
77.98903440685359
 20
172.1746102786687
 30
0.0
 10
77.94591116352049
 20
172.1948958267069
 30
0.0
 10
77.90293863061432
 20
172.2154903712431
 30
0.0
 10
77.86010296019794
 20
172.236353272106
 30
0.0
 10
77.82881461892167
 20
172.2516595319427
 30
0.0
 10
77.80901511436913
 20
172.2613039294413
 30
0.0
 10
77.78981194455731
 20
172.270763239967
 30
0.0
 10
77.76009091502779
 20
172.2864552436302
 30
0.0
 10
77.71998030118201
 20
172.3085523006337
 30
0.0
 10
77.67962143242096
 20
172.3302002369156
 30
0.0
 10
77.63917534021293
 20
172.3516764979843
 30
0.0
 10
77.5987897025977
 20
172.3732658534997
 30
0.0
 10
77.55843469154503
 20
172.3949136114028
 30
0.0
 10
77.51808130778774
 20
172.4165646598248
 30
0.0
 10
77.47769542013232
 20
172.4381546252566
 30
0.0
 10
77.43724278337305
 20
172.4596191859868
 30
0.0
 10
77.39427047957682
 20
172.482679677208
 30
0.0
 10
77.34901628762262
 20
172.5077689561589
 30
0.0
 10
77.30166468981136
 20
172.535212226768
 30
0.0
 10
77.25495231909574
 20
172.5637517653694
 30
0.0
 10
77.2087512860066
 20
172.5931497574497
 30
0.0
 10
77.16293738396409
 20
172.6231657795209
 30
0.0
 10
77.11748535510093
 20
172.6537302800723
 30
0.0
 10
77.07236890718528
 20
172.6847734610229
 30
0.0
 10
77.03963508363378
 20
172.7074950124484
 30
0.0
 10
77.0191290520779
 20
172.7216846329403
 30
0.0
 10
76.99938470607752
 20
172.7354998936795
 30
0.0
 10
76.96885310011322
 20
172.7584378411385
 30
0.0
 10
76.92775374011862
 20
172.7907002038727
 30
0.0
 10
76.88619308947932
 20
172.8223759155069
 30
0.0
 10
76.84449023861782
 20
172.8538533107165
 30
0.0
 10
76.80294399834034
 20
172.8855365568563
 30
0.0
 10
76.76138896086641
 20
172.9172097459509
 30
0.0
 10
76.71966141549491
 20
172.9486556942457
 30
0.0
 10
76.67876626713836
 20
172.9798474749444
 30
0.0
 10
76.63903724248812
 20
173.0112090896652
 30
0.0
 10
76.60063091255799
 20
173.0429321042378
 30
0.0
 10
76.56311961032441
 20
173.0757314010221
 30
0.0
 10
76.52631945833478
 20
173.109365691941
 30
0.0
 10
76.49004990111172
 20
173.1435902138357
 30
0.0
 10
76.45428177414038
 20
173.1783412116913
 30
0.0
 10
76.41898431068282
 20
173.2135547654914
 30
0.0
 10
76.39330335828289
 20
173.2394396706658
 30
0.0
 10
76.37702136678395
 20
173.2557934982073
 30
0.0
 10
76.3614168248822
 20
173.2716774984795
 30
0.0
 10
76.33802334541799
 20
173.2975324937669
 30
0.0
 10
76.30710666238559
 20
173.3335017434397
 30
0.0
 10
76.27556994510388
 20
173.368939121488
 30
0.0
 10
76.24384398662103
 20
173.4041955462189
 30
0.0
 10
76.21233742708448
 20
173.4396475510059
 30
0.0
 10
76.18080694494898
 20
173.4750802172157
 30
0.0
 10
76.14901182773608
 20
173.5102757217242
 30
0.0
 10
76.1190616324748
 20
173.5439842660965
 30
0.0
 10
76.09138271157016
 20
173.5765661031722
 30
0.0
 10
76.06605364560134
 20
173.6080776593406
 30
0.0
 10
76.04179885068429
 20
173.6404445431681
 30
0.0
 10
76.01832923059622
 20
173.6734144774087
 30
0.0
 10
75.99535111317714
 20
173.7067399104589
 30
0.0
 10
75.97387468734578
 20
173.7385623604332
 30
0.0
 10
75.95370879588604
 20
173.7687396456028
 30
0.0
 10
75.93489715449641
 20
173.7972900216313
 30
0.0
 10
75.91634223137612
 20
173.8259973033399
 30
0.0
 10
75.89483962884879
 20
173.8601091773321
 30
0.0
 10
75.87075533750748
 20
173.8998590153322
 30
0.0
 10
75.84636777428888
 20
173.9418817459621
 30
0.0
 10
75.8245687309153
 20
173.980728839123
 30
0.0
 10
75.80520870924003
 20
174.0163072349536
 30
0.0
 10
75.78632912156911
 20
174.052142464653
 30
0.0
 10
75.76794835220898
 20
174.0882365125911
 30
0.0
 10
75.75008546199074
 20
174.1245901865458
 30
0.0
 10
75.73315751293876
 20
174.1603629657328
 30
0.0
 10
75.71714048889916
 20
174.1955333240999
 30
0.0
 10
75.70200857897083
 20
174.2300802938534
 30
0.0
 10
75.68739327565515
 20
174.2648485353194
 30
0.0
 10
75.67331258188183
 20
174.2998344141098
 30
0.0
 10
75.65978390479496
 20
174.3350355479811
 30
0.0
 10
75.64765943249699
 20
174.3681684750624
 30
0.0
 10
75.63683181703064
 20
174.3991857803011
 30
0.0
 10
75.62718518571927
 20
174.4280401493095
 30
0.0
 10
75.61791736546265
 20
174.4570178739599
 30
0.0
 10
75.6069382378237
 20
174.492946582102
 30
0.0
 10
75.59461551008286
 20
174.5359326352247
 30
0.0
 10
75.58260932260936
 20
174.5815433280478
 30
0.0
 10
75.57257074433493
 20
174.6228032211199
 30
0.0
 10
75.56422541365792
 20
174.6596360804251
 30
0.0
 10
75.55646734585042
 20
174.6965988114757
 30
0.0
 10
75.54930133924498
 20
174.7336839718308
 30
0.0
 10
75.54273285627575
 20
174.7708807993577
 30
0.0
 10
75.53682064454149
 20
174.807844686472
 30
0.0
 10
75.53155095868863
 20
174.8445623499571
 30
0.0
 10
75.52691495342282
 20
174.8810218459139
 30
0.0
 10
75.52287414057982
 20
174.9175509583147
 30
0.0
 10
75.51943868853827
 20
174.9541386597252
 30
0.0
 10
75.51661842874032
 20
174.990776956458
 30
0.0
 10
75.51406315072887
 20
175.0334769464295
 30
0.0
 10
75.51219921516432
 20
175.082253878
 30
0.0
 10
75.51150586859529
 20
175.1370943494898
 30
0.0
 10
75.51219921098519
 20
175.1919348210566
 30
0.0
 10
75.51406314833002
 20
175.2407117506054
 30
0.0
 10
75.51661843583037
 20
175.283411735915
 30
0.0
 10
75.51943870549968
 20
175.3200500265097
 30
0.0
 10
75.52287416575398
 20
175.3566377225534
 30
0.0
 10
75.52691498162407
 20
175.3931668350892
 30
0.0
 10
75.53155098088274
 20
175.429626336594
 30
0.0
 10
75.53682064809085
 20
175.4663440170248
 30
0.0
 10
75.54273282332075
 20
175.5033079294339
 30
0.0
 10
75.54930126538652
 20
175.5405047844468
 30
0.0
 10
75.55646724045577
 20
175.5775899669727
 30
0.0
 10
75.56422529795876
 20
175.6145526975931
 30
0.0
 10
75.57257065421035
 20
175.6513855333305
 30
0.0
 10
75.58260932331886
 20
175.6926453809838
 30
0.0
 10
75.59461572390737
 20
175.7382560049451
 30
0.0
 10
75.60693839250462
 20
175.7812421227143
 30
0.0
 10
75.61791704556539
 20
175.8171710832065
 30
0.0
 10
75.62718451254304
 20
175.8461489805596
 30
0.0
 10
75.63683109466729
 20
175.875003322092
 30
0.0
 10
75.64765924437931
 20
175.9060200428249
 30
0.0
 10
75.6597854473182
 20
175.9391516874567
 30
0.0
 10
75.67331643690505
 20
175.9743511602817
 30
0.0
 10
75.68739903942338
 20
176.0093356280272
 30
0.0
 10
75.70201509272411
 20
176.0441036060386
 30
0.0
 10
75.7171456295353
 20
176.0786518022376
 30
0.0
 10
75.73315835326648
 20
176.1138260055108
 30
0.0
 10
75.7500775664198
 20
176.1496054949073
 30
0.0
 10
75.76793042748861
 20
176.1859667652561
 30
0.0
 10
75.78630349609934
 20
176.2220668533114
 30
0.0
 10
75.80518059558928
 20
176.2579032544175
 30
0.0
 10
75.82454695190369
 20
176.2934761722969
 30
0.0
 10
75.84636738601967
 20
176.3323082689894
 30
0.0
 10
75.87080269822911
 20
176.3743015215736
 30
0.0
 10
75.89487244228636
 20
176.4140646127398
 30
0.0
 10
75.91625939630148
 20
176.4482606660363
 30
0.0
 10
75.93472411521094
 20
176.4770331332747
 30
0.0
 10
75.95352776793895
 20
176.5055853174454
 30
0.0
 10
75.97383695290013
 20
176.5356320896663
 30
0.0
 10
75.9957310193993
 20
176.5671131876246
 30
0.0
 10
76.01927085899936
 20
176.5999792186164
 30
0.0
 10
76.04324751747254
 20
176.6325302477515
 30
0.0
 10
76.06764104411508
 20
176.6647754514239
 30
0.0
 10
76.09242945705682
 20
176.6967212602435
 30
0.0
 10
76.1190468852614
 20
176.7302081733487
 30
0.0
 10
76.1475453907383
 20
176.7651843452852
 30
0.0
 10
76.17799941528595
 20
176.8015795186409
 30
0.0
 10
76.20892613900801
 20
176.837574333194
 30
0.0
 10
76.24030129147626
 20
176.873177550368
 30
0.0
 10
76.27210153272468
 20
176.9083992330288
 30
0.0
 10
76.30436753776414
 20
176.9431864301509
 30
0.0
 10
76.33714229817259
 20
176.9774886386875
 30
0.0
 10
76.36145125935157
 20
177.0024685517944
 30
0.0
 10
76.3770186907926
 20
177.0183983781113
 30
0.0
 10
76.39325316247614
 20
177.0347695167731
 30
0.0
 10
76.42000144328925
 20
177.0595304099374
 30
0.0
 10
76.45743949173729
 20
177.0923692607172
 30
0.0
 10
76.49428917987423
 20
177.1258804261309
 30
0.0
 10
76.53093019232114
 20
177.1596048879297
 30
0.0
 10
76.56777161399421
 20
177.1931095855185
 30
0.0
 10
76.60461568510715
 20
177.2266134109474
 30
0.0
 10
76.6412625710479
 20
177.2603332952306
 30
0.0
 10
76.67870904995957
 20
177.2943828649083
 30
0.0
 10
76.71737727849578
 20
177.3282849204169
 30
0.0
 10
76.75747334040075
 20
177.3617930788329
 30
0.0
 10
76.79853245234554
 20
177.3941393254262
 30
0.0
 10
76.84030918509703
 20
177.4256036967875
 30
0.0
 10
76.88255450339588
 20
177.4564639743946
 30
0.0
 10
76.92516710104447
 20
177.4868252843161
 30
0.0
 10
76.9680443283128
 20
177.5167934293459
 30
0.0
 10
76.99939405718114
 20
177.5386395634552
 30
0.0
 10
77.01913042749123
 20
177.5525025413326
 30
0.0
 10
77.03959298547605
 20
177.5667261920025
 30
0.0
 10
77.07309185954966
 20
177.5882853964575
 30
0.0
 10
77.11976039826918
 20
177.6168553909263
 30
0.0
 10
77.16599870501277
 20
177.6461295840134
 30
0.0
 10
77.21208113585368
 20
177.675634175951
 30
0.0
 10
77.25830797038529
 20
177.7049113429361
 30
0.0
 10
77.30454111501015
 20
177.7341804752369
 30
0.0
 10
77.35064079091484
 20
177.7636598485395
 30
0.0
 10
77.39435507834443
 20
177.7913417238599
 30
0.0
 10
77.43587163105829
 20
177.8169211178914
 30
0.0
 10
77.47523576491162
 20
177.840318002117
 30
0.0
 10
77.51507946149751
 20
177.8629004937354
 30
0.0
 10
77.55530348932034
 20
177.884830165025
 30
0.0
 10
77.59580441833907
 20
177.9062660487011
 30
0.0
 10
77.63653839214575
 20
177.9272876830129
 30
0.0
 10
77.67745085358114
 20
177.9479694893711
 30
0.0
 10
77.71849739825979
 20
177.9683757045912
 30
0.0
 10
77.75963791290363
 20
177.9885729586163
 30
0.0
 10
77.78981781598466
 20
178.0033885180699
 30
0.0
 10
77.80901572678637
 20
178.0128838907227
 30
0.0
 10
77.82878961681627
 20
178.022559676384
 30
0.0
 10
77.86050698864996
 20
178.0369429592741
 30
0.0
 10
77.90423385668211
 20
178.0557971064912
 30
0.0
 10
77.94773885881502
 20
178.0751678324472
 30
0.0
 10
77.99115412126778
 20
178.0947280526939
 30
0.0
 10
78.03462778832454
 20
178.1141576289616
 30
0.0
 10
78.0781298539217
 20
178.1335250788285
 30
0.0
 10
78.12162943424764
 20
178.1528985000371
 30
0.0
 10
78.16510380922344
 20
178.1723279077621
 30
0.0
 10
78.20853053485706
 20
178.1918634426714
 30
0.0
 10
78.25259329898074
 20
178.2114841883175
 30
0.0
 10
78.29741914734782
 20
178.2308975303468
 30
0.0
 10
78.34308372360169
 20
178.2499219854201
 30
0.0
 10
78.38907828664587
 20
178.2681468380275
 30
0.0
 10
78.43533638239552
 20
178.2857262173974
 30
0.0
 10
78.48178750695573
 20
178.3028125611832
 30
0.0
 10
78.52840146026475
 20
178.31948414527
 30
0.0
 10
78.57513908891914
 20
178.335816297649
 30
0.0
 10
78.62196756552832
 20
178.3518770018127
 30
0.0
 10
78.66885782179584
 20
178.3677357025927
 30
0.0
 10
78.7025082420339
 20
178.3791029513786
 30
0.0
 10
78.72290514024782
 20
178.3860394760928
 30
0.0
 10
78.74378849907286
 20
178.3930714204031
 30
0.0
 10
78.77867629566809
 20
178.4038417902766
 30
0.0
 10
78.82762575214642
 20
178.4180594721025
 30
0.0
 10
78.87642432250863
 20
178.4327987038614
 30
0.0
 10
78.92516037234998
 20
178.4477304664324
 30
0.0
 10
78.973936594622
 20
178.4625299377406
 30
0.0
 10
79.02273237710625
 20
178.4772665685011
 30
0.0
 10
79.07152637460675
 20
178.4920095674107
 30
0.0
 10
79.12030317108503
 20
178.5068087792928
 30
0.0
 10
79.16904758951877
 20
178.5217141230789
 30
0.0
 10
79.21832553895416
 20
178.5366001585797
 30
0.0
 10
79.26822125065506
 20
178.5511793417441
 30
0.0
 10
79.3187838076007
 20
178.5652758064375
 30
0.0
 10
79.36956349709431
 20
178.57858451852
 30
0.0
 10
79.42051620388176
 20
178.5912570765423
 30
0.0
 10
79.4715942210532
 20
178.6034440775268
 30
0.0
 10
79.52277864010696
 20
178.615219630192
 30
0.0
 10
79.57404281157704
 20
178.6266562434471
 30
0.0
 10
79.62536310267184
 20
178.6378264771637
 30
0.0
 10
79.6767192690688
 20
178.6488037555251
 30
0.0
 10
79.71270164680612
 20
178.6564678440856
 30
0.0
 10
79.73330224778525
 20
178.660882921597
 30
0.0
 10
79.75425014874244
 20
178.6653296531126
 30
0.0
 10
79.79109319826824
 20
178.6722763167592
 30
0.0
 10
79.84386969314703
 20
178.6813708172076
 30
0.0
 10
79.89655528156609
 20
178.6909953173191
 30
0.0
 10
79.94920110904897
 20
178.7008162643883
 30
0.0
 10
80.00187176756703
 20
178.7105024584898
 30
0.0
 10
80.05455458094787
 20
178.7201248198349
 30
0.0
 10
80.10723624382021
 20
178.7297541370666
 30
0.0
 10
80.15990738023112
 20
178.7394400159564
 30
0.0
 10
80.21255883107162
 20
178.7492321034869
 30
0.0
 10
80.26559112704776
 20
178.7589224861741
 30
0.0
 10
80.31905360497206
 20
178.7682285501793
 30
0.0
 10
80.37297397741681
 20
178.7769799583359
 30
0.0
 10
80.42701840880109
 20
178.78495389276
 30
0.0
 10
80.48116101972136
 20
178.792299631583
 30
0.0
 10
80.53537261503462
 20
178.7991659171375
 30
0.0
 10
80.58964315282508
 20
178.8056229498812
 30
0.0
 10
80.64395559742982
 20
178.8117402424942
 30
0.0
 10
80.69829469792595
 20
178.8175947674488
 30
0.0
 10
80.7526483844394
 20
178.8232639446524
 30
0.0
 10
80.78980041305363
 20
178.8270997372349
 30
0.0
 10
80.80974848853221
 20
178.8291731788404
 30
0.0
 10
80.82682491520191
 20
178.8309280805011
 30
0.0
 10
80.85829963378328
 20
178.8334928572946
 30
0.0
 10
80.90417877528103
 20
178.8365330328873
 30
0.0
 10
80.95002929319574
 20
178.840010176788
 30
0.0
 10
80.99586490039155
 20
178.8436458004797
 30
0.0
 10
81.04170971477907
 20
178.8471621334529
 30
0.0
 10
81.08755800926306
 20
178.8506372253103
 30
0.0
 10
81.13340360999719
 20
178.8541490802748
 30
0.0
 10
81.17924878082475
 20
178.8576649800031
 30
0.0
 10
81.22509611047191
 20
178.8611522299665
 30
0.0
 10
81.2709416058794
 20
178.8646638790665
 30
0.0
 10
81.31678110327457
 20
178.8682529644199
 30
0.0
 10
81.36278040502998
 20
178.8717491364634
 30
0.0
 10
81.4089525538501
 20
178.8749671115692
 30
0.0
 10
81.45530386109371
 20
178.8777881599414
 30
0.0
 10
81.50168482271236
 20
178.8800860090725
 30
0.0
 10
81.54808983226033
 20
178.881936422486
 30
0.0
 10
81.59451171129058
 20
178.8834150061153
 30
0.0
 10
81.64095103867102
 20
178.8845463571013
 30
0.0
 10
81.68740126469659
 20
178.8853548906317
 30
0.0
 10
81.73386275732463
 20
178.8858788610226
 30
0.0
 10
81.78032927865966
 20
178.8861564696342
 30
0.0
 10
81.82679961987672
 20
178.8862222262769
 30
0.0
 10
81.87326998312956
 20
178.8861106800797
 30
0.0
 10
81.91973697165756
 20
178.8858573177458
 30
0.0
 10
81.96620030714063
 20
178.8854976358226
 30
0.0
 10
82.01265633013655
 20
178.8850218353831
 30
0.0
 10
82.05910756315932
 20
178.884420070289
 30
0.0
 10
82.10555073294177
 20
178.8836826346121
 30
0.0
 10
82.15198858666093
 20
178.8827997352295
 30
0.0
 10
82.19841844969646
 20
178.8817616557993
 30
0.0
 10
82.24484234047081
 20
178.8805585786765
 30
0.0
 10
82.29125845112709
 20
178.8791807920126
 30
0.0
 10
82.3376677969114
 20
178.8776184956229
 30
0.0
 10
82.384069722061
 20
178.8758619469233
 30
0.0
 10
82.43046392998949
 20
178.8739013738125
 30
0.0
 10
82.47669732314866
 20
178.8717342198989
 30
0.0
 10
82.52276808780012
 20
178.8693533973274
 30
0.0
 10
82.5686769884918
 20
178.8667637614534
 30
0.0
 10
82.61457486284593
 20
178.8639598475685
 30
0.0
 10
82.66046182189498
 20
178.8609442039331
 30
0.0
 10
82.70633551059544
 20
178.8577195445272
 30
0.0
 10
82.75219533741019
 20
178.8542874884493
 30
0.0
 10
82.798039555554
 20
178.8506497476781
 30
0.0
 10
82.84386715534967
 20
178.8468115785388
 30
0.0
 10
82.88967744271707
 20
178.8427782233077
 30
0.0
 10
82.93546741139259
 20
178.838541621849
 30
0.0
 10
82.98123589878519
 20
178.8340935566798
 30
0.0
 10
83.01265190730169
 20
178.8309225835109
 30
0.0
 10
83.02973110019865
 20
178.8291730615001
 30
0.0
 10
83.04967293013944
 20
178.8271081632173
 30
0.0
 10
83.0867297288915
 20
178.8224794540039
 30
0.0
 10
83.14082607169998
 20
178.8148860984376
 30
0.0
 10
83.19499675507659
 20
178.8078202985771
 30
0.0
 10
83.24918958449362
 20
178.8009519427791
 30
0.0
 10
83.30336510463582
 20
178.7939491688935
 30
0.0
 10
83.3575326977888
 20
178.7868822299011
 30
0.0
 10
83.41170120040917
 20
178.7798214355207
 30
0.0
 10
83.46587703960702
 20
178.7728182362446
 30
0.0
 10
83.52006682005217
 20
178.765924061222
 30
0.0
 10
83.57387940600235
 20
178.7589066103024
 30
0.0
 10
83.6272775984534
 20
178.7514978914301
 30
0.0
 10
83.68023882428624
 20
178.7435461783869
 30
0.0
 10
83.73308516372701
 20
178.7348414009257
 30
0.0
 10
83.78583566713081
 20
178.7255228519564
 30
0.0
 10
83.83850600069279
 20
178.7157303414458
 30
0.0
 10
83.89110663474797
 20
178.705528094245
 30
0.0
 10
83.9436416855267
 20
178.6949817080663
 30
0.0
 10
83.99611667455915
 20
178.6841527703039
 30
0.0
 10
84.04854039025051
 20
178.6731023050237
 30
0.0
 10
84.08521925755014
 20
178.6653157387976
 30
0.0
 10
84.1061774102452
 20
178.6608830593837
 30
0.0
 10
84.12677344087193
 20
178.6564840229706
 30
0.0
 10
84.1625649844141
 20
178.6479996685758
 30
0.0
 10
84.21344938885591
 20
178.6351091467077
 30
0.0
 10
84.26446055830286
 20
178.6227173984873
 30
0.0
 10
84.31551361139486
 20
178.6105131886129
 30
0.0
 10
84.36653606306344
 20
178.5981821742743
 30
0.0
 10
84.41754403801053
 20
178.5857896136905
 30
0.0
 10
84.46855305730122
 20
178.5734008963341
 30
0.0
 10
84.51957579896347
 20
178.5610694151143
 30
0.0
 10
84.57062509927255
 20
178.5488485269026
 30
0.0
 10
84.6211402674995
 20
178.5365765489948
 30
0.0
 10
84.67105429463724
 20
178.5239879926783
 30
0.0
 10
84.72032822240064
 20
178.510934498206
 30
0.0
 10
84.76940152163873
 20
178.4971309168279
 30
0.0
 10
84.81830795394424
 20
178.4827131552971
 30
0.0
 10
84.86707755037922
 20
178.4678181229901
 30
0.0
 10
84.91572793562128
 20
178.4525095480797
 30
0.0
 10
84.96427012844777
 20
178.4368534109454
 30
0.0
 10
85.01271262617665
 20
178.42090078924
 30
0.0
 10
85.06106746793421
 20
178.4047017327639
 30
0.0
 10
85.09567536731268
 20
178.3930491206176
 30
0.0
 10
85.11657468529818
 20
178.386039903348
 30
0.0
 10
85.13697064245564
 20
178.3791290148143
 30
0.0
 10
85.1703128879204
 20
178.3669109723657
 30
0.0
 10
85.21648175136934
 20
178.3491413394577
 30
0.0
 10
85.26283337925298
 20
178.3318450669185
 30
0.0
 10
85.30924777991996
 20
178.3147278276049
 30
0.0
 10
85.35561755641213
 20
178.2974904778587
 30
0.0
 10
85.40196573926869
 20
178.2801937957928
 30
0.0
 10
85.448314672474
 20
178.2628987973655
 30
0.0
 10
85.4946847196133
 20
178.2456609221416
 30
0.0
 10
85.5410963879586
 20
178.2285355595793
 30
0.0
 10
85.58686491765621
 20
178.2114536485504
 30
0.0
 10
85.63188872630843
 20
178.1941511119679
 30
0.0
 10
85.67611009835518
 20
178.1764820989141
 30
0.0
 10
85.7200298148278
 20
178.1580635495397
 30
0.0
 10
85.76369821953593
 20
178.1390287224391
 30
0.0
 10
85.80716137392433
 20
178.1195126121528
 30
0.0
 10
85.85044518346248
 20
178.0995784202876
 30
0.0
 10
85.89356842679555
 20
178.0792928722493
 30
0.0
 10
85.93654095970177
 20
178.0586983277132
 30
0.0
 10
85.97937663011808
 20
178.0378354268503
 30
0.0
 10
86.01066497139442
 20
178.0225291670138
 30
0.0
 10
86.0304644759471
 20
178.0128847695153
 30
0.0
 10
86.04966764575896
 20
178.0034254589896
 30
0.0
 10
86.07938867528856
 20
177.9877334553265
 30
0.0
 10
86.1194992891343
 20
177.9656363983228
 30
0.0
 10
86.15985815789529
 20
177.9439884620409
 30
0.0
 10
86.20030425010341
 20
177.9225122009723
 30
0.0
 10
86.24068988771853
 20
177.9009228454568
 30
0.0
 10
86.28104489877116
 20
177.8792750875537
 30
0.0
 10
86.32139828252852
 20
177.8576240391316
 30
0.0
 10
86.36178417018391
 20
177.8360340736999
 30
0.0
 10
86.40223680694315
 20
177.8145695129696
 30
0.0
 10
86.44520911073938
 20
177.7915090217485
 30
0.0
 10
86.49046330269363
 20
177.7664197427977
 30
0.0
 10
86.53781490050481
 20
177.7389764721885
 30
0.0
 10
86.58452727122055
 20
177.7104369335872
 30
0.0
 10
86.6307283043097
 20
177.6810389415068
 30
0.0
 10
86.67654220635217
 20
177.6510229194356
 30
0.0
 10
86.72199423521536
 20
177.6204584188842
 30
0.0
 10
86.76711068313097
 20
177.5894152379335
 30
0.0
 10
86.79984450668258
 20
177.5666936865082
 30
0.0
 10
86.82035053823834
 20
177.5525040660161
 30
0.0
 10
86.84009488423881
 20
177.5386888052771
 30
0.0
 10
86.87062649020301
 20
177.5157508578179
 30
0.0
 10
86.91172585019774
 20
177.4834884950838
 30
0.0
 10
86.95328650083695
 20
177.4518127834495
 30
0.0
 10
86.99498935169851
 20
177.42033538824
 30
0.0
 10
87.03653559197599
 20
177.3886521421001
 30
0.0
 10
87.07809062944997
 20
177.3569789530056
 30
0.0
 10
87.11981817482146
 20
177.3255330047107
 30
0.0
 10
87.16071332317802
 20
177.294341224012
 30
0.0
 10
87.2004423478282
 20
177.2629796092912
 30
0.0
 10
87.23884867775846
 20
177.2312565947188
 30
0.0
 10
87.27635997999185
 20
177.1984572979342
 30
0.0
 10
87.31316013198153
 20
177.1648230070154
 30
0.0
 10
87.34942968920456
 20
177.1305984851206
 30
0.0
 10
87.38519781617596
 20
177.0958474872653
 30
0.0
 10
87.42049527963346
 20
177.0606339334651
 30
0.0
 10
87.4461762320334
 20
177.0347490282907
 30
0.0
 10
87.46245822353237
 20
177.0183952007492
 30
0.0
 10
87.47806276543403
 20
177.0025112004769
 30
0.0
 10
87.50145624489829
 20
176.9766562051896
 30
0.0
 10
87.53237292793084
 20
176.9406869555169
 30
0.0
 10
87.56390964521248
 20
176.9052495774685
 30
0.0
 10
87.59563560369539
 20
176.8699931527376
 30
0.0
 10
87.62714216323187
 20
176.8345411479506
 30
0.0
 10
87.65867264536755
 20
176.7991084817409
 30
0.0
 10
87.69046776258033
 20
176.7639129772323
 30
0.0
 10
87.72041795784151
 20
176.7302044328604
 30
0.0
 10
87.74809687874571
 20
176.6976225957852
 30
0.0
 10
87.77342594471386
 20
176.6661110396178
 30
0.0
 10
87.79768073963024
 20
176.6337441557911
 30
0.0
 10
87.82115035971826
 20
176.6007742215504
 30
0.0
 10
87.84412847713804
 20
176.5674487884993
 30
0.0
 10
87.86560490297109
 20
176.5356263385228
 30
0.0
 10
87.88577079443293
 20
176.5054490533503
 30
0.0
 10
87.9045824358236
 20
176.4768986773209
 30
0.0
 10
87.92313735894328
 20
176.4481913956136
 30
0.0
 10
87.9446399614684
 20
176.4140795216234
 30
0.0
 10
87.96872425280552
 20
176.3743296836224
 30
0.0
 10
87.99311181603962
 20
176.3323069529679
 30
0.0
 10
88.01491085945276
 20
176.2934598597624
 30
0.0
 10
88.03427088117803
 20
176.2578814638722
 30
0.0
 10
88.05315046889302
 20
176.2220462341226
 30
0.0
 10
88.07153123825391
 20
176.1859521861966
 30
0.0
 10
88.0893941284295
 20
176.149598512305
 30
0.0
 10
88.10632207735634
 20
176.1138257332876
 30
0.0
 10
88.12233910120918
 20
176.0786553751366
 30
0.0
 10
88.13747101094255
 20
176.0441084056045
 30
0.0
 10
88.15208631410171
 20
176.0093401643125
 30
0.0
 10
88.16616700787546
 20
175.9743542854604
 30
0.0
 10
88.1796956851249
 20
175.9391531513567
 30
0.0
 10
88.19182015780785
 20
175.9060202237939
 30
0.0
 10
88.2026477738131
 20
175.8750029180254
 30
0.0
 10
88.21229440545446
 20
175.8461485488487
 30
0.0
 10
88.2215622256812
 20
175.8171708244501
 30
0.0
 10
88.23254135259106
 20
175.781242116633
 30
0.0
 10
88.24486407788811
 20
175.7382560630874
 30
0.0
 10
88.2568702674028
 20
175.6926453653208
 30
0.0
 10
88.26690885548186
 20
175.6513854636139
 30
0.0
 10
88.27525419769441
 20
175.6145525926185
 30
0.0
 10
88.28301227553251
 20
175.5775898515664
 30
0.0
 10
88.29017828469041
 20
175.5405046935499
 30
0.0
 10
88.29674675987205
 20
175.5033078782781
 30
0.0
 10
88.3026589469516
 20
175.4663440256979
 30
0.0
 10
88.30792858925335
 20
175.429626407375
 30
0.0
 10
88.31256454785769
 20
175.3931669582734
 30
0.0
 10
88.31660532493596
 20
175.3566378835763
 30
0.0
 10
88.32004076818907
 20
175.320050172409
 30
0.0
 10
88.32286105564029
 20
175.2834118278487
 30
0.0
 10
88.32541643700597
 20
175.2407117786393
 30
0.0
 10
88.32728064108129
 20
175.1919348247924
 30
0.0
 10
88.32797388973226
 20
175.1370943531479
 30
0.0
 10
88.32727944103962
 20
175.0822539029833
 30
0.0
 10
88.32541573173981
 20
175.0334760528135
 30
0.0
 10
88.32286304327251
 20
174.9907740318564
 30
0.0
 10
88.32004548998719
 20
174.9541331080864
 30
0.0
 10
88.31661254074506
 20
174.9175431164069
 30
0.0
 10
88.31257207970697
 20
174.8810142869425
 30
0.0
 10
88.307936677813
 20
174.8445568573503
 30
0.0
 10
88.30282943099834
 20
174.8090700519996
 30
0.0
 10
88.29735339669261
 20
174.7745458398852
 30
0.0
 10
88.29338247177925
 20
174.7521908957835
 30
0.0
 10
88.29139701112229
 20
174.7410134338644
 30
0.0
 11
88.29139701112229
 21
174.7410134338644
 31
0.0
 11
88.28506053017658
 21
174.7075541538939
 31
0.0
 11
88.27824755506454
 21
174.6741886018934
 31
0.0
 11
88.27100364739479
 21
174.6410977076033
 31
0.0
 11
88.2632936016912
 21
174.6081123026308
 31
0.0
 11
88.25511558416335
 21
174.5752408928765
 31
0.0
 11
88.24646725000847
 21
174.5424902406029
 31
0.0
 11
88.23860494496438
 21
174.5142607503303
 31
0.0
 11
88.23039064277363
 21
174.4861315724997
 31
0.0
 11
88.21912637125195
 21
174.4495224405297
 31
0.0
 11
88.20727037960543
 21
174.4131004356252
 31
0.0
 11
88.19630636711008
 21
174.3810807806615
 31
0.0
 11
88.1848839619106
 21
174.3492219463152
 31
0.0
 11
88.17300142784988
 21
174.3175320118811
 31
0.0
 11
88.16065694385534
 21
174.2860191869607
 31
0.0
 11
88.14779499437871
 21
174.2545516773063
 31
0.0
 11
88.13448807141297
 21
174.2232696845779
 31
0.0
 11
88.1207576261524
 21
174.1921682592926
 31
0.0
 11
88.10662694275824
 21
174.161246494609
 31
0.0
 11
88.08929625593662
 21
174.1246383764429
 31
0.0
 11
88.07144108161198
 21
174.0882830430975
 31
0.0
 11
88.05307258180584
 21
174.0521816932028
 31
0.0
 11
88.03420382223101
 21
174.0163394225762
 31
0.0
 11
88.01484814417312
 21
173.9807616595124
 31
0.0
 11
87.99501514403434
 21
173.9454472934038
 31
0.0
 11
87.96854783043658
 21
173.8999636336595
 31
0.0
 11
87.94129274873977
 21
173.8549479700966
 31
0.0
 11
87.92316342965168
 21
173.8259639304642
 31
0.0
 11
87.90469842098077
 21
173.7971929419697
 31
0.0
 11
87.88589458526727
 21
173.7686416798202
 31
0.0
 11
87.86674942570605
 21
173.7403180484606
 31
0.0
 11
87.84367261110793
 21
173.7071292166052
 31
0.0
 11
87.82013761584884
 21
173.6742634284875
 31
0.0
 11
87.79616338251972
 21
173.6417096531768
 31
0.0
 11
87.77177481220841
 21
173.6094652692931
 31
0.0
 11
87.7469883407899
 21
173.5775160812793
 31
0.0
 11
87.72182978777333
 21
173.5458587597796
 31
0.0
 11
87.69185440872764
 21
173.5090701463103
 31
0.0
 11
87.66140139704005
 21
173.4726762266544
 31
0.0
 11
87.63047863693492
 21
173.4366798696702
 31
0.0
 11
87.59910621317776
 21
173.4010736234042
 31
0.0
 11
87.56729910442428
 21
173.36586062444
 31
0.0
 11
87.53502362348594
 21
173.3310793325554
 31
0.0
 11
87.50228624488894
 21
173.2967514405179
 31
0.0
 11
87.46923301526394
 21
173.2627217366336
 31
0.0
 11
87.46245206682771
 21
173.2557981851826
 31
0.0
 11
87.45562176931324
 21
173.2489255745062
 31
0.0
 11
87.41934105236228
 21
173.2148341003925
 31
0.0
 11
87.38213519354773
 21
173.1817047089638
 31
0.0
 11
87.34522203999318
 21
173.14826984538
 31
0.0
 11
87.30851667751404
 21
173.1146210588341
 31
0.0
 11
87.27170829871729
 21
173.0810799536145
 31
0.0
 11
87.23489655604494
 21
173.0475390825673
 31
0.0
 11
87.19818385235159
 21
173.0138914742429
 31
0.0
 11
87.16127302353064
 21
172.9804610112055
 31
0.0
 11
87.12196695893665
 21
172.9460593397962
 31
0.0
 11
87.08185986197918
 21
172.9126007212224
 31
0.0
 11
87.040833403322
 21
172.880200870766
 31
0.0
 11
86.9991081334155
 21
172.8486974276243
 31
0.0
 11
86.95686393620349
 21
172.817807962967
 31
0.0
 11
86.91425927864532
 21
172.7874225146489
 31
0.0
 11
86.87142901330884
 21
172.757405754323
 31
0.0
 11
86.82855473847434
 21
172.7274473665336
 31
0.0
 11
86.82034414815144
 21
172.7216926547413
 31
0.0
 11
86.81210628104475
 21
172.7159789125998
 31
0.0
 11
86.76628888567298
 21
172.6860837276151
 31
0.0
 11
86.71978826795872
 21
172.6572142882974
 31
0.0
 11
86.67350409340071
 21
172.6280189529588
 31
0.0
 11
86.62737497969205
 21
172.5985928029921
 31
0.0
 11
86.58117124717381
 21
172.5692791250555
 31
0.0
 11
86.53496053198541
 21
172.539973063601
 31
0.0
 11
86.48881701076266
 21
172.5105628795807
 31
0.0
 11
86.44254360920037
 21
172.4813573800344
 31
0.0
 11
86.40354428424779
 21
172.457371063717
 31
0.0
 11
86.36416965967858
 21
172.4340097706239
 31
0.0
 11
86.32433981654653
 21
172.4113987116456
 31
0.0
 11
86.28414055956682
 21
172.389446532083
 31
0.0
 11
86.24363831697565
 21
172.3679927348786
 31
0.0
 11
86.2029165336572
 21
172.3469602503108
 31
0.0
 11
86.1620058063279
 21
172.3262648573749
 31
0.0
 11
86.12095780674167
 21
172.3058435112069
 31
0.0
 11
86.07984196577944
 21
172.2856160554363
 31
0.0
 11
86.03872460361222
 21
172.2653889006702
 31
0.0
 11
86.03046075460816
 21
172.2613105595713
 31
0.0
 11
86.02218023762477
 21
172.2572677144131
 31
0.0
 11
85.97891929972192
 21
172.2373840540963
 31
0.0
 11
85.93528114429805
 21
172.2183048023723
 31
0.0
 11
85.8917538975936
 21
172.198988483165
 31
0.0
 11
85.84831611297733
 21
172.1794825893786
 31
0.0
 11
85.80484755407952
 21
172.1600416409008
 31
0.0
 11
85.76135004953801
 21
172.1406625798931
 31
0.0
 11
85.71785419525374
 21
172.1212807957061
 31
0.0
 11
85.67438373600834
 21
172.101843109381
 31
0.0
 11
85.63093680437402
 21
172.0823528032303
 31
0.0
 11
85.58741577339086
 21
172.063027499969
 31
0.0
 11
85.54201489705977
 21
172.0433967903043
 31
0.0
 11
85.49634579215856
 21
172.0244019798301
 31
0.0
 11
85.45035993174672
 21
172.0061504250051
 31
0.0
 11
85.4041200095577
 21
171.9885480100548
 31
0.0
 11
85.35766663374596
 21
171.9714458802805
 31
0.0
 11
85.3110617601991
 21
171.9547626255235
 31
0.0
 11
85.26432487422855
 21
171.9384174798695
 31
0.0
 11
85.21749437869367
 21
171.922342861117
 31
0.0
 11
85.17062106934316
 21
171.9064559234047
 31
0.0
 11
85.12374119965222
 21
171.8905857517158
 31
0.0
 11
85.11657311618224
 21
171.8881527779841
 31
0.0
 11
85.10939806687946
 21
171.8857414908005
 31
0.0
 11
85.06076824158241
 21
171.8704850038646
 31
0.0
 11
85.01187758570097
 21
171.8560418820759
 31
0.0
 11
84.96306412091083
 21
171.8413574306596
 31
0.0
 11
84.91431285054492
 21
171.8264803807009
 31
0.0
 11
84.86554015881288
 21
171.8116693627936
 31
0.0
 11
84.81674742267173
 21
171.7969210424987
 31
0.0
 11
84.76795594060359
 21
171.7821697197521
 31
0.0
 11
84.71918182688025
 21
171.7673622345013
 31
0.0
 11
84.67042368538689
 21
171.7525021440124
 31
0.0
 11
84.62161511973815
 21
171.7378072909655
 31
0.0
 11
84.57122807654129
 21
171.7231134368234
 31
0.0
 11
84.52066394735661
 21
171.709045360756
 31
0.0
 11
84.469889493303
 21
171.6957107740171
 31
0.0
 11
84.41895030039724
 21
171.6830144493106
 31
0.0
 11
84.36786908483596
 21
171.6708135382335
 31
0.0
 11
84.31669131108676
 21
171.6590263862427
 31
0.0
 11
84.26542702329665
 21
171.6475767673935
 31
0.0
 11
84.21410411165192
 21
171.6363930011652
 31
0.0
 11
84.16275917923764
 21
171.6253911396187
 31
0.0
 11
84.11140583431953
 21
171.6144261236917
 31
0.0
 11
84.10617693042852
 21
171.6133074693653
 31
0.0
 11
84.10094598738624
 21
171.6121990612978
 31
0.0
 11
84.04836681959856
 21
171.6020513903578
 31
0.0
 11
83.99562373756592
 21
171.5927293117643
 31
0.0
 11
83.94292950361293
 21
171.5831603767189
 31
0.0
 11
83.89027463941434
 21
171.5733949480438
 31
0.0
 11
83.83760618205015
 21
171.5636969498885
 31
0.0
 11
83.78492512104791
 21
171.5540627051724
 31
0.0
 11
83.73224497091383
 21
171.5444251111239
 31
0.0
 11
83.67957550102656
 21
171.5347309834472
 31
0.0
 11
83.62691572170132
 21
171.5249842243789
 31
0.0
 11
83.57422522083262
 21
171.5154031392808
 31
0.0
 11
83.5204082394305
 21
171.5060627821526
 31
0.0
 11
83.46648894930119
 21
171.4973389403157
 31
0.0
 11
83.41244686406589
 21
171.4893397926069
 31
0.0
 11
83.35831414443722
 21
171.4819699041573
 31
0.0
 11
83.3040984480004
 21
171.4750911518965
 31
0.0
 11
83.2498327337981
 21
171.4686227522686
 31
0.0
 11
83.19551920483578
 21
171.4624922162064
 31
0.0
 11
83.14117664494108
 21
171.4566242061127
 31
0.0
 11
83.08683032585709
 21
171.450934226778
 31
0.0
 11
83.03247780542358
 21
171.4453009871521
 31
0.0
 11
83.02973103292365
 21
171.4450160506689
 31
0.0
 11
83.02698397025414
 21
171.4447343106827
 31
0.0
 11
82.98117557590489
 21
171.4408118580084
 31
0.0
 11
82.93530459921975
 21
171.4375827650199
 31
0.0
 11
82.8894516664497
 21
171.4341520227215
 31
0.0
 11
82.84361339243213
 21
171.4305627985233
 31
0.0
 11
82.79776959102911
 21
171.4270334615831
 31
0.0
 11
82.75192196009212
 21
171.423545341115
 31
0.0
 11
82.70607597660606
 21
171.4200389387788
 31
0.0
 11
82.66023047314093
 21
171.4165284957023
 31
0.0
 11
82.61438378917973
 21
171.4130324027419
 31
0.0
 11
82.56853896446134
 21
171.4095119123328
 31
0.0
 11
82.52269716768502
 21
171.4059531441841
 31
0.0
 11
82.47684723911614
 21
171.4024988141941
 31
0.0
 11
82.43052235908681
 21
171.3992894968511
 31
0.0
 11
82.38417156616224
 21
171.3964877815547
 31
0.0
 11
82.33779169304471
 21
171.3941773019279
 31
0.0
 11
82.29139108330357
 21
171.3923143966532
 31
0.0
 11
82.2449661701545
 21
171.3908315981811
 31
0.0
 11
82.19853172765687
 21
171.3896962489574
 31
0.0
 11
82.15207769100705
 21
171.3888812540288
 31
0.0
 11
82.10561943633914
 21
171.388350927936
 31
0.0
 11
82.05915017773134
 21
171.3880675409023
 31
0.0
 11
82.01268014646728
 21
171.3879960230571
 31
0.0
 11
81.96620971756751
 21
171.3881016574621
 31
0.0
 11
81.91973979515814
 21
171.388349123789
 31
0.0
 11
81.87327944528346
 21
171.3887104258014
 31
0.0
 11
81.82682017358204
 21
171.3891879027386
 31
0.0
 11
81.78037235432007
 21
171.3897912549573
 31
0.0
 11
81.73392648912287
 21
171.390530365068
 31
0.0
 11
81.68749153652657
 21
171.3914148433735
 31
0.0
 11
81.64105980321781
 21
171.3924545990775
 31
0.0
 11
81.59463805745946
 21
171.393659251798
 31
0.0
 11
81.54822117730416
 21
171.395038693068
 31
0.0
 11
81.50181295015732
 21
171.3966025810983
 31
0.0
 11
81.45541167281922
 21
171.3983607353399
 31
0.0
 11
81.409017239519
 21
171.4003229379274
 31
0.0
 11
81.36263235120023
 21
171.4024988141941
 31
0.0
 11
81.31671345781227
 21
171.4048713956855
 31
0.0
 11
81.27080625524803
 21
171.4074605438357
 31
0.0
 11
81.22490696461827
 21
171.4102641134156
 31
0.0
 11
81.17902108464682
 21
171.4132792558744
 31
0.0
 11
81.13314658221309
 21
171.416503706863
 31
0.0
 11
81.08728713761214
 21
171.4199354694443
 31
0.0
 11
81.04144277606908
 21
171.4235723586026
 31
0.0
 11
80.99561471235947
 21
171.4274097036797
 31
0.0
 11
80.94980516515258
 21
171.431444383663
 31
0.0
 11
80.90401410710435
 21
171.4356824777145
 31
0.0
 11
80.85824658443875
 21
171.4401234453541
 31
0.0
 11
80.81249562006224
 21
171.4447343106827
 31
0.0
 11
80.80974853001497
 21
171.4450161416301
 31
0.0
 11
80.80700178489273
 21
171.445300987152
 31
0.0
 11
80.75277300049571
 21
171.4518457052981
 31
0.0
 11
80.69863989155938
 21
171.4592148384802
 31
0.0
 11
80.64447782448006
 21
171.4663356632722
 31
0.0
 11
80.59029316090137
 21
171.4732591243444
 31
0.0
 11
80.53611616082473
 21
171.480250178321
 31
0.0
 11
80.48194666821779
 21
171.4873054544347
 31
0.0
 11
80.42777704497541
 21
171.4943576801187
 31
0.0
 11
80.3736002359482
 21
171.5013522909109
 31
0.0
 11
80.31941646494028
 21
171.5082929001435
 31
0.0
 11
80.26525436948386
 21
171.5154031392808
 31
0.0
 11
80.21221576892673
 21
171.5227894952081
 31
0.0
 11
80.15926396252414
 21
171.5307673930648
 31
0.0
 11
80.10641235088568
 21
171.5394492580597
 31
0.0
 11
80.05366383417398
 21
171.5487436537011
 31
0.0
 11
80.00098640607634
 21
171.5585264210822
 31
0.0
 11
79.94838683264831
 21
171.5687173796473
 31
0.0
 11
79.89584749694178
 21
171.5792541714068
 31
0.0
 11
79.84336580616211
 21
171.5900740293604
 31
0.0
 11
79.79094204734999
 21
171.6010988849091
 31
0.0
 11
79.73853360293023
 21
171.6121990612978
 31
0.0
 11
79.73330250156924
 21
171.613307388932
 31
0.0
 11
79.72807375599675
 21
171.6144261236917
 31
0.0
 11
79.67695153444933
 21
171.6263183179117
 31
0.0
 11
79.62600786323557
 21
171.6389967199322
 31
0.0
 11
79.57501072388513
 21
171.6514403645453
 31
0.0
 11
79.52397135395972
 21
171.6636965780927
 31
0.0
 11
79.47294629849787
 21
171.6760166955749
 31
0.0
 11
79.42193530562265
 21
171.6883984623674
 31
0.0
 11
79.3709241204827
 21
171.7007782936743
 31
0.0
 11
79.31989937331923
 21
171.7131008496918
 31
0.0
 11
79.26886141458776
 21
171.7253686319554
 31
0.0
 11
79.21786447057824
 21
171.7378072909655
 31
0.0
 11
79.16845013222485
 21
171.7502988327384
 31
0.0
 11
79.11918923918003
 21
171.7633780035664
 31
0.0
 11
79.07010795452314
 21
171.777159545543
 31
0.0
 11
79.0212013285331
 21
171.7915530226955
 31
0.0
 11
78.97242318258762
 21
171.8064391071773
 31
0.0
 11
78.92377273887115
 21
171.8217361055078
 31
0.0
 11
78.87522555675983
 21
171.8373848763683
 31
0.0
 11
78.82677547042782
 21
171.8533310091578
 31
0.0
 11
78.77841656836364
 21
171.8694991686501
 31
0.0
 11
78.73008152343684
 21
171.8857414908005
 31
0.0
 11
78.72290604128105
 21
171.888152544199
 31
0.0
 11
78.71573839066402
 21
171.8905857517157
 31
0.0
 11
78.669218685293
 21
171.9074005377749
 31
0.0
 11
78.62296614306567
 21
171.9249689297485
 31
0.0
 11
78.57663435714116
 21
171.9423143101272
 31
0.0
 11
78.53023953880283
 21
171.959480781668
 31
0.0
 11
78.48386601115966
 21
171.9767079689631
 31
0.0
 11
78.43751365049178
 21
171.9939946507292
 31
0.0
 11
78.39116126436548
 21
172.0112804311576
 31
0.0
 11
78.34478794217131
 21
172.0285090216702
 31
0.0
 11
78.29839394535576
 21
172.0456818940188
 31
0.0
 11
78.25206381692544
 21
172.063027499969
 31
0.0
 11
78.20762861055435
 21
172.0801355487695
 31
0.0
 11
78.16342483174428
 21
172.097829448087
 31
0.0
 11
78.1194939599132
 21
172.116226876298
 31
0.0
 11
78.07582311547129
 21
172.1352368565896
 31
0.0
 11
78.03234951272191
 21
172.1547451312604
 31
0.0
 11
77.98906444536551
 21
172.1746673124777
 31
0.0
 11
77.94593562310689
 21
172.1949476453991
 31
0.0
 11
77.90295459868597
 21
172.215538402752
 31
0.0
 11
77.86010947410429
 21
172.2363654695325
 31
0.0
 11
77.81729935269154
 21
172.257267714413
 31
0.0
 11
77.80901788716295
 21
172.2613101407899
 31
0.0
 11
77.80075498670404
 21
172.2653889006702
 31
0.0
 11
77.76016081568857
 21
172.2865715580244
 31
0.0
 11
77.71993761184788
 21
172.3084781551678
 31
0.0
 11
77.67960537601576
 21
172.3301724359924
 31
0.0
 11
77.63918573507627
 21
172.3516951766123
 31
0.0
 11
77.5987952269624
 21
172.3732753624265
 31
0.0
 11
77.55843488571317
 21
172.3949142011613
 31
0.0
 11
77.51807572362429
 21
172.4165545686971
 31
0.0
 11
77.4776842947244
 21
172.4381337248784
 31
0.0
 11
77.43725975354366
 21
172.4596507108854
 31
0.0
 11
77.39693598111585
 21
172.4813573800343
 31
0.0
 11
77.3491009410611
 21
172.5079205226789
 31
0.0
 11
77.30178238476982
 21
172.5353882934392
 31
0.0
 11
77.25504173695241
 21
172.563892226453
 31
0.0
 11
77.20882600733218
 21
172.5932461793103
 31
0.0
 11
77.16299728034142
 21
172.6232574901918
 31
0.0
 11
77.11753394882521
 21
172.6538150486847
 31
0.0
 11
77.07239107672153
 21
172.6848036573229
 31
0.0
 11
77.02737330927141
 21
172.7159789125998
 31
0.0
 11
77.01913371822684
 21
172.7216919943778
 31
0.0
 11
77.01092485184194
 21
172.7274473665336
 31
0.0
 11
76.9689737985791
 21
172.7585778989871
 31
0.0
 11
76.92767476147093
 21
172.7906040365663
 31
0.0
 11
76.88616716983317
 21
172.8223445481237
 31
0.0
 11
76.8445168342097
 21
172.8538872432298
 31
0.0
 11
76.80294302574443
 21
172.8855345043309
 31
0.0
 11
76.76136003952043
 21
172.9171720012097
 31
0.0
 11
76.71969191423439
 21
172.9486958865042
 31
0.0
 11
76.67820656678562
 21
172.9804610112054
 31
0.0
 11
76.6391513413958
 21
173.0113532279798
 31
0.0
 11
76.60079306362559
 21
173.0431004438039
 31
0.0
 11
76.56324309102809
 21
173.0758661397734
 31
0.0
 11
76.52641923444689
 21
173.1094535344466
 31
0.0
 11
76.49013285673742
 21
173.1436785888172
 31
0.0
 11
76.45435188499195
 21
173.1784265042941
 31
0.0
 11
76.41901566042833
 21
173.2135838663298
 31
0.0
 11
76.38385782100305
 21
173.2489255745062
 31
0.0
 11
76.37702863353565
 21
173.2558014783266
 31
0.0
 11
76.37024657505233
 21
173.2627217366336
 31
0.0
 11
76.338183419869
 21
173.2976552942189
 31
0.0
 11
76.30700102131839
 21
173.3334157031369
 31
0.0
 11
76.27553593042877
 21
173.3689117311554
 31
0.0
 11
76.24388109043352
 21
173.404227539387
 31
0.0
 11
76.21233404399422
 21
173.4396436486036
 31
0.0
 11
76.18076271440411
 21
173.4750408287744
 31
0.0
 11
76.14906021581292
 21
173.5103195073321
 31
0.0
 11
76.11764980254307
 21
173.5458587597796
 31
0.0
 11
76.09152235610718
 21
173.5766842785228
 31
0.0
 11
76.06624493182466
 21
173.6082044278388
 31
0.0
 11
76.04193363537448
 21
173.6405397094965
 31
0.0
 11
76.01841736191695
 21
173.6734648633423
 31
0.0
 11
75.99540642355315
 21
173.706778330153
 31
0.0
 11
75.97273016461035
 21
173.7403180484607
 31
0.0
 11
75.95373966951441
 21
173.7687600719353
 31
0.0
 11
75.93493414677033
 21
173.7973250513498
 31
0.0
 11
75.91639667871615
 21
173.8260322893611
 31
0.0
 11
75.89818684157655
 21
173.8549479700966
 31
0.0
 11
75.87089843245649
 21
173.8999427877558
 31
0.0
 11
75.84446444628205
 21
173.9454472934038
 31
0.0
 11
75.82464549236319
 21
173.9807716808842
 31
0.0
 11
75.80528866567565
 21
174.0163502560185
 31
0.0
 11
75.78641232326361
 21
174.0521854735912
 31
0.0
 11
75.76803485973291
 21
174.0882793955182
 31
0.0
 11
75.75017500379533
 21
174.1246334409406
 31
0.0
 11
75.73285264755812
 21
174.1612464946091
 31
0.0
 11
75.71722374092538
 21
174.1955705472875
 31
0.0
 11
75.70209446262035
 21
174.230117679036
 31
0.0
 11
75.68748224801733
 21
174.2648851266436
 31
0.0
 11
75.67340383015554
 21
174.2998722084023
 31
0.0
 11
75.65987873548394
 21
174.3350712365114
 31
0.0
 11
75.64692295981124
 21
174.3704835131468
 31
0.0
 11
75.63689522065323
 21
174.3992075181585
 31
0.0
 11
75.62724810399998
 21
174.4280613709572
 31
0.0
 11
75.61798021524666
 21
174.4570373347702
 31
0.0
 11
75.60908894754263
 21
174.4861315724997
 31
0.0
 11
75.59479715155324
 21
174.5359823913771
 31
0.0
 11
75.58159484247285
 21
174.5861331881094
 31
0.0
 11
75.57266782843213
 21
174.6228262528426
 31
0.0
 11
75.56432374343834
 21
174.6596556499165
 31
0.0
 11
75.55656613351273
 21
174.6966186715112
 31
0.0
 11
75.54940116502415
 21
174.7337012936216
 31
0.0
 11
75.54283332055984
 21
174.770897726948
 31
0.0
 11
75.53686829554283
 21
174.808195519497
 31
0.0
 11
75.53164850362597
 21
174.844575562731
 31
0.0
 11
75.52701399384088
 21
174.8810347807638
 31
0.0
 11
75.5229749757337
 21
174.9175613071126
 31
0.0
 11
75.51954100792491
 21
174.9541495788571
 31
0.0
 11
75.51672262801509
 21
174.9907839317397
 31
0.0
 11
75.51452935387803
 21
175.0274614061512
 31
0.0
 11
75.51243272377108
 21
175.0822590588288
 31
0.0
 11
75.51173698616995
 21
175.1370943494782
 31
0.0
 11
75.51243272063715
 21
175.1919296402394
 31
0.0
 11
75.51452935387805
 21
175.2467272928053
 31
0.0
 11
75.51672263540695
 21
175.2834047605708
 31
0.0
 11
75.51954102452906
 21
175.3200391065671
 31
0.0
 11
75.52297499995412
 21
175.3566273738453
 31
0.0
 11
75.52701401994787
 21
175.3931538961905
 31
0.0
 11
75.53164852352859
 21
175.4296131241216
 31
0.0
 11
75.53686829554285
 21
175.4659931794594
 31
0.0
 11
75.54283328693943
 21
175.5032910021708
 31
0.0
 11
75.54940109364932
 21
175.5404874667689
 31
0.0
 11
75.55656603223298
 21
175.5775701059646
 31
0.0
 11
75.56432363728753
 21
175.6145331405898
 31
0.0
 11
75.57266774777271
 21
175.6513625000783
 31
0.0
 11
75.58159484247295
 21
175.688055510847
 31
0.0
 11
75.59479731100032
 21
175.7382062601023
 31
0.0
 11
75.60908894754263
 21
175.7880571264568
 31
0.0
 11
75.61797990216911
 21
175.8171516217818
 31
0.0
 11
75.62724751723391
 21
175.8461278347746
 31
0.0
 11
75.63689460605362
 21
175.8749815482809
 31
0.0
 11
75.64692295981135
 21
175.9037051858098
 31
0.0
 11
75.65988035742666
 21
175.9391159579682
 31
0.0
 11
75.67340756242533
 21
175.9743132670515
 31
0.0
 11
75.68748777808101
 21
176.0092991307056
 31
0.0
 11
75.70210038160036
 21
176.0440659077867
 31
0.0
 11
75.71722833175731
 21
176.0786148228816
 31
0.0
 11
75.73285264755815
 21
176.1129422043474
 31
0.0
 11
75.75016693787998
 21
176.1495623815761
 31
0.0
 11
75.76801761155548
 21
176.1859242004356
 31
0.0
 11
75.78638769892774
 21
176.222023286149
 31
0.0
 11
75.80526287556934
 21
176.2578607174746
 31
0.0
 11
75.82462604105004
 21
176.2934322333677
 31
0.0
 11
75.84446444628193
 21
176.3287414055527
 31
0.0
 11
75.87093352317412
 21
176.3742240601507
 31
0.0
 11
75.89818684157653
 21
176.4192407288599
 31
0.0
 11
75.91631553388393
 21
176.448225231075
 31
0.0
 11
75.93478053774921
 21
176.4769963174699
 31
0.0
 11
75.95358464642879
 21
176.5055473336173
 31
0.0
 11
75.97273016461026
 21
176.5338706504959
 31
0.0
 11
75.99580726572225
 21
176.5670592470164
 31
0.0
 11
76.01934236129929
 21
176.5999249271863
 31
0.0
 11
76.04331657982658
 21
176.6324787211709
 31
0.0
 11
76.06770504831684
 21
176.6647231898743
 31
0.0
 11
76.09249138122006
 21
176.696672499218
 31
0.0
 11
76.11764980254299
 21
176.7283299391769
 31
0.0
 11
76.14762507678277
 21
176.7651186428398
 31
0.0
 11
76.17807804118981
 21
176.8015126072669
 31
0.0
 11
76.2090007948013
 21
176.8375089699021
 31
0.0
 11
76.24037324190503
 21
176.8731151955614
 31
0.0
 11
76.27218039133068
 21
176.9083281589442
 31
0.0
 11
76.30445591606656
 21
176.9431094114502
 31
0.0
 11
76.33719332923758
 21
176.9774372723572
 31
0.0
 11
76.37024657505233
 21
177.011466962323
 31
0.0
 11
76.37702752373747
 21
177.0183905135279
 31
0.0
 11
76.38385782100301
 21
177.0252631244503
 31
0.0
 11
76.42013853746798
 21
177.0593545990446
 31
0.0
 11
76.45734439676851
 21
177.0924839899928
 31
0.0
 11
76.49425755045328
 21
177.1259188534479
 31
0.0
 11
76.5309629128022
 21
177.1595676401225
 31
0.0
 11
76.56777129156403
 21
177.1931087453766
 31
0.0
 11
76.60458303427126
 21
177.2266496163892
 31
0.0
 11
76.64129573797402
 21
177.2602972247044
 31
0.0
 11
76.67820656678553
 21
177.2937276877511
 31
0.0
 11
76.71751263137686
 21
177.3281293591629
 31
0.0
 11
76.75761972833706
 21
177.3615879777341
 31
0.0
 11
76.79864618699504
 21
177.3939878281897
 31
0.0
 11
76.8403714569009
 21
177.425491271332
 31
0.0
 11
76.88261565411276
 21
177.4563807359895
 31
0.0
 11
76.9252203116711
 21
177.4867661843074
 31
0.0
 11
76.96805057700759
 21
177.5167829446332
 31
0.0
 11
77.01092485184194
 21
177.5467413324228
 31
0.0
 11
77.01913544216477
 21
177.5524960442152
 31
0.0
 11
77.02737330927135
 21
177.5582097863566
 31
0.0
 11
77.0731907046431
 21
177.5881049713414
 31
0.0
 11
77.11969132235737
 21
177.6169744106591
 31
0.0
 11
77.16597549691542
 21
177.6461697459976
 31
0.0
 11
77.21210461062408
 21
177.6755958959643
 31
0.0
 11
77.25830834314232
 21
177.704909573901
 31
0.0
 11
77.30451905833075
 21
177.7342156353555
 31
0.0
 11
77.3506625795535
 21
177.7636258193758
 31
0.0
 11
77.39693598111582
 21
177.7928313189222
 31
0.0
 11
77.43593530606843
 21
177.8168176352396
 31
0.0
 11
77.47530993063765
 21
177.8401789283327
 31
0.0
 11
77.5151397737697
 21
177.862789987311
 31
0.0
 11
77.55533903074938
 21
177.8847421668735
 31
0.0
 11
77.59584127334058
 21
177.9061959640778
 31
0.0
 11
77.63656305665904
 21
177.9272284486457
 31
0.0
 11
77.67747378398842
 21
177.9479238415817
 31
0.0
 11
77.71852178357462
 21
177.9683451877497
 31
0.0
 11
77.75963762453682
 21
177.98857264352
 31
0.0
 11
77.80075498670405
 21
178.0087997982863
 31
0.0
 11
77.80901883570814
 21
178.0128781393852
 31
0.0
 11
77.81729935269156
 21
178.0169209845435
 31
0.0
 11
77.86056029059442
 21
178.0368046448604
 31
0.0
 11
77.90419844601826
 21
178.0558838965842
 31
0.0
 11
77.94772569272267
 21
178.0752002157914
 31
0.0
 11
77.99116347733896
 21
178.0947061095779
 31
0.0
 11
78.03463203623674
 21
178.1141470580556
 31
0.0
 11
78.07812954077821
 21
178.1335261190634
 31
0.0
 11
78.1216253950625
 21
178.1529079032504
 31
0.0
 11
78.16509585430794
 21
178.1723455895755
 31
0.0
 11
78.20854278594221
 21
178.1918358957261
 31
0.0
 11
78.25206381692534
 21
178.2111611989874
 31
0.0
 11
78.2974646932565
 21
178.2307919086521
 31
0.0
 11
78.34313379815771
 21
178.2497867191263
 31
0.0
 11
78.3891196585696
 21
178.2680382739513
 31
0.0
 11
78.4353595807586
 21
178.2856406889016
 31
0.0
 11
78.48181295657034
 21
178.3027428186758
 31
0.0
 11
78.52841783011722
 21
178.3194260734328
 31
0.0
 11
78.57515471608777
 21
178.3357712190868
 31
0.0
 11
78.62198521162264
 21
178.3518458378393
 31
0.0
 11
78.66885852097315
 21
178.3677327755517
 31
0.0
 11
78.71573839066404
 21
178.3836029472407
 31
0.0
 11
78.72290647413402
 21
178.3860359209724
 31
0.0
 11
78.73008152343675
 21
178.388447208156
 31
0.0
 11
78.77871134873378
 21
178.4037036950919
 31
0.0
 11
78.82760200461529
 21
178.4181468168807
 31
0.0
 11
78.87641546940544
 21
178.432831268297
 31
0.0
 11
78.92516673977137
 21
178.4477083182557
 31
0.0
 11
78.97393943150344
 21
178.4625193361629
 31
0.0
 11
79.02273216764462
 21
178.4772676564579
 31
0.0
 11
79.07152364971279
 21
178.4920189792045
 31
0.0
 11
79.12029776343609
 21
178.5068264644552
 31
0.0
 11
79.16905590492949
 21
178.5216865549441
 31
0.0
 11
79.21786447057824
 21
178.536381407991
 31
0.0
 11
79.26825151377508
 21
178.551075262133
 31
0.0
 11
79.31881564295973
 21
178.5651433382006
 31
0.0
 11
79.36959009701333
 21
178.5784779249395
 31
0.0
 11
79.42052928991909
 21
178.5911742496461
 31
0.0
 11
79.47161050548033
 21
178.6033751607233
 31
0.0
 11
79.52278827922952
 21
178.6151623127142
 31
0.0
 11
79.57405256701966
 21
178.6266119315634
 31
0.0
 11
79.62537547866435
 21
178.6377956977915
 31
0.0
 11
79.67672041107856
 21
178.6487975593379
 31
0.0
 11
79.72807375599673
 21
178.6597625752648
 31
0.0
 11
79.73330265988786
 21
178.6608812295912
 31
0.0
 11
79.73853360293023
 21
178.6619896376587
 31
0.0
 11
79.79111277071797
 21
178.6721373085987
 31
0.0
 11
79.84385585275055
 21
178.6814593871921
 31
0.0
 11
79.89655008670356
 21
178.6910283222376
 31
0.0
 11
79.94920495090213
 21
178.7007937509127
 31
0.0
 11
80.00187340826633
 21
178.710491749068
 31
0.0
 11
80.05455446926858
 21
178.7201259937841
 31
0.0
 11
80.10723461940265
 21
178.7297635878326
 31
0.0
 11
80.15990408928988
 21
178.7394577155093
 31
0.0
 11
80.21256386861512
 21
178.7492044745775
 31
0.0
 11
80.26525436948384
 21
178.7587855596757
 31
0.0
 11
80.31907135088594
 21
178.7681259168039
 31
0.0
 11
80.37299064101525
 21
178.7768497586409
 31
0.0
 11
80.42703272625053
 21
178.7848489063497
 31
0.0
 11
80.48116544587919
 21
178.7922187947993
 31
0.0
 11
80.53538114231598
 21
178.7990975470601
 31
0.0
 11
80.5896468565183
 21
178.805565946688
 31
0.0
 11
80.64396038548055
 21
178.8116964827502
 31
0.0
 11
80.69830294537525
 21
178.8175644928441
 31
0.0
 11
80.75264926445929
 21
178.8232544721789
 31
0.0
 11
80.80700178489275
 21
178.8288877118046
 31
0.0
 11
80.8097485573927
 21
178.8291726482877
 31
0.0
 11
80.81249562006224
 21
178.8294543882739
 31
0.0
 11
80.85830401441143
 21
178.833376840948
 31
0.0
 11
80.90417499109665
 21
178.8366059339366
 31
0.0
 11
80.9500279238667
 21
178.840036676235
 31
0.0
 11
80.99586619788425
 21
178.8436259004332
 31
0.0
 11
81.04170999928729
 21
178.8471552373734
 31
0.0
 11
81.08755763022427
 21
178.8506433578415
 31
0.0
 11
81.13340361371031
 21
178.8541497601777
 31
0.0
 11
81.17924911717545
 21
178.8576602032541
 31
0.0
 11
81.22509580113666
 21
178.8611562962146
 31
0.0
 11
81.27094062585506
 21
178.8646767866237
 31
0.0
 11
81.31678242263138
 21
178.8682355547724
 31
0.0
 11
81.36263235120025
 21
178.8716898847623
 31
0.0
 11
81.40895723122956
 21
178.8748992021053
 31
0.0
 11
81.45530802415411
 21
178.8777009174017
 31
0.0
 11
81.50168789727165
 21
178.8800113970285
 31
0.0
 11
81.54808850701284
 21
178.8818743023033
 31
0.0
 11
81.59451342016187
 21
178.8833571007754
 31
0.0
 11
81.64094786265947
 21
178.884492449999
 31
0.0
 11
81.68740189930931
 21
178.8853074449277
 31
0.0
 11
81.73386015397719
 21
178.8858377710205
 31
0.0
 11
81.78032941258499
 21
178.8861211580541
 31
0.0
 11
81.82679944384904
 21
178.8861926758993
 31
0.0
 11
81.87326987274879
 21
178.8860870414943
 31
0.0
 11
81.91973979515814
 21
178.8858395751674
 31
0.0
 11
81.9662001450328
 21
178.8854782731551
 31
0.0
 11
82.01265941673424
 21
178.8850007962178
 31
0.0
 11
82.05910723599622
 21
178.8843974439992
 31
0.0
 11
82.10555310119345
 21
178.8836583338885
 31
0.0
 11
82.15198805378972
 21
178.8827738555829
 31
0.0
 11
82.19841978709849
 21
178.8817340998789
 31
0.0
 11
82.2448415328568
 21
178.8805294471584
 31
0.0
 11
82.2912584130121
 21
178.8791500058884
 31
0.0
 11
82.33766664015896
 21
178.8775861178581
 31
0.0
 11
82.38406791749704
 21
178.8758279636164
 31
0.0
 11
82.43046235079726
 21
178.873865761029
 31
0.0
 11
82.47684723911604
 21
178.8716898847623
 31
0.0
 11
82.52276613250403
 21
178.869317303271
 31
0.0
 11
82.56867333506827
 21
178.8667281551207
 31
0.0
 11
82.61457262569803
 21
178.863924585541
 31
0.0
 11
82.66045850566951
 21
178.8609094430821
 31
0.0
 11
82.70633300810329
 21
178.8576849920936
 31
0.0
 11
82.75219245270424
 21
178.8542532295123
 31
0.0
 11
82.79803681424731
 21
178.850616340354
 31
0.0
 11
82.8438648779569
 21
178.846778995277
 31
0.0
 11
82.8896744251638
 21
178.8427443152937
 31
0.0
 11
82.93546548321206
 21
178.8385062212422
 31
0.0
 11
82.98123300587767
 21
178.8340652536026
 31
0.0
 11
83.02698397025415
 21
178.8294543882738
 31
0.0
 11
83.02973106030136
 21
178.8291725573264
 31
0.0
 11
83.03247780542355
 21
178.8288877118045
 31
0.0
 11
83.08670658982059
 21
178.8223429936583
 31
0.0
 11
83.14083969875695
 21
178.8149738604763
 31
0.0
 11
83.19500176583627
 21
178.8078530356844
 31
0.0
 11
83.24918642941493
 21
178.8009295746122
 31
0.0
 11
83.30336342949161
 21
178.7939385206355
 31
0.0
 11
83.35753292209854
 21
178.7868832445219
 31
0.0
 11
83.41170254534094
 21
178.7798310188378
 31
0.0
 11
83.46587935436821
 21
178.7728364080456
 31
0.0
 11
83.52006312537613
 21
178.7658957988131
 31
0.0
 11
83.57422522083255
 21
178.7587855596757
 31
0.0
 11
83.62726382138963
 21
178.7513992037485
 31
0.0
 11
83.68021562779222
 21
178.7434213058918
 31
0.0
 11
83.73306723943072
 21
178.734739440897
 31
0.0
 11
83.78581575614247
 21
178.7254450452555
 31
0.0
 11
83.83849318424009
 21
178.7156622778744
 31
0.0
 11
83.89109275766808
 21
178.7054713193094
 31
0.0
 11
83.94363209337462
 21
178.6949345275498
 31
0.0
 11
83.9961137841543
 21
178.6841146695962
 31
0.0
 11
84.04853754296647
 21
178.6730898140474
 31
0.0
 11
84.10094598738615
 21
178.6619896376587
 31
0.0
 11
84.10617708874709
 21
178.6608813100245
 31
0.0
 11
84.11140583431954
 21
178.6597625752648
 31
0.0
 11
84.16252805586694
 21
178.6478703810447
 31
0.0
 11
84.21347172708077
 21
178.6351919790244
 31
0.0
 11
84.2644688664312
 21
178.6227483344113
 31
0.0
 11
84.31550823635662
 21
178.6104921208639
 31
0.0
 11
84.3665332918185
 21
178.5981720033816
 31
0.0
 11
84.41754428469373
 21
178.5857902365891
 31
0.0
 11
84.46855546983365
 21
178.5734104052822
 31
0.0
 11
84.51958021699713
 21
178.5610878492647
 31
0.0
 11
84.57061817572863
 21
178.5488200670011
 31
0.0
 11
84.62161511973818
 21
178.536381407991
 31
0.0
 11
84.67102945809155
 21
178.5238898662181
 31
0.0
 11
84.7202903511364
 21
178.5108106953903
 31
0.0
 11
84.76937163579333
 21
178.4970291534139
 31
0.0
 11
84.81827826178343
 21
178.4826356762615
 31
0.0
 11
84.86705640772894
 21
178.4677495917799
 31
0.0
 11
84.91570685144548
 21
178.4524525934496
 31
0.0
 11
84.96425403355683
 21
178.4368038225891
 31
0.0
 11
85.01270411988881
 21
178.4208576897995
 31
0.0
 11
85.0610630219529
 21
178.4046895303069
 31
0.0
 11
85.10939806687955
 21
178.388447208156
 31
0.0
 11
85.11657354903527
 21
178.3860361547574
 31
0.0
 11
85.12374119965224
 21
178.3836029472407
 31
0.0
 11
85.17026090502323
 21
178.3667881611815
 31
0.0
 11
85.21651344725061
 21
178.3492197692079
 31
0.0
 11
85.26284523317513
 21
178.3318743888292
 31
0.0
 11
85.30924005151347
 21
178.3147079172884
 31
0.0
 11
85.35561357915664
 21
178.2974807299933
 31
0.0
 11
85.40196593982451
 21
178.2801940482272
 31
0.0
 11
85.44831832595082
 21
178.2629082677988
 31
0.0
 11
85.49469164814502
 21
178.2456796772863
 31
0.0
 11
85.54108564496059
 21
178.2285068049377
 31
0.0
 11
85.58741577339089
 21
178.2111611989874
 31
0.0
 11
85.63185097976192
 21
178.1940531501869
 31
0.0
 11
85.67605475857199
 21
178.1763592508694
 31
0.0
 11
85.71998563040297
 21
178.1579618226583
 31
0.0
 11
85.76365647484484
 21
178.1389518423666
 31
0.0
 11
85.80713007759418
 21
178.1194435676958
 31
0.0
 11
85.85041514495053
 21
178.0995213864785
 31
0.0
 11
85.89354396720917
 21
178.0792410535571
 31
0.0
 11
85.93652499163009
 21
178.0586502962044
 31
0.0
 11
85.97937011621178
 21
178.0378232294238
 31
0.0
 11
86.02218023762457
 21
178.0169209845436
 31
0.0
 11
86.03046170315326
 21
178.0128785581667
 31
0.0
 11
86.03872460361225
 21
178.0087997982863
 31
0.0
 11
86.07931877462775
 21
177.9876171409323
 31
0.0
 11
86.11954197846841
 21
177.9657105437888
 31
0.0
 11
86.15987421430053
 21
177.9440162629642
 31
0.0
 11
86.20029385524001
 21
177.9224935223443
 31
0.0
 11
86.24068436335385
 21
177.90091333653
 31
0.0
 11
86.28104470460305
 21
177.8792744977951
 31
0.0
 11
86.32140386669195
 21
177.8576341302594
 31
0.0
 11
86.36179529559183
 21
177.8360549740781
 31
0.0
 11
86.40221983677256
 21
177.8145379880711
 31
0.0
 11
86.44254360920036
 21
177.7928313189222
 31
0.0
 11
86.49037864925512
 21
177.7662681762777
 31
0.0
 11
86.53769720554639
 21
177.7388004055173
 31
0.0
 11
86.58443785336387
 21
177.7102964725036
 31
0.0
 11
86.6306535829841
 21
177.6809425196462
 31
0.0
 11
86.67648230997487
 21
177.6509312087647
 31
0.0
 11
86.72194564149106
 21
177.6203736502717
 31
0.0
 11
86.76708851359473
 21
177.5893850416336
 31
0.0
 11
86.81210628104486
 21
177.5582097863567
 31
0.0
 11
86.82034587208943
 21
177.5524967045786
 31
0.0
 11
86.82855473847434
 21
177.5467413324228
 31
0.0
 11
86.87050579173722
 21
177.5156107999693
 31
0.0
 11
86.91180482884538
 21
177.4835846623902
 31
0.0
 11
86.95331242048313
 21
177.4518441508328
 31
0.0
 11
86.99496275610663
 21
177.4203014557267
 31
0.0
 11
87.0365365645719
 21
177.3886541946256
 31
0.0
 11
87.07811955079595
 21
177.3570166977467
 31
0.0
 11
87.119787676082
 21
177.3254928124523
 31
0.0
 11
87.16127302353075
 21
177.2937276877511
 31
0.0
 11
87.20032824892056
 21
177.2628354709767
 31
0.0
 11
87.23868652669077
 21
177.2310882551526
 31
0.0
 11
87.27623649928825
 21
177.1983225591829
 31
0.0
 11
87.31306035586941
 21
177.1647351645098
 31
0.0
 11
87.34934673357888
 21
177.1305101101392
 31
0.0
 11
87.38512770532435
 21
177.0957621946624
 31
0.0
 11
87.42046392988797
 21
177.0606048326267
 31
0.0
 11
87.45562176931325
 21
177.0252631244503
 31
0.0
 11
87.46245095678066
 21
177.0183872206299
 31
0.0
 11
87.46923301526394
 21
177.0114669623229
 31
0.0
 11
87.50129617044733
 21
176.9765334047376
 31
0.0
 11
87.53247856899799
 21
176.9407729958196
 31
0.0
 11
87.56394365988763
 21
176.9052769678011
 31
0.0
 11
87.59559849988288
 21
176.8699611595696
 31
0.0
 11
87.62714554632217
 21
176.8345450503529
 31
0.0
 11
87.65871687591233
 21
176.7991478701821
 31
0.0
 11
87.69041937450353
 21
176.7638691916244
 31
0.0
 11
87.72182978777347
 21
176.728329939177
 31
0.0
 11
87.7479572342087
 21
176.6975044204347
 31
0.0
 11
87.77323465849054
 21
176.6659842711196
 31
0.0
 11
87.79754595494005
 21
176.6336489894627
 31
0.0
 11
87.82106222839695
 21
176.6007238356177
 31
0.0
 11
87.84407316676202
 21
176.5674103688052
 31
0.0
 11
87.86674942570615
 21
176.5338706504958
 31
0.0
 11
87.8857399208046
 21
176.5054286270179
 31
0.0
 11
87.90454544355121
 21
176.4768636475999
 31
0.0
 11
87.92308291160313
 21
176.4481564095923
 31
0.0
 11
87.94129274873976
 21
176.41924072886
 31
0.0
 11
87.9685811578573
 21
176.3742459111993
 31
0.0
 11
87.99501514403434
 21
176.3287414055527
 31
0.0
 11
88.01483409800528
 21
176.2934170180014
 31
0.0
 11
88.03419092474756
 21
176.2578384427975
 31
0.0
 11
88.05306726719705
 21
176.2220032251836
 31
0.0
 11
88.07144473075653
 21
176.1859093032105
 31
0.0
 11
88.08930458662054
 21
176.149555257908
 31
0.0
 11
88.10662694275807
 21
176.1129422043474
 31
0.0
 11
88.12225584918191
 21
176.0786181519488
 31
0.0
 11
88.13738512727178
 21
176.0440710204783
 31
0.0
 11
88.15199734174819
 21
176.009303572992
 31
0.0
 11
88.16607575953549
 21
175.9743164913766
 31
0.0
 11
88.17960085445696
 21
175.9391174628335
 31
0.0
 11
88.19255663050464
 21
175.9037051858097
 31
0.0
 11
88.20258437018069
 21
175.8749811801657
 31
0.0
 11
88.2122314872983
 21
175.8461273267068
 31
0.0
 11
88.22149937581567
 21
175.8171513636066
 31
0.0
 11
88.23039064277364
 21
175.7880571264568
 31
0.0
 11
88.24468243699204
 21
175.7382063071394
 31
0.0
 11
88.25788474784304
 21
175.688055510847
 31
0.0
 11
88.26681177167808
 21
175.6513624319212
 31
0.0
 11
88.27515586819098
 21
175.614533020988
 31
0.0
 11
88.28291348705785
 21
175.57756999137
 31
0.0
 11
88.29007845964546
 21
175.54048736012
 31
0.0
 11
88.29664629343894
 21
175.5032909502821
 31
0.0
 11
88.30261129477326
 21
175.4659931794594
 31
0.0
 11
88.30783104378249
 21
175.4296131948193
 31
0.0
 11
88.31246550769032
 21
175.3931540350474
 31
0.0
 11
88.31650449351859
 21
175.356627534675
 31
0.0
 11
88.31993845093454
 21
175.3200392931167
 31
0.0
 11
88.32275686623622
 21
175.2834048551462
 31
0.0
 11
88.32495023643817
 21
175.2467272928054
 31
0.0
 11
88.32704706636083
 21
175.1919296307253
 31
0.0
 11
88.32774260414621
 21
175.1370943494782
 31
0.0
 11
88.32704616564409
 21
175.0822591011585
 31
0.0
 11
88.32495023643826
 21
175.0274614061513
 31
0.0
 11
88.32275893071559
 21
174.9907809866481
 31
0.0
 11
88.31994309760172
 21
174.9541436278235
 31
0.0
 11
88.31651130668331
 21
174.9175535200587
 31
0.0
 11
88.31247281372707
 21
174.8810252693903
 31
0.0
 11
88.3078367131577
 21
174.844570445604
 31
0.0
 11
88.30261129477337
 21
174.808195519497
 31
0.0
 11
88.29724990776167
 21
174.7745634230744
 31
0.0
 11
88.29139701112229
 21
174.7410134338644
 31
0.0
  0
SPLINE
  5
1A3
330
42
100
AcDbEntity
  8
1
  6
Continuous
 62
     7
100
AcDbSpline
210
0.0
220
0.0
230
1.0
 70
    11
 71
     3
 72
   737
 73
   733
 74
   731
 42
0.0000000001
 43
0.0000000001
 44
0.00000001
 40
0.0
 40
0.0
 40
0.0
 40
0.0
 40
0.0340539925253196
 40
0.0681080185746742
 40
0.1019825146336345
 40
0.1358570145701767
 40
0.1697304488502313
 40
0.203603726046251
 40
0.23290765004386
 40
0.2622116669341816
 40
0.3005145696506596
 40
0.3388176632486838
 40
0.3726624246454466
 40
0.4065070204688085
 40
0.4403514669872832
 40
0.4741958818818031
 40
0.508190497752408
 40
0.5421851630379889
 40
0.5761825714955323
 40
0.6101800970573331
 40
0.6506832700364454
 40
0.6911865725292469
 40
0.7316922418774167
 40
0.7721977779381306
 40
0.8126998704483276
 40
0.8532023684966329
 40
0.9058263363518353
 40
0.9584499949504949
 40
0.9926369334505445
 40
1.026823573007045
 40
1.061010687653835
 40
1.095197896197667
 40
1.13562113124777
 40
1.176044590160198
 40
1.216473690455635
 40
1.256902673300528
 40
1.297339287650922
 40
1.337776137113013
 40
1.385230593488897
 40
1.432684816786342
 40
1.48013958270767
 40
1.527595180328529
 40
1.575046707841522
 40
1.622496101251393
 40
1.669931743221717
 40
1.717371565471573
 40
1.727062634885769
 40
1.73675210038416
 40
1.786536827256253
 40
1.836354821059287
 40
1.886159148262953
 40
1.935953971997307
 40
1.98575218972636
 40
2.035552736201083
 40
2.085352175539585
 40
2.13515182556998
 40
2.187386313311452
 40
2.239617131639638
 40
2.291894474911302
 40
2.344177025332516
 40
2.396509913891308
 40
2.448839946522091
 40
2.501141356916617
 40
2.553445357160583
 40
2.563471847137812
 40
2.57349727998265
 40
2.628205193522857
 40
2.68293865654435
 40
2.737661525804357
 40
2.792377094278179
 40
2.847095250431262
 40
2.901815223349707
 40
2.956534355972073
 40
3.01125353812879
 40
3.057038805598066
 40
3.102822111233883
 40
3.148622508525233
 40
3.194425111609184
 40
3.240258473578408
 40
3.286091093443864
 40
3.331938524117658
 40
3.377785766666644
 40
3.423607839349729
 40
3.469431144135875
 40
3.47864656959983
 40
3.487861316394287
 40
3.535472960934565
 40
3.583099701901582
 40
3.630720510309109
 40
3.678336904804908
 40
3.72595482254986
 40
3.773573945881553
 40
3.821192670120991
 40
3.868810990930168
 40
3.916429347708636
 40
3.964048120099111
 40
4.013511281477765
 40
4.062973084593188
 40
4.112448519016252
 40
4.161925538087054
 40
4.211427042782525
 40
4.260928004668201
 40
4.310440632316869
 40
4.359953142655976
 40
4.409445585708861
 40
4.458938863350102
 40
4.466508591338089
 40
4.474077979581466
 40
4.52504483451725
 40
4.576024242119977
 40
4.626998622530262
 40
4.67796932958605
 40
4.728941299434583
 40
4.779914273172273
 40
4.830886915297029
 40
4.881859219433131
 40
4.932831551646077
 40
4.983804238320018
 40
5.036290078997954
 40
5.088774761758229
 40
5.141271012938097
 40
5.193768613216069
 40
5.246286732130645
 40
5.298804362294072
 40
5.351331697791075
 40
5.403859003896887
 40
5.456369412789949
 40
5.508880341257852
 40
5.514227567024859
 40
5.519574653479715
 40
5.573124108292603
 40
5.626684670757891
 40
5.680240686384496
 40
5.733793448413912
 40
5.787347323804428
 40
5.840902088854558
 40
5.894456560537054
 40
5.948010730959334
 40
6.001564924734596
 40
6.055119439702539
 40
6.109740953399245
 40
6.164361419018326
 40
6.218992301682322
 40
6.273624403876461
 40
6.32827473756983
 40
6.382924604281748
 40
6.437583024499969
 40
6.492241485495244
 40
6.546884858952662
 40
6.601528521587592
 40
6.604290033486111
 40
6.607051506051612
 40
6.653027528365814
 40
6.699012020790768
 40
6.744993119476303
 40
6.790971700307591
 40
6.836951156005934
 40
6.882931284832775
 40
6.928911161508831
 40
6.974890867886395
 40
7.020870657971054
 40
7.066850455775974
 40
7.112830181334277
 40
7.158810050249367
 40
7.205245965525582
 40
7.251681357344077
 40
7.298118744722193
 40
7.344556735639308
 40
7.391005322832096
 40
7.43745364323145
 40
7.483914828513364
 40
7.530376109948023
 40
7.576846232648185
 40
7.623316318945572
 40
7.669786867906735
 40
7.716257449227795
 40
7.762719203925845
 40
7.809180929154828
 40
7.85563266699202
 40
7.902084412682275
 40
7.948527788146283
 40
7.994971161731546
 40
8.041408535337592
 40
8.087845908449873
 40
8.13428047846711
 40
8.180715052277423
 40
8.227150961660614
 40
8.273586856202149
 40
8.319567003145266
 40
8.365547161207401
 40
8.411531994388589
 40
8.457516829549777
 40
8.50350451331102
 40
8.549492181805123
 40
8.595480576515501
 40
8.641469016808808
 40
8.687455898175857
 40
8.733442661905944
 40
8.779425140357274
 40
8.825407863422084
 40
8.828169372504167
 40
8.83093084778697
 40
8.885553136211991
 40
8.940185522275382
 40
8.994813680362789
 40
9.049438876750108
 40
9.104065080837602
 40
9.158692096592974
 40
9.213318848000315
 40
9.26794531792571
 40
9.322571805064772
 40
9.377198612447417
 40
9.430749069055571
 40
9.484298491606246
 40
9.537858435898324
 40
9.591419539374837
 40
9.644997650284191
 40
9.698575357973903
 40
9.752160857664318
 40
9.805746277259837
 40
9.859316772197461
 40
9.912887836797202
 40
9.918235061459937
 40
9.923582149239678
 40
9.976069345957678
 40
10.02856696032756
 40
10.08106031717566
 40
10.13355062154603
 40
10.18604196921081
 40
10.23853415475326
 40
10.29102607063147
 40
10.34351769100939
 40
10.39600932570617
 40
10.44850131115423
 40
10.49947008052101
 40
10.55043772018702
 40
10.60141716116889
 40
10.65239784623951
 40
10.70339689557452
 40
10.75439556057406
 40
10.80540254951079
 40
10.85640931393014
 40
10.90739943836835
 40
10.95839051206676
 40
10.96596023614755
 40
10.97352962939845
 40
11.02299497098243
 40
11.07247169337823
 40
11.12194387351451
 40
11.17141272142716
 40
11.2208827128176
 40
11.27035362049035
 40
11.31982423706847
 40
11.36929452453856
 40
11.41876482355954
 40
11.46823553050971
 40
11.51585036957281
 40
11.56346389847111
 40
11.61109148359378
 40
11.65872048741453
 40
11.70637053375912
 40
11.75402019651239
 40
11.80167926923541
 40
11.8493379279307
 40
11.89697689738959
 40
11.94461732493191
 40
11.95383274040349
 40
11.96304750063665
 40
12.00883605480706
 40
12.054637857453
 40
12.10043448470557
 40
12.146227232357
 40
12.19202131019988
 40
12.23781646810489
 40
12.28361130920733
 40
12.32940571399731
 40
12.37520008282689
 40
12.42099512740984
 40
12.47571067916802
 40
12.53042378728695
 40
12.58517013287864
 40
12.63992000240064
 40
12.6947009388513
 40
12.74947939167364
 40
12.80423496460556
 40
12.85899348839662
 40
12.86901996155437
 40
12.87904541894926
 40
12.93128525930792
 40
12.98354694655877
 40
13.0357996042662
 40
13.08804605938136
 40
13.14029479798346
 40
13.19254492671127
 40
13.24479421387296
 40
13.29704416315741
 40
13.34684014379321
 40
13.3966321430107
 40
13.44646778562162
 40
13.4963086272522
 40
13.54618903978002
 40
13.59606584369759
 40
13.64591249726349
 40
13.69576337498774
 40
13.70545439427442
 40
13.71514388818831
 40
13.76256117792402
 40
13.81000745096363
 40
13.85744182615483
 40
13.90486792873739
 40
13.95229700137317
 40
13.99972810104558
 40
14.04715840336064
 40
14.09458890542743
 40
14.13499751915083
 40
14.17540133074406
 40
14.21585636226029
 40
14.25631721832022
 40
14.29680536912172
 40
14.33729148308436
 40
14.3714907170424
 40
14.40569021608305
 40
14.43986247436512
 40
14.47403431600481
 40
14.5266574182365
 40
14.57928265609192
 40
14.61978701740411
 40
14.6602903721788
 40
14.70079320073841
 40
14.74129631624686
 40
14.78180052680191
 40
14.82230459727073
 40
14.86001935982865
 40
14.8977340701429
 40
14.93544735995897
 40
14.97316072283577
 40
15.01086880904684
 40
15.04857665252506
 40
15.07900072221555
 40
15.10942458917971
 40
15.13984662462828
 40
15.17026913784544
 40
15.22212817346458
 40
15.27398763140564
 40
15.31175100756834
 40
15.34951379670275
 40
15.38728210983906
 40
15.42505058394148
 40
15.4628224151535
 40
15.5005941883775
 40
15.53734679064408
 40
15.57409938593355
 40
15.61084854639166
 40
15.64759761119829
 40
15.6843402169366
 40
15.72108321056327
 40
15.77592095848191
 40
15.83076066263321
 40
15.88560036685658
 40
15.94043811478346
 40
15.97718110221717
 40
16.01392370179617
 40
16.05067276286767
 40
16.08742191955373
 40
16.12417452388018
 40
16.1609271353012
 40
16.19869893299964
 40
16.23647078844235
 40
16.27423927364659
 40
16.31200759853514
 40
16.3497703566458
 40
16.38753369944084
 40
16.43939315206116
 40
16.49125218937729
 40
16.5216748574455
 40
16.55209704685378
 40
16.58252077288779
 40
16.61294469820948
 40
16.65065168612705
 40
16.68835892471304
 40
16.72607182871862
 40
16.76378465107693
 40
16.80150046222002
 40
16.83921635227372
 40
16.8797234137521
 40
16.92023055412808
 40
16.96073492548978
 40
17.00123916943118
 40
17.04173935363289
 40
17.08223997044963
 40
17.13486395643312
 40
17.18748756164628
 40
17.22167455995606
 40
17.25586127930856
 40
17.29004833864806
 40
17.32423548748266
 40
17.36465869288164
 40
17.40508212243495
 40
17.44551122898942
 40
17.48594021805997
 40
17.52637684336833
 40
17.56681370363483
 40
17.61426816373028
 40
17.66172239102241
 40
17.70917715699883
 40
17.75663275459257
 40
17.804084282964
 40
17.85153367730008
 40
17.89896932060314
 40
17.94640914414899
 40
17.95610021356148
 40
17.96578967905902
 40
18.01557440590599
 40
18.0653923997524
 40
18.11519672696613
 40
18.16499155069153
 40
18.21478976841805
 40
18.2645903148953
 40
18.31438975423448
 40
18.36418940426416
 40
18.41642389200534
 40
18.46865471033383
 40
18.5209320536056
 40
18.57321460402668
 40
18.62554749258543
 40
18.67787752521626
 40
18.7301789356108
 40
18.78248293585475
 40
18.79250942583194
 40
18.80253485867675
 40
18.85724277221698
 40
18.9119762352385
 40
18.96669910449852
 40
19.02141467297232
 40
19.0761328291254
 40
19.13085280204386
 40
19.1855719346662
 40
19.24029111682295
 40
19.28607638429222
 40
19.33185968992805
 40
19.37766008721941
 40
19.42346269030339
 40
19.4692960522726
 40
19.51512867213805
 40
19.56097610281188
 40
19.60682334536089
 40
19.65264541804399
 40
19.69846872283016
 40
19.70768414829411
 40
19.71689889508858
 40
19.7645105396289
 40
19.81213728059588
 40
19.8597580890034
 40
19.90737448349917
 40
19.9549924012441
 40
20.00261152457576
 40
20.05023024881516
 40
20.0978485696243
 40
20.14546692640273
 40
20.19308569879319
 40
20.24254886017187
 40
20.29201066328729
 40
20.34148609771033
 40
20.39096311678112
 40
20.44046462147661
 40
20.48996558336226
 40
20.53947821101094
 40
20.58899072135007
 40
20.63848316440294
 40
20.68797644204421
 40
20.69554617003217
 40
20.70311555827553
 40
20.75408241321135
 40
20.80506182081407
 40
20.85603620122441
 40
20.90700690828021
 40
20.95797887812876
 40
21.0089518518665
 40
21.05992449399128
 40
21.11089679812738
 40
21.16186913034034
 40
21.21284181701426
 40
21.2653276576922
 40
21.31781234045247
 40
21.37030859163233
 40
21.42280619191026
 40
21.47532431082486
 40
21.52784194098829
 40
21.58036927648536
 40
21.63289658259122
 40
21.68540699148425
 40
21.73791791995215
 40
21.74326514571924
 40
21.74861223217422
 40
21.80216168698706
 40
21.85572224945232
 40
21.90927826507895
 40
21.96283102710835
 40
22.01638490249891
 40
22.06993966754902
 40
22.12349413923149
 40
22.17704830965371
 40
22.23060250342897
 40
22.28415701839692
 40
22.3387785320936
 40
22.39339899771267
 40
22.44802988037665
 40
22.50266198257081
 40
22.55731231626416
 40
22.6119621829761
 40
22.66662060319428
 40
22.72127906418953
 40
22.77592243764705
 40
22.83056610028184
 40
22.83332761218033
 40
22.83608908474583
 40
22.88206510705997
 40
22.92804959948501
 40
22.97403069817061
 40
23.02000927900185
 40
23.06598873470021
 40
23.11196886352706
 40
23.15794874020316
 40
23.2039284465807
 40
23.24990823666535
 40
23.29588803447025
 40
23.34186776002852
 40
23.38784762894363
 40
23.43428354421981
 40
23.48071893603832
 40
23.52715632341645
 40
23.57359431433355
 40
23.62004290152631
 40
23.66649122192569
 40
23.71295240720756
 40
23.75941368864224
 40
23.80588381134243
 40
23.85235389763978
 40
23.89882444660095
 40
23.94529502792202
 40
23.99175678262006
 40
24.03821850784908
 40
24.08467024568626
 40
24.1311219913765
 40
24.17756536684054
 40
24.2240087404258
 40
24.27044611403183
 40
24.31688348714415
 40
24.36331805716138
 40
24.40975263097168
 40
24.45618854035486
 40
24.5026244348964
 40
24.5486045818395
 40
24.59458473990163
 40
24.64056957308288
 40
24.68655440824408
 40
24.73254209200531
 40
24.77852976049937
 40
24.8245181552098
 40
24.87050659550309
 40
24.91649347687014
 40
24.96248024060024
 40
25.00846271905161
 40
25.05444544211639
 40
25.05720695119844
 40
25.05996842648125
 40
25.11459071490626
 40
25.16922310096964
 40
25.22385125905707
 40
25.27847645544436
 40
25.33310265953186
 40
25.38772967528722
 40
25.44235642669458
 40
25.49698289661997
 40
25.55160938375905
 40
25.6062361911417
 40
25.65978664774983
 40
25.7133360703005
 40
25.76689601459261
 40
25.82045711806918
 40
25.87403522897852
 40
25.92761293666824
 40
25.98119843635862
 40
26.03478385595416
 40
26.0883543508918
 40
26.14192541549156
 40
26.14727264015426
 40
26.15261972793399
 40
26.20510692465194
 40
26.25760453902181
 40
26.31009789586991
 40
26.3625882002404
 40
26.41507954790519
 40
26.46757173344763
 40
26.52006364932589
 40
26.57255526970381
 40
26.62504690440058
 40
26.67753888984863
 40
26.72850765921544
 40
26.77947529888143
 40
26.83045473986331
 40
26.88143542493397
 40
26.932434474269
 40
26.98343313926853
 40
27.03444012820521
 40
27.0854468926245
 40
27.13643701706273
 40
27.18742809076111
 40
27.19499781484181
 40
27.20256720809268
 40
27.25203254967664
 40
27.30150927207247
 40
27.35098145220877
 40
27.40045030012143
 40
27.44992029151188
 40
27.49939119918464
 40
27.54886181576276
 40
27.59833210323287
 40
27.64780240225387
 40
27.69727310920401
 40
27.74488794826709
 40
27.79250147716537
 40
27.840129062288
 40
27.88775806610871
 40
27.93540811245332
 40
27.98305777520659
 40
28.03071684792963
 40
28.07837550662491
 40
28.12601447608376
 40
28.17365490362611
 40
28.18287031909773
 40
28.19208507933097
 40
28.23787363350143
 40
28.28367543614722
 40
28.32947206339977
 40
28.37526481105116
 40
28.42105888889402
 40
28.46685404679908
 40
28.51264888790153
 40
28.55844329269145
 40
28.60423766152103
 40
28.65003270610391
 40
28.70474825786202
 40
28.75946136598096
 40
28.8142077115727
 40
28.86895758109474
 40
28.92373851754547
 40
28.97851697036779
 40
29.03327254329965
 40
29.08803106709067
 40
29.0980575402485
 40
29.10808299764345
 40
29.16032283800213
 40
29.21258452525298
 40
29.26483718296044
 40
29.31708363807561
 40
29.36933237667769
 40
29.42158250540547
 40
29.47383179256723
 40
29.5260817418517
 40
29.57587772248748
 40
29.62566972170502
 40
29.67550536431596
 40
29.72534620594657
 40
29.77522661847438
 40
29.82510342239202
 40
29.87495007595785
 40
29.92480095368212
 40
29.93449197296863
 40
29.94418146688251
 40
29.9915987566182
 40
30.03904502965787
 40
30.08647940484909
 40
30.13390550743166
 40
30.18133458006742
 40
30.22876567973986
 40
30.27619598205499
 40
30.3236264841218
 40
30.36403509784403
 40
30.40443890943613
 40
30.44489394095124
 40
30.48535479701017
 40
30.52584294781385
 40
30.5663290617786
 40
30.6005282957409
 40
30.63472779478584
 40
30.66890005306367
 40
30.7030718946991
 40
30.75569499693073
 40
30.80832023478617
 40
30.84882459618561
 40
30.88932795104751
 40
30.92983077966121
 40
30.97033389522386
 40
31.01083810563884
 40
31.05134217596743
 40
31.08905693818418
 40
31.12677164815734
 40
31.16448493781254
 40
31.2021983005288
 40
31.23990638723454
 40
31.27761423120647
 40
31.30803830166471
 40
31.33846216940215
 40
31.3688842040999
 40
31.39930671654454
 40
31.45116575209865
 40
31.50302521006503
 40
31.54078860233331
 40
31.57855140752974
 40
31.61631973035491
 40
31.65408821420859
 40
31.69186002043443
 40
31.72963176846477
 40
31.76638430663739
 40
31.80313683834597
 40
31.8398859694374
 40
31.87663500321875
 40
31.91337769650907
 40
31.95012078364265
 40
32.00495854859679
 40
32.05979824081202
 40
32.11463791153375
 40
32.16947567495777
 40
32.20622149098757
 40
32.24296689856142
 40
32.27971758801282
 40
32.31646840463301
 40
32.35321684141292
 40
32.38996517806344
 40
32.42402193041116
 40
32.45807862101765
 40
32.45807862101765
 40
32.45807862101765
 40
32.45807862101765
 10
93.10822646408613
 20
174.7410134338643
 30
0.0
 10
93.11030494632691
 20
174.7298538171943
 30
0.0
 10
93.11446191285464
 20
174.7075345728684
 30
0.0
 10
93.12129154681961
 20
174.6742317475434
 30
0.0
 10
93.12854059709449
 20
174.6410798496723
 30
0.0
 10
93.13625216908794
 20
174.6080938999573
 30
0.0
 10
93.14442937214972
 20
174.5752208330448
 30
0.0
 10
93.1526886473182
 20
174.5439415222976
 30
0.0
 10
93.1609598713946
 20
174.5142439812021
 30
0.0
 10
93.17001530326984
 20
174.4832347171411
 30
0.0
 10
93.18039851723611
 20
174.4494911483239
 30
0.0
 10
93.19179557834778
 20
174.4144809898751
 30
0.0
 10
93.20324067759543
 20
174.3810540655599
 30
0.0
 10
93.21466280313834
 20
174.3491938711125
 30
0.0
 10
93.22654504736933
 20
174.3175025167902
 30
0.0
 10
93.23890750876866
 20
174.2859416285905
 30
0.0
 10
93.25175433980635
 20
174.2545207080459
 30
0.0
 10
93.26506536801327
 20
174.2232383105273
 30
0.0
 10
93.27879917911506
 20
174.192138233797
 30
0.0
 10
93.29383505643696
 20
174.1592449100242
 30
0.0
 10
93.3102398410776
 20
174.1245961702366
 30
0.0
 10
93.32809737427377
 20
174.0882396469566
 30
0.0
 10
93.34646749205589
 20
174.052138561678
 30
0.0
 10
93.3653376980001
 20
174.0162968542835
 30
0.0
 10
93.38469588594157
 20
173.9807175612745
 30
0.0
 10
93.40650935746912
 20
173.9418800834875
 30
0.0
 10
93.4309442565239
 20
173.8998857961622
 30
0.0
 10
93.45501634305069
 20
173.8601241345027
 30
0.0
 10
93.47640400590771
 20
173.8259285651887
 30
0.0
 10
93.49486871507921
 20
173.797156127265
 30
0.0
 10
93.51367202676076
 20
173.7686037058889
 30
0.0
 10
93.53398077722173
 20
173.7385565813189
 30
0.0
 10
93.55587458673139
 20
173.7070752547811
 30
0.0
 10
93.57941432742743
 20
173.6742091303053
 30
0.0
 10
93.60339101588346
 20
173.6416581155022
 30
0.0
 10
93.62778465127718
 20
173.6094130034873
 30
0.0
 10
93.6525732114776
 20
173.5774673206234
 30
0.0
 10
93.67919078878495
 20
173.543980537104
 30
0.0
 10
93.70768938991755
 20
173.5090044515621
 30
0.0
 10
93.73814346032017
 20
173.4726093203056
 30
0.0
 10
93.76907018746749
 20
173.4366145107389
 30
0.0
 10
93.80044531422394
 20
173.4010112714687
 30
0.0
 10
93.83224551266291
 20
173.3657895510301
 30
0.0
 10
93.86451147159774
 20
173.3310023125264
 30
0.0
 10
93.89728619620482
 20
173.2967000713014
 30
0.0
 10
93.92159514455639
 20
173.2717201468646
 30
0.0
 10
93.93716257535263
 20
173.2557903205172
 30
0.0
 10
93.95339704787199
 20
173.2394191826694
 30
0.0
 10
93.98014532879351
 20
173.2146582896922
 30
0.0
 10
94.01758337652979
 20
173.1818194381051
 30
0.0
 10
94.05443306459864
 20
173.1483082726486
 30
0.0
 10
94.09107407724217
 20
173.114583811061
 30
0.0
 10
94.12791549893093
 20
173.0810791134859
 30
0.0
 10
94.16475956999179
 20
173.0475752879998
 30
0.0
 10
94.20140645592799
 20
173.013855403713
 30
0.0
 10
94.23885293485407
 20
172.979805834051
 30
0.0
 10
94.27752116339127
 20
172.9459037785434
 30
0.0
 10
94.31761722529232
 20
172.9123956201228
 30
0.0
 10
94.35867633723683
 20
172.8800493735291
 30
0.0
 10
94.40045306998911
 20
172.8485850021691
 30
0.0
 10
94.44269838828805
 20
172.8177247245619
 30
0.0
 10
94.48531098593641
 20
172.7873634146401
 30
0.0
 10
94.52818821320474
 20
172.7573952696104
 30
0.0
 10
94.55953794207326
 20
172.7355491355012
 30
0.0
 10
94.57927431238345
 20
172.7216861576239
 30
0.0
 10
94.59973687036829
 20
172.7074625069539
 30
0.0
 10
94.63323574444202
 20
172.6859033024992
 30
0.0
 10
94.67990428316141
 20
172.6573333080301
 30
0.0
 10
94.72614258990504
 20
172.6280591149431
 30
0.0
 10
94.77222502074595
 20
172.5985545230054
 30
0.0
 10
94.81845185527752
 20
172.5692773560203
 30
0.0
 10
94.86468499990242
 20
172.5400082237196
 30
0.0
 10
94.91078467580709
 20
172.510528850417
 30
0.0
 10
94.95449896323665
 20
172.4828469750967
 30
0.0
 10
94.99601551595052
 20
172.4572675810651
 30
0.0
 10
95.03537964980379
 20
172.4338706968396
 30
0.0
 10
95.07522334638975
 20
172.4112882052211
 30
0.0
 10
95.11544737421252
 20
172.3893585339316
 30
0.0
 10
95.15594830323124
 20
172.3679226502554
 30
0.0
 10
95.19668227703795
 20
172.3469010159436
 30
0.0
 10
95.23759473847326
 20
172.3262192095854
 30
0.0
 10
95.27864128315193
 20
172.3058129943652
 30
0.0
 10
95.3197817977957
 20
172.28561574034
 30
0.0
 10
95.3499617008768
 20
172.2708001808867
 30
0.0
 10
95.36915961167848
 20
172.2613048082338
 30
0.0
 10
95.38893350170841
 20
172.2516290225727
 30
0.0
 10
95.42065087354209
 20
172.2372457396824
 30
0.0
 10
95.4643777415742
 20
172.2183915924653
 30
0.0
 10
95.50788274370713
 20
172.1990208665092
 30
0.0
 10
95.55129800615993
 20
172.1794606462624
 30
0.0
 10
95.59477167321668
 20
172.160031069995
 30
0.0
 10
95.63827373881384
 20
172.1406636201279
 30
0.0
 10
95.68177331913979
 20
172.1212901989193
 30
0.0
 10
95.72524769411562
 20
172.1018607911944
 30
0.0
 10
95.76867441974922
 20
172.0823252562849
 30
0.0
 10
95.81273718387297
 20
172.0627045106391
 30
0.0
 10
95.85756303224
 20
172.0432911686096
 30
0.0
 10
95.90322760849381
 20
172.0242667135362
 30
0.0
 10
95.94922217153797
 20
172.0060418609286
 30
0.0
 10
95.99548026728752
 20
171.9884624815586
 30
0.0
 10
96.04193139184767
 20
171.9713761377725
 30
0.0
 10
96.08854534515665
 20
171.9547045536858
 30
0.0
 10
96.13528297381103
 20
171.9383724013067
 30
0.0
 10
96.18211145042022
 20
171.922311697143
 30
0.0
 10
96.2290017066879
 20
171.9064529963633
 30
0.0
 10
96.26265212692593
 20
171.8950857475779
 30
0.0
 10
96.28304902513997
 20
171.8881492228636
 30
0.0
 10
96.30393238396503
 20
171.8811172785537
 30
0.0
 10
96.33882018056031
 20
171.87034690868
 30
0.0
 10
96.38776963703862
 20
171.8561292268543
 30
0.0
 10
96.43656820740075
 20
171.8413899950951
 30
0.0
 10
96.48530425724211
 20
171.8264582325241
 30
0.0
 10
96.53408047951412
 20
171.8116587612159
 30
0.0
 10
96.58287626199834
 20
171.7969221304554
 30
0.0
 10
96.63167025949883
 20
171.7821791315459
 30
0.0
 10
96.68044705597706
 20
171.7673799196639
 30
0.0
 10
96.72919147441081
 20
171.7524745758775
 30
0.0
 10
96.77846942384623
 20
171.7375885403769
 30
0.0
 10
96.82836513554709
 20
171.7230093572123
 30
0.0
 10
96.87892769249278
 20
171.7089128925191
 30
0.0
 10
96.92970738198642
 20
171.6956041804365
 30
0.0
 10
96.9806600887739
 20
171.6829316224144
 30
0.0
 10
97.03173810594534
 20
171.67074462143
 30
0.0
 10
97.08292252499916
 20
171.6589690687648
 30
0.0
 10
97.13418669646921
 20
171.6475324555099
 30
0.0
 10
97.18550698756397
 20
171.6363622217932
 30
0.0
 10
97.23686315396094
 20
171.6253849434314
 30
0.0
 10
97.27284553169824
 20
171.6177208548711
 30
0.0
 10
97.29344613267726
 20
171.6133057773595
 30
0.0
 10
97.31439403363444
 20
171.608859045844
 30
0.0
 10
97.35123708316019
 20
171.6019123821972
 30
0.0
 10
97.40401357803893
 20
171.592817881749
 30
0.0
 10
97.45669916645801
 20
171.5831933816374
 30
0.0
 10
97.50934499394091
 20
171.5733724345681
 30
0.0
 10
97.56201565245894
 20
171.5636862404667
 30
0.0
 10
97.61469846583978
 20
171.5540638791216
 30
0.0
 10
97.66738012871213
 20
171.5444345618897
 30
0.0
 10
97.72005126512302
 20
171.5347486830001
 30
0.0
 10
97.77270271596356
 20
171.5249565954694
 30
0.0
 10
97.82573501193969
 20
171.5152662127823
 30
0.0
 10
97.87919748986401
 20
171.505960148777
 30
0.0
 10
97.93311786230875
 20
171.4972087406205
 30
0.0
 10
97.98716229369306
 20
171.4892348061964
 30
0.0
 10
98.04130490461336
 20
171.4818890673736
 30
0.0
 10
98.0955164999266
 20
171.4750227818192
 30
0.0
 10
98.14978703771709
 20
171.4685657490754
 30
0.0
 10
98.20409948232188
 20
171.4624484564625
 30
0.0
 10
98.258438582818
 20
171.4565939315083
 30
0.0
 10
98.31279226933144
 20
171.4509247543034
 30
0.0
 10
98.34994429794563
 20
171.4470889617223
 30
0.0
 10
98.36989237342425
 20
171.4450155201161
 30
0.0
 10
98.38696880009401
 20
171.4432606184561
 30
0.0
 10
98.41844351867528
 20
171.440695841662
 30
0.0
 10
98.46432266017304
 20
171.4376556660692
 30
0.0
 10
98.51017317808774
 20
171.4341785221683
 30
0.0
 10
98.55600878528354
 20
171.4305428984769
 30
0.0
 10
98.6018535996711
 20
171.4270265655036
 30
0.0
 10
98.64770189415505
 20
171.4235514736461
 30
0.0
 10
98.6935474948892
 20
171.4200396186816
 30
0.0
 10
98.73939266571676
 20
171.4165237189534
 30
0.0
 10
98.78523999536395
 20
171.4130364689898
 30
0.0
 10
98.8310854907714
 20
171.4095248198901
 30
0.0
 10
98.87692498816661
 20
171.4059357345366
 30
0.0
 10
98.92292428992198
 20
171.402439562493
 30
0.0
 10
98.96909643874213
 20
171.3992215873873
 30
0.0
 10
99.01544774598577
 20
171.396400539015
 30
0.0
 10
99.06182870760441
 20
171.394102689884
 30
0.0
 10
99.1082337171524
 20
171.3922522764704
 30
0.0
 10
99.15465559618262
 20
171.3907736928411
 30
0.0
 10
99.20109492356306
 20
171.3896423418552
 30
0.0
 10
99.24754514958869
 20
171.3888338083249
 30
0.0
 10
99.29400664221673
 20
171.3883098379338
 30
0.0
 10
99.34047316355172
 20
171.3880322293224
 30
0.0
 10
99.38694350476878
 20
171.3879664726797
 30
0.0
 10
99.43341386802165
 20
171.3880780188767
 30
0.0
 10
99.47988085654961
 20
171.3883313812107
 30
0.0
 10
99.52634419203274
 20
171.3886910631338
 30
0.0
 10
99.57280021502865
 20
171.3891668635734
 30
0.0
 10
99.61925144805146
 20
171.3897686286675
 30
0.0
 10
99.66569461783391
 20
171.3905060643444
 30
0.0
 10
99.71213247155303
 20
171.3913889637268
 30
0.0
 10
99.75856233458862
 20
171.3924270431572
 30
0.0
 10
99.80498622536291
 20
171.3936301202799
 30
0.0
 10
99.85140233601925
 20
171.3950079069438
 30
0.0
 10
99.89781168180349
 20
171.3965702033335
 30
0.0
 10
99.94421360695317
 20
171.3983267520331
 30
0.0
 10
99.99060781488163
 20
171.4002873251439
 30
0.0
 10
100.0368412080408
 20
171.4024544790574
 30
0.0
 10
100.0829119726923
 20
171.404835301629
 30
0.0
 10
100.128820873384
 20
171.4074249375029
 30
0.0
 10
100.174718747738
 20
171.410228851388
 30
0.0
 10
100.2206057067871
 20
171.4132444950234
 30
0.0
 10
100.2664793954876
 20
171.4164691544292
 30
0.0
 10
100.3123392223023
 20
171.4199012105072
 30
0.0
 10
100.3581834404461
 20
171.4235389512783
 30
0.0
 10
100.4040110402418
 20
171.4273771204178
 30
0.0
 10
100.4498213276091
 20
171.4314104756486
 30
0.0
 10
100.4956112962847
 20
171.4356470771075
 30
0.0
 10
100.5413797836773
 20
171.4400951422769
 30
0.0
 10
100.5727957921935
 20
171.4432661154456
 30
0.0
 10
100.5898749850907
 20
171.4450156374564
 30
0.0
 10
100.6098168150312
 20
171.4470805357392
 30
0.0
 10
100.6468736137837
 20
171.4517092449524
 30
0.0
 10
100.700969956592
 20
171.4593026005189
 30
0.0
 10
100.7551406399686
 20
171.4663684003795
 30
0.0
 10
100.8093334693857
 20
171.4732367561774
 30
0.0
 10
100.8635089895279
 20
171.4802395300629
 30
0.0
 10
100.9176765826809
 20
171.4873064690554
 30
0.0
 10
100.9718450853013
 20
171.4943672634358
 30
0.0
 10
101.026020924499
 20
171.5013704627119
 30
0.0
 10
101.0802107049442
 20
171.5082646377344
 30
0.0
 10
101.1340232908944
 20
171.515282088654
 30
0.0
 10
101.1874214833455
 20
171.5226908075264
 30
0.0
 10
101.2403827091783
 20
171.5306425205696
 30
0.0
 10
101.2932290486191
 20
171.5393472980308
 30
0.0
 10
101.3459795520228
 20
171.5486658470001
 30
0.0
 10
101.3986498855848
 20
171.5584583575107
 30
0.0
 10
101.45125051964
 20
171.5686606047116
 30
0.0
 10
101.5037855704187
 20
171.5792069908904
 30
0.0
 10
101.5562605594512
 20
171.5900359286525
 30
0.0
 10
101.6086842751424
 20
171.601086393933
 30
0.0
 10
101.6453631424421
 20
171.6088729601589
 30
0.0
 10
101.6663212951372
 20
171.6133056395728
 30
0.0
 10
101.6869173257639
 20
171.6177046759859
 30
0.0
 10
101.7227088693062
 20
171.6261890303807
 30
0.0
 10
101.7735932737479
 20
171.6390795522489
 30
0.0
 10
101.8246044431948
 20
171.6514713004693
 30
0.0
 10
101.8756574962868
 20
171.6636755103435
 30
0.0
 10
101.9266799479554
 20
171.6760065246822
 30
0.0
 10
101.9776879229025
 20
171.6883990852659
 30
0.0
 10
102.0286969421932
 20
171.7007878026225
 30
0.0
 10
102.0797196838554
 20
171.7131192838421
 30
0.0
 10
102.1307689841644
 20
171.7253401720538
 30
0.0
 10
102.1812841523913
 20
171.7376121499617
 30
0.0
 10
102.231198179529
 20
171.7502007062783
 30
0.0
 10
102.2804721072925
 20
171.7632542007506
 30
0.0
 10
102.3295454065305
 20
171.7770577821289
 30
0.0
 10
102.3784518388359
 20
171.7914755436601
 30
0.0
 10
102.4272214352708
 20
171.8063705759671
 30
0.0
 10
102.4758718205129
 20
171.8216791508779
 30
0.0
 10
102.5244140133393
 20
171.8373352880121
 30
0.0
 10
102.5728565110683
 20
171.8532879097174
 30
0.0
 10
102.621211352826
 20
171.8694869661932
 30
0.0
 10
102.6558192522045
 20
171.8811395783394
 30
0.0
 10
102.6767185701903
 20
171.8881487956085
 30
0.0
 10
102.6971145273478
 20
171.8950596841419
 30
0.0
 10
102.7304567728127
 20
171.9072777265905
 30
0.0
 10
102.7766256362615
 20
171.9250473594987
 30
0.0
 10
102.8229772641451
 20
171.942343632038
 30
0.0
 10
102.8693916648121
 20
171.9594608713514
 30
0.0
 10
102.9157614413042
 20
171.9766982210979
 30
0.0
 10
102.9621096241607
 20
171.9939949031635
 30
0.0
 10
103.008458557366
 20
172.011289901591
 30
0.0
 10
103.0548286045053
 20
172.0285277768148
 30
0.0
 10
103.1012402728506
 20
172.0456531393773
 30
0.0
 10
103.1470088025483
 20
172.0627350504061
 30
0.0
 10
103.1920326112005
 20
172.0800375869886
 30
0.0
 10
103.2362539832474
 20
172.0977066000423
 30
0.0
 10
103.28017369972
 20
172.1161251494166
 30
0.0
 10
103.3238421044282
 20
172.1351599765173
 30
0.0
 10
103.3673052588166
 20
172.1546760868035
 30
0.0
 10
103.4105890683548
 20
172.1746102786686
 30
0.0
 10
103.4537123116879
 20
172.1948958267071
 30
0.0
 10
103.4966848445941
 20
172.215490371243
 30
0.0
 10
103.5395205150104
 20
172.2363532721061
 30
0.0
 10
103.5708088562867
 20
172.2516595319427
 30
0.0
 10
103.5906083608392
 20
172.2613039294413
 30
0.0
 10
103.609811530651
 20
172.2707632399671
 30
0.0
 10
103.6395325601806
 20
172.28645524363
 30
0.0
 10
103.6796431740263
 20
172.3085523006338
 30
0.0
 10
103.7200020427874
 20
172.3302002369156
 30
0.0
 10
103.7604481349955
 20
172.3516764979841
 30
0.0
 10
103.8008337726106
 20
172.3732658534997
 30
0.0
 10
103.8411887836634
 20
172.3949136114028
 30
0.0
 10
103.8815421674206
 20
172.416564659825
 30
0.0
 10
103.921928055076
 20
172.4381546252566
 30
0.0
 10
103.9623806918353
 20
172.4596191859868
 30
0.0
 10
104.0053529956315
 20
172.482679677208
 30
0.0
 10
104.0506071875859
 20
172.5077689561589
 30
0.0
 10
104.097958785397
 20
172.535212226768
 30
0.0
 10
104.1446711561128
 20
172.5637517653692
 30
0.0
 10
104.1908721892018
 20
172.5931497574498
 30
0.0
 10
104.2366860912444
 20
172.6231657795207
 30
0.0
 10
104.2821381201075
 20
172.6537302800723
 30
0.0
 10
104.3272545680232
 20
172.684773461023
 30
0.0
 10
104.3599883915745
 20
172.7074950124484
 30
0.0
 10
104.3804944231305
 20
172.7216846329404
 30
0.0
 10
104.4002387691309
 20
172.7354998936793
 30
0.0
 10
104.4307703750953
 20
172.7584378411385
 30
0.0
 10
104.4718697350898
 20
172.7907002038727
 30
0.0
 10
104.5134303857291
 20
172.822375915507
 30
0.0
 10
104.5551332365906
 20
172.8538533107165
 30
0.0
 10
104.5966794768681
 20
172.8855365568563
 30
0.0
 10
104.6382345143421
 20
172.9172097459509
 30
0.0
 10
104.6799620597136
 20
172.9486556942457
 30
0.0
 10
104.72085720807
 20
172.9798474749444
 30
0.0
 10
104.7605862327202
 20
173.0112090896651
 30
0.0
 10
104.7989925626504
 20
173.0429321042378
 30
0.0
 10
104.8365038648837
 20
173.0757314010224
 30
0.0
 10
104.8733040168733
 20
173.1093656919413
 30
0.0
 10
104.9095735740963
 20
173.1435902138361
 30
0.0
 10
104.9453417010677
 20
173.1783412116914
 30
0.0
 10
104.9806391645252
 20
173.2135547654917
 30
0.0
 10
105.0063201169255
 20
173.2394396706657
 30
0.0
 10
105.0226021084244
 20
173.2557934982074
 30
0.0
 10
105.0382066503264
 20
173.2716774984795
 30
0.0
 10
105.0616001297905
 20
173.2975324937669
 30
0.0
 10
105.0925168128229
 20
173.3335017434396
 30
0.0
 10
105.1240535301045
 20
173.368939121488
 30
0.0
 10
105.1557794885875
 20
173.4041955462189
 30
0.0
 10
105.1872860481239
 20
173.439647551006
 30
0.0
 10
105.2188165302594
 20
173.4750802172157
 30
0.0
 10
105.2506116474723
 20
173.5102757217242
 30
0.0
 10
105.2805618427336
 20
173.5439842660964
 30
0.0
 10
105.3082407636383
 20
173.5765661031723
 30
0.0
 10
105.3335698296071
 20
173.6080776593406
 30
0.0
 10
105.3578246245242
 20
173.6404445431681
 30
0.0
 10
105.3812942446122
 20
173.6734144774088
 30
0.0
 10
105.4042723620313
 20
173.7067399104589
 30
0.0
 10
105.4257487878627
 20
173.7385623604332
 30
0.0
 10
105.4459146793223
 20
173.7687396456028
 30
0.0
 10
105.464726320712
 20
173.7972900216313
 30
0.0
 10
105.4832812438323
 20
173.8259973033398
 30
0.0
 10
105.5047838463596
 20
173.8601091773321
 30
0.0
 10
105.5288681377009
 20
173.8998590153321
 30
0.0
 10
105.5532557009195
 20
173.9418817459621
 30
0.0
 10
105.5750547442931
 20
173.9807288391231
 30
0.0
 10
105.5944147659683
 20
174.0163072349537
 30
0.0
 10
105.6132943536393
 20
174.052142464653
 30
0.0
 10
105.6316751229995
 20
174.0882365125911
 30
0.0
 10
105.6495380132177
 20
174.1245901865457
 30
0.0
 10
105.6664659622696
 20
174.1603629657328
 30
0.0
 10
105.6824829863093
 20
174.1955333240999
 30
0.0
 10
105.6976148962375
 20
174.2300802938534
 30
0.0
 10
105.7122301995532
 20
174.2648485353194
 30
0.0
 10
105.7263108933265
 20
174.2998344141098
 30
0.0
 10
105.7398395704133
 20
174.3350355479811
 30
0.0
 10
105.7519640427113
 20
174.3681684750625
 30
0.0
 10
105.7627916581776
 20
174.399185780301
 30
0.0
 10
105.772438289489
 20
174.4280401493095
 30
0.0
 10
105.7817061097456
 20
174.4570178739598
 30
0.0
 10
105.7926852373847
 20
174.492946582102
 30
0.0
 10
105.8050079651254
 20
174.5359326352247
 30
0.0
 10
105.8170141525991
 20
174.5815433280478
 30
0.0
 10
105.8270527308735
 20
174.6228032211199
 30
0.0
 10
105.8353980615505
 20
174.6596360804252
 30
0.0
 10
105.8431561293579
 20
174.6965988114758
 30
0.0
 10
105.8503221359634
 20
174.7336839718308
 30
0.0
 10
105.8568906189326
 20
174.7708807993577
 30
0.0
 10
105.8628028306668
 20
174.807844686472
 30
0.0
 10
105.8680725165198
 20
174.8445623499571
 30
0.0
 10
105.8727085217854
 20
174.8810218459138
 30
0.0
 10
105.8767493346285
 20
174.9175509583147
 30
0.0
 10
105.88018478667
 20
174.9541386597251
 30
0.0
 10
105.883005046468
 20
174.990776956458
 30
0.0
 10
105.8855603244795
 20
175.0334769464295
 30
0.0
 10
105.8874242600441
 20
175.082253878
 30
0.0
 10
105.888117606613
 20
175.1370943494898
 30
0.0
 10
105.8874242642231
 20
175.1919348210565
 30
0.0
 10
105.8855603268782
 20
175.2407117506053
 30
0.0
 10
105.8830050393779
 20
175.2834117359151
 30
0.0
 10
105.8801847697085
 20
175.3200500265096
 30
0.0
 10
105.8767493094542
 20
175.3566377225534
 30
0.0
 10
105.8727084935841
 20
175.3931668350891
 30
0.0
 10
105.8680724943256
 20
175.429626336594
 30
0.0
 10
105.8628028271175
 20
175.4663440170247
 30
0.0
 10
105.8568906518877
 20
175.503307929434
 30
0.0
 10
105.8503222098219
 20
175.5405047844469
 30
0.0
 10
105.8431562347527
 20
175.5775899669728
 30
0.0
 10
105.8353981772497
 20
175.6145526975932
 30
0.0
 10
105.8270528209981
 20
175.6513855333306
 30
0.0
 10
105.8170141518896
 20
175.692645380984
 30
0.0
 10
105.805007751301
 20
175.738256004945
 30
0.0
 10
105.7926850827037
 20
175.7812421227143
 30
0.0
 10
105.781706429643
 20
175.8171710832066
 30
0.0
 10
105.7724389626654
 20
175.8461489805597
 30
0.0
 10
105.7627923805411
 20
175.8750033220921
 30
0.0
 10
105.751964230829
 20
175.9060200428248
 30
0.0
 10
105.7398380278902
 20
175.9391516874566
 30
0.0
 10
105.7263070383033
 20
175.9743511602815
 30
0.0
 10
105.712224435785
 20
176.0093356280271
 30
0.0
 10
105.6976083824843
 20
176.0441036060386
 30
0.0
 10
105.6824778456731
 20
176.0786518022377
 30
0.0
 10
105.666465121942
 20
176.1138260055108
 30
0.0
 10
105.6495459087886
 20
176.1496054949073
 30
0.0
 10
105.6316930477198
 20
176.1859667652561
 30
0.0
 10
105.613319979109
 20
176.2220668533113
 30
0.0
 10
105.594442879619
 20
176.2579032544174
 30
0.0
 10
105.5750765233047
 20
176.2934761722969
 30
0.0
 10
105.5532560891886
 20
176.3323082689893
 30
0.0
 10
105.5288207769792
 20
176.3743015215736
 30
0.0
 10
105.5047510329221
 20
176.4140646127399
 30
0.0
 10
105.4833640789069
 20
176.4482606660362
 30
0.0
 10
105.4648993599975
 20
176.4770331332747
 30
0.0
 10
105.4460957072695
 20
176.5055853174455
 30
0.0
 10
105.4257865223083
 20
176.5356320896663
 30
0.0
 10
105.4038924558091
 20
176.5671131876245
 30
0.0
 10
105.3803526162091
 20
176.5999792186163
 30
0.0
 10
105.3563759577359
 20
176.6325302477515
 30
0.0
 10
105.3319824310933
 20
176.6647754514239
 30
0.0
 10
105.3071940181515
 20
176.6967212602435
 30
0.0
 10
105.2805765899469
 20
176.7302081733486
 30
0.0
 10
105.25207808447
 20
176.7651843452852
 30
0.0
 10
105.2216240599224
 20
176.8015795186409
 30
0.0
 10
105.1906973362003
 20
176.8375743331939
 30
0.0
 10
105.1593221837321
 20
176.873177550368
 30
0.0
 10
105.1275219424837
 20
176.9083992330288
 30
0.0
 10
105.0952559374444
 20
176.9431864301509
 30
0.0
 10
105.0624811770358
 20
176.9774886386874
 30
0.0
 10
105.038172215857
 20
177.0024685517943
 30
0.0
 10
105.0226047844158
 20
177.0183983781113
 30
0.0
 10
105.0063703127324
 20
177.0347695167732
 30
0.0
 10
104.9796220319191
 20
177.0595304099374
 30
0.0
 10
104.9421839834712
 20
177.0923692607173
 30
0.0
 10
104.9053342953342
 20
177.1258804261307
 30
0.0
 10
104.8686932828874
 20
177.1596048879298
 30
0.0
 10
104.8318518612142
 20
177.1931095855185
 30
0.0
 10
104.7950077901012
 20
177.2266134109474
 30
0.0
 10
104.7583609041604
 20
177.2603332952305
 30
0.0
 10
104.7209144252487
 20
177.2943828649083
 30
0.0
 10
104.6822461967125
 20
177.3282849204169
 30
0.0
 10
104.6421501348077
 20
177.361793078833
 30
0.0
 10
104.6010910228629
 20
177.3941393254262
 30
0.0
 10
104.5593142901114
 20
177.4256036967875
 30
0.0
 10
104.5170689718126
 20
177.4564639743946
 30
0.0
 10
104.474456374164
 20
177.4868252843162
 30
0.0
 10
104.4315791468958
 20
177.5167934293461
 30
0.0
 10
104.4002294180273
 20
177.5386395634551
 30
0.0
 10
104.3804930477172
 20
177.5525025413326
 30
0.0
 10
104.3600304897323
 20
177.5667261920024
 30
0.0
 10
104.3265316156586
 20
177.5882853964573
 30
0.0
 10
104.2798630769392
 20
177.6168553909263
 30
0.0
 10
104.2336247701955
 20
177.6461295840134
 30
0.0
 10
104.1875423393547
 20
177.6756341759512
 30
0.0
 10
104.141315504823
 20
177.704911342936
 30
0.0
 10
104.0950823601982
 20
177.734180475237
 30
0.0
 10
104.0489826842935
 20
177.7636598485395
 30
0.0
 10
104.005268396864
 20
177.7913417238599
 30
0.0
 10
103.96375184415
 20
177.8169211178913
 30
0.0
 10
103.9243877102968
 20
177.8403180021169
 30
0.0
 10
103.8845440137108
 20
177.8629004937354
 30
0.0
 10
103.8443199858881
 20
177.884830165025
 30
0.0
 10
103.8038190568693
 20
177.9062660487011
 30
0.0
 10
103.7630850830626
 20
177.9272876830128
 30
0.0
 10
103.7221726216273
 20
177.9479694893711
 30
0.0
 10
103.6811260769486
 20
177.9683757045912
 30
0.0
 10
103.6399855623047
 20
177.9885729586165
 30
0.0
 10
103.6098056592237
 20
178.0033885180696
 30
0.0
 10
103.590607748422
 20
178.0128838907228
 30
0.0
 10
103.5708338583921
 20
178.0225596763839
 30
0.0
 10
103.5391164865584
 20
178.0369429592742
 30
0.0
 10
103.4953896185263
 20
178.0557971064912
 30
0.0
 10
103.4518846163934
 20
178.0751678324473
 30
0.0
 10
103.4084693539406
 20
178.0947280526941
 30
0.0
 10
103.3649956868838
 20
178.1141576289615
 30
0.0
 10
103.3214936212867
 20
178.1335250788285
 30
0.0
 10
103.2779940409607
 20
178.152898500037
 30
0.0
 10
103.234519665985
 20
178.1723279077621
 30
0.0
 10
103.1910929403514
 20
178.1918634426715
 30
0.0
 10
103.1470301762278
 20
178.2114841883175
 30
0.0
 10
103.1022043278606
 20
178.2308975303468
 30
0.0
 10
103.0565397516068
 20
178.24992198542
 30
0.0
 10
103.0105451885626
 20
178.2681468380275
 30
0.0
 10
102.964287092813
 20
178.2857262173973
 30
0.0
 10
102.9178359682527
 20
178.3028125611832
 30
0.0
 10
102.8712220149437
 20
178.3194841452698
 30
0.0
 10
102.8244843862893
 20
178.3358162976488
 30
0.0
 10
102.7776559096802
 20
178.3518770018128
 30
0.0
 10
102.7307656534126
 20
178.3677357025926
 30
0.0
 10
102.6971152331747
 20
178.3791029513786
 30
0.0
 10
102.6767183349606
 20
178.3860394760928
 30
0.0
 10
102.6558349761358
 20
178.3930714204033
 30
0.0
 10
102.6209471795404
 20
178.4038417902767
 30
0.0
 10
102.571997723062
 20
178.4180594721023
 30
0.0
 10
102.5231991526999
 20
178.4327987038614
 30
0.0
 10
102.4744631028585
 20
178.4477304664324
 30
0.0
 10
102.4256868805864
 20
178.4625299377406
 30
0.0
 10
102.3768910981022
 20
178.4772665685011
 30
0.0
 10
102.3280971006017
 20
178.4920095674106
 30
0.0
 10
102.2793203041234
 20
178.5068087792927
 30
0.0
 10
102.2305758856897
 20
178.5217141230789
 30
0.0
 10
102.1812979362542
 20
178.5366001585796
 30
0.0
 10
102.1314022245534
 20
178.5511793417442
 30
0.0
 10
102.0808396676077
 20
178.5652758064375
 30
0.0
 10
102.0300599781141
 20
178.57858451852
 30
0.0
 10
101.9791072713267
 20
178.5912570765423
 30
0.0
 10
101.9280292541552
 20
178.6034440775267
 30
0.0
 10
101.8768448351014
 20
178.6152196301921
 30
0.0
 10
101.8255806636314
 20
178.6266562434471
 30
0.0
 10
101.7742603725365
 20
178.6378264771636
 30
0.0
 10
101.7229042061395
 20
178.648803755525
 30
0.0
 10
101.6869218284023
 20
178.6564678440857
 30
0.0
 10
101.666321227423
 20
178.660882921597
 30
0.0
 10
101.645373326466
 20
178.6653296531125
 30
0.0
 10
101.6085302769401
 20
178.6722763167593
 30
0.0
 10
101.5557537820614
 20
178.6813708172075
 30
0.0
 10
101.5030681936423
 20
178.690995317319
 30
0.0
 10
101.4504223661594
 20
178.7008162643884
 30
0.0
 10
101.3977517076413
 20
178.7105024584897
 30
0.0
 10
101.3450688942605
 20
178.7201248198349
 30
0.0
 10
101.2923872313882
 20
178.7297541370666
 30
0.0
 10
101.2397160949773
 20
178.7394400159565
 30
0.0
 10
101.1870646441368
 20
178.749232103487
 30
0.0
 10
101.1340323481606
 20
178.7589224861741
 30
0.0
 10
101.0805698702364
 20
178.7682285501793
 30
0.0
 10
101.0266494977916
 20
178.7769799583359
 30
0.0
 10
100.9726050664073
 20
178.7849538927599
 30
0.0
 10
100.9184624554871
 20
178.7922996315829
 30
0.0
 10
100.8642508601738
 20
178.7991659171374
 30
0.0
 10
100.8099803223833
 20
178.805622949881
 30
0.0
 10
100.7556678777786
 20
178.8117402424942
 30
0.0
 10
100.7013287772824
 20
178.8175947674482
 30
0.0
 10
100.6469750907691
 20
178.8232639446532
 30
0.0
 10
100.6098230621547
 20
178.8270997372335
 30
0.0
 10
100.5898749866763
 20
178.8291731788405
 30
0.0
 10
100.5727985600066
 20
178.8309280805003
 30
0.0
 10
100.5413238414252
 20
178.8334928572947
 30
0.0
 10
100.4954446999274
 20
178.8365330328872
 30
0.0
 10
100.4495941820128
 20
178.8400101767882
 30
0.0
 10
100.4037585748169
 20
178.8436458004795
 30
0.0
 10
100.3579137604294
 20
178.8471621334529
 30
0.0
 10
100.3120654659454
 20
178.8506372253102
 30
0.0
 10
100.2662198652112
 20
178.8541490802748
 30
0.0
 10
100.2203746943837
 20
178.857664980003
 30
0.0
 10
100.1745273647365
 20
178.8611522299665
 30
0.0
 10
100.1286818693291
 20
178.8646638790665
 30
0.0
 10
100.0828423719339
 20
178.86825296442
 30
0.0
 10
100.0368430701785
 20
178.8717491364633
 30
0.0
 10
99.99067092135837
 20
178.8749671115693
 30
0.0
 10
99.9443196141147
 20
178.8777881599414
 30
0.0
 10
99.89793865249609
 20
178.8800860090726
 30
0.0
 10
99.8515336429481
 20
178.8819364224861
 30
0.0
 10
99.80511176391785
 20
178.8834150061153
 30
0.0
 10
99.75867243653745
 20
178.8845463571012
 30
0.0
 10
99.71222221051184
 20
178.8853548906316
 30
0.0
 10
99.66576071788376
 20
178.8858788610226
 30
0.0
 10
99.61929419654884
 20
178.8861564696341
 30
0.0
 10
99.57282385533168
 20
178.8862222262768
 30
0.0
 10
99.52635349207888
 20
178.8861106800798
 30
0.0
 10
99.47988650355086
 20
178.8858573177456
 30
0.0
 10
99.43342316806778
 20
178.8854976358226
 30
0.0
 10
99.38696714507179
 20
178.8850218353828
 30
0.0
 10
99.34051591204901
 20
178.884420070289
 30
0.0
 10
99.29407274226662
 20
178.8836826346121
 30
0.0
 10
99.24763488854741
 20
178.8827997352295
 30
0.0
 10
99.2012050255119
 20
178.8817616557993
 30
0.0
 10
99.15478113473753
 20
178.8805585786765
 30
0.0
 10
99.10836502408122
 20
178.8791807920126
 30
0.0
 10
99.06195567829695
 20
178.8776184956229
 30
0.0
 10
99.01555375314734
 20
178.8758619469235
 30
0.0
 10
98.96915954521883
 20
178.8739013738125
 30
0.0
 10
98.92292615205969
 20
178.8717342198991
 30
0.0
 10
98.87685538740821
 20
178.8693533973274
 30
0.0
 10
98.83094648671649
 20
178.8667637614536
 30
0.0
 10
98.7850486123624
 20
178.8639598475685
 30
0.0
 10
98.73916165331332
 20
178.8609442039331
 30
0.0
 10
98.69328796461292
 20
178.8577195445272
 30
0.0
 10
98.64742813779816
 20
178.8542874884492
 30
0.0
 10
98.60158391965436
 20
178.8506497476781
 30
0.0
 10
98.55575631985869
 20
178.8468115785388
 30
0.0
 10
98.50994603249129
 20
178.8427782233078
 30
0.0
 10
98.46415606381576
 20
178.8385416218491
 30
0.0
 10
98.41838757642304
 20
178.8340935566797
 30
0.0
 10
98.38697156790704
 20
178.830922583511
 30
0.0
 10
98.3698923750097
 20
178.8291730615001
 30
0.0
 10
98.34995054506923
 20
178.8271081632177
 30
0.0
 10
98.31289374631683
 20
178.8224794540037
 30
0.0
 10
98.25879740350844
 20
178.8148860984376
 30
0.0
 10
98.20462672013181
 20
178.807820298577
 30
0.0
 10
98.15043389071477
 20
178.800951942779
 30
0.0
 10
98.0962583705726
 20
178.7939491688935
 30
0.0
 10
98.04209077741959
 20
178.7868822299011
 30
0.0
 10
97.98792227479922
 20
178.7798214355207
 30
0.0
 10
97.93374643560136
 20
178.7728182362446
 30
0.0
 10
97.87955665515625
 20
178.765924061222
 30
0.0
 10
97.82574406920608
 20
178.7589066103024
 30
0.0
 10
97.77234587675498
 20
178.7514978914302
 30
0.0
 10
97.71938465092215
 20
178.7435461783868
 30
0.0
 10
97.6665383114814
 20
178.7348414009257
 30
0.0
 10
97.61378780807766
 20
178.7255228519562
 30
0.0
 10
97.56111747451564
 20
178.7157303414458
 30
0.0
 10
97.50851684046046
 20
178.7055280942449
 30
0.0
 10
97.45598178968164
 20
178.6949817080663
 30
0.0
 10
97.40350680064924
 20
178.684152770304
 30
0.0
 10
97.35108308495785
 20
178.6731023050239
 30
0.0
 10
97.31440421765836
 20
178.6653157387973
 30
0.0
 10
97.29344606496319
 20
178.6608830593838
 30
0.0
 10
97.27285003433649
 20
178.6564840229699
 30
0.0
 10
97.23705849079433
 20
178.6479996685759
 30
0.0
 10
97.18617408635251
 20
178.6351091467076
 30
0.0
 10
97.13516291690557
 20
178.6227173984873
 30
0.0
 10
97.08410986381358
 20
178.6105131886129
 30
0.0
 10
97.03308741214499
 20
178.5981821742743
 30
0.0
 10
96.98207943719784
 20
178.5857896136906
 30
0.0
 10
96.93107041790717
 20
178.5734008963342
 30
0.0
 10
96.88004767624494
 20
178.5610694151143
 30
0.0
 10
96.82899837593587
 20
178.5488485269027
 30
0.0
 10
96.77848320770895
 20
178.5365765489948
 30
0.0
 10
96.72856918057121
 20
178.5239879926783
 30
0.0
 10
96.67929525280779
 20
178.510934498206
 30
0.0
 10
96.63022195356966
 20
178.4971309168281
 30
0.0
 10
96.58131552126419
 20
178.482713155297
 30
0.0
 10
96.53254592482915
 20
178.4678181229902
 30
0.0
 10
96.48389553958711
 20
178.4525095480796
 30
0.0
 10
96.43535334676061
 20
178.4368534109455
 30
0.0
 10
96.38691084903172
 20
178.4209007892401
 30
0.0
 10
96.33855600727422
 20
178.4047017327639
 30
0.0
 10
96.30394810789568
 20
178.3930491206172
 30
0.0
 10
96.28304878991023
 20
178.3860399033479
 30
0.0
 10
96.26265283275274
 20
178.3791290148143
 30
0.0
 10
96.22931058728798
 20
178.3669109723657
 30
0.0
 10
96.18314172383907
 20
178.3491413394577
 30
0.0
 10
96.13679009595542
 20
178.3318450669184
 30
0.0
 10
96.09037569528837
 20
178.3147278276051
 30
0.0
 10
96.04400591879636
 20
178.2974904778586
 30
0.0
 10
95.99765773593973
 20
178.2801937957929
 30
0.0
 10
95.95130880273445
 20
178.2628987973655
 30
0.0
 10
95.90493875559514
 20
178.2456609221416
 30
0.0
 10
95.85852708724987
 20
178.2285355595791
 30
0.0
 10
95.81275855755224
 20
178.2114536485504
 30
0.0
 10
95.76773474889993
 20
178.1941511119678
 30
0.0
 10
95.72351337685325
 20
178.1764820989143
 30
0.0
 10
95.67959366038053
 20
178.1580635495398
 30
0.0
 10
95.63592525567239
 20
178.1390287224393
 30
0.0
 10
95.59246210128396
 20
178.1195126121529
 30
0.0
 10
95.5491782917458
 20
178.0995784202877
 30
0.0
 10
95.50605504841275
 20
178.0792928722494
 30
0.0
 10
95.46308251550649
 20
178.0586983277134
 30
0.0
 10
95.42024684509019
 20
178.0378354268504
 30
0.0
 10
95.38895850381391
 20
178.0225291670137
 30
0.0
 10
95.36915899926125
 20
178.0128847695152
 30
0.0
 10
95.34995582944941
 20
178.0034254589893
 30
0.0
 10
95.32023479991992
 20
177.9877334553264
 30
0.0
 10
95.28012418607415
 20
177.9656363983227
 30
0.0
 10
95.23976531731314
 20
177.9439884620409
 30
0.0
 10
95.19931922510504
 20
177.9225122009724
 30
0.0
 10
95.15893358748993
 20
177.9009228454568
 30
0.0
 10
95.11857857643726
 20
177.8792750875537
 30
0.0
 10
95.07822519268002
 20
177.8576240391315
 30
0.0
 10
95.03783930502452
 20
177.8360340736999
 30
0.0
 10
94.99738666826535
 20
177.8145695129696
 30
0.0
 10
94.95441436446916
 20
177.7915090217485
 30
0.0
 10
94.90916017251489
 20
177.7664197427977
 30
0.0
 10
94.86180857470374
 20
177.7389764721884
 30
0.0
 10
94.81509620398796
 20
177.7104369335872
 30
0.0
 10
94.76889517089896
 20
177.6810389415066
 30
0.0
 10
94.72308126885638
 20
177.6510229194356
 30
0.0
 10
94.67762923999328
 20
177.6204584188839
 30
0.0
 10
94.63251279207759
 20
177.5894152379335
 30
0.0
 10
94.59977896852604
 20
177.566693686508
 30
0.0
 10
94.57927293697006
 20
177.5525040660161
 30
0.0
 10
94.55952859096963
 20
177.5386888052771
 30
0.0
 10
94.52899698500525
 20
177.5157508578181
 30
0.0
 10
94.4878976250107
 20
177.4834884950838
 30
0.0
 10
94.44633697437142
 20
177.4518127834494
 30
0.0
 10
94.40463412350991
 20
177.42033538824
 30
0.0
 10
94.36308788323242
 20
177.3886521421001
 30
0.0
 10
94.3215328457584
 20
177.3569789530055
 30
0.0
 10
94.27980530038694
 20
177.3255330047107
 30
0.0
 10
94.23891015203041
 20
177.294341224012
 30
0.0
 10
94.19918112738012
 20
177.2629796092913
 30
0.0
 10
94.16077479744993
 20
177.2312565947189
 30
0.0
 10
94.12326349521642
 20
177.1984572979343
 30
0.0
 10
94.08646334322671
 20
177.1648230070155
 30
0.0
 10
94.05019378600365
 20
177.1305984851208
 30
0.0
 10
94.01442565903228
 20
177.0958474872654
 30
0.0
 10
93.9791281955748
 20
177.0606339334651
 30
0.0
 10
93.95344724317482
 20
177.0347490282911
 30
0.0
 10
93.93716525167601
 20
177.0183952007491
 30
0.0
 10
93.9215607097743
 20
177.0025112004771
 30
0.0
 10
93.89816723031014
 20
176.9766562051896
 30
0.0
 10
93.86725054727764
 20
176.9406869555169
 30
0.0
 10
93.83571382999594
 20
176.9052495774685
 30
0.0
 10
93.80398787151304
 20
176.8699931527376
 30
0.0
 10
93.77248131197655
 20
176.8345411479505
 30
0.0
 10
93.74095082984098
 20
176.7991084817408
 30
0.0
 10
93.70915571262813
 20
176.7639129772323
 30
0.0
 10
93.67920551736704
 20
176.7302044328603
 30
0.0
 10
93.6515265964628
 20
176.6976225957851
 30
0.0
 10
93.62619753049467
 20
176.6661110396177
 30
0.0
 10
93.60194273557821
 20
176.633744155791
 30
0.0
 10
93.57847311549021
 20
176.6007742215504
 30
0.0
 10
93.55549499807037
 20
176.5674487884994
 30
0.0
 10
93.5340185722373
 20
176.5356263385229
 30
0.0
 10
93.5138526807755
 20
176.5054490533505
 30
0.0
 10
93.49504103938484
 20
176.4768986773209
 30
0.0
 10
93.47648611626514
 20
176.4481913956136
 30
0.0
 10
93.45498351374
 20
176.4140795216233
 30
0.0
 10
93.43089922240293
 20
176.3743296836224
 30
0.0
 10
93.40651165916869
 20
176.3323069529679
 30
0.0
 10
93.38471261575572
 20
176.2934598597625
 30
0.0
 10
93.36535259403036
 20
176.2578814638723
 30
0.0
 10
93.34647300631546
 20
176.2220462341225
 30
0.0
 10
93.32809223695448
 20
176.1859521861967
 30
0.0
 10
93.31022934677895
 20
176.1495985123049
 30
0.0
 10
93.29330139785211
 20
176.1138257332876
 30
0.0
 10
93.27728437399917
 20
176.0786553751366
 30
0.0
 10
93.26215246426585
 20
176.0441084056045
 30
0.0
 10
93.24753716110658
 20
176.0093401643125
 30
0.0
 10
93.23345646733287
 20
175.9743542854604
 30
0.0
 10
93.21992779008332
 20
175.9391531513567
 30
0.0
 10
93.20780331740045
 20
175.906020223794
 30
0.0
 10
93.19697570139522
 20
175.8750029180253
 30
0.0
 10
93.1873290697539
 20
175.8461485488488
 30
0.0
 10
93.17806124952722
 20
175.8171708244501
 30
0.0
 10
93.16708212261733
 20
175.781242116633
 30
0.0
 10
93.15475939732025
 20
175.7382560630875
 30
0.0
 10
93.14275320780547
 20
175.6926453653208
 30
0.0
 10
93.13271461972646
 20
175.6513854636139
 30
0.0
 10
93.12436927751382
 20
175.6145525926185
 30
0.0
 10
93.11661119967579
 20
175.5775898515664
 30
0.0
 10
93.10944519051786
 20
175.5405046935499
 30
0.0
 10
93.10287671533635
 20
175.5033078782781
 30
0.0
 10
93.09696452825682
 20
175.4663440256979
 30
0.0
 10
93.09169488595508
 20
175.4296264073751
 30
0.0
 10
93.08705892735073
 20
175.3931669582733
 30
0.0
 10
93.08301815027254
 20
175.3566378835762
 30
0.0
 10
93.07958270701931
 20
175.320050172409
 30
0.0
 10
93.07676241956814
 20
175.2834118278486
 30
0.0
 10
93.07420703820253
 20
175.2407117786393
 30
0.0
 10
93.07234283412706
 20
175.1919348247924
 30
0.0
 10
93.071649585476
 20
175.1370943531478
 30
0.0
 10
93.07234403416868
 20
175.0822539029833
 30
0.0
 10
93.07420774346858
 20
175.0334760528135
 30
0.0
 10
93.0767604319359
 20
174.9907740318563
 30
0.0
 10
93.07957798522122
 20
174.9541331080864
 30
0.0
 10
93.08301093446342
 20
174.9175431164069
 30
0.0
 10
93.08705139550145
 20
174.8810142869425
 30
0.0
 10
93.0916867973955
 20
174.8445568573503
 30
0.0
 10
93.09679404421004
 20
174.8090700519997
 30
0.0
 10
93.10227007851586
 20
174.7745458398852
 30
0.0
 10
93.10624100342919
 20
174.7521908957835
 30
0.0
 10
93.10822646408613
 20
174.7410134338643
 30
0.0
 11
93.10822646408613
 21
174.7410134338643
 31
0.0
 11
93.11456294503181
 21
174.7075541538939
 31
0.0
 11
93.12137592014386
 21
174.6741886018935
 31
0.0
 11
93.12861982781364
 21
174.6410977076034
 31
0.0
 11
93.13632987351723
 21
174.6081123026309
 31
0.0
 11
93.14450789104508
 21
174.5752408928765
 31
0.0
 11
93.15315622519997
 21
174.5424902406029
 31
0.0
 11
93.16101853024401
 21
174.5142607503303
 31
0.0
 11
93.16923283243474
 21
174.4861315724997
 31
0.0
 11
93.18049710395644
 21
174.4495224405297
 31
0.0
 11
93.19235309560295
 21
174.4131004356253
 31
0.0
 11
93.2033171080983
 21
174.3810807806615
 31
0.0
 11
93.21473951329779
 21
174.3492219463151
 31
0.0
 11
93.22662204735852
 21
174.317532011881
 31
0.0
 11
93.23896653135306
 21
174.2860191869607
 31
0.0
 11
93.25182848082967
 21
174.2545516773063
 31
0.0
 11
93.2651354037954
 21
174.2232696845778
 31
0.0
 11
93.27886584905598
 21
174.1921682592925
 31
0.0
 11
93.29299653245015
 21
174.1612464946091
 31
0.0
 11
93.31032721927181
 21
174.124638376443
 31
0.0
 11
93.32818239359642
 21
174.0882830430975
 31
0.0
 11
93.34655089340257
 21
174.0521816932028
 31
0.0
 11
93.36541965297735
 21
174.0163394225762
 31
0.0
 11
93.38477533103524
 21
173.9807616595124
 31
0.0
 11
93.40460833117403
 21
173.9454472934038
 31
0.0
 11
93.43107564477181
 21
173.8999636336595
 31
0.0
 11
93.45833072646866
 21
173.8549479700966
 31
0.0
 11
93.47646004555676
 21
173.8259639304643
 31
0.0
 11
93.49492505422764
 21
173.7971929419698
 31
0.0
 11
93.51372888994112
 21
173.7686416798202
 31
0.0
 11
93.53287404950235
 21
173.7403180484606
 31
0.0
 11
93.55595086410047
 21
173.7071292166053
 31
0.0
 11
93.57948585935955
 21
173.6742634284876
 31
0.0
 11
93.60346009268866
 21
173.6417096531769
 31
0.0
 11
93.62784866299998
 21
173.6094652692931
 31
0.0
 11
93.65263513441849
 21
173.5775160812793
 31
0.0
 11
93.67779368743504
 21
173.5458587597796
 31
0.0
 11
93.70776906648074
 21
173.5090701463103
 31
0.0
 11
93.73822207816832
 21
173.4726762266544
 31
0.0
 11
93.76914483827345
 21
173.4366798696703
 31
0.0
 11
93.80051726203061
 21
173.4010736234043
 31
0.0
 11
93.83232437078412
 21
173.36586062444
 31
0.0
 11
93.86459985172246
 21
173.3310793325554
 31
0.0
 11
93.89733723031947
 21
173.2967514405179
 31
0.0
 11
93.93039045994443
 21
173.2627217366336
 31
0.0
 11
93.93717140838068
 21
173.2557981851825
 31
0.0
 11
93.94400170589513
 21
173.2489255745062
 31
0.0
 11
93.98028242284613
 21
173.2148341003924
 31
0.0
 11
94.01748828166066
 21
173.1817047089637
 31
0.0
 11
94.05440143521524
 21
173.14826984538
 31
0.0
 11
94.09110679769438
 21
173.1146210588341
 31
0.0
 11
94.12791517649109
 21
173.0810799536145
 31
0.0
 11
94.16472691916343
 21
173.0475390825673
 31
0.0
 11
94.20143962285677
 21
173.0138914742429
 31
0.0
 11
94.23835045167776
 21
172.9804610112055
 31
0.0
 11
94.27765651627173
 21
172.9460593397962
 31
0.0
 11
94.31776361322922
 21
172.9126007212223
 31
0.0
 11
94.35879007188642
 21
172.880200870766
 31
0.0
 11
94.40051534179287
 21
172.8486974276243
 31
0.0
 11
94.44275953900488
 21
172.8178079629669
 31
0.0
 11
94.48536419656307
 21
172.7874225146489
 31
0.0
 11
94.52819446189957
 21
172.757405754323
 31
0.0
 11
94.57106873673405
 21
172.7274473665336
 31
0.0
 11
94.57927932705697
 21
172.7216926547413
 31
0.0
 11
94.58751719416364
 21
172.7159789125998
 31
0.0
 11
94.63333458953539
 21
172.6860837276151
 31
0.0
 11
94.67983520724962
 21
172.6572142882974
 31
0.0
 11
94.72611938180768
 21
172.6280189529589
 31
0.0
 11
94.77224849551635
 21
172.5985928029921
 31
0.0
 11
94.81845222803459
 21
172.5692791250554
 31
0.0
 11
94.864662943223
 21
172.539973063601
 31
0.0
 11
94.91080646444577
 21
172.5105628795807
 31
0.0
 11
94.95707986600806
 21
172.4813573800343
 31
0.0
 11
94.99607919096064
 21
172.457371063717
 31
0.0
 11
95.03545381552983
 21
172.4340097706239
 31
0.0
 11
95.07528365866189
 21
172.4113987116456
 31
0.0
 11
95.11548291564159
 21
172.3894465320831
 31
0.0
 11
95.15598515823277
 21
172.3679927348787
 31
0.0
 11
95.19670694155123
 21
172.3469602503108
 31
0.0
 11
95.23761766888053
 21
172.3262648573748
 31
0.0
 11
95.27866566846674
 21
172.3058435112068
 31
0.0
 11
95.31978150942894
 21
172.2856160554363
 31
0.0
 11
95.36089887159616
 21
172.2653889006702
 31
0.0
 11
95.36916272060026
 21
172.2613105595713
 31
0.0
 11
95.37744323758366
 21
172.257267714413
 31
0.0
 11
95.42070417548653
 21
172.2373840540962
 31
0.0
 11
95.46434233091034
 21
172.2183048023722
 31
0.0
 11
95.5078695776148
 21
172.198988483165
 31
0.0
 11
95.55130736223109
 21
172.1794825893786
 31
0.0
 11
95.59477592112889
 21
172.1600416409008
 31
0.0
 11
95.63827342567035
 21
172.140662579893
 31
0.0
 11
95.68176927995464
 21
172.121280795706
 31
0.0
 11
95.72523973920011
 21
172.1018431093809
 31
0.0
 11
95.76868667083441
 21
172.0823528032303
 31
0.0
 11
95.81220770181757
 21
172.063027499969
 31
0.0
 11
95.85760857814866
 21
172.0433967903043
 31
0.0
 11
95.90327768304984
 21
172.02440197983
 31
0.0
 11
95.94926354346166
 21
172.0061504250049
 31
0.0
 11
95.99550346565063
 21
171.9885480100544
 31
0.0
 11
96.04195684146227
 21
171.97144588028
 31
0.0
 11
96.08856171500912
 21
171.954762625523
 31
0.0
 11
96.13529860097967
 21
171.9384174798689
 31
0.0
 11
96.18212909651457
 21
171.9223428611165
 31
0.0
 11
96.22900240586515
 21
171.9064559234044
 31
0.0
 11
96.27588227555614
 21
171.8905857517157
 31
0.0
 11
96.28305035902616
 21
171.8881527779841
 31
0.0
 11
96.29022540832895
 21
171.8857414908005
 31
0.0
 11
96.33885523362602
 21
171.8704850038647
 31
0.0
 11
96.38774588950747
 21
171.8560418820759
 31
0.0
 11
96.43655935429757
 21
171.8413574306596
 31
0.0
 11
96.4853106246635
 21
171.8264803807008
 31
0.0
 11
96.53408331639555
 21
171.8116693627936
 31
0.0
 11
96.58287605253672
 21
171.7969210424986
 31
0.0
 11
96.63166753460486
 21
171.7821697197521
 31
0.0
 11
96.68044164832816
 21
171.7673622345014
 31
0.0
 11
96.72919978982152
 21
171.7525021440124
 31
0.0
 11
96.77800835547028
 21
171.7378072909655
 31
0.0
 11
96.82839539866714
 21
171.7231134368235
 31
0.0
 11
96.87895952785182
 21
171.7090453607559
 31
0.0
 11
96.92973398190546
 21
171.6957107740171
 31
0.0
 11
96.98067317481123
 21
171.6830144493106
 31
0.0
 11
97.03175439037248
 21
171.6708135382335
 31
0.0
 11
97.08293216412172
 21
171.6590263862427
 31
0.0
 11
97.13419645191179
 21
171.6475767673935
 31
0.0
 11
97.18551936355645
 21
171.6363930011653
 31
0.0
 11
97.23686429597072
 21
171.6253911396187
 31
0.0
 11
97.28821764088886
 21
171.6144261236917
 31
0.0
 11
97.29344654477988
 21
171.6133074693653
 31
0.0
 11
97.29867748782216
 21
171.6121990612978
 31
0.0
 11
97.35125665560989
 21
171.6020513903578
 31
0.0
 11
97.40399973764248
 21
171.5927293117644
 31
0.0
 11
97.45669397159547
 21
171.5831603767189
 31
0.0
 11
97.50934883579406
 21
171.5733949480438
 31
0.0
 11
97.56201729315824
 21
171.5636969498885
 31
0.0
 11
97.6146983541605
 21
171.5540627051724
 31
0.0
 11
97.66737850429455
 21
171.5444251111238
 31
0.0
 11
97.72004797418182
 21
171.5347309834471
 31
0.0
 11
97.77270775350706
 21
171.5249842243788
 31
0.0
 11
97.82539825437576
 21
171.5154031392807
 31
0.0
 11
97.87921523577789
 21
171.5060627821525
 31
0.0
 11
97.93313452590721
 21
171.4973389403156
 31
0.0
 11
97.98717661114252
 21
171.4893397926068
 31
0.0
 11
98.04130933077116
 21
171.4819699041573
 31
0.0
 11
98.095525027208
 21
171.4750911518966
 31
0.0
 11
98.14979074141029
 21
171.4686227522687
 31
0.0
 11
98.20410427037263
 21
171.4624922162066
 31
0.0
 11
98.25844683026733
 21
171.4566242061127
 31
0.0
 11
98.31279314935127
 21
171.4509342267775
 31
0.0
 11
98.36714566978483
 21
171.445300987152
 31
0.0
 11
98.36989244228474
 21
171.4450160506688
 31
0.0
 11
98.37263950495425
 21
171.4447343106827
 31
0.0
 11
98.4184478993035
 21
171.4408118580087
 31
0.0
 11
98.46431887598865
 21
171.4375827650198
 31
0.0
 11
98.51017180875866
 21
171.4341520227214
 31
0.0
 11
98.55601008277628
 21
171.4305627985233
 31
0.0
 11
98.60185388417929
 21
171.4270334615831
 31
0.0
 11
98.64770151511627
 21
171.423545341115
 31
0.0
 11
98.6935474986023
 21
171.4200389387788
 31
0.0
 11
98.73939300206746
 21
171.4165284957023
 31
0.0
 11
98.78523968602869
 21
171.4130324027418
 31
0.0
 11
98.83108451074709
 21
171.4095119123327
 31
0.0
 11
98.87692630752341
 21
171.4059531441841
 31
0.0
 11
98.92277623609226
 21
171.4024988141941
 31
0.0
 11
98.96910111612159
 21
171.3992894968511
 31
0.0
 11
99.01545190904615
 21
171.3964877815548
 31
0.0
 11
99.06183178216369
 21
171.394177301928
 31
0.0
 11
99.10823239190489
 21
171.3923143966531
 31
0.0
 11
99.15465730505395
 21
171.390831598181
 31
0.0
 11
99.20109174755153
 21
171.3896962489574
 31
0.0
 11
99.24754578420139
 21
171.3888812540288
 31
0.0
 11
99.29400403886928
 21
171.3883509279361
 31
0.0
 11
99.34047329747706
 21
171.3880675409024
 31
0.0
 11
99.38694332874114
 21
171.3879960230572
 31
0.0
 11
99.43341375764086
 21
171.3881016574621
 31
0.0
 11
99.47988368005025
 21
171.3883491237889
 31
0.0
 11
99.52634402992493
 21
171.3887104258014
 31
0.0
 11
99.57280330162637
 21
171.3891879027386
 31
0.0
 11
99.61925112088836
 21
171.3897912549573
 31
0.0
 11
99.66569698608556
 21
171.390530365068
 31
0.0
 11
99.71213193868184
 21
171.3914148433735
 31
0.0
 11
99.7585636719906
 21
171.3924545990775
 31
0.0
 11
99.80498541774892
 21
171.3936592517981
 31
0.0
 11
99.85140229790423
 21
171.395038693068
 31
0.0
 11
99.89781052505109
 21
171.3966025810984
 31
0.0
 11
99.94421180238919
 21
171.3983607353401
 31
0.0
 11
99.99060623568943
 21
171.4003229379274
 31
0.0
 11
100.0369911240082
 21
171.4024988141941
 31
0.0
 11
100.0829100173962
 21
171.4048713956854
 31
0.0
 11
100.1288172199604
 21
171.4074605438356
 31
0.0
 11
100.1747165105902
 21
171.4102641134155
 31
0.0
 11
100.2206023905616
 21
171.4132792558743
 31
0.0
 11
100.2664768929954
 21
171.4165037068629
 31
0.0
 11
100.3123363375964
 21
171.4199354694442
 31
0.0
 11
100.3581806991394
 21
171.4235723586024
 31
0.0
 11
100.404008762849
 21
171.4274097036795
 31
0.0
 11
100.4498183100559
 21
171.4314443836628
 31
0.0
 11
100.4956093681041
 21
171.4356824777143
 31
0.0
 11
100.5413768907698
 21
171.440123445354
 31
0.0
 11
100.5871278551462
 21
171.4447343106827
 31
0.0
 11
100.5898749451934
 21
171.4450161416301
 31
0.0
 11
100.5926216903156
 21
171.445300987152
 31
0.0
 11
100.6468504747126
 21
171.451845705298
 31
0.0
 11
100.700983583649
 21
171.4592148384801
 31
0.0
 11
100.7551456507283
 21
171.4663356632721
 31
0.0
 11
100.809330314307
 21
171.4732591243443
 31
0.0
 11
100.8635073143837
 21
171.4802501783209
 31
0.0
 11
100.9176768069906
 21
171.4873054544346
 31
0.0
 11
100.971846430233
 21
171.4943576801187
 31
0.0
 11
101.0260232392603
 21
171.5013522909109
 31
0.0
 11
101.0802070102682
 21
171.5082929001434
 31
0.0
 11
101.1343691057246
 21
171.5154031392807
 31
0.0
 11
101.1874077062817
 21
171.522789495208
 31
0.0
 11
101.2403595126843
 21
171.5307673930647
 31
0.0
 11
101.2932111243228
 21
171.5394492580596
 31
0.0
 11
101.3459596410344
 21
171.548743653701
 31
0.0
 11
101.3986370691321
 21
171.5585264210822
 31
0.0
 11
101.4512366425601
 21
171.5687173796472
 31
0.0
 11
101.5037759782667
 21
171.5792541714068
 31
0.0
 11
101.5562576690463
 21
171.5900740293604
 31
0.0
 11
101.6086814278584
 21
171.6010988849092
 31
0.0
 11
101.6610898722781
 21
171.6121990612978
 31
0.0
 11
101.6663209736391
 21
171.613307388932
 31
0.0
 11
101.6715497192116
 21
171.6144261236916
 31
0.0
 11
101.722671940759
 21
171.6263183179118
 31
0.0
 11
101.7736156119728
 21
171.6389967199322
 31
0.0
 11
101.8246127513232
 21
171.6514403645453
 31
0.0
 11
101.8756521212486
 21
171.6636965780926
 31
0.0
 11
101.9266771767104
 21
171.6760166955749
 31
0.0
 11
101.9776881695857
 21
171.6883984623674
 31
0.0
 11
102.0286993547256
 21
171.7007782936744
 31
0.0
 11
102.079724101889
 21
171.7131008496918
 31
0.0
 11
102.1307620606205
 21
171.7253686319554
 31
0.0
 11
102.18175900463
 21
171.7378072909655
 31
0.0
 11
102.2311733429834
 21
171.7502988327385
 31
0.0
 11
102.2804342360282
 21
171.7633780035664
 31
0.0
 11
102.3295155206851
 21
171.777159545543
 31
0.0
 11
102.3784221466751
 21
171.7915530226956
 31
0.0
 11
102.4272002926206
 21
171.8064391071774
 31
0.0
 11
102.4758507363371
 21
171.8217361055079
 31
0.0
 11
102.5243979184484
 21
171.8373848763683
 31
0.0
 11
102.5728480047805
 21
171.8533310091579
 31
0.0
 11
102.6212069068447
 21
171.8694991686502
 31
0.0
 11
102.6695419517716
 21
171.8857414908006
 31
0.0
 11
102.6767174339274
 21
171.8881525441991
 31
0.0
 11
102.6838850845444
 21
171.8905857517157
 31
0.0
 11
102.7304047899155
 21
171.9074005377748
 31
0.0
 11
102.7766573321428
 21
171.9249689297485
 31
0.0
 11
102.8229891180673
 21
171.9423143101272
 31
0.0
 11
102.8693839364056
 21
171.959480781668
 31
0.0
 11
102.9157574640487
 21
171.9767079689631
 31
0.0
 11
102.9621098247166
 21
171.9939946507292
 31
0.0
 11
103.0084622108429
 21
172.0112804311576
 31
0.0
 11
103.054835533037
 21
172.0285090216702
 31
0.0
 11
103.1012295298526
 21
172.0456818940188
 31
0.0
 11
103.1475596582829
 21
172.063027499969
 31
0.0
 11
103.191994864654
 21
172.0801355487696
 31
0.0
 11
103.2361986434641
 21
172.097829448087
 31
0.0
 11
103.2801295152952
 21
172.1162268762981
 31
0.0
 11
103.3238003597371
 21
172.1352368565897
 31
0.0
 11
103.3672739624865
 21
172.1547451312605
 31
0.0
 11
103.4105590298428
 21
172.1746673124778
 31
0.0
 11
103.4536878521015
 21
172.1949476453992
 31
0.0
 11
103.4966688765224
 21
172.2155384027519
 31
0.0
 11
103.5395140011041
 21
172.2363654695326
 31
0.0
 11
103.5823241225168
 21
172.257267714413
 31
0.0
 11
103.5906055880454
 21
172.2613101407899
 31
0.0
 11
103.5988684885043
 21
172.2653889006702
 31
0.0
 11
103.6394626595198
 21
172.2865715580243
 31
0.0
 11
103.6796858633605
 21
172.3084781551678
 31
0.0
 11
103.7200180991926
 21
172.3301724359923
 31
0.0
 11
103.7604377401321
 21
172.3516951766122
 31
0.0
 11
103.800828248246
 21
172.3732753624265
 31
0.0
 11
103.8411885894952
 21
172.3949142011614
 31
0.0
 11
103.881547751584
 21
172.4165545686972
 31
0.0
 11
103.9219391804839
 21
172.4381337248784
 31
0.0
 11
103.9623637216647
 21
172.4596507108853
 31
0.0
 11
104.0026874940925
 21
172.4813573800343
 31
0.0
 11
104.0505225341474
 21
172.5079205226789
 31
0.0
 11
104.0978410904386
 21
172.5353882934392
 31
0.0
 11
104.1445817382561
 21
172.563892226453
 31
0.0
 11
104.1907974678763
 21
172.5932461793103
 31
0.0
 11
104.236626194867
 21
172.6232574901917
 31
0.0
 11
104.2820895263832
 21
172.6538150486847
 31
0.0
 11
104.3272323984869
 21
172.684803657323
 31
0.0
 11
104.372250165937
 21
172.7159789125999
 31
0.0
 11
104.3804897569816
 21
172.7216919943779
 31
0.0
 11
104.3886986233665
 21
172.7274473665336
 31
0.0
 11
104.4306496766293
 21
172.7585778989871
 31
0.0
 11
104.4719487137375
 21
172.7906040365663
 31
0.0
 11
104.5134563053752
 21
172.8223445481237
 31
0.0
 11
104.5551066409987
 21
172.8538872432297
 31
0.0
 11
104.596680449464
 21
172.8855345043308
 31
0.0
 11
104.6382634356881
 21
172.9171720012097
 31
0.0
 11
104.6799315609741
 21
172.9486958865041
 31
0.0
 11
104.7214169084228
 21
172.9804610112054
 31
0.0
 11
104.7604721338126
 21
173.0113532279798
 31
0.0
 11
104.7988304115827
 21
173.0431004438039
 31
0.0
 11
104.8363803841801
 21
173.0758661397736
 31
0.0
 11
104.8732042407612
 21
173.1094535344469
 31
0.0
 11
104.9094906184706
 21
173.1436785888175
 31
0.0
 11
104.9452715902161
 21
173.1784265042943
 31
0.0
 11
104.9806078147798
 21
173.21358386633
 31
0.0
 11
105.0157656542052
 21
173.2489255745062
 31
0.0
 11
105.0225948416727
 21
173.2558014783266
 31
0.0
 11
105.0293769001561
 21
173.2627217366336
 31
0.0
 11
105.0614400553396
 21
173.2976552942189
 31
0.0
 11
105.0926224538901
 21
173.3334157031369
 31
0.0
 11
105.1240875447797
 21
173.3689117311554
 31
0.0
 11
105.1557423847749
 21
173.4042275393869
 31
0.0
 11
105.1872894312142
 21
173.4396436486036
 31
0.0
 11
105.2188607608043
 21
173.4750408287745
 31
0.0
 11
105.2505632593955
 21
173.5103195073321
 31
0.0
 11
105.2819736726653
 21
173.5458587597796
 31
0.0
 11
105.3081011191012
 21
173.5766842785228
 31
0.0
 11
105.3333785433837
 21
173.6082044278388
 31
0.0
 11
105.357689839834
 21
173.6405397094966
 31
0.0
 11
105.3812061132915
 21
173.6734648633424
 31
0.0
 11
105.4042170516553
 21
173.706778330153
 31
0.0
 11
105.4268933105981
 21
173.7403180484607
 31
0.0
 11
105.445883805694
 21
173.7687600719353
 31
0.0
 11
105.4646893284381
 21
173.7973250513498
 31
0.0
 11
105.4832267964923
 21
173.8260322893611
 31
0.0
 11
105.5014366336318
 21
173.8549479700966
 31
0.0
 11
105.5287250427519
 21
173.8999427877558
 31
0.0
 11
105.5551590289263
 21
173.9454472934038
 31
0.0
 11
105.5749779828452
 21
173.9807716808843
 31
0.0
 11
105.5943348095327
 21
174.0163502560186
 31
0.0
 11
105.6132111519448
 21
174.0521854735912
 31
0.0
 11
105.6315886154755
 21
174.0882793955181
 31
0.0
 11
105.6494484714131
 21
174.1246334409406
 31
0.0
 11
105.6667708276503
 21
174.1612464946091
 31
0.0
 11
105.682399734283
 21
174.1955705472874
 31
0.0
 11
105.697529012588
 21
174.2301176790361
 31
0.0
 11
105.712141227191
 21
174.2648851266437
 31
0.0
 11
105.7262196450528
 21
174.2998722084023
 31
0.0
 11
105.7397447397243
 21
174.3350712365115
 31
0.0
 11
105.752700515397
 21
174.3704835131468
 31
0.0
 11
105.762728254555
 21
174.3992075181585
 31
0.0
 11
105.7723753712083
 21
174.4280613709572
 31
0.0
 11
105.7816432599616
 21
174.4570373347702
 31
0.0
 11
105.7905345276657
 21
174.4861315724997
 31
0.0
 11
105.8048263236551
 21
174.5359823913771
 31
0.0
 11
105.8180286327356
 21
174.5861331881094
 31
0.0
 11
105.8269556467763
 21
174.6228262528427
 31
0.0
 11
105.8352997317701
 21
174.6596556499165
 31
0.0
 11
105.8430573416956
 21
174.6966186715112
 31
0.0
 11
105.8502223101842
 21
174.7337012936216
 31
0.0
 11
105.8567901546485
 21
174.7708977269479
 31
0.0
 11
105.8627551796655
 21
174.808195519497
 31
0.0
 11
105.8679749715824
 21
174.844575562731
 31
0.0
 11
105.8726094813674
 21
174.8810347807638
 31
0.0
 11
105.8766484994746
 21
174.9175613071126
 31
0.0
 11
105.8800824672834
 21
174.9541495788571
 31
0.0
 11
105.8829008471932
 21
174.9907839317397
 31
0.0
 11
105.8850941213303
 21
175.0274614061512
 31
0.0
 11
105.8871907514373
 21
175.0822590588289
 31
0.0
 11
105.8878864890384
 21
175.1370943494782
 31
0.0
 11
105.8871907545711
 21
175.1919296402393
 31
0.0
 11
105.8850941213302
 21
175.2467272928053
 31
0.0
 11
105.8829008398013
 21
175.2834047605708
 31
0.0
 11
105.8800824506792
 21
175.3200391065671
 31
0.0
 11
105.8766484752541
 21
175.3566273738453
 31
0.0
 11
105.8726094552603
 21
175.3931538961904
 31
0.0
 11
105.8679749516797
 21
175.4296131241215
 31
0.0
 11
105.8627551796655
 21
175.4659931794594
 31
0.0
 11
105.856790188269
 21
175.5032910021708
 31
0.0
 11
105.8502223815591
 21
175.540487466769
 31
0.0
 11
105.8430574429755
 21
175.5775701059647
 31
0.0
 11
105.8352998379209
 21
175.6145331405899
 31
0.0
 11
105.8269557274358
 21
175.6513625000784
 31
0.0
 11
105.8180286327355
 21
175.6880555108471
 31
0.0
 11
105.8048261642081
 21
175.7382062601023
 31
0.0
 11
105.7905345276657
 21
175.7880571264568
 31
0.0
 11
105.7816435730393
 21
175.8171516217819
 31
0.0
 11
105.7723759579745
 21
175.8461278347747
 31
0.0
 11
105.7627288691548
 21
175.8749815482809
 31
0.0
 11
105.752700515397
 21
175.9037051858097
 31
0.0
 11
105.7397431177817
 21
175.9391159579681
 31
0.0
 11
105.7262159127831
 21
175.9743132670514
 31
0.0
 11
105.7121356971274
 21
176.0092991307055
 31
0.0
 11
105.697523093608
 21
176.0440659077868
 31
0.0
 11
105.6823951434511
 21
176.0786148228816
 31
0.0
 11
105.6667708276503
 21
176.1129422043474
 31
0.0
 11
105.6494565373284
 21
176.1495623815762
 31
0.0
 11
105.6316058636529
 21
176.1859242004356
 31
0.0
 11
105.6132357762806
 21
176.222023286149
 31
0.0
 11
105.594360599639
 21
176.2578607174745
 31
0.0
 11
105.5749974341583
 21
176.2934322333677
 31
0.0
 11
105.5551590289264
 21
176.3287414055527
 31
0.0
 11
105.5286899520343
 21
176.3742240601506
 31
0.0
 11
105.5014366336318
 21
176.4192407288599
 31
0.0
 11
105.4833079413245
 21
176.448225231075
 31
0.0
 11
105.4648429374593
 21
176.47699631747
 31
0.0
 11
105.4460388287797
 21
176.5055473336174
 31
0.0
 11
105.4268933105982
 21
176.5338706504959
 31
0.0
 11
105.4038162094862
 21
176.5670592470163
 31
0.0
 11
105.3802811139091
 21
176.5999249271862
 31
0.0
 11
105.3563068953818
 21
176.6324787211709
 31
0.0
 11
105.3319184268915
 21
176.6647231898743
 31
0.0
 11
105.3071320939883
 21
176.696672499218
 31
0.0
 11
105.2819736726653
 21
176.7283299391768
 31
0.0
 11
105.2519983984255
 21
176.7651186428398
 31
0.0
 11
105.2215454340185
 21
176.8015126072668
 31
0.0
 11
105.190622680407
 21
176.837508969902
 31
0.0
 11
105.1592502333033
 21
176.8731151955613
 31
0.0
 11
105.1274430838777
 21
176.9083281589442
 31
0.0
 11
105.0951675591419
 21
176.9431094114502
 31
0.0
 11
105.0624301459709
 21
176.9774372723571
 31
0.0
 11
105.0293769001561
 21
177.0114669623229
 31
0.0
 11
105.022595951471
 21
177.0183905135279
 31
0.0
 11
105.0157656542054
 21
177.0252631244504
 31
0.0
 11
104.9794849377404
 21
177.0593545990447
 31
0.0
 11
104.94227907844
 21
177.0924839899928
 31
0.0
 11
104.9053659247552
 21
177.1259188534478
 31
0.0
 11
104.8686605624062
 21
177.1595676401225
 31
0.0
 11
104.8318521836444
 21
177.1931087453766
 31
0.0
 11
104.7950404409371
 21
177.2266496163892
 31
0.0
 11
104.7583277372343
 21
177.2602972247043
 31
0.0
 11
104.7214169084228
 21
177.2937276877511
 31
0.0
 11
104.6821108438315
 21
177.3281293591629
 31
0.0
 11
104.6420037468713
 21
177.3615879777341
 31
0.0
 11
104.6009772882134
 21
177.3939878281897
 31
0.0
 11
104.5592520183076
 21
177.425491271332
 31
0.0
 11
104.5170078210958
 21
177.4563807359896
 31
0.0
 11
104.4744031635374
 21
177.4867661843074
 31
0.0
 11
104.4315728982009
 21
177.5167829446333
 31
0.0
 11
104.3886986233665
 21
177.5467413324228
 31
0.0
 11
104.3804880330436
 21
177.5524960442151
 31
0.0
 11
104.372250165937
 21
177.5582097863566
 31
0.0
 11
104.3264327705652
 21
177.5881049713413
 31
0.0
 11
104.2799321528509
 21
177.616974410659
 31
0.0
 11
104.2336479782929
 21
177.6461697459976
 31
0.0
 11
104.1875188645843
 21
177.6755958959644
 31
0.0
 11
104.141315132066
 21
177.704909573901
 31
0.0
 11
104.0951044168776
 21
177.7342156353555
 31
0.0
 11
104.0489608956549
 21
177.7636258193758
 31
0.0
 11
104.0026874940926
 21
177.7928313189222
 31
0.0
 11
103.9636881691399
 21
177.8168176352395
 31
0.0
 11
103.9243135445707
 21
177.8401789283325
 31
0.0
 11
103.8844837014387
 21
177.8627899873109
 31
0.0
 11
103.844284444459
 21
177.8847421668735
 31
0.0
 11
103.8037822018678
 21
177.9061959640778
 31
0.0
 11
103.7630604185493
 21
177.9272284486457
 31
0.0
 11
103.72214969122
 21
177.9479238415817
 31
0.0
 11
103.6811016916337
 21
177.9683451877497
 31
0.0
 11
103.6399858506715
 21
177.9885726435201
 31
0.0
 11
103.5988684885043
 21
178.0087997982863
 31
0.0
 11
103.5906046395002
 21
178.0128781393853
 31
0.0
 11
103.5823241225168
 21
178.0169209845435
 31
0.0
 11
103.5390631846139
 21
178.0368046448604
 31
0.0
 11
103.4954250291901
 21
178.0558838965843
 31
0.0
 11
103.4518977824857
 21
178.0752002157915
 31
0.0
 11
103.4084599978694
 21
178.0947061095779
 31
0.0
 11
103.3649914389716
 21
178.1141470580556
 31
0.0
 11
103.3214939344302
 21
178.1335261190634
 31
0.0
 11
103.2779980801459
 21
178.1529079032503
 31
0.0
 11
103.2345276209005
 21
178.1723455895755
 31
0.0
 11
103.1910806892662
 21
178.1918358957261
 31
0.0
 11
103.1475596582831
 21
178.2111611989874
 31
0.0
 11
103.102158781952
 21
178.2307919086521
 31
0.0
 11
103.0564896770508
 21
178.2497867191263
 31
0.0
 11
103.0105038166389
 21
178.2680382739512
 31
0.0
 11
102.9642638944498
 21
178.2856406889015
 31
0.0
 11
102.9178105186381
 21
178.3027428186757
 31
0.0
 11
102.8712056450913
 21
178.3194260734327
 31
0.0
 11
102.8244687591207
 21
178.3357712190867
 31
0.0
 11
102.7776382635858
 21
178.3518458378393
 31
0.0
 11
102.7307649542353
 21
178.3677327755516
 31
0.0
 11
102.6838850845445
 21
178.3836029472407
 31
0.0
 11
102.6767170010745
 21
178.3860359209724
 31
0.0
 11
102.6695419517717
 21
178.388447208156
 31
0.0
 11
102.6209121264747
 21
178.403703695092
 31
0.0
 11
102.5720214705932
 21
178.4181468168807
 31
0.0
 11
102.523208005803
 21
178.432831268297
 31
0.0
 11
102.4744567354371
 21
178.4477083182557
 31
0.0
 11
102.425684043705
 21
178.462519336163
 31
0.0
 11
102.3768913075638
 21
178.4772676564579
 31
0.0
 11
102.3280998254956
 21
178.4920189792044
 31
0.0
 11
102.2793257117723
 21
178.5068264644551
 31
0.0
 11
102.2305675702789
 21
178.521686554944
 31
0.0
 11
102.1817590046302
 21
178.536381407991
 31
0.0
 11
102.1313719614334
 21
178.551075262133
 31
0.0
 11
102.0808078322487
 21
178.5651433382006
 31
0.0
 11
102.0300333781951
 21
178.5784779249395
 31
0.0
 11
101.9790941852894
 21
178.5911742496461
 31
0.0
 11
101.9280129697281
 21
178.6033751607233
 31
0.0
 11
101.8768351959789
 21
178.6151623127142
 31
0.0
 11
101.8255709081887
 21
178.6266119315633
 31
0.0
 11
101.774247996544
 21
178.6377956977914
 31
0.0
 11
101.7229030641297
 21
178.6487975593379
 31
0.0
 11
101.6715497192116
 21
178.6597625752648
 31
0.0
 11
101.6663208153205
 21
178.6608812295912
 31
0.0
 11
101.6610898722781
 21
178.6619896376587
 31
0.0
 11
101.6085107044904
 21
178.6721373085987
 31
0.0
 11
101.5557676224578
 21
178.6814593871921
 31
0.0
 11
101.5030733885048
 21
178.6910283222375
 31
0.0
 11
101.4504185243062
 21
178.7007937509127
 31
0.0
 11
101.397750066942
 21
178.710491749068
 31
0.0
 11
101.3450690059398
 21
178.7201259937841
 31
0.0
 11
101.2923888558057
 21
178.7297635878326
 31
0.0
 11
101.2397193859185
 21
178.7394577155094
 31
0.0
 11
101.1870596065933
 21
178.7492044745776
 31
0.0
 11
101.1343691057246
 21
178.7587855596757
 31
0.0
 11
101.0805521243225
 21
178.7681259168039
 31
0.0
 11
101.0266328341932
 21
178.7768497586408
 31
0.0
 11
100.9725907489579
 21
178.7848489063496
 31
0.0
 11
100.9184580293292
 21
178.7922187947992
 31
0.0
 11
100.8642423328924
 21
178.79909754706
 31
0.0
 11
100.8099766186901
 21
178.8055659466878
 31
0.0
 11
100.7556630897278
 21
178.81169648275
 31
0.0
 11
100.7013205298331
 21
178.8175644928439
 31
0.0
 11
100.6469742107491
 21
178.8232544721789
 31
0.0
 11
100.5926216903157
 21
178.8288877118045
 31
0.0
 11
100.5898749178158
 21
178.8291726482877
 31
0.0
 11
100.5871278551463
 21
178.8294543882738
 31
0.0
 11
100.5413194607971
 21
178.8333768409478
 31
0.0
 11
100.4954484841118
 21
178.8366059339366
 31
0.0
 11
100.4495955513418
 21
178.840036676235
 31
0.0
 11
100.4037572773242
 21
178.8436259004332
 31
0.0
 11
100.3579134759212
 21
178.8471552373734
 31
0.0
 11
100.3120658449842
 21
178.8506433578414
 31
0.0
 11
100.2662198614981
 21
178.8541497601776
 31
0.0
 11
100.220374358033
 21
178.8576602032541
 31
0.0
 11
100.1745276740717
 21
178.8611562962146
 31
0.0
 11
100.1286828493534
 21
178.8646767866238
 31
0.0
 11
100.0828410525771
 21
178.8682355547724
 31
0.0
 11
100.0369911240082
 21
178.8716898847623
 31
0.0
 11
99.99066624397891
 21
178.8748992021053
 31
0.0
 11
99.94431545105434
 21
178.8777009174017
 31
0.0
 11
99.89793557793678
 21
178.8800113970285
 31
0.0
 11
99.85153496819559
 21
178.8818743023034
 31
0.0
 11
99.80511005504657
 21
178.8833571007754
 31
0.0
 11
99.75867561254896
 21
178.884492449999
 31
0.0
 11
99.71222157589914
 21
178.8853074449276
 31
0.0
 11
99.66576332123124
 21
178.8858377710204
 31
0.0
 11
99.61929406262343
 21
178.886121158054
 31
0.0
 11
99.57282403135937
 21
178.8861926758993
 31
0.0
 11
99.52635360245965
 21
178.8860870414944
 31
0.0
 11
99.47988368005025
 21
178.8858395751674
 31
0.0
 11
99.43342333017559
 21
178.885478273155
 31
0.0
 11
99.38696405847411
 21
178.8850007962177
 31
0.0
 11
99.34051623921212
 21
178.8843974439991
 31
0.0
 11
99.29407037401494
 21
178.8836583338884
 31
0.0
 11
99.24763542141864
 21
178.8827738555829
 31
0.0
 11
99.20120368810987
 21
178.8817340998789
 31
0.0
 11
99.15478194235156
 21
178.8805294471584
 31
0.0
 11
99.10836506219623
 21
178.8791500058884
 31
0.0
 11
99.06195683504937
 21
178.8775861178581
 31
0.0
 11
99.01555555771128
 21
178.8758279636164
 31
0.0
 11
98.96916112441106
 21
178.873865761029
 31
0.0
 11
98.92277623609228
 21
178.8716898847624
 31
0.0
 11
98.87685734270431
 21
178.869317303271
 31
0.0
 11
98.83095014014006
 21
178.8667281551208
 31
0.0
 11
98.78505084951027
 21
178.863924585541
 31
0.0
 11
98.73916496953881
 21
178.8609094430821
 31
0.0
 11
98.69329046710504
 21
178.8576849920936
 31
0.0
 11
98.64743102250412
 21
178.8542532295122
 31
0.0
 11
98.60158666096103
 21
178.8506163403541
 31
0.0
 11
98.55575859725145
 21
178.846778995277
 31
0.0
 11
98.50994905004457
 21
178.8427443152938
 31
0.0
 11
98.46415799199632
 21
178.8385062212423
 31
0.0
 11
98.41839046933063
 21
178.8340652536026
 31
0.0
 11
98.37263950495421
 21
178.8294543882738
 31
0.0
 11
98.36989241490703
 21
178.8291725573264
 31
0.0
 11
98.36714566978485
 21
178.8288877118045
 31
0.0
 11
98.31291688538788
 21
178.8223429936584
 31
0.0
 11
98.25878377645145
 21
178.8149738604763
 31
0.0
 11
98.20462170937211
 21
178.8078530356843
 31
0.0
 11
98.15043704579347
 21
178.8009295746121
 31
0.0
 11
98.0962600457168
 21
178.7939385206355
 31
0.0
 11
98.04209055310984
 21
178.7868832445219
 31
0.0
 11
97.98792092986744
 21
178.7798310188378
 31
0.0
 11
97.9337441208402
 21
178.7728364080456
 31
0.0
 11
97.87956034983229
 21
178.7658957988131
 31
0.0
 11
97.82539825437587
 21
178.7587855596757
 31
0.0
 11
97.77235965381877
 21
178.7513992037485
 31
0.0
 11
97.71940784741618
 21
178.7434213058918
 31
0.0
 11
97.66655623577769
 21
178.7347394408969
 31
0.0
 11
97.61380771906597
 21
178.7254450452554
 31
0.0
 11
97.56113029096834
 21
178.7156622778743
 31
0.0
 11
97.50853071754031
 21
178.7054713193093
 31
0.0
 11
97.45599138183376
 21
178.6949345275498
 31
0.0
 11
97.40350969105408
 21
178.6841146695962
 31
0.0
 11
97.35108593224194
 21
178.6730898140475
 31
0.0
 11
97.29867748782226
 21
178.6619896376587
 31
0.0
 11
97.2934463864613
 21
178.6608813100245
 31
0.0
 11
97.28821764088885
 21
178.6597625752648
 31
0.0
 11
97.23709541934147
 21
178.6478703810446
 31
0.0
 11
97.18615174812767
 21
178.6351919790244
 31
0.0
 11
97.13515460877726
 21
178.6227483344113
 31
0.0
 11
97.08411523885181
 21
178.6104921208639
 31
0.0
 11
97.03309018338992
 21
178.5981720033816
 31
0.0
 11
96.98207919051467
 21
178.5857902365891
 31
0.0
 11
96.93106800537471
 21
178.5734104052822
 31
0.0
 11
96.88004325821126
 21
178.5610878492647
 31
0.0
 11
96.8290052994798
 21
178.5488200670012
 31
0.0
 11
96.77800835547029
 21
178.536381407991
 31
0.0
 11
96.72859401711691
 21
178.5238898662182
 31
0.0
 11
96.67933312407203
 21
178.5108106953903
 31
0.0
 11
96.63025183941507
 21
178.4970291534139
 31
0.0
 11
96.58134521342495
 21
178.4826356762615
 31
0.0
 11
96.53256706747942
 21
178.4677495917799
 31
0.0
 11
96.48391662376289
 21
178.4524525934496
 31
0.0
 11
96.4353694416516
 21
178.4368038225892
 31
0.0
 11
96.38691935531961
 21
178.4208576897995
 31
0.0
 11
96.3385604532555
 21
178.4046895303068
 31
0.0
 11
96.29022540832884
 21
178.388447208156
 31
0.0
 11
96.28304992617312
 21
178.3860361547574
 31
0.0
 11
96.27588227555614
 21
178.3836029472407
 31
0.0
 11
96.22936257018517
 21
178.3667881611815
 31
0.0
 11
96.18311002795778
 21
178.3492197692079
 31
0.0
 11
96.13677824203325
 21
178.3318743888292
 31
0.0
 11
96.09038342369493
 21
178.3147079172884
 31
0.0
 11
96.04400989605179
 21
178.2974807299933
 31
0.0
 11
95.99765753538391
 21
178.2801940482272
 31
0.0
 11
95.95130514925762
 21
178.2629082677988
 31
0.0
 11
95.90493182706344
 21
178.2456796772863
 31
0.0
 11
95.85853783024786
 21
178.2285068049376
 31
0.0
 11
95.81220770181756
 21
178.2111611989874
 31
0.0
 11
95.76777249544648
 21
178.1940531501869
 31
0.0
 11
95.72356871663639
 21
178.1763592508694
 31
0.0
 11
95.67963784480537
 21
178.1579618226584
 31
0.0
 11
95.63596700036349
 21
178.1389518423668
 31
0.0
 11
95.59249339761412
 21
178.119443567696
 31
0.0
 11
95.54920833025776
 21
178.0995213864786
 31
0.0
 11
95.50607950799912
 21
178.0792410535572
 31
0.0
 11
95.46309848357817
 21
178.0586502962045
 31
0.0
 11
95.42025335899652
 21
178.0378232294239
 31
0.0
 11
95.37744323758373
 21
178.0169209845435
 31
0.0
 11
95.36916177205509
 21
178.0128785581666
 31
0.0
 11
95.36089887159614
 21
178.0087997982863
 31
0.0
 11
95.32030470058064
 21
177.9876171409321
 31
0.0
 11
95.28008149674002
 21
177.9657105437887
 31
0.0
 11
95.23974926090793
 21
177.9440162629642
 31
0.0
 11
95.19932961996847
 21
177.9224935223444
 31
0.0
 11
95.15893911185461
 21
177.90091333653
 31
0.0
 11
95.1185787706054
 21
177.8792744977951
 31
0.0
 11
95.07821960851652
 21
177.8576341302593
 31
0.0
 11
95.03782817961668
 21
177.8360549740781
 31
0.0
 11
94.99740363843593
 21
177.8145379880711
 31
0.0
 11
94.95707986600814
 21
177.7928313189222
 31
0.0
 11
94.90924482595341
 21
177.7662681762776
 31
0.0
 11
94.86192626966215
 21
177.7388004055172
 31
0.0
 11
94.81518562184469
 21
177.7102964725034
 31
0.0
 11
94.7689698922245
 21
177.680942519646
 31
0.0
 11
94.72314116523374
 21
177.6509312087646
 31
0.0
 11
94.67767783371754
 21
177.6203736502715
 31
0.0
 11
94.63253496161384
 21
177.5893850416334
 31
0.0
 11
94.58751719416364
 21
177.5582097863567
 31
0.0
 11
94.57927760311902
 21
177.5524967045787
 31
0.0
 11
94.57106873673405
 21
177.5467413324229
 31
0.0
 11
94.52911768347116
 21
177.5156107999694
 31
0.0
 11
94.48781864636301
 21
177.4835846623902
 31
0.0
 11
94.44631105472526
 21
177.4518441508328
 31
0.0
 11
94.40466071910178
 21
177.4203014557267
 31
0.0
 11
94.3630869106365
 21
177.3886541946256
 31
0.0
 11
94.32150392441247
 21
177.3570166977467
 31
0.0
 11
94.2798357991264
 21
177.3254928124523
 31
0.0
 11
94.23835045167763
 21
177.2937276877511
 31
0.0
 11
94.19929522628783
 21
177.2628354709768
 31
0.0
 11
94.16093694851757
 21
177.2310882551527
 31
0.0
 11
94.12338697592007
 21
177.1983225591831
 31
0.0
 11
94.08656311933885
 21
177.1647351645099
 31
0.0
 11
94.05027674162933
 21
177.1305101101394
 31
0.0
 11
94.01449576988387
 21
177.0957621946625
 31
0.0
 11
93.9791595453203
 21
177.0606048326268
 31
0.0
 11
93.94400170589506
 21
177.0252631244504
 31
0.0
 11
93.93717251842772
 21
177.01838722063
 31
0.0
 11
93.93039045994442
 21
177.0114669623229
 31
0.0
 11
93.8983273047611
 21
176.9765334047376
 31
0.0
 11
93.86714490621044
 21
176.9407729958196
 31
0.0
 11
93.83567981532082
 21
176.9052769678011
 31
0.0
 11
93.80402497532555
 21
176.8699611595696
 31
0.0
 11
93.77247792888628
 21
176.8345450503529
 31
0.0
 11
93.74090659929615
 21
176.7991478701821
 31
0.0
 11
93.70920410070494
 21
176.7638691916243
 31
0.0
 11
93.67779368743504
 21
176.7283299391769
 31
0.0
 11
93.65166624099983
 21
176.6975044204347
 31
0.0
 11
93.62638881671799
 21
176.6659842711196
 31
0.0
 11
93.60207752026842
 21
176.6336489894627
 31
0.0
 11
93.57856124681149
 21
176.6007238356176
 31
0.0
 11
93.5555503084464
 21
176.5674103688052
 31
0.0
 11
93.53287404950227
 21
176.533870650496
 31
0.0
 11
93.51388355440383
 21
176.505428627018
 31
0.0
 11
93.49507803165722
 21
176.4768636475999
 31
0.0
 11
93.4765405636053
 21
176.4481564095922
 31
0.0
 11
93.45833072646866
 21
176.4192407288599
 31
0.0
 11
93.43104231735111
 21
176.3742459111993
 31
0.0
 11
93.40460833117405
 21
176.3287414055528
 31
0.0
 11
93.38478937720312
 21
176.2934170180015
 31
0.0
 11
93.3654325504609
 21
176.2578384427976
 31
0.0
 11
93.34655620801139
 21
176.2220032251836
 31
0.0
 11
93.32817874445189
 21
176.1859093032105
 31
0.0
 11
93.31031888858787
 21
176.149555257908
 31
0.0
 11
93.29299653245035
 21
176.1129422043474
 31
0.0
 11
93.27736762602649
 21
176.0786181519488
 31
0.0
 11
93.26223834793659
 21
176.0440710204784
 31
0.0
 11
93.24762613346015
 21
176.0093035729921
 31
0.0
 11
93.2335477156728
 21
175.9743164913765
 31
0.0
 11
93.22002262075131
 21
175.9391174628335
 31
0.0
 11
93.20706684470365
 21
175.9037051858097
 31
0.0
 11
93.19703910502763
 21
175.8749811801656
 31
0.0
 11
93.18739198791005
 21
175.8461273267068
 31
0.0
 11
93.17812409939272
 21
175.8171513636066
 31
0.0
 11
93.16923283243476
 21
175.7880571264569
 31
0.0
 11
93.15494103821632
 21
175.7382063071394
 31
0.0
 11
93.14173872736527
 21
175.6880555108471
 31
0.0
 11
93.13281170353022
 21
175.6513624319212
 31
0.0
 11
93.12446760701728
 21
175.614533020988
 31
0.0
 11
93.11670998815042
 21
175.57756999137
 31
0.0
 11
93.10954501556286
 21
175.54048736012
 31
0.0
 11
93.10297718176943
 21
175.5032909502822
 31
0.0
 11
93.09701218043514
 21
175.4659931794594
 31
0.0
 11
93.09179243142594
 21
175.4296131948193
 31
0.0
 11
93.08715796751814
 21
175.3931540350473
 31
0.0
 11
93.08311898168986
 21
175.3566275346749
 31
0.0
 11
93.07968502427389
 21
175.3200392931167
 31
0.0
 11
93.07686660897221
 21
175.2834048551462
 31
0.0
 11
93.07467323877027
 21
175.2467272928054
 31
0.0
 11
93.07257640884751
 21
175.1919296307253
 31
0.0
 11
93.07188087106206
 21
175.1370943494782
 31
0.0
 11
93.07257730956422
 21
175.0822591011585
 31
0.0
 11
93.07467323877015
 21
175.0274614061512
 31
0.0
 11
93.07686454449279
 21
174.9907809866481
 31
0.0
 11
93.07968037760669
 21
174.9541436278235
 31
0.0
 11
93.08311216852513
 21
174.9175535200586
 31
0.0
 11
93.08715066148137
 21
174.8810252693902
 31
0.0
 11
93.09178676205075
 21
174.8445704456041
 31
0.0
 11
93.09701218043506
 21
174.8081955194971
 31
0.0
 11
93.10237356744678
 21
174.7745634230744
 31
0.0
 11
93.10822646408613
 21
174.7410134338643
 31
0.0
  0
SPLINE
  5
1A4
330
42
100
AcDbEntity
  8
1
  6
Continuous
 62
     7
100
AcDbSpline
210
0.0
220
0.0
230
1.0
 70
    11
 71
     3
 72
    79
 73
    75
 74
    73
 42
0.0000000001
 43
0.0000000001
 44
0.00000001
 40
0.0
 40
0.0
 40
0.0
 40
0.0
 40
0.322795302630366
 40
0.6455908132137468
 40
0.9686473632204249
 40
1.291704508429922
 40
1.615251686149418
 40
1.938799765618529
 40
2.263006910664417
 40
2.587215145427165
 40
2.912171241960488
 40
3.237128478736498
 40
3.562831885459664
 40
3.888536345893607
 40
4.21489558796937
 40
4.541255676609096
 40
4.868100926094372
 40
5.1949467222318
 40
5.522050377951629
 40
5.849154222444835
 40
6.176258066937926
 40
6.503361722657698
 40
6.830207518795266
 40
7.157052768280596
 40
7.483412856920245
 40
7.809772098995905
 40
8.135476559429824
 40
8.461179966153013
 40
8.786137202929023
 40
9.111093299462347
 40
9.435301534225085
 40
9.75950867927105
 40
10.08305675874007
 40
10.40660393645956
 40
10.72966108166908
 40
11.05271763167577
 40
11.37551314225914
 40
11.69830844488951
 40
12.02110374751998
 40
12.34389925810345
 40
12.66695580811001
 40
12.99001295331946
 40
13.31356013103895
 40
13.63710821050797
 40
13.96131535555394
 40
14.28552359031674
 40
14.61047968685009
 40
14.9354369236261
 40
15.26114033034918
 40
15.58684479078308
 40
15.91320403285881
 40
16.23956412149847
 40
16.56640937098385
 40
16.89325516712141
 40
17.22035882284116
 40
17.54746266733425
 40
17.87456651182745
 40
18.20167016754727
 40
18.52851596368475
 40
18.85536121316999
 40
19.18172130180976
 40
19.50808054388556
 40
19.83378500431946
 40
20.15948841104254
 40
20.48444564781851
 40
20.8094017443519
 40
21.13360997911467
 40
21.4578171241606
 40
21.7813652036297
 40
22.10491238134921
 40
22.42796952655865
 40
22.75102607656528
 40
23.07382158714871
 40
23.39661688977914
 40
23.39661688977914
 40
23.39661688977914
 40
23.39661688977914
 10
206.2300343170831
 20
178.8780334022771
 30
0.0
 10
206.1224012776177
 20
178.8752768673408
 30
0.0
 10
205.9071351293469
 20
178.8697637956924
 30
0.0
 10
205.5866693088551
 20
178.8254019090292
 30
0.0
 10
205.2711559541422
 20
178.7548950486682
 30
0.0
 10
204.9628721980757
 20
178.6562709750176
 30
0.0
 10
204.6643337519673
 20
178.5309092022145
 30
0.0
 10
204.3776108106465
 20
178.3796212085053
 30
0.0
 10
204.1051142403639
 20
178.2036006149907
 30
0.0
 10
203.848672734282
 20
178.0041529385382
 30
0.0
 10
203.6104885906335
 20
177.7828565866964
 30
0.0
 10
203.3921237612766
 20
177.541313403015
 30
0.0
 10
203.1954774715123
 20
177.2814692806828
 30
0.0
 10
203.0218215567059
 20
177.0051806283919
 30
0.0
 10
202.8726770763164
 20
176.7146800746992
 30
0.0
 10
202.7489986348334
 20
176.4120493078105
 30
0.0
 10
202.6518801338105
 20
176.0997101281434
 30
0.0
 10
202.5819261024445
 20
175.7799359999249
 30
0.0
 10
202.5397823736958
 20
175.4552370903531
 30
0.0
 10
202.5256670673134
 20
175.1280334022765
 30
0.0
 10
202.5397823736958
 20
174.8008297142014
 30
0.0
 10
202.5819261024446
 20
174.4761308046251
 30
0.0
 10
202.6518801338105
 20
174.1563566764229
 30
0.0
 10
202.7489986348334
 20
173.8440174966952
 30
0.0
 10
202.8726770763164
 20
173.5413867300325
 30
0.0
 10
203.021821556706
 20
173.2508861754975
 30
0.0
 10
203.1954774715124
 20
172.9745975263444
 30
0.0
 10
203.3921237612766
 20
172.7147533923157
 30
0.0
 10
203.6104885906335
 20
172.4732102521898
 30
0.0
 10
203.8486727342819
 20
172.2519137379998
 30
0.0
 10
204.1051142403638
 20
172.0524666661019
 30
0.0
 10
204.3776108106464
 20
171.8764438189776
 30
0.0
 10
204.6643337519672
 20
171.7251642194789
 30
0.0
 10
204.9628721980758
 20
171.5997711482354
 30
0.0
 10
205.2711559541422
 20
171.5012637128455
 30
0.0
 10
205.5866693088551
 20
171.4303218079324
 30
0.0
 10
205.907135129347
 20
171.3875822818527
 30
0.0
 10
206.230034317083
 20
171.3732589640265
 30
0.0
 10
206.5529335048194
 20
171.3875822818526
 30
0.0
 10
206.8733993253112
 20
171.4303218079324
 30
0.0
 10
207.1889126800241
 20
171.5012637128454
 30
0.0
 10
207.4971964360905
 20
171.5997711482355
 30
0.0
 10
207.7957348821989
 20
171.725164219479
 30
0.0
 10
208.0824578235197
 20
171.8764438189776
 30
0.0
 10
208.3549543938025
 20
172.0524666661019
 30
0.0
 10
208.6113958998843
 20
172.2519137379997
 30
0.0
 10
208.8495800435329
 20
172.4732102521898
 30
0.0
 10
209.0679448728897
 20
172.7147533923157
 30
0.0
 10
209.2645911626539
 20
172.9745975263442
 30
0.0
 10
209.4382470774602
 20
173.2508861754976
 30
0.0
 10
209.5873915578497
 20
173.5413867300324
 30
0.0
 10
209.711069999333
 20
173.8440174966952
 30
0.0
 10
209.8081885003559
 20
174.1563566764228
 30
0.0
 10
209.8781425317219
 20
174.4761308046252
 30
0.0
 10
209.9202862604705
 20
174.8008297142014
 30
0.0
 10
209.9344015668527
 20
175.1280334022765
 30
0.0
 10
209.9202862604705
 20
175.4552370903532
 30
0.0
 10
209.8781425317217
 20
175.7799359999249
 30
0.0
 10
209.808188500356
 20
176.0997101281436
 30
0.0
 10
209.7110699993328
 20
176.4120493078105
 30
0.0
 10
209.5873915578497
 20
176.7146800746992
 30
0.0
 10
209.4382470774602
 20
177.0051806283918
 30
0.0
 10
209.2645911626539
 20
177.2814692806828
 30
0.0
 10
209.0679448728897
 20
177.541313403015
 30
0.0
 10
208.8495800435329
 20
177.7828565866965
 30
0.0
 10
208.6113958998843
 20
178.0041529385381
 30
0.0
 10
208.3549543938024
 20
178.2036006149907
 30
0.0
 10
208.0824578235197
 20
178.3796212085053
 30
0.0
 10
207.7957348821988
 20
178.5309092022143
 30
0.0
 10
207.4971964360906
 20
178.6562709750177
 30
0.0
 10
207.188912680024
 20
178.7548950486682
 30
0.0
 10
206.8733993253112
 20
178.8254019090293
 30
0.0
 10
206.5529335048194
 20
178.8697637956924
 30
0.0
 10
206.3376673565485
 20
178.8752768673408
 30
0.0
 10
206.2300343170831
 20
178.8780334022771
 30
0.0
 11
206.2300343170831
 21
178.8780334022771
 31
0.0
 11
205.9075551647829
 21
178.8637504147745
 31
0.0
 11
205.5875947273189
 21
178.8210624760727
 31
0.0
 11
205.2724012440384
 21
178.7502203798326
 31
0.0
 11
204.9646753393995
 21
178.6518807302242
 31
0.0
 11
204.6663608777126
 21
178.5266159779644
 31
0.0
 11
204.3802032437145
 21
178.3756286664685
 31
0.0
 11
204.1078540639025
 21
178.1997417790819
 31
0.0
 11
203.8519373291342
 21
178.000700063973
 31
0.0
 11
203.6138504329372
 21
177.7795415359134
 31
0.0
 11
203.3959286881575
 21
177.5384869386014
 31
0.0
 11
203.1993538629206
 21
177.2787927968998
 31
0.0
 11
203.026032912589
 21
177.003033402277
 31
0.0
 11
202.876948398148
 21
176.7127160544623
 31
0.0
 11
202.7534890983933
 21
176.410608939748
 31
0.0
 11
202.6564186778819
 21
176.0985109574206
 31
0.0
 11
202.5865783514506
 21
175.7792140685277
 31
0.0
 11
202.5444556299108
 21
175.454833924383
 31
0.0
 11
202.5303721703459
 21
175.1280334022767
 31
0.0
 11
202.5444556299108
 21
174.8012328801706
 31
0.0
 11
202.5865783514506
 21
174.4768527360259
 31
0.0
 11
202.6564186778819
 21
174.1575558471329
 31
0.0
 11
202.7534890983933
 21
173.8454578648054
 31
0.0
 11
202.876948398148
 21
173.5433507500912
 31
0.0
 11
203.026032912589
 21
173.2530334022766
 31
0.0
 11
203.1993538629206
 21
172.9772740076539
 31
0.0
 11
203.3959286881575
 21
172.7175798659522
 31
0.0
 11
203.6138504329372
 21
172.4765252686402
 31
0.0
 11
203.8519373291342
 21
172.2553667405806
 31
0.0
 11
204.1078540639024
 21
172.0563250254716
 31
0.0
 11
204.3802032437145
 21
171.880438138085
 31
0.0
 11
204.6663608777126
 21
171.7294508265892
 31
0.0
 11
204.9646753393995
 21
171.6041860743295
 31
0.0
 11
205.2724012440384
 21
171.505846424721
 31
0.0
 11
205.5875947273189
 21
171.4350043284809
 31
0.0
 11
205.9075551647829
 21
171.3923163897791
 31
0.0
 11
206.2300343170831
 21
171.3780334022766
 31
0.0
 11
206.5525134693834
 21
171.3923163897791
 31
0.0
 11
206.8724739068475
 21
171.4350043284809
 31
0.0
 11
207.1876673901279
 21
171.505846424721
 31
0.0
 11
207.4953932947667
 21
171.6041860743295
 31
0.0
 11
207.7937077564536
 21
171.7294508265892
 31
0.0
 11
208.0798653904517
 21
171.880438138085
 31
0.0
 11
208.3522145702638
 21
172.0563250254716
 31
0.0
 11
208.6081313050321
 21
172.2553667405806
 31
0.0
 11
208.8462182012291
 21
172.4765252686402
 31
0.0
 11
209.0641399460088
 21
172.7175798659522
 31
0.0
 11
209.2607147712456
 21
172.9772740076538
 31
0.0
 11
209.4340357215771
 21
173.2530334022766
 31
0.0
 11
209.5831202360182
 21
173.5433507500912
 31
0.0
 11
209.706579535773
 21
173.8454578648054
 31
0.0
 11
209.8036499562845
 21
174.1575558471329
 31
0.0
 11
209.8734902827158
 21
174.4768527360259
 31
0.0
 11
209.9156130042555
 21
174.8012328801706
 31
0.0
 11
209.9296964638202
 21
175.1280334022767
 31
0.0
 11
209.9156130042555
 21
175.454833924383
 31
0.0
 11
209.8734902827157
 21
175.7792140685277
 31
0.0
 11
209.8036499562844
 21
176.0985109574206
 31
0.0
 11
209.706579535773
 21
176.410608939748
 31
0.0
 11
209.5831202360182
 21
176.7127160544623
 31
0.0
 11
209.4340357215771
 21
177.003033402277
 31
0.0
 11
209.2607147712456
 21
177.2787927968998
 31
0.0
 11
209.0641399460088
 21
177.5384869386014
 31
0.0
 11
208.8462182012291
 21
177.7795415359134
 31
0.0
 11
208.6081313050321
 21
178.000700063973
 31
0.0
 11
208.3522145702638
 21
178.1997417790819
 31
0.0
 11
208.0798653904517
 21
178.3756286664685
 31
0.0
 11
207.7937077564536
 21
178.5266159779644
 31
0.0
 11
207.4953932947667
 21
178.6518807302242
 31
0.0
 11
207.1876673901279
 21
178.7502203798326
 31
0.0
 11
206.8724739068474
 21
178.8210624760727
 31
0.0
 11
206.5525134693833
 21
178.8637504147746
 31
0.0
 11
206.2300343170831
 21
178.8780334022771
 31
0.0
  0
SPLINE
  5
1A5
330
42
100
AcDbEntity
  8
1
  6
Continuous
 62
     7
100
AcDbSpline
210
0.0
220
0.0
230
1.0
 70
    11
 71
     3
 72
    79
 73
    75
 74
    73
 42
0.0000000001
 43
0.0000000001
 44
0.00000001
 40
0.0
 40
0.0
 40
0.0
 40
0.0
 40
0.3227953026303092
 40
0.6455908132136337
 40
0.9686473632203672
 40
1.291704508429891
 40
1.615251686149399
 40
1.938799765618421
 40
2.263006910664379
 40
2.587215145427052
 40
2.912171241960438
 40
3.237128478736467
 40
3.562831885459594
 40
3.888536345893516
 40
4.214895587969317
 40
4.541255676609044
 40
4.868100926094284
 40
5.194946722231735
 40
5.522050377951507
 40
5.849154222444769
 40
6.17625806693786
 40
6.503361722657632
 40
6.830207518795188
 40
7.157052768280518
 40
7.483412856920177
 40
7.809772098995864
 40
8.135476559429801
 40
8.46117996615291
 40
8.78613720292894
 40
9.111093299462326
 40
9.43530153422504
 40
9.759508679271031
 40
10.08305675874
 40
10.40660393645946
 40
10.72966108166902
 40
11.05271763167576
 40
11.37551314225905
 40
11.69830844488938
 40
12.02110374751986
 40
12.34389925810334
 40
12.66695580810997
 40
12.99001295331944
 40
13.31356013103888
 40
13.63710821050787
 40
13.96131535555384
 40
14.28552359031664
 40
14.61047968685007
 40
14.93543692362606
 40
15.26114033034918
 40
15.58684479078304
 40
15.91320403285878
 40
16.23956412149844
 40
16.56640937098376
 40
16.89325516712131
 40
17.22035882284107
 40
17.54746266733416
 40
17.87456651182737
 40
18.20167016754719
 40
18.52851596368466
 40
18.85536121316987
 40
19.18172130180964
 40
19.50808054388544
 40
19.83378500431931
 40
20.15948841104243
 40
20.48444564781845
 40
20.80940174435184
 40
21.13360997911455
 40
21.45781712416054
 40
21.78136520362959
 40
22.10491238134907
 40
22.42796952655852
 40
22.75102607656514
 40
23.07382158714866
 40
23.39661688977911
 40
23.39661688977911
 40
23.39661688977911
 40
23.39661688977911
 10
236.5409234495386
 20
178.8780334022771
 30
0.0
 10
236.648556489004
 20
178.8752768673408
 30
0.0
 10
236.8638226372747
 20
178.8697637956924
 30
0.0
 10
237.1842884577665
 20
178.8254019090292
 30
0.0
 10
237.4998018124795
 20
178.7548950486682
 30
0.0
 10
237.808085568546
 20
178.6562709750177
 30
0.0
 10
238.1066240146543
 20
178.5309092022144
 30
0.0
 10
238.3933469559752
 20
178.3796212085053
 30
0.0
 10
238.6658435262577
 20
178.2036006149906
 30
0.0
 10
238.9222850323397
 20
178.0041529385382
 30
0.0
 10
239.1604691759882
 20
177.7828565866964
 30
0.0
 10
239.378834005345
 20
177.541313403015
 30
0.0
 10
239.5754802951093
 20
177.2814692806829
 30
0.0
 10
239.7491362099157
 20
177.0051806283918
 30
0.0
 10
239.8982806903053
 20
176.7146800746993
 30
0.0
 10
240.0219591317883
 20
176.4120493078104
 30
0.0
 10
240.1190776328112
 20
176.0997101281434
 30
0.0
 10
240.189031664177
 20
175.779935999925
 30
0.0
 10
240.2311753929259
 20
175.4552370903531
 30
0.0
 10
240.2452906993083
 20
175.1280334022765
 30
0.0
 10
240.2311753929259
 20
174.8008297142013
 30
0.0
 10
240.1890316641771
 20
174.4761308046253
 30
0.0
 10
240.1190776328111
 20
174.1563566764228
 30
0.0
 10
240.0219591317884
 20
173.8440174966952
 30
0.0
 10
239.8982806903052
 20
173.5413867300324
 30
0.0
 10
239.7491362099157
 20
173.2508861754975
 30
0.0
 10
239.5754802951093
 20
172.9745975263442
 30
0.0
 10
239.378834005345
 20
172.7147533923157
 30
0.0
 10
239.1604691759882
 20
172.4732102521897
 30
0.0
 10
238.9222850323396
 20
172.2519137379998
 30
0.0
 10
238.6658435262578
 20
172.0524666661018
 30
0.0
 10
238.3933469559753
 20
171.8764438189778
 30
0.0
 10
238.1066240146543
 20
171.7251642194789
 30
0.0
 10
237.8080855685459
 20
171.5997711482355
 30
0.0
 10
237.4998018124795
 20
171.5012637128455
 30
0.0
 10
237.1842884577665
 20
171.4303218079324
 30
0.0
 10
236.8638226372748
 20
171.3875822818526
 30
0.0
 10
236.5409234495385
 20
171.3732589640265
 30
0.0
 10
236.2180242618023
 20
171.3875822818527
 30
0.0
 10
235.8975584413105
 20
171.4303218079323
 30
0.0
 10
235.5820450865975
 20
171.5012637128455
 30
0.0
 10
235.2737613305311
 20
171.5997711482355
 30
0.0
 10
234.9752228844228
 20
171.725164219479
 30
0.0
 10
234.6884999431019
 20
171.8764438189776
 30
0.0
 10
234.4160033728194
 20
172.052466666102
 30
0.0
 10
234.1595618667373
 20
172.2519137379997
 30
0.0
 10
233.9213777230889
 20
172.4732102521898
 30
0.0
 10
233.7030128937319
 20
172.7147533923157
 30
0.0
 10
233.5063666039677
 20
172.9745975263443
 30
0.0
 10
233.3327106891614
 20
173.2508861754975
 30
0.0
 10
233.1835662087719
 20
173.5413867300325
 30
0.0
 10
233.0598877672886
 20
173.8440174966951
 30
0.0
 10
232.9627692662659
 20
174.1563566764229
 30
0.0
 10
232.8928152349
 20
174.4761308046251
 30
0.0
 10
232.8506715061513
 20
174.8008297142015
 30
0.0
 10
232.8365561997687
 20
175.1280334022765
 30
0.0
 10
232.8506715061513
 20
175.4552370903531
 30
0.0
 10
232.8928152348999
 20
175.7799359999249
 30
0.0
 10
232.9627692662658
 20
176.0997101281434
 30
0.0
 10
233.0598877672887
 20
176.4120493078105
 30
0.0
 10
233.1835662087718
 20
176.7146800746992
 30
0.0
 10
233.3327106891615
 20
177.0051806283918
 30
0.0
 10
233.5063666039677
 20
177.2814692806828
 30
0.0
 10
233.7030128937319
 20
177.5413134030151
 30
0.0
 10
233.9213777230888
 20
177.7828565866965
 30
0.0
 10
234.1595618667373
 20
178.0041529385381
 30
0.0
 10
234.4160033728194
 20
178.2036006149907
 30
0.0
 10
234.6884999431019
 20
178.3796212085053
 30
0.0
 10
234.9752228844227
 20
178.5309092022143
 30
0.0
 10
235.2737613305312
 20
178.6562709750178
 30
0.0
 10
235.5820450865975
 20
178.7548950486683
 30
0.0
 10
235.8975584413105
 20
178.8254019090292
 30
0.0
 10
236.2180242618023
 20
178.8697637956924
 30
0.0
 10
236.4332904100732
 20
178.8752768673408
 30
0.0
 10
236.5409234495386
 20
178.8780334022771
 30
0.0
 11
236.5409234495386
 21
178.8780334022771
 31
0.0
 11
236.8634026018387
 21
178.8637504147745
 31
0.0
 11
237.1833630393027
 21
178.8210624760727
 31
0.0
 11
237.4985565225833
 21
178.7502203798326
 31
0.0
 11
237.8062824272222
 21
178.6518807302242
 31
0.0
 11
238.1045968889091
 21
178.5266159779644
 31
0.0
 11
238.3907545229071
 21
178.3756286664685
 31
0.0
 11
238.6631037027191
 21
178.1997417790819
 31
0.0
 11
238.9190204374874
 21
178.000700063973
 31
0.0
 11
239.1571073336845
 21
177.7795415359134
 31
0.0
 11
239.3750290784642
 21
177.5384869386014
 31
0.0
 11
239.5716039037011
 21
177.2787927968998
 31
0.0
 11
239.7449248540326
 21
177.003033402277
 31
0.0
 11
239.8940093684737
 21
176.7127160544623
 31
0.0
 11
240.0174686682284
 21
176.410608939748
 31
0.0
 11
240.1145390887398
 21
176.0985109574206
 31
0.0
 11
240.184379415171
 21
175.7792140685277
 31
0.0
 11
240.2265021367109
 21
175.454833924383
 31
0.0
 11
240.2405855962757
 21
175.1280334022767
 31
0.0
 11
240.2265021367109
 21
174.8012328801706
 31
0.0
 11
240.184379415171
 21
174.4768527360259
 31
0.0
 11
240.1145390887398
 21
174.1575558471329
 31
0.0
 11
240.0174686682284
 21
173.8454578648054
 31
0.0
 11
239.8940093684737
 21
173.5433507500912
 31
0.0
 11
239.7449248540326
 21
173.2530334022766
 31
0.0
 11
239.571603903701
 21
172.9772740076538
 31
0.0
 11
239.3750290784642
 21
172.7175798659522
 31
0.0
 11
239.1571073336845
 21
172.4765252686402
 31
0.0
 11
238.9190204374874
 21
172.2553667405806
 31
0.0
 11
238.6631037027192
 21
172.0563250254716
 31
0.0
 11
238.3907545229071
 21
171.880438138085
 31
0.0
 11
238.1045968889091
 21
171.7294508265892
 31
0.0
 11
237.8062824272222
 21
171.6041860743295
 31
0.0
 11
237.4985565225833
 21
171.505846424721
 31
0.0
 11
237.1833630393027
 21
171.4350043284809
 31
0.0
 11
236.8634026018387
 21
171.3923163897791
 31
0.0
 11
236.5409234495386
 21
171.3780334022766
 31
0.0
 11
236.2184442972383
 21
171.3923163897791
 31
0.0
 11
235.8984838597742
 21
171.4350043284809
 31
0.0
 11
235.5832903764937
 21
171.505846424721
 31
0.0
 11
235.2755644718549
 21
171.6041860743295
 31
0.0
 11
234.9772500101681
 21
171.7294508265893
 31
0.0
 11
234.69109237617
 21
171.880438138085
 31
0.0
 11
234.4187431963579
 21
172.0563250254716
 31
0.0
 11
234.1628264615896
 21
172.2553667405806
 31
0.0
 11
233.9247395653925
 21
172.4765252686402
 31
0.0
 11
233.7068178206128
 21
172.7175798659522
 31
0.0
 11
233.510242995376
 21
172.9772740076539
 31
0.0
 11
233.3369220450445
 21
173.2530334022766
 31
0.0
 11
233.1878375306034
 21
173.5433507500912
 31
0.0
 11
233.0643782308486
 21
173.8454578648054
 31
0.0
 11
232.9673078103373
 21
174.1575558471329
 31
0.0
 11
232.897467483906
 21
174.4768527360259
 31
0.0
 11
232.8553447623663
 21
174.8012328801706
 31
0.0
 11
232.8412613028014
 21
175.1280334022767
 31
0.0
 11
232.8553447623663
 21
175.454833924383
 31
0.0
 11
232.897467483906
 21
175.7792140685277
 31
0.0
 11
232.9673078103373
 21
176.0985109574206
 31
0.0
 11
233.0643782308486
 21
176.410608939748
 31
0.0
 11
233.1878375306034
 21
176.7127160544623
 31
0.0
 11
233.3369220450445
 21
177.003033402277
 31
0.0
 11
233.510242995376
 21
177.2787927968998
 31
0.0
 11
233.7068178206128
 21
177.5384869386014
 31
0.0
 11
233.9247395653925
 21
177.7795415359134
 31
0.0
 11
234.1628264615896
 21
178.000700063973
 31
0.0
 11
234.4187431963579
 21
178.1997417790819
 31
0.0
 11
234.69109237617
 21
178.3756286664685
 31
0.0
 11
234.977250010168
 21
178.5266159779644
 31
0.0
 11
235.2755644718549
 21
178.6518807302242
 31
0.0
 11
235.5832903764937
 21
178.7502203798327
 31
0.0
 11
235.8984838597742
 21
178.8210624760727
 31
0.0
 11
236.2184442972384
 21
178.8637504147746
 31
0.0
 11
236.5409234495386
 21
178.8780334022771
 31
0.0
  0
ENDBLK
  5
44
330
42
100
AcDbEntity
  8
0
100
AcDbBlockEnd
  0
BLOCK
  5
46
330
45
100
AcDbEntity
  8
0
100
AcDbBlockBegin
  2
42-1
 70
     0
 71
     0
 10
133.7957399133964
 20
19.53288407137487
 30
0.0
  3
42-1
  1

  0
LINE
  5
1A6
330
45
100
AcDbEntity
  8
1
  6
Continuous
 62
     7
100
AcDbLine
 10
216.8999999999999
 20
215.3835046890734
 30
0.0
 11
226.8999999999999
 21
215.3835046890734
 31
0.0
  0
LINE
  5
1A7
330
45
100
AcDbEntity
  8
1
  6
Continuous
 62
     7
100
AcDbLine
 10
216.15
 20
215.7132704092772
 30
0.0
 11
221.8999999999999
 21
215.7132704092772
 31
0.0
  0
LINE
  5
1A8
330
45
100
AcDbEntity
  8
1
  6
Continuous
 62
     2
100
AcDbLine
 10
220.8999999999999
 20
214.6258427912447
 30
0.0
 11
220.8999999999999
 21
213.3606037006342
 31
0.0
  0
LINE
  5
1A9
330
45
100
AcDbEntity
  8
1
  6
Continuous
 62
     2
100
AcDbLine
 10
219.8999999999999
 20
214.8691580009774
 30
0.0
 11
219.8999999999999
 21
213.1010674769193
 31
0.0
  0
LINE
  5
1AA
330
45
100
AcDbEntity
  8
1
  6
Continuous
 62
     2
100
AcDbLine
 10
218.8999999999999
 20
215.0800311827458
 30
0.0
 11
218.8999999999999
 21
212.7442051693112
 31
0.0
  0
LINE
  5
1AB
330
45
100
AcDbEntity
  8
1
  6
Continuous
 62
     2
100
AcDbLine
 10
217.8999999999999
 20
215.1935782806212
 30
0.0
 11
217.8999999999999
 21
212.549553001525
 31
0.0
  0
LINE
  5
1AC
330
45
100
AcDbEntity
  8
1
  6
Continuous
 62
     2
100
AcDbLine
 10
216.8999999999999
 20
215.3835046890734
 30
0.0
 11
216.8999999999999
 21
212.3835046890734
 31
0.0
  0
LINE
  5
1AD
330
45
100
AcDbEntity
  8
1
  6
Continuous
 62
     7
100
AcDbLine
 10
215.8999999999999
 20
212.3835046890734
 30
0.0
 11
216.8999999999999
 21
212.3835046890734
 31
0.0
  0
LINE
  5
1AE
330
45
100
AcDbEntity
  8
1
  6
Continuous
 62
     7
100
AcDbLine
 10
215.8999999999999
 20
215.3835046890734
 30
0.0
 11
216.8999999999999
 21
215.3835046890734
 31
0.0
  0
LINE
  5
1AF
330
45
100
AcDbEntity
  8
1
  6
Continuous
 62
     2
100
AcDbLine
 10
215.8999999999999
 20
215.3835046890734
 30
0.0
 11
215.8999999999999
 21
212.3835046890734
 31
0.0
  0
LINE
  5
1B0
330
45
100
AcDbEntity
  8
1
  6
Continuous
 62
     7
100
AcDbLine
 10
214.8999999999999
 20
215.3835046890734
 30
0.0
 11
215.8999999999999
 21
215.3835046890734
 31
0.0
  0
LINE
  5
1B1
330
45
100
AcDbEntity
  8
1
  6
Continuous
 62
     7
100
AcDbLine
 10
214.8999999999999
 20
215.3835046890734
 30
0.0
 11
215.8999999999999
 21
215.6528268880966
 31
0.0
  0
LINE
  5
1B2
330
45
100
AcDbEntity
  8
1
  6
Continuous
 62
     7
100
AcDbLine
 10
214.8999999999999
 20
212.3835046890734
 30
0.0
 11
215.8999999999999
 21
212.3835046890734
 31
0.0
  0
LINE
  5
1B3
330
45
100
AcDbEntity
  8
1
  6
Continuous
 62
     7
100
AcDbLine
 10
214.8999999999999
 20
212.3835046890734
 30
0.0
 11
214.8999999999999
 21
215.3835046890734
 31
0.0
  0
LINE
  5
1B4
330
45
100
AcDbEntity
  8
1
  6
Continuous
 62
     7
100
AcDbLine
 10
216.8999999999999
 20
212.3835046890734
 30
0.0
 11
224.1999999999999
 21
212.3835046890734
 31
0.0
  0
LINE
  5
1B5
330
45
100
AcDbEntity
  8
1
  6
Continuous
 62
     7
100
AcDbLine
 10
228.8999999999999
 20
215.3835046890734
 30
0.0
 11
228.8999999999999
 21
212.3835046890734
 31
0.0
  0
LINE
  5
1B6
330
45
100
AcDbEntity
  8
1
  6
Continuous
 62
     7
100
AcDbLine
 10
227.8999999999999
 20
212.3835046890734
 30
0.0
 11
228.8999999999999
 21
212.3835046890734
 31
0.0
  0
LINE
  5
1B7
330
45
100
AcDbEntity
  8
1
  6
Continuous
 62
     7
100
AcDbLine
 10
227.9
 20
215.6528268880966
 30
0.0
 11
228.8999999999999
 21
215.3835046890734
 31
0.0
  0
LINE
  5
1B8
330
45
100
AcDbEntity
  8
1
  6
Continuous
 62
     7
100
AcDbLine
 10
227.8999999999999
 20
215.3835046890734
 30
0.0
 11
228.8999999999999
 21
215.3835046890734
 31
0.0
  0
LINE
  5
1B9
330
45
100
AcDbEntity
  8
1
  6
Continuous
 62
     2
100
AcDbLine
 10
227.8999999999999
 20
212.3835046890734
 30
0.0
 11
227.8999999999999
 21
215.3835046890734
 31
0.0
  0
LINE
  5
1BA
330
45
100
AcDbEntity
  8
1
  6
Continuous
 62
     7
100
AcDbLine
 10
226.8999999999999
 20
215.3835046890734
 30
0.0
 11
227.8999999999999
 21
215.3835046890734
 31
0.0
  0
LINE
  5
1BB
330
45
100
AcDbEntity
  8
1
  6
Continuous
 62
     7
100
AcDbLine
 10
226.8999999999999
 20
212.3835046890734
 30
0.0
 11
227.8999999999999
 21
212.3835046890734
 31
0.0
  0
LINE
  5
1BC
330
45
100
AcDbEntity
  8
1
  6
Continuous
 62
     2
100
AcDbLine
 10
226.8999999999999
 20
212.3835046890734
 30
0.0
 11
226.8999999999999
 21
215.3835046890734
 31
0.0
  0
LINE
  5
1BD
330
45
100
AcDbEntity
  8
1
  6
Continuous
 62
     7
100
AcDbLine
 10
224.1999999999999
 20
212.3835046890734
 30
0.0
 11
226.8999999999999
 21
212.3835046890734
 31
0.0
  0
LINE
  5
1BE
330
45
100
AcDbEntity
  8
1
  6
Continuous
 62
     2
100
AcDbLine
 10
225.8999999999999
 20
212.549553001525
 30
0.0
 11
225.8999999999999
 21
215.1935782806212
 31
0.0
  0
LINE
  5
1BF
330
45
100
AcDbEntity
  8
1
  6
Continuous
 62
     2
100
AcDbLine
 10
224.8999999999999
 20
212.7442051693112
 30
0.0
 11
224.8999999999999
 21
215.0800311827458
 31
0.0
  0
LINE
  5
1C0
330
45
100
AcDbEntity
  8
1
  6
Continuous
 62
     2
100
AcDbLine
 10
223.8999999999999
 20
213.1010674769193
 30
0.0
 11
223.8999999999999
 21
214.8691580009774
 31
0.0
  0
LINE
  5
1C1
330
45
100
AcDbEntity
  8
1
  6
Continuous
 62
     2
100
AcDbLine
 10
222.8999999999999
 20
213.3606037006342
 30
0.0
 11
222.8999999999999
 21
214.6258427912447
 31
0.0
  0
LINE
  5
1C2
330
45
100
AcDbEntity
  8
1
  6
Continuous
 62
     7
100
AcDbLine
 10
221.8999999999999
 20
215.7132704092772
 30
0.0
 11
227.6499999999999
 21
215.7132704092772
 31
0.0
  0
LINE
  5
1C3
330
45
100
AcDbEntity
  8
1
  6
Continuous
 62
     7
100
AcDbLine
 10
85.69981173760414
 20
215.3835046890734
 30
0.0
 11
95.69981173760414
 21
215.3835046890734
 31
0.0
  0
LINE
  5
1C4
330
45
100
AcDbEntity
  8
1
  6
Continuous
 62
     7
100
AcDbLine
 10
84.94981173760414
 20
215.7132704092772
 30
0.0
 11
90.69981173760414
 21
215.7132704092772
 31
0.0
  0
LINE
  5
1C5
330
45
100
AcDbEntity
  8
1
  6
Continuous
 62
     2
100
AcDbLine
 10
89.69981173760414
 20
214.6258427912447
 30
0.0
 11
89.69981173760414
 21
213.3606037006342
 31
0.0
  0
LINE
  5
1C6
330
45
100
AcDbEntity
  8
1
  6
Continuous
 62
     2
100
AcDbLine
 10
88.69981173760414
 20
214.8691580009774
 30
0.0
 11
88.69981173760414
 21
213.1010674769193
 31
0.0
  0
LINE
  5
1C7
330
45
100
AcDbEntity
  8
1
  6
Continuous
 62
     2
100
AcDbLine
 10
87.69981173760414
 20
215.0800311827458
 30
0.0
 11
87.69981173760414
 21
212.7442051693112
 31
0.0
  0
LINE
  5
1C8
330
45
100
AcDbEntity
  8
1
  6
Continuous
 62
     2
100
AcDbLine
 10
86.69981173760414
 20
215.1935782806212
 30
0.0
 11
86.69981173760414
 21
212.549553001525
 31
0.0
  0
LINE
  5
1C9
330
45
100
AcDbEntity
  8
1
  6
Continuous
 62
     2
100
AcDbLine
 10
85.69981173760414
 20
215.3835046890734
 30
0.0
 11
85.69981173760414
 21
212.3835046890734
 31
0.0
  0
LINE
  5
1CA
330
45
100
AcDbEntity
  8
1
  6
Continuous
 62
     7
100
AcDbLine
 10
84.69981173760414
 20
212.3835046890734
 30
0.0
 11
85.69981173760414
 21
212.3835046890734
 31
0.0
  0
LINE
  5
1CB
330
45
100
AcDbEntity
  8
1
  6
Continuous
 62
     7
100
AcDbLine
 10
84.69981173760414
 20
215.3835046890734
 30
0.0
 11
85.69981173760414
 21
215.3835046890734
 31
0.0
  0
LINE
  5
1CC
330
45
100
AcDbEntity
  8
1
  6
Continuous
 62
     2
100
AcDbLine
 10
84.69981173760414
 20
215.3835046890734
 30
0.0
 11
84.69981173760414
 21
212.3835046890734
 31
0.0
  0
LINE
  5
1CD
330
45
100
AcDbEntity
  8
1
  6
Continuous
 62
     7
100
AcDbLine
 10
83.69981173760414
 20
215.3835046890734
 30
0.0
 11
84.69981173760414
 21
215.3835046890734
 31
0.0
  0
LINE
  5
1CE
330
45
100
AcDbEntity
  8
1
  6
Continuous
 62
     7
100
AcDbLine
 10
83.69981173760414
 20
215.3835046890734
 30
0.0
 11
84.69981173760405
 21
215.6528268880966
 31
0.0
  0
LINE
  5
1CF
330
45
100
AcDbEntity
  8
1
  6
Continuous
 62
     7
100
AcDbLine
 10
83.69981173760414
 20
212.3835046890734
 30
0.0
 11
84.69981173760414
 21
212.3835046890734
 31
0.0
  0
LINE
  5
1D0
330
45
100
AcDbEntity
  8
1
  6
Continuous
 62
     7
100
AcDbLine
 10
83.69981173760414
 20
212.3835046890734
 30
0.0
 11
83.69981173760414
 21
215.3835046890734
 31
0.0
  0
LINE
  5
1D1
330
45
100
AcDbEntity
  8
1
  6
Continuous
 62
     7
100
AcDbLine
 10
85.69981173760414
 20
212.3835046890734
 30
0.0
 11
92.99981173760415
 21
212.3835046890734
 31
0.0
  0
LINE
  5
1D2
330
45
100
AcDbEntity
  8
1
  6
Continuous
 62
     7
100
AcDbLine
 10
97.69981173760414
 20
215.3835046890734
 30
0.0
 11
97.69981173760414
 21
212.3835046890734
 31
0.0
  0
LINE
  5
1D3
330
45
100
AcDbEntity
  8
1
  6
Continuous
 62
     7
100
AcDbLine
 10
96.69981173760414
 20
212.3835046890734
 30
0.0
 11
97.69981173760414
 21
212.3835046890734
 31
0.0
  0
LINE
  5
1D4
330
45
100
AcDbEntity
  8
1
  6
Continuous
 62
     7
100
AcDbLine
 10
96.69981173760414
 20
215.6528268880966
 30
0.0
 11
97.69981173760414
 21
215.3835046890734
 31
0.0
  0
LINE
  5
1D5
330
45
100
AcDbEntity
  8
1
  6
Continuous
 62
     7
100
AcDbLine
 10
96.69981173760414
 20
215.3835046890734
 30
0.0
 11
97.69981173760414
 21
215.3835046890734
 31
0.0
  0
LINE
  5
1D6
330
45
100
AcDbEntity
  8
1
  6
Continuous
 62
     2
100
AcDbLine
 10
96.69981173760414
 20
212.3835046890734
 30
0.0
 11
96.69981173760414
 21
215.3835046890734
 31
0.0
  0
LINE
  5
1D7
330
45
100
AcDbEntity
  8
1
  6
Continuous
 62
     7
100
AcDbLine
 10
95.69981173760414
 20
215.3835046890734
 30
0.0
 11
96.69981173760414
 21
215.3835046890734
 31
0.0
  0
LINE
  5
1D8
330
45
100
AcDbEntity
  8
1
  6
Continuous
 62
     7
100
AcDbLine
 10
95.69981173760414
 20
212.3835046890734
 30
0.0
 11
96.69981173760414
 21
212.3835046890734
 31
0.0
  0
LINE
  5
1D9
330
45
100
AcDbEntity
  8
1
  6
Continuous
 62
     2
100
AcDbLine
 10
95.69981173760414
 20
212.3835046890734
 30
0.0
 11
95.69981173760414
 21
215.3835046890734
 31
0.0
  0
LINE
  5
1DA
330
45
100
AcDbEntity
  8
1
  6
Continuous
 62
     7
100
AcDbLine
 10
92.99981173760415
 20
212.3835046890734
 30
0.0
 11
95.69981173760414
 21
212.3835046890734
 31
0.0
  0
LINE
  5
1DB
330
45
100
AcDbEntity
  8
1
  6
Continuous
 62
     2
100
AcDbLine
 10
94.69981173760414
 20
212.549553001525
 30
0.0
 11
94.69981173760414
 21
215.1935782806212
 31
0.0
  0
LINE
  5
1DC
330
45
100
AcDbEntity
  8
1
  6
Continuous
 62
     2
100
AcDbLine
 10
93.69981173760414
 20
212.7442051693112
 30
0.0
 11
93.69981173760414
 21
215.0800311827458
 31
0.0
  0
LINE
  5
1DD
330
45
100
AcDbEntity
  8
1
  6
Continuous
 62
     2
100
AcDbLine
 10
92.69981173760414
 20
213.1010674769193
 30
0.0
 11
92.69981173760414
 21
214.8691580009774
 31
0.0
  0
LINE
  5
1DE
330
45
100
AcDbEntity
  8
1
  6
Continuous
 62
     2
100
AcDbLine
 10
91.69981173760414
 20
213.3606037006342
 30
0.0
 11
91.69981173760414
 21
214.6258427912447
 31
0.0
  0
LINE
  5
1DF
330
45
100
AcDbEntity
  8
1
  6
Continuous
 62
     7
100
AcDbLine
 10
90.69981173760414
 20
215.7132704092772
 30
0.0
 11
96.44981173760414
 21
215.7132704092772
 31
0.0
  0
ARC
  5
1E0
330
45
100
AcDbEntity
  8
1
  6
Continuous
 62
     7
100
AcDbCircle
 10
221.8999999999999
 20
191.3835046890735
 30
0.0
 40
24.99999999999989
100
AcDbArc
 50
90.0
 51
103.2970717472088
  0
ARC
  5
1E1
330
45
100
AcDbEntity
  8
1
  6
Continuous
 62
     7
100
AcDbCircle
 10
221.8999999999999
 20
191.3835046890735
 30
0.0
 40
24.99999999999994
100
AcDbArc
 50
103.2970717472088
 51
103.8865403626291
  0
ARC
  5
1E2
330
45
100
AcDbEntity
  8
1
  6
Continuous
 62
     7
100
AcDbCircle
 10
221.8999999999999
 20
191.3835046890735
 30
0.0
 40
24.99999999999993
100
AcDbArc
 50
76.1134596373707
 51
76.70292825279093
  0
ARC
  5
1E3
330
45
100
AcDbEntity
  8
1
  6
Continuous
 62
     7
100
AcDbCircle
 10
221.8999999999999
 20
191.3835046890735
 30
0.0
 40
24.99999999999996
100
AcDbArc
 50
76.70292825279093
 51
90.0
  0
ARC
  5
1E4
330
45
100
AcDbEntity
  8
1
  6
Continuous
 62
     7
100
AcDbCircle
 10
90.69981173760414
 20
191.3835046890735
 30
0.0
 40
24.99999999999989
100
AcDbArc
 50
90.0
 51
103.2970717472091
  0
ARC
  5
1E5
330
45
100
AcDbEntity
  8
1
  6
Continuous
 62
     7
100
AcDbCircle
 10
90.69981173760414
 20
191.3835046890735
 30
0.0
 40
24.99999999999996
100
AcDbArc
 50
103.2970717472091
 51
103.8865403626292
  0
ARC
  5
1E6
330
45
100
AcDbEntity
  8
1
  6
Continuous
 62
     7
100
AcDbCircle
 10
90.69981173760414
 20
191.3835046890735
 30
0.0
 40
24.9999999999999
100
AcDbArc
 50
76.11345963737095
 51
76.70292825279093
  0
ARC
  5
1E7
330
45
100
AcDbEntity
  8
1
  6
Continuous
 62
     7
100
AcDbCircle
 10
90.69981173760414
 20
191.3835046890735
 30
0.0
 40
24.99999999999996
100
AcDbArc
 50
76.70292825279093
 51
90.0
  0
CIRCLE
  5
1E8
330
45
100
AcDbEntity
  8
1
  6
Continuous
 62
     7
100
AcDbCircle
 10
90.69981173760399
 20
315.8626635222507
 30
0.0
 40
6.999999999999943
  0
CIRCLE
  5
1E9
330
45
100
AcDbEntity
  8
1
  6
Continuous
 62
     7
100
AcDbCircle
 10
90.69981173760399
 20
315.8626635222507
 30
0.0
 40
5.749999999999943
  0
ENDBLK
  5
47
330
45
100
AcDbEntity
  8
0
100
AcDbBlockEnd
  0
BLOCK
  5
49
330
48
100
AcDbEntity
  8
0
100
AcDbBlockBegin
  2
V231AG-1-20
 70
     0
 71
     0
 10
319.3
 20
-19.44449775159063
 30
0.0
  3
V231AG-1-20
  1

  0
LINE
  5
1EA
330
48
100
AcDbEntity
  8
1
  6
Continuous
 62
     7
100
AcDbLine
 10
106.6996310725217
 20
350.8626635222508
 30
0.0
 11
106.6996310725217
 21
335.4334968555841
 31
0.0
  0
LINE
  5
1EB
330
48
100
AcDbEntity
  8
1
  6
Continuous
 62
     7
100
AcDbLine
 10
105.8818157754736
 20
334.961330973686
 30
0.0
 11
106.6996310725217
 21
335.4334968555841
 31
0.0
  0
LINE
  5
1EC
330
48
100
AcDbEntity
  8
1
  6
Continuous
 62
     7
100
AcDbLine
 10
186.9
 20
126.868781849478
 30
0.0
 11
186.9
 21
153.9054068494781
 31
0.0
  0
LINE
  5
1ED
330
48
100
AcDbEntity
  8
1
  6
Continuous
 62
     7
100
AcDbLine
 10
256.8999999999999
 20
126.868781849478
 30
0.0
 11
256.8999999999999
 21
124.3870943494781
 31
0.0
  0
LINE
  5
1EE
330
48
100
AcDbEntity
  8
1
  6
Continuous
 62
     7
100
AcDbLine
 10
205.8999999999999
 20
156.3993838285721
 30
0.0
 11
205.8999999999999
 21
168.9789370429245
 31
0.0
  0
LINE
  5
1EF
330
48
100
AcDbEntity
  8
1
  6
Continuous
 62
     7
100
AcDbLine
 10
188.3290623596326
 20
158.8623029635461
 30
0.0
 11
200.9
 21
158.8623029635461
 31
0.0
  0
LINE
  5
1F0
330
48
100
AcDbEntity
  8
1
  6
Continuous
 62
     7
100
AcDbLine
 10
186.9
 20
156.3870943494781
 30
0.0
 11
188.3290623596326
 21
158.8623029635461
 31
0.0
  0
LINE
  5
1F1
330
48
100
AcDbEntity
  8
1
  6
Continuous
 62
     7
100
AcDbLine
 10
186.9
 20
153.9054068494781
 30
0.0
 11
186.9
 21
156.3870943494781
 31
0.0
  0
LINE
  5
1F2
330
48
100
AcDbEntity
  8
1
  6
Continuous
 62
     7
100
AcDbLine
 10
188.3290623596326
 20
121.91188573541
 30
0.0
 11
186.9
 21
124.3870943494781
 31
0.0
  0
LINE
  5
1F3
330
48
100
AcDbEntity
  8
1
  6
Continuous
 62
     7
100
AcDbLine
 10
200.9
 20
121.91188573541
 30
0.0
 11
188.3290623596326
 21
121.91188573541
 31
0.0
  0
LINE
  5
1F4
330
48
100
AcDbEntity
  8
1
  6
Continuous
 62
     7
100
AcDbLine
 10
186.9
 20
124.3870943494781
 30
0.0
 11
186.9
 21
126.868781849478
 31
0.0
  0
LINE
  5
1F5
330
48
100
AcDbEntity
  8
1
  6
Continuous
 62
     7
100
AcDbLine
 10
202.8013325485648
 20
155.5690983873474
 30
0.0
 11
200.9
 21
158.8623029635461
 31
0.0
  0
LINE
  5
1F6
330
48
100
AcDbEntity
  8
1
  6
Continuous
 62
     7
100
AcDbLine
 10
200.9
 20
121.91188573541
 30
0.0
 11
202.8013325485648
 21
125.2050903116087
 31
0.0
  0
LINE
  5
1F7
330
48
100
AcDbEntity
  8
1
  6
Continuous
 62
     7
100
AcDbLine
 10
240.9986674514351
 20
125.2050903116087
 30
0.0
 11
242.9
 21
121.91188573541
 31
0.0
  0
LINE
  5
1F8
330
48
100
AcDbEntity
  8
1
  6
Continuous
 62
     7
100
AcDbLine
 10
237.9
 20
156.3993838285721
 30
0.0
 11
237.9
 21
168.9789370429245
 31
0.0
  0
LINE
  5
1F9
330
48
100
AcDbEntity
  8
1
  6
Continuous
 62
     7
100
AcDbLine
 10
242.8999999999999
 20
158.8623029635461
 30
0.0
 11
240.9986674514351
 21
155.5690983873474
 31
0.0
  0
LINE
  5
1FA
330
48
100
AcDbEntity
  8
1
  6
Continuous
 62
     7
100
AcDbLine
 10
256.8999999999999
 20
153.9054068494781
 30
0.0
 11
256.8999999999999
 21
126.868781849478
 31
0.0
  0
LINE
  5
1FB
330
48
100
AcDbEntity
  8
1
  6
Continuous
 62
     7
100
AcDbLine
 10
255.4709376403673
 20
121.91188573541
 30
0.0
 11
242.9
 21
121.91188573541
 31
0.0
  0
LINE
  5
1FC
330
48
100
AcDbEntity
  8
1
  6
Continuous
 62
     7
100
AcDbLine
 10
256.8999999999999
 20
124.3870943494781
 30
0.0
 11
255.4709376403673
 21
121.91188573541
 31
0.0
  0
LINE
  5
1FD
330
48
100
AcDbEntity
  8
1
  6
Continuous
 62
     7
100
AcDbLine
 10
256.8999999999999
 20
156.3870943494781
 30
0.0
 11
256.8999999999999
 21
153.9054068494781
 31
0.0
  0
LINE
  5
1FE
330
48
100
AcDbEntity
  8
1
  6
Continuous
 62
     7
100
AcDbLine
 10
255.4709376403673
 20
158.8623029635461
 30
0.0
 11
256.8999999999999
 21
156.3870943494781
 31
0.0
  0
LINE
  5
1FF
330
48
100
AcDbEntity
  8
1
  6
Continuous
 62
     7
100
AcDbLine
 10
242.8999999999999
 20
158.8623029635461
 30
0.0
 11
255.4709376403673
 21
158.8623029635461
 31
0.0
  0
LINE
  5
200
330
48
100
AcDbEntity
  8
1
  6
Continuous
 62
     7
100
AcDbLine
 10
237.9
 20
170.3870943494781
 30
0.0
 11
206.7129999999999
 21
170.3870943494781
 31
0.0
  0
LINE
  5
201
330
48
100
AcDbEntity
  8
1
  6
Continuous
 62
     2
100
AcDbLine
 10
237.0869999999999
 20
170.3870943494781
 30
0.0
 11
237.0869999999999
 21
171.3780334022766
 31
0.0
  0
LINE
  5
202
330
48
100
AcDbEntity
  8
1
  6
Continuous
 62
     2
100
AcDbLine
 10
237.9
 20
168.9789370429245
 30
0.0
 11
237.0869999999999
 21
170.3870943494781
 31
0.0
  0
LINE
  5
203
330
48
100
AcDbEntity
  8
1
  6
Continuous
 62
     2
100
AcDbLine
 10
206.7129999999999
 20
170.3870943494781
 30
0.0
 11
205.8999999999999
 21
168.9789370429245
 31
0.0
  0
LINE
  5
204
330
48
100
AcDbEntity
  8
1
  6
Continuous
 62
     7
100
AcDbLine
 10
205.8999999999999
 20
168.9789370429245
 30
0.0
 11
205.8999999999999
 21
171.3870943494781
 31
0.0
  0
LINE
  5
205
330
48
100
AcDbEntity
  8
1
  6
Continuous
 62
     7
100
AcDbLine
 10
206.7129999999999
 20
170.3870943494781
 30
0.0
 11
205.8999999999999
 21
170.3870943494781
 31
0.0
  0
LINE
  5
206
330
48
100
AcDbEntity
  8
1
  6
Continuous
 62
     7
100
AcDbLine
 10
237.9
 20
171.3870943494781
 30
0.0
 11
237.9
 21
168.9789370429245
 31
0.0
  0
LINE
  5
207
330
48
100
AcDbEntity
  8
1
  6
Continuous
 62
     7
100
AcDbLine
 10
74.69999240268663
 20
149.6245943494781
 30
0.0
 11
74.69999240268663
 21
131.1495943494781
 31
0.0
  0
LINE
  5
208
330
48
100
AcDbEntity
  8
1
  6
Continuous
 62
     7
100
AcDbLine
 10
74.69999240268663
 20
131.1495943494781
 30
0.0
 11
90.69981173760414
 21
121.9120943494781
 31
0.0
  0
LINE
  5
209
330
48
100
AcDbEntity
  8
1
  6
Continuous
 62
     7
100
AcDbLine
 10
90.69981173760414
 20
121.9120943494781
 30
0.0
 11
106.6996310725216
 21
131.1495943494781
 31
0.0
  0
LINE
  5
20A
330
48
100
AcDbEntity
  8
1
  6
Continuous
 62
     7
100
AcDbLine
 10
106.6996310725216
 20
131.1495943494781
 30
0.0
 11
106.6996310725216
 21
149.6245943494781
 31
0.0
  0
LINE
  5
20B
330
48
100
AcDbEntity
  8
1
  6
Continuous
 62
     7
100
AcDbLine
 10
106.6996310725216
 20
149.6245943494781
 30
0.0
 11
90.69981173760414
 21
158.8620943494781
 31
0.0
  0
LINE
  5
20C
330
48
100
AcDbEntity
  8
1
  6
Continuous
 62
     7
100
AcDbLine
 10
90.69981173760414
 20
158.8620943494781
 30
0.0
 11
74.69999240268663
 21
149.6245943494781
 31
0.0
  0
LINE
  5
20D
330
48
100
AcDbEntity
  8
1
  6
Continuous
 62
     7
100
AcDbLine
 10
78.75246421870594
 20
143.3870943494781
 30
0.0
 11
102.6471592565024
 21
143.3870943494781
 31
0.0
  0
LINE
  5
20E
330
48
100
AcDbEntity
  8
1
  6
Continuous
 62
     7
100
AcDbLine
 10
106.6998117376041
 20
170.3870943494781
 30
0.0
 11
75.51281173760415
 21
170.3870943494781
 31
0.0
  0
LINE
  5
20F
330
48
100
AcDbEntity
  8
1
  6
Continuous
 62
     2
100
AcDbLine
 10
105.8868117376042
 20
170.3870943494781
 30
0.0
 11
105.8868117376042
 21
171.3870943494781
 31
0.0
  0
LINE
  5
210
330
48
100
AcDbEntity
  8
1
  6
Continuous
 62
     2
100
AcDbLine
 10
106.6998117376041
 20
168.9789370429245
 30
0.0
 11
105.8868117376042
 21
170.3870943494781
 31
0.0
  0
LINE
  5
211
330
48
100
AcDbEntity
  8
1
  6
Continuous
 62
     2
100
AcDbLine
 10
75.51281173760415
 20
170.3870943494781
 30
0.0
 11
74.69981173760414
 21
168.9789370429245
 31
0.0
  0
LINE
  5
212
330
48
100
AcDbEntity
  8
1
  6
Continuous
 62
     7
100
AcDbLine
 10
74.69981173760414
 20
168.9789370429245
 30
0.0
 11
74.69981173760414
 21
171.3870943494781
 31
0.0
  0
LINE
  5
213
330
48
100
AcDbEntity
  8
1
  6
Continuous
 62
     7
100
AcDbLine
 10
75.51281173760415
 20
170.3870943494781
 30
0.0
 11
74.69981173760414
 21
170.3870943494781
 31
0.0
  0
LINE
  5
214
330
48
100
AcDbEntity
  8
1
  6
Continuous
 62
     7
100
AcDbLine
 10
106.6998117376041
 20
171.3870943494781
 30
0.0
 11
106.6998117376041
 21
168.9789370429245
 31
0.0
  0
LINE
  5
215
330
48
100
AcDbEntity
  8
1
  6
Continuous
 62
     7
100
AcDbLine
 10
106.6998117376041
 20
156.3993838285721
 30
0.0
 11
106.6998117376041
 21
168.9789370429245
 31
0.0
  0
LINE
  5
216
330
48
100
AcDbEntity
  8
1
  6
Continuous
 62
     7
100
AcDbLine
 10
74.69981173760414
 20
156.3993838285721
 30
0.0
 11
74.69981173760414
 21
168.9789370429245
 31
0.0
  0
LINE
  5
217
330
48
100
AcDbEntity
  8
1
  6
Continuous
 62
     7
100
AcDbLine
 10
74.69981173760414
 20
156.3993838285721
 30
0.0
 11
72.22481173760414
 21
140.3870943494781
 31
0.0
  0
LINE
  5
218
330
48
100
AcDbEntity
  8
1
  6
Continuous
 62
     7
100
AcDbLine
 10
106.6998117376041
 20
156.3993838285721
 30
0.0
 11
109.1748117376042
 21
140.3870943494781
 31
0.0
  0
LINE
  5
219
330
48
100
AcDbEntity
  8
1
  6
Continuous
 62
     7
100
AcDbLine
 10
188.3290623596326
 20
149.6245943494781
 30
0.0
 11
200.9
 21
149.6245943494781
 31
0.0
  0
LINE
  5
21A
330
48
100
AcDbEntity
  8
1
  6
Continuous
 62
     7
100
AcDbLine
 10
188.3290623596326
 20
131.1495943494781
 30
0.0
 11
200.9
 21
131.1495943494781
 31
0.0
  0
LINE
  5
21B
330
48
100
AcDbEntity
  8
1
  6
Continuous
 62
     7
100
AcDbLine
 10
242.8999999999999
 20
149.6245943494781
 30
0.0
 11
255.4709376403673
 21
149.6245943494781
 31
0.0
  0
LINE
  5
21C
330
48
100
AcDbEntity
  8
1
  6
Continuous
 62
     7
100
AcDbLine
 10
242.8999999999999
 20
131.1495943494781
 30
0.0
 11
255.4709376403673
 21
131.1495943494781
 31
0.0
  0
LINE
  5
21D
330
48
100
AcDbEntity
  8
1
  6
Continuous
 62
     7
100
AcDbLine
 10
106.6998117376042
 20
280.8626635222508
 30
0.0
 11
74.69981173760417
 21
280.8626635222508
 31
0.0
  0
LINE
  5
21E
330
48
100
AcDbEntity
  8
1
  6
Continuous
 62
     7
100
AcDbLine
 10
74.69999240268666
 20
280.8626635222508
 30
0.0
 11
74.69999240268666
 21
296.2918301889175
 31
0.0
  0
LINE
  5
21F
330
48
100
AcDbEntity
  8
1
  6
Continuous
 62
     7
100
AcDbLine
 10
106.6996310725217
 20
296.2918301889175
 30
0.0
 11
106.6996310725217
 21
280.8626635222508
 31
0.0
  0
LINE
  5
220
330
48
100
AcDbEntity
  8
1
  6
Continuous
 62
     7
100
AcDbLine
 10
106.6996310725217
 20
296.2918301889175
 30
0.0
 11
105.8818157754736
 21
296.7639960708156
 31
0.0
  0
LINE
  5
221
330
48
100
AcDbEntity
  8
1
  6
Continuous
 62
     7
100
AcDbLine
 10
75.51780769973476
 20
296.7639960708156
 30
0.0
 11
74.69999240268666
 21
296.2918301889175
 31
0.0
  0
LINE
  5
222
330
48
100
AcDbEntity
  8
1
  6
Continuous
 62
     7
100
AcDbLine
 10
74.69999240268666
 20
335.4334968555841
 30
0.0
 11
74.69999240268666
 21
350.8626635222508
 31
0.0
  0
LINE
  5
223
330
48
100
AcDbEntity
  8
1
  6
Continuous
 62
     7
100
AcDbLine
 10
106.6996310725217
 20
350.8626635222508
 30
0.0
 11
106.6996310725217
 21
335.4334968555841
 31
0.0
  0
LINE
  5
224
330
48
100
AcDbEntity
  8
1
  6
Continuous
 62
     7
100
AcDbLine
 10
74.69981173760417
 20
350.8626635222508
 30
0.0
 11
104.2181242376041
 21
350.8626635222508
 31
0.0
  0
LINE
  5
225
330
48
100
AcDbEntity
  8
1
  6
Continuous
 62
     7
100
AcDbLine
 10
77.18149923760416
 20
350.8626635222508
 30
0.0
 11
106.6998117376042
 21
350.8626635222508
 31
0.0
  0
LINE
  5
226
330
48
100
AcDbEntity
  8
1
  6
Continuous
 62
     7
100
AcDbLine
 10
90.69981173760417
 20
282.2917258818835
 30
0.0
 11
90.69981173760405
 21
284.8626635222509
 31
0.0
  0
LINE
  5
227
330
48
100
AcDbEntity
  8
1
  6
Continuous
 62
     7
100
AcDbLine
 10
74.69999240268666
 20
335.4334968555841
 30
0.0
 11
75.51780769973476
 21
334.961330973686
 31
0.0
  0
LINE
  5
228
330
48
100
AcDbEntity
  8
1
  6
Continuous
 62
     7
100
AcDbLine
 10
90.69981173760417
 20
336.8626635222508
 30
0.0
 11
90.69981173760417
 21
349.4336011626181
 31
0.0
  0
LINE
  5
229
330
48
100
AcDbEntity
  8
1
  6
Continuous
 62
     2
100
AcDbLine
 10
75.51281173760415
 20
171.3870943494781
 30
0.0
 11
75.51281173760415
 21
170.3870943494781
 31
0.0
  0
LINE
  5
22A
330
48
100
AcDbEntity
  8
1
  6
Continuous
 62
     2
100
AcDbLine
 10
206.7129999999999
 20
171.3780334022766
 30
0.0
 11
206.7129999999999
 21
170.3870943494781
 31
0.0
  0
ARC
  5
22B
330
48
100
AcDbEntity
  8
1
  6
Continuous
 62
     7
100
AcDbCircle
 10
106.7121012166982
 20
333.5232344047002
 30
0.0
 40
1.660570882449268
100
AcDbArc
 50
119.9999999999988
 51
-153.7154020633979
  0
ARC
  5
22C
330
48
100
AcDbEntity
  8
1
  6
Continuous
 62
     7
100
AcDbCircle
 10
204.2394291175506
 20
156.3993838285721
 30
0.0
 40
1.660570882449294
100
AcDbArc
 50
-149.9999999999978
 51
0.0
  0
ARC
  5
22D
330
48
100
AcDbEntity
  8
1
  6
Continuous
 62
     7
100
AcDbCircle
 10
204.2394291175506
 20
124.374804870384
 30
0.0
 40
1.660570882449314
100
AcDbArc
 50
63.71540206339706
 51
149.9999999999978
  0
ARC
  5
22E
330
48
100
AcDbEntity
  8
1
  6
Continuous
 62
     7
100
AcDbCircle
 10
221.9
 20
160.1324510298501
 30
0.0
 40
38.22056529444014
100
AcDbArc
 50
-116.2845979366026
 51
-90.0
  0
ARC
  5
22F
330
48
100
AcDbEntity
  8
1
  6
Continuous
 62
     7
100
AcDbCircle
 10
221.9
 20
160.1324510298501
 30
0.0
 40
38.22056529444011
100
AcDbArc
 50
-90.0
 51
-63.71540206339754
  0
ARC
  5
230
330
48
100
AcDbEntity
  8
1
  6
Continuous
 62
     7
100
AcDbCircle
 10
239.5605708824493
 20
124.374804870384
 30
0.0
 40
1.660570882449294
100
AcDbArc
 50
30.00000000000224
 51
116.2845979366021
  0
ARC
  5
231
330
48
100
AcDbEntity
  8
1
  6
Continuous
 62
     7
100
AcDbCircle
 10
239.5605708824493
 20
156.3993838285721
 30
0.0
 40
1.660570882449292
100
AcDbArc
 50
180.0
 51
-30.00000000000224
  0
ARC
  5
232
330
48
100
AcDbEntity
  8
1
  6
Continuous
 62
     7
100
AcDbCircle
 10
90.69981173760414
 20
140.3870943494781
 30
0.0
 40
18.47500000000001
100
AcDbArc
 50
-90.0
 51
0.0
  0
ARC
  5
233
330
48
100
AcDbEntity
  8
1
  6
Continuous
 62
     7
100
AcDbCircle
 10
90.69981173760414
 20
140.3870943494781
 30
0.0
 40
18.47499999999999
100
AcDbArc
 50
180.0
 51
-90.0
  0
ARC
  5
234
330
48
100
AcDbEntity
  8
1
  6
Continuous
 62
     7
100
AcDbCircle
 10
195.0788013587226
 20
154.2434486565121
 30
0.0
 40
8.178801358722629
100
AcDbArc
 50
145.6161178920002
 51
-145.6161178920002
  0
ARC
  5
235
330
48
100
AcDbEntity
  8
1
  6
Continuous
 62
     7
100
AcDbCircle
 10
217.4702633929071
 20
140.3870943494781
 30
0.0
 40
30.57026339290716
100
AcDbArc
 50
162.4118507325348
 51
-162.4118507325348
  0
ARC
  5
236
330
48
100
AcDbEntity
  8
1
  6
Continuous
 62
     7
100
AcDbCircle
 10
195.0788013587226
 20
126.5307400424441
 30
0.0
 40
8.178801358722621
100
AcDbArc
 50
145.6161178920003
 51
-145.6161178919997
  0
ARC
  5
237
330
48
100
AcDbEntity
  8
1
  6
Continuous
 62
     7
100
AcDbCircle
 10
194.15026100091
 20
154.2434486565121
 30
0.0
 40
8.178801358722629
100
AcDbArc
 50
-34.38388210799979
 51
34.38388210799979
  0
ARC
  5
238
330
48
100
AcDbEntity
  8
1
  6
Continuous
 62
     7
100
AcDbCircle
 10
171.7587989667254
 20
140.3870943494781
 30
0.0
 40
30.57026339290724
100
AcDbArc
 50
-17.58814926746521
 51
17.58814926746516
  0
ARC
  5
239
330
48
100
AcDbEntity
  8
1
  6
Continuous
 62
     7
100
AcDbCircle
 10
194.15026100091
 20
126.5307400424441
 30
0.0
 40
8.178801358722676
100
AcDbArc
 50
-34.38388210800029
 51
34.38388210799971
  0
ARC
  5
23A
330
48
100
AcDbEntity
  8
1
  6
Continuous
 62
     7
100
AcDbCircle
 10
249.6497389990898
 20
154.2434486565121
 30
0.0
 40
8.178801358722557
100
AcDbArc
 50
145.6161178919999
 51
-145.6161178919999
  0
ARC
  5
23B
330
48
100
AcDbEntity
  8
1
  6
Continuous
 62
     7
100
AcDbCircle
 10
248.7211986412773
 20
154.2434486565121
 30
0.0
 40
8.178801358722629
100
AcDbArc
 50
-34.38388210799979
 51
34.38388210799979
  0
ARC
  5
23C
330
48
100
AcDbEntity
  8
1
  6
Continuous
 62
     7
100
AcDbCircle
 10
272.0412010332744
 20
140.3870943494781
 30
0.0
 40
30.57026339290713
100
AcDbArc
 50
162.4118507325348
 51
-162.4118507325347
  0
ARC
  5
23D
330
48
100
AcDbEntity
  8
1
  6
Continuous
 62
     7
100
AcDbCircle
 10
226.3297366070927
 20
140.3870943494781
 30
0.0
 40
30.57026339290724
100
AcDbArc
 50
-17.58814926746521
 51
17.58814926746516
  0
ARC
  5
23E
330
48
100
AcDbEntity
  8
1
  6
Continuous
 62
     7
100
AcDbCircle
 10
249.6497389990898
 20
126.5307400424441
 30
0.0
 40
8.17880135872255
100
AcDbArc
 50
145.616117892
 51
-145.616117891999
  0
ARC
  5
23F
330
48
100
AcDbEntity
  8
1
  6
Continuous
 62
     7
100
AcDbCircle
 10
248.7211986412773
 20
126.5307400424441
 30
0.0
 40
8.178801358722676
100
AcDbArc
 50
-34.38388210800029
 51
34.38388210799971
  0
ARC
  5
240
330
48
100
AcDbEntity
  8
1
  6
Continuous
 62
     7
100
AcDbCircle
 10
137.0903999444544
 20
141.4982190798738
 30
0.0
 40
68.93373815234213
100
AcDbArc
 50
-11.78130247815937
 51
10.05392238896025
  0
ARC
  5
241
330
48
100
AcDbEntity
  8
1
  6
Continuous
 62
     7
100
AcDbCircle
 10
306.7096000555454
 20
141.4982190798738
 30
0.0
 40
68.93373815234207
100
AcDbArc
 50
169.9460776110398
 51
-168.2186975218406
  0
ARC
  5
242
330
48
100
AcDbEntity
  8
1
  6
Continuous
 62
     7
100
AcDbCircle
 10
106.7121012166982
 20
298.2020926398015
 30
0.0
 40
1.660570882449301
100
AcDbArc
 50
153.7154020633979
 51
-119.9999999999978
  0
ARC
  5
243
330
48
100
AcDbEntity
  8
1
  6
Continuous
 62
     7
100
AcDbCircle
 10
70.95445505723217
 20
315.8626635222508
 30
0.0
 40
38.22056529444004
100
AcDbArc
 50
-26.28459793660251
 51
0.0
  0
ARC
  5
244
330
48
100
AcDbEntity
  8
1
  6
Continuous
 62
     7
100
AcDbCircle
 10
89.58868700720836
 20
231.0530634667052
 30
0.0
 40
68.93373815234217
100
AcDbArc
 50
96.19390884477674
 51
100.0539223889603
  0
ARC
  5
245
330
48
100
AcDbEntity
  8
1
  6
Continuous
 62
     7
100
AcDbCircle
 10
89.58868700720836
 20
400.6722635777964
 30
0.0
 40
68.93373815234212
100
AcDbArc
 50
-83.49145386560512
 51
-78.2186975218406
  0
ARC
  5
246
330
48
100
AcDbEntity
  8
1
  6
Continuous
 62
     7
100
AcDbCircle
 10
110.4451684179763
 20
315.8626635222508
 30
0.0
 40
38.22056529444015
100
AcDbArc
 50
180.0
 51
-153.7154020633976
  0
ARC
  5
247
330
48
100
AcDbEntity
  8
1
  6
Continuous
 62
     7
100
AcDbCircle
 10
110.4451684179763
 20
315.8626635222508
 30
0.0
 40
38.22056529444014
100
AcDbArc
 50
178.7552544047895
 51
180.0
  0
ARC
  5
248
330
48
100
AcDbEntity
  8
1
  6
Continuous
 62
     7
100
AcDbCircle
 10
74.68752225851014
 20
298.2020926398015
 30
0.0
 40
1.660570882449325
100
AcDbArc
 50
-60.00000000000179
 51
26.28459793660207
  0
ARC
  5
249
330
48
100
AcDbEntity
  8
1
  6
Continuous
 62
     7
100
AcDbCircle
 10
74.68752225851014
 20
333.5232344047002
 30
0.0
 40
1.660570882449301
100
AcDbArc
 50
-26.28459793660207
 51
60.00000000000081
  0
ARC
  5
24A
330
48
100
AcDbEntity
  8
1
  6
Continuous
 62
     7
100
AcDbCircle
 10
74.68752225851014
 20
333.5232344047002
 30
0.0
 40
1.660570882449301
100
AcDbArc
 50
-26.28459793660207
 51
60.00000000000081
  0
ARC
  5
24B
330
48
100
AcDbEntity
  8
1
  6
Continuous
 62
     7
100
AcDbCircle
 10
82.69990207014544
 20
303.9689938618855
 30
0.0
 40
23.10633033963464
100
AcDbArc
 50
-110.2563819917058
 51
-69.74361800829435
  0
ARC
  5
24C
330
48
100
AcDbEntity
  8
1
  6
Continuous
 62
     7
100
AcDbCircle
 10
98.69972140506295
 20
303.9689938618855
 30
0.0
 40
23.10633033963464
100
AcDbArc
 50
-110.2563819917058
 51
-69.74361800829426
  0
ARC
  5
24D
330
48
100
AcDbEntity
  8
1
  6
Continuous
 62
     7
100
AcDbCircle
 10
82.69990207014544
 20
273.1853955422488
 30
0.0
 40
23.10633033963461
100
AcDbArc
 50
89.1713011687293
 51
110.2563819917058
  0
ARC
  5
24E
330
48
100
AcDbEntity
  8
1
  6
Continuous
 62
     7
100
AcDbCircle
 10
82.69990207014544
 20
358.5399315022528
 30
0.0
 40
23.10633033963464
100
AcDbArc
 50
-110.2563819917058
 51
-69.74361800829435
  0
ARC
  5
24F
330
48
100
AcDbEntity
  8
1
  6
Continuous
 62
     7
100
AcDbCircle
 10
82.69990207014544
 20
327.7563331826161
 30
0.0
 40
23.10633033963462
100
AcDbArc
 50
69.74361800829435
 51
110.2563819917058
  0
ARC
  5
250
330
48
100
AcDbEntity
  8
1
  6
Continuous
 62
     7
100
AcDbCircle
 10
98.69972140506295
 20
327.7563331826161
 30
0.0
 40
23.10633033963463
100
AcDbArc
 50
69.74361800829426
 51
110.2563819917058
  0
ARC
  5
251
330
48
100
AcDbEntity
  8
1
  6
Continuous
 62
     7
100
AcDbCircle
 10
98.69972140506295
 20
358.5399315022528
 30
0.0
 40
23.10633033963464
100
AcDbArc
 50
-110.2563819917058
 51
-69.74361800829426
  0
ARC
  5
252
330
48
100
AcDbEntity
  8
1
  6
Continuous
 62
     7
100
AcDbCircle
 10
74.68752225851014
 20
333.5232344047002
 30
0.0
 40
1.660570882449301
100
AcDbArc
 50
-26.28459793660207
 51
60.00000000000081
  0
ARC
  5
253
330
48
100
AcDbEntity
  8
1
  6
Continuous
 62
     7
100
AcDbCircle
 10
110.4451684179763
 20
315.8626635222508
 30
0.0
 40
38.22056529444021
100
AcDbArc
 50
153.7154020633974
 51
153.897397810294
  0
ARC
  5
254
330
48
100
AcDbEntity
  8
1
  6
Continuous
 62
     7
100
AcDbCircle
 10
70.95445505723217
 20
315.8626635222508
 30
0.0
 40
38.22056529444004
100
AcDbArc
 50
0.0
 51
1.24474559521087
  0
ARC
  5
255
330
48
100
AcDbEntity
  8
1
  6
Continuous
 62
     7
100
AcDbCircle
 10
89.58868700720836
 20
231.0530634667052
 30
0.0
 40
68.93373815234213
100
AcDbArc
 50
78.2186975218406
 51
82.00476498728673
  0
ARC
  5
256
330
48
100
AcDbEntity
  8
1
  6
Continuous
 62
     7
100
AcDbCircle
 10
98.69972140506295
 20
273.1853955422488
 30
0.0
 40
23.10633033963463
100
AcDbArc
 50
69.74361800829426
 51
90.82869883127184
  0
ARC
  5
257
330
48
100
AcDbEntity
  8
1
  6
Continuous
 62
     7
100
AcDbCircle
 10
89.58868700720836
 20
400.6722635777964
 30
0.0
 40
68.93373815234213
100
AcDbArc
 50
-100.0539223889603
 51
-94.97016345068947
  0
CIRCLE
  5
258
330
48
100
AcDbEntity
  8
1
  6
Continuous
 62
     7
100
AcDbCircle
 10
90.69981173760414
 20
140.3870943494781
 30
0.0
 40
15.9998193349176
  0
CIRCLE
  5
259
330
48
100
AcDbEntity
  8
1
  6
Continuous
 62
     2
100
AcDbCircle
 10
90.69981173760414
 20
140.3870943494781
 30
0.0
 40
13.51831249999997
  0
CIRCLE
  5
25A
330
48
100
AcDbEntity
  8
1
  6
Continuous
 62
     7
100
AcDbCircle
 10
90.69981173760414
 20
140.3870943494781
 30
0.0
 40
12.31824308646826
  0
ENDBLK
  5
4A
330
48
100
AcDbEntity
  8
0
100
AcDbBlockEnd
  0
BLOCK
  5
280
330
279
100
AcDbEntity
  8
0
100
AcDbBlockBegin
  2
*D08
 70
     1
 71
     0
 10
0.0
 20
0.0
 30
0.0
  3
*D08
  1

  0
LINE
  5
27A
330
279
100
AcDbEntity
  8
1
  6
Continuous
 62
     2
100
AcDbLine
 10
186.9
 20
106.91188573541
 30
0.0
 11
221.8999999999999
 21
106.91188573541
 31
0.0
  0
LINE
  5
27B
330
279
100
AcDbEntity
  8
1
  6
Continuous
 62
     2
100
AcDbLine
 10
186.9
 20
124.387094349478
 30
0.0
 11
186.9
 21
105.41188573541
 31
0.0
  0
LINE
  5
27C
330
279
100
AcDbEntity
  8
1
  6
Continuous
 62
     2
100
AcDbLine
 10
221.8999999999999
 20
120.8870943494781
 30
0.0
 11
221.8999999999999
 21
105.41188573541
 31
0.0
  0
SOLID
  5
27D
330
279
100
AcDbEntity
  8
1
 62
     2
100
AcDbTrace
 10
192.15
 20
107.6030613477438
 30
0.0
 11
192.15
 21
106.2207101230762
 31
0.0
 12
186.9
 22
106.91188573541
 32
0.0
 13
186.9
 23
106.91188573541
 33
0.0
  0
SOLID
  5
27E
330
279
100
AcDbEntity
  8
1
 62
     2
100
AcDbTrace
 10
216.6499999999999
 20
106.2207101230762
 30
0.0
 11
216.6499999999999
 21
107.6030613477438
 31
0.0
 12
221.8999999999999
 22
106.91188573541
 32
0.0
 13
221.8999999999999
 23
106.91188573541
 33
0.0
  0
MTEXT
  5
27F
330
279
100
AcDbEntity
  8
1
 62
     7
100
AcDbMText
 10
200.4624999999999
 20
108.41188573541
 30
0.0
 40
5.25
 41
0.0
 71
     7
 72
     1
  1
35
  7
CONVERTER_2
 11
0.9999999999970621
 21
2.424068405545307E-6
 31
0.0
 73
     1
 44
0.60024009603842
  0
ENDBLK
  5
281
330
279
100
AcDbEntity
  8
0
100
AcDbBlockEnd
  0
BLOCK
  5
28B
330
284
100
AcDbEntity
  8
0
100
AcDbBlockBegin
  2
*D19
 70
     1
 71
     0
 10
0.0
 20
0.0
 30
0.0
  3
*D19
  1

  0
LINE
  5
285
330
284
100
AcDbEntity
  8
1
  6
Continuous
 62
     2
100
AcDbLine
 10
171.9
 20
216.3835046890735
 30
0.0
 11
171.9
 21
140.3870943494781
 31
0.0
  0
LINE
  5
286
330
284
100
AcDbEntity
  8
1
  6
Continuous
 62
     2
100
AcDbLine
 10
221.9
 20
216.3835046890735
 30
0.0
 11
170.4
 21
216.3835046890735
 31
0.0
  0
LINE
  5
287
330
284
100
AcDbEntity
  8
1
  6
Continuous
 62
     2
100
AcDbLine
 10
183.6865975373547
 20
140.3870943494781
 30
0.0
 11
170.4
 21
140.3870943494781
 31
0.0
  0
SOLID
  5
288
330
284
100
AcDbEntity
  8
1
 62
     2
100
AcDbTrace
 10
172.5911756123338
 20
211.1335046890735
 30
0.0
 11
171.2088243876662
 21
211.1335046890735
 31
0.0
 12
171.9
 22
216.3835046890735
 32
0.0
 13
171.9
 23
216.3835046890735
 33
0.0
  0
SOLID
  5
289
330
284
100
AcDbEntity
  8
1
 62
     2
100
AcDbTrace
 10
171.2088243876662
 20
145.6370943494781
 30
0.0
 11
172.5911756123338
 21
145.6370943494781
 31
0.0
 12
171.9
 22
140.3870943494781
 32
0.0
 13
171.9
 23
140.3870943494781
 33
0.0
  0
MTEXT
  5
28A
330
284
100
AcDbEntity
  8
1
 62
     7
100
AcDbMText
 10
170.4
 20
164.2102995192758
 30
0.0
 40
5.25
 41
0.0
 71
     7
 72
     1
  1
76リフト7
  7
CONVERTER_1
 11
0.0
 21
1.0
 31
0.0
 73
     1
 44
0.60024009603842
  0
ENDBLK
  5
28C
330
284
100
AcDbEntity
  8
0
100
AcDbBlockEnd
  0
BLOCK
  5
296
330
28F
100
AcDbEntity
  8
0
100
AcDbBlockBegin
  2
*D210
 70
     1
 71
     0
 10
0.0
 20
0.0
 30
0.0
  3
*D210
  1

  0
LINE
  5
290
330
28F
100
AcDbEntity
  8
1
  6
Continuous
 62
     2
100
AcDbLine
 10
74.69999240268666
 20
365.8626635222507
 30
0.0
 11
106.6998117376042
 21
365.8626635222507
 31
0.0
  0
LINE
  5
291
330
28F
100
AcDbEntity
  8
1
  6
Continuous
 62
     2
100
AcDbLine
 10
74.69999240268666
 20
350.8626635222508
 30
0.0
 11
74.69999240268666
 21
367.3626635222507
 31
0.0
  0
LINE
  5
292
330
28F
100
AcDbEntity
  8
1
  6
Continuous
 62
     2
100
AcDbLine
 10
106.6998117376042
 20
350.8626635222508
 30
0.0
 11
106.6998117376042
 21
367.3626635222507
 31
0.0
  0
SOLID
  5
293
330
28F
100
AcDbEntity
  8
1
 62
     2
100
AcDbTrace
 10
79.94999240268666
 20
366.5538391345846
 30
0.0
 11
79.94999240268666
 21
365.1714879099169
 31
0.0
 12
74.69999240268666
 22
365.8626635222507
 32
0.0
 13
74.69999240268666
 23
365.8626635222507
 33
0.0
  0
SOLID
  5
294
330
28F
100
AcDbEntity
  8
1
 62
     2
100
AcDbTrace
 10
101.4498117376042
 20
365.1714879099169
 30
0.0
 11
101.4498117376042
 21
366.5538391345846
 31
0.0
 12
106.6998117376042
 22
365.8626635222507
 32
0.0
 13
106.6998117376042
 23
365.8626635222507
 33
0.0
  0
MTEXT
  5
295
330
28F
100
AcDbEntity
  8
1
 62
     7
100
AcDbMText
 10
86.76231173760414
 20
367.3626635222507
 30
0.0
 40
5.25
 41
0.0
 71
     7
 72
     1
  1
32
  7
CONVERTER_2
 11
0.9999999999970621
 21
2.424068405545307E-6
 31
0.0
 73
     1
 44
0.60024009603842
  0
ENDBLK
  5
297
330
28F
100
AcDbEntity
  8
0
100
AcDbBlockEnd
  0
BLOCK
  5
2A1
330
29A
100
AcDbEntity
  8
0
100
AcDbBlockBegin
  2
*D311
 70
     1
 71
     0
 10
0.0
 20
0.0
 30
0.0
  3
*D311
  1

  0
LINE
  5
29B
330
29A
100
AcDbEntity
  8
1
  6
Continuous
 62
     2
100
AcDbLine
 10
74.69999240268666
 20
265.8626635222508
 30
0.0
 11
106.6996310725217
 21
265.8626635222508
 31
0.0
  0
LINE
  5
29C
330
29A
100
AcDbEntity
  8
1
  6
Continuous
 62
     2
100
AcDbLine
 10
74.69999240268666
 20
280.8626635222508
 30
0.0
 11
74.69999240268666
 21
264.3626635222508
 31
0.0
  0
LINE
  5
29D
330
29A
100
AcDbEntity
  8
1
  6
Continuous
 62
     2
100
AcDbLine
 10
106.6996310725217
 20
280.8626635222508
 30
0.0
 11
106.6996310725217
 21
264.3626635222508
 31
0.0
  0
SOLID
  5
29E
330
29A
100
AcDbEntity
  8
1
 62
     2
100
AcDbTrace
 10
79.94999240268666
 20
266.5538391345846
 30
0.0
 11
79.94999240268666
 21
265.171487909917
 31
0.0
 12
74.69999240268666
 22
265.8626635222508
 32
0.0
 13
74.69999240268666
 23
265.8626635222508
 33
0.0
  0
SOLID
  5
29F
330
29A
100
AcDbEntity
  8
1
 62
     2
100
AcDbTrace
 10
101.4496310725217
 20
265.171487909917
 30
0.0
 11
101.4496310725217
 21
266.5538391345846
 31
0.0
 12
106.6996310725217
 22
265.8626635222508
 32
0.0
 13
106.6996310725217
 23
265.8626635222508
 33
0.0
  0
MTEXT
  5
2A0
330
29A
100
AcDbEntity
  8
1
 62
     7
100
AcDbMText
 10
86.76231173760414
 20
267.3626635222508
 30
0.0
 40
5.25
 41
0.0
 71
     7
 72
     1
  1
32
  7
CONVERTER_2
 11
0.9999999999970621
 21
2.424068405545307E-6
 31
0.0
 73
     1
 44
0.60024009603842
  0
ENDBLK
  5
2A2
330
29A
100
AcDbEntity
  8
0
100
AcDbBlockEnd
  0
BLOCK
  5
2AC
330
2A5
100
AcDbEntity
  8
0
100
AcDbBlockBegin
  2
*D412
 70
     1
 71
     0
 10
0.0
 20
0.0
 30
0.0
  3
*D412
  1

  0
LINE
  5
2A6
330
2A5
100
AcDbEntity
  8
1
  6
Continuous
 62
     2
100
AcDbLine
 10
221.9
 20
106.91188573541
 30
0.0
 11
256.9
 21
106.91188573541
 31
0.0
  0
LINE
  5
2A7
330
2A5
100
AcDbEntity
  8
1
  6
Continuous
 62
     2
100
AcDbLine
 10
221.9
 20
120.8870943494781
 30
0.0
 11
221.9
 21
105.41188573541
 31
0.0
  0
LINE
  5
2A8
330
2A5
100
AcDbEntity
  8
1
  6
Continuous
 62
     2
100
AcDbLine
 10
256.9
 20
124.387094349478
 30
0.0
 11
256.9
 21
105.41188573541
 31
0.0
  0
SOLID
  5
2A9
330
2A5
100
AcDbEntity
  8
1
 62
     2
100
AcDbTrace
 10
227.15
 20
107.6030613477438
 30
0.0
 11
227.15
 21
106.2207101230762
 31
0.0
 12
221.9
 22
106.91188573541
 32
0.0
 13
221.9
 23
106.91188573541
 33
0.0
  0
SOLID
  5
2AA
330
2A5
100
AcDbEntity
  8
1
 62
     2
100
AcDbTrace
 10
251.65
 20
106.2207101230762
 30
0.0
 11
251.65
 21
107.6030613477438
 31
0.0
 12
256.9
 22
106.91188573541
 32
0.0
 13
256.9
 23
106.91188573541
 33
0.0
  0
MTEXT
  5
2AB
330
2A5
100
AcDbEntity
  8
1
 62
     7
100
AcDbMText
 10
235.4624999999999
 20
108.41188573541
 30
0.0
 40
5.25
 41
0.0
 71
     7
 72
     1
  1
35
  7
CONVERTER_2
 11
0.9999999999970621
 21
2.424068405545307E-6
 31
0.0
 73
     1
 44
0.60024009603842
  0
ENDBLK
  5
2AD
330
2A5
100
AcDbEntity
  8
0
100
AcDbBlockEnd
  0
ENDSEC
  0
SECTION
  2
ENTITIES
  0
INSERT
  5
4B
330
1F
100
AcDbEntity
  8
1
100
AcDbBlockReference
  2
_J__A4
 10
0.0
 20
0.0
 30
0.0
 41
1.5
 42
1.5
 43
1.5
  0
INSERT
  5
4C
330
1F
100
AcDbEntity
  8
0
100
AcDbBlockReference
  2
21-1A
 10
337.3424209201351
 20
147.3269986244868
 30
0.0
  0
INSERT
  5
4D
330
1F
100
AcDbEntity
  8
1
100
AcDbBlockReference
  2
36-1-20
 10
137.8661870503599
 20
91.01608715523355
 30
0.0
  0
INSERT
  5
4E
330
1F
100
AcDbEntity
  8
0
100
AcDbBlockReference
  2
01-22-21
 10
225.3023599400688
 20
326.4323612809269
 30
0.0
  0
INSERT
  5
4F
330
1F
100
AcDbEntity
  8
1
100
AcDbBlockReference
  2
37-1-20
 10
380.7084750762709
 20
89.86831266135124
 30
0.0
  0
INSERT
  5
50
330
1F
100
AcDbEntity
  8
0
100
AcDbBlockReference
  2
42-1
 10
133.7957399133964
 20
19.53288407137487
 30
0.0
  0
INSERT
  5
51
330
1F
100
AcDbEntity
  8
0
100
AcDbBlockReference
  2
V231AG-1-20
 10
319.3
 20
-19.44449775159063
 30
0.0
  0
LINE
  5
25B
330
1F
100
AcDbEntity
  8
1
  6
DASH_CENTER
 62
     2
100
AcDbLine
 10
221.8999999999999
 20
120.8870943494781
 30
0.0
 11
221.8999999999999
 21
218.8720435874576
 31
0.0
  0
LINE
  5
25C
330
1F
100
AcDbEntity
  8
1
  6
DASH_CENTER
 62
     2
100
AcDbLine
 10
90.69981173760414
 20
120.8870943494781
 30
0.0
 11
90.69981173760414
 21
218.8720435874576
 31
0.0
  0
LINE
  5
25D
330
1F
100
AcDbEntity
  8
1
  6
DASH_CENTER
 62
     2
100
AcDbLine
 10
260.1134024626451
 20
140.3870943494781
 30
0.0
 11
183.6865975373547
 21
140.3870943494781
 31
0.0
  0
LINE
  5
25E
330
1F
100
AcDbEntity
  8
1
  6
DASH_CENTER
 62
     2
100
AcDbLine
 10
112.1748117376041
 20
140.3870943494781
 30
0.0
 11
69.22481173760414
 21
140.3870943494781
 31
0.0
  0
LINE
  5
25F
330
1F
100
AcDbEntity
  8
1
  6
DASH_CENTER
 62
     2
100
AcDbLine
 10
90.69981173760414
 20
354.0760659848961
 30
0.0
 11
90.69981173760414
 21
277.6492610596055
 31
0.0
  0
LINE
  5
260
330
1F
100
AcDbEntity
  8
1
  6
DASH_CENTER
 62
     2
100
AcDbLine
 10
120.1653130508662
 20
332.87457863727
 30
0.0
 11
76.95371522636313
 21
307.9263510011792
 31
0.0
  0
LINE
  5
261
330
1F
100
AcDbEntity
  8
1
  6
DASH_CENTER
 62
     2
100
AcDbLine
 10
61.22610037017273
 20
332.8793187142547
 30
0.0
 11
106.371116140395
 21
306.8148317067471
 31
0.0
  0
LINE
  5
262
330
1F
100
AcDbEntity
  8
1
  6
DASH_CENTER
 62
     2
100
AcDbLine
 10
59.65638540552175
 20
315.8626635222508
 30
0.0
 11
123.1787722353322
 21
315.8626635222508
 31
0.0
  0
LINE
  5
263
330
1F
100
AcDbEntity
  8
1
  6
Continuous
 62
     7
100
AcDbLine
 10
129.6127909852763
 20
130.021840485658
 30
0.0
 11
129.6127909852763
 21
131.821840485658
 31
0.0
  0
LINE
  5
264
330
1F
100
AcDbEntity
  8
1
  6
Continuous
 62
     7
100
AcDbLine
 10
122.4127909852763
 20
131.821840485658
 30
0.0
 11
122.4127909852763
 21
133.321840485658
 31
0.0
  0
LINE
  5
265
330
1F
100
AcDbEntity
  8
1
  6
Continuous
 62
     7
100
AcDbLine
 10
122.4127909852763
 20
130.021840485658
 30
0.0
 11
129.6127909852763
 21
130.021840485658
 31
0.0
  0
LINE
  5
266
330
1F
100
AcDbEntity
  8
1
  6
Continuous
 62
     7
100
AcDbLine
 10
129.6127909852763
 20
131.821840485658
 30
0.0
 11
122.4127909852763
 21
131.821840485658
 31
0.0
  0
LINE
  5
267
330
1F
100
AcDbEntity
  8
1
  6
Continuous
 62
     7
100
AcDbLine
 10
122.4127909852763
 20
133.321840485658
 30
0.0
 11
118.255869047111
 21
130.921840485658
 31
0.0
  0
LINE
  5
268
330
1F
100
AcDbEntity
  8
1
  6
Continuous
 62
     7
100
AcDbLine
 10
122.4127909852763
 20
128.521840485658
 30
0.0
 11
118.255869047111
 21
130.921840485658
 31
0.0
  0
LINE
  5
269
330
1F
100
AcDbEntity
  8
1
  6
Continuous
 62
     7
100
AcDbLine
 10
122.4127909852763
 20
130.021840485658
 30
0.0
 11
122.4127909852763
 21
128.521840485658
 31
0.0
  0
SOLID
  5
26A
330
1F
100
AcDbEntity
  8
1
 62
     2
100
AcDbTrace
 10
184.8735756387574
 20
123.3737596713283
 30
0.0
 11
183.6764243612426
 21
124.0649352836621
 31
0.0
 12
186.9
 22
128.2659808473635
 32
0.0
 13
186.9
 23
128.2659808473635
 33
0.0
  0
LEADER
  5
26B
330
1F
100
AcDbEntity
  8
1
  6
Continuous
 62
     2
100
AcDbLeader
  3
Standard
 71
     0
 76
     3
 10
186.9
 20
128.2659808473635
 30
0.0
 10
174.5712074388127
 20
106.91188573541
 30
0.0
 10
150.741401947504
 20
106.91188573541
 30
0.0
  0
SOLID
  5
26C
330
1F
100
AcDbEntity
  8
1
 62
     2
100
AcDbTrace
 10
260.1235756387573
 20
124.0649352836621
 30
0.0
 11
258.9264243612425
 21
123.3737596713283
 31
0.0
 12
256.8999999999999
 22
128.2659808473635
 32
0.0
 13
256.8999999999999
 23
128.2659808473635
 33
0.0
  0
LEADER
  5
26D
330
1F
100
AcDbEntity
  8
1
  6
Continuous
 62
     2
100
AcDbLeader
  3
Standard
 71
     0
 76
     3
 10
256.8999999999999
 20
128.2659808473635
 30
0.0
 10
269.228792561187
 20
106.91188573541
 30
0.0
 10
293.9719235898909
 20
106.91188573541
 30
0.0
  0
SOLID
  5
26E
330
1F
100
AcDbEntity
  8
1
 62
     2
100
AcDbTrace
 10
112.3983873763615
 20
136.1860487857767
 30
0.0
 11
111.2012360988468
 21
135.4948731734429
 31
0.0
 12
109.1748117376042
 22
140.3870943494781
 32
0.0
 13
109.1748117376042
 23
140.3870943494781
 33
0.0
  0
LEADER
  5
26F
330
1F
100
AcDbEntity
  8
1
  6
Continuous
 62
     2
100
AcDbLeader
  3
Standard
 71
     0
 76
     3
 10
109.1748117376042
 20
140.3870943494781
 30
0.0
 10
117.2376548151821
 20
126.421840485658
 30
0.0
 10
132.428661477533
 20
126.421840485658
 30
0.0
  0
MTEXT
  5
270
330
1F
100
AcDbEntity
  8
0
 62
     7
100
AcDbMText
 10
51.0
 20
45.75000000000001
 30
0.0
 40
5.25
 41
0.0
 71
     4
 72
     1
  1
共用形
  7
CONVERTER_1
 73
     1
 44
0.7202881152461
  0
MTEXT
  5
272
330
1F
100
AcDbEntity
  8
1
 62
     7
100
AcDbMText
 10
140.625
 20
25.5
 30
0.0
 40
5.25
 41
0.0
 71
     5
 72
     1
  1
1,5
  7
CONVERTER_2
 73
     1
 44
0.7202881152461
  0
MTEXT
  5
273
330
1F
100
AcDbEntity
  8
1
 62
     7
100
AcDbMText
 10
127.875
 20
25.5
 30
0.0
 40
5.25
 41
0.0
 71
     5
 72
     1
  1
1
  7
CONVERTER_2
 73
     1
 44
0.7202881152461
  0
MTEXT
  5
274
330
1F
100
AcDbEntity
  8
0
 62
     7
100
AcDbMText
 10
85.5
 20
21.375
 30
0.0
 40
5.25
 41
0.0
 71
     5
 72
     1
  1
V231AG-20
  7
CONVERTER_2
 73
     1
 44
0.90036014405762
  0
MTEXT
  5
275
330
1F
100
AcDbEntity
  8
0
 62
     7
100
AcDbMText
 10
85.5
 20
34.12500000000001
 30
0.0
 40
5.25
 41
0.0
 71
     5
 72
     1
  1
B型甲止水栓
  7
CONVERTER_1
 73
     1
 44
0.7202881152461
  0
MTEXT
  5
276
330
1F
100
AcDbEntity
  8
0
 62
     7
100
AcDbMText
 10
51.0
 20
56.25000000000001
 30
0.0
 40
5.25
 41
0.0
 71
     4
 72
     1
  1
JIS
  7
CONVERTER_2
 73
     1
 44
0.7202881152461
  0
MTEXT
  5
277
330
1F
100
AcDbEntity
  8
1
 62
     7
100
AcDbMText
 10
162.6563046931584
 20
111.41188573541
 30
0.0
 40
5.25
 41
0.0
 71
     5
 72
     1
  1
Rc3/4
  7
CONVERTER_2
 73
     1
 44
1.32052821128451
  0
MTEXT
  5
278
330
1F
100
AcDbEntity
  8
1
 62
     7
100
AcDbMText
 10
281.600358075539
 20
111.41188573541
 30
0.0
 40
5.25
 41
0.0
 71
     5
 72
     1
  1
Rc3/4
  7
CONVERTER_2
 73
     1
 44
1.32052821128451
  0
DIMENSION
  5
283
330
1F
100
AcDbEntity
  8
1
100
AcDbDimension
  2
*D08
 10
186.9
 20
106.91188573541
 30
0.0
 11
204.3999999999999
 21
111.03688573541
 31
0.0
  1
<>
 71
     5
 42
0.0
 53
0.00013888888889
  3
ME10_DIM_0
100
AcDbAlignedDimension
 13
221.8999999999999
 23
120.8870943494781
 33
0.0
 14
186.9
 24
124.3870943494781
 34
0.0
100
AcDbRotatedDimension
  0
DIMENSION
  5
28E
330
1F
100
AcDbEntity
  8
1
100
AcDbDimension
  2
*D19
 10
171.9
 20
216.3835046890735
 30
0.0
 11
167.775
 21
178.3852995192758
 31
0.0
  1
76リフト7
 71
     5
 42
0.0
 53
90.0
  3
ME10_DIM_1
100
AcDbAlignedDimension
 13
183.6865975373547
 23
140.3870943494781
 33
0.0
 14
221.8999999999999
 24
216.3835046890734
 34
0.0
 50
90.0
100
AcDbRotatedDimension
  0
DIMENSION
  5
299
330
1F
100
AcDbEntity
  8
1
100
AcDbDimension
  2
*D210
 10
74.69999240268666
 20
365.8626635222507
 30
0.0
 11
90.69981173760414
 21
369.9876635222507
 31
0.0
 70
     1
  1
<>
 71
     5
 42
0.0
 53
0.00013888888889
  3
ME10_DIM_2
100
AcDbAlignedDimension
 13
106.6998117376042
 23
350.8626635222507
 33
0.0
 14
74.69999240268666
 24
350.8626635222507
 34
0.0
  0
DIMENSION
  5
2A4
330
1F
100
AcDbEntity
  8
1
100
AcDbDimension
  2
*D311
 10
74.69999240268666
 20
265.8626635222508
 30
0.0
 11
90.69981173760414
 21
269.9876635222508
 31
0.0
 70
     1
  1
<>
 71
     5
 42
0.0
 53
0.00013888888889
  3
ME10_DIM_3
100
AcDbAlignedDimension
 13
106.6996310725217
 23
280.8626635222508
 33
0.0
 14
74.69999240268666
 24
280.8626635222508
 34
0.0
  0
DIMENSION
  5
2AF
330
1F
100
AcDbEntity
  8
1
100
AcDbDimension
  2
*D412
 10
221.9
 20
106.91188573541
 30
0.0
 11
239.3999999999999
 21
111.03688573541
 31
0.0
  1
<>
 71
     5
 42
0.0
 53
0.00013888888889
  3
ME10_DIM_4
100
AcDbAlignedDimension
 13
256.8999999999999
 23
124.3870943494781
 33
0.0
 14
221.8999999999999
 24
120.8870943494781
 34
0.0
100
AcDbRotatedDimension
  0
ENDSEC
  0
SECTION
  2
OBJECTS
  0
DICTIONARY
  5
C
330
0
100
AcDbDictionary
281
     1
  3
ACAD_GROUP
350
D
  3
ACAD_LAYOUT
350
1A
  3
ACAD_MLINESTYLE
350
17
  3
ACAD_PLOTSETTINGS
350
19
  3
ACAD_PLOTSTYLENAME
350
E
  3
ACAD_TABLESTYLE
350
2A
  3
AcDbVariableDictionary
350
2C
  0
DICTIONARY
  5
D
102
{ACAD_REACTORS
330
C
102
}
330
C
100
AcDbDictionary
281
     1
  0
DICTIONARY
  5
1A
102
{ACAD_REACTORS
330
C
102
}
330
C
100
AcDbDictionary
281
     1
  3
Layout1
350
1E
  3
Layout2
350
26
  3
Model
350
22
  0
DICTIONARY
  5
17
102
{ACAD_REACTORS
330
C
102
}
330
C
100
AcDbDictionary
281
     1
  3
Standard
350
18
  0
DICTIONARY
  5
19
102
{ACAD_REACTORS
330
C
102
}
330
C
100
AcDbDictionary
281
     1
  0
ACDBDICTIONARYWDFLT
  5
E
102
{ACAD_REACTORS
330
C
102
}
330
C
100
AcDbDictionary
281
     1
  3
Normal
350
F
100
AcDbDictionaryWithDefault
340
F
  0
DICTIONARY
  5
2A
102
{ACAD_REACTORS
330
C
102
}
330
C
100
AcDbDictionary
281
     1
  3
Standard
350
2B
  0
DICTIONARY
  5
2C
102
{ACAD_REACTORS
330
C
102
}
330
C
100
AcDbDictionary
281
     1
  3
CTABLESTYLE
350
2D
  0
LAYOUT
  5
1E
102
{ACAD_REACTORS
330
1A
102
}
330
1A
100
AcDbPlotSettings
  1

  2

  4

  6

 40
0.0
 41
0.0
 42
0.0
 43
0.0
 44
0.0
 45
0.0
 46
0.0
 47
0.0
 48
0.0
 49
0.0
140
0.0
141
0.0
142
1.0
143
1.0
 70
   688
 72
     0
 73
     0
 74
     5
  7

 75
    16
147
1.0
148
0.0
149
0.0
100
AcDbLayout
  1
Layout1
 70
     1
 71
     1
 10
0.0
 20
0.0
 11
12.0
 21
9.0
 12
0.0
 22
0.0
 32
0.0
 14
1.00000000000000E+20
 24
1.00000000000000E+20
 34
1.00000000000000E+20
 15
-1.00000000000000E+20
 25
-1.00000000000000E+20
 35
-1.00000000000000E+20
146
0.0
 13
0.0
 23
0.0
 33
0.0
 16
1.0
 26
0.0
 36
0.0
 17
0.0
 27
1.0
 37
0.0
 76
     0
330
1B
  0
LAYOUT
  5
26
102
{ACAD_REACTORS
330
1A
102
}
330
1A
100
AcDbPlotSettings
  1

  2

  4

  6

 40
0.0
 41
0.0
 42
0.0
 43
0.0
 44
0.0
 45
0.0
 46
0.0
 47
0.0
 48
0.0
 49
0.0
140
0.0
141
0.0
142
1.0
143
1.0
 70
   688
 72
     0
 73
     0
 74
     5
  7

 75
    16
147
1.0
148
0.0
149
0.0
100
AcDbLayout
  1
Layout2
 70
     1
 71
     2
 10
0.0
 20
0.0
 11
0.0
 21
0.0
 12
0.0
 22
0.0
 32
0.0
 14
0.0
 24
0.0
 34
0.0
 15
0.0
 25
0.0
 35
0.0
146
0.0
 13
0.0
 23
0.0
 33
0.0
 16
1.0
 26
0.0
 36
0.0
 17
0.0
 27
1.0
 37
0.0
 76
     0
330
23
  0
LAYOUT
  5
22
102
{ACAD_REACTORS
330
1A
102
}
330
1A
100
AcDbPlotSettings
  1

  2

  4

  6

 40
0.0
 41
0.0
 42
0.0
 43
0.0
 44
0.0
 45
0.0
 46
0.0
 47
0.0
 48
0.0
 49
0.0
140
0.0
141
0.0
142
1.0
143
1.0
 70
  1712
 72
     0
 73
     0
 74
     0
  7

 75
     0
147
1.0
148
0.0
149
0.0
100
AcDbLayout
  1
Model
 70
     1
 71
     0
 10
0.0
 20
0.0
 11
0.0
 21
0.0
 12
0.0
 22
0.0
 32
0.0
 14
0.0
 24
0.0
 34
0.0
 15
315.0
 25
445.5
 35
0.0
146
0.0
 13
0.0
 23
0.0
 33
0.0
 16
1.0
 26
0.0
 36
0.0
 17
0.0
 27
1.0
 37
0.0
 76
     0
330
1F
  0
MLINESTYLE
  5
18
102
{ACAD_REACTORS
330
17
102
}
330
17
100
AcDbMlineStyle
  2
Standard
 70
     0
  3

 62
   256
 51
90.0
 52
90.0
 71
     2
 49
0.5
 62
   256
  6
BYLAYER
 49
-0.5
 62
   256
  6
BYLAYER
  0
ACDBPLACEHOLDER
  5
F
102
{ACAD_REACTORS
330
E
102
}
330
E
  0
TABLESTYLE
  5
2B
102
{ACAD_REACTORS
330
2A
102
}
330
2A
100
AcDbTableStyle
  3
Standard
 70
     0
 71
     0
 40
0.06
 41
0.06
280
     0
281
     0
  7
Standard
140
0.18
170
     2
 62
     0
 63
     7
283
     0
274
    -2
284
     1
 64
     0
275
    -2
285
     1
 65
     0
276
    -2
286
     1
 66
     0
277
    -2
287
     1
 67
     0
278
    -2
288
     1
 68
     0
279
    -2
289
     1
 69
     0
  7
Standard
140
0.25
170
     5
 62
     0
 63
     7
283
     0
274
    -2
284
     1
 64
     0
275
    -2
285
     1
 65
     0
276
    -2
286
     1
 66
     0
277
    -2
287
     1
 67
     0
278
    -2
288
     1
 68
     0
279
    -2
289
     1
 69
     0
  7
Standard
140
0.18
170
     5
 62
     0
 63
     7
283
     0
274
    -2
284
     1
 64
     0
275
    -2
285
     1
 65
     0
276
    -2
286
     1
 66
     0
277
    -2
287
     1
 67
     0
278
    -2
288
     1
 68
     0
279
    -2
289
     1
 69
     0
  0
DICTIONARYVAR
  5
2D
102
{ACAD_REACTORS
330
2C
102
}
330
2C
100
DictionaryVariables
280
     0
  1
Standard
  0
ENDSEC
  0
EOF
