  0
SECTION
  2
HEADER
  9
$ACADVER
  1
AC1015
  9
$ACADMAINTVER
 70
     6
  9
$DWGCODEPAGE
  3
ANSI_932
  9
$INSBASE
 10
0.0
 20
0.0
 30
0.0
  9
$EXTMIN
 10
0.0
 20
0.0
 30
0.0
  9
$EXTMAX
 10
315.0
 20
445.5
 30
0.0
  9
$LIMMIN
 10
0.0
 20
0.0
  9
$LIMMAX
 10
12.0
 20
9.0
  9
$ORTHOMODE
 70
     0
  9
$REGENMODE
 70
     1
  9
$FILLMODE
 70
     1
  9
$QTEXTMODE
 70
     0
  9
$MIRRTEXT
 70
     1
  9
$LTSCALE
 40
1.0
  9
$ATTMODE
 70
     1
  9
$TEXTSIZE
 40
0.2
  9
$TRACEWID
 40
0.05
  9
$TEXTSTYLE
  7
Standard
  9
$CLAYER
  8
0
  9
$CELTYPE
  6
ByLayer
  9
$CECOLOR
 62
   256
  9
$CELTSCALE
 40
1.0
  9
$DISPSILH
 70
     0
  9
$DIMSCALE
 40
1.0
  9
$DIMASZ
 40
0.18
  9
$DIMEXO
 40
0.0625
  9
$DIMDLI
 40
0.38
  9
$DIMRND
 40
0.0
  9
$DIMDLE
 40
0.0
  9
$DIMEXE
 40
0.18
  9
$DIMTP
 40
0.0
  9
$DIMTM
 40
0.0
  9
$DIMTXT
 40
0.18
  9
$DIMCEN
 40
0.09
  9
$DIMTSZ
 40
0.0
  9
$DIMTOL
 70
     0
  9
$DIMLIM
 70
     0
  9
$DIMTIH
 70
     1
  9
$DIMTOH
 70
     1
  9
$DIMSE1
 70
     0
  9
$DIMSE2
 70
     0
  9
$DIMTAD
 70
     0
  9
$DIMZIN
 70
     0
  9
$DIMBLK
  1

  9
$DIMASO
 70
     1
  9
$DIMSHO
 70
     1
  9
$DIMPOST
  1

  9
$DIMAPOST
  1

  9
$DIMALT
 70
     0
  9
$DIMALTD
 70
     2
  9
$DIMALTF
 40
25.4
  9
$DIMLFAC
 40
1.0
  9
$DIMTOFL
 70
     0
  9
$DIMTVP
 40
0.0
  9
$DIMTIX
 70
     0
  9
$DIMSOXD
 70
     0
  9
$DIMSAH
 70
     0
  9
$DIMBLK1
  1

  9
$DIMBLK2
  1

  9
$DIMSTYLE
  2
Standard
  9
$DIMCLRD
 70
     0
  9
$DIMCLRE
 70
     0
  9
$DIMCLRT
 70
     0
  9
$DIMTFAC
 40
1.0
  9
$DIMGAP
 40
0.09
  9
$DIMJUST
 70
     0
  9
$DIMSD1
 70
     0
  9
$DIMSD2
 70
     0
  9
$DIMTOLJ
 70
     1
  9
$DIMTZIN
 70
     0
  9
$DIMALTZ
 70
     0
  9
$DIMALTTZ
 70
     0
  9
$DIMUPT
 70
     0
  9
$DIMDEC
 70
     4
  9
$DIMTDEC
 70
     4
  9
$DIMALTU
 70
     2
  9
$DIMALTTD
 70
     2
  9
$DIMTXSTY
  7
Standard
  9
$DIMAUNIT
 70
     0
  9
$DIMADEC
 70
     0
  9
$DIMALTRND
 40
0.0
  9
$DIMAZIN
 70
     0
  9
$DIMDSEP
 70
    46
  9
$DIMATFIT
 70
     3
  9
$DIMFRAC
 70
     0
  9
$DIMLDRBLK
  1

  9
$DIMLUNIT
 70
     2
  9
$DIMLWD
 70
    -2
  9
$DIMLWE
 70
    -2
  9
$DIMTMOVE
 70
     0
  9
$LUNITS
 70
     2
  9
$LUPREC
 70
     4
  9
$SKETCHINC
 40
0.1
  9
$FILLETRAD
 40
0.5
  9
$AUNITS
 70
     0
  9
$AUPREC
 70
     0
  9
$MENU
  1
.
  9
$ELEVATION
 40
0.0
  9
$PELEVATION
 40
0.0
  9
$THICKNESS
 40
0.0
  9
$LIMCHECK
 70
     0
  9
$CHAMFERA
 40
0.5
  9
$CHAMFERB
 40
0.5
  9
$CHAMFERC
 40
1.0
  9
$CHAMFERD
 40
0.0
  9
$SKPOLY
 70
     0
  9
$TDCREATE
 40
2457206.72954566
  9
$TDUCREATE
 40
2457206.35454566
  9
$TDUPDATE
 40
2457206.729546921
  9
$TDUUPDATE
 40
2457206.354546921
  9
$TDINDWG
 40
0.0000000116
  9
$TDUSRTIMER
 40
0.0000000116
  9
$USRTIMER
 70
     1
  9
$ANGBASE
 50
0.0
  9
$ANGDIR
 70
     0
  9
$PDMODE
 70
     0
  9
$PDSIZE
 40
0.0
  9
$PLINEWID
 40
0.0
  9
$SPLFRAME
 70
     0
  9
$SPLINETYPE
 70
     6
  9
$SPLINESEGS
 70
     8
  9
$HANDSEED
  5
216
  9
$SURFTAB1
 70
     6
  9
$SURFTAB2
 70
     6
  9
$SURFTYPE
 70
     6
  9
$SURFU
 70
     6
  9
$SURFV
 70
     6
  9
$UCSBASE
  2

  9
$UCSNAME
  2

  9
$UCSORG
 10
0.0
 20
0.0
 30
0.0
  9
$UCSXDIR
 10
1.0
 20
0.0
 30
0.0
  9
$UCSYDIR
 10
0.0
 20
1.0
 30
0.0
  9
$UCSORTHOREF
  2

  9
$UCSORTHOVIEW
 70
     0
  9
$UCSORGTOP
 10
0.0
 20
0.0
 30
0.0
  9
$UCSORGBOTTOM
 10
0.0
 20
0.0
 30
0.0
  9
$UCSORGLEFT
 10
0.0
 20
0.0
 30
0.0
  9
$UCSORGRIGHT
 10
0.0
 20
0.0
 30
0.0
  9
$UCSORGFRONT
 10
0.0
 20
0.0
 30
0.0
  9
$UCSORGBACK
 10
0.0
 20
0.0
 30
0.0
  9
$PUCSBASE
  2

  9
$PUCSNAME
  2

  9
$PUCSORG
 10
0.0
 20
0.0
 30
0.0
  9
$PUCSXDIR
 10
1.0
 20
0.0
 30
0.0
  9
$PUCSYDIR
 10
0.0
 20
1.0
 30
0.0
  9
$PUCSORTHOREF
  2

  9
$PUCSORTHOVIEW
 70
     0
  9
$PUCSORGTOP
 10
0.0
 20
0.0
 30
0.0
  9
$PUCSORGBOTTOM
 10
0.0
 20
0.0
 30
0.0
  9
$PUCSORGLEFT
 10
0.0
 20
0.0
 30
0.0
  9
$PUCSORGRIGHT
 10
0.0
 20
0.0
 30
0.0
  9
$PUCSORGFRONT
 10
0.0
 20
0.0
 30
0.0
  9
$PUCSORGBACK
 10
0.0
 20
0.0
 30
0.0
  9
$USERI1
 70
     0
  9
$USERI2
 70
     0
  9
$USERI3
 70
     0
  9
$USERI4
 70
     0
  9
$USERI5
 70
     0
  9
$USERR1
 40
18.1
  9
$USERR2
 40
0.0
  9
$USERR3
 40
0.0
  9
$USERR4
 40
0.0
  9
$USERR5
 40
0.0
  9
$WORLDVIEW
 70
     1
  9
$SHADEDGE
 70
     3
  9
$SHADEDIF
 70
    70
  9
$TILEMODE
 70
     1
  9
$MAXACTVP
 70
    64
  9
$PINSBASE
 10
0.0
 20
0.0
 30
0.0
  9
$PLIMCHECK
 70
     0
  9
$PEXTMIN
 10
1.00000000000000E+20
 20
1.00000000000000E+20
 30
1.00000000000000E+20
  9
$PEXTMAX
 10
-1.00000000000000E+20
 20
-1.00000000000000E+20
 30
-1.00000000000000E+20
  9
$PLIMMIN
 10
0.0
 20
0.0
  9
$PLIMMAX
 10
12.0
 20
9.0
  9
$UNITMODE
 70
     0
  9
$VISRETAIN
 70
     1
  9
$PLINEGEN
 70
     0
  9
$PSLTSCALE
 70
     1
  9
$TREEDEPTH
 70
  3020
  9
$CMLSTYLE
  2
Standard
  9
$CMLJUST
 70
     0
  9
$CMLSCALE
 40
1.0
  9
$PROXYGRAPHICS
 70
     1
  9
$MEASUREMENT
 70
     1
  9
$CELWEIGHT
370
    -1
  9
$ENDCAPS
280
     0
  9
$JOINSTYLE
280
     0
  9
$LWDISPLAY
290
     0
  9
$INSUNITS
 70
     4
  9
$HYPERLINKBASE
  1

  9
$STYLESHEET
  1

  9
$XEDIT
290
     1
  9
$CEPSNTYPE
380
     0
  9
$PSTYLEMODE
290
     1
  9
$FINGERPRINTGUID
  2
{2AEFA8D0-3EA1-4DF1-87A2-6431712E5815}
  9
$VERSIONGUID
  2
{FAEB1C32-E019-11D5-929B-00C0DF256EC4}
  9
$EXTNAMES
290
     1
  9
$PSVPSCALE
 40
0.0
  9
$OLESTARTUP
290
     0
  0
ENDSEC
  0
SECTION
  2
CLASSES
  0
CLASS
  1
ACDBDICTIONARYWDFLT
  2
AcDbDictionaryWithDefault
  3
ObjectDBX Classes
 90
        0
280
     0
281
     0
  0
CLASS
  1
VISUALSTYLE
  2
AcDbVisualStyle
  3
ObjectDBX Classes
 90
     4095
280
     0
281
     0
  0
CLASS
  1
MATERIAL
  2
AcDbMaterial
  3
ObjectDBX Classes
 90
     1153
280
     0
281
     0
  0
CLASS
  1
DICTIONARYVAR
  2
AcDbDictionaryVar
  3
ObjectDBX Classes
 90
        0
280
     0
281
     0
  0
CLASS
  1
ACDBPLACEHOLDER
  2
AcDbPlaceHolder
  3
ObjectDBX Classes
 90
        0
280
     0
281
     0
  0
CLASS
  1
LAYOUT
  2
AcDbLayout
  3
ObjectDBX Classes
 90
        0
280
     0
281
     0
  0
ENDSEC
  0
SECTION
  2
TABLES
  0
TABLE
  2
VPORT
  5
8
330
0
100
AcDbSymbolTable
 70
     1
  0
VPORT
  5
29
330
8
100
AcDbSymbolTableRecord
100
AcDbViewportTableRecord
  2
*Active
 70
     0
 10
0.0
 20
0.0
 11
1.0
 21
1.0
 12
157.5
 22
222.75
 13
0.0
 23
0.0
 14
0.5
 24
0.5
 15
0.5
 25
0.5
 16
0.0
 26
0.0
 36
1.0
 17
0.0
 27
0.0
 37
0.0
 40
490.05
 41
1.60267857142857
 42
50.0
 43
0.0
 44
0.0
 50
0.0
 51
0.0
 71
     0
 72
   100
 73
     1
 74
     3
 75
     0
 76
     0
 77
     0
 78
     0
281
     0
 65
     1
110
0.0
120
0.0
130
0.0
111
1.0
121
0.0
131
0.0
112
0.0
122
1.0
132
0.0
 79
     0
146
0.0
  0
ENDTAB
  0
TABLE
  2
LTYPE
  5
5
330
0
100
AcDbSymbolTable
 70
     8
  0
LTYPE
  5
14
330
5
100
AcDbSymbolTableRecord
100
AcDbLinetypeTableRecord
  2
ByBlock
 70
     0
  3

 72
    65
 73
     0
 40
0.0
  0
LTYPE
  5
15
330
5
100
AcDbSymbolTableRecord
100
AcDbLinetypeTableRecord
  2
ByLayer
 70
     0
  3

 72
    65
 73
     0
 40
0.0
  0
LTYPE
  5
16
330
5
100
AcDbSymbolTableRecord
100
AcDbLinetypeTableRecord
  2
Continuous
 70
     0
  3
Solid line
 72
    65
 73
     0
 40
0.0
  0
LTYPE
  5
3F
330
5
100
AcDbSymbolTableRecord
100
AcDbLinetypeTableRecord
  2
DASHED
 70
     0
  3
Dashed
 72
    65
 73
     2
 40
15.0
 49
7.0
 74
     0
 49
-8.0
 74
     0
  0
LTYPE
  5
40
330
5
100
AcDbSymbolTableRecord
100
AcDbLinetypeTableRecord
  2
DOTTED
 70
     0
  3
Dotted
 72
    65
 73
     2
 40
1.0
 49
0.0
 74
     0
 49
-1.0
 74
     0
  0
LTYPE
  5
41
330
5
100
AcDbSymbolTableRecord
100
AcDbLinetypeTableRecord
  2
DOT_CENTER
 70
     0
  3
Dot_Center
 72
    65
 73
     4
 40
14.0
 49
12.0
 74
     0
 49
-1.0
 74
     0
 49
0.0
 74
     0
 49
-1.0
 74
     0
  0
LTYPE
  5
42
330
5
100
AcDbSymbolTableRecord
100
AcDbLinetypeTableRecord
  2
LONG_DASHED
 70
     0
  3
Long_Dashed
 72
    65
 73
     2
 40
15.0
 49
10.0
 74
     0
 49
-5.0
 74
     0
  0
LTYPE
  5
43
330
5
100
AcDbSymbolTableRecord
100
AcDbLinetypeTableRecord
  2
DASH_CENTER
 70
     0
  3
Dash_Center
 72
    65
 73
     4
 40
14.0
 49
11.0
 74
     0
 49
-1.0
 74
     0
 49
1.0
 74
     0
 49
-1.0
 74
     0
  0
LTYPE
  5
44
330
5
100
AcDbSymbolTableRecord
100
AcDbLinetypeTableRecord
  2
PHANTOM
 70
     0
  3
Phantom
 72
    65
 73
     6
 40
13.0
 49
10.0
 74
     0
 49
-1.0
 74
     0
 49
0.0
 74
     0
 49
-1.0
 74
     0
 49
0.0
 74
     0
 49
-1.0
 74
     0
  0
LTYPE
  5
45
330
5
100
AcDbSymbolTableRecord
100
AcDbLinetypeTableRecord
  2
CENTER_DASH_DASH
 70
     0
  3
Center_Dash_Dash
 72
    65
 73
     6
 40
14.0
 49
9.0
 74
     0
 49
-1.0
 74
     0
 49
1.0
 74
     0
 49
-1.0
 74
     0
 49
1.0
 74
     0
 49
-1.0
 74
     0
  0
ENDTAB
  0
TABLE
  2
LAYER
  5
2
330
0
100
AcDbSymbolTable
 70
     2
  0
LAYER
  5
10
330
2
100
AcDbSymbolTableRecord
100
AcDbLayerTableRecord
  2
0
 70
     0
 62
     7
  6
Continuous
370
    -3
390
F
  0
LAYER
  5
46
330
2
100
AcDbSymbolTableRecord
100
AcDbLayerTableRecord
  2
1
 70
     0
 62
     7
  6
Continuous
370
    -3
390
F
  0
ENDTAB
  0
TABLE
  2
STYLE
  5
3
330
0
100
AcDbSymbolTable
 70
     3
  0
STYLE
  5
11
330
3
100
AcDbSymbolTableRecord
100
AcDbTextStyleTableRecord
  2
Standard
 70
     0
 40
0.0
 41
1.0
 50
0.0
 71
     0
 42
0.2
  3
txt
  4

  0
STYLE
  5
B2
330
3
100
AcDbSymbolTableRecord
100
AcDbTextStyleTableRecord
  2
CONVERTER_11
 70
     0
 40
0.0
 41
0.89
 50
0.0
 71
     0
 42
0.2
  3
MS Mincho.ttf
  4

1001
ACAD
1000
MS Mincho
1071
    32785
  0
STYLE
  5
1C2
330
3
100
AcDbSymbolTableRecord
100
AcDbTextStyleTableRecord
  2
CONVERTER_12
 70
     0
 40
0.0
 41
0.9
 50
0.0
 71
     0
 42
0.2
  3
txt.shx
  4

  0
ENDTAB
  0
TABLE
  2
VIEW
  5
6
330
0
100
AcDbSymbolTable
 70
     0
  0
ENDTAB
  0
TABLE
  2
UCS
  5
7
330
0
100
AcDbSymbolTable
 70
     0
  0
ENDTAB
  0
TABLE
  2
APPID
  5
9
330
0
100
AcDbSymbolTable
 70
     1
  0
APPID
  5
12
330
9
100
AcDbSymbolTableRecord
100
AcDbRegAppTableRecord
  2
ACAD
 70
     0
  0
ENDTAB
  0
TABLE
  2
DIMSTYLE
  5
A
330
0
100
AcDbSymbolTable
 70
     4
100
AcDbDimStyleTable
  0
DIMSTYLE
105
27
330
A
100
AcDbSymbolTableRecord
100
AcDbDimStyleTableRecord
  2
Standard
 70
     0
178
     0
340
11
  0
DIMSTYLE
105
1D3
102
{ACAD_REACTORS
330
1D4
102
}
330
A
100
AcDbSymbolTableRecord
100
AcDbDimStyleTableRecord
  2
ME10_DIM_10
 70
     0
 41
5.25
 42
0.0
 44
1.5
 73
     0
 74
     0
 77
     1
 78
     8
140
5.25
147
1.5
172
     1
173
     1
174
     1
175
     1
176
     2
177
     2
271
     2
178
     7
271
     2
340
1C2
  0
DIMSTYLE
105
1DE
102
{ACAD_REACTORS
330
1DF
102
}
330
A
100
AcDbSymbolTableRecord
100
AcDbDimStyleTableRecord
  2
ME10_DIM_11
 70
     0
 41
5.25
 42
0.0
 44
1.5
 73
     0
 74
     0
 77
     1
 78
     8
140
5.25
147
1.5
172
     1
173
     1
174
     1
175
     1
176
     2
177
     2
271
     2
178
     7
271
     2
340
B2
  0
DIMSTYLE
105
1E9
102
{ACAD_REACTORS
330
1EA
102
}
330
A
100
AcDbSymbolTableRecord
100
AcDbDimStyleTableRecord
  2
ME10_DIM_12
 70
     0
 41
5.25
 42
0.0
 44
1.5
 73
     0
 74
     0
 77
     1
 78
     8
140
5.25
147
1.5
172
     1
173
     1
174
     1
175
     1
176
     2
177
     2
271
     2
178
     7
271
     2
340
1C2
  0
ENDTAB
  0
TABLE
  2
BLOCK_RECORD
  5
1
330
0
100
AcDbSymbolTable
 70
    12
  0
BLOCK_RECORD
  5
1F
330
1
100
AcDbSymbolTableRecord
100
AcDbBlockTableRecord
  2
*Model_Space
340
22
  0
BLOCK_RECORD
  5
1B
330
1
100
AcDbSymbolTableRecord
100
AcDbBlockTableRecord
  2
*Paper_Space
340
1E
  0
BLOCK_RECORD
  5
23
330
1
100
AcDbSymbolTableRecord
100
AcDbBlockTableRecord
  2
*Paper_Space0
340
26
  0
BLOCK_RECORD
  5
47
330
1
100
AcDbSymbolTableRecord
100
AcDbBlockTableRecord
  2
開示A4
340
0
102
{BLKREFS
331
64
102
}
  0
BLOCK_RECORD
  5
4A
330
1
100
AcDbSymbolTableRecord
100
AcDbBlockTableRecord
  2
V23-0-13
340
0
102
{BLKREFS
331
65
102
}
  0
BLOCK_RECORD
  5
4D
330
1
100
AcDbSymbolTableRecord
100
AcDbBlockTableRecord
  2
36-54-M11K
340
0
102
{BLKREFS
331
5D
102
}
  0
BLOCK_RECORD
  5
50
330
1
100
AcDbSymbolTableRecord
100
AcDbBlockTableRecord
  2
91-1K
340
0
102
{BLKREFS
331
5E
102
}
  0
BLOCK_RECORD
  5
53
330
1
100
AcDbSymbolTableRecord
100
AcDbBlockTableRecord
  2
21-1C-M1K
340
0
102
{BLKREFS
331
5F
102
}
  0
BLOCK_RECORD
  5
56
330
1
100
AcDbSymbolTableRecord
100
AcDbBlockTableRecord
  2
42-1
340
0
102
{BLKREFS
331
60
102
}
  0
BLOCK_RECORD
  5
59
330
1
100
AcDbSymbolTableRecord
100
AcDbBlockTableRecord
  2
37-1-13
340
0
102
{BLKREFS
331
61
102
}
  0
BLOCK_RECORD
  5
5C
330
1
100
AcDbSymbolTableRecord
100
AcDbBlockTableRecord
  2
R10AK-13-B
340
0
102
{BLKREFS
331
66
102
}
  0
BLOCK_RECORD
  5
1CA
330
1
100
AcDbSymbolTableRecord
100
AcDbBlockTableRecord
  2
*D9
340
0
  0
BLOCK_RECORD
  5
1D5
330
1
100
AcDbSymbolTableRecord
100
AcDbBlockTableRecord
  2
*D10
340
0
  0
BLOCK_RECORD
  5
1E0
330
1
100
AcDbSymbolTableRecord
100
AcDbBlockTableRecord
  2
*D11
340
0
  0
ENDTAB
  0
ENDSEC
  0
SECTION
  2
BLOCKS
  0
BLOCK
  5
20
330
1F
100
AcDbEntity
  8
0
100
AcDbBlockBegin
  2
*Model_Space
 70
     0
 10
0.0
 20
0.0
 30
0.0
  3
*Model_Space
  1

  0
ENDBLK
  5
21
330
1F
100
AcDbEntity
  8
0
100
AcDbBlockEnd
  0
BLOCK
  5
1C
330
1B
100
AcDbEntity
 67
     1
  8
0
100
AcDbBlockBegin
  2
*Paper_Space
 70
     0
 10
0.0
 20
0.0
 30
0.0
  3
*Paper_Space
  1

  0
ENDBLK
  5
1D
330
1B
100
AcDbEntity
 67
     1
  8
0
100
AcDbBlockEnd
  0
BLOCK
  5
24
330
23
100
AcDbEntity
  8
0
100
AcDbBlockBegin
  2
*Paper_Space0
 70
     0
 10
0.0
 20
0.0
 30
0.0
  3
*Paper_Space0
  1

  0
ENDBLK
  5
25
330
23
100
AcDbEntity
  8
0
100
AcDbBlockEnd
  0
BLOCK
  5
48
330
47
100
AcDbEntity
  8
0
100
AcDbBlockBegin
  2
開示A4
 70
     0
 10
0.0
 20
0.0
 30
0.0
  3
開示A4
  1

  0
POINT
  5
67
330
47
100
AcDbEntity
  8
1
 62
     4
100
AcDbPoint
 10
34.0
 20
34.00000000000001
 30
0.0
  0
POINT
  5
68
330
47
100
AcDbEntity
  8
1
 62
     4
100
AcDbPoint
 10
57.0
 20
12.25
 30
0.0
  0
POINT
  5
69
330
47
100
AcDbEntity
  8
1
 62
     4
100
AcDbPoint
 10
57.0
 20
20.75000000000001
 30
0.0
  0
POINT
  5
6A
330
47
100
AcDbEntity
  8
1
 62
     4
100
AcDbPoint
 10
57.0
 20
24.75000000000001
 30
0.0
  0
POINT
  5
6B
330
47
100
AcDbEntity
  8
1
 62
     4
100
AcDbPoint
 10
57.0
 20
16.25
 30
0.0
  0
POINT
  5
6C
330
47
100
AcDbEntity
  8
1
 62
     4
100
AcDbPoint
 10
157.5
 20
19.00000000000001
 30
0.0
  0
POINT
  5
6D
330
47
100
AcDbEntity
  8
1
 62
     4
100
AcDbPoint
 10
47.5
 20
282.0000000000003
 30
0.0
  0
POINT
  5
6E
330
47
100
AcDbEntity
  8
1
 62
     4
100
AcDbPoint
 10
57.0
 20
22.75000000000001
 30
0.0
  0
POINT
  5
6F
330
47
100
AcDbEntity
  8
1
 62
     4
100
AcDbPoint
 10
57.0
 20
14.25
 30
0.0
  0
POINT
  5
70
330
47
100
AcDbEntity
  8
1
 62
     4
100
AcDbPoint
 10
157.5
 20
12.5
 30
0.0
  0
POINT
  5
71
330
47
100
AcDbEntity
  8
1
 62
     4
100
AcDbPoint
 10
163.25
 20
12.5
 30
0.0
  0
POINT
  5
72
330
47
100
AcDbEntity
  8
1
 62
     4
100
AcDbPoint
 10
151.75
 20
12.5
 30
0.0
  0
POINT
  5
73
330
47
100
AcDbEntity
  8
1
 62
     4
100
AcDbPoint
 10
134.75
 20
12.5
 30
0.0
  0
POINT
  5
74
330
47
100
AcDbEntity
  8
1
 62
     4
100
AcDbPoint
 10
146.25
 20
12.5
 30
0.0
  0
POINT
  5
75
330
47
100
AcDbEntity
  8
1
 62
     4
100
AcDbPoint
 10
140.5
 20
12.5
 30
0.0
  0
POINT
  5
76
330
47
100
AcDbEntity
  8
1
 62
     4
100
AcDbPoint
 10
140.5
 20
19.00000000000001
 30
0.0
  0
POINT
  5
77
330
47
100
AcDbEntity
  8
1
 62
     4
100
AcDbPoint
 10
117.75
 20
12.5
 30
0.0
  0
POINT
  5
78
330
47
100
AcDbEntity
  8
1
 62
     4
100
AcDbPoint
 10
129.25
 20
12.5
 30
0.0
  0
POINT
  5
79
330
47
100
AcDbEntity
  8
1
 62
     4
100
AcDbPoint
 10
123.5
 20
12.5
 30
0.0
  0
POINT
  5
7A
330
47
100
AcDbEntity
  8
1
 62
     4
100
AcDbPoint
 10
123.5
 20
19.00000000000001
 30
0.0
  0
POINT
  5
7B
330
47
100
AcDbEntity
  8
1
 62
     4
100
AcDbPoint
 10
100.75
 20
12.5
 30
0.0
  0
POINT
  5
7C
330
47
100
AcDbEntity
  8
1
 62
     4
100
AcDbPoint
 10
112.25
 20
12.5
 30
0.0
  0
POINT
  5
7D
330
47
100
AcDbEntity
  8
1
 62
     4
100
AcDbPoint
 10
106.5
 20
12.5
 30
0.0
  0
POINT
  5
7E
330
47
100
AcDbEntity
  8
1
 62
     4
100
AcDbPoint
 10
106.5
 20
19.00000000000001
 30
0.0
  0
POINT
  5
7F
330
47
100
AcDbEntity
  8
1
 62
     4
100
AcDbPoint
 10
85.25
 20
17.0
 30
0.0
  0
POINT
  5
80
330
47
100
AcDbEntity
  8
1
 62
     4
100
AcDbPoint
 10
93.75
 20
17.0
 30
0.0
  0
LINE
  5
81
330
47
100
AcDbEntity
  8
1
  6
Continuous
 62
     2
100
AcDbLine
 10
81.0
 20
27.00000000000001
 30
0.0
 11
81.0
 21
10.0
 31
0.0
  0
LINE
  5
82
330
47
100
AcDbEntity
  8
1
  6
DOT_CENTER
 62
     2
100
AcDbLine
 10
187.0
 20
26.50000000000001
 30
0.0
 11
187.0
 21
20.50000000000001
 31
0.0
  0
LINE
  5
83
330
47
100
AcDbEntity
  8
1
  6
DOT_CENTER
 62
     2
100
AcDbLine
 10
184.0
 20
23.50000000000001
 30
0.0
 11
197.0
 21
23.50000000000001
 31
0.0
  0
LINE
  5
84
330
47
100
AcDbEntity
  8
1
  6
Continuous
 62
     7
100
AcDbLine
 10
196.0
 20
21.50000000000001
 30
0.0
 11
191.0
 21
22.30000000000001
 31
0.0
  0
LINE
  5
85
330
47
100
AcDbEntity
  8
1
  6
Continuous
 62
     7
100
AcDbLine
 10
196.0
 20
25.50000000000001
 30
0.0
 11
196.0
 21
21.50000000000001
 31
0.0
  0
LINE
  5
86
330
47
100
AcDbEntity
  8
1
  6
Continuous
 62
     7
100
AcDbLine
 10
191.0
 20
24.70000000000001
 30
0.0
 11
196.0
 21
25.50000000000001
 31
0.0
  0
LINE
  5
87
330
47
100
AcDbEntity
  8
1
  6
Continuous
 62
     7
100
AcDbLine
 10
191.0
 20
24.70000000000001
 30
0.0
 11
191.0
 21
22.30000000000001
 31
0.0
  0
LINE
  5
88
330
47
100
AcDbEntity
  8
1
  6
Continuous
 62
     2
100
AcDbLine
 10
33.0
 20
27.0
 30
0.0
 11
33.0
 21
10.0
 31
0.0
  0
LINE
  5
89
330
47
100
AcDbEntity
  8
1
  6
Continuous
 62
     2
100
AcDbLine
 10
25.0
 20
18.50000000000001
 30
0.0
 11
81.0
 21
18.50000000000001
 31
0.0
  0
LINE
  5
8A
330
47
100
AcDbEntity
  8
1
  6
Continuous
 62
     7
100
AcDbLine
 10
200.0
 20
287.0000000000003
 30
0.0
 11
105.0
 21
287.0000000000003
 31
0.0
  0
LINE
  5
8B
330
47
100
AcDbEntity
  8
1
  6
Continuous
 62
     7
100
AcDbLine
 10
200.0
 20
10.0
 30
0.0
 11
200.0
 21
148.5
 31
0.0
  0
LINE
  5
8C
330
47
100
AcDbEntity
  8
1
  6
Continuous
 62
     7
100
AcDbLine
 10
25.0
 20
10.0
 30
0.0
 11
105.0
 21
10.0
 31
0.0
  0
LINE
  5
8D
330
47
100
AcDbEntity
  8
1
  6
PHANTOM
 62
     4
100
AcDbLine
 10
0.0
 20
297.0
 30
0.0
 11
0.0
 21
0.0
 31
0.0
  0
LINE
  5
8E
330
47
100
AcDbEntity
  8
1
  6
PHANTOM
 62
     4
100
AcDbLine
 10
210.0
 20
297.0
 30
0.0
 11
0.0
 21
297.0
 31
0.0
  0
LINE
  5
8F
330
47
100
AcDbEntity
  8
1
  6
PHANTOM
 62
     4
100
AcDbLine
 10
210.0
 20
0.0
 30
0.0
 11
210.0
 21
297.0
 31
0.0
  0
LINE
  5
90
330
47
100
AcDbEntity
  8
1
  6
PHANTOM
 62
     4
100
AcDbLine
 10
0.0
 20
0.0
 30
0.0
 11
210.0
 21
0.0
 31
0.0
  0
LINE
  5
91
330
47
100
AcDbEntity
  8
1
  6
Continuous
 62
     7
100
AcDbLine
 10
25.0
 20
41.0
 30
0.0
 11
200.0
 21
41.0
 31
0.0
  0
LINE
  5
92
330
47
100
AcDbEntity
  8
1
  6
Continuous
 62
     7
100
AcDbLine
 10
200.0
 20
27.00000000000001
 30
0.0
 11
25.0
 21
27.00000000000001
 31
0.0
  0
LINE
  5
93
330
47
100
AcDbEntity
  8
1
  6
Continuous
 62
     2
100
AcDbLine
 10
33.0
 20
41.00000000000001
 30
0.0
 11
33.0
 21
27.0
 31
0.0
  0
LINE
  5
94
330
47
100
AcDbEntity
  8
1
  6
Continuous
 62
     2
100
AcDbLine
 10
55.0
 20
287.0000000000003
 30
0.0
 11
55.0
 21
277.0000000000003
 31
0.0
  0
LINE
  5
95
330
47
100
AcDbEntity
  8
1
  6
Continuous
 62
     2
100
AcDbLine
 10
40.0
 20
287.0000000000003
 30
0.0
 11
40.0
 21
277.0000000000003
 31
0.0
  0
LINE
  5
96
330
47
100
AcDbEntity
  8
1
  6
Continuous
 62
     7
100
AcDbLine
 10
25.0
 20
10.0
 30
0.0
 11
25.0
 21
148.5
 31
0.0
  0
LINE
  5
97
330
47
100
AcDbEntity
  8
1
  6
Continuous
 62
     2
100
AcDbLine
 10
55.0
 20
277.0000000000003
 30
0.0
 11
25.0
 21
277.0000000000003
 31
0.0
  0
LINE
  5
98
330
47
100
AcDbEntity
  8
1
  6
Continuous
 62
     2
100
AcDbLine
 10
166.0
 20
27.00000000000001
 30
0.0
 11
166.0
 21
10.0
 31
0.0
  0
LINE
  5
99
330
47
100
AcDbEntity
  8
1
  6
Continuous
 62
     2
100
AcDbLine
 10
132.0
 20
27.00000000000001
 30
0.0
 11
132.0
 21
9.99999999999999
 31
0.0
  0
LINE
  5
9A
330
47
100
AcDbEntity
  8
1
  6
Continuous
 62
     2
100
AcDbLine
 10
149.0
 20
27.00000000000001
 30
0.0
 11
149.0
 21
10.0
 31
0.0
  0
LINE
  5
9B
330
47
100
AcDbEntity
  8
1
  6
Continuous
 62
     2
100
AcDbLine
 10
115.0
 20
27.00000000000001
 30
0.0
 11
115.0
 21
9.99999999999999
 31
0.0
  0
LINE
  5
9C
330
47
100
AcDbEntity
  8
1
  6
Continuous
 62
     2
100
AcDbLine
 10
98.0
 20
27.00000000000001
 30
0.0
 11
98.0
 21
9.99999999999999
 31
0.0
  0
LINE
  5
9D
330
47
100
AcDbEntity
  8
1
  6
Continuous
 62
     2
100
AcDbLine
 10
166.0
 20
20.00000000000001
 30
0.0
 11
200.0
 21
20.00000000000001
 31
0.0
  0
LINE
  5
9E
330
47
100
AcDbEntity
  8
1
  6
Continuous
 62
     2
100
AcDbLine
 10
105.0
 20
287.0000000000003
 30
0.0
 11
105.0
 21
292.0000000000003
 31
0.0
  0
LINE
  5
9F
330
47
100
AcDbEntity
  8
1
  6
Continuous
 62
     7
100
AcDbLine
 10
105.0
 20
287.0000000000003
 30
0.0
 11
25.0
 21
287.0000000000003
 31
0.0
  0
LINE
  5
A0
330
47
100
AcDbEntity
  8
1
  6
Continuous
 62
     2
100
AcDbLine
 10
25.0
 20
148.5
 30
0.0
 11
20.0
 21
148.5
 31
0.0
  0
LINE
  5
A1
330
47
100
AcDbEntity
  8
1
  6
Continuous
 62
     7
100
AcDbLine
 10
25.0
 20
148.5
 30
0.0
 11
25.0
 21
287.0000000000003
 31
0.0
  0
LINE
  5
A2
330
47
100
AcDbEntity
  8
1
  6
Continuous
 62
     2
100
AcDbLine
 10
200.0
 20
148.5
 30
0.0
 11
205.0
 21
148.5
 31
0.0
  0
LINE
  5
A3
330
47
100
AcDbEntity
  8
1
  6
Continuous
 62
     7
100
AcDbLine
 10
200.0
 20
148.5
 30
0.0
 11
200.0
 21
287.0000000000003
 31
0.0
  0
LINE
  5
A4
330
47
100
AcDbEntity
  8
1
  6
Continuous
 62
     2
100
AcDbLine
 10
105.0
 20
10.0
 30
0.0
 11
105.0
 21
5.0
 31
0.0
  0
LINE
  5
A5
330
47
100
AcDbEntity
  8
1
  6
Continuous
 62
     7
100
AcDbLine
 10
105.0
 20
10.0
 30
0.0
 11
200.0
 21
10.0
 31
0.0
  0
CIRCLE
  5
A6
330
47
100
AcDbEntity
  8
1
  6
DOT_CENTER
 62
     7
100
AcDbCircle
 10
89.5
 20
18.0
 30
0.0
 40
0.1000000000000227
  0
CIRCLE
  5
A7
330
47
100
AcDbEntity
  8
1
  6
DOT_CENTER
 62
     7
100
AcDbCircle
 10
89.5
 20
16.0
 30
0.0
 40
0.1000000000000227
  0
CIRCLE
  5
A8
330
47
100
AcDbEntity
  8
1
  6
Continuous
 62
     7
100
AcDbCircle
 10
187.0
 20
23.50000000000001
 30
0.0
 40
2.0
  0
CIRCLE
  5
A9
330
47
100
AcDbEntity
  8
1
  6
Continuous
 62
     7
100
AcDbCircle
 10
187.0
 20
23.50000000000001
 30
0.0
 40
1.200000000000102
  0
CIRCLE
  5
AA
330
47
100
AcDbEntity
  8
1
  6
Continuous
 62
     7
100
AcDbCircle
 10
154.5
 20
12.5
 30
0.0
 40
0.3000000000000114
  0
CIRCLE
  5
AB
330
47
100
AcDbEntity
  8
1
  6
Continuous
 62
     7
100
AcDbCircle
 10
160.5
 20
12.5
 30
0.0
 40
0.3000000000000114
  0
CIRCLE
  5
AC
330
47
100
AcDbEntity
  8
1
  6
Continuous
 62
     7
100
AcDbCircle
 10
143.5
 20
12.5
 30
0.0
 40
0.3000000000000114
  0
CIRCLE
  5
AD
330
47
100
AcDbEntity
  8
1
  6
Continuous
 62
     7
100
AcDbCircle
 10
137.5
 20
12.5
 30
0.0
 40
0.3000000000000114
  0
CIRCLE
  5
AE
330
47
100
AcDbEntity
  8
1
  6
Continuous
 62
     7
100
AcDbCircle
 10
126.5
 20
12.5
 30
0.0
 40
0.2999999999999972
  0
CIRCLE
  5
AF
330
47
100
AcDbEntity
  8
1
  6
Continuous
 62
     7
100
AcDbCircle
 10
120.5
 20
12.5
 30
0.0
 40
0.2999999999999972
  0
CIRCLE
  5
B0
330
47
100
AcDbEntity
  8
1
  6
Continuous
 62
     7
100
AcDbCircle
 10
109.5
 20
12.5
 30
0.0
 40
0.2999999999999972
  0
CIRCLE
  5
B1
330
47
100
AcDbEntity
  8
1
  6
Continuous
 62
     7
100
AcDbCircle
 10
103.5
 20
12.5
 30
0.0
 40
0.2999999999999972
  0
MTEXT
  5
B3
330
47
100
AcDbEntity
  8
1
 62
   250
100
AcDbMText
 10
25.0
 20
5.0
 30
0.0
 40
3.5
 41
0.0
 71
     4
 72
     1
  1
備考欄の文字列 原点位置=4
  7
CONVERTER_11
 73
     1
 44
0.54545454545455
  0
MTEXT
  5
B4
330
47
100
AcDbEntity
  8
1
 62
     2
100
AcDbMText
 10
89.5
 20
24.00000000000001
 30
0.0
 40
3.5
 41
0.0
 71
     5
 72
     1
  1
尺度
  7
CONVERTER_11
 73
     1
 44
0.54545454545455
  0
MTEXT
  5
B5
330
47
100
AcDbEntity
  8
1
 62
     2
100
AcDbMText
 10
135.5
 20
25.00000000000001
 30
0.0
 40
3.0
 41
0.0
 71
     5
 72
     1
  1
製図
  7
CONVERTER_11
 73
     1
 44
0.59090909090909
  0
MTEXT
  5
B6
330
47
100
AcDbEntity
  8
1
 62
     2
100
AcDbMText
 10
152.5
 20
25.00000000000001
 30
0.0
 40
3.0
 41
0.0
 71
     5
 72
     1
  1
設計
  7
CONVERTER_11
 73
     1
 44
0.59090909090909
  0
MTEXT
  5
B7
330
47
100
AcDbEntity
  8
1
 62
     2
100
AcDbMText
 10
118.5
 20
25.00000000000001
 30
0.0
 40
3.0
 41
0.0
 71
     5
 72
     1
  1
検図
  7
CONVERTER_11
 73
     1
 44
0.59090909090909
  0
MTEXT
  5
B8
330
47
100
AcDbEntity
  8
1
 62
     2
100
AcDbMText
 10
175.0
 20
23.50000000000001
 30
0.0
 40
3.5
 41
0.0
 71
     5
 72
     1
  1
第三角法
  7
CONVERTER_11
 73
     1
 44
0.54545454545455
  0
MTEXT
  5
B9
330
47
100
AcDbEntity
  8
1
 62
     2
100
AcDbMText
 10
101.5
 20
25.00000000000001
 30
0.0
 40
3.0
 41
0.0
 71
     5
 72
     1
  1
承認
  7
CONVERTER_11
 73
     1
 44
0.59090909090909
  0
MTEXT
  5
BA
330
47
100
AcDbEntity
  8
1
 62
     2
100
AcDbMText
 10
29.0
 20
14.25
 30
0.0
 40
3.5
 41
0.0
 71
     5
 72
     1
  1
品番
  7
CONVERTER_11
 73
     1
 44
0.72727272727273
  0
MTEXT
  5
BB
330
47
100
AcDbEntity
  8
1
 62
     2
100
AcDbMText
 10
29.0
 20
22.75
 30
0.0
 40
3.5
 41
0.0
 71
     5
 72
     1
  1
品名
  7
CONVERTER_11
 73
     1
 44
0.72727272727273
  0
MTEXT
  5
BC
330
47
100
AcDbEntity
  8
1
 62
     2
100
AcDbMText
 10
29.0
 20
34.00000000000001
 30
0.0
 40
3.5
 41
0.0
 71
     5
 72
     1
  1
備考
  7
CONVERTER_11
 73
     1
 44
0.45454545454545
  0
MTEXT
  5
BD
330
47
100
AcDbEntity
  8
1
 62
     2
100
AcDbMText
 10
32.5
 20
282.0000000000003
 30
0.0
 40
5.0
 41
0.0
 71
     5
 72
     1
  1
図番
  7
CONVERTER_11
 73
     1
 44
0.45454545454545
  0
MTEXT
  5
BE
330
47
100
AcDbEntity
  8
1
 62
     7
100
AcDbMText
 10
171.5
 20
15.0
 30
0.0
 40
2.5
 41
0.0
 71
     5
 72
     1
  1
株式会社
  7
CONVERTER_11
 73
     1
 44
1.0
  0
MTEXT
  5
BF
330
47
100
AcDbEntity
  8
1
 62
     7
100
AcDbMText
 10
188.5
 20
15.0
 30
0.0
 40
3.0
 41
0.0
 71
     5
 72
     1
  1
三栄水栓製作所
  7
CONVERTER_11
 73
     1
 44
1.0
  0
ENDBLK
  5
49
330
47
100
AcDbEntity
  8
0
100
AcDbBlockEnd
  0
BLOCK
  5
4B
330
4A
100
AcDbEntity
  8
0
100
AcDbBlockBegin
  2
V23-0-13
 70
     0
 10
163.4892172534888
 20
108.0724587560823
 30
0.0
  3
V23-0-13
  1

  0
LINE
  5
C0
330
4A
100
AcDbEntity
  8
1
  6
Continuous
 62
     7
100
AcDbLine
 10
113.4348645802068
 20
159.223403114442
 30
0.0
 11
113.4348645802068
 21
147.5507855845141
 31
0.0
  0
LINE
  5
C1
330
4A
100
AcDbEntity
  8
1
  6
Continuous
 62
     7
100
AcDbLine
 10
113.4350021727119
 20
334.003567660411
 30
0.0
 11
113.4350021727119
 21
341.7725536210847
 31
0.0
  0
LINE
  5
C2
330
4A
100
AcDbEntity
  8
1
  6
Continuous
 62
     7
100
AcDbLine
 10
87.43500217271185
 20
334.0035676604109
 30
0.0
 11
87.43500217271185
 21
341.7725536210848
 31
0.0
  0
LINE
  5
C3
330
4A
100
AcDbEntity
  8
1
  6
Continuous
 62
     7
100
AcDbLine
 10
113.4350021727119
 20
334.003567660411
 30
0.0
 11
113.4350021727119
 21
341.7725536210847
 31
0.0
  0
LINE
  5
C4
330
4A
100
AcDbEntity
  8
1
  6
Continuous
 62
     7
100
AcDbLine
 10
87.43500217271185
 20
334.0035676604109
 30
0.0
 11
87.43500217271185
 21
341.7725536210848
 31
0.0
  0
LINE
  5
C5
330
4A
100
AcDbEntity
  8
1
  6
Continuous
 62
     7
100
AcDbLine
 10
87.93500217271185
 20
342.388060640748
 30
0.0
 11
89.93500217271185
 21
342.388060640748
 31
0.0
  0
LINE
  5
C6
330
4A
100
AcDbEntity
  8
1
  6
Continuous
 62
     7
100
AcDbLine
 10
110.9350021727119
 20
342.388060640748
 30
0.0
 11
89.93500217271185
 21
342.388060640748
 31
0.0
  0
LINE
  5
C7
330
4A
100
AcDbEntity
  8
1
  6
Continuous
 62
     7
100
AcDbLine
 10
112.9350021727119
 20
342.388060640748
 30
0.0
 11
110.9350021727119
 21
342.388060640748
 31
0.0
  0
LINE
  5
C8
330
4A
100
AcDbEntity
  8
1
  6
Continuous
 62
     7
100
AcDbLine
 10
89.93500217271185
 20
342.388060640748
 30
0.0
 11
87.93500217271185
 21
342.388060640748
 31
0.0
  0
LINE
  5
C9
330
4A
100
AcDbEntity
  8
1
  6
Continuous
 62
     7
100
AcDbLine
 10
113.4350021727119
 20
273.0035676604112
 30
0.0
 11
113.4350021727119
 21
280.7725536210849
 31
0.0
  0
LINE
  5
CA
330
4A
100
AcDbEntity
  8
1
  6
Continuous
 62
     7
100
AcDbLine
 10
87.43500217271185
 20
273.0035676604111
 30
0.0
 11
87.43500217271185
 21
280.7725536210849
 31
0.0
  0
LINE
  5
CB
330
4A
100
AcDbEntity
  8
1
  6
Continuous
 62
     7
100
AcDbLine
 10
206.7892172534888
 20
178.9589273008264
 30
0.0
 11
206.7892172534888
 21
177.3870943494782
 31
0.0
  0
LINE
  5
CC
330
4A
100
AcDbEntity
  8
1
  6
Continuous
 62
     2
100
AcDbLine
 10
229.9762172534888
 20
178.959802747612
 30
0.0
 11
229.9762172534888
 21
177.3870943494782
 31
0.0
  0
LINE
  5
CD
330
4A
100
AcDbEntity
  8
1
  6
Continuous
 62
     7
100
AcDbLine
 10
88.4348645802068
 20
178.8870943494782
 30
0.0
 11
88.4348645802068
 21
161.072307423948
 31
0.0
  0
LINE
  5
CE
330
4A
100
AcDbEntity
  8
1
  6
Continuous
 62
     7
100
AcDbLine
 10
106.3787100627413
 20
281.3880606407481
 30
0.0
 11
112.9350021727119
 21
281.3880606407481
 31
0.0
  0
LINE
  5
CF
330
4A
100
AcDbEntity
  8
1
  6
Continuous
 62
     7
100
AcDbLine
 10
112.9350021727119
 20
333.3880606407477
 30
0.0
 11
87.93500217271185
 21
333.3880606407477
 31
0.0
  0
LINE
  5
D0
330
4A
100
AcDbEntity
  8
1
  6
Continuous
 62
     7
100
AcDbLine
 10
87.93500217271185
 20
281.3880606407481
 30
0.0
 11
94.49129428268253
 21
281.3880606407481
 31
0.0
  0
LINE
  5
D1
330
4A
100
AcDbEntity
  8
1
  6
Continuous
 62
     2
100
AcDbLine
 10
116.0254543904209
 20
307.3880606407479
 30
0.0
 11
116.2199568907202
 21
307.3880606407479
 31
0.0
  0
LINE
  5
D2
330
4A
100
AcDbEntity
  8
1
  6
Continuous
 62
     7
100
AcDbLine
 10
89.93500217271185
 20
272.3880606407479
 30
0.0
 11
87.93500217271185
 21
272.3880606407479
 31
0.0
  0
LINE
  5
D3
330
4A
100
AcDbEntity
  8
1
  6
Continuous
 62
     7
100
AcDbLine
 10
89.93500217271185
 20
272.3880606407479
 30
0.0
 11
110.9350021727119
 21
272.3880606407479
 31
0.0
  0
LINE
  5
D4
330
4A
100
AcDbEntity
  8
1
  6
Continuous
 62
     7
100
AcDbLine
 10
110.9350021727119
 20
272.3880606407479
 30
0.0
 11
112.9350021727119
 21
272.3880606407479
 31
0.0
  0
LINE
  5
D5
330
4A
100
AcDbEntity
  8
1
  6
Continuous
 62
     7
100
AcDbLine
 10
87.93500217271185
 20
272.3880606407479
 30
0.0
 11
89.93500217271185
 21
272.3880606407479
 31
0.0
  0
LINE
  5
D6
330
4A
100
AcDbEntity
  8
1
  6
Continuous
 62
     7
100
AcDbLine
 10
244.7892172534886
 20
140.8870943494781
 30
0.0
 11
244.7892172534886
 21
165.8870943494781
 31
0.0
  0
LINE
  5
D7
330
4A
100
AcDbEntity
  8
1
  6
Continuous
 62
     7
100
AcDbLine
 10
192.789217253489
 20
165.8870943494781
 30
0.0
 11
192.789217253489
 21
140.8870943494781
 31
0.0
  0
LINE
  5
D8
330
4A
100
AcDbEntity
  8
1
  6
Continuous
 62
     7
100
AcDbLine
 10
91.63209746337802
 20
156.3870943494781
 30
0.0
 11
109.2376316970356
 21
156.3870943494781
 31
0.0
  0
LINE
  5
D9
330
4A
100
AcDbEntity
  8
1
  6
Continuous
 62
     7
100
AcDbLine
 10
88.88047292541805
 20
161.7272702161941
 30
0.0
 11
98.98925623499551
 21
167.563578981158
 31
0.0
  0
LINE
  5
DA
330
4A
100
AcDbEntity
  8
1
  6
Continuous
 62
     7
100
AcDbLine
 10
87.4348645802068
 20
147.5507855845141
 30
0.0
 11
87.4348645802068
 21
159.223403114442
 31
0.0
  0
LINE
  5
DB
330
4A
100
AcDbEntity
  8
1
  6
Continuous
 62
     7
100
AcDbLine
 10
98.98925623499551
 20
139.2106097177981
 30
0.0
 11
88.88047292541805
 21
145.0469184827619
 31
0.0
  0
LINE
  5
DC
330
4A
100
AcDbEntity
  8
1
  6
Continuous
 62
     7
100
AcDbLine
 10
111.9892562349956
 20
145.0469184827619
 30
0.0
 11
101.8804729254181
 21
139.2106097177981
 31
0.0
  0
LINE
  5
DD
330
4A
100
AcDbEntity
  8
1
  6
Continuous
 62
     7
100
AcDbLine
 10
101.8804729254181
 20
167.563578981158
 30
0.0
 11
111.9892562349956
 21
161.7272702161941
 31
0.0
  0
LINE
  5
DE
330
4A
100
AcDbEntity
  8
1
  6
Continuous
 62
     7
100
AcDbLine
 10
112.4348645802068
 20
161.072307423948
 30
0.0
 11
112.4348645802068
 21
178.8870943494782
 31
0.0
  0
LINE
  5
DF
330
4A
100
AcDbEntity
  8
1
  6
Continuous
 62
     7
100
AcDbLine
 10
88.4348645802068
 20
177.3870943494782
 30
0.0
 11
112.4348645802068
 21
177.3870943494782
 31
0.0
  0
LINE
  5
E0
330
4A
100
AcDbEntity
  8
1
  6
Continuous
 62
     2
100
AcDbLine
 10
112.4348645802068
 20
175.9789370429249
 30
0.0
 11
111.6218645802068
 21
177.3870943494782
 31
0.0
  0
LINE
  5
E1
330
4A
100
AcDbEntity
  8
1
  6
Continuous
 62
     2
100
AcDbLine
 10
89.24786458020682
 20
177.3870943494782
 30
0.0
 11
88.4348645802068
 21
175.9789370429249
 31
0.0
  0
LINE
  5
E2
330
4A
100
AcDbEntity
  8
1
  6
Continuous
 62
     2
100
AcDbLine
 10
89.24786458020682
 20
177.3870943494782
 30
0.0
 11
89.24786458020682
 21
178.8870943494782
 31
0.0
  0
LINE
  5
E3
330
4A
100
AcDbEntity
  8
1
  6
Continuous
 62
     2
100
AcDbLine
 10
111.6218645802068
 20
177.3870943494782
 30
0.0
 11
111.6218645802068
 21
178.8870943494782
 31
0.0
  0
LINE
  5
E4
330
4A
100
AcDbEntity
  8
1
  6
Continuous
 62
     7
100
AcDbLine
 10
183.7892172534888
 20
163.8870943494781
 30
0.0
 11
183.7892172534888
 21
165.8870943494781
 31
0.0
  0
LINE
  5
E5
330
4A
100
AcDbEntity
  8
1
  6
Continuous
 62
     7
100
AcDbLine
 10
183.7892172534888
 20
163.8870943494781
 30
0.0
 11
183.7892172534888
 21
142.8870943494782
 31
0.0
  0
LINE
  5
E6
330
4A
100
AcDbEntity
  8
1
  6
Continuous
 62
     7
100
AcDbLine
 10
253.7892172534889
 20
142.8870943494782
 30
0.0
 11
253.7892172534889
 21
163.8870943494782
 31
0.0
  0
LINE
  5
E7
330
4A
100
AcDbEntity
  8
1
  6
Continuous
 62
     7
100
AcDbLine
 10
253.7892172534889
 20
163.8870943494782
 30
0.0
 11
253.7892172534889
 21
165.8870943494781
 31
0.0
  0
LINE
  5
E8
330
4A
100
AcDbEntity
  8
1
  6
Continuous
 62
     7
100
AcDbLine
 10
206.7892172534888
 20
177.3870943494782
 30
0.0
 11
229.9762172534888
 21
177.3870943494782
 31
0.0
  0
LINE
  5
E9
330
4A
100
AcDbEntity
  8
1
  6
Continuous
 62
     7
100
AcDbLine
 10
206.7892172534888
 20
177.3870943494782
 30
0.0
 11
206.7892172534888
 21
175.9789370429247
 31
0.0
  0
LINE
  5
EA
330
4A
100
AcDbEntity
  8
1
  6
Continuous
 62
     7
100
AcDbLine
 10
230.7892172534888
 20
175.9789370429247
 30
0.0
 11
230.7892172534888
 21
177.3870943494782
 31
0.0
  0
LINE
  5
EB
330
4A
100
AcDbEntity
  8
1
  6
Continuous
 62
     7
100
AcDbLine
 10
229.9762172534888
 20
177.3870943494782
 30
0.0
 11
230.7892172534888
 21
177.3870943494782
 31
0.0
  0
LINE
  5
EC
330
4A
100
AcDbEntity
  8
1
  6
Continuous
 62
     7
100
AcDbLine
 10
230.7892172534888
 20
177.3870943494782
 30
0.0
 11
230.7892172534888
 21
178.9589273008264
 31
0.0
  0
LINE
  5
ED
330
4A
100
AcDbEntity
  8
1
  6
Continuous
 62
     7
100
AcDbLine
 10
253.7892172534889
 20
165.8870943494781
 30
0.0
 11
253.7892172534889
 21
163.8870943494782
 31
0.0
  0
LINE
  5
EE
330
4A
100
AcDbEntity
  8
1
  6
Continuous
 62
     7
100
AcDbLine
 10
244.7892172534886
 20
165.8870943494781
 30
0.0
 11
236.7892172534888
 21
165.8870943494781
 31
0.0
  0
LINE
  5
EF
330
4A
100
AcDbEntity
  8
1
  6
Continuous
 62
     7
100
AcDbLine
 10
230.7892172534888
 20
175.9789370429247
 30
0.0
 11
230.7892172534888
 21
171.8870943494782
 31
0.0
  0
LINE
  5
F0
330
4A
100
AcDbEntity
  8
1
  6
Continuous
 62
     2
100
AcDbLine
 10
230.7892172534888
 20
175.9789370429247
 30
0.0
 11
229.9762172534888
 21
177.3870943494782
 31
0.0
  0
LINE
  5
F1
330
4A
100
AcDbEntity
  8
1
  6
Continuous
 62
     7
100
AcDbLine
 10
253.7892172534889
 20
140.8870943494782
 30
0.0
 11
253.7892172534889
 21
142.8870943494782
 31
0.0
  0
LINE
  5
F2
330
4A
100
AcDbEntity
  8
1
  6
Continuous
 62
     7
100
AcDbLine
 10
183.7892172534888
 20
142.8870943494782
 30
0.0
 11
183.7892172534888
 21
140.8870943494782
 31
0.0
  0
LINE
  5
F3
330
4A
100
AcDbEntity
  8
1
  6
Continuous
 62
     2
100
AcDbLine
 10
207.6022172534888
 20
177.3870943494782
 30
0.0
 11
207.6022172534888
 21
178.959802747612
 31
0.0
  0
LINE
  5
F4
330
4A
100
AcDbEntity
  8
1
  6
Continuous
 62
     2
100
AcDbLine
 10
207.6022172534888
 20
177.3870943494782
 30
0.0
 11
206.7892172534888
 21
175.9789370429247
 31
0.0
  0
LINE
  5
F5
330
4A
100
AcDbEntity
  8
1
  6
Continuous
 62
     7
100
AcDbLine
 10
206.7892172534888
 20
175.9789370429247
 30
0.0
 11
206.7892172534888
 21
171.8870943494782
 31
0.0
  0
LINE
  5
F6
330
4A
100
AcDbEntity
  8
1
  6
Continuous
 62
     7
100
AcDbLine
 10
200.7892172534888
 20
165.8870943494781
 30
0.0
 11
192.789217253489
 21
165.8870943494781
 31
0.0
  0
LINE
  5
F7
330
4A
100
AcDbEntity
  8
1
  6
Continuous
 62
     7
100
AcDbLine
 10
183.7892172534888
 20
165.8870943494781
 30
0.0
 11
183.7892172534888
 21
163.8870943494781
 31
0.0
  0
LINE
  5
F8
330
4A
100
AcDbEntity
  8
0
  6
Continuous
 62
     2
100
AcDbLine
 10
218.7892172534888
 20
210.8870943494784
 30
0.0
 11
218.1728945768913
 21
210.8870943494784
 31
0.0
  0
ARC
  5
F9
330
4A
100
AcDbEntity
  8
1
  6
Continuous
 62
     7
100
AcDbCircle
 10
213.6073805950993
 20
181.7143342670396
 30
0.0
 40
24.49999999999998
100
AcDbArc
 50
295.5483739056169
 51
321.4993770176809
  0
ARC
  5
FA
330
4A
100
AcDbEntity
  8
1
  6
Continuous
 62
     7
100
AcDbCircle
 10
220.4282001920341
 20
177.2641643506499
 30
0.0
 40
18.99999999999993
100
AcDbArc
 50
214.6462317137759
 51
248.3060173629264
  0
ARC
  5
FB
330
4A
100
AcDbEntity
  8
1
  6
Continuous
 62
     7
100
AcDbCircle
 10
100.4348645802068
 20
153.3870943494781
 30
0.0
 40
14.25000000000029
100
AcDbArc
 50
324.1775448336327
 51
335.8224551663661
  0
ARC
  5
FC
330
4A
100
AcDbEntity
  8
1
  6
Continuous
 62
     7
100
AcDbCircle
 10
108.0242878869973
 20
337.8880606407479
 30
0.0
 40
6.660714285714636
100
AcDbArc
 50
317.4989889857343
 51
324.3244470960539
  0
ARC
  5
FD
330
4A
100
AcDbEntity
  8
1
  6
Continuous
 62
     7
100
AcDbCircle
 10
108.0242878869973
 20
337.8880606407479
 30
0.0
 40
6.660714285714636
100
AcDbArc
 50
317.4989889857343
 51
324.3244470960539
  0
ARC
  5
FE
330
4A
100
AcDbEntity
  8
1
  6
Continuous
 62
     7
100
AcDbCircle
 10
92.8457164584263
 20
337.8880606407479
 30
0.0
 40
6.66071428571453
100
AcDbArc
 50
215.6755529039477
 51
222.5010110142666
  0
ARC
  5
FF
330
4A
100
AcDbEntity
  8
1
  6
Continuous
 62
     7
100
AcDbCircle
 10
108.0242878869973
 20
337.8880606407479
 30
0.0
 40
6.660714285714557
100
AcDbArc
 50
35.67555290394576
 51
42.50101101426534
  0
ARC
  5
100
330
4A
100
AcDbEntity
  8
1
  6
Continuous
 62
     7
100
AcDbCircle
 10
108.0242878869973
 20
337.8880606407479
 30
0.0
 40
6.660714285714557
100
AcDbArc
 50
35.67555290394576
 51
42.50101101426534
  0
ARC
  5
101
330
4A
100
AcDbEntity
  8
1
  6
Continuous
 62
     7
100
AcDbCircle
 10
92.8457164584263
 20
337.8880606407479
 30
0.0
 40
6.660714285714483
100
AcDbArc
 50
137.4989889857338
 51
144.3244470960527
  0
ARC
  5
102
330
4A
100
AcDbEntity
  8
1
  6
Continuous
 62
     7
100
AcDbCircle
 10
108.0242878869973
 20
276.888060640748
 30
0.0
 40
6.660714285714597
100
AcDbArc
 50
317.4989889857347
 51
324.3244470960543
  0
ARC
  5
103
330
4A
100
AcDbEntity
  8
1
  6
Continuous
 62
     7
100
AcDbCircle
 10
108.0242878869973
 20
276.888060640748
 30
0.0
 40
6.660714285714597
100
AcDbArc
 50
317.4989889857347
 51
324.3244470960543
  0
ARC
  5
104
330
4A
100
AcDbEntity
  8
1
  6
Continuous
 62
     7
100
AcDbCircle
 10
92.8457164584263
 20
276.888060640748
 30
0.0
 40
6.660714285714483
100
AcDbArc
 50
137.4989889857338
 51
144.3244470960527
  0
ARC
  5
105
330
4A
100
AcDbEntity
  8
1
  6
Continuous
 62
     7
100
AcDbCircle
 10
708.3588181109167
 20
307.3880606407479
 30
0.0
 40
620.9683658475071
100
AcDbArc
 50
177.6003191841068
 51
178.4914220081633
  0
ARC
  5
106
330
4A
100
AcDbEntity
  8
1
  6
Continuous
 62
     7
100
AcDbCircle
 10
-507.488813765493
 20
307.3880606407479
 30
0.0
 40
620.9683658475071
100
AcDbArc
 50
357.6003191841068
 51
359.5210160181156
  0
ARC
  5
107
330
4A
100
AcDbEntity
  8
1
  6
Continuous
 62
     7
100
AcDbCircle
 10
708.3588181109167
 20
307.3880606407479
 30
0.0
 40
620.9683658475071
100
AcDbArc
 50
180.4789839818843
 51
182.3996808158932
  0
ARC
  5
108
330
4A
100
AcDbEntity
  8
1
  6
Continuous
 62
     7
100
AcDbCircle
 10
108.0242878869973
 20
276.888060640748
 30
0.0
 40
6.660714285714624
100
AcDbArc
 50
35.67555290394656
 51
42.50101101426534
  0
ARC
  5
109
330
4A
100
AcDbEntity
  8
1
  6
Continuous
 62
     7
100
AcDbCircle
 10
108.0242878869973
 20
276.888060640748
 30
0.0
 40
6.660714285714624
100
AcDbArc
 50
35.67555290394656
 51
42.50101101426534
  0
ARC
  5
10A
330
4A
100
AcDbEntity
  8
1
  6
Continuous
 62
     7
100
AcDbCircle
 10
-507.488813765493
 20
307.3880606407479
 30
0.0
 40
620.9683658475072
100
AcDbArc
 50
1.50857799183668
 51
2.39968081589326
  0
ARC
  5
10B
330
4A
100
AcDbEntity
  8
1
  6
Continuous
 62
     7
100
AcDbCircle
 10
92.8457164584263
 20
276.888060640748
 30
0.0
 40
6.660714285714497
100
AcDbArc
 50
215.6755529039473
 51
222.5010110142662
  0
ARC
  5
10C
330
4A
100
AcDbEntity
  8
1
  6
Continuous
 62
     7
100
AcDbCircle
 10
100.4348645802068
 20
153.3870943494781
 30
0.0
 40
9.299930586467957
100
AcDbArc
 50
18.81920911130893
 51
161.1807908886911
  0
ARC
  5
10D
330
4A
100
AcDbEntity
  8
1
  6
Continuous
 62
     7
100
AcDbCircle
 10
100.4348645802068
 20
153.3870943494781
 30
0.0
 40
9.299930586467957
100
AcDbArc
 50
161.1807908886911
 51
18.81920911130893
  0
ARC
  5
10E
330
4A
100
AcDbEntity
  8
1
  6
Continuous
 62
     7
100
AcDbCircle
 10
100.4348645802068
 20
153.3870943494781
 30
0.0
 40
14.25000000000003
100
AcDbArc
 50
84.17754483363436
 51
90.0
  0
ARC
  5
10F
330
4A
100
AcDbEntity
  8
1
  6
Continuous
 62
     7
100
AcDbCircle
 10
100.4348645802068
 20
153.3870943494781
 30
0.0
 40
14.25000000000009
100
AcDbArc
 50
90.0
 51
95.82245516636564
  0
ARC
  5
110
330
4A
100
AcDbEntity
  8
1
  6
Continuous
 62
     7
100
AcDbCircle
 10
100.4348645802068
 20
153.3870943494781
 30
0.0
 40
14.25000000000015
100
AcDbArc
 50
144.1775448336332
 51
155.8224551663665
  0
ARC
  5
111
330
4A
100
AcDbEntity
  8
1
  6
Continuous
 62
     7
100
AcDbCircle
 10
100.4348645802068
 20
153.3870943494781
 30
0.0
 40
14.24999999999985
100
AcDbArc
 50
204.1775448336339
 51
215.8224551663674
  0
ARC
  5
112
330
4A
100
AcDbEntity
  8
1
  6
Continuous
 62
     7
100
AcDbCircle
 10
100.4348645802068
 20
153.3870943494781
 30
0.0
 40
14.25000000000014
100
AcDbArc
 50
264.1775448336344
 51
270.0
  0
ARC
  5
113
330
4A
100
AcDbEntity
  8
1
  6
Continuous
 62
     7
100
AcDbCircle
 10
100.4348645802068
 20
153.3870943494781
 30
0.0
 40
14.25
100
AcDbArc
 50
270.0
 51
275.8224551663656
  0
ARC
  5
114
330
4A
100
AcDbEntity
  8
1
  6
Continuous
 62
     7
100
AcDbCircle
 10
100.4348645802068
 20
153.3870943494781
 30
0.0
 40
14.2499999999998
100
AcDbArc
 50
24.17754483363348
 51
35.82245516636668
  0
ARC
  5
115
330
4A
100
AcDbEntity
  8
1
  6
Continuous
 62
     7
100
AcDbCircle
 10
188.2892172534889
 20
145.7978086351927
 30
0.0
 40
6.660714285714524
100
AcDbArc
 50
227.4989889857341
 51
312.5010110142653
  0
ARC
  5
116
330
4A
100
AcDbEntity
  8
1
  6
Continuous
 62
     7
100
AcDbCircle
 10
249.2892172534887
 20
160.9763800637636
 30
0.0
 40
6.660714285714601
100
AcDbArc
 50
47.49898898573336
 51
132.5010110142657
  0
ARC
  5
117
330
4A
100
AcDbEntity
  8
1
  6
Continuous
 62
     7
100
AcDbCircle
 10
188.2892172534889
 20
145.7978086351927
 30
0.0
 40
6.660714285714524
100
AcDbArc
 50
227.4989889857341
 51
312.5010110142653
  0
ARC
  5
118
330
4A
100
AcDbEntity
  8
1
  6
Continuous
 62
     7
100
AcDbCircle
 10
218.7892172534888
 20
761.310910287683
 30
0.0
 40
620.9683658475071
100
AcDbArc
 50
267.6003191841068
 51
272.3996808158932
  0
ARC
  5
119
330
4A
100
AcDbEntity
  8
1
  6
Continuous
 62
     7
100
AcDbCircle
 10
249.2892172534887
 20
145.7978086351927
 30
0.0
 40
6.660714285714568
100
AcDbArc
 50
227.4989889857348
 51
312.5010110142666
  0
ARC
  5
11A
330
4A
100
AcDbEntity
  8
1
  6
Continuous
 62
     7
100
AcDbCircle
 10
188.2892172534889
 20
160.9763800637636
 30
0.0
 40
6.660714285714505
100
AcDbArc
 50
47.49898898573426
 51
132.5010110142659
  0
CIRCLE
  5
11B
330
4A
100
AcDbEntity
  8
1
  6
Continuous
 62
     7
100
AcDbCircle
 10
100.4348645802068
 20
153.3870943494781
 30
0.0
 40
12.5
  0
CIRCLE
  5
11C
330
4A
100
AcDbEntity
  8
1
  6
Continuous
 62
     2
100
AcDbCircle
 10
100.4348645802068
 20
153.3870943494781
 30
0.0
 40
10.5
  0
SPLINE
  5
11D
330
4A
100
AcDbEntity
  8
1
  6
Continuous
 62
     7
100
AcDbSpline
210
0.0
220
0.0
230
1.0
 70
    11
 71
     3
 72
    81
 73
    77
 74
    75
 42
0.000000001
 43
0.0000000001
 44
0.00000001
 40
0.0
 40
0.0
 40
0.0
 40
0.0
 40
0.2612987235853013
 40
0.5224450383060778
 40
0.7978950656345642
 40
1.073089808585037
 40
1.368851885082663
 40
1.664381550109846
 40
1.98335424591941
 40
2.302148895310642
 40
2.644149872237942
 40
2.986027002157035
 40
3.348372452979171
 40
3.710636957164465
 40
4.088775582850281
 40
4.466865875237219
 40
4.854969894387036
 40
5.243051378385558
 40
5.634551098531057
 40
6.026050818676433
 40
6.414132302667025
 40
6.802236321777722
 40
7.180326614191691
 40
7.558465240166919
 40
7.920729743972565
 40
8.283075192260357
 40
8.624952324672226
 40
8.966953319201018
 40
9.285747951196793
 40
9.604720529819057
 40
9.900250305604063
 40
10.19601311768694
 40
10.47120716521858
 40
10.74665272261356
 40
11.00780335113386
 40
11.26912860649906
 40
11.52530138359037
 40
11.78147416068044
 40
12.04279941604218
 40
12.30395004455711
 40
12.57939560194479
 40
12.85458964946799
 40
13.15035246154109
 40
13.44588223731588
 40
13.76485481592704
 40
14.08364944791181
 40
14.42565044242981
 40
14.76752757483233
 40
15.12987302310843
 40
15.49213752689923
 40
15.87027615286848
 40
16.24836644528759
 40
16.63646963817722
 40
17.02455029333692
 40
17.4160500108008
 40
17.80754973361428
 40
18.1956320464303
 40
18.58373689178773
 40
18.96182718415645
 40
19.33996580983493
 40
19.70223031402181
 40
20.06457576484156
 40
20.40645289475567
 40
20.74845387167722
 40
21.06724852105899
 40
21.38622121685039
 40
21.68175088184796
 40
21.97751295828201
 40
22.25270770111683
 40
22.52815772819707
 40
22.78930351052573
 40
23.05060170091959
 40
23.17905893394421
 40
23.30695012504713
 40
23.43484185008276
 40
23.56329961507139
 40
23.56329961507139
 40
23.56329961507139
 40
23.56329961507139
 10
253.771705417593
 20
164.9010659129837
 30
0.0
 10
253.7566972756165
 20
164.9870000033399
 30
0.0
 10
253.7266897538284
 20
165.1588180624785
 30
0.0
 10
253.6371495960179
 20
165.4104335711247
 30
0.0
 10
253.5182786623734
 20
165.6540672338533
 30
0.0
 10
253.3646383735205
 20
165.8914641833577
 30
0.0
 10
253.1825131505464
 20
166.1162977629533
 30
0.0
 10
252.9685405863576
 20
166.3320649651897
 30
0.0
 10
252.7297396495881
 20
166.5321176282387
 30
0.0
 10
252.4621965786371
 20
166.7200269579442
 30
0.0
 10
252.1739822060177
 20
166.8899297220355
 30
0.0
 10
251.8611112949534
 20
167.0446245625702
 30
0.0
 10
251.5319419496421
 20
167.1796259843247
 30
0.0
 10
251.1832425810419
 20
167.2966923849582
 30
0.0
 10
250.8227745632071
 20
167.3928524743561
 30
0.0
 10
250.4487765520071
 20
167.4689586461598
 30
0.0
 10
250.0676629176475
 20
167.5233639062213
 30
0.0
 10
249.6796291107165
 20
167.556380927325
 30
0.0
 10
249.2892139478539
 20
167.567301939113
 30
0.0
 10
248.8987988097686
 20
167.5563800412639
 30
0.0
 10
248.5107650778218
 20
167.5233621395568
 30
0.0
 10
248.1296515667705
 20
167.4689560149324
 30
0.0
 10
247.7556537286216
 20
167.3928489943622
 30
0.0
 10
247.3951859277325
 20
167.2966880855691
 30
0.0
 10
247.0464868318794
 20
167.1796208929069
 30
0.0
 10
246.717317767906
 20
167.0446187354175
 30
0.0
 10
246.4044472791103
 20
166.8899231723753
 30
0.0
 10
246.1162330324707
 20
166.720019754484
 30
0.0
 10
245.8486914028393
 20
166.5321097050898
 30
0.0
 10
245.6098872927188
 20
166.3320571461496
 30
0.0
 10
245.3959272011299
 20
166.1162876031868
 30
0.0
 10
245.2137594450826
 20
165.8914589895819
 30
0.0
 10
245.0602728393569
 20
165.6540421579325
 30
0.0
 10
244.9408489293154
 20
165.4104856341679
 30
0.0
 10
244.8532615285026
 20
165.1585925545037
 30
0.0
 10
244.8013810811445
 20
164.9034979995239
 30
0.0
 10
244.7831957643356
 20
164.6454554098829
 30
0.0
 10
244.801381666762
 20
164.3874128615146
 30
0.0
 10
244.8532626930471
 20
164.1323184242794
 30
0.0
 10
244.9408506655215
 20
163.8804255433977
 30
0.0
 10
245.0602751283049
 20
163.6368692906696
 30
0.0
 10
245.2137622728387
 20
163.3994528073629
 30
0.0
 10
245.3959305391254
 20
163.1746246071935
 30
0.0
 10
245.6098911203947
 20
162.95885554982
 30
0.0
 10
245.848695684526
 20
162.7588035328539
 30
0.0
 10
246.1162377406118
 20
162.5708940906549
 30
0.0
 10
246.4044523728399
 20
162.400991326876
 30
0.0
 10
246.717323212708
 20
162.2462964738995
 30
0.0
 10
247.0464925830597
 20
162.1112950634759
 30
0.0
 10
247.3951919446019
 20
161.9942286622128
 30
0.0
 10
247.7556599637149
 20
161.8980685715848
 30
0.0
 10
248.1296577045563
 20
161.8219624543478
 30
0.0
 10
248.5107707883272
 20
161.7675572494495
 30
0.0
 10
248.8988040374063
 20
161.7345402049521
 30
0.0
 10
249.2892189214373
 20
161.7236191072508
 30
0.0
 10
249.6796343383476
 20
161.7345409191878
 30
0.0
 10
250.0676686280991
 20
161.7675587975132
 30
0.0
 10
250.4487826898492
 20
161.8219649772978
 30
0.0
 10
250.8227807978843
 20
161.898072052508
 30
0.0
 10
251.1832485991446
 20
161.9942329598796
 30
0.0
 10
251.5319476960593
 20
162.1113001526844
 30
0.0
 10
251.8611167566529
 20
162.2463023188028
 30
0.0
 10
252.1739872400399
 20
162.40099787905
 30
0.0
 10
252.4622015029964
 20
162.5709012625939
 30
0.0
 10
252.7297431839277
 20
162.7588113205926
 30
0.0
 10
252.9685471235562
 20
162.9588640912114
 30
0.0
 10
253.1825071945012
 20
163.1746332874545
 30
0.0
 10
253.3646749824419
 20
163.3994618672691
 30
0.0
 10
253.5181645331686
 20
163.6368780399567
 30
0.0
 10
253.6375776670643
 20
163.8804435982808
 30
0.0
 10
253.7251904923859
 20
164.1323010747007
 30
0.0
 10
253.7684830762778
 20
164.3456226119314
 30
0.0
 10
253.7863273142561
 20
164.5173564848156
 30
0.0
 10
253.7905749265031
 20
164.6454526483778
 30
0.0
 10
253.7866645309935
 20
164.7736216444945
 30
0.0
 10
253.7766991206148
 20
164.8585220009369
 30
0.0
 10
253.771705417593
 20
164.9010659129837
 30
0.0
 11
253.771705417593
 21
164.9010659129837
 31
0.0
 11
253.7195214405214
 21
165.1571007924287
 31
0.0
 11
253.6344069222707
 21
165.4039872349491
 31
0.0
 11
253.5134062378048
 21
165.6514373341504
 31
0.0
 11
253.3645692699212
 21
165.8829102340055
 31
0.0
 11
253.1787838318423
 21
166.1130384086592
 31
0.0
 11
252.9710947441682
 21
166.3232835648252
 31
0.0
 11
252.7269502186875
 21
166.5285566300018
 31
0.0
 11
252.4663220747761
 21
166.7121403957341
 31
0.0
 11
252.1719623315676
 21
166.8862582000122
 31
0.0
 11
251.8656389171758
 21
167.038067085582
 31
0.0
 11
251.5305469400848
 21
167.175935111635
 31
0.0
 11
251.1871861004147
 21
167.2914292879661
 31
0.0
 11
250.8218993631719
 21
167.3891760005756
 31
0.0
 11
250.4514243935233
 21
167.4646780936546
 31
0.0
 11
250.0672412040218
 21
167.5197054194509
 31
0.0
 11
249.6805583235334
 21
167.5526233197515
 31
0.0
 11
249.28921394206
 21
167.5636508291994
 31
0.0
 11
248.8978695856147
 21
167.5526224315478
 31
0.0
 11
248.5111867798347
 21
167.5197036537105
 31
0.0
 11
248.1270037152192
 21
167.4646754562247
 31
0.0
 11
247.7565289169242
 21
167.3891725221464
 31
0.0
 11
247.3912424015193
 21
167.2914249793126
 31
0.0
 11
247.0478818239651
 21
167.1759300248126
 31
0.0
 11
246.7127901597672
 21
167.0380612448027
 31
0.0
 11
246.4064670899081
 21
166.8862516582689
 31
0.0
 11
246.1121077418637
 21
166.7121331511811
 31
0.0
 11
245.8514800145965
 21
166.5285488239491
 31
0.0
 11
245.6073359549777
 21
166.3232753865266
 31
0.0
 11
245.399647344464
 21
166.1130296030104
 31
0.0
 11
245.2138624287039
 21
165.8829000609153
 31
0.0
 11
245.065025986115
 21
165.6514276495718
 31
0.0
 11
244.9440258630261
 21
165.403982250809
 31
0.0
 11
244.8589119052823
 21
165.1570910499902
 31
0.0
 11
244.8067285104449
 21
164.90102898238
 31
0.0
 11
244.7892172534899
 21
164.6454554163042
 31
0.0
 11
244.8067290904713
 21
164.3898818899711
 31
0.0
 11
244.8589130664434
 21
164.1338199407923
 31
0.0
 11
244.9440275845088
 21
163.8869289331409
 31
0.0
 11
245.0650282691768
 21
163.6394838089895
 31
0.0
 11
245.2138652370938
 21
163.4080117354322
 31
0.0
 11
245.3996506751344
 21
163.177882614978
 31
0.0
 11
245.6073397628021
 21
162.9676373028135
 31
0.0
 11
245.8514842882901
 21
162.7623644194787
 31
0.0
 11
246.1121124322028
 21
162.5787806837444
 31
0.0
 11
246.4064721754098
 21
162.4046628447074
 31
0.0
 11
246.712795589801
 21
162.2528539533734
 31
0.0
 11
247.0478875668927
 21
162.1149859338609
 31
0.0
 11
247.3912484065647
 21
161.9994917586419
 31
0.0
 11
247.7565351438055
 21
161.901745044807
 31
0.0
 11
248.1270101134424
 21
161.8262429513963
 31
0.0
 11
248.5111924817377
 21
161.7712157196403
 31
0.0
 11
248.8978745304263
 21
161.73829781963
 31
0.0
 11
249.2892189065771
 21
161.7272702161954
 31
0.0
 11
249.6805632683452
 21
161.7382985198601
 31
0.0
 11
250.0672469059251
 21
161.7712172979893
 31
0.0
 11
250.4514307917464
 21
161.8262455895172
 31
0.0
 11
250.8219055900531
 21
161.901748523264
 31
0.0
 11
251.1871921054601
 21
161.9994960648722
 31
0.0
 11
251.5305526830123
 21
162.1149910204841
 31
0.0
 11
251.8656443472093
 21
162.2528598070348
 31
0.0
 11
252.1719674170693
 21
162.4046693878042
 31
0.0
 11
252.4663267651167
 21
162.5787878601318
 31
0.0
 11
252.7269544923814
 21
162.7623722173629
 31
0.0
 11
252.9710985519849
 21
162.9676458366344
 31
0.0
 11
253.1787871625117
 21
163.1778914641459
 31
0.0
 11
253.3645720783513
 21
163.4080200604036
 31
0.0
 11
253.5134085208708
 21
163.6394932980772
 31
0.0
 11
253.6344086435418
 21
163.8869436720843
 31
0.0
 11
253.7195224615932
 21
164.133829794494
 31
0.0
 11
253.7717058530163
 21
164.3898642408789
 31
0.0
 11
253.7848394381774
 21
164.5176483148726
 31
0.0
 11
253.7892172534885
 21
164.6454645553833
 31
0.0
 11
253.7848392597076
 21
164.7732813226852
 31
0.0
 11
253.771705417593
 21
164.9010659129837
 31
0.0
  0
SPLINE
  5
11E
330
4A
100
AcDbEntity
  8
1
  6
Continuous
 62
     7
100
AcDbSpline
210
0.0
220
0.0
230
1.0
 70
    11
 71
     3
 72
    81
 73
    77
 74
    75
 42
0.000000001
 43
0.0000000001
 44
0.00000001
 40
0.0
 40
0.0
 40
0.0
 40
0.0
 40
0.3977539018776345
 40
0.795420813635226
 40
1.204283530790717
 40
1.612982557183982
 40
2.03825975233938
 40
2.463359881730923
 40
2.90796171332247
 40
3.352403553248303
 40
3.816709034798413
 40
4.280886891201952
 40
4.762992784312595
 40
5.245006288256554
 40
5.741160412739091
 40
6.237255390425527
 40
6.742368482734205
 40
7.247452865881062
 40
7.755632097272849
 40
8.263811328659717
 40
8.768895711787856
 40
9.274008804051883
 40
9.7701037817178
 40
10.26625790630312
 40
10.74827140999096
 40
11.23037730172296
 40
11.69455515937931
 40
12.15886065001225
 40
12.60330248035913
 40
13.04790424995618
 40
13.47300444060182
 40
13.89828202947926
 40
14.30698066610736
 40
14.71584095710675
 40
15.11351027641685
 40
15.51127871396732
 40
15.90508653094149
 40
16.29889434791441
 40
16.69666278546129
 40
17.09433210476586
 40
17.50319239575741
 40
17.91189103237571
 40
18.3371686212428
 40
18.76226881187934
 40
19.2068705814604
 40
19.65131241177979
 40
20.11561790241113
 40
20.57979576011518
 40
21.06190165177802
 40
21.54391515521234
 40
22.04006927995926
 40
22.53616425820713
 40
23.04120928528869
 40
23.54622529809298
 40
24.05440421875628
 40
24.56258376084264
 40
25.06773651435706
 40
25.57291767172388
 40
26.0690126488005
 40
26.56516677309833
 40
27.04718027725945
 40
27.52928617037313
 40
27.99346402672704
 40
28.45776950840993
 40
28.90221134818651
 40
29.34681317901197
 40
29.77191330893727
 40
30.19719050687761
 40
30.60588953108713
 40
31.01475223972622
 40
31.41236694857805
 40
31.81006797558303
 40
32.00737085756253
 40
32.20405031780783
 40
32.40078212763471
 40
32.59813784867278
 40
32.59813784867278
 40
32.59813784867278
 40
32.59813784867278
 10
249.6826072475646
 20
159.2009083486324
 30
0.0
 10
249.8139330063551
 20
159.1816536546433
 30
0.0
 10
250.0765558036109
 20
159.1431484844931
 30
0.0
 10
250.462549272328
 20
159.0284796034963
 30
0.0
 10
250.838083100921
 20
158.875043895697
 30
0.0
 10
251.2030484797377
 20
158.6773424515098
 30
0.0
 10
251.5509565138345
 20
158.441402573565
 30
0.0
 10
251.8833900266113
 20
158.1650557140385
 30
0.0
 10
252.1935689034595
 20
157.8548819720498
 30
0.0
 10
252.4834851271597
 20
157.5085506411017
 30
0.0
 10
252.7470360135267
 20
157.1337657535945
 30
0.0
 10
252.9858920070734
 20
156.7282043695117
 30
0.0
 10
253.1952340089458
 20
156.3000764154095
 30
0.0
 10
253.3760649788189
 20
155.8476941286161
 30
0.0
 10
253.5250927165477
 20
155.3789698020623
 30
0.0
 10
253.6426732190179
 20
154.8934878267339
 30
0.0
 10
253.7269533725463
 20
154.3981131503123
 30
0.0
 10
253.7779388242857
 20
153.894178174611
 30
0.0
 10
253.7948828579601
 20
153.3869318393161
 30
0.0
 10
253.7779022316145
 20
152.8796867276766
 30
0.0
 10
253.7268804261967
 20
152.3757554314316
 30
0.0
 10
253.642564536773
 20
151.8803868361361
 30
0.0
 10
253.5249490119685
 20
151.3949133447619
 30
0.0
 10
253.3758874604593
 20
150.9261997687604
 30
0.0
 10
253.1950238556855
 20
150.4738305352242
 30
0.0
 10
252.9856509754951
 20
150.0457176591955
 30
0.0
 10
252.7467657144562
 20
149.6401735884939
 30
0.0
 10
252.4831878110874
 20
149.2654074167772
 30
0.0
 10
252.1932464916667
 20
148.9190981223848
 30
0.0
 10
251.8830457678649
 20
148.6089426766953
 30
0.0
 10
251.5505905673302
 20
148.3326340884036
 30
0.0
 10
251.2026712611762
 20
148.0966671450574
 30
0.0
 10
250.8376708355804
 20
147.8991810157146
 30
0.0
 10
250.4622057829828
 20
147.7450790757835
 30
0.0
 10
250.0759115021613
 20
147.6329525788164
 30
0.0
 10
249.684319012836
 20
147.5661115705899
 30
0.0
 10
249.2890064622491
 20
147.5431538559261
 30
0.0
 10
248.8936955688669
 20
147.5661400884688
 30
0.0
 10
248.5021079024897
 20
147.633009346094
 30
0.0
 10
248.1158217115108
 20
147.7451637101277
 30
0.0
 10
247.7403677768478
 20
147.8992927357933
 30
0.0
 10
247.3753815989073
 20
148.0968051958372
 30
0.0
 10
247.0274793163802
 20
148.3327972375481
 30
0.0
 10
246.6950440496873
 20
148.6091298085115
 30
0.0
 10
246.3848657013978
 20
148.9193076313397
 30
0.0
 10
246.0949493656026
 20
149.2656378412847
 30
0.0
 10
245.8313984986746
 20
149.6404230266049
 30
0.0
 10
245.5925424940604
 20
150.0459843294039
 30
0.0
 10
245.3832004988667
 20
150.4741123083437
 30
0.0
 10
245.2023695288397
 20
150.926494589174
 30
0.0
 10
245.0533417952525
 20
151.3952189158101
 30
0.0
 10
244.9357666135446
 20
151.8806788263167
 30
0.0
 10
244.8514918408059
 20
152.3760081355798
 30
0.0
 10
244.8005040797581
 20
152.8798969183593
 30
0.0
 10
244.783551646384
 20
153.3871201655221
 30
0.0
 10
244.8005238738923
 20
153.8943883657626
 30
0.0
 10
244.8515433720948
 20
154.3983658550898
 30
0.0
 10
244.9358646451655
 20
154.8937798173427
 30
0.0
 10
245.0534854923741
 20
155.3792753726197
 30
0.0
 10
245.2025470478383
 20
155.8479889502553
 30
0.0
 10
245.3834106531235
 20
156.3003581833696
 30
0.0
 10
245.5927835375717
 20
156.7284710577452
 30
0.0
 10
245.8316687964059
 20
157.13401512608
 30
0.0
 10
246.0952466868001
 20
157.5087813054382
 30
0.0
 10
246.3851880092741
 20
157.8550906274958
 30
0.0
 10
246.6953888421639
 20
158.1652459755346
 30
0.0
 10
247.0278437933716
 20
158.4415546021444
 30
0.0
 10
247.3757633571304
 20
158.677521402935
 30
0.0
 10
247.7407627089794
 20
158.8750095735408
 30
0.0
 10
248.1162191777717
 20
159.0290972938257
 30
0.0
 10
248.5024491900436
 20
159.1412381244238
 30
0.0
 10
248.8293704478796
 20
159.1969701702376
 30
0.0
 10
249.0924065249179
 20
159.2196887438957
 30
0.0
 10
249.2893264989463
 20
159.2251467576967
 30
0.0
 10
249.4863450253161
 20
159.2201320409101
 30
0.0
 10
249.6171174945111
 20
159.2073230033758
 30
0.0
 10
249.6826072475645
 20
159.2009083486324
 30
0.0
 11
249.6826072475646
 21
159.2009083486324
 31
0.0
 11
250.0746649070599
 21
159.1338340255754
 31
0.0
 11
250.4567071791941
 21
159.0234588754691
 31
0.0
 11
250.8349912413131
 21
158.8683141385526
 31
0.0
 11
251.1947083348085
 21
158.6743076783951
 31
0.0
 11
251.5468346273552
 21
158.4358380437474
 31
0.0
 11
251.8740871183128
 21
158.1645154920627
 31
0.0
 11
252.1887574483179
 21
157.8504241486986
 31
0.0
 11
252.4743917783018
 21
157.5099221978316
 31
0.0
 11
252.7418056232501
 21
157.1303574264484
 31
0.0
 11
252.9776732669898
 21
156.7305730633529
 31
0.0
 11
253.1897669536604
 21
156.2976269232609
 31
0.0
 11
253.368910887506
 21
155.8501400866556
 31
0.0
 11
253.5195014481468
 21
155.3773913179855
 31
0.0
 11
253.6364163205133
 21
154.8952698192899
 31
0.0
 11
253.7213043398069
 21
154.3973408482432
 31
0.0
 11
253.772184637694
 21
153.8948257445926
 31
0.0
 11
253.7892172485647
 21
153.3869320338599
 31
0.0
 11
253.7721479981276
 21
152.8790395531861
 31
0.0
 11
253.7212314488139
 21
152.3765281213617
 31
0.0
 11
253.6363075091014
 21
151.8786052754559
 31
0.0
 11
253.5193578565729
 21
151.3964922122856
 31
0.0
 11
253.3687331915748
 21
150.923754308489
 31
0.0
 11
253.189556976862
 21
150.4762803965418
 31
0.0
 11
252.9774320607974
 21
150.0433495580794
 31
0.0
 11
252.7415355744366
 21
149.6435822115751
 31
0.0
 11
252.474094332306
 21
149.2640367324542
 31
0.0
 11
252.1884354537598
 21
148.9235553882428
 31
0.0
 11
251.8737425530379
 21
148.6094867462828
 31
0.0
 11
251.5464704098868
 21
148.3381878032215
 31
0.0
 11
251.1943264397758
 21
148.0997435706849
 31
0.0
 11
250.8345957933649
 21
147.905763062049
 31
0.0
 11
250.4563031592518
 21
147.7506456205467
 31
0.0
 11
250.0742504193728
 21
147.6402980261048
 31
0.0
 11
249.682173189153
 21
147.5732519554643
 31
0.0
 11
249.2890067370296
 21
147.5507855857212
 31
0.0
 11
248.8958419066594
 21
147.5732803185417
 31
0.0
 11
248.5037695141818
 21
147.6403546735669
 31
0.0
 11
248.1217247358027
 21
147.7507298291113
 31
0.0
 11
247.743443292889
 21
147.9058745603446
 31
0.0
 11
247.383726641222
 21
148.0998810195434
 31
0.0
 11
247.0315998734589
 21
148.3383506552222
 31
0.0
 11
246.7043473027356
 21
148.6096732070793
 31
0.0
 11
246.3896770598352
 21
148.923764550255
 31
0.0
 11
246.1040427444758
 21
149.264266501094
 31
0.0
 11
245.8366288835282
 21
149.6438312725079
 31
0.0
 11
245.6007612369469
 21
150.0436156355869
 31
0.0
 11
245.388667553356
 21
150.4765617756967
 31
0.0
 11
245.2095236209875
 21
150.924048612439
 31
0.0
 11
245.0589330587855
 21
151.3967973809649
 31
0.0
 11
244.9420181803446
 21
151.8789188788234
 31
0.0
 11
244.8571393259554
 21
152.3767803650897
 31
0.0
 11
244.8062590469806
 21
152.8792267507303
 31
0.0
 11
244.7892172547132
 21
153.3871198425914
 31
0.0
 11
244.8062773237983
 21
153.8950129426327
 31
0.0
 11
244.8571938951348
 21
154.397593092631
 31
0.0
 11
244.942127003994
 21
154.8955834226558
 31
0.0
 11
245.05907665045
 21
155.3776964866647
 31
0.0
 11
245.2097013138857
 21
155.8504343906131
 31
0.0
 11
245.3888775300765
 21
156.2979083024161
 31
0.0
 11
245.6010024492284
 21
156.7308391408182
 31
0.0
 11
245.8368989327408
 21
157.1306064873785
 31
0.0
 11
246.1043401588304
 21
157.5101519667024
 31
0.0
 11
246.3899990520389
 21
157.8506333107281
 31
0.0
 11
246.7046920400919
 21
158.164701951601
 31
0.0
 11
247.0319641032701
 21
158.4360008956578
 31
0.0
 11
247.3841075969301
 21
158.6744451341218
 31
0.0
 11
247.7438386863173
 21
158.8684256372467
 31
0.0
 11
248.1221339464409
 21
159.0235430460796
 31
0.0
 11
248.5041332075645
 21
159.1338789921358
 31
0.0
 11
248.8961420639533
 21
159.200924969659
 31
0.0
 11
249.0927233331604
 21
159.2177841426231
 31
0.0
 11
249.2893225117183
 21
159.2234031154493
 31
0.0
 11
249.4859739091151
 21
159.2177788599739
 31
0.0
 11
249.6826072475645
 21
159.2009083486324
 31
0.0
  0
SPLINE
  5
11F
330
4A
100
AcDbEntity
  8
1
  6
Continuous
 62
     7
100
AcDbSpline
210
0.0
220
0.0
230
1.0
 70
    11
 71
     3
 72
    81
 73
    77
 74
    75
 42
0.000000001
 43
0.0000000001
 44
0.00000001
 40
0.0
 40
0.0
 40
0.0
 40
0.0
 40
0.2612987235853291
 40
0.5224450383061057
 40
0.797895065634541
 40
1.073089808585037
 40
1.368851885082664
 40
1.664381550109866
 40
1.983354245919467
 40
2.302148895310682
 40
2.644149872237953
 40
2.986027002157047
 40
3.348372452979172
 40
3.710636957164493
 40
4.088775582850309
 40
4.466865875237247
 40
4.854969894387061
 40
5.24305137838558
 40
5.634551098531079
 40
6.026050818676453
 40
6.414132302667039
 40
6.802236321777748
 40
7.180326614191728
 40
7.558465240166949
 40
7.920729743972594
 40
8.283075192260398
 40
8.624952324672266
 40
8.966953319201073
 40
9.285747951196814
 40
9.60472052981906
 40
9.900250305604045
 40
10.19601311768697
 40
10.47120716521865
 40
10.74665272261361
 40
11.00780335113393
 40
11.26912860649911
 40
11.52530138359045
 40
11.78147416068052
 40
12.04279941604223
 40
12.30395004455719
 40
12.57939560194484
 40
12.85458964946802
 40
13.15035246154107
 40
13.44588223731588
 40
13.76485481592708
 40
14.08364944791183
 40
14.42565044242985
 40
14.76752757483236
 40
15.12987302310846
 40
15.49213752689927
 40
15.87027615286851
 40
16.24836644528762
 40
16.63646963817724
 40
17.02455029333694
 40
17.41605001080083
 40
17.8075497336143
 40
18.19563204643033
 40
18.58373689178775
 40
18.96182718415647
 40
19.33996580983496
 40
19.70223031402185
 40
20.06457576484158
 40
20.40645289475569
 40
20.74845387167726
 40
21.067248521059
 40
21.38622121685043
 40
21.68175088184799
 40
21.97751295828208
 40
22.25270770111691
 40
22.52815772819717
 40
22.78930351052584
 40
23.05060170091964
 40
23.17905893394425
 40
23.30695012504716
 40
23.43484185008278
 40
23.56329961507141
 40
23.56329961507141
 40
23.56329961507141
 40
23.56329961507141
 10
253.771705417593
 20
141.8731227859726
 30
0.0
 10
253.7566972756165
 20
141.7871886956164
 30
0.0
 10
253.7266897538284
 20
141.6153706364778
 30
0.0
 10
253.6371495960178
 20
141.3637551278316
 30
0.0
 10
253.5182786623734
 20
141.1201214651031
 30
0.0
 10
253.3646383735204
 20
140.8827245155986
 30
0.0
 10
253.1825131505465
 20
140.6578909360029
 30
0.0
 10
252.9685405863575
 20
140.4421237337666
 30
0.0
 10
252.7297396495882
 20
140.2420710707175
 30
0.0
 10
252.4621965786372
 20
140.0541617410121
 30
0.0
 10
252.1739822060176
 20
139.8842589769208
 30
0.0
 10
251.8611112949534
 20
139.7295641363861
 30
0.0
 10
251.5319419496421
 20
139.5945627146316
 30
0.0
 10
251.183242581042
 20
139.477496313998
 30
0.0
 10
250.8227745632071
 20
139.3813362246001
 30
0.0
 10
250.448776552007
 20
139.3052300527965
 30
0.0
 10
250.0676629176475
 20
139.2508247927349
 30
0.0
 10
249.6796291107165
 20
139.2178077716314
 30
0.0
 10
249.289213947854
 20
139.2068867598434
 30
0.0
 10
248.8987988097686
 20
139.2178086576923
 30
0.0
 10
248.5107650778219
 20
139.2508265593993
 30
0.0
 10
248.1296515667703
 20
139.3052326840239
 30
0.0
 10
247.7556537286216
 20
139.3813397045942
 30
0.0
 10
247.3951859277324
 20
139.4775006133871
 30
0.0
 10
247.0464868318795
 20
139.5945678060494
 30
0.0
 10
246.7173177679061
 20
139.7295699635388
 30
0.0
 10
246.4044472791103
 20
139.8842655265809
 30
0.0
 10
246.1162330324707
 20
140.0541689444723
 30
0.0
 10
245.8486914028392
 20
140.2420789938665
 30
0.0
 10
245.609887292719
 20
140.4421315528066
 30
0.0
 10
245.3959272011298
 20
140.6579010957695
 30
0.0
 10
245.2137594450826
 20
140.8827297093744
 30
0.0
 10
245.0602728393569
 20
141.1201465410238
 30
0.0
 10
244.9408489293155
 20
141.3637030647884
 30
0.0
 10
244.8532615285026
 20
141.6155961444526
 30
0.0
 10
244.8013810811445
 20
141.8706906994324
 30
0.0
 10
244.7831957643356
 20
142.1287332890734
 30
0.0
 10
244.8013816667621
 20
142.3867758374418
 30
0.0
 10
244.8532626930471
 20
142.6418702746769
 30
0.0
 10
244.9408506655215
 20
142.8937631555586
 30
0.0
 10
245.0602751283049
 20
143.1373194082867
 30
0.0
 10
245.2137622728387
 20
143.3747358915934
 30
0.0
 10
245.3959305391254
 20
143.5995640917627
 30
0.0
 10
245.6098911203947
 20
143.8153331491362
 30
0.0
 10
245.8486956845259
 20
144.0153851661024
 30
0.0
 10
246.1162377406118
 20
144.2032946083014
 30
0.0
 10
246.4044523728398
 20
144.3731973720804
 30
0.0
 10
246.717323212708
 20
144.5278922250567
 30
0.0
 10
247.0464925830598
 20
144.6628936354804
 30
0.0
 10
247.3951919446018
 20
144.7799600367434
 30
0.0
 10
247.755659963715
 20
144.8761201273715
 30
0.0
 10
248.1296577045563
 20
144.9522262446085
 30
0.0
 10
248.5107707883272
 20
145.0066314495067
 30
0.0
 10
248.8988040374063
 20
145.0396484940041
 30
0.0
 10
249.2892189214373
 20
145.0505695917055
 30
0.0
 10
249.6796343383476
 20
145.0396477797686
 30
0.0
 10
250.0676686280991
 20
145.0066299014431
 30
0.0
 10
250.4487826898492
 20
144.9522237216585
 30
0.0
 10
250.8227807978842
 20
144.8761166464483
 30
0.0
 10
251.1832485991446
 20
144.7799557390767
 30
0.0
 10
251.5319476960592
 20
144.6628885462719
 30
0.0
 10
251.8611167566528
 20
144.5278863801535
 30
0.0
 10
252.1739872400399
 20
144.3731908199063
 30
0.0
 10
252.4622015029964
 20
144.2032874363624
 30
0.0
 10
252.7297431839277
 20
144.0153773783638
 30
0.0
 10
252.9685471235561
 20
143.8153246077449
 30
0.0
 10
253.1825071945013
 20
143.5995554115018
 30
0.0
 10
253.3646749824418
 20
143.3747268316872
 30
0.0
 10
253.5181645331686
 20
143.1373106589995
 30
0.0
 10
253.6375776670644
 20
142.8937451006754
 30
0.0
 10
253.7251904923858
 20
142.6418876242556
 30
0.0
 10
253.7684830762778
 20
142.4285660870249
 30
0.0
 10
253.7863273142561
 20
142.2568322141406
 30
0.0
 10
253.7905749265031
 20
142.1287360505785
 30
0.0
 10
253.7866645309935
 20
142.0005670544618
 30
0.0
 10
253.7766991206148
 20
141.9156666980195
 30
0.0
 10
253.771705417593
 20
141.8731227859726
 30
0.0
 11
253.771705417593
 21
141.8731227859726
 31
0.0
 11
253.7195214405214
 21
141.6170879065275
 31
0.0
 11
253.6344069222707
 21
141.3702014640072
 31
0.0
 11
253.5134062378048
 21
141.122751364806
 31
0.0
 11
253.3645692699212
 21
140.8912784649508
 31
0.0
 11
253.1787838318423
 21
140.6611502902971
 31
0.0
 11
252.9710947441682
 21
140.4509051341311
 31
0.0
 11
252.7269502186875
 21
140.2456320689544
 31
0.0
 11
252.4663220747761
 21
140.0620483032222
 31
0.0
 11
252.1719623315676
 21
139.8879304989441
 31
0.0
 11
251.8656389171758
 21
139.7361216133743
 31
0.0
 11
251.5305469400848
 21
139.5982535873213
 31
0.0
 11
251.1871861004147
 21
139.4827594109901
 31
0.0
 11
250.8218993631719
 21
139.3850126983806
 31
0.0
 11
250.4514243935233
 21
139.3095106053016
 31
0.0
 11
250.0672412040218
 21
139.2544832795054
 31
0.0
 11
249.6805583235334
 21
139.2215653792048
 31
0.0
 11
249.28921394206
 21
139.2105378697569
 31
0.0
 11
248.8978695856147
 21
139.2215662674084
 31
0.0
 11
248.5111867798347
 21
139.2544850452457
 31
0.0
 11
248.1270037152192
 21
139.3095132427316
 31
0.0
 11
247.7565289169242
 21
139.3850161768099
 31
0.0
 11
247.3912424015193
 21
139.4827637196436
 31
0.0
 11
247.0478818239651
 21
139.5982586741436
 31
0.0
 11
246.7127901597672
 21
139.7361274541536
 31
0.0
 11
246.4064670899081
 21
139.8879370406874
 31
0.0
 11
246.1121077418637
 21
140.0620555477752
 31
0.0
 11
245.8514800145965
 21
140.2456398750072
 31
0.0
 11
245.6073359549777
 21
140.4509133124297
 31
0.0
 11
245.399647344464
 21
140.6611590959458
 31
0.0
 11
245.2138624287039
 21
140.891288638041
 31
0.0
 11
245.065025986115
 21
141.1227610493845
 31
0.0
 11
244.9440258630261
 21
141.3702064481473
 31
0.0
 11
244.8589119052823
 21
141.6170976489661
 31
0.0
 11
244.8067285104449
 21
141.8731597165763
 31
0.0
 11
244.7892172534899
 21
142.1287332826521
 31
0.0
 11
244.8067290904713
 21
142.3843068089852
 31
0.0
 11
244.8589130664434
 21
142.640368758164
 31
0.0
 11
244.9440275845088
 21
142.8872597658154
 31
0.0
 11
245.0650282691768
 21
143.1347048899668
 31
0.0
 11
245.2138652370938
 21
143.3661769635241
 31
0.0
 11
245.3996506751344
 21
143.5963060839782
 31
0.0
 11
245.6073397628021
 21
143.8065513961427
 31
0.0
 11
245.8514842882901
 21
144.0118242794776
 31
0.0
 11
246.1121124322028
 21
144.1954080152119
 31
0.0
 11
246.4064721754098
 21
144.3695258542489
 31
0.0
 11
246.712795589801
 21
144.5213347455829
 31
0.0
 11
247.0478875668927
 21
144.6592027650954
 31
0.0
 11
247.3912484065647
 21
144.7746969403145
 31
0.0
 11
247.7565351438055
 21
144.8724436541493
 31
0.0
 11
248.1270101134424
 21
144.9479457475599
 31
0.0
 11
248.5111924817377
 21
145.0029729793159
 31
0.0
 11
248.8978745304263
 21
145.0358908793262
 31
0.0
 11
249.2892189065771
 21
145.0469184827609
 31
0.0
 11
249.6805632683452
 21
145.0358901790963
 31
0.0
 11
250.0672469059251
 21
145.002971400967
 31
0.0
 11
250.4514307917464
 21
144.9479431094391
 31
0.0
 11
250.8219055900531
 21
144.8724401756923
 31
0.0
 11
251.1871921054601
 21
144.7746926340841
 31
0.0
 11
251.5305526830123
 21
144.6591976784721
 31
0.0
 11
251.8656443472093
 21
144.5213288919215
 31
0.0
 11
252.1719674170693
 21
144.3695193111521
 31
0.0
 11
252.4663267651167
 21
144.1954008388245
 31
0.0
 11
252.7269544923814
 21
144.0118164815934
 31
0.0
 11
252.9710985519849
 21
143.8065428623219
 31
0.0
 11
253.1787871625117
 21
143.5962972348104
 31
0.0
 11
253.3645720783513
 21
143.3661686385527
 31
0.0
 11
253.5134085208708
 21
143.1346954008791
 31
0.0
 11
253.6344086435418
 21
142.8872450268719
 31
0.0
 11
253.7195224615932
 21
142.6403589044622
 31
0.0
 11
253.7717058530163
 21
142.3843244580773
 31
0.0
 11
253.7848394381774
 21
142.2565403840836
 31
0.0
 11
253.7892172534885
 21
142.128724143573
 31
0.0
 11
253.7848392597076
 21
142.0009073762711
 31
0.0
 11
253.771705417593
 21
141.8731227859726
 31
0.0
  0
SPLINE
  5
120
330
4A
100
AcDbEntity
  8
1
  6
Continuous
 62
     7
100
AcDbSpline
210
0.0
220
0.0
230
1.0
 70
    11
 71
     3
 72
    81
 73
    77
 74
    75
 42
0.000000001
 43
0.0000000001
 44
0.00000001
 40
0.0
 40
0.0
 40
0.0
 40
0.0
 40
0.2612987235853126
 40
0.5224450383060891
 40
0.797895065634588
 40
1.07308980858506
 40
1.368851885082669
 40
1.664381550109852
 40
1.983354245919372
 40
2.302148895310627
 40
2.644149872237951
 40
2.98602700215702
 40
3.348372452979156
 40
3.710636957164423
 40
4.088775582850321
 40
4.466865875237259
 40
4.854969894387049
 40
5.243051378385542
 40
5.634551098530984
 40
6.026050818676417
 40
6.414132302666952
 40
6.802236321777706
 40
7.180326614191618
 40
7.558465240166846
 40
7.920729743972466
 40
8.283075192260284
 40
8.624952324672128
 40
8.966953319201018
 40
9.285747951196793
 40
9.60472052981899
 40
9.900250305603997
 40
10.19601311768691
 40
10.47120716521856
 40
10.74665272261355
 40
11.00780335113386
 40
11.26912860649905
 40
11.52530138359036
 40
11.78147416068044
 40
12.04279941604217
 40
12.30395004455709
 40
12.57939560194478
 40
12.854589649468
 40
13.15035246154112
 40
13.44588223731594
 40
13.76485481592709
 40
14.08364944791185
 40
14.42565044242983
 40
14.76752757483235
 40
15.12987302310839
 40
15.49213752689922
 40
15.87027615286853
 40
16.24836644528761
 40
16.63646963817721
 40
17.02455029333685
 40
17.41605001080076
 40
17.80754973361421
 40
18.19563204643026
 40
18.58373689178769
 40
18.96182718415641
 40
19.33996580983494
 40
19.70223031402188
 40
20.06457576484157
 40
20.40645289475561
 40
20.74845387167716
 40
21.06724852105892
 40
21.38622121685033
 40
21.68175088184791
 40
21.97751295828198
 40
22.25270770111677
 40
22.52815772819702
 40
22.78930351052569
 40
23.05060170091956
 40
23.17905893394418
 40
23.30695012504711
 40
23.43484185008274
 40
23.56329961507137
 40
23.56329961507137
 40
23.56329961507137
 40
23.56329961507137
 10
183.8067290893846
 20
164.9010659129837
 30
0.0
 10
183.8217372313611
 20
164.9870000033399
 30
0.0
 10
183.8517447531493
 20
165.1588180624785
 30
0.0
 10
183.9412849109598
 20
165.4104335711246
 30
0.0
 10
184.0601558446043
 20
165.6540672338533
 30
0.0
 10
184.2137961334572
 20
165.8914641833576
 30
0.0
 10
184.3959213564312
 20
166.1162977629535
 30
0.0
 10
184.6098939206202
 20
166.3320649651896
 30
0.0
 10
184.8486948573894
 20
166.5321176282387
 30
0.0
 10
185.1162379283405
 20
166.7200269579442
 30
0.0
 10
185.40445230096
 20
166.8899297220355
 30
0.0
 10
185.7173232120242
 20
167.0446245625702
 30
0.0
 10
186.0464925573356
 20
167.1796259843248
 30
0.0
 10
186.3951919259357
 20
167.2966923849582
 30
0.0
 10
186.7556599437706
 20
167.3928524743561
 30
0.0
 10
187.1296579549706
 20
167.4689586461598
 30
0.0
 10
187.5107715893302
 20
167.5233639062213
 30
0.0
 10
187.8988053962611
 20
167.5563809273249
 30
0.0
 10
188.2892205591237
 20
167.567301939113
 30
0.0
 10
188.679635697209
 20
167.5563800412639
 30
0.0
 10
189.0676694291558
 20
167.5233621395568
 30
0.0
 10
189.4487829402072
 20
167.4689560149323
 30
0.0
 10
189.822780778356
 20
167.3928489943622
 30
0.0
 10
190.1832485792451
 20
167.2966880855691
 30
0.0
 10
190.5319476750981
 20
167.1796208929069
 30
0.0
 10
190.8611167390715
 20
167.0446187354175
 30
0.0
 10
191.1739872278673
 20
166.8899231723753
 30
0.0
 10
191.4622014745069
 20
166.7200197544841
 30
0.0
 10
191.7297431041385
 20
166.5321097050899
 30
0.0
 10
191.9685472142586
 20
166.3320571461495
 30
0.0
 10
192.1825073058478
 20
166.1162876031868
 30
0.0
 10
192.364675061895
 20
165.8914589895818
 30
0.0
 10
192.5181616676209
 20
165.6540421579325
 30
0.0
 10
192.6375855776622
 20
165.4104856341679
 30
0.0
 10
192.7251729784752
 20
165.1585925545037
 30
0.0
 10
192.7770534258331
 20
164.9034979995238
 30
0.0
 10
192.7952387426422
 20
164.6454554098829
 30
0.0
 10
192.7770528402155
 20
164.3874128615145
 30
0.0
 10
192.7251718139305
 20
164.1323184242794
 30
0.0
 10
192.6375838414562
 20
163.8804255433977
 30
0.0
 10
192.5181593786727
 20
163.6368692906696
 30
0.0
 10
192.364672234139
 20
163.3994528073629
 30
0.0
 10
192.1825039678523
 20
163.1746246071935
 30
0.0
 10
191.9685433865828
 20
162.95885554982
 30
0.0
 10
191.7297388224517
 20
162.7588035328538
 30
0.0
 10
191.4621967663658
 20
162.5708940906548
 30
0.0
 10
191.1739821341378
 20
162.400991326876
 30
0.0
 10
190.8611112942696
 20
162.2462964738996
 30
0.0
 10
190.5319419239179
 20
162.1112950634759
 30
0.0
 10
190.1832425623758
 20
161.9942286622128
 30
0.0
 10
189.8227745432627
 20
161.8980685715849
 30
0.0
 10
189.4487768024213
 20
161.8219624543477
 30
0.0
 10
189.0676637186505
 20
161.7675572494495
 30
0.0
 10
188.6796304695714
 20
161.7345402049521
 30
0.0
 10
188.2892155855403
 20
161.7236191072508
 30
0.0
 10
187.8988001686301
 20
161.7345409191877
 30
0.0
 10
187.5107658788786
 20
161.7675587975132
 30
0.0
 10
187.1296518171285
 20
161.8219649772979
 30
0.0
 10
186.7556537090934
 20
161.898072052508
 30
0.0
 10
186.3951859078331
 20
161.9942329598796
 30
0.0
 10
186.0464868109183
 20
162.1113001526844
 30
0.0
 10
185.7173177503248
 20
162.2463023188028
 30
0.0
 10
185.4044472669378
 20
162.40099787905
 30
0.0
 10
185.1162330039813
 20
162.5709012625938
 30
0.0
 10
184.84869132305
 20
162.7588113205926
 30
0.0
 10
184.6098873834215
 20
162.9588640912114
 30
0.0
 10
184.3959273124765
 20
163.1746332874545
 30
0.0
 10
184.2137595245358
 20
163.3994618672691
 30
0.0
 10
184.0602699738092
 20
163.6368780399568
 30
0.0
 10
183.9408568399132
 20
163.8804435982807
 30
0.0
 10
183.853244014592
 20
164.1323010747007
 30
0.0
 10
183.8099514306998
 20
164.3456226119313
 30
0.0
 10
183.7921071927215
 20
164.5173564848157
 30
0.0
 10
183.7878595804745
 20
164.6454526483778
 30
0.0
 10
183.7917699759841
 20
164.7736216444944
 30
0.0
 10
183.801735386363
 20
164.8585220009369
 30
0.0
 10
183.8067290893846
 20
164.9010659129837
 30
0.0
 11
183.8067290893846
 21
164.9010659129837
 31
0.0
 11
183.8589130664562
 21
165.1571007924287
 31
0.0
 11
183.944027584707
 21
165.4039872349491
 31
0.0
 11
184.065028269173
 21
165.6514373341504
 31
0.0
 11
184.2138652370565
 21
165.8829102340055
 31
0.0
 11
184.3996506751354
 21
166.1130384086592
 31
0.0
 11
184.6073397628095
 21
166.3232835648252
 31
0.0
 11
184.8514842882901
 21
166.5285566300018
 31
0.0
 11
185.1121124322016
 21
166.7121403957341
 31
0.0
 11
185.4064721754101
 21
166.8862582000122
 31
0.0
 11
185.7127955898018
 21
167.038067085582
 31
0.0
 11
186.0478875668929
 21
167.175935111635
 31
0.0
 11
186.3912484065629
 21
167.2914292879661
 31
0.0
 11
186.7565351438058
 21
167.3891760005756
 31
0.0
 11
187.1270101134544
 21
167.4646780936546
 31
0.0
 11
187.5111933029559
 21
167.5197054194509
 31
0.0
 11
187.8978761834443
 21
167.5526233197515
 31
0.0
 11
188.2892205649176
 21
167.5636508291994
 31
0.0
 11
188.6805649213629
 21
167.5526224315478
 31
0.0
 11
189.0672477271429
 21
167.5197036537105
 31
0.0
 11
189.4514307917584
 21
167.4646754562247
 31
0.0
 11
189.8219055900534
 21
167.3891725221464
 31
0.0
 11
190.1871921054583
 21
167.2914249793126
 31
0.0
 11
190.5305526830125
 21
167.1759300248126
 31
0.0
 11
190.8656443472104
 21
167.0380612448027
 31
0.0
 11
191.1719674170695
 21
166.8862516582689
 31
0.0
 11
191.466326765114
 21
166.7121331511811
 31
0.0
 11
191.7269544923811
 21
166.5285488239491
 31
0.0
 11
191.9710985519999
 21
166.3232753865266
 31
0.0
 11
192.1787871625136
 21
166.1130296030104
 31
0.0
 11
192.3645720782738
 21
165.8829000609153
 31
0.0
 11
192.5134085208627
 21
165.6514276495718
 31
0.0
 11
192.6344086439516
 21
165.403982250809
 31
0.0
 11
192.7195226016955
 21
165.1570910499902
 31
0.0
 11
192.7717059965327
 21
164.90102898238
 31
0.0
 11
192.7892172534878
 21
164.6454554163042
 31
0.0
 11
192.7717054165064
 21
164.3898818899711
 31
0.0
 11
192.7195214405342
 21
164.1338199407923
 31
0.0
 11
192.6344069224689
 21
163.8869289331409
 31
0.0
 11
192.5134062378009
 21
163.6394838089895
 31
0.0
 11
192.3645692698838
 21
163.4080117354322
 31
0.0
 11
192.1787838318432
 21
163.177882614978
 31
0.0
 11
191.9710947441755
 21
162.9676373028135
 31
0.0
 11
191.7269502186875
 21
162.7623644194787
 31
0.0
 11
191.4663220747748
 21
162.5787806837444
 31
0.0
 11
191.1719623315678
 21
162.4046628447074
 31
0.0
 11
190.8656389171766
 21
162.2528539533734
 31
0.0
 11
190.5305469400849
 21
162.1149859338609
 31
0.0
 11
190.1871861004129
 21
161.9994917586419
 31
0.0
 11
189.8218993631721
 21
161.901745044807
 31
0.0
 11
189.4514243935352
 21
161.8262429513963
 31
0.0
 11
189.0672420252399
 21
161.7712157196403
 31
0.0
 11
188.6805599765514
 21
161.73829781963
 31
0.0
 11
188.2892156004006
 21
161.7272702161954
 31
0.0
 11
187.8978712386325
 21
161.7382985198601
 31
0.0
 11
187.5111876010526
 21
161.7712172979893
 31
0.0
 11
187.1270037152313
 21
161.8262455895172
 31
0.0
 11
186.7565289169245
 21
161.901748523264
 31
0.0
 11
186.3912424015175
 21
161.9994960648722
 31
0.0
 11
186.0478818239652
 21
162.1149910204841
 31
0.0
 11
185.7127901597683
 21
162.2528598070348
 31
0.0
 11
185.4064670899084
 21
162.4046693878042
 31
0.0
 11
185.112107741861
 21
162.5787878601318
 31
0.0
 11
184.8514800145963
 21
162.7623722173629
 31
0.0
 11
184.6073359549928
 21
162.9676458366344
 31
0.0
 11
184.399647344466
 21
163.1778914641459
 31
0.0
 11
184.2138624286264
 21
163.4080200604036
 31
0.0
 11
184.0650259861069
 21
163.6394932980772
 31
0.0
 11
183.9440258634359
 21
163.8869436720843
 31
0.0
 11
183.8589120453845
 21
164.133829794494
 31
0.0
 11
183.8067286539613
 21
164.3898642408789
 31
0.0
 11
183.7935950688001
 21
164.5176483148726
 31
0.0
 11
183.7892172534891
 21
164.6454645553833
 31
0.0
 11
183.7935952472701
 21
164.7732813226852
 31
0.0
 11
183.8067290893846
 21
164.9010659129837
 31
0.0
  0
SPLINE
  5
121
330
4A
100
AcDbEntity
  8
1
  6
Continuous
 62
     7
100
AcDbSpline
210
0.0
220
0.0
230
1.0
 70
    11
 71
     3
 72
    81
 73
    77
 74
    75
 42
0.000000001
 43
0.0000000001
 44
0.00000001
 40
0.0
 40
0.0
 40
0.0
 40
0.0
 40
0.2612987235853405
 40
0.522445038306117
 40
0.7978950656345649
 40
1.073089808585061
 40
1.36885188508267
 40
1.664381550109873
 40
1.98335424591943
 40
2.302148895310669
 40
2.644149872237964
 40
2.986027002157032
 40
3.348372452979158
 40
3.710636957164452
 40
4.08877558285035
 40
4.466865875237288
 40
4.854969894387073
 40
5.243051378385564
 40
5.634551098531007
 40
6.026050818676437
 40
6.414132302666967
 40
6.802236321777733
 40
7.180326614191658
 40
7.558465240166878
 40
7.920729743972498
 40
8.283075192260327
 40
8.62495232467217
 40
8.966953319201075
 40
9.285747951196816
 40
9.604720529818996
 40
9.900250305603981
 40
10.19601311768694
 40
10.47120716521864
 40
10.7466527226136
 40
11.00780335113394
 40
11.2691286064991
 40
11.52530138359044
 40
11.78147416068052
 40
12.04279941604223
 40
12.30395004455717
 40
12.57939560194484
 40
12.85458964946803
 40
13.1503524615411
 40
13.44588223731595
 40
13.76485481592713
 40
14.08364944791188
 40
14.42565044242988
 40
14.76752757483239
 40
15.12987302310844
 40
15.49213752689927
 40
15.87027615286857
 40
16.24836644528764
 40
16.63646963817724
 40
17.02455029333688
 40
17.4160500108008
 40
17.80754973361424
 40
18.1956320464303
 40
18.58373689178773
 40
18.96182718415644
 40
19.33996580983499
 40
19.70223031402193
 40
20.06457576484161
 40
20.40645289475564
 40
20.74845387167721
 40
21.06724852105895
 40
21.38622121685038
 40
21.68175088184796
 40
21.97751295828207
 40
22.25270770111687
 40
22.52815772819714
 40
22.78930351052581
 40
23.05060170091962
 40
23.17905893394424
 40
23.30695012504714
 40
23.43484185008277
 40
23.5632996150714
 40
23.5632996150714
 40
23.5632996150714
 40
23.5632996150714
 10
183.8067290893846
 20
141.8731227859726
 30
0.0
 10
183.8217372313611
 20
141.7871886956164
 30
0.0
 10
183.8517447531493
 20
141.6153706364778
 30
0.0
 10
183.9412849109598
 20
141.3637551278316
 30
0.0
 10
184.0601558446043
 20
141.120121465103
 30
0.0
 10
184.2137961334572
 20
140.8827245155987
 30
0.0
 10
184.3959213564312
 20
140.6578909360029
 30
0.0
 10
184.6098939206203
 20
140.4421237337667
 30
0.0
 10
184.8486948573894
 20
140.2420710707175
 30
0.0
 10
185.1162379283405
 20
140.0541617410121
 30
0.0
 10
185.40445230096
 20
139.8842589769208
 30
0.0
 10
185.7173232120242
 20
139.7295641363861
 30
0.0
 10
186.0464925573356
 20
139.5945627146316
 30
0.0
 10
186.3951919259357
 20
139.477496313998
 30
0.0
 10
186.7556599437706
 20
139.3813362246001
 30
0.0
 10
187.1296579549706
 20
139.3052300527965
 30
0.0
 10
187.5107715893303
 20
139.2508247927349
 30
0.0
 10
187.8988053962612
 20
139.2178077716314
 30
0.0
 10
188.2892205591237
 20
139.2068867598433
 30
0.0
 10
188.679635697209
 20
139.2178086576923
 30
0.0
 10
189.0676694291558
 20
139.2508265593993
 30
0.0
 10
189.4487829402072
 20
139.3052326840239
 30
0.0
 10
189.822780778356
 20
139.3813397045942
 30
0.0
 10
190.1832485792451
 20
139.4775006133871
 30
0.0
 10
190.5319476750983
 20
139.5945678060494
 30
0.0
 10
190.8611167390715
 20
139.7295699635387
 30
0.0
 10
191.1739872278673
 20
139.884265526581
 30
0.0
 10
191.4622014745069
 20
140.0541689444723
 30
0.0
 10
191.7297431041385
 20
140.2420789938665
 30
0.0
 10
191.9685472142587
 20
140.4421315528066
 30
0.0
 10
192.1825073058478
 20
140.6579010957695
 30
0.0
 10
192.364675061895
 20
140.8827297093744
 30
0.0
 10
192.5181616676208
 20
141.1201465410238
 30
0.0
 10
192.6375855776622
 20
141.3637030647884
 30
0.0
 10
192.7251729784752
 20
141.6155961444526
 30
0.0
 10
192.7770534258331
 20
141.8706906994324
 30
0.0
 10
192.7952387426422
 20
142.1287332890734
 30
0.0
 10
192.7770528402156
 20
142.3867758374418
 30
0.0
 10
192.7251718139305
 20
142.6418702746769
 30
0.0
 10
192.6375838414563
 20
142.8937631555586
 30
0.0
 10
192.5181593786728
 20
143.1373194082867
 30
0.0
 10
192.364672234139
 20
143.3747358915934
 30
0.0
 10
192.1825039678522
 20
143.5995640917627
 30
0.0
 10
191.9685433865828
 20
143.8153331491362
 30
0.0
 10
191.7297388224517
 20
144.0153851661025
 30
0.0
 10
191.4621967663658
 20
144.2032946083014
 30
0.0
 10
191.1739821341378
 20
144.3731973720804
 30
0.0
 10
190.8611112942695
 20
144.5278922250567
 30
0.0
 10
190.5319419239179
 20
144.6628936354804
 30
0.0
 10
190.1832425623758
 20
144.7799600367435
 30
0.0
 10
189.8227745432627
 20
144.8761201273715
 30
0.0
 10
189.4487768024214
 20
144.9522262446085
 30
0.0
 10
189.0676637186504
 20
145.0066314495068
 30
0.0
 10
188.6796304695714
 20
145.0396484940041
 30
0.0
 10
188.2892155855403
 20
145.0505695917055
 30
0.0
 10
187.8988001686301
 20
145.0396477797686
 30
0.0
 10
187.5107658788786
 20
145.0066299014431
 30
0.0
 10
187.1296518171285
 20
144.9522237216585
 30
0.0
 10
186.7556537090933
 20
144.8761166464483
 30
0.0
 10
186.3951859078331
 20
144.7799557390767
 30
0.0
 10
186.0464868109183
 20
144.6628885462719
 30
0.0
 10
185.7173177503248
 20
144.5278863801535
 30
0.0
 10
185.4044472669377
 20
144.3731908199063
 30
0.0
 10
185.1162330039813
 20
144.2032874363624
 30
0.0
 10
184.84869132305
 20
144.0153773783638
 30
0.0
 10
184.6098873834215
 20
143.8153246077449
 30
0.0
 10
184.3959273124765
 20
143.5995554115018
 30
0.0
 10
184.2137595245358
 20
143.3747268316871
 30
0.0
 10
184.0602699738092
 20
143.1373106589995
 30
0.0
 10
183.9408568399133
 20
142.8937451006754
 30
0.0
 10
183.8532440145918
 20
142.6418876242555
 30
0.0
 10
183.8099514306998
 20
142.4285660870249
 30
0.0
 10
183.7921071927215
 20
142.2568322141407
 30
0.0
 10
183.7878595804745
 20
142.1287360505785
 30
0.0
 10
183.7917699759841
 20
142.0005670544618
 30
0.0
 10
183.801735386363
 20
141.9156666980195
 30
0.0
 10
183.8067290893846
 20
141.8731227859726
 30
0.0
 11
183.8067290893846
 21
141.8731227859726
 31
0.0
 11
183.8589130664562
 21
141.6170879065275
 31
0.0
 11
183.944027584707
 21
141.3702014640072
 31
0.0
 11
184.065028269173
 21
141.122751364806
 31
0.0
 11
184.2138652370565
 21
140.8912784649508
 31
0.0
 11
184.3996506751354
 21
140.6611502902971
 31
0.0
 11
184.6073397628095
 21
140.4509051341311
 31
0.0
 11
184.8514842882901
 21
140.2456320689544
 31
0.0
 11
185.1121124322016
 21
140.0620483032222
 31
0.0
 11
185.4064721754101
 21
139.8879304989441
 31
0.0
 11
185.7127955898018
 21
139.7361216133743
 31
0.0
 11
186.0478875668929
 21
139.5982535873213
 31
0.0
 11
186.3912484065629
 21
139.4827594109901
 31
0.0
 11
186.7565351438058
 21
139.3850126983806
 31
0.0
 11
187.1270101134544
 21
139.3095106053016
 31
0.0
 11
187.5111933029559
 21
139.2544832795054
 31
0.0
 11
187.8978761834443
 21
139.2215653792048
 31
0.0
 11
188.2892205649176
 21
139.2105378697569
 31
0.0
 11
188.6805649213629
 21
139.2215662674084
 31
0.0
 11
189.0672477271429
 21
139.2544850452457
 31
0.0
 11
189.4514307917584
 21
139.3095132427316
 31
0.0
 11
189.8219055900534
 21
139.3850161768099
 31
0.0
 11
190.1871921054583
 21
139.4827637196436
 31
0.0
 11
190.5305526830125
 21
139.5982586741436
 31
0.0
 11
190.8656443472104
 21
139.7361274541536
 31
0.0
 11
191.1719674170695
 21
139.8879370406874
 31
0.0
 11
191.466326765114
 21
140.0620555477752
 31
0.0
 11
191.7269544923811
 21
140.2456398750072
 31
0.0
 11
191.9710985519999
 21
140.4509133124297
 31
0.0
 11
192.1787871625136
 21
140.6611590959458
 31
0.0
 11
192.3645720782738
 21
140.891288638041
 31
0.0
 11
192.5134085208627
 21
141.1227610493845
 31
0.0
 11
192.6344086439516
 21
141.3702064481473
 31
0.0
 11
192.7195226016955
 21
141.6170976489661
 31
0.0
 11
192.7717059965327
 21
141.8731597165763
 31
0.0
 11
192.7892172534878
 21
142.1287332826521
 31
0.0
 11
192.7717054165064
 21
142.3843068089852
 31
0.0
 11
192.7195214405342
 21
142.640368758164
 31
0.0
 11
192.6344069224689
 21
142.8872597658154
 31
0.0
 11
192.5134062378009
 21
143.1347048899668
 31
0.0
 11
192.3645692698838
 21
143.3661769635241
 31
0.0
 11
192.1787838318432
 21
143.5963060839782
 31
0.0
 11
191.9710947441755
 21
143.8065513961427
 31
0.0
 11
191.7269502186875
 21
144.0118242794776
 31
0.0
 11
191.4663220747748
 21
144.1954080152119
 31
0.0
 11
191.1719623315678
 21
144.3695258542489
 31
0.0
 11
190.8656389171766
 21
144.5213347455829
 31
0.0
 11
190.5305469400849
 21
144.6592027650954
 31
0.0
 11
190.1871861004129
 21
144.7746969403145
 31
0.0
 11
189.8218993631721
 21
144.8724436541493
 31
0.0
 11
189.4514243935352
 21
144.9479457475599
 31
0.0
 11
189.0672420252399
 21
145.0029729793159
 31
0.0
 11
188.6805599765514
 21
145.0358908793262
 31
0.0
 11
188.2892156004006
 21
145.0469184827609
 31
0.0
 11
187.8978712386325
 21
145.0358901790963
 31
0.0
 11
187.5111876010526
 21
145.002971400967
 31
0.0
 11
187.1270037152313
 21
144.9479431094391
 31
0.0
 11
186.7565289169245
 21
144.8724401756923
 31
0.0
 11
186.3912424015175
 21
144.7746926340841
 31
0.0
 11
186.0478818239652
 21
144.6591976784721
 31
0.0
 11
185.7127901597683
 21
144.5213288919215
 31
0.0
 11
185.4064670899084
 21
144.3695193111521
 31
0.0
 11
185.112107741861
 21
144.1954008388245
 31
0.0
 11
184.8514800145963
 21
144.0118164815934
 31
0.0
 11
184.6073359549928
 21
143.8065428623219
 31
0.0
 11
184.399647344466
 21
143.5962972348104
 31
0.0
 11
184.2138624286264
 21
143.3661686385527
 31
0.0
 11
184.0650259861069
 21
143.1346954008791
 31
0.0
 11
183.9440258634359
 21
142.8872450268719
 31
0.0
 11
183.8589120453845
 21
142.6403589044622
 31
0.0
 11
183.8067286539613
 21
142.3843244580773
 31
0.0
 11
183.7935950688001
 21
142.2565403840836
 31
0.0
 11
183.7892172534891
 21
142.128724143573
 31
0.0
 11
183.7935952472701
 21
142.0009073762711
 31
0.0
 11
183.8067290893846
 21
141.8731227859726
 31
0.0
  0
SPLINE
  5
122
330
4A
100
AcDbEntity
  8
1
  6
Continuous
 62
     7
100
AcDbSpline
210
0.0
220
0.0
230
1.0
 70
    11
 71
     3
 72
    81
 73
    77
 74
    75
 42
0.000000001
 43
0.0000000001
 44
0.00000001
 40
0.0
 40
0.0
 40
0.0
 40
0.0
 40
0.3977539018776625
 40
0.7954208136352813
 40
1.204283530790799
 40
1.612982557184063
 40
2.038259752339415
 40
2.463359881731002
 40
2.907961713322549
 40
3.352403553248382
 40
3.816709034798508
 40
4.280886891202003
 40
4.762992784312684
 40
5.245006288256643
 40
5.741160412739172
 40
6.237255390425608
 40
6.742368482734276
 40
7.24745286588113
 40
7.755632097272917
 40
8.263811328659783
 40
8.768895711787918
 40
9.27400880405194
 40
9.770103781717857
 40
10.26625790630317
 40
10.74827140999105
 40
11.23037730172305
 40
11.69455515937942
 40
12.15886065001235
 40
12.60330248035925
 40
13.04790424995624
 40
13.47300444060186
 40
13.89828202947933
 40
14.3069806661075
 40
14.71584095710681
 40
15.11351027641694
 40
15.51127871396729
 40
15.90508653094147
 40
16.29889434791444
 40
16.69666278546141
 40
17.09433210476598
 40
17.5031923957575
 40
17.9118910323758
 40
18.33716862124289
 40
18.76226881187944
 40
19.20687058146047
 40
19.65131241177984
 40
20.11561790241117
 40
20.5797957601152
 40
21.06190165177806
 40
21.54391515521238
 40
22.04006927995931
 40
22.53616425820718
 40
23.04120928528875
 40
23.54622529809305
 40
24.05440421875635
 40
24.56258376084271
 40
25.06773651435714
 40
25.57291767172396
 40
26.06901264880057
 40
26.5651667730984
 40
27.04718027725954
 40
27.52928617037321
 40
27.9934640267271
 40
28.45776950841002
 40
28.90221134818662
 40
29.34681317901207
 40
29.7719133089373
 40
30.19719050687764
 40
30.60588953108718
 40
31.01475223972633
 40
31.41236694857821
 40
31.81006797558322
 40
32.00737085756272
 40
32.20405031780796
 40
32.40078212763481
 40
32.59813784867286
 40
32.59813784867286
 40
32.59813784867286
 40
32.59813784867286
 10
187.8958272594132
 20
159.2009083486324
 30
0.0
 10
187.7645015006226
 20
159.1816536546433
 30
0.0
 10
187.5018787033669
 20
159.1431484844932
 30
0.0
 10
187.1158852346496
 20
159.0284796034962
 30
0.0
 10
186.7403514060566
 20
158.875043895697
 30
0.0
 10
186.37538602724
 20
158.6773424515098
 30
0.0
 10
186.0274779931432
 20
158.4414025735649
 30
0.0
 10
185.6950444803663
 20
158.1650557140385
 30
0.0
 10
185.3848656035181
 20
157.8548819720498
 30
0.0
 10
185.0949493798179
 20
157.5085506411017
 30
0.0
 10
184.8313984934508
 20
157.1337657535946
 30
0.0
 10
184.5925424999043
 20
156.7282043695117
 30
0.0
 10
184.3832004980318
 20
156.3000764154095
 30
0.0
 10
184.2023695281588
 20
155.8476941286161
 30
0.0
 10
184.0533417904299
 20
155.3789698020624
 30
0.0
 10
183.9357612879598
 20
154.8934878267339
 30
0.0
 10
183.8514811344314
 20
154.3981131503123
 30
0.0
 10
183.8004956826921
 20
153.8941781746109
 30
0.0
 10
183.7835516490177
 20
153.3869318393161
 30
0.0
 10
183.8005322753633
 20
152.8796867276766
 30
0.0
 10
183.8515540807809
 20
152.3757554314316
 30
0.0
 10
183.9358699702045
 20
151.880386836136
 30
0.0
 10
184.0534854950093
 20
151.3949133447619
 30
0.0
 10
184.2025470465183
 20
150.9261997687604
 30
0.0
 10
184.3834106512923
 20
150.4738305352242
 30
0.0
 10
184.5927835314825
 20
150.0457176591955
 30
0.0
 10
184.8316687925216
 20
149.640173588494
 30
0.0
 10
185.0952466958904
 20
149.2654074167772
 30
0.0
 10
185.385188015311
 20
148.9190981223849
 30
0.0
 10
185.6953887391128
 20
148.6089426766953
 30
0.0
 10
186.0278439396474
 20
148.3326340884036
 30
0.0
 10
186.3757632458015
 20
148.0966671450574
 30
0.0
 10
186.7407636713973
 20
147.8991810157146
 30
0.0
 10
187.1162287239949
 20
147.7450790757834
 30
0.0
 10
187.5025230048162
 20
147.6329525788165
 30
0.0
 10
187.8941154941417
 20
147.5661115705898
 30
0.0
 10
188.2894280447285
 20
147.5431538559261
 30
0.0
 10
188.6847389381107
 20
147.5661400884688
 30
0.0
 10
189.076326604488
 20
147.633009346094
 30
0.0
 10
189.462612795467
 20
147.7451637101277
 30
0.0
 10
189.8380667301299
 20
147.8992927357933
 30
0.0
 10
190.2030529080703
 20
148.0968051958372
 30
0.0
 10
190.5509551905975
 20
148.3327972375482
 30
0.0
 10
190.8833904572903
 20
148.6091298085114
 30
0.0
 10
191.1935688055799
 20
148.9193076313397
 30
0.0
 10
191.4834851413751
 20
149.2656378412847
 30
0.0
 10
191.7470360083029
 20
149.6404230266049
 30
0.0
 10
191.9858920129172
 20
150.0459843294039
 30
0.0
 10
192.1952340081109
 20
150.4741123083437
 30
0.0
 10
192.3760649781378
 20
150.926494589174
 30
0.0
 10
192.5250927117252
 20
151.3952189158101
 30
0.0
 10
192.642667893433
 20
151.8806788263167
 30
0.0
 10
192.7269426661718
 20
152.3760081355798
 30
0.0
 10
192.7779304272195
 20
152.8798969183592
 30
0.0
 10
192.7948828605938
 20
153.3871201655221
 30
0.0
 10
192.7779106330854
 20
153.8943883657626
 30
0.0
 10
192.7268911348828
 20
154.3983658550898
 30
0.0
 10
192.6425698618123
 20
154.8937798173427
 30
0.0
 10
192.5249490146035
 20
155.3792753726198
 30
0.0
 10
192.3758874591394
 20
155.8479889502553
 30
0.0
 10
192.1950238538541
 20
156.3003581833696
 30
0.0
 10
191.985650969406
 20
156.7284710577452
 30
0.0
 10
191.7467657105718
 20
157.13401512608
 30
0.0
 10
191.4831878201777
 20
157.5087813054382
 30
0.0
 10
191.1932464977035
 20
157.8550906274958
 30
0.0
 10
190.8830456648137
 20
158.1652459755346
 30
0.0
 10
190.5505907136061
 20
158.4415546021445
 30
0.0
 10
190.2026711498473
 20
158.6775214029351
 30
0.0
 10
189.8376717979983
 20
158.8750095735408
 30
0.0
 10
189.462215329206
 20
159.0290972938256
 30
0.0
 10
189.0759853169339
 20
159.1412381244239
 30
0.0
 10
188.7490640590981
 20
159.1969701702376
 30
0.0
 10
188.4860279820596
 20
159.2196887438957
 30
0.0
 10
188.2891080080313
 20
159.2251467576968
 30
0.0
 10
188.0920894816616
 20
159.2201320409101
 30
0.0
 10
187.9613170124666
 20
159.2073230033758
 30
0.0
 10
187.8958272594132
 20
159.2009083486324
 30
0.0
 11
187.8958272594132
 21
159.2009083486324
 31
0.0
 11
187.5037695999178
 21
159.1338340255754
 31
0.0
 11
187.1217273277836
 21
159.0234588754691
 31
0.0
 11
186.7434432656646
 21
158.8683141385526
 31
0.0
 11
186.3837261721692
 21
158.6743076783951
 31
0.0
 11
186.0315998796225
 21
158.4358380437474
 31
0.0
 11
185.7043473886648
 21
158.1645154920627
 31
0.0
 11
185.3896770586597
 21
157.8504241486986
 31
0.0
 11
185.1040427286759
 21
157.5099221978316
 31
0.0
 11
184.8366288837275
 21
157.1303574264484
 31
0.0
 11
184.6007612399879
 21
156.7305730633529
 31
0.0
 11
184.3886675533172
 21
156.2976269232609
 31
0.0
 11
184.2095236194716
 21
155.8501400866556
 31
0.0
 11
184.0589330588308
 21
155.3773913179855
 31
0.0
 11
183.9420181864644
 21
154.8952698192899
 31
0.0
 11
183.8571301671707
 21
154.3973408482432
 31
0.0
 11
183.8062498692838
 21
153.8948257445926
 31
0.0
 11
183.789217258413
 21
153.3869320338599
 31
0.0
 11
183.8062865088501
 21
152.8790395531861
 31
0.0
 11
183.8572030581637
 21
152.3765281213617
 31
0.0
 11
183.9421269978762
 21
151.8786052754559
 31
0.0
 11
184.0590766504047
 21
151.3964922122856
 31
0.0
 11
184.2097013154028
 21
150.923754308489
 31
0.0
 11
184.3888775301156
 21
150.4762803965418
 31
0.0
 11
184.6010024461802
 21
150.0433495580794
 31
0.0
 11
184.8368989325411
 21
149.6435822115751
 31
0.0
 11
185.1043401746717
 21
149.2640367324542
 31
0.0
 11
185.3899990532179
 21
148.9235553882428
 31
0.0
 11
185.7046919539398
 21
148.6094867462828
 31
0.0
 11
186.0319640970908
 21
148.3381878032215
 31
0.0
 11
186.3841080672019
 21
148.0997435706849
 31
0.0
 11
186.7438387136128
 21
147.905763062049
 31
0.0
 11
187.1221313477259
 21
147.7506456205467
 31
0.0
 11
187.5041840876049
 21
147.6402980261048
 31
0.0
 11
187.8962613178246
 21
147.5732519554643
 31
0.0
 11
188.289427769948
 21
147.5507855857212
 31
0.0
 11
188.6825926003183
 21
147.5732803185417
 31
0.0
 11
189.0746649927959
 21
147.6403546735669
 31
0.0
 11
189.456709771175
 21
147.7507298291113
 31
0.0
 11
189.8349912140887
 21
147.9058745603446
 31
0.0
 11
190.1947078657557
 21
148.0998810195434
 31
0.0
 11
190.5468346335188
 21
148.3383506552222
 31
0.0
 11
190.8740872042421
 21
148.6096732070793
 31
0.0
 11
191.1887574471425
 21
148.923764550255
 31
0.0
 11
191.4743917625018
 21
149.264266501094
 31
0.0
 11
191.7418056234494
 21
149.6438312725079
 31
0.0
 11
191.9776732700307
 21
150.0436156355869
 31
0.0
 11
192.1897669536216
 21
150.4765617756967
 31
0.0
 11
192.3689108859901
 21
150.924048612439
 31
0.0
 11
192.5195014481922
 21
151.3967973809649
 31
0.0
 11
192.6364163266331
 21
151.8789188788234
 31
0.0
 11
192.7212951810223
 21
152.3767803650897
 31
0.0
 11
192.7721754599972
 21
152.8792267507303
 31
0.0
 11
192.7892172522646
 21
153.3871198425914
 31
0.0
 11
192.7721571831794
 21
153.8950129426327
 31
0.0
 11
192.7212406118429
 21
154.397593092631
 31
0.0
 11
192.6363075029837
 21
154.8955834226558
 31
0.0
 11
192.5193578565278
 21
155.3776964866647
 31
0.0
 11
192.368733193092
 21
155.8504343906131
 31
0.0
 11
192.1895569769011
 21
156.2979083024161
 31
0.0
 11
191.9774320577493
 21
156.7308391408182
 31
0.0
 11
191.741535574237
 21
157.1306064873785
 31
0.0
 11
191.4740943481472
 21
157.5101519667024
 31
0.0
 11
191.1884354549387
 21
157.8506333107281
 31
0.0
 11
190.8737424668857
 21
158.164701951601
 31
0.0
 11
190.5464704037077
 21
158.4360008956578
 31
0.0
 11
190.1943269100477
 21
158.6744451341218
 31
0.0
 11
189.8345958206604
 21
158.8684256372467
 31
0.0
 11
189.4563005605368
 21
159.0235430460796
 31
0.0
 11
189.0743012994131
 21
159.1338789921358
 31
0.0
 11
188.6822924430243
 21
159.200924969659
 31
0.0
 11
188.4857111738171
 21
159.2177841426231
 31
0.0
 11
188.2891119952594
 21
159.2234031154493
 31
0.0
 11
188.0924605978625
 21
159.2177788599739
 31
0.0
 11
187.8958272594132
 21
159.2009083486324
 31
0.0
  0
SPLINE
  5
123
330
4A
100
AcDbEntity
  8
1
  6
Continuous
 62
     7
100
AcDbSpline
210
0.0
220
0.0
230
1.0
 70
     8
 71
     3
 72
    65
 73
    61
 74
    59
 42
0.000000001
 43
0.0000000001
 44
0.00000001
 40
0.0
 40
0.0
 40
0.0
 40
0.0
 40
0.1558070950949098
 40
0.3117725354645257
 40
0.7518187238993723
 40
1.191864912438468
 40
1.62914836797052
 40
2.066456924794762
 40
2.495712089862161
 40
2.92501911744022
 40
3.341688646390978
 40
3.758439580031706
 40
4.159149867510213
 40
4.55997339357909
 40
4.942997663222446
 40
5.326165086471132
 40
5.691826565879328
 40
6.0576484178309
 40
6.408560114632214
 40
6.759619355978038
 40
7.100597771864186
 40
7.441667283046079
 40
7.779165626603722
 40
8.116663970156035
 40
8.457733481323254
 40
8.798711897185674
 40
9.149771138500526
 40
9.5006828352658
 40
9.866504687177228
 40
10.2321661665447
 40
10.61533358975229
 40
10.99835785935746
 40
11.39918138539068
 40
11.7998916728386
 40
12.21664260645325
 40
12.63331213538383
 40
13.06261916294693
 40
13.49187432800529
 40
13.92918288482645
 40
14.36646634036345
 40
14.80651252892342
 40
15.24655871748899
 40
15.68384217304319
 40
16.12115072989369
 40
16.55040589499434
 40
16.97971292261483
 40
17.39638245161829
 40
17.81313338532586
 40
18.21384367288614
 40
18.61466719905905
 40
18.99769146882841
 40
19.38085889223601
 40
19.74652037183434
 40
20.11234222402181
 40
20.46325392110442
 40
20.81431316279562
 40
21.15529157915996
 40
21.49636109181153
 40
21.51945991326705
 40
21.54253935314318
 40
21.54253935314318
 40
21.54253935314318
 40
21.54253935314318
 10
106.1845789433854
 20
280.6727277406579
 30
0.0
 10
106.2362191139339
 20
280.678286829449
 30
0.0
 10
106.3395519369289
 20
280.6894106518567
 30
0.0
 10
106.5894423435861
 20
280.7086940267515
 30
0.0
 10
106.9348660765745
 20
280.720339096975
 30
0.0
 10
107.3740727755641
 20
280.7057368803052
 30
0.0
 10
107.8104272700787
 20
280.6620586642622
 30
0.0
 10
108.2393427762055
 20
280.5898447411823
 30
0.0
 10
108.6597317377009
 20
280.4890937584403
 30
0.0
 10
109.0655623530309
 20
280.3614250926595
 30
0.0
 10
109.4573056439994
 20
280.2064802807735
 30
0.0
 10
109.8279837990681
 20
280.0271522128172
 30
0.0
 10
110.1792027986837
 20
279.8224862563675
 30
0.0
 10
110.5037035493615
 20
279.5967248942182
 30
0.0
 10
110.8036545696087
 20
279.3482961764467
 30
0.0
 10
111.0722366425503
 20
279.0825814880457
 30
0.0
 10
111.3115950905977
 20
278.7976951687322
 30
0.0
 10
111.5159681903996
 20
278.4996273760534
 30
0.0
 10
111.6870821539862
 20
278.1868111670766
 30
0.0
 10
111.8205809951263
 20
277.8650762554691
 30
0.0
 10
111.9177624097008
 20
277.5339706044687
 30
0.0
 10
111.9756771737359
 20
277.1983461560479
 30
0.0
 10
111.9955980223672
 20
276.8594974731419
 30
0.0
 10
111.9756771738877
 20
276.5206487902316
 30
0.0
 10
111.9177624100026
 20
276.1850243417995
 30
0.0
 10
111.8205809955747
 20
275.8539186907799
 30
0.0
 10
111.6870821545758
 20
275.5321837791469
 30
0.0
 10
111.5159681911246
 20
275.2193675701344
 30
0.0
 10
111.3115950914497
 20
274.9212997774233
 30
0.0
 10
111.0722366435222
 20
274.6364134580326
 30
0.0
 10
110.8036545706872
 20
274.370698769693
 30
0.0
 10
110.5037035505514
 20
274.1222700514194
 30
0.0
 10
110.1792027999192
 20
273.8965086909221
 30
0.0
 10
109.8279838005495
 20
273.6918427278354
 30
0.0
 10
109.4573056449028
 20
273.5125146852259
 30
0.0
 10
109.0655623564477
 20
273.3575697766326
 30
0.0
 10
108.6597317317363
 20
273.2299014817784
 30
0.0
 10
108.2393428058997
 20
273.1291490971661
 30
0.0
 10
107.8104271644829
 20
273.0569404988281
 30
0.0
 10
107.3740731779646
 20
273.0132422927019
 30
0.0
 10
106.9348645718612
 20
272.9987151218552
 30
0.0
 10
106.4956559657547
 20
273.0132422927725
 30
0.0
 10
106.0593019792256
 20
273.0569404989733
 30
0.0
 10
105.6303863377953
 20
273.1291490973972
 30
0.0
 10
105.2099974119276
 20
273.2299014820986
 30
0.0
 10
104.8041667872283
 20
273.3575697770991
 30
0.0
 10
104.4124234986137
 20
273.5125146857159
 30
0.0
 10
104.0417453434286
 20
273.6918427289016
 30
0.0
 10
103.6905263422859
 20
273.8965086906896
 30
0.0
 10
103.3660255980234
 20
274.1222700568443
 30
0.0
 10
103.0660745550581
 20
274.3706987559468
 30
0.0
 10
102.797492565336
 20
274.6364135153225
 30
0.0
 10
102.5581338207363
 20
274.9212995824747
 30
0.0
 10
102.353761802991
 20
275.2193682965228
 30
0.0
 10
102.1826439579543
 20
275.5321812016174
 30
0.0
 10
102.0491593444187
 20
275.8539282249834
 30
0.0
 10
101.9519262748466
 20
276.1849899045185
 30
0.0
 10
101.9120028890633
 20
276.417229611719
 30
0.0
 10
101.897625547856
 20
276.5455072395617
 30
0.0
 10
101.8960612974301
 20
276.5608204722142
 30
0.0
 10
101.8952795014472
 20
276.5684738750696
 30
0.0
 11
106.1845789433854
 21
280.6727277406579
 31
0.0
 11
106.33957301626
 21
280.6886240054342
 31
0.0
 11
106.495060916319
 21
280.7008195641471
 31
0.0
 11
106.9348645802068
 21
280.7154272785547
 31
0.0
 11
107.3746682440946
 21
280.7008195641471
 31
0.0
 11
107.8097721486994
 21
280.6572143727842
 31
0.0
 11
108.2409868300049
 21
280.5844636165394
 31
0.0
 11
108.658391637786
 21
280.484297638192
 31
0.0
 11
109.0678401876202
 21
280.3552379271504
 31
0.0
 11
109.4552222206599
 21
280.2017822107757
 31
0.0
 11
109.8302381317568
 21
280.0200010038827
 31
0.0
 11
110.1762960160322
 21
279.817979531525
 31
0.0
 11
110.5051118979107
 21
279.588764316149
 31
0.0
 11
110.7998399586561
 21
279.3441361055181
 31
0.0
 11
111.0719684061863
 21
279.0743892197335
 31
0.0
 11
111.3068222012565
 21
278.7941179001589
 31
0.0
 11
111.513449839621
 21
278.4922393706856
 31
0.0
 11
111.6814014528765
 21
278.184130177884
 31
0.0
 11
111.8158281479046
 21
277.8598277653977
 31
0.0
 11
111.9114018157781
 21
277.5325175848972
 31
0.0
 11
111.9695030034224
 21
277.1964332746235
 31
0.0
 11
111.988981087675
 21
276.8594974702018
 31
0.0
 11
111.9695030034224
 21
276.5225616657801
 31
0.0
 11
111.9114018157781
 21
276.1864773555064
 31
0.0
 11
111.8158281479046
 21
275.8591671750061
 31
0.0
 11
111.6814014528765
 21
275.5348647625198
 31
0.0
 11
111.513449839621
 21
275.2267555697182
 31
0.0
 11
111.3068222012565
 21
274.9248770402449
 31
0.0
 11
111.0719684061863
 21
274.6446057206704
 31
0.0
 11
110.7998399586561
 21
274.3748588348857
 31
0.0
 11
110.5051118979106
 21
274.1302306242548
 31
0.0
 11
110.1762960160323
 21
273.9010154088788
 31
0.0
 11
109.8302381317568
 21
273.6989939365212
 31
0.0
 11
109.45522222066
 21
273.5172127296282
 31
0.0
 11
109.0678401876203
 21
273.3637570132534
 31
0.0
 11
108.658391637786
 21
273.2346973022118
 31
0.0
 11
108.2409868300049
 21
273.1345313238643
 31
0.0
 11
107.8097721486994
 21
273.0617805676195
 31
0.0
 11
107.3746682440946
 21
273.0181753762566
 31
0.0
 11
106.9348645802068
 21
273.003567661849
 31
0.0
 11
106.495060916319
 21
273.0181753762566
 31
0.0
 11
106.0599570117143
 21
273.0617805676196
 31
0.0
 11
105.6287423304088
 21
273.1345313238643
 31
0.0
 11
105.2113375226277
 21
273.2346973022118
 31
0.0
 11
104.8018889727934
 21
273.3637570132534
 31
0.0
 11
104.4145069397537
 21
273.5172127296282
 31
0.0
 11
104.0394910286569
 21
273.6989939365211
 31
0.0
 11
103.6934331443814
 21
273.9010154088787
 31
0.0
 11
103.364617262503
 21
274.1302306242549
 31
0.0
 11
103.0698892017575
 21
274.3748588348858
 31
0.0
 11
102.7977607542273
 21
274.6446057206704
 31
0.0
 11
102.5629069591572
 21
274.9248770402449
 31
0.0
 11
102.3562793207927
 21
275.2267555697182
 31
0.0
 11
102.1883277075372
 21
275.5348647625197
 31
0.0
 11
102.0539010125092
 21
275.8591671750061
 31
0.0
 11
101.9583273446356
 21
276.1864773555066
 31
0.0
 11
101.9002261569913
 21
276.5225616657804
 31
0.0
 11
101.8976624125917
 21
276.545517770425
 31
0.0
 11
101.8952795014472
 21
276.5684738750696
 31
0.0
  0
SPLINE
  5
124
330
4A
100
AcDbEntity
  8
1
  6
Continuous
 62
     7
100
AcDbSpline
210
0.0
220
0.0
230
1.0
 70
     8
 71
     3
 72
    65
 73
    61
 74
    59
 42
0.000000001
 43
0.0000000001
 44
0.00000001
 40
0.0
 40
0.0
 40
0.0
 40
0.0
 40
0.1558070950938862
 40
0.3117725354624731
 40
0.7518187238973038
 40
1.1918649124364
 40
1.629148367968437
 40
2.066456924792651
 40
2.495712089860064
 40
2.92501911743815
 40
3.341688646388908
 40
3.758439580029598
 40
4.15914986750813
 40
4.559973393576995
 40
4.942997663220351
 40
5.326165086469057
 40
5.691826565877253
 40
6.057648417828809
 40
6.408560114630117
 40
6.759619355975941
 40
7.100597771862092
 40
7.441667283043985
 40
7.779165626601628
 40
8.11666397015394
 40
8.457733481321162
 40
8.798711897183582
 40
9.149771138498428
 40
9.50068283526371
 40
9.866504687175144
 40
10.23216616654259
 40
10.61533358975016
 40
10.99835785935534
 40
11.39918138538856
 40
11.79989167283649
 40
12.21664260645117
 40
12.63331213538176
 40
13.06261916294485
 40
13.49187432800321
 40
13.92918288482431
 40
14.36646634036131
 40
14.8065125289213
 40
15.24655871748688
 40
15.68384217304112
 40
16.12115072989159
 40
16.55040589499228
 40
16.97971292261275
 40
17.39638245161618
 40
17.81313338532374
 40
18.21384367288402
 40
18.61466719905693
 40
18.99769146882626
 40
19.38085889223388
 40
19.74652037183223
 40
20.11234222401969
 40
20.4632539211023
 40
20.81431316279351
 40
21.15529157915785
 40
21.49636109180937
 40
21.51945991326237
 40
21.54253935313594
 40
21.54253935313594
 40
21.54253935313594
 40
21.54253935313594
 10
94.68542540203609
 20
280.6727277406581
 30
0.0
 10
94.6337852314879
 20
280.6782868294491
 30
0.0
 10
94.53045240849363
 20
280.689410651857
 30
0.0
 10
94.28056200183715
 20
280.7086940267515
 30
0.0
 10
93.93513826884904
 20
280.7203390969751
 30
0.0
 10
93.4959315698594
 20
280.705736880305
 30
0.0
 10
93.05957707534485
 20
280.6620586642622
 30
0.0
 10
92.6306615692181
 20
280.5898447411824
 30
0.0
 10
92.21027260772263
 20
280.4890937584403
 30
0.0
 10
91.80444199239264
 20
280.3614250926596
 30
0.0
 10
91.41269870142412
 20
280.2064802807734
 30
0.0
 10
91.04202054635552
 20
280.0271522128173
 30
0.0
 10
90.6908015467398
 20
279.8224862563674
 30
0.0
 10
90.36630079606206
 20
279.5967248942183
 30
0.0
 10
90.06634977581484
 20
279.3482961764466
 30
0.0
 10
89.79776770287323
 20
279.0825814880458
 30
0.0
 10
89.55840925482588
 20
278.7976951687322
 30
0.0
 10
89.35403615502398
 20
278.4996273760535
 30
0.0
 10
89.1829221914374
 20
278.1868111670765
 30
0.0
 10
89.0494233502973
 20
277.8650762554691
 30
0.0
 10
88.9522419357228
 20
277.5339706044687
 30
0.0
 10
88.89432717168769
 20
277.1983461560478
 30
0.0
 10
88.8744063230564
 20
276.8594974731417
 30
0.0
 10
88.89432717153589
 20
276.5206487902316
 30
0.0
 10
88.95224193542097
 20
276.1850243417997
 30
0.0
 10
89.04942334984894
 20
275.8539186907799
 30
0.0
 10
89.18292219084779
 20
275.5321837791469
 30
0.0
 10
89.354036154299
 20
275.2193675701344
 30
0.0
 10
89.55840925397392
 20
274.9212997774232
 30
0.0
 10
89.79776770190131
 20
274.6364134580328
 30
0.0
 10
90.06634977473628
 20
274.370698769693
 30
0.0
 10
90.3663007948722
 20
274.1222700514194
 30
0.0
 10
90.69080154550439
 20
273.8965086909221
 30
0.0
 10
91.04202054487408
 20
273.6918427278354
 30
0.0
 10
91.41269870052076
 20
273.5125146852261
 30
0.0
 10
91.80444198897592
 20
273.3575697766325
 30
0.0
 10
92.21027261368732
 20
273.2299014817784
 30
0.0
 10
92.63066153952387
 20
273.129149097166
 30
0.0
 10
93.05957718094064
 20
273.0569404988281
 30
0.0
 10
93.49593116745898
 20
273.013242292702
 30
0.0
 10
93.93513977356233
 20
272.9987151218552
 30
0.0
 10
94.37434837966887
 20
273.0132422927725
 30
0.0
 10
94.81070236619807
 20
273.0569404989733
 30
0.0
 10
95.23961800762822
 20
273.1291490973973
 30
0.0
 10
95.66000693349599
 20
273.2299014820986
 30
0.0
 10
96.06583755819527
 20
273.3575697770989
 30
0.0
 10
96.45758084680986
 20
273.512514685716
 30
0.0
 10
96.82825900199498
 20
273.6918427289015
 30
0.0
 10
97.17947800313767
 20
273.8965086906895
 30
0.0
 10
97.50397874740014
 20
274.1222700568443
 30
0.0
 10
97.80392979036543
 20
274.3706987559469
 30
0.0
 10
98.07251178008758
 20
274.6364135153225
 30
0.0
 10
98.31187052468731
 20
274.9212995824746
 30
0.0
 10
98.5162425424325
 20
275.2193682965229
 30
0.0
 10
98.68736038746927
 20
275.5321812016173
 30
0.0
 10
98.8208450010049
 20
275.8539282249834
 30
0.0
 10
98.91807807057691
 20
276.1849899045185
 30
0.0
 10
98.95800145636031
 20
276.4172296117181
 30
0.0
 10
98.97237879756725
 20
276.5455072395592
 30
0.0
 10
98.97394304799303
 20
276.5608204722099
 30
0.0
 10
98.97472484397588
 20
276.5684738750645
 30
0.0
 11
94.68542540203609
 21
280.6727277406581
 31
0.0
 11
94.53043132916255
 21
280.6886240054343
 31
0.0
 11
94.37494342910452
 21
280.7008195641471
 31
0.0
 11
93.93513976521675
 21
280.7154272785547
 31
0.0
 11
93.49533610132895
 21
280.7008195641471
 31
0.0
 11
93.06023219672416
 21
280.6572143727842
 31
0.0
 11
92.62901751541874
 21
280.5844636165394
 31
0.0
 11
92.21161270763761
 21
280.484297638192
 31
0.0
 11
91.80216415780333
 21
280.3552379271504
 31
0.0
 11
91.41478212476362
 21
280.2017822107757
 31
0.0
 11
91.03976621366681
 21
280.0200010038827
 31
0.0
 11
90.69370832939133
 21
279.817979531525
 31
0.0
 11
90.36489244751293
 21
279.588764316149
 31
0.0
 11
90.07016438676749
 21
279.3441361055181
 31
0.0
 11
89.79803593923725
 21
279.0743892197335
 31
0.0
 11
89.56318214416704
 21
278.7941179001589
 31
0.0
 11
89.35655450580262
 21
278.4922393706856
 31
0.0
 11
89.18860289254711
 21
278.184130177884
 31
0.0
 11
89.05417619751904
 21
277.8598277653977
 31
0.0
 11
88.95860252964545
 21
277.5325175848972
 31
0.0
 11
88.90050134200118
 21
277.1964332746235
 31
0.0
 11
88.88102325774862
 21
276.8594974702018
 31
0.0
 11
88.90050134200118
 21
276.5225616657801
 31
0.0
 11
88.95860252964545
 21
276.1864773555064
 31
0.0
 11
89.05417619751904
 21
275.8591671750061
 31
0.0
 11
89.1886028925471
 21
275.5348647625198
 31
0.0
 11
89.35655450580262
 21
275.2267555697182
 31
0.0
 11
89.56318214416707
 21
274.9248770402449
 31
0.0
 11
89.79803593923727
 21
274.6446057206704
 31
0.0
 11
90.07016438676746
 21
274.3748588348857
 31
0.0
 11
90.36489244751291
 21
274.1302306242548
 31
0.0
 11
90.6937083293913
 21
273.9010154088788
 31
0.0
 11
91.03976621366678
 21
273.6989939365212
 31
0.0
 11
91.41478212476362
 21
273.5172127296282
 31
0.0
 11
91.80216415780332
 21
273.3637570132534
 31
0.0
 11
92.21161270763756
 21
273.2346973022118
 31
0.0
 11
92.62901751541868
 21
273.1345313238643
 31
0.0
 11
93.06023219672412
 21
273.0617805676195
 31
0.0
 11
93.49533610132893
 21
273.0181753762566
 31
0.0
 11
93.93513976521673
 21
273.003567661849
 31
0.0
 11
94.37494342910452
 21
273.0181753762566
 31
0.0
 11
94.81004733370932
 21
273.0617805676196
 31
0.0
 11
95.24126201501474
 21
273.1345313238643
 31
0.0
 11
95.65866682279591
 21
273.2346973022118
 31
0.0
 11
96.06811537263019
 21
273.3637570132534
 31
0.0
 11
96.4554974056699
 21
273.5172127296282
 31
0.0
 11
96.83051331676668
 21
273.6989939365211
 31
0.0
 11
97.17657120104215
 21
273.9010154088787
 31
0.0
 11
97.50538708292055
 21
274.1302306242549
 31
0.0
 11
97.800115143666
 21
274.3748588348858
 31
0.0
 11
98.07224359119621
 21
274.6446057206704
 31
0.0
 11
98.30709738626639
 21
274.9248770402449
 31
0.0
 11
98.51372502463083
 21
275.2267555697182
 31
0.0
 11
98.68167663788634
 21
275.5348647625197
 31
0.0
 11
98.81610333291442
 21
275.8591671750061
 31
0.0
 11
98.91167700078803
 21
276.1864773555066
 31
0.0
 11
98.9697781884323
 21
276.5225616657803
 31
0.0
 11
98.97234193283163
 21
276.5455177704224
 31
0.0
 11
98.97472484397588
 21
276.5684738750645
 31
0.0
  0
SPLINE
  5
125
330
4A
100
AcDbEntity
  8
1
  6
Continuous
 62
     7
100
AcDbSpline
210
0.0
220
0.0
230
1.0
 70
    11
 71
     3
 72
    79
 73
    75
 74
    73
 42
0.000000001
 43
0.0000000001
 44
0.00000001
 40
0.0
 40
0.0
 40
0.0
 40
0.0
 40
0.3410695029846459
 40
0.6820479206819483
 40
1.033107162771573
 40
1.384018860055636
 40
1.749840712379755
 40
2.115502192080171
 40
2.4986696155723
 40
2.881693885409925
 40
3.282517411640659
 40
3.683227699247229
 40
4.099978632992282
 40
4.516648162023865
 40
4.945955189665334
 40
5.375210354780435
 40
5.812518911640714
 40
6.249802367201463
 40
6.689848555772256
 40
7.129894744337811
 40
7.567178199882527
 40
8.004486756715204
 40
8.433741921790308
 40
8.86304894937696
 40
9.279718478338117
 40
9.696469411992048
 40
10.09717969948695
 40
10.4980032255765
 40
10.88102749524463
 40
11.2641949185238
 40
11.62985639796719
 40
11.99567824996106
 40
12.34658994681007
 40
12.69764918821111
 40
13.03862760415768
 40
13.37969711540692
 40
13.71719545903627
 40
14.05469380266436
 40
14.39576331390993
 40
14.73674172985072
 40
15.08780097124381
 40
15.43871266808331
 40
15.8045345200659
 40
16.17019599949709
 40
16.5533634227627
 40
16.93638769241684
 40
17.33721121849151
 40
17.73792150597145
 40
18.15467243961001
 40
18.57134196855588
 40
19.00064899612697
 40
19.42990416118683
 40
19.86721271800421
 40
20.30449617353391
 40
20.74454236208452
 40
21.18458855064052
 40
21.62187200618668
 40
22.05918056303233
 40
22.48843572813297
 40
22.91774275575967
 40
23.33441228477641
 40
23.75116321850561
 40
24.1518735060956
 40
24.5526970323076
 40
24.93572130212375
 40
25.3188887255879
 40
25.68455020524985
 40
26.05037205751166
 40
26.40128375467688
 40
26.75234299646893
 40
27.09332141291415
 40
27.43439092490356
 40
27.77188927034635
 40
28.10938760578805
 40
28.10938760578805
 40
28.10938760578805
 40
28.10938760578805
 10
98.96977818843229
 20
337.5796880068725
 30
0.0
 10
98.9530986908448
 20
337.467099775743
 30
0.0
 10
98.91974415685965
 20
337.2419533799767
 30
0.0
 10
98.82038395041783
 20
336.9110996330265
 30
0.0
 10
98.68748521219764
 20
336.5892953389257
 30
0.0
 10
98.51620752159101
 20
336.276498058646
 30
0.0
 10
98.31188005529835
 20
335.9784249894683
 30
0.0
 10
98.07250909262709
 20
335.693540116521
 30
0.0
 10
97.80393052514736
 20
335.4278250225122
 30
0.0
 10
97.50397854227421
 20
335.1793964151931
 30
0.0
 10
97.17947806095208
 20
334.9536350232488
 30
0.0
 10
96.82825898770781
 20
334.7489690684251
 30
0.0
 10
96.45758085257367
 20
334.5696410231991
 30
0.0
 10
96.06583755848237
 20
334.4146961150389
 30
0.0
 10
95.6600069352946
 20
334.287027819815
 30
0.0
 10
95.23961800901878
 20
334.1862754350803
 30
0.0
 10
94.81070236770177
 20
334.1140668365751
 30
0.0
 10
94.37434838114167
 20
334.0703686303115
 30
0.0
 10
93.93513977503942
 20
334.0558414593322
 30
0.0
 10
93.49593116892575
 20
334.0703686301236
 30
0.0
 10
93.05957718239459
 20
334.1140668362005
 30
0.0
 10
92.63066154095833
 20
334.1862754344964
 30
0.0
 10
92.21027261509549
 20
334.2870278190736
 30
0.0
 10
91.80444199035087
 20
334.4146961139013
 30
0.0
 10
91.41269870185472
 20
334.569641022476
 30
0.0
 10
91.04202054615986
 20
334.7489690650752
 30
0.0
 10
90.69080154673459
 20
334.9536350281612
 30
0.0
 10
90.36630079604001
 20
335.1793963886657
 30
0.0
 10
90.06634977583528
 20
335.4278251069561
 30
0.0
 10
89.797767702926
 20
335.6935397953202
 30
0.0
 10
89.55840925491918
 20
335.9784261147441
 30
0.0
 10
89.35403615516162
 20
336.2764939074963
 30
0.0
 10
89.18292219162458
 20
336.5893101165577
 30
0.0
 10
89.04942335053855
 20
336.9110450282458
 30
0.0
 10
88.95224193602256
 20
337.2421506793274
 30
0.0
 10
88.89432717205031
 20
337.5777751278265
 30
0.0
 10
88.87440632348509
 20
337.9166238108082
 30
0.0
 10
88.8943271720335
 20
338.2554724937896
 30
0.0
 10
88.95224193598895
 20
338.5910969422879
 30
0.0
 10
89.04942335048841
 20
338.9222025933682
 30
0.0
 10
89.18292219155813
 20
339.2439375050551
 30
0.0
 10
89.35403615507916
 20
339.5567537141141
 30
0.0
 10
89.55840925482117
 20
339.8548215068639
 30
0.0
 10
89.79776770281255
 20
340.1397078262846
 30
0.0
 10
90.0663497757069
 20
340.405422514645
 30
0.0
 10
90.36630079589708
 20
340.6538512329308
 30
0.0
 10
90.69080154657739
 20
340.8796125934305
 30
0.0
 10
91.04202054598869
 20
341.0842785565105
 30
0.0
 10
91.41269870166983
 20
341.2636065991033
 30
0.0
 10
91.8044419901523
 20
341.4185515076707
 30
0.0
 10
92.2102726148835
 20
341.5462198024899
 30
0.0
 10
92.63066154073276
 20
341.6469721870584
 30
0.0
 10
93.05957718215527
 20
341.7191807853439
 30
0.0
 10
93.4959311686729
 20
341.7628789914098
 30
0.0
 10
93.93513977476997
 20
341.7774061621888
 30
0.0
 10
94.3743483808648
 20
341.7628789911978
 30
0.0
 10
94.8107023673801
 20
341.7191807849165
 30
0.0
 10
95.23961800878632
 20
341.6469721864109
 30
0.0
 10
95.66000693465347
 20
341.5462198016091
 30
0.0
 10
96.06583755925718
 20
341.4185515065616
 30
0.0
 10
96.45758084811722
 20
341.2636065976916
 30
0.0
 10
96.82825900230107
 20
341.0842785549965
 30
0.0
 10
97.17947800694651
 20
340.8796125910138
 30
0.0
 10
97.50397873834136
 20
340.6538512324252
 30
0.0
 10
97.80392982722009
 20
340.4054225058504
 30
0.0
 10
98.0725116496942
 20
340.1397078460701
 30
0.0
 10
98.31187099133734
 20
339.8548214229202
 30
0.0
 10
98.51624083199555
 20
339.5567540065318
 30
0.0
 10
98.68736648811831
 20
339.2439364451295
 30
0.0
 10
98.82082247196627
 20
338.9222064878604
 30
0.0
 10
98.91815948721569
 20
338.5910828461703
 30
0.0
 10
98.97549896722302
 20
338.2555249084194
 30
0.0
 10
98.99754575658528
 20
337.916430434623
 30
0.0
 10
98.97903404204811
 20
337.6919354818488
 30
0.0
 10
98.96977818843229
 20
337.5796880068724
 30
0.0
 11
98.96977818843229
 21
337.5796880068725
 31
0.0
 11
98.911677000788
 21
337.2436036965987
 31
0.0
 11
98.81610333291442
 21
336.9162935160983
 31
0.0
 11
98.68167663788635
 21
336.591991103612
 31
0.0
 11
98.51372502463087
 21
336.2838819108104
 31
0.0
 11
98.30709738626643
 21
335.9820033813371
 31
0.0
 11
98.07224359119621
 21
335.7017320617625
 31
0.0
 11
97.80011514366598
 21
335.4319851759779
 31
0.0
 11
97.50538708292052
 21
335.1873569653471
 31
0.0
 11
97.17657120104214
 21
334.9581417499711
 31
0.0
 11
96.83051331676668
 21
334.7561202776134
 31
0.0
 11
96.45549740566989
 21
334.5743390707203
 31
0.0
 11
96.06811537263016
 21
334.4208833543456
 31
0.0
 11
95.65866682279588
 21
334.291823643304
 31
0.0
 11
95.24126201501474
 21
334.1916576649566
 31
0.0
 11
94.81004733370932
 21
334.1189069087118
 31
0.0
 11
94.37494342910453
 21
334.0753017173489
 31
0.0
 11
93.93513976521675
 21
334.0606940029413
 31
0.0
 11
93.49533610132895
 21
334.0753017173489
 31
0.0
 11
93.06023219672416
 21
334.1189069087118
 31
0.0
 11
92.62901751541874
 21
334.1916576649566
 31
0.0
 11
92.21161270763761
 21
334.291823643304
 31
0.0
 11
91.80216415780333
 21
334.4208833543456
 31
0.0
 11
91.41478212476362
 21
334.5743390707203
 31
0.0
 11
91.03976621366681
 21
334.7561202776133
 31
0.0
 11
90.69370832939133
 21
334.958141749971
 31
0.0
 11
90.36489244751293
 21
335.187356965347
 31
0.0
 11
90.07016438676749
 21
335.431985175978
 31
0.0
 11
89.79803593923725
 21
335.7017320617625
 31
0.0
 11
89.56318214416704
 21
335.982003381337
 31
0.0
 11
89.35655450580262
 21
336.2838819108104
 31
0.0
 11
89.18860289254711
 21
336.591991103612
 31
0.0
 11
89.05417619751904
 21
336.9162935160983
 31
0.0
 11
88.95860252964545
 21
337.2436036965987
 31
0.0
 11
88.90050134200118
 21
337.5796880068725
 31
0.0
 11
88.88102325774862
 21
337.9166238112942
 31
0.0
 11
88.90050134200118
 21
338.2535596157159
 31
0.0
 11
88.95860252964545
 21
338.5896439259895
 31
0.0
 11
89.05417619751904
 21
338.9169541064899
 31
0.0
 11
89.1886028925471
 21
339.2412565189762
 31
0.0
 11
89.35655450580262
 21
339.5493657117778
 31
0.0
 11
89.56318214416707
 21
339.8512442412511
 31
0.0
 11
89.79803593923727
 21
340.1315155608256
 31
0.0
 11
90.07016438676746
 21
340.4012624466102
 31
0.0
 11
90.36489244751291
 21
340.6458906572411
 31
0.0
 11
90.6937083293913
 21
340.8751058726172
 31
0.0
 11
91.03976621366678
 21
341.0771273449748
 31
0.0
 11
91.41478212476362
 21
341.2589085518678
 31
0.0
 11
91.80216415780332
 21
341.4123642682426
 31
0.0
 11
92.21161270763756
 21
341.5414239792842
 31
0.0
 11
92.62901751541868
 21
341.6415899576317
 31
0.0
 11
93.06023219672412
 21
341.7143407138764
 31
0.0
 11
93.49533610132893
 21
341.7579459052394
 31
0.0
 11
93.93513976521673
 21
341.7725536196469
 31
0.0
 11
94.37494342910452
 21
341.7579459052394
 31
0.0
 11
94.81004733370932
 21
341.7143407138765
 31
0.0
 11
95.24126201501474
 21
341.6415899576317
 31
0.0
 11
95.65866682279591
 21
341.5414239792842
 31
0.0
 11
96.06811537263019
 21
341.4123642682426
 31
0.0
 11
96.4554974056699
 21
341.2589085518678
 31
0.0
 11
96.83051331676668
 21
341.0771273449749
 31
0.0
 11
97.17657120104215
 21
340.8751058726172
 31
0.0
 11
97.50538708292055
 21
340.6458906572411
 31
0.0
 11
97.800115143666
 21
340.4012624466102
 31
0.0
 11
98.07224359119621
 21
340.1315155608256
 31
0.0
 11
98.30709738626639
 21
339.851244241251
 31
0.0
 11
98.51372502463083
 21
339.5493657117778
 31
0.0
 11
98.68167663788634
 21
339.2412565189762
 31
0.0
 11
98.81610333291442
 21
338.9169541064899
 31
0.0
 11
98.91167700078802
 21
338.5896439259894
 31
0.0
 11
98.9697781884323
 21
338.2535596157157
 31
0.0
 11
98.98925627268484
 21
337.9166238112941
 31
0.0
 11
98.96977818843229
 21
337.5796880068724
 31
0.0
  0
SPLINE
  5
126
330
4A
100
AcDbEntity
  8
1
  6
Continuous
 62
     7
100
AcDbSpline
210
0.0
220
0.0
230
1.0
 70
    11
 71
     3
 72
    79
 73
    75
 74
    73
 42
0.000000001
 43
0.0000000001
 44
0.00000001
 40
0.0
 40
0.0
 40
0.0
 40
0.0
 40
0.3410695029846435
 40
0.6820479206819499
 40
1.03310716277158
 40
1.38401886005565
 40
1.749840712379777
 40
2.115502192080184
 40
2.498669615572292
 40
2.881693885409906
 40
3.28251741164064
 40
3.683227699247198
 40
4.099978632992251
 40
4.51664816202386
 40
4.945955189665357
 40
5.375210354780431
 40
5.812518911640709
 40
6.249802367201458
 40
6.689848555772238
 40
7.129894744337778
 40
7.567178199882508
 40
8.004486756715213
 40
8.433741921790302
 40
8.863048949376928
 40
9.279718478338085
 40
9.696469411992055
 40
10.09717969948694
 40
10.49800322557649
 40
10.88102749524463
 40
11.26419491852378
 40
11.62985639796716
 40
11.99567824996105
 40
12.34658994681007
 40
12.69764918821111
 40
13.03862760415767
 40
13.37969711540692
 40
13.71719545903626
 40
14.05469380266436
 40
14.39576331390993
 40
14.73674172985072
 40
15.08780097124381
 40
15.4387126680833
 40
15.80453452006588
 40
16.1701959994971
 40
16.55336342276274
 40
16.93638769241686
 40
17.33721121849153
 40
17.73792150597146
 40
18.15467243960999
 40
18.57134196855585
 40
19.00064899612696
 40
19.42990416118682
 40
19.86721271800426
 40
20.30449617353396
 40
20.74454236208455
 40
21.18458855064053
 40
21.62187200618665
 40
22.05918056303233
 40
22.48843572813293
 40
22.91774275575967
 40
23.33441228477642
 40
23.75116321850563
 40
24.15187350609562
 40
24.55269703230763
 40
24.9357213021238
 40
25.31888872558793
 40
25.68455020524987
 40
26.0503720575117
 40
26.40128375467691
 40
26.75234299646896
 40
27.09332141291418
 40
27.43439092490359
 40
27.77188927034638
 40
28.10938760578808
 40
28.10938760578808
 40
28.10938760578808
 40
28.10938760578808
 10
101.9002261569913
 20
337.5796880068725
 30
0.0
 10
101.9169056545788
 20
337.467099775743
 30
0.0
 10
101.9502601885639
 20
337.2419533799766
 30
0.0
 10
102.0496203950058
 20
336.9110996330265
 30
0.0
 10
102.182519133226
 20
336.5892953389257
 30
0.0
 10
102.3537968238326
 20
336.276498058646
 30
0.0
 10
102.5581242901253
 20
335.9784249894684
 30
0.0
 10
102.7974952527965
 20
335.6935401165211
 30
0.0
 10
103.0660738202762
 20
335.4278250225122
 30
0.0
 10
103.3660258031494
 20
335.1793964151931
 30
0.0
 10
103.6905262844714
 20
334.9536350232487
 30
0.0
 10
104.0417453577158
 20
334.748969068425
 30
0.0
 10
104.4124234928499
 20
334.569641023199
 30
0.0
 10
104.8041667869412
 20
334.414696115039
 30
0.0
 10
105.209997410129
 20
334.287027819815
 30
0.0
 10
105.6303863364048
 20
334.1862754350803
 30
0.0
 10
106.0593019777218
 20
334.1140668365751
 30
0.0
 10
106.4956559642819
 20
334.0703686303115
 30
0.0
 10
106.9348645703842
 20
334.0558414593323
 30
0.0
 10
107.3740731764978
 20
334.0703686301237
 30
0.0
 10
107.8104271630289
 20
334.1140668362005
 30
0.0
 10
108.2393428044653
 20
334.1862754344963
 30
0.0
 10
108.6597317303281
 20
334.2870278190736
 30
0.0
 10
109.0655623550728
 20
334.4146961139013
 30
0.0
 10
109.4573056435688
 20
334.5696410224759
 30
0.0
 10
109.8279837992638
 20
334.7489690650754
 30
0.0
 10
110.1792027986889
 20
334.953635028161
 30
0.0
 10
110.5037035493836
 20
335.1793963886659
 30
0.0
 10
110.8036545695883
 20
335.4278251069559
 30
0.0
 10
111.0722366424976
 20
335.6935397953204
 30
0.0
 10
111.3115950905043
 20
335.978426114744
 30
0.0
 10
111.515968190262
 20
336.2764939074966
 30
0.0
 10
111.687082153799
 20
336.5893101165576
 30
0.0
 10
111.820580994885
 20
336.9110450282461
 30
0.0
 10
111.917762409401
 20
337.2421506793274
 30
0.0
 10
111.9756771733733
 20
337.5777751278265
 30
0.0
 10
111.9955980219385
 20
337.9166238108082
 30
0.0
 10
111.9756771733901
 20
338.2554724937895
 30
0.0
 10
111.9177624094346
 20
338.5910969422881
 30
0.0
 10
111.8205809949352
 20
338.9222025933681
 30
0.0
 10
111.6870821538655
 20
339.2439375050551
 30
0.0
 10
111.5159681903444
 20
339.5567537141141
 30
0.0
 10
111.3115950906025
 20
339.8548215068639
 30
0.0
 10
111.072236642611
 20
340.1397078262846
 30
0.0
 10
110.8036545697167
 20
340.4054225146451
 30
0.0
 10
110.5037035495265
 20
340.6538512329309
 30
0.0
 10
110.1792027988461
 20
340.8796125934305
 30
0.0
 10
109.8279837994349
 20
341.0842785565104
 30
0.0
 10
109.4573056437538
 20
341.2636065991034
 30
0.0
 10
109.0655623552713
 20
341.4185515076706
 30
0.0
 10
108.6597317305401
 20
341.5462198024901
 30
0.0
 10
108.2393428046908
 20
341.6469721870582
 30
0.0
 10
107.8104271632683
 20
341.719180785344
 30
0.0
 10
107.3740731767506
 20
341.7628789914099
 30
0.0
 10
106.9348645706536
 20
341.7774061621889
 30
0.0
 10
106.4956559645588
 20
341.7628789911979
 30
0.0
 10
106.0593019780435
 20
341.7191807849164
 30
0.0
 10
105.6303863366373
 20
341.6469721864109
 30
0.0
 10
105.2099974107702
 20
341.5462198016091
 30
0.0
 10
104.8041667861664
 20
341.4185515065616
 30
0.0
 10
104.4124234973063
 20
341.2636065976916
 30
0.0
 10
104.0417453431225
 20
341.0842785549966
 30
0.0
 10
103.690526338477
 20
340.8796125910138
 30
0.0
 10
103.3660256070822
 20
340.653851232425
 30
0.0
 10
103.0660745182034
 20
340.4054225058505
 30
0.0
 10
102.7974926957294
 20
340.1397078460701
 30
0.0
 10
102.5581333540862
 20
339.8548214229203
 30
0.0
 10
102.3537635134281
 20
339.5567540065319
 30
0.0
 10
102.1826378573052
 20
339.2439364451294
 30
0.0
 10
102.0491818734574
 20
338.9222064878603
 30
0.0
 10
101.9518448582079
 20
338.5910828461701
 30
0.0
 10
101.8945053782006
 20
338.2555249084195
 30
0.0
 10
101.8724585888383
 20
337.916430434623
 30
0.0
 10
101.8909703033755
 20
337.6919354818487
 30
0.0
 10
101.9002261569913
 20
337.5796880068724
 30
0.0
 11
101.9002261569913
 21
337.5796880068725
 31
0.0
 11
101.9583273446356
 21
337.2436036965987
 31
0.0
 11
102.0539010125092
 21
336.9162935160983
 31
0.0
 11
102.1883277075372
 21
336.591991103612
 31
0.0
 11
102.3562793207927
 21
336.2838819108104
 31
0.0
 11
102.5629069591572
 21
335.9820033813371
 31
0.0
 11
102.7977607542274
 21
335.7017320617625
 31
0.0
 11
103.0698892017576
 21
335.4319851759779
 31
0.0
 11
103.364617262503
 21
335.1873569653471
 31
0.0
 11
103.6934331443814
 21
334.9581417499711
 31
0.0
 11
104.0394910286569
 21
334.7561202776134
 31
0.0
 11
104.4145069397537
 21
334.5743390707203
 31
0.0
 11
104.8018889727934
 21
334.4208833543456
 31
0.0
 11
105.2113375226277
 21
334.291823643304
 31
0.0
 11
105.6287423304088
 21
334.1916576649566
 31
0.0
 11
106.0599570117143
 21
334.1189069087118
 31
0.0
 11
106.495060916319
 21
334.0753017173489
 31
0.0
 11
106.9348645802068
 21
334.0606940029413
 31
0.0
 11
107.3746682440946
 21
334.0753017173489
 31
0.0
 11
107.8097721486994
 21
334.1189069087118
 31
0.0
 11
108.2409868300049
 21
334.1916576649566
 31
0.0
 11
108.658391637786
 21
334.291823643304
 31
0.0
 11
109.0678401876202
 21
334.4208833543456
 31
0.0
 11
109.4552222206599
 21
334.5743390707203
 31
0.0
 11
109.8302381317568
 21
334.7561202776133
 31
0.0
 11
110.1762960160322
 21
334.958141749971
 31
0.0
 11
110.5051118979107
 21
335.187356965347
 31
0.0
 11
110.7998399586561
 21
335.431985175978
 31
0.0
 11
111.0719684061863
 21
335.7017320617625
 31
0.0
 11
111.3068222012565
 21
335.982003381337
 31
0.0
 11
111.513449839621
 21
336.2838819108104
 31
0.0
 11
111.6814014528765
 21
336.591991103612
 31
0.0
 11
111.8158281479046
 21
336.9162935160983
 31
0.0
 11
111.9114018157781
 21
337.2436036965987
 31
0.0
 11
111.9695030034224
 21
337.5796880068725
 31
0.0
 11
111.988981087675
 21
337.9166238112942
 31
0.0
 11
111.9695030034224
 21
338.2535596157159
 31
0.0
 11
111.9114018157781
 21
338.5896439259895
 31
0.0
 11
111.8158281479046
 21
338.9169541064899
 31
0.0
 11
111.6814014528765
 21
339.2412565189762
 31
0.0
 11
111.513449839621
 21
339.5493657117778
 31
0.0
 11
111.3068222012565
 21
339.8512442412511
 31
0.0
 11
111.0719684061863
 21
340.1315155608256
 31
0.0
 11
110.7998399586561
 21
340.4012624466102
 31
0.0
 11
110.5051118979106
 21
340.6458906572411
 31
0.0
 11
110.1762960160323
 21
340.8751058726172
 31
0.0
 11
109.8302381317568
 21
341.0771273449748
 31
0.0
 11
109.45522222066
 21
341.2589085518678
 31
0.0
 11
109.0678401876203
 21
341.4123642682426
 31
0.0
 11
108.658391637786
 21
341.5414239792842
 31
0.0
 11
108.2409868300049
 21
341.6415899576317
 31
0.0
 11
107.8097721486994
 21
341.7143407138764
 31
0.0
 11
107.3746682440946
 21
341.7579459052394
 31
0.0
 11
106.9348645802068
 21
341.7725536196469
 31
0.0
 11
106.495060916319
 21
341.7579459052394
 31
0.0
 11
106.0599570117143
 21
341.7143407138765
 31
0.0
 11
105.6287423304088
 21
341.6415899576317
 31
0.0
 11
105.2113375226277
 21
341.5414239792842
 31
0.0
 11
104.8018889727934
 21
341.4123642682426
 31
0.0
 11
104.4145069397537
 21
341.2589085518678
 31
0.0
 11
104.0394910286569
 21
341.0771273449749
 31
0.0
 11
103.6934331443814
 21
340.8751058726172
 31
0.0
 11
103.364617262503
 21
340.6458906572411
 31
0.0
 11
103.0698892017575
 21
340.4012624466102
 31
0.0
 11
102.7977607542273
 21
340.1315155608256
 31
0.0
 11
102.5629069591572
 21
339.851244241251
 31
0.0
 11
102.3562793207927
 21
339.5493657117778
 31
0.0
 11
102.1883277075372
 21
339.2412565189762
 31
0.0
 11
102.0539010125092
 21
338.9169541064899
 31
0.0
 11
101.9583273446355
 21
338.5896439259894
 31
0.0
 11
101.9002261569913
 21
338.2535596157157
 31
0.0
 11
101.8807480727388
 21
337.9166238112941
 31
0.0
 11
101.9002261569913
 21
337.5796880068724
 31
0.0
  0
ARC
  5
127
330
4A
100
AcDbEntity
  8
1
  6
Continuous
 62
     7
100
AcDbCircle
 10
236.7892172534888
 20
171.8870943494782
 30
0.0
 40
6.0
100
AcDbArc
 50
180.0
 51
270.0
  0
ARC
  5
128
330
4A
100
AcDbEntity
  8
1
  6
Continuous
 62
     7
100
AcDbCircle
 10
200.7892172534888
 20
171.8870943494782
 30
0.0
 40
6.000000000000085
100
AcDbArc
 50
270.0
 51
0.0
  0
ENDBLK
  5
4C
330
4A
100
AcDbEntity
  8
0
100
AcDbBlockEnd
  0
BLOCK
  5
4E
330
4D
100
AcDbEntity
  8
0
100
AcDbBlockBegin
  2
36-54-M11K
 70
     0
 10
566.535678878382
 20
200.9554924428267
 30
0.0
  3
36-54-M11K
  1

  0
LINE
  5
129
330
4D
100
AcDbEntity
  8
1
  6
Continuous
 62
     7
100
AcDbLine
 10
92.53486458020706
 20
156.8870943494781
 30
0.0
 11
92.53486458020699
 21
158.2941004543372
 31
0.0
  0
LINE
  5
12A
330
4D
100
AcDbEntity
  8
1
  6
Continuous
 62
     7
100
AcDbLine
 10
92.53486458020706
 20
156.8870943494781
 30
0.0
 11
108.3348645802069
 21
156.8870943494782
 31
0.0
  0
LINE
  5
12B
330
4D
100
AcDbEntity
  8
1
  6
Continuous
 62
     7
100
AcDbLine
 10
108.3348645802069
 20
158.2941004543368
 30
0.0
 11
108.3348645802069
 21
156.8870943494782
 31
0.0
  0
LINE
  5
12C
330
4D
100
AcDbEntity
  8
0
  6
Continuous
 62
     7
100
AcDbLine
 10
105.1848645802069
 20
195.8870943494782
 30
0.0
 11
105.1848645802069
 21
192.8870943494781
 31
0.0
  0
LINE
  5
12D
330
4D
100
AcDbEntity
  8
0
  6
Continuous
 62
     7
100
AcDbLine
 10
95.6848645802068
 20
192.8870943494781
 30
0.0
 11
95.6848645802068
 21
195.8870943494782
 31
0.0
  0
LINE
  5
12E
330
4D
100
AcDbEntity
  8
0
  6
Continuous
 62
     7
100
AcDbLine
 10
214.0392172534888
 20
192.8870943494781
 30
0.0
 11
214.0392172534888
 21
195.8870943494782
 31
0.0
  0
LINE
  5
12F
330
4D
100
AcDbEntity
  8
0
  6
Continuous
 62
     7
100
AcDbLine
 10
223.5392172534889
 20
195.8870943494782
 30
0.0
 11
223.5392172534889
 21
192.8870943494781
 31
0.0
  0
ENDBLK
  5
4F
330
4D
100
AcDbEntity
  8
0
100
AcDbBlockEnd
  0
BLOCK
  5
51
330
50
100
AcDbEntity
  8
0
100
AcDbBlockBegin
  2
91-1K
 70
     0
 10
576.0356788783821
 20
196.4554924428267
 30
0.0
  3
91-1K
  1

  0
LINE
  5
130
330
50
100
AcDbEntity
  8
1
  6
Continuous
 62
     7
100
AcDbLine
 10
93.43486458020692
 20
156.8870943494781
 30
0.0
 11
93.43486458020692
 21
156.3870943494781
 31
0.0
  0
LINE
  5
131
330
50
100
AcDbEntity
  8
1
  6
Continuous
 62
     7
100
AcDbLine
 10
107.4348645802071
 20
156.3870943494781
 30
0.0
 11
107.4348645802071
 21
156.8870943494781
 31
0.0
  0
ENDBLK
  5
52
330
50
100
AcDbEntity
  8
0
100
AcDbBlockEnd
  0
BLOCK
  5
54
330
53
100
AcDbEntity
  8
0
100
AcDbBlockBegin
  2
21-1C-M1K
 70
     0
 10
-710.4446573467358
 20
1464.257810734692
 30
0.0
  3
21-1C-M1K
  1

  0
LINE
  5
132
330
53
100
AcDbEntity
  8
1
  6
Continuous
 62
     7
100
AcDbLine
 10
214.7892172534901
 20
206.8870943494784
 30
0.0
 11
222.7892172534889
 21
206.8870943494784
 31
0.0
  0
LINE
  5
133
330
53
100
AcDbEntity
  8
1
  6
Continuous
 62
     7
100
AcDbLine
 10
188.321175521721
 20
199.672174104829
 30
0.0
 11
187.8692674227287
 21
196.4566808999584
 31
0.0
  0
LINE
  5
134
330
53
100
AcDbEntity
  8
1
  6
Continuous
 62
     7
100
AcDbLine
 10
236.5919031078402
 20
200.846170955222
 30
0.0
 11
237.2091206018477
 21
196.4567162821909
 31
0.0
  0
LINE
  5
135
330
53
100
AcDbEntity
  8
1
  6
Continuous
 62
     7
100
AcDbLine
 10
236.7139915414146
 20
195.8870943494784
 30
0.0
 11
188.3644014570996
 21
195.8870943494784
 31
0.0
  0
LINE
  5
136
330
53
100
AcDbEntity
  8
1
  6
Continuous
 62
     7
100
AcDbLine
 10
73.24100355021764
 20
200.1721741048289
 30
0.0
 11
72.78909545122514
 21
196.4566808999582
 31
0.0
  0
LINE
  5
137
330
53
100
AcDbEntity
  8
1
  6
Continuous
 62
     7
100
AcDbLine
 10
73.28422948559592
 20
195.8870943494781
 30
0.0
 11
127.5854996748181
 21
195.8870943494781
 31
0.0
  0
LINE
  5
138
330
53
100
AcDbEntity
  8
1
  6
Continuous
 62
     7
100
AcDbLine
 10
128.0806337091887
 20
196.4566808999582
 30
0.0
 11
127.6287256101964
 21
200.1721741048289
 31
0.0
  0
LINE
  5
139
330
53
100
AcDbEntity
  8
1
  6
Continuous
 62
     7
100
AcDbLine
 10
128.0806337091887
 20
196.4566808999582
 30
0.0
 11
127.6287256101964
 21
200.1721741048289
 31
0.0
  0
LINE
  5
13A
330
53
100
AcDbEntity
  8
1
  6
Continuous
 62
     7
100
AcDbLine
 10
94.63944721497754
 20
280.8351463701328
 30
0.0
 11
90.98803800350694
 21
294.4623910665656
 31
0.0
  0
LINE
  5
13B
330
53
100
AcDbEntity
  8
1
  6
Continuous
 62
     7
100
AcDbLine
 10
106.2305571304462
 20
280.8351463701328
 30
0.0
 11
109.8819663419168
 21
294.4623910665656
 31
0.0
  0
LINE
  5
13C
330
53
100
AcDbEntity
  8
1
  6
Continuous
 62
     7
100
AcDbLine
 10
126.3282779544421
 20
315.6454199536286
 30
0.0
 11
116.3524424694797
 21
305.6695844686663
 31
0.0
  0
LINE
  5
13D
330
53
100
AcDbEntity
  8
1
  6
Continuous
 62
     7
100
AcDbLine
 10
121.2932278993283
 20
325.8873922729794
 30
0.0
 11
106.905478300275
 21
322.0322063870118
 31
0.0
  0
LINE
  5
13E
330
53
100
AcDbEntity
  8
1
  6
Continuous
 62
     7
100
AcDbLine
 10
80.33728134871595
 20
325.6836155984823
 30
0.0
 11
93.96452604514883
 21
322.0322063870118
 31
0.0
  0
LINE
  5
13F
330
53
100
AcDbEntity
  8
1
  6
Continuous
 62
     7
100
AcDbLine
 10
74.54172639098152
 20
315.6454199536286
 30
0.0
 11
84.51756187594404
 21
305.6695844686663
 31
0.0
  0
ARC
  5
140
330
53
100
AcDbEntity
  8
1
  6
Continuous
 62
     7
100
AcDbCircle
 10
218.7892172534889
 20
56.88709434947839
 30
0.0
 40
150.0533238552215
100
AcDbArc
 50
91.52752544221293
 51
99.80290179376777
  0
ARC
  5
141
330
53
100
AcDbEntity
  8
1
  6
Continuous
 62
     7
100
AcDbCircle
 10
219.1534129187358
 20
131.9752733407792
 30
0.0
 40
74.99999999999986
100
AcDbArc
 50
80.40850751733504
 51
87.22136103403751
  0
ARC
  5
142
330
53
100
AcDbEntity
  8
1
  6
Continuous
 62
     7
100
AcDbCircle
 10
98.61615185838053
 20
79.76694180915439
 30
0.0
 40
127.138865796676
100
AcDbArc
 50
90.9830564893326
 51
99.2584328408874
  0
ARC
  5
143
330
53
100
AcDbEntity
  8
1
  6
Continuous
 62
     7
100
AcDbCircle
 10
102.2535773020333
 20
79.7669418091536
 30
0.0
 40
127.1388657966768
100
AcDbArc
 50
80.74156715911266
 51
89.01694351066756
  0
ARC
  5
144
330
53
100
AcDbEntity
  8
1
  6
Continuous
 62
     7
100
AcDbCircle
 10
100.4350021727119
 20
282.3880606407479
 30
0.0
 40
5.999999999999947
100
AcDbArc
 50
194.9999999999997
 51
270.0
  0
ARC
  5
145
330
53
100
AcDbEntity
  8
1
  6
Continuous
 62
     7
100
AcDbCircle
 10
100.4350021727119
 20
282.3880606407479
 30
0.0
 40
6.0
100
AcDbArc
 50
270.0
 51
345.0000000000002
  0
ARC
  5
146
330
53
100
AcDbEntity
  8
1
  6
Continuous
 62
     7
100
AcDbCircle
 10
122.0856372673227
 20
319.8880606407479
 30
0.0
 40
6.000000000000068
100
AcDbArc
 50
315.000000000001
 51
97.52424107894032
  0
ARC
  5
147
330
53
100
AcDbEntity
  8
1
  6
Continuous
 62
     7
100
AcDbCircle
 10
78.78436707810084
 20
319.8880606407479
 30
0.0
 40
5.999999999999981
100
AcDbArc
 50
75.00000000000014
 51
224.9999999999996
  0
ARC
  5
148
330
53
100
AcDbEntity
  8
1
  6
Continuous
 62
     7
100
AcDbCircle
 10
194.2627839341704
 20
198.8371354990684
 30
0.0
 40
6.000000000000195
100
AcDbArc
 50
99.80290179376638
 51
171.9999999999981
  0
ARC
  5
149
330
53
100
AcDbEntity
  8
1
  6
Continuous
 62
     7
100
AcDbCircle
 10
230.650354382643
 20
200.0107077626705
 30
0.0
 40
6.000000000000075
100
AcDbArc
 50
8.00409437170172
 51
80.40850751733568
  0
ARC
  5
14A
330
53
100
AcDbEntity
  8
1
  6
Continuous
 62
     7
100
AcDbCircle
 10
188.3644014570996
 20
196.3870943494784
 30
0.0
 40
0.5000000000001028
100
AcDbArc
 50
172.0000000000042
 51
270.0
  0
ARC
  5
14B
330
53
100
AcDbEntity
  8
1
  6
Continuous
 62
     7
100
AcDbCircle
 10
236.7139915414146
 20
196.3870943494784
 30
0.0
 40
0.5
100
AcDbArc
 50
270.0
 51
8.00409437169016
  0
ARC
  5
14C
330
53
100
AcDbEntity
  8
1
  6
Continuous
 62
     7
100
AcDbCircle
 10
73.28422948559592
 20
196.3870943494781
 30
0.0
 40
0.5000000000000021
100
AcDbArc
 50
171.9999999999927
 51
270.0
  0
ARC
  5
14D
330
53
100
AcDbEntity
  8
1
  6
Continuous
 62
     7
100
AcDbCircle
 10
79.18261196266704
 20
199.3371354990686
 30
0.0
 40
5.999999999999925
100
AcDbArc
 50
99.80290179376907
 51
172.0000000000008
  0
ARC
  5
14E
330
53
100
AcDbEntity
  8
1
  6
Continuous
 62
     7
100
AcDbCircle
 10
127.5854996748181
 20
196.3870943494781
 30
0.0
 40
0.5
100
AcDbArc
 50
270.0
 51
8.00000000001005
  0
ARC
  5
14F
330
53
100
AcDbEntity
  8
1
  6
Continuous
 62
     7
100
AcDbCircle
 10
121.687117197747
 20
199.3371354990686
 30
0.0
 40
5.999999999999964
100
AcDbArc
 50
7.99999999999919
 51
80.19709820623282
  0
ARC
  5
150
330
53
100
AcDbEntity
  8
1
  6
Continuous
 62
     7
100
AcDbCircle
 10
134.0301119991435
 20
287.9919149390026
 30
0.0
 40
25.00000000000009
100
AcDbArc
 50
135.0000000000001
 51
165.0
  0
ARC
  5
151
330
53
100
AcDbEntity
  8
1
  6
Continuous
 62
     7
100
AcDbCircle
 10
100.4350021727119
 20
346.1803520442385
 30
0.0
 40
24.99999999999999
100
AcDbArc
 50
254.9999999999999
 51
285.0000000000002
  0
ARC
  5
152
330
53
100
AcDbEntity
  8
1
  6
Continuous
 62
     7
100
AcDbCircle
 10
66.83989234628012
 20
287.9919149390026
 30
0.0
 40
25.00000000000011
100
AcDbArc
 50
14.99999999999993
 51
44.99999999999968
  0
ENDBLK
  5
55
330
53
100
AcDbEntity
  8
0
100
AcDbBlockEnd
  0
BLOCK
  5
57
330
56
100
AcDbEntity
  8
0
100
AcDbBlockBegin
  2
42-1
 70
     0
 10
130.6849571668853
 20
4.09744533989335
 30
0.0
  3
42-1
  1

  0
LINE
  5
153
330
56
100
AcDbEntity
  8
1
  6
Continuous
 62
     7
100
AcDbLine
 10
95.4348645802068
 20
209.8870943494784
 30
0.0
 11
105.4348645802068
 21
209.8870943494784
 31
0.0
  0
LINE
  5
154
330
56
100
AcDbEntity
  8
1
  6
Continuous
 62
     7
100
AcDbLine
 10
94.6848645802068
 20
210.2168600696821
 30
0.0
 11
100.4348645802068
 21
210.2168600696821
 31
0.0
  0
LINE
  5
155
330
56
100
AcDbEntity
  8
1
  6
Continuous
 62
     2
100
AcDbLine
 10
99.43486458020683
 20
209.1294324516496
 30
0.0
 11
99.43486458020683
 21
207.8641933610391
 31
0.0
  0
LINE
  5
156
330
56
100
AcDbEntity
  8
1
  6
Continuous
 62
     2
100
AcDbLine
 10
98.43486458020683
 20
209.3727476613823
 30
0.0
 11
98.43486458020683
 21
207.6046571373242
 31
0.0
  0
LINE
  5
157
330
56
100
AcDbEntity
  8
1
  6
Continuous
 62
     2
100
AcDbLine
 10
97.4348645802068
 20
209.5836208431507
 30
0.0
 11
97.4348645802068
 21
207.2477948297161
 31
0.0
  0
LINE
  5
158
330
56
100
AcDbEntity
  8
1
  6
Continuous
 62
     2
100
AcDbLine
 10
96.4348645802068
 20
209.6971679410261
 30
0.0
 11
96.4348645802068
 21
207.0531426619299
 31
0.0
  0
LINE
  5
159
330
56
100
AcDbEntity
  8
1
  6
Continuous
 62
     2
100
AcDbLine
 10
95.4348645802068
 20
209.8870943494784
 30
0.0
 11
95.4348645802068
 21
206.8870943494784
 31
0.0
  0
LINE
  5
15A
330
56
100
AcDbEntity
  8
1
  6
Continuous
 62
     7
100
AcDbLine
 10
94.4348645802068
 20
206.8870943494784
 30
0.0
 11
95.4348645802068
 21
206.8870943494784
 31
0.0
  0
LINE
  5
15B
330
56
100
AcDbEntity
  8
1
  6
Continuous
 62
     7
100
AcDbLine
 10
94.4348645802068
 20
209.8870943494784
 30
0.0
 11
95.4348645802068
 21
209.8870943494784
 31
0.0
  0
LINE
  5
15C
330
56
100
AcDbEntity
  8
1
  6
Continuous
 62
     2
100
AcDbLine
 10
94.4348645802068
 20
209.8870943494784
 30
0.0
 11
94.4348645802068
 21
206.8870943494784
 31
0.0
  0
LINE
  5
15D
330
56
100
AcDbEntity
  8
1
  6
Continuous
 62
     7
100
AcDbLine
 10
93.4348645802068
 20
209.8870943494784
 30
0.0
 11
94.4348645802068
 21
209.8870943494784
 31
0.0
  0
LINE
  5
15E
330
56
100
AcDbEntity
  8
1
  6
Continuous
 62
     7
100
AcDbLine
 10
93.4348645802068
 20
209.8870943494784
 30
0.0
 11
94.43486458020675
 21
210.1564165485015
 31
0.0
  0
LINE
  5
15F
330
56
100
AcDbEntity
  8
1
  6
Continuous
 62
     7
100
AcDbLine
 10
93.4348645802068
 20
206.8870943494784
 30
0.0
 11
94.4348645802068
 21
206.8870943494784
 31
0.0
  0
LINE
  5
160
330
56
100
AcDbEntity
  8
1
  6
Continuous
 62
     7
100
AcDbLine
 10
93.4348645802068
 20
206.8870943494784
 30
0.0
 11
93.4348645802068
 21
209.8870943494784
 31
0.0
  0
LINE
  5
161
330
56
100
AcDbEntity
  8
1
  6
Continuous
 62
     7
100
AcDbLine
 10
95.4348645802068
 20
206.8870943494784
 30
0.0
 11
102.7348645802068
 21
206.8870943494784
 31
0.0
  0
LINE
  5
162
330
56
100
AcDbEntity
  8
1
  6
Continuous
 62
     7
100
AcDbLine
 10
107.4348645802068
 20
209.8870943494784
 30
0.0
 11
107.4348645802068
 21
206.8870943494784
 31
0.0
  0
LINE
  5
163
330
56
100
AcDbEntity
  8
1
  6
Continuous
 62
     7
100
AcDbLine
 10
106.4348645802068
 20
206.8870943494784
 30
0.0
 11
107.4348645802068
 21
206.8870943494784
 31
0.0
  0
LINE
  5
164
330
56
100
AcDbEntity
  8
1
  6
Continuous
 62
     7
100
AcDbLine
 10
106.4348645802068
 20
210.1564165485015
 30
0.0
 11
107.4348645802068
 21
209.8870943494784
 31
0.0
  0
LINE
  5
165
330
56
100
AcDbEntity
  8
1
  6
Continuous
 62
     7
100
AcDbLine
 10
106.4348645802068
 20
209.8870943494784
 30
0.0
 11
107.4348645802068
 21
209.8870943494784
 31
0.0
  0
LINE
  5
166
330
56
100
AcDbEntity
  8
1
  6
Continuous
 62
     2
100
AcDbLine
 10
106.4348645802068
 20
206.8870943494784
 30
0.0
 11
106.4348645802068
 21
209.8870943494784
 31
0.0
  0
LINE
  5
167
330
56
100
AcDbEntity
  8
1
  6
Continuous
 62
     7
100
AcDbLine
 10
105.4348645802068
 20
209.8870943494784
 30
0.0
 11
106.4348645802068
 21
209.8870943494784
 31
0.0
  0
LINE
  5
168
330
56
100
AcDbEntity
  8
1
  6
Continuous
 62
     7
100
AcDbLine
 10
105.4348645802068
 20
206.8870943494784
 30
0.0
 11
106.4348645802068
 21
206.8870943494784
 31
0.0
  0
LINE
  5
169
330
56
100
AcDbEntity
  8
1
  6
Continuous
 62
     2
100
AcDbLine
 10
105.4348645802068
 20
206.8870943494784
 30
0.0
 11
105.4348645802068
 21
209.8870943494784
 31
0.0
  0
LINE
  5
16A
330
56
100
AcDbEntity
  8
1
  6
Continuous
 62
     7
100
AcDbLine
 10
102.7348645802068
 20
206.8870943494784
 30
0.0
 11
105.4348645802068
 21
206.8870943494784
 31
0.0
  0
LINE
  5
16B
330
56
100
AcDbEntity
  8
1
  6
Continuous
 62
     2
100
AcDbLine
 10
104.4348645802068
 20
207.0531426619299
 30
0.0
 11
104.4348645802068
 21
209.6971679410261
 31
0.0
  0
LINE
  5
16C
330
56
100
AcDbEntity
  8
1
  6
Continuous
 62
     2
100
AcDbLine
 10
103.4348645802068
 20
207.2477948297161
 30
0.0
 11
103.4348645802068
 21
209.5836208431507
 31
0.0
  0
LINE
  5
16D
330
56
100
AcDbEntity
  8
1
  6
Continuous
 62
     2
100
AcDbLine
 10
102.4348645802068
 20
207.6046571373242
 30
0.0
 11
102.4348645802068
 21
209.3727476613823
 31
0.0
  0
LINE
  5
16E
330
56
100
AcDbEntity
  8
1
  6
Continuous
 62
     2
100
AcDbLine
 10
101.4348645802068
 20
207.8641933610391
 30
0.0
 11
101.4348645802068
 21
209.1294324516496
 31
0.0
  0
LINE
  5
16F
330
56
100
AcDbEntity
  8
1
  6
Continuous
 62
     7
100
AcDbLine
 10
100.4348645802068
 20
210.2168600696821
 30
0.0
 11
106.1848645802068
 21
210.2168600696821
 31
0.0
  0
LINE
  5
170
330
56
100
AcDbEntity
  8
1
  6
Continuous
 62
     7
100
AcDbLine
 10
213.7892172534888
 20
209.8870943494784
 30
0.0
 11
223.7892172534888
 21
209.8870943494784
 31
0.0
  0
LINE
  5
171
330
56
100
AcDbEntity
  8
1
  6
Continuous
 62
     7
100
AcDbLine
 10
213.0392172534888
 20
210.2168600696821
 30
0.0
 11
218.7892172534888
 21
210.2168600696821
 31
0.0
  0
LINE
  5
172
330
56
100
AcDbEntity
  8
1
  6
Continuous
 62
     2
100
AcDbLine
 10
217.7892172534888
 20
209.1294324516496
 30
0.0
 11
217.7892172534888
 21
207.8641933610391
 31
0.0
  0
LINE
  5
173
330
56
100
AcDbEntity
  8
1
  6
Continuous
 62
     2
100
AcDbLine
 10
216.7892172534888
 20
209.3727476613823
 30
0.0
 11
216.7892172534888
 21
207.6046571373242
 31
0.0
  0
LINE
  5
174
330
56
100
AcDbEntity
  8
1
  6
Continuous
 62
     2
100
AcDbLine
 10
215.7892172534888
 20
209.5836208431507
 30
0.0
 11
215.7892172534888
 21
207.2477948297161
 31
0.0
  0
LINE
  5
175
330
56
100
AcDbEntity
  8
1
  6
Continuous
 62
     2
100
AcDbLine
 10
214.7892172534888
 20
209.6971679410261
 30
0.0
 11
214.7892172534888
 21
207.0531426619299
 31
0.0
  0
LINE
  5
176
330
56
100
AcDbEntity
  8
1
  6
Continuous
 62
     2
100
AcDbLine
 10
213.7892172534888
 20
209.8870943494784
 30
0.0
 11
213.7892172534888
 21
206.8870943494784
 31
0.0
  0
LINE
  5
177
330
56
100
AcDbEntity
  8
1
  6
Continuous
 62
     7
100
AcDbLine
 10
212.7892172534888
 20
206.8870943494784
 30
0.0
 11
213.7892172534888
 21
206.8870943494784
 31
0.0
  0
LINE
  5
178
330
56
100
AcDbEntity
  8
1
  6
Continuous
 62
     7
100
AcDbLine
 10
212.7892172534888
 20
209.8870943494784
 30
0.0
 11
213.7892172534888
 21
209.8870943494784
 31
0.0
  0
LINE
  5
179
330
56
100
AcDbEntity
  8
1
  6
Continuous
 62
     2
100
AcDbLine
 10
212.7892172534888
 20
209.8870943494784
 30
0.0
 11
212.7892172534888
 21
206.8870943494784
 31
0.0
  0
LINE
  5
17A
330
56
100
AcDbEntity
  8
1
  6
Continuous
 62
     7
100
AcDbLine
 10
211.7892172534888
 20
209.8870943494784
 30
0.0
 11
212.7892172534888
 21
209.8870943494784
 31
0.0
  0
LINE
  5
17B
330
56
100
AcDbEntity
  8
1
  6
Continuous
 62
     7
100
AcDbLine
 10
211.7892172534888
 20
209.8870943494784
 30
0.0
 11
212.7892172534887
 21
210.1564165485015
 31
0.0
  0
LINE
  5
17C
330
56
100
AcDbEntity
  8
1
  6
Continuous
 62
     7
100
AcDbLine
 10
211.7892172534888
 20
206.8870943494784
 30
0.0
 11
212.7892172534888
 21
206.8870943494784
 31
0.0
  0
LINE
  5
17D
330
56
100
AcDbEntity
  8
1
  6
Continuous
 62
     7
100
AcDbLine
 10
211.7892172534888
 20
206.8870943494784
 30
0.0
 11
211.7892172534888
 21
209.8870943494784
 31
0.0
  0
LINE
  5
17E
330
56
100
AcDbEntity
  8
1
  6
Continuous
 62
     7
100
AcDbLine
 10
213.7892172534888
 20
206.8870943494784
 30
0.0
 11
221.0892172534888
 21
206.8870943494784
 31
0.0
  0
LINE
  5
17F
330
56
100
AcDbEntity
  8
1
  6
Continuous
 62
     7
100
AcDbLine
 10
225.7892172534888
 20
209.8870943494784
 30
0.0
 11
225.7892172534888
 21
206.8870943494784
 31
0.0
  0
LINE
  5
180
330
56
100
AcDbEntity
  8
1
  6
Continuous
 62
     7
100
AcDbLine
 10
224.7892172534888
 20
206.8870943494784
 30
0.0
 11
225.7892172534888
 21
206.8870943494784
 31
0.0
  0
LINE
  5
181
330
56
100
AcDbEntity
  8
1
  6
Continuous
 62
     7
100
AcDbLine
 10
224.7892172534889
 20
210.1564165485015
 30
0.0
 11
225.7892172534888
 21
209.8870943494784
 31
0.0
  0
LINE
  5
182
330
56
100
AcDbEntity
  8
1
  6
Continuous
 62
     7
100
AcDbLine
 10
224.7892172534888
 20
209.8870943494784
 30
0.0
 11
225.7892172534888
 21
209.8870943494784
 31
0.0
  0
LINE
  5
183
330
56
100
AcDbEntity
  8
1
  6
Continuous
 62
     2
100
AcDbLine
 10
224.7892172534888
 20
206.8870943494784
 30
0.0
 11
224.7892172534888
 21
209.8870943494784
 31
0.0
  0
LINE
  5
184
330
56
100
AcDbEntity
  8
1
  6
Continuous
 62
     7
100
AcDbLine
 10
223.7892172534888
 20
209.8870943494784
 30
0.0
 11
224.7892172534888
 21
209.8870943494784
 31
0.0
  0
LINE
  5
185
330
56
100
AcDbEntity
  8
1
  6
Continuous
 62
     7
100
AcDbLine
 10
223.7892172534888
 20
206.8870943494784
 30
0.0
 11
224.7892172534888
 21
206.8870943494784
 31
0.0
  0
LINE
  5
186
330
56
100
AcDbEntity
  8
1
  6
Continuous
 62
     2
100
AcDbLine
 10
223.7892172534888
 20
206.8870943494784
 30
0.0
 11
223.7892172534888
 21
209.8870943494784
 31
0.0
  0
LINE
  5
187
330
56
100
AcDbEntity
  8
1
  6
Continuous
 62
     7
100
AcDbLine
 10
221.0892172534888
 20
206.8870943494784
 30
0.0
 11
223.7892172534888
 21
206.8870943494784
 31
0.0
  0
LINE
  5
188
330
56
100
AcDbEntity
  8
1
  6
Continuous
 62
     2
100
AcDbLine
 10
222.7892172534888
 20
207.0531426619299
 30
0.0
 11
222.7892172534888
 21
209.6971679410261
 31
0.0
  0
LINE
  5
189
330
56
100
AcDbEntity
  8
1
  6
Continuous
 62
     2
100
AcDbLine
 10
221.7892172534888
 20
207.2477948297161
 30
0.0
 11
221.7892172534888
 21
209.5836208431507
 31
0.0
  0
LINE
  5
18A
330
56
100
AcDbEntity
  8
1
  6
Continuous
 62
     2
100
AcDbLine
 10
220.7892172534888
 20
207.6046571373242
 30
0.0
 11
220.7892172534888
 21
209.3727476613823
 31
0.0
  0
LINE
  5
18B
330
56
100
AcDbEntity
  8
1
  6
Continuous
 62
     2
100
AcDbLine
 10
219.7892172534888
 20
207.8641933610391
 30
0.0
 11
219.7892172534888
 21
209.1294324516496
 31
0.0
  0
LINE
  5
18C
330
56
100
AcDbEntity
  8
1
  6
Continuous
 62
     7
100
AcDbLine
 10
218.7892172534888
 20
210.2168600696821
 30
0.0
 11
224.5392172534888
 21
210.2168600696821
 31
0.0
  0
ARC
  5
18D
330
56
100
AcDbEntity
  8
1
  6
Continuous
 62
     7
100
AcDbCircle
 10
100.4348645802068
 20
185.8870943494784
 30
0.0
 40
24.99999999999999
100
AcDbArc
 50
76.70292825279094
 51
103.2970717472091
  0
ARC
  5
18E
330
56
100
AcDbEntity
  8
1
  6
Continuous
 62
     7
100
AcDbCircle
 10
100.4348645802068
 20
185.8870943494784
 30
0.0
 40
24.99999999999999
100
AcDbArc
 50
103.2970717472091
 51
103.8865403626292
  0
ARC
  5
18F
330
56
100
AcDbEntity
  8
1
  6
Continuous
 62
     7
100
AcDbCircle
 10
100.4348645802068
 20
185.8870943494784
 30
0.0
 40
24.99999999999993
100
AcDbArc
 50
76.11345963737097
 51
76.70292825279094
  0
ARC
  5
190
330
56
100
AcDbEntity
  8
1
  6
Continuous
 62
     7
100
AcDbCircle
 10
218.7892172534888
 20
185.8870943494784
 30
0.0
 40
24.99999999999999
100
AcDbArc
 50
76.70292825279094
 51
103.2970717472091
  0
ARC
  5
191
330
56
100
AcDbEntity
  8
1
  6
Continuous
 62
     7
100
AcDbCircle
 10
218.7892172534888
 20
185.8870943494784
 30
0.0
 40
24.99999999999999
100
AcDbArc
 50
103.2970717472091
 51
103.8865403626293
  0
ARC
  5
192
330
56
100
AcDbEntity
  8
1
  6
Continuous
 62
     7
100
AcDbCircle
 10
218.7892172534888
 20
185.8870943494784
 30
0.0
 40
24.99999999999996
100
AcDbArc
 50
76.11345963737071
 51
76.70292825279094
  0
CIRCLE
  5
193
330
56
100
AcDbEntity
  8
1
  6
Continuous
 62
     7
100
AcDbCircle
 10
100.4350021727118
 20
307.388060640748
 30
0.0
 40
5.749999999999901
  0
CIRCLE
  5
194
330
56
100
AcDbEntity
  8
1
  6
Continuous
 62
     7
100
AcDbCircle
 10
100.4350021727118
 20
307.388060640748
 30
0.0
 40
7.0
  0
ENDBLK
  5
58
330
56
100
AcDbEntity
  8
0
100
AcDbBlockEnd
  0
BLOCK
  5
5A
330
59
100
AcDbEntity
  8
0
100
AcDbBlockBegin
  2
37-1-13
 70
     0
 10
126.9879870367178
 20
35.89138845933363
 30
0.0
  3
37-1-13
  1

  0
LINE
  5
195
330
59
100
AcDbEntity
  8
1
  6
Continuous
 62
     7
100
AcDbLine
 10
113.4350021727115
 20
185.9578085637498
 30
0.0
 11
113.4350021727115
 21
185.6498451107215
 31
0.0
  0
LINE
  5
196
330
59
100
AcDbEntity
  8
1
  6
Continuous
 62
     7
100
AcDbLine
 10
113.4350021727115
 20
178.8870943494781
 30
0.0
 11
87.43500217271165
 21
178.8870943494781
 31
0.0
  0
LINE
  5
197
330
59
100
AcDbEntity
  8
1
  6
Continuous
 62
     7
100
AcDbLine
 10
113.4350021727115
 20
185.6498451107215
 30
0.0
 11
113.4350021727115
 21
178.8870943494781
 31
0.0
  0
LINE
  5
198
330
59
100
AcDbEntity
  8
1
  6
Continuous
 62
     7
100
AcDbLine
 10
94.43500217271185
 20
192.8870943494781
 30
0.0
 11
106.4350021727118
 21
192.8870943494781
 31
0.0
  0
LINE
  5
199
330
59
100
AcDbEntity
  8
1
  6
Continuous
 62
     7
100
AcDbLine
 10
87.43500217271165
 20
185.9578085637494
 30
0.0
 11
87.43500217271165
 21
185.649955747987
 31
0.0
  0
LINE
  5
19A
330
59
100
AcDbEntity
  8
1
  6
Continuous
 62
     7
100
AcDbLine
 10
87.43500217271165
 20
185.649955747987
 30
0.0
 11
87.43500217271165
 21
178.8870943494781
 31
0.0
  0
LINE
  5
19B
330
59
100
AcDbEntity
  8
1
  6
Continuous
 62
     7
100
AcDbLine
 10
205.7185030392174
 20
178.8870943494781
 30
0.0
 11
231.8599314677602
 21
178.8870943494781
 31
0.0
  0
LINE
  5
19C
330
59
100
AcDbEntity
  8
1
  6
Continuous
 62
     7
100
AcDbLine
 10
224.7892172534888
 20
192.8870943494781
 30
0.0
 11
212.7892172534889
 21
192.8870943494781
 31
0.0
  0
ARC
  5
19D
330
59
100
AcDbEntity
  8
1
  6
Continuous
 62
     7
100
AcDbCircle
 10
109.9350021727118
 20
182.3870943494782
 30
0.0
 40
4.999999999999929
100
AcDbArc
 50
45.57299599919828
 51
53.13010235415781
  0
ARC
  5
19E
330
59
100
AcDbEntity
  8
1
  6
Continuous
 62
     7
100
AcDbCircle
 10
126.3414573778265
 20
206.293549554593
 30
0.0
 40
23.9999999999998
100
AcDbArc
 50
213.9591925000977
 51
236.0408074999024
  0
ARC
  5
19F
330
59
100
AcDbEntity
  8
1
  6
Continuous
 62
     7
100
AcDbCircle
 10
90.93500217271185
 20
182.3870943494781
 30
0.0
 40
5.000000000000017
100
AcDbArc
 50
126.8698976458427
 51
134.4270040008083
  0
ARC
  5
1A0
330
59
100
AcDbEntity
  8
1
  6
Continuous
 62
     7
100
AcDbCircle
 10
74.52854696759672
 20
206.293549554593
 30
0.0
 40
24.00000000000007
100
AcDbArc
 50
303.9591925000982
 51
326.0408074999028
  0
ARC
  5
1A1
330
59
100
AcDbEntity
  8
1
  6
Continuous
 62
     7
100
AcDbCircle
 10
228.2892172534888
 20
182.3870943494781
 30
0.0
 40
4.999999999999975
100
AcDbArc
 50
315.572995999194
 51
53.13010235415702
  0
ARC
  5
1A2
330
59
100
AcDbEntity
  8
1
  6
Continuous
 62
     7
100
AcDbCircle
 10
244.6956724586037
 20
206.293549554593
 30
0.0
 40
23.99999999999996
100
AcDbArc
 50
213.9591925000975
 51
236.0408074999023
  0
ARC
  5
1A3
330
59
100
AcDbEntity
  8
1
  6
Continuous
 62
     7
100
AcDbCircle
 10
209.2892172534889
 20
182.3870943494781
 30
0.0
 40
4.999999999999948
100
AcDbArc
 50
126.8698976458433
 51
224.4270040008051
  0
ARC
  5
1A4
330
59
100
AcDbEntity
  8
1
  6
Continuous
 62
     7
100
AcDbCircle
 10
192.882762048374
 20
206.293549554593
 30
0.0
 40
24.00000000000002
100
AcDbArc
 50
303.9591925000977
 51
326.0408074999025
  0
SPLINE
  5
1A5
330
59
100
AcDbEntity
  8
1
  6
Continuous
 62
     7
100
AcDbSpline
210
0.0
220
0.0
230
1.0
 70
    11
 71
     3
 72
    79
 73
    75
 74
    73
 42
0.000000001
 43
0.0000000001
 44
0.00000001
 40
0.0
 40
0.0
 40
0.0
 40
0.0
 40
0.2813091295366814
 40
0.5626019528582454
 40
0.8464226451892478
 40
1.130214053669808
 40
1.417835704367888
 40
1.705420535636359
 40
1.997635971559938
 40
2.289812847779017
 40
2.586839028646994
 40
2.883829785627901
 40
3.185307038912408
 40
3.486755454941933
 40
3.791812973649314
 40
4.096850359215402
 40
4.40422079293085
 40
4.711580925269281
 40
5.019747225769459
 40
5.327913526259503
 40
5.635273658567319
 40
5.942644092231118
 40
6.247681477724726
 40
6.55273899633723
 40
6.854187412249837
 40
7.155664665392634
 40
7.452655422208016
 40
7.749681602882121
 40
8.041858478879703
 40
8.334073914546904
 40
8.621658745520888
 40
8.909280395868663
 40
9.193071803910728
 40
9.476892495599843
 40
9.758185317503667
 40
10.03949445584101
 40
10.31992039306076
 40
10.60034633027939
 40
10.88165546861354
 40
11.16294829051199
 40
11.44676898219371
 40
11.73056039022646
 40
12.01818204056306
 40
12.30576687152423
 40
12.59798230717693
 40
12.89015918315877
 40
13.1871853638158
 40
13.48417612061308
 40
13.78565337373677
 40
14.0871017896294
 40
14.39215930822111
 40
14.69719669369346
 40
15.00456712733538
 40
15.31192725962082
 40
15.62009356008795
 40
15.92825986056493
 40
16.23561999287977
 40
16.54299042657112
 40
16.84802781211294
 40
17.15308533079541
 40
17.4545337467996
 40
17.75601100005787
 40
18.05300175701165
 40
18.35002793785055
 40
18.64220481403775
 40
18.93442024992413
 40
19.22200508114566
 40
19.50962673177623
 40
19.79341814013933
 40
20.07723883220392
 40
20.35853165457076
 40
20.63984079357041
 40
20.92026673223048
 40
21.20069266066646
 40
21.20069266066646
 40
21.20069266066646
 40
21.20069266066646
 10
230.3276472390295
 20
185.9442865787216
 30
0.0
 10
230.420774187071
 20
185.9327151756049
 30
0.0
 10
230.6070226857076
 20
185.909573045497
 30
0.0
 10
230.8813242689324
 20
185.8408109067675
 30
0.0
 10
231.1490681983018
 20
185.7482427803896
 30
0.0
 10
231.4086808347598
 20
185.6293904447894
 30
0.0
 10
231.657397931998
 20
185.4867285293439
 30
0.0
 10
231.8942418476459
 20
185.3201856285596
 30
0.0
 10
232.1164572672011
 20
185.1322279093623
 30
0.0
 10
232.3233203194261
 20
184.9230656976662
 30
0.0
 10
232.5123790545046
 20
184.6956131212814
 30
0.0
 10
232.6830189993645
 20
184.4502675370173
 30
0.0
 10
232.8332827284206
 20
184.190238978758
 30
0.0
 10
232.9625900807325
 20
183.9162162327757
 30
0.0
 10
233.0695808828602
 20
183.6314685474607
 30
0.0
 10
233.1537132222134
 20
183.3371056979751
 30
0.0
 10
233.2142322065924
 20
183.0362152180652
 30
0.0
 10
233.2507133447601
 20
182.7304288961625
 30
0.0
 10
233.262932126465
 20
182.4224514662263
 30
0.0
 10
233.2507133451038
 20
182.114474036281
 30
0.0
 10
233.2142322072795
 20
181.8086877143855
 30
0.0
 10
233.1537132232537
 20
181.5077972343951
 30
0.0
 10
233.0695808842297
 20
181.2134343851193
 30
0.0
 10
232.9625900825419
 20
180.9286866989026
 30
0.0
 10
232.833282730284
 20
180.6546639560873
 30
0.0
 10
232.683019002746
 20
180.3946353858925
 30
0.0
 10
232.5123790540478
 20
180.1492898452907
 30
0.0
 10
232.323320334981
 20
179.9218371070298
 30
0.0
 10
232.1164572257849
 20
179.7126754896956
 30
0.0
 10
231.8942420189734
 20
179.5247155709204
 30
0.0
 10
231.6573973233818
 20
179.3581807546751
 30
0.0
 10
231.4086831169056
 20
179.2154888974641
 30
0.0
 10
231.1490598311262
 20
179.0967468903077
 30
0.0
 10
230.8813554236942
 20
179.0037693451761
 30
0.0
 10
230.6069075905506
 20
178.9365222673667
 30
0.0
 10
230.3283687680932
 20
178.896206921266
 30
0.0
 10
230.0475475032737
 20
178.8825452422834
 30
0.0
 10
229.7667262384541
 20
178.8962069212423
 30
0.0
 10
229.4881874159964
 20
178.9365222673189
 30
0.0
 10
229.2137395828525
 20
179.0037693451045
 30
0.0
 10
228.94603517542
 20
179.0967468902124
 30
0.0
 10
228.6864118896402
 20
179.2154888973452
 30
0.0
 10
228.4376976831632
 20
179.3581807545329
 30
0.0
 10
228.200852987571
 20
179.524715570755
 30
0.0
 10
227.9786377807589
 20
179.7126754895071
 30
0.0
 10
227.7717746715617
 20
179.9218371068183
 30
0.0
 10
227.5827159524943
 20
180.1492898450565
 30
0.0
 10
227.4120760037951
 20
180.3946353856357
 30
0.0
 10
227.2618122762562
 20
180.6546639558079
 30
0.0
 10
227.1325049239973
 20
180.9286866986007
 30
0.0
 10
227.0255141223085
 20
181.2134343847951
 30
0.0
 10
226.9413817832833
 20
181.5077972340484
 30
0.0
 10
226.880862799256
 20
181.8086877140161
 30
0.0
 10
226.8443816614304
 20
182.1144740358893
 30
0.0
 10
226.8321628800676
 20
182.4224514658105
 30
0.0
 10
226.8443816617699
 20
182.7304288957278
 30
0.0
 10
226.8808627999364
 20
183.0362152175913
 30
0.0
 10
226.9413817843057
 20
183.3371056975361
 30
0.0
 10
227.0255141236787
 20
183.6314685467801
 30
0.0
 10
227.1325049257111
 20
183.9162162328776
 30
0.0
 10
227.2618122783477
 20
184.1902389758571
 30
0.0
 10
227.4120760061647
 20
184.4502675451243
 30
0.0
 10
227.5827159555349
 20
184.6956130887739
 30
0.0
 10
227.7717746738579
 20
184.9230658153379
 30
0.0
 10
227.978637787554
 20
185.1322274751713
 30
0.0
 10
228.2008529795414
 20
185.3201872361543
 30
0.0
 10
228.4376977314856
 20
185.4867226317845
 30
0.0
 10
228.6864117312057
 20
185.6294123425239
 30
0.0
 10
228.9460357808617
 20
185.7481622581608
 30
0.0
 10
229.2137373558102
 20
185.8411104547229
 30
0.0
 10
229.4881956730769
 20
185.9084661363709
 30
0.0
 10
229.7666954832418
 20
185.9483773235561
 30
0.0
 10
230.0476619167713
 20
185.9635429005542
 30
0.0
 10
230.2343187992965
 20
185.9507053507679
 30
0.0
 10
230.3276472390294
 20
185.9442865787216
 30
0.0
 11
230.3276472390295
 21
185.9442865787216
 31
0.0
 11
230.606046746383
 21
185.9039313345817
 31
0.0
 11
230.8792907712556
 21
185.8371229920227
 31
0.0
 11
231.1473968974203
 21
185.7439924908336
 31
0.0
 11
231.4055429155179
 21
185.626101877457
 31
0.0
 11
231.6550355938661
 21
185.4829948640003
 31
0.0
 11
231.8903810009659
 21
185.3177145734066
 31
0.0
 11
232.1135231939809
 21
185.1290417809036
 31
0.0
 11
232.3190881190661
 21
184.9214113676011
 31
0.0
 11
232.509002696335
 21
184.6930322848714
 31
0.0
 11
232.6786889990257
 21
184.4492904780594
 31
0.0
 11
232.8295846885863
 21
184.1882942614105
 31
0.0
 11
232.9583246755842
 21
183.9157192015322
 31
0.0
 11
233.0656673388741
 21
183.6301712329554
 31
0.0
 11
233.1495636821132
 21
183.3368979641569
 31
0.0
 11
233.2101956387527
 21
183.035567000977
 31
0.0
 11
233.2466448727392
 21
182.7303757423966
 31
0.0
 11
233.2588556473525
 21
182.4224514566139
 31
0.0
 11
233.2466448727392
 21
182.1145271708312
 31
0.0
 11
233.2101956387526
 21
181.8093359122508
 31
0.0
 11
233.1495636821132
 21
181.5080049490708
 31
0.0
 11
233.0656673388741
 21
181.2147316802723
 31
0.0
 11
232.9583246755842
 21
180.9291837116955
 31
0.0
 11
232.8295846885862
 21
180.6566086518172
 31
0.0
 11
232.6786889990257
 21
180.3956124351683
 31
0.0
 11
232.5090026963349
 21
180.1518706283563
 31
0.0
 11
232.319088119066
 21
179.9234915456265
 31
0.0
 11
232.1135231939809
 21
179.715861132324
 31
0.0
 11
231.8903810009659
 21
179.5271883398209
 31
0.0
 11
231.6550355938661
 21
179.3619080492272
 31
0.0
 11
231.4055429155179
 21
179.2188010357705
 31
0.0
 11
231.1473968974203
 21
179.100910422394
 31
0.0
 11
230.8792907712556
 21
179.0077799212048
 31
0.0
 11
230.606046746383
 21
178.9409715786458
 31
0.0
 11
230.3276472390295
 21
178.9006163345059
 31
0.0
 11
230.0475475026862
 21
178.8870943494781
 31
0.0
 11
229.7674477663429
 21
178.900616334506
 31
0.0
 11
229.4890482589894
 21
178.9409715786459
 31
0.0
 11
229.2158042341167
 21
179.0077799212049
 31
0.0
 11
228.947698107952
 21
179.1009104223941
 31
0.0
 11
228.6895520898544
 21
179.2188010357706
 31
0.0
 11
228.4400594115061
 21
179.3619080492273
 31
0.0
 11
228.2047140044064
 21
179.527188339821
 31
0.0
 11
227.9815718113915
 21
179.7158611323241
 31
0.0
 11
227.7760068863062
 21
179.9234915456265
 31
0.0
 11
227.5860923090374
 21
180.1518706283563
 31
0.0
 11
227.4164060063467
 21
180.3956124351683
 31
0.0
 11
227.2655103167861
 21
180.6566086518172
 31
0.0
 11
227.1367703297882
 21
180.9291837116955
 31
0.0
 11
227.0294276664983
 21
181.2147316802722
 31
0.0
 11
226.9455313232591
 21
181.5080049490708
 31
0.0
 11
226.8848993666196
 21
181.8093359122508
 31
0.0
 11
226.8484501326331
 21
182.1145271708312
 31
0.0
 11
226.8362393580199
 21
182.4224514566139
 31
0.0
 11
226.8484501326331
 21
182.7303757423966
 31
0.0
 11
226.8848993666196
 21
183.035567000977
 31
0.0
 11
226.9455313232591
 21
183.3368979641569
 31
0.0
 11
227.0294276664983
 21
183.6301712329554
 31
0.0
 11
227.1367703297882
 21
183.9157192015322
 31
0.0
 11
227.2655103167861
 21
184.1882942614104
 31
0.0
 11
227.4164060063466
 21
184.4492904780594
 31
0.0
 11
227.5860923090373
 21
184.6930322848714
 31
0.0
 11
227.7760068863062
 21
184.9214113676012
 31
0.0
 11
227.9815718113915
 21
185.1290417809037
 31
0.0
 11
228.2047140044064
 21
185.3177145734066
 31
0.0
 11
228.4400594115062
 21
185.4829948640003
 31
0.0
 11
228.6895520898544
 21
185.626101877457
 31
0.0
 11
228.947698107952
 21
185.7439924908335
 31
0.0
 11
229.2158042341167
 21
185.8371229920227
 31
0.0
 11
229.4890482589894
 21
185.9039313345817
 31
0.0
 11
229.767447766343
 21
185.9442865787216
 31
0.0
 11
230.0475475026862
 21
185.9578085637495
 31
0.0
 11
230.3276472390294
 21
185.9442865787216
 31
0.0
  0
SPLINE
  5
1A6
330
59
100
AcDbEntity
  8
1
  6
Continuous
 62
     7
100
AcDbSpline
210
0.0
220
0.0
230
1.0
 70
    11
 71
     3
 72
    79
 73
    75
 74
    73
 42
0.000000001
 43
0.0000000001
 44
0.00000001
 40
0.0
 40
0.0
 40
0.0
 40
0.0
 40
0.2813091295367095
 40
0.5626019528582735
 40
0.8464226451893029
 40
1.130214053669837
 40
1.417835704367966
 40
1.705420535636391
 40
1.997635971559949
 40
2.289812847779007
 40
2.586839028646966
 40
2.883829785627906
 40
3.185307038912412
 40
3.486755454941925
 40
3.791812973649317
 40
4.096850359215406
 40
4.404220792930859
 40
4.711580925269287
 40
5.019747225769464
 40
5.327913526259509
 40
5.63527365856732
 40
5.942644092231131
 40
6.247681477724745
 40
6.55273899633722
 40
6.854187412249813
 40
7.155664665392639
 40
7.452655422208005
 40
7.749681602882128
 40
8.04185847887973
 40
8.334073914546867
 40
8.621658745520874
 40
8.909280395868599
 40
9.193071803910716
 40
9.476892495599857
 40
9.758185317503681
 40
10.03949445584102
 40
10.31992039306077
 40
10.60034633027944
 40
10.88165546861359
 40
11.16294829051203
 40
11.44676898219373
 40
11.73056039022651
 40
12.01818204056306
 40
12.30576687152425
 40
12.59798230717697
 40
12.89015918315879
 40
13.18718536381586
 40
13.48417612061308
 40
13.78565337373676
 40
14.0871017896294
 40
14.39215930822111
 40
14.69719669369347
 40
15.00456712733539
 40
15.31192725962083
 40
15.62009356008796
 40
15.92825986056494
 40
16.23561999287979
 40
16.54299042657113
 40
16.84802781211296
 40
17.1530853307954
 40
17.45453374679962
 40
17.7560110000579
 40
18.05300175701168
 40
18.35002793785056
 40
18.64220481403776
 40
18.93442024992412
 40
19.22200508114565
 40
19.50962673177622
 40
19.79341814013935
 40
20.07723883220388
 40
20.35853165457078
 40
20.63984079357037
 40
20.92026673223047
 40
21.20069266066648
 40
21.20069266066648
 40
21.20069266066648
 40
21.20069266066648
 10
207.2507872679479
 20
185.9442865787216
 30
0.0
 10
207.1576603199065
 20
185.9327151756049
 30
0.0
 10
206.9714118212698
 20
185.909573045497
 30
0.0
 10
206.6971102380449
 20
185.8408109067676
 30
0.0
 10
206.4293663086755
 20
185.7482427803896
 30
0.0
 10
206.1697536722176
 20
185.6293904447894
 30
0.0
 10
205.9210365749794
 20
185.4867285293439
 30
0.0
 10
205.6841926593314
 20
185.3201856285596
 30
0.0
 10
205.4619772397763
 20
185.1322279093623
 30
0.0
 10
205.2551141875512
 20
184.9230656976662
 30
0.0
 10
205.0660554524729
 20
184.6956131212813
 30
0.0
 10
204.8954155076129
 20
184.4502675370173
 30
0.0
 10
204.7451517785568
 20
184.190238978758
 30
0.0
 10
204.6158444262449
 20
183.9162162327757
 30
0.0
 10
204.5088536241172
 20
183.6314685474607
 30
0.0
 10
204.424721284764
 20
183.3371056979752
 30
0.0
 10
204.3642023003849
 20
183.0362152180652
 30
0.0
 10
204.3277211622173
 20
182.7304288961624
 30
0.0
 10
204.3155023805124
 20
182.4224514662263
 30
0.0
 10
204.3277211618737
 20
182.114474036281
 30
0.0
 10
204.3642022996979
 20
181.8086877143855
 30
0.0
 10
204.4247212837237
 20
181.5077972343951
 30
0.0
 10
204.5088536227478
 20
181.2134343851194
 30
0.0
 10
204.6158444244354
 20
180.9286866989026
 30
0.0
 10
204.7451517766933
 20
180.6546639560872
 30
0.0
 10
204.8954155042314
 20
180.3946353858925
 30
0.0
 10
205.0660554529296
 20
180.1492898452907
 30
0.0
 10
205.2551141719963
 20
179.9218371070298
 30
0.0
 10
205.4619772811926
 20
179.7126754896957
 30
0.0
 10
205.684192488004
 20
179.5247155709204
 30
0.0
 10
205.9210371835956
 20
179.3581807546752
 30
0.0
 10
206.1697513900718
 20
179.2154888974641
 30
0.0
 10
206.4293746758511
 20
179.0967468903077
 30
0.0
 10
206.6970790832831
 20
179.0037693451761
 30
0.0
 10
206.9715269164268
 20
178.9365222673667
 30
0.0
 10
207.2500657388842
 20
178.8962069212662
 30
0.0
 10
207.5308870037037
 20
178.8825452422834
 30
0.0
 10
207.8117082685233
 20
178.8962069212422
 30
0.0
 10
208.0902470909809
 20
178.936522267319
 30
0.0
 10
208.3646949241249
 20
179.0037693451044
 30
0.0
 10
208.6323993315574
 20
179.0967468902124
 30
0.0
 10
208.8920226173373
 20
179.2154888973452
 30
0.0
 10
209.1407368238142
 20
179.3581807545329
 30
0.0
 10
209.3775815194064
 20
179.5247155707549
 30
0.0
 10
209.5997967262186
 20
179.7126754895071
 30
0.0
 10
209.8066598354156
 20
179.9218371068183
 30
0.0
 10
209.9957185544833
 20
180.1492898450564
 30
0.0
 10
210.1663585031823
 20
180.3946353856357
 30
0.0
 10
210.3166222307212
 20
180.6546639558079
 30
0.0
 10
210.4459295829801
 20
180.9286866986008
 30
0.0
 10
210.5529203846689
 20
181.2134343847951
 30
0.0
 10
210.6370527236942
 20
181.5077972340484
 30
0.0
 10
210.6975717077213
 20
181.8086877140161
 30
0.0
 10
210.7340528455471
 20
182.1144740358893
 30
0.0
 10
210.7462716269097
 20
182.4224514658105
 30
0.0
 10
210.7340528452074
 20
182.7304288957277
 30
0.0
 10
210.6975717070409
 20
183.0362152175912
 30
0.0
 10
210.6370527226717
 20
183.3371056975361
 30
0.0
 10
210.5529203832985
 20
183.63146854678
 30
0.0
 10
210.4459295812663
 20
183.9162162328776
 30
0.0
 10
210.3166222286297
 20
184.190238975857
 30
0.0
 10
210.1663585008126
 20
184.4502675451243
 30
0.0
 10
209.9957185514425
 20
184.6956130887739
 30
0.0
 10
209.8066598331195
 20
184.9230658153379
 30
0.0
 10
209.5997967194233
 20
185.1322274751713
 30
0.0
 10
209.3775815274361
 20
185.3201872361543
 30
0.0
 10
209.1407367754917
 20
185.4867226317845
 30
0.0
 10
208.8920227757717
 20
185.6294123425239
 30
0.0
 10
208.6323987261157
 20
185.7481622581608
 30
0.0
 10
208.3646971511672
 20
185.8411104547229
 30
0.0
 10
208.0902388339005
 20
185.9084661363708
 30
0.0
 10
207.8117390237356
 20
185.9483773235561
 30
0.0
 10
207.5307725902061
 20
185.9635429005542
 30
0.0
 10
207.3441157076808
 20
185.9507053507679
 30
0.0
 10
207.2507872679479
 20
185.9442865787216
 30
0.0
 11
207.2507872679479
 21
185.9442865787216
 31
0.0
 11
206.9723877605944
 21
185.9039313345817
 31
0.0
 11
206.6991437357217
 21
185.8371229920227
 31
0.0
 11
206.4310376095571
 21
185.7439924908336
 31
0.0
 11
206.1728915914595
 21
185.626101877457
 31
0.0
 11
205.9233989131112
 21
185.4829948640003
 31
0.0
 11
205.6880535060115
 21
185.3177145734066
 31
0.0
 11
205.4649113129965
 21
185.1290417809036
 31
0.0
 11
205.2593463879114
 21
184.9214113676011
 31
0.0
 11
205.0694318106425
 21
184.6930322848714
 31
0.0
 11
204.8997455079517
 21
184.4492904780594
 31
0.0
 11
204.7488498183911
 21
184.1882942614105
 31
0.0
 11
204.6201098313932
 21
183.9157192015322
 31
0.0
 11
204.5127671681034
 21
183.6301712329554
 31
0.0
 11
204.4288708248642
 21
183.3368979641569
 31
0.0
 11
204.3682388682247
 21
183.035567000977
 31
0.0
 11
204.3317896342382
 21
182.7303757423966
 31
0.0
 11
204.3195788596249
 21
182.4224514566139
 31
0.0
 11
204.3317896342382
 21
182.1145271708312
 31
0.0
 11
204.3682388682248
 21
181.8093359122508
 31
0.0
 11
204.4288708248642
 21
181.5080049490708
 31
0.0
 11
204.5127671681034
 21
181.2147316802723
 31
0.0
 11
204.6201098313932
 21
180.9291837116955
 31
0.0
 11
204.7488498183911
 21
180.6566086518172
 31
0.0
 11
204.8997455079517
 21
180.3956124351683
 31
0.0
 11
205.0694318106425
 21
180.1518706283563
 31
0.0
 11
205.2593463879114
 21
179.9234915456265
 31
0.0
 11
205.4649113129966
 21
179.715861132324
 31
0.0
 11
205.6880535060115
 21
179.5271883398209
 31
0.0
 11
205.9233989131113
 21
179.3619080492272
 31
0.0
 11
206.1728915914595
 21
179.2188010357705
 31
0.0
 11
206.4310376095571
 21
179.100910422394
 31
0.0
 11
206.6991437357218
 21
179.0077799212048
 31
0.0
 11
206.9723877605944
 21
178.9409715786458
 31
0.0
 11
207.2507872679479
 21
178.9006163345059
 31
0.0
 11
207.5308870042912
 21
178.8870943494781
 31
0.0
 11
207.8109867406345
 21
178.900616334506
 31
0.0
 11
208.0893862479881
 21
178.9409715786459
 31
0.0
 11
208.3626302728608
 21
179.0077799212049
 31
0.0
 11
208.6307363990254
 21
179.1009104223941
 31
0.0
 11
208.8888824171231
 21
179.2188010357706
 31
0.0
 11
209.1383750954713
 21
179.3619080492273
 31
0.0
 11
209.373720502571
 21
179.527188339821
 31
0.0
 11
209.596862695586
 21
179.7158611323241
 31
0.0
 11
209.8024276206712
 21
179.9234915456265
 31
0.0
 11
209.99234219794
 21
180.1518706283563
 31
0.0
 11
210.1620285006307
 21
180.3956124351683
 31
0.0
 11
210.3129241901912
 21
180.6566086518172
 31
0.0
 11
210.4416641771892
 21
180.9291837116955
 31
0.0
 11
210.5490068404791
 21
181.2147316802722
 31
0.0
 11
210.6329031837183
 21
181.5080049490708
 31
0.0
 11
210.6935351403578
 21
181.8093359122508
 31
0.0
 11
210.7299843743443
 21
182.1145271708312
 31
0.0
 11
210.7421951489575
 21
182.4224514566139
 31
0.0
 11
210.7299843743443
 21
182.7303757423966
 31
0.0
 11
210.6935351403578
 21
183.035567000977
 31
0.0
 11
210.6329031837183
 21
183.3368979641569
 31
0.0
 11
210.5490068404791
 21
183.6301712329554
 31
0.0
 11
210.4416641771892
 21
183.9157192015322
 31
0.0
 11
210.3129241901912
 21
184.1882942614104
 31
0.0
 11
210.1620285006307
 21
184.4492904780594
 31
0.0
 11
209.99234219794
 21
184.6930322848714
 31
0.0
 11
209.8024276206712
 21
184.9214113676012
 31
0.0
 11
209.5968626955859
 21
185.1290417809037
 31
0.0
 11
209.373720502571
 21
185.3177145734066
 31
0.0
 11
209.1383750954712
 21
185.4829948640003
 31
0.0
 11
208.888882417123
 21
185.626101877457
 31
0.0
 11
208.6307363990254
 21
185.7439924908335
 31
0.0
 11
208.3626302728607
 21
185.8371229920227
 31
0.0
 11
208.089386247988
 21
185.9039313345817
 31
0.0
 11
207.8109867406345
 21
185.9442865787216
 31
0.0
 11
207.5308870042912
 21
185.9578085637495
 31
0.0
 11
207.2507872679479
 21
185.9442865787216
 31
0.0
  0
SPLINE
  5
1A7
330
59
100
AcDbEntity
  8
1
  6
Continuous
 62
     7
100
AcDbSpline
210
0.0
220
0.0
230
1.0
 70
    11
 71
     3
 72
    79
 73
    75
 74
    73
 42
0.000000001
 43
0.0000000001
 44
0.00000001
 40
0.0
 40
0.0
 40
0.0
 40
0.0
 40
0.3219191065761666
 40
0.6433817936226445
 40
0.9928750027373014
 40
1.341795136668586
 40
1.729749024779493
 40
2.117262753762444
 40
2.547908612129161
 40
2.978266912591531
 40
3.450266272796341
 40
3.92208644892584
 40
4.429962875077952
 40
4.937730794206725
 40
5.473111498178961
 40
6.008430496810218
 40
6.56103330560596
 40
7.113608118626652
 40
7.672061090161261
 40
8.23051406169828
 40
8.783088874725678
 40
9.33569168353144
 40
9.871010682173935
 40
10.40639138615608
 40
10.9141593052895
 40
11.42203573143622
 40
11.89385590754518
 40
12.3658552677045
 40
12.796213568092
 40
13.22685942633412
 40
13.61437315514071
 40
14.00232704297784
 40
14.35124717651866
 40
14.70074038494124
 40
15.02220306986421
 40
15.34412218308072
 40
15.65570035336875
 40
15.96727852365564
 40
16.2891976368691
 40
16.61066032178737
 40
16.96015353020372
 40
17.30907366373757
 40
17.69702755156672
 40
18.08454128036549
 40
18.51518713859939
 40
18.94554543897932
 40
19.4175447991309
 40
19.88936497523303
 40
20.39724140137311
 40
20.90500932050065
 40
21.44039002447751
 40
21.97570902311571
 40
22.52831183191803
 40
23.08088664494315
 40
23.63933961647919
 40
24.19779258801459
 40
24.75036740103777
 40
25.302970209838
 40
25.83828920847573
 40
26.37366991245667
 40
26.88143783159599
 40
27.38931425776061
 40
27.86113443390339
 40
28.33313379412166
 40
28.76349209459545
 40
29.19413795296923
 40
29.58165168194929
 40
29.96960557003402
 40
30.31852570388557
 40
30.66801891273301
 40
30.98948159820573
 40
31.31140071222988
 40
31.62297888471752
 40
31.9345570487637
 40
31.9345570487637
 40
31.9345570487637
 40
31.9345570487637
 10
225.1865114678531
 20
182.7329989550691
 30
0.0
 10
225.16478745136
 20
182.8383178785171
 30
0.0
 10
225.1213702285356
 20
183.0488064056029
 30
0.0
 10
224.9917767736844
 20
183.3552995513894
 30
0.0
 10
224.8212616663699
 20
183.6502192624615
 30
0.0
 10
224.6004827850598
 20
183.938418329393
 30
0.0
 10
224.3405252471858
 20
184.2093732604184
 30
0.0
 10
224.0342934341052
 20
184.4707438828238
 30
0.0
 10
223.6942427877323
 20
184.7115916905351
 30
0.0
 10
223.312052263723
 20
184.9390136010387
 30
0.0
 10
222.9018200133036
 20
185.1436918274973
 30
0.0
 10
222.4552491813042
 20
185.3308597907153
 30
0.0
 10
221.9865845596551
 20
185.4936527071516
 30
0.0
 10
221.4890866835646
 20
185.6352794690222
 30
0.0
 10
220.9756244603552
 20
185.7513313906746
 30
0.0
 10
220.4421848797928
 20
185.8434020589575
 30
0.0
 10
219.8990839020209
 20
185.9090931263662
 30
0.0
 10
219.3457681985344
 20
185.9490460610641
 30
0.0
 10
218.7892172634797
 20
185.9622129944535
 30
0.0
 10
218.2326663284043
 20
185.9490460609681
 30
0.0
 10
217.6793506249802
 20
185.9090931261673
 30
0.0
 10
217.1362496469843
 20
185.843402058713
 30
0.0
 10
216.6028100672364
 20
185.751331390229
 30
0.0
 10
216.0893478410663
 20
185.6352794690165
 30
0.0
 10
215.591849975492
 20
185.4936527054016
 30
0.0
 10
215.1231853159633
 20
185.3308597951899
 30
0.0
 10
214.6766146158009
 20
185.1436918104072
 30
0.0
 10
214.266381895222
 20
184.939013661138
 30
0.0
 10
213.8841929791166
 20
184.7115914871455
 30
0.0
 10
213.5441366443451
 20
184.4707446123583
 30
0.0
 10
213.237924051924
 20
184.2093708387079
 30
0.0
 10
212.9778987004283
 20
183.9384270272444
 30
0.0
 10
212.7573489343757
 20
183.650190393671
 30
0.0
 10
212.5860194715792
 20
183.3554042108274
 30
0.0
 10
212.4592364459685
 20
183.0484502478024
 30
0.0
 10
212.3845891882522
 20
182.7376990234876
 30
0.0
 10
212.3577536831189
 20
182.4224514569419
 30
0.0
 10
212.3845891882438
 20
182.1072038903966
 30
0.0
 10
212.4592364459517
 20
181.7964526660827
 30
0.0
 10
212.5860194715546
 20
181.4894987030595
 30
0.0
 10
212.7573489343434
 20
181.1947125202183
 30
0.0
 10
212.977898700389
 20
180.9064758866485
 30
0.0
 10
213.2379240518787
 20
180.6355320751893
 30
0.0
 10
213.5441366442936
 20
180.3741583015442
 30
0.0
 10
213.8841929790599
 20
180.1333114267631
 30
0.0
 10
214.2663818951607
 20
179.9058892527784
 30
0.0
 10
214.676614615736
 20
179.7012111035181
 30
0.0
 10
215.1231853158949
 20
179.5140431187454
 30
0.0
 10
215.5918499754209
 20
179.3512502085456
 30
0.0
 10
216.0893478409931
 20
179.2096234449451
 30
0.0
 10
216.6028100671618
 20
179.0935715237491
 30
0.0
 10
217.1362496469087
 20
179.0015008552844
 30
0.0
 10
217.6793506249037
 20
178.9358097878524
 30
0.0
 10
218.2326663283286
 20
178.8958568530776
 30
0.0
 10
218.7892172633999
 20
178.8826899196231
 30
0.0
 10
219.3457681984698
 20
178.895856853044
 30
0.0
 10
219.8990839018997
 20
178.9358097877915
 30
0.0
 10
220.4421848798797
 20
179.0015008552043
 30
0.0
 10
220.9756244596848
 20
179.0935715236786
 30
0.0
 10
221.4890866856449
 20
179.2096234448633
 30
0.0
 10
221.9865845519593
 20
179.3512502086365
 30
0.0
 10
222.4552492088085
 20
179.5140431184829
 30
0.0
 10
222.9018199182734
 20
179.7012111049072
 30
0.0
 10
223.3120526056375
 20
179.905889248894
 30
0.0
 10
223.6942416352712
 20
180.1333114417204
 30
0.0
 10
224.0342975683033
 20
180.3741582509135
 30
0.0
 10
224.3405115180198
 20
180.6355322474644
 30
0.0
 10
224.6005320805237
 20
180.9064752741115
 30
0.0
 10
224.8210980263459
 20
181.1947145611389
 30
0.0
 10
224.9923699800912
 20
181.4894913150236
 30
0.0
 10
225.119351475071
 20
181.7964778211636
 30
0.0
 10
225.1932781474271
 20
182.1071108949194
 30
0.0
 10
225.2227223784082
 20
182.4227862044569
 30
0.0
 10
225.1985817677855
 20
182.6295947054787
 30
0.0
 10
225.1865114678531
 20
182.7329989550691
 30
0.0
 11
225.1865114678531
 21
182.7329989550691
 31
0.0
 11
225.1111852331677
 21
183.0459811812414
 31
0.0
 11
224.9897878417034
 21
183.3436402667939
 31
0.0
 11
224.814863724848
 21
183.6462077074486
 31
0.0
 11
224.6037939118911
 21
183.9240472181447
 31
0.0
 11
224.3360176038209
 21
184.2047678407893
 31
0.0
 11
224.041855771842
 21
184.4570290281745
 31
0.0
 11
223.6910734641375
 21
184.7068442155814
 31
0.0
 11
223.321566215417
 21
184.9274630268397
 31
0.0
 11
222.8996206658021
 21
185.1389939918802
 31
0.0
 11
222.4646465682132
 21
185.321782976838
 31
0.0
 11
221.985108325726
 21
185.4890598079714
 31
0.0
 11
221.4968221298022
 21
185.6283611021946
 31
0.0
 11
220.9747150043841
 21
185.746837461782
 31
0.0
 11
220.4472205114969
 21
185.8380295133876
 31
0.0
 11
219.8986501008138
 21
185.904665605836
 31
0.0
 11
219.3475109630349
 21
185.9444723238004
 31
0.0
 11
218.789217253489
 21
185.9578085637495
 31
0.0
 11
218.2309235439429
 21
185.9444723238005
 31
0.0
 11
217.6797844061641
 21
185.9046656058361
 31
0.0
 11
217.1312139954809
 21
185.8380295133876
 31
0.0
 11
216.6037195025936
 21
185.746837461782
 31
0.0
 11
216.0816123771755
 21
185.6283611021946
 31
0.0
 11
215.5933261812517
 21
185.4890598079714
 31
0.0
 11
215.1137879387645
 21
185.3217829768379
 31
0.0
 11
214.6788138411757
 21
185.1389939918802
 31
0.0
 11
214.2568682915607
 21
184.9274630268397
 31
0.0
 11
213.8873610428403
 21
184.7068442155815
 31
0.0
 11
213.5365787351357
 21
184.4570290281746
 31
0.0
 11
213.2424169031567
 21
184.2047678407894
 31
0.0
 11
212.9746405950866
 21
183.9240472181448
 31
0.0
 11
212.7635707821297
 21
183.6462077074486
 31
0.0
 11
212.5886466652743
 21
183.3436402667939
 31
0.0
 11
212.46724927381
 21
183.0459811812414
 31
0.0
 11
212.3919230391246
 21
182.7329989550692
 31
0.0
 11
212.3666009641563
 21
182.4224514566139
 31
0.0
 11
212.3919230391246
 21
182.1119039581586
 31
0.0
 11
212.46724927381
 21
181.7989217319863
 31
0.0
 11
212.5886466652743
 21
181.5012626464338
 31
0.0
 11
212.7635707821296
 21
181.1986952057789
 31
0.0
 11
212.9746405950866
 21
180.9208556950828
 31
0.0
 11
213.2424169031567
 21
180.6401350724383
 31
0.0
 11
213.5365787351356
 21
180.3878738850531
 31
0.0
 11
213.8873610428402
 21
180.1380586976461
 31
0.0
 11
214.2568682915607
 21
179.917439886388
 31
0.0
 11
214.6788138411757
 21
179.7059089213477
 31
0.0
 11
215.1137879387646
 21
179.5231199363897
 31
0.0
 11
215.5933261812517
 21
179.3558431052562
 31
0.0
 11
216.0816123771755
 21
179.2165418110331
 31
0.0
 11
216.6037195025937
 21
179.0980654514458
 31
0.0
 11
217.131213995481
 21
179.0068733998401
 31
0.0
 11
217.6797844061641
 21
178.9402373073914
 31
0.0
 11
218.2309235439429
 21
178.9004305894271
 31
0.0
 11
218.7892172534888
 21
178.887094349478
 31
0.0
 11
219.3475109630349
 21
178.9004305894271
 31
0.0
 11
219.8986501008137
 21
178.9402373073915
 31
0.0
 11
220.4472205114968
 21
179.0068733998401
 31
0.0
 11
220.9747150043841
 21
179.0980654514458
 31
0.0
 11
221.4968221298022
 21
179.2165418110331
 31
0.0
 11
221.985108325726
 21
179.3558431052562
 31
0.0
 11
222.4646465682132
 21
179.5231199363897
 31
0.0
 11
222.8996206658022
 21
179.7059089213476
 31
0.0
 11
223.3215662154171
 21
179.917439886388
 31
0.0
 11
223.6910734641376
 21
180.1380586976461
 31
0.0
 11
224.0418557718421
 21
180.3878738850531
 31
0.0
 11
224.336017603821
 21
180.6401350724383
 31
0.0
 11
224.6037939118912
 21
180.9208556950829
 31
0.0
 11
224.8148637248481
 21
181.198695205779
 31
0.0
 11
224.9897878417034
 21
181.5012626464338
 31
0.0
 11
225.1111852331678
 21
181.7989217319863
 31
0.0
 11
225.1865114678531
 21
182.1119039581585
 31
0.0
 11
225.2118335428214
 21
182.4224514566138
 31
0.0
 11
225.1865114678531
 21
182.7329989550691
 31
0.0
  0
SPLINE
  5
1A8
330
59
100
AcDbEntity
  8
1
  6
Continuous
 62
     7
100
AcDbSpline
210
0.0
220
0.0
230
1.0
 70
    11
 71
     3
 72
    79
 73
    75
 74
    73
 42
0.000000001
 43
0.0000000001
 44
0.00000001
 40
0.0
 40
0.0
 40
0.0
 40
0.0
 40
0.3142650584354088
 40
0.6282865527610583
 40
0.9611940700551451
 40
1.293759066763429
 40
1.653345626572591
 40
2.012624926377938
 40
2.402527480380372
 40
2.792202152566804
 40
3.212046600379232
 40
3.631735865868614
 40
4.077938483287441
 40
4.52404124496004
 40
4.990653910205864
 40
5.45720754991568
 40
5.936678582613675
 40
6.416122251734113
 40
6.899971956020789
 40
7.383821660306813
 40
7.863265329424951
 40
8.342736362118114
 40
8.809290001819045
 40
9.275902667049163
 40
9.722005428696807
 40
10.16820804607602
 40
10.58789731150861
 40
11.00774175923662
 40
11.39741643130968
 40
11.78731898515026
 40
12.14659828474464
 40
12.50618484425359
 40
12.83874984054677
 40
13.1716573571362
 40
13.48567884942549
 40
13.7999439152583
 40
14.10737582044693
 40
14.41480772563433
 40
14.72907279146369
 40
15.04309428374768
 40
15.37600180032992
 40
15.70856679661481
 40
16.06815335611422
 40
16.42743265569872
 40
16.8173352095286
 40
17.20700988159135
 40
17.62685432930871
 40
18.04654359473121
 40
18.49274621210038
 40
18.93884897373869
 40
19.40546163895981
 40
19.87201527865249
 40
20.351486311338
 40
20.83092998044929
 40
21.31477968472924
 40
21.79862938901073
 40
22.27807305812692
 40
22.75754409082167
 40
23.22409773052928
 40
23.69071039577375
 40
24.1368131574458
 40
24.58301577486441
 40
25.00270504035352
 40
25.42254948816444
 40
25.81222416034695
 40
26.20212671433966
 40
26.56140601412492
 40
26.92099257388957
 40
27.2535575704962
 40
27.58646508749687
 40
27.9004865803186
 40
28.21475164694607
 40
28.5221835542621
 40
28.82961545227938
 40
28.82961545227938
 40
28.82961545227938
 40
28.82961545227938
 10
99.4751847368509
 20
182.0802774188916
 30
0.0
 10
99.45659220161812
 20
181.9770100428131
 30
0.0
 10
99.41942154940219
 20
181.7705553240472
 30
0.0
 10
99.30847489254356
 20
181.4684831194753
 30
0.0
 10
99.16140985841332
 20
181.176300872204
 30
0.0
 10
98.9712549486696
 20
180.8914586329704
 30
0.0
 10
98.74612019308225
 20
180.6220296772036
 30
0.0
 10
98.48148390304291
 20
180.3632434893321
 30
0.0
 10
98.18642383506166
 20
180.123576557834
 30
0.0
 10
97.85565768803421
 20
179.8982481038005
 30
0.0
 10
97.49959061884198
 20
179.6946936827895
 30
0.0
 10
97.11285752978281
 20
179.5092094927017
 30
0.0
 10
96.70618434297313
 20
179.3474465769868
 30
0.0
 10
96.27520818756322
 20
179.2070851353469
 30
0.0
 10
95.82983475158615
 20
179.0918471806956
 30
0.0
 10
95.36762188721468
 20
179.0005978221081
 30
0.0
 10
94.89670350466223
 20
178.9353931603924
 30
0.0
 10
94.4171720672116
 20
178.8958044168773
 30
0.0
 10
93.9347269976521
 20
178.8827193977048
 30
0.0
 10
93.45228192807784
 20
178.8958044168612
 30
0.0
 10
92.9727504906734
 20
178.9353931603632
 30
0.0
 10
92.50183210795913
 20
179.0005978220279
 30
0.0
 10
92.03961924418357
 20
179.0918471806582
 30
0.0
 10
91.59424580603778
 20
179.2070851349424
 30
0.0
 10
91.16326965839127
 20
179.3474465776003
 30
0.0
 10
90.75659644345437
 20
179.5092094892182
 30
0.0
 10
90.36986345342966
 20
179.6946936932005
 30
0.0
 10
90.01379602806993
 20
179.8982480635443
 30
0.0
 10
89.68303111957876
 20
180.1235766929077
 30
0.0
 10
89.38796661977217
 20
180.3632429959268
 30
0.0
 10
89.12334563986818
 20
180.6220313536136
 30
0.0
 10
88.89815611177016
 20
180.8914525450937
 30
0.0
 10
88.70819111460702
 20
181.1763217032762
 30
0.0
 10
88.56044169992003
 20
181.4684069403555
 30
0.0
 10
88.45191271451817
 20
181.770821844199
 30
0.0
 10
88.38770106169608
 20
182.0770437194179
 30
0.0
 10
88.36509977685657
 20
182.386943151662
 30
0.0
 10
88.38770106168475
 20
182.6968425839057
 30
0.0
 10
88.45191271449575
 20
183.0030644591235
 30
0.0
 10
88.56044169988662
 20
183.3054793629655
 30
0.0
 10
88.70819111456326
 20
183.5975646000423
 30
0.0
 10
88.89815611171632
 20
183.8824337582215
 30
0.0
 10
89.12334563980491
 20
184.1518549496975
 30
0.0
 10
89.3879666196999
 20
184.4106433073793
 30
0.0
 10
89.68303111949807
 20
184.6503096103924
 30
0.0
 10
90.0137960279813
 20
184.8756382397489
 30
0.0
 10
90.36986345333375
 20
185.0791926100847
 30
0.0
 10
90.75659644335154
 20
185.2646768140577
 30
0.0
 10
91.16326965828213
 20
185.426439725665
 30
0.0
 10
91.59424580592268
 20
185.5668011683108
 30
0.0
 10
92.03961924406298
 20
185.6820391225809
 30
0.0
 10
92.50183210783331
 20
185.7732884811954
 30
0.0
 10
92.9727504905423
 20
185.8384931428417
 30
0.0
 10
93.45228192794231
 20
185.8780818863237
 30
0.0
 10
93.93472699750822
 20
185.8911669054566
 30
0.0
 10
94.41717206707305
 20
185.8780818862602
 30
0.0
 10
94.896703504476
 20
185.8384931427096
 30
0.0
 10
95.36762188717269
 20
185.7732884809873
 30
0.0
 10
95.82983475098354
 20
185.6820391222753
 30
0.0
 10
96.27520818896645
 20
185.5668011679166
 30
0.0
 10
96.70618433715242
 20
185.426439725059
 30
0.0
 10
97.11285755007631
 20
185.2646768135736
 30
0.0
 10
97.49959054711103
 20
185.0791926084093
 30
0.0
 10
97.85565794715222
 20
184.8756382414282
 30
0.0
 10
98.18642294354245
 20
184.6503095993327
 30
0.0
 10
98.48148712862263
 20
184.4106433406071
 30
0.0
 10
98.74610919551573
 20
184.1518548284658
 30
0.0
 10
98.97129483451371
 20
183.8824341878249
 30
0.0
 10
99.16127331587721
 20
183.5975631177854
 30
0.0
 10
99.30897413742211
 20
183.3054847680651
 30
0.0
 10
99.41767478424238
 20
183.0030455309318
 30
0.0
 10
99.48125786799014
 20
182.6969127523446
 30
0.0
 10
99.50615735891213
 20
182.3866875567984
 30
0.0
 10
99.48550894108926
 20
182.1824141307472
 30
0.0
 10
99.4751847368509
 20
182.0802774188916
 30
0.0
 11
99.4751847368509
 21
182.0802774188916
 31
0.0
 11
99.41056281179591
 21
181.772728173255
 31
0.0
 11
99.30536285260465
 21
181.4768524116844
 31
0.0
 11
99.15546918563211
 21
181.1795994835537
 31
0.0
 11
98.97169503907993
 21
180.902423474696
 31
0.0
 11
98.74163792790812
 21
180.626060996336
 31
0.0
 11
98.48527658924678
 21
180.3743459208814
 31
0.0
 11
98.183110707839
 21
180.1279320786248
 31
0.0
 11
97.86137023982917
 21
179.9080925431898
 31
0.0
 11
97.49721185753255
 21
179.6991474955649
 31
0.0
 11
97.11896534704597
 21
179.5172996007439
 31
0.0
 11
96.70455112140831
 21
179.3518981939568
 31
0.0
 11
96.28045716469083
 21
179.2135074795258
 31
0.0
 11
95.82881400460262
 21
179.0962648451736
 31
0.0
 11
95.37112089564735
 21
179.0057700014528
 31
0.0
 11
94.89621271189554
 21
178.9397799400669
 31
0.0
 11
94.41839602664908
 21
178.9003154350037
 31
0.0
 11
93.93472698770165
 21
178.8870943494782
 31
0.0
 11
93.45105794875425
 21
178.9003154350037
 31
0.0
 11
92.97324126350783
 21
178.9397799400668
 31
0.0
 11
92.49833307975604
 21
179.0057700014527
 31
0.0
 11
92.04063997080073
 21
179.0962648451734
 31
0.0
 11
91.58899681071249
 21
179.2135074795256
 31
0.0
 11
91.16490285399503
 21
179.3518981939567
 31
0.0
 11
90.7504886283574
 21
179.5172996007438
 31
0.0
 11
90.37224211787087
 21
179.6991474955649
 31
0.0
 11
90.00808373557425
 21
179.9080925431898
 31
0.0
 11
89.68634326756442
 21
180.1279320786248
 31
0.0
 11
89.38417738615662
 21
180.3743459208815
 31
0.0
 11
89.12781604749533
 21
180.6260609963361
 31
0.0
 11
88.89775893632354
 21
180.902423474696
 31
0.0
 11
88.71398478977136
 21
181.1795994835537
 31
0.0
 11
88.56409112279883
 21
181.4768524116844
 31
0.0
 11
88.45889116360755
 21
181.772728173255
 31
0.0
 11
88.39426923855251
 21
182.0802774188917
 31
0.0
 11
88.37257812237979
 21
182.3869431520507
 31
0.0
 11
88.39426923855251
 21
182.6936088852098
 31
0.0
 11
88.45889116360756
 21
183.0011581308464
 31
0.0
 11
88.56409112279883
 21
183.297033892417
 31
0.0
 11
88.71398478977136
 21
183.5942868205478
 31
0.0
 11
88.89775893632353
 21
183.8714628294055
 31
0.0
 11
89.12781604749534
 21
184.1478253077654
 31
0.0
 11
89.38417738615662
 21
184.39954038322
 31
0.0
 11
89.68634326756438
 21
184.6459542254766
 31
0.0
 11
90.00808373557422
 21
184.8657937609116
 31
0.0
 11
90.37224211787085
 21
185.0747388085364
 31
0.0
 11
90.75048862835737
 21
185.2565867033576
 31
0.0
 11
91.16490285399499
 21
185.4219881101447
 31
0.0
 11
91.58899681071244
 21
185.5603788245758
 31
0.0
 11
92.0406399708007
 21
185.6776214589279
 31
0.0
 11
92.49833307975604
 21
185.7681163026486
 31
0.0
 11
92.97324126350786
 21
185.8341063640345
 31
0.0
 11
93.45105794875428
 21
185.8735708690976
 31
0.0
 11
93.93472698770168
 21
185.8867919546232
 31
0.0
 11
94.41839602664909
 21
185.8735708690977
 31
0.0
 11
94.89621271189552
 21
185.8341063640345
 31
0.0
 11
95.37112089564734
 21
185.7681163026487
 31
0.0
 11
95.82881400460263
 21
185.6776214589281
 31
0.0
 11
96.28045716469083
 21
185.5603788245758
 31
0.0
 11
96.70455112140831
 21
185.4219881101447
 31
0.0
 11
97.11896534704596
 21
185.2565867033576
 31
0.0
 11
97.49721185753253
 21
185.0747388085364
 31
0.0
 11
97.86137023982917
 21
184.8657937609116
 31
0.0
 11
98.183110707839
 21
184.6459542254766
 31
0.0
 11
98.4852765892468
 21
184.3995403832199
 31
0.0
 11
98.74163792790809
 21
184.1478253077653
 31
0.0
 11
98.97169503907993
 21
183.8714628294053
 31
0.0
 11
99.15546918563211
 21
183.5942868205477
 31
0.0
 11
99.30536285260465
 21
183.297033892417
 31
0.0
 11
99.4105628117959
 21
183.0011581308464
 31
0.0
 11
99.4751847368509
 21
182.6936088852098
 31
0.0
 11
99.49687585302357
 21
182.3869431520507
 31
0.0
 11
99.4751847368509
 21
182.0802774188916
 31
0.0
  0
SPLINE
  5
1A9
330
59
100
AcDbEntity
  8
1
  6
Continuous
 62
     7
100
AcDbSpline
210
0.0
220
0.0
230
1.0
 70
    11
 71
     3
 72
    79
 73
    75
 74
    73
 42
0.000000001
 43
0.0000000001
 44
0.00000001
 40
0.0
 40
0.0
 40
0.0
 40
0.0
 40
0.3142650584354088
 40
0.628286552761063
 40
0.9611940700551691
 40
1.293759066763429
 40
1.653345626572609
 40
2.012624926377947
 40
2.402527480380414
 40
2.792202152566833
 40
3.212046600379261
 40
3.631735865868643
 40
4.07793848328747
 40
4.524041244960043
 40
4.990653910205853
 40
5.457207549915683
 40
5.936678582613678
 40
6.416122251734087
 40
6.899971956020764
 40
7.383821660306802
 40
7.863265329424969
 40
8.342736362118117
 40
8.809290001819061
 40
9.275902667049179
 40
9.722005428696836
 40
10.16820804607604
 40
10.58789731150865
 40
11.00774175923664
 40
11.39741643130971
 40
11.78731898515028
 40
12.14659828474463
 40
12.50618484425358
 40
12.83874984054677
 40
13.17165735713621
 40
13.48567884942551
 40
13.79994391525832
 40
14.10737582044695
 40
14.41480772563434
 40
14.72907279146371
 40
15.0430942837477
 40
15.37600180032994
 40
15.70856679661482
 40
16.0681533561142
 40
16.42743265569872
 40
16.81733520952861
 40
17.20700988159135
 40
17.62685432930869
 40
18.04654359473121
 40
18.49274621210041
 40
18.93884897373873
 40
19.40546163895984
 40
19.87201527865252
 40
20.35148631133803
 40
20.83092998044931
 40
21.31477968472927
 40
21.79862938901074
 40
22.27807305812696
 40
22.75754409082169
 40
23.22409773052927
 40
23.69071039577373
 40
24.13681315744576
 40
24.5830157748644
 40
25.00270504035352
 40
25.42254948816446
 40
25.81222416034697
 40
26.20212671433965
 40
26.56140601412489
 40
26.92099257388954
 40
27.25355757049618
 40
27.58646508749684
 40
27.90048658031857
 40
28.21475164694604
 40
28.52218355426207
 40
28.82961545227936
 40
28.82961545227936
 40
28.82961545227936
 40
28.82961545227936
 10
101.3945444235626
 20
182.0802774188916
 30
0.0
 10
101.4131369587954
 20
181.9770100428131
 30
0.0
 10
101.4503076110113
 20
181.7705553240473
 30
0.0
 10
101.5612542678701
 20
181.4684831194753
 30
0.0
 10
101.7083193020003
 20
181.176300872204
 30
0.0
 10
101.8984742117439
 20
180.8914586329705
 30
0.0
 10
102.1236089673314
 20
180.6220296772036
 30
0.0
 10
102.3882452573706
 20
180.3632434893321
 30
0.0
 10
102.683305325352
 20
180.123576557834
 30
0.0
 10
103.0140714723794
 20
179.8982481038006
 30
0.0
 10
103.3701385415716
 20
179.6946936827895
 30
0.0
 10
103.7568716306309
 20
179.5092094927017
 30
0.0
 10
104.1635448174404
 20
179.3474465769867
 30
0.0
 10
104.5945209728504
 20
179.2070851353469
 30
0.0
 10
105.0398944088274
 20
179.0918471806955
 30
0.0
 10
105.5021072731989
 20
179.0005978221082
 30
0.0
 10
105.9730256557513
 20
178.9353931603924
 30
0.0
 10
106.452557093202
 20
178.8958044168772
 30
0.0
 10
106.9350021627615
 20
178.8827193977048
 30
0.0
 10
107.4174472323357
 20
178.8958044168612
 30
0.0
 10
107.8969786697402
 20
178.9353931603632
 30
0.0
 10
108.3678970524545
 20
179.0005978220279
 30
0.0
 10
108.83010991623
 20
179.0918471806582
 30
0.0
 10
109.2754833543758
 20
179.2070851349424
 30
0.0
 10
109.7064595020223
 20
179.3474465776003
 30
0.0
 10
110.1131327169592
 20
179.5092094892182
 30
0.0
 10
110.499865706984
 20
179.6946936932005
 30
0.0
 10
110.8559331323437
 20
179.8982480635443
 30
0.0
 10
111.1866980408349
 20
180.1235766929077
 30
0.0
 10
111.4817625406415
 20
180.3632429959268
 30
0.0
 10
111.7463835205454
 20
180.6220313536136
 30
0.0
 10
111.9715730486434
 20
180.8914525450937
 30
0.0
 10
112.1615380458065
 20
181.1763217032762
 30
0.0
 10
112.3092874604936
 20
181.4684069403555
 30
0.0
 10
112.4178164458954
 20
181.7708218441991
 30
0.0
 10
112.4820280987175
 20
182.0770437194179
 30
0.0
 10
112.504629383557
 20
182.3869431516619
 30
0.0
 10
112.4820280987288
 20
182.6968425839057
 30
0.0
 10
112.4178164459178
 20
183.0030644591235
 30
0.0
 10
112.3092874605269
 20
183.3054793629654
 30
0.0
 10
112.1615380458503
 20
183.5975646000423
 30
0.0
 10
111.9715730486972
 20
183.8824337582215
 30
0.0
 10
111.7463835206087
 20
184.1518549496976
 30
0.0
 10
111.4817625407136
 20
184.4106433073792
 30
0.0
 10
111.1866980409155
 20
184.6503096103924
 30
0.0
 10
110.8559331324323
 20
184.8756382397489
 30
0.0
 10
110.4998657070799
 20
185.0791926100846
 30
0.0
 10
110.113132717062
 20
185.2646768140577
 30
0.0
 10
109.7064595021314
 20
185.4264397256651
 30
0.0
 10
109.2754833544909
 20
185.5668011683107
 30
0.0
 10
108.8301099163506
 20
185.6820391225809
 30
0.0
 10
108.3678970525802
 20
185.7732884811954
 30
0.0
 10
107.8969786698713
 20
185.8384931428417
 30
0.0
 10
107.4174472324713
 20
185.8780818863237
 30
0.0
 10
106.9350021629053
 20
185.8911669054566
 30
0.0
 10
106.4525570933405
 20
185.8780818862602
 30
0.0
 10
105.9730256559376
 20
185.8384931427096
 30
0.0
 10
105.5021072732409
 20
185.7732884809873
 30
0.0
 10
105.03989440943
 20
185.6820391222753
 30
0.0
 10
104.5945209714472
 20
185.5668011679166
 30
0.0
 10
104.1635448232612
 20
185.426439725059
 30
0.0
 10
103.7568716103373
 20
185.2646768135736
 30
0.0
 10
103.3701386133025
 20
185.0791926084093
 30
0.0
 10
103.0140712132614
 20
184.8756382414282
 30
0.0
 10
102.6833062168711
 20
184.6503095993326
 30
0.0
 10
102.388242031791
 20
184.4106433406072
 30
0.0
 10
102.1236199648979
 20
184.1518548284658
 30
0.0
 10
101.8984343258999
 20
183.8824341878249
 30
0.0
 10
101.7084558445364
 20
183.5975631177854
 30
0.0
 10
101.5607550229915
 20
183.305484768065
 30
0.0
 10
101.4520543761713
 20
183.0030455309319
 30
0.0
 10
101.3884712924234
 20
182.6969127523446
 30
0.0
 10
101.3635718015014
 20
182.3866875567984
 30
0.0
 10
101.3842202193243
 20
182.1824141307472
 30
0.0
 10
101.3945444235626
 20
182.0802774188916
 30
0.0
 11
101.3945444235626
 21
182.0802774188916
 31
0.0
 11
101.4591663486176
 21
181.772728173255
 31
0.0
 11
101.5643663078089
 21
181.4768524116844
 31
0.0
 11
101.7142599747815
 21
181.1795994835537
 31
0.0
 11
101.8980341213336
 21
180.902423474696
 31
0.0
 11
102.1280912325055
 21
180.626060996336
 31
0.0
 11
102.3844525711668
 21
180.3743459208814
 31
0.0
 11
102.6866184525746
 21
180.1279320786248
 31
0.0
 11
103.0083589205844
 21
179.9080925431898
 31
0.0
 11
103.3725173028811
 21
179.6991474955649
 31
0.0
 11
103.7507638133676
 21
179.5172996007439
 31
0.0
 11
104.1651780390053
 21
179.3518981939568
 31
0.0
 11
104.5892719957228
 21
179.2135074795258
 31
0.0
 11
105.0409151558109
 21
179.0962648451736
 31
0.0
 11
105.4986082647662
 21
179.0057700014528
 31
0.0
 11
105.973516448518
 21
178.9397799400669
 31
0.0
 11
106.4513331337645
 21
178.9003154350037
 31
0.0
 11
106.9350021727119
 21
178.8870943494782
 31
0.0
 11
107.4186712116593
 21
178.9003154350037
 31
0.0
 11
107.8964878969058
 21
178.9397799400668
 31
0.0
 11
108.3713960806575
 21
179.0057700014527
 31
0.0
 11
108.8290891896129
 21
179.0962648451734
 31
0.0
 11
109.2807323497011
 21
179.2135074795256
 31
0.0
 11
109.7048263064186
 21
179.3518981939567
 31
0.0
 11
110.1192405320562
 21
179.5172996007438
 31
0.0
 11
110.4974870425428
 21
179.6991474955649
 31
0.0
 11
110.8616454248394
 21
179.9080925431898
 31
0.0
 11
111.1833858928492
 21
180.1279320786248
 31
0.0
 11
111.485551774257
 21
180.3743459208815
 31
0.0
 11
111.7419131129182
 21
180.6260609963361
 31
0.0
 11
111.97197022409
 21
180.902423474696
 31
0.0
 11
112.1557443706422
 21
181.1795994835537
 31
0.0
 11
112.3056380376148
 21
181.4768524116844
 31
0.0
 11
112.4108379968061
 21
181.772728173255
 31
0.0
 11
112.4754599218611
 21
182.0802774188917
 31
0.0
 11
112.4971510380338
 21
182.3869431520507
 31
0.0
 11
112.475459921861
 21
182.6936088852098
 31
0.0
 11
112.410837996806
 21
183.0011581308464
 31
0.0
 11
112.3056380376147
 21
183.297033892417
 31
0.0
 11
112.1557443706422
 21
183.5942868205478
 31
0.0
 11
111.97197022409
 21
183.8714628294055
 31
0.0
 11
111.7419131129183
 21
184.1478253077654
 31
0.0
 11
111.4855517742569
 21
184.39954038322
 31
0.0
 11
111.1833858928492
 21
184.6459542254766
 31
0.0
 11
110.8616454248394
 21
184.8657937609116
 31
0.0
 11
110.4974870425427
 21
185.0747388085364
 31
0.0
 11
110.1192405320562
 21
185.2565867033576
 31
0.0
 11
109.7048263064186
 21
185.4219881101447
 31
0.0
 11
109.2807323497011
 21
185.5603788245758
 31
0.0
 11
108.8290891896129
 21
185.6776214589279
 31
0.0
 11
108.3713960806575
 21
185.7681163026486
 31
0.0
 11
107.8964878969057
 21
185.8341063640345
 31
0.0
 11
107.4186712116593
 21
185.8735708690976
 31
0.0
 11
106.9350021727119
 21
185.8867919546232
 31
0.0
 11
106.4513331337645
 21
185.8735708690977
 31
0.0
 11
105.973516448518
 21
185.8341063640345
 31
0.0
 11
105.4986082647662
 21
185.7681163026487
 31
0.0
 11
105.040915155811
 21
185.6776214589281
 31
0.0
 11
104.5892719957228
 21
185.5603788245758
 31
0.0
 11
104.1651780390053
 21
185.4219881101447
 31
0.0
 11
103.7507638133676
 21
185.2565867033576
 31
0.0
 11
103.3725173028811
 21
185.0747388085364
 31
0.0
 11
103.0083589205844
 21
184.8657937609116
 31
0.0
 11
102.6866184525745
 21
184.6459542254766
 31
0.0
 11
102.3844525711668
 21
184.3995403832199
 31
0.0
 11
102.1280912325055
 21
184.1478253077653
 31
0.0
 11
101.8980341213337
 21
183.8714628294053
 31
0.0
 11
101.7142599747815
 21
183.5942868205477
 31
0.0
 11
101.564366307809
 21
183.297033892417
 31
0.0
 11
101.4591663486177
 21
183.0011581308464
 31
0.0
 11
101.3945444235627
 21
182.6936088852098
 31
0.0
 11
101.37285330739
 21
182.3869431520507
 31
0.0
 11
101.3945444235626
 21
182.0802774188916
 31
0.0
  0
ENDBLK
  5
5B
330
59
100
AcDbEntity
  8
0
100
AcDbBlockEnd
  0
BLOCK
  5
62
330
5C
100
AcDbEntity
  8
0
100
AcDbBlockBegin
  2
R10AK-13-B
 70
     0
 10
263.7892172534889
 20
153.3870943494781
 30
0.0
  3
R10AK-13-B
  1

  0
INSERT
  5
5D
330
5C
100
AcDbEntity
  8
1
100
AcDbBlockReference
  2
36-54-M11K
 10
566.535678878382
 20
200.9554924428267
 30
0.0
  0
INSERT
  5
5E
330
5C
100
AcDbEntity
  8
0
100
AcDbBlockReference
  2
91-1K
 10
576.0356788783821
 20
196.4554924428267
 30
0.0
  0
INSERT
  5
5F
330
5C
100
AcDbEntity
  8
1
100
AcDbBlockReference
  2
21-1C-M1K
 10
-710.4446573467358
 20
1464.257810734692
 30
0.0
  0
INSERT
  5
60
330
5C
100
AcDbEntity
  8
0
100
AcDbBlockReference
  2
42-1
 10
130.6849571668853
 20
4.09744533989335
 30
0.0
  0
INSERT
  5
61
330
5C
100
AcDbEntity
  8
0
100
AcDbBlockReference
  2
37-1-13
 10
126.9879870367178
 20
35.89138845933363
 30
0.0
  0
ENDBLK
  5
63
330
5C
100
AcDbEntity
  8
0
100
AcDbBlockEnd
  0
BLOCK
  5
1D1
330
1CA
100
AcDbEntity
  8
0
100
AcDbBlockBegin
  2
*D9
 70
     1
 10
0.0
 20
0.0
 30
0.0
  3
*D9
  1

  0
LINE
  5
1CB
330
1CA
100
AcDbEntity
  8
1
  6
Continuous
 62
     2
100
AcDbLine
 10
87.43500217271183
 20
357.388060640748
 30
0.0
 11
113.4350021727118
 21
357.388060640748
 31
0.0
  0
LINE
  5
1CC
330
1CA
100
AcDbEntity
  8
1
  6
Continuous
 62
     2
100
AcDbLine
 10
87.43500217271183
 20
341.7725536210848
 30
0.0
 11
87.43500217271183
 21
358.888060640748
 31
0.0
  0
LINE
  5
1CD
330
1CA
100
AcDbEntity
  8
1
  6
Continuous
 62
     2
100
AcDbLine
 10
113.4350021727118
 20
341.7725536210847
 30
0.0
 11
113.4350021727118
 21
358.888060640748
 31
0.0
  0
SOLID
  5
1CE
330
1CA
100
AcDbEntity
  8
1
 62
     2
100
AcDbTrace
 10
92.68500217271183
 20
358.0792362530818
 30
0.0
 11
92.68500217271183
 21
356.6968850284142
 31
0.0
 12
87.43500217271183
 22
357.388060640748
 32
0.0
 13
87.43500217271183
 23
357.388060640748
 33
0.0
  0
SOLID
  5
1CF
330
1CA
100
AcDbEntity
  8
1
 62
     2
100
AcDbTrace
 10
108.1850021727118
 20
356.6968850284142
 30
0.0
 11
108.1850021727118
 21
358.0792362530818
 31
0.0
 12
113.4350021727118
 22
357.388060640748
 32
0.0
 13
113.4350021727118
 23
357.388060640748
 33
0.0
  0
MTEXT
  5
1D0
330
1CA
100
AcDbEntity
  8
1
 62
     7
100
AcDbMText
 10
96.4975021727118
 20
358.888060640748
 30
0.0
 40
5.25
 41
0.0
 71
     7
 72
     1
  1
26
  7
CONVERTER_12
 11
0.9999999999970619
 21
2.424068405545306E-6
 31
0.0
 73
     1
 44
0.60024009603842
  0
ENDBLK
  5
1D2
330
1CA
100
AcDbEntity
  8
0
100
AcDbBlockEnd
  0
BLOCK
  5
1DC
330
1D5
100
AcDbEntity
  8
0
100
AcDbBlockBegin
  2
*D10
 70
     1
 10
0.0
 20
0.0
 30
0.0
  3
*D10
  1

  0
LINE
  5
1D6
330
1D5
100
AcDbEntity
  8
0
  6
Continuous
 62
     2
100
AcDbLine
 10
168.7892172534888
 20
210.8870943494784
 30
0.0
 11
168.7892172534888
 21
153.3870943494781
 31
0.0
  0
LINE
  5
1D7
330
1D5
100
AcDbEntity
  8
0
  6
Continuous
 62
     2
100
AcDbLine
 10
218.1728945768913
 20
210.8870943494784
 30
0.0
 11
167.2892172534888
 21
210.8870943494784
 31
0.0
  0
LINE
  5
1D8
330
1D5
100
AcDbEntity
  8
0
  6
Continuous
 62
     2
100
AcDbLine
 10
179.2892172534888
 20
153.3870943494781
 30
0.0
 11
167.2892172534888
 21
153.3870943494781
 31
0.0
  0
SOLID
  5
1D9
330
1D5
100
AcDbEntity
  8
0
 62
     2
100
AcDbTrace
 10
169.4803928658226
 20
205.6370943494784
 30
0.0
 11
168.098041641155
 21
205.6370943494784
 31
0.0
 12
168.7892172534888
 22
210.8870943494784
 32
0.0
 13
168.7892172534888
 23
210.8870943494784
 33
0.0
  0
SOLID
  5
1DA
330
1D5
100
AcDbEntity
  8
0
 62
     2
100
AcDbTrace
 10
168.098041641155
 20
158.6370943494781
 30
0.0
 11
169.4803928658226
 21
158.6370943494781
 31
0.0
 12
168.7892172534888
 22
153.3870943494781
 32
0.0
 13
168.7892172534888
 23
153.3870943494781
 33
0.0
  0
MTEXT
  5
1DB
330
1D5
100
AcDbEntity
  8
0
 62
     7
100
AcDbMText
 10
167.2892172534888
 20
167.9620943494782
 30
0.0
 40
5.25
 41
0.0
 71
     7
 72
     1
  1
58リフト6
  7
CONVERTER_11
 11
0.0
 21
1.0
 31
0.0
 73
     1
 44
0.45454545454545
  0
ENDBLK
  5
1DD
330
1D5
100
AcDbEntity
  8
0
100
AcDbBlockEnd
  0
BLOCK
  5
1E7
330
1E0
100
AcDbEntity
  8
0
100
AcDbBlockBegin
  2
*D11
 70
     1
 10
0.0
 20
0.0
 30
0.0
  3
*D11
  1

  0
LINE
  5
1E1
330
1E0
100
AcDbEntity
  8
0
  6
Continuous
 62
     2
100
AcDbLine
 10
183.7892172534888
 20
124.1370943494781
 30
0.0
 11
253.7892172534889
 21
124.1370943494781
 31
0.0
  0
LINE
  5
1E2
330
1E0
100
AcDbEntity
  8
0
  6
Continuous
 62
     2
100
AcDbLine
 10
183.7892172534888
 20
140.8870943494781
 30
0.0
 11
183.7892172534888
 21
122.6370943494781
 31
0.0
  0
LINE
  5
1E3
330
1E0
100
AcDbEntity
  8
0
  6
Continuous
 62
     2
100
AcDbLine
 10
253.7892172534889
 20
140.8870943494782
 30
0.0
 11
253.7892172534889
 21
122.6370943494781
 31
0.0
  0
SOLID
  5
1E4
330
1E0
100
AcDbEntity
  8
0
 62
     2
100
AcDbTrace
 10
189.0392172534888
 20
124.8282699618119
 30
0.0
 11
189.0392172534888
 21
123.4459187371443
 31
0.0
 12
183.7892172534888
 22
124.1370943494781
 32
0.0
 13
183.7892172534888
 23
124.1370943494781
 33
0.0
  0
SOLID
  5
1E5
330
1E0
100
AcDbEntity
  8
0
 62
     2
100
AcDbTrace
 10
248.5392172534889
 20
123.4459187371443
 30
0.0
 11
248.5392172534889
 21
124.8282699618119
 31
0.0
 12
253.7892172534889
 22
124.1370943494781
 32
0.0
 13
253.7892172534889
 23
124.1370943494781
 33
0.0
  0
MTEXT
  5
1E6
330
1E0
100
AcDbEntity
  8
0
 62
     7
100
AcDbMText
 10
214.8517172534888
 20
125.6370943494781
 30
0.0
 40
5.25
 41
0.0
 71
     7
 72
     1
  1
70
  7
CONVERTER_12
 11
0.9999999999970619
 21
2.424068405545306E-6
 31
0.0
 73
     1
 44
0.60024009603842
  0
ENDBLK
  5
1E8
330
1E0
100
AcDbEntity
  8
0
100
AcDbBlockEnd
  0
ENDSEC
  0
SECTION
  2
ENTITIES
  0
INSERT
  5
64
330
1F
100
AcDbEntity
  8
1
100
AcDbBlockReference
  2
開示A4
 10
0.0
 20
0.0
 30
0.0
 41
1.5
 42
1.5
 43
1.5
  0
INSERT
  5
65
330
1F
100
AcDbEntity
  8
0
100
AcDbBlockReference
  2
V23-0-13
 10
163.4892172534888
 20
108.0724587560823
 30
0.0
  0
INSERT
  5
66
330
1F
100
AcDbEntity
  8
0
100
AcDbBlockReference
  2
R10AK-13-B
 10
263.7892172534889
 20
153.3870943494781
 30
0.0
  0
LINE
  5
1AA
330
1F
100
AcDbEntity
  8
1
  6
DASH_CENTER
 62
     2
100
AcDbLine
 10
79.79908570386232
 20
307.388060640748
 30
0.0
 11
121.0709186415614
 21
307.388060640748
 31
0.0
  0
LINE
  5
1AB
330
1F
100
AcDbEntity
  8
1
  6
DASH_CENTER
 62
     2
100
AcDbLine
 10
129.8798659013826
 20
324.388060640748
 30
0.0
 11
91.77474813486742
 21
302.388060640748
 31
0.0
  0
LINE
  5
1AC
330
1F
100
AcDbEntity
  8
1
  6
DASH_CENTER
 62
     2
100
AcDbLine
 10
109.0952562105562
 20
302.388060640748
 30
0.0
 11
70.99013844404081
 21
324.388060640748
 31
0.0
  0
LINE
  5
1AD
330
1F
100
AcDbEntity
  8
1
  6
DASH_CENTER
 62
     2
100
AcDbLine
 10
100.4350021727118
 20
346.888060640748
 30
0.0
 11
100.4350021727118
 21
267.8880606407479
 31
0.0
  0
LINE
  5
1AE
330
1F
100
AcDbEntity
  8
1
  6
DASH_CENTER
 62
     2
100
AcDbLine
 10
84.4348645802068
 20
153.3870943494781
 30
0.0
 11
87.4348645802068
 21
153.3870943494781
 31
0.0
  0
LINE
  5
1AF
330
1F
100
AcDbEntity
  8
1
  6
DASH_CENTER
 62
     2
100
AcDbLine
 10
100.4348645802068
 20
215.3870943494784
 30
0.0
 11
100.4348645802068
 21
134.637094349478
 31
0.0
  0
LINE
  5
1B0
330
1F
100
AcDbEntity
  8
1
  6
DASH_CENTER
 62
     2
100
AcDbLine
 10
218.7892172534888
 20
135.8425444401759
 30
0.0
 11
218.7892172534888
 21
215.3870943494784
 31
0.0
  0
LINE
  5
1B1
330
1F
100
AcDbEntity
  8
1
  6
DASH_CENTER
 62
     2
100
AcDbLine
 10
258.2892172534889
 20
153.3870943494781
 30
0.0
 11
179.2892172534888
 21
153.3870943494781
 31
0.0
  0
LINE
  5
1B2
330
1F
100
AcDbEntity
  8
1
  6
DASH_CENTER
 62
     2
100
AcDbLine
 10
113.4348645802068
 20
153.3870943494781
 30
0.0
 11
116.4348645802068
 21
153.3870943494781
 31
0.0
  0
LINE
  5
1B3
330
1F
100
AcDbEntity
  8
1
  6
DASH_CENTER
 62
     2
100
AcDbLine
 10
82.9348645802068
 20
153.3870943494781
 30
0.0
 11
117.9348645802068
 21
153.3870943494781
 31
0.0
  0
LINE
  5
1B4
330
1F
100
AcDbEntity
  8
1
  6
Continuous
 62
     7
100
AcDbLine
 10
138.8038702389569
 20
172.1849776348269
 30
0.0
 11
138.8038702389569
 21
170.9849776348269
 31
0.0
  0
LINE
  5
1B5
330
1F
100
AcDbEntity
  8
1
  6
Continuous
 62
     7
100
AcDbLine
 10
128.8038702389569
 20
170.9849776348271
 30
0.0
 11
128.8038702389569
 21
169.7374567734202
 31
0.0
  0
LINE
  5
1B6
330
1F
100
AcDbEntity
  8
1
  6
Continuous
 62
     7
100
AcDbLine
 10
138.8038702389569
 20
170.9849776348269
 30
0.0
 11
128.8038702389569
 21
170.9849776348271
 31
0.0
  0
LINE
  5
1B7
330
1F
100
AcDbEntity
  8
1
  6
Continuous
 62
     7
100
AcDbLine
 10
128.8038702389569
 20
169.7374567734202
 30
0.0
 11
123.8038702389569
 21
171.5849776348271
 31
0.0
  0
LINE
  5
1B8
330
1F
100
AcDbEntity
  8
1
  6
Continuous
 62
     7
100
AcDbLine
 10
123.8038702389569
 20
171.5849776348271
 30
0.0
 11
128.8038702389569
 21
173.4324984962339
 31
0.0
  0
LINE
  5
1B9
330
1F
100
AcDbEntity
  8
1
  6
Continuous
 62
     7
100
AcDbLine
 10
128.8038702389569
 20
173.4324984962339
 30
0.0
 11
128.8038702389569
 21
172.184977634827
 31
0.0
  0
LINE
  5
1BA
330
1F
100
AcDbEntity
  8
1
  6
Continuous
 62
     7
100
AcDbLine
 10
138.8038702389569
 20
172.1849776348269
 30
0.0
 11
128.8038702389569
 21
172.184977634827
 31
0.0
  0
SOLID
  5
1BB
330
1F
100
AcDbEntity
  8
1
 62
     2
100
AcDbTrace
 10
257.0127928922462
 20
138.8608909054865
 30
0.0
 11
255.8156416147315
 21
138.1697152931527
 31
0.0
 12
253.7892172534889
 22
143.0619364691879
 32
0.0
 13
253.7892172534889
 23
143.0619364691879
 33
0.0
  0
LEADER
  5
1BC
330
1F
100
AcDbEntity
  8
1
  6
Continuous
 62
     2
100
AcDbLeader
  3
Standard
 71
     0
 76
     3
 10
253.7892172534889
 20
143.0619364691879
 30
0.0
 10
264.7154799456745
 20
124.1370943494781
 30
0.0
 10
287.8121416080251
 20
124.1370943494781
 30
0.0
  0
SOLID
  5
1BD
330
1F
100
AcDbEntity
  8
1
 62
     2
100
AcDbTrace
 10
181.7627928922462
 20
138.1697152931527
 30
0.0
 11
180.5656416147315
 21
138.8608909054865
 31
0.0
 12
183.7892172534888
 22
143.0619364691879
 32
0.0
 13
183.7892172534888
 23
143.0619364691879
 33
0.0
  0
LEADER
  5
1BE
330
1F
100
AcDbEntity
  8
1
  6
Continuous
 62
     2
100
AcDbLeader
  3
Standard
 71
     0
 76
     3
 10
183.7892172534888
 20
143.0619364691879
 30
0.0
 10
172.8629545613032
 20
124.1370943494781
 30
0.0
 10
150.504545876475
 20
124.1370943494781
 30
0.0
  0
SOLID
  5
1BF
330
1F
100
AcDbEntity
  8
1
 62
     2
100
AcDbTrace
 10
115.4612889414494
 20
158.2793155255133
 30
0.0
 11
116.6584402189641
 21
157.5881399131795
 31
0.0
 12
113.4348645802068
 22
153.3870943494781
 32
0.0
 13
113.4348645802068
 23
153.3870943494781
 33
0.0
  0
LEADER
  5
1C0
330
1F
100
AcDbEntity
  8
1
  6
Continuous
 62
     2
100
AcDbLeader
  3
Standard
 71
     0
 76
     3
 10
113.4348645802068
 20
153.3870943494781
 30
0.0
 10
121.6927866983696
 20
167.6902350230827
 30
0.0
 10
141.0
 20
167.6902350230827
 30
0.0
  0
MTEXT
  5
1C1
330
1F
100
AcDbEntity
  8
1
 62
     7
100
AcDbMText
 10
51.0
 20
45.75000000000001
 30
0.0
 40
5.25
 41
0.0
 71
     4
 72
     1
  1
共用形
  7
CONVERTER_11
 73
     1
 44
0.54545454545455
  0
MTEXT
  5
1C3
330
1F
100
AcDbEntity
  8
1
 62
     7
100
AcDbMText
 10
140.625
 20
25.5
 30
0.0
 40
5.25
 41
0.0
 71
     5
 72
     1
  1
1,5
  7
CONVERTER_12
 73
     1
 44
0.7202881152461
  0
MTEXT
  5
1C4
330
1F
100
AcDbEntity
  8
1
 62
     7
100
AcDbMText
 10
127.875
 20
25.5
 30
0.0
 40
5.25
 41
0.0
 71
     5
 72
     1
  1
1
  7
CONVERTER_12
 73
     1
 44
0.7202881152461
  0
MTEXT
  5
1C5
330
1F
100
AcDbEntity
  8
1
 62
     7
100
AcDbMText
 10
85.5
 20
21.375
 30
0.0
 40
5.25
 41
0.0
 71
     5
 72
     1
  1
V23A-13
  7
CONVERTER_12
 73
     1
 44
0.7202881152461
  0
MTEXT
  5
1C6
330
1F
100
AcDbEntity
  8
1
 62
     7
100
AcDbMText
 10
85.5
 20
34.12500000000001
 30
0.0
 40
5.25
 41
0.0
 71
     5
 72
     1
  1
メネジ化粧バルブ
  7
CONVERTER_11
 73
     1
 44
0.54545454545455
  0
MTEXT
  5
1C7
330
1F
100
AcDbEntity
  8
1
 62
     7
100
AcDbMText
 10
51.0
 20
56.25000000000001
 30
0.0
 40
5.25
 41
0.0
 71
     4
 72
     1
  1
JIS
  7
CONVERTER_12
 73
     1
 44
0.7202881152461
  0
MTEXT
  5
1C8
330
1F
100
AcDbEntity
  8
0
 62
     7
100
AcDbMText
 10
275.7638107768498
 20
128.6370943494782
 30
0.0
 40
5.25
 41
0.0
 71
     5
 72
     1
  1
Rc1/2
  7
CONVERTER_12
 73
     1
 44
1.32052821128451
  0
MTEXT
  5
1C9
330
1F
100
AcDbEntity
  8
0
 62
     7
100
AcDbMText
 10
162.1837502188891
 20
128.6370943494782
 30
0.0
 40
5.25
 41
0.0
 71
     5
 72
     1
  1
Rc1/2
  7
CONVERTER_12
 73
     1
 44
1.32052821128451
  0
DIMENSION
  5
1D4
330
1F
100
AcDbEntity
  8
1
100
AcDbDimension
  2
*D9
 10
87.43500217271183
 20
357.388060640748
 30
0.0
 11
100.4350021727118
 21
361.513060640748
 31
0.0
 70
    33
  1
<>
 71
     5
 42
-1.0
 53
0.00013888888889
  3
ME10_DIM_10
100
AcDbAlignedDimension
 13
113.4350021727119
 23
341.7725536210846
 33
0.0
 14
87.43500217271185
 24
341.7725536210848
 34
0.0
  0
DIMENSION
  5
1DF
330
1F
100
AcDbEntity
  8
0
100
AcDbDimension
  2
*D10
 10
168.7892172534888
 20
210.8870943494784
 30
0.0
 11
164.6642172534888
 21
182.1370943494782
 31
0.0
 70
    32
  1
58リフト6
 71
     5
 42
-1.0
 53
90.0
  3
ME10_DIM_11
100
AcDbAlignedDimension
 13
179.2892172534888
 23
153.3870943494781
 33
0.0
 14
218.1728945768913
 24
210.8870943494784
 34
0.0
 50
90.0
100
AcDbRotatedDimension
  0
DIMENSION
  5
1EA
330
1F
100
AcDbEntity
  8
0
100
AcDbDimension
  2
*D11
 10
183.7892172534888
 20
124.1370943494781
 30
0.0
 11
218.7892172534888
 21
128.2620943494781
 31
0.0
 70
    32
  1
<>
 71
     5
 42
-1.0
 53
0.00013888888889
  3
ME10_DIM_12
100
AcDbAlignedDimension
 13
253.7892172534889
 23
140.8870943494782
 33
0.0
 14
183.7892172534888
 24
140.8870943494782
 34
0.0
100
AcDbRotatedDimension
  0
ENDSEC
  0
SECTION
  2
OBJECTS
  0
DICTIONARY
  5
C
330
0
100
AcDbDictionary
281
     1
  3
ACAD_GROUP
350
D
  3
ACAD_LAYOUT
350
1A
  3
ACAD_MATERIAL
350
3B
  3
ACAD_MLEADERSTYLE
350
1ED
  3
ACAD_MLINESTYLE
350
17
  3
ACAD_PLOTSETTINGS
350
19
  3
ACAD_PLOTSTYLENAME
350
E
  3
ACAD_VISUALSTYLE
350
2A
  3
AcDbVariableDictionary
350
1EB
  0
DICTIONARY
  5
D
102
{ACAD_REACTORS
330
C
102
}
330
C
100
AcDbDictionary
281
     1
  0
DICTIONARY
  5
1A
102
{ACAD_REACTORS
330
C
102
}
330
C
100
AcDbDictionary
281
     1
  3
Layout1
350
1E
  3
Layout2
350
26
  3
Model
350
22
  0
DICTIONARY
  5
3B
102
{ACAD_REACTORS
330
C
102
}
330
C
100
AcDbDictionary
281
     1
  3
ByBlock
350
3D
  3
ByLayer
350
3C
  3
Global
350
3E
  0
DICTIONARY
  5
1ED
102
{ACAD_REACTORS
330
C
102
}
330
C
100
AcDbDictionary
281
     1
  0
DICTIONARY
  5
17
102
{ACAD_REACTORS
330
C
102
}
330
C
100
AcDbDictionary
281
     1
  3
Standard
350
18
  0
DICTIONARY
  5
19
102
{ACAD_REACTORS
330
C
102
}
330
C
100
AcDbDictionary
281
     1
  0
ACDBDICTIONARYWDFLT
  5
E
102
{ACAD_REACTORS
330
C
102
}
330
C
100
AcDbDictionary
281
     1
  3
Normal
350
F
100
AcDbDictionaryWithDefault
340
F
  0
DICTIONARY
  5
2A
102
{ACAD_REACTORS
330
C
102
}
330
C
100
AcDbDictionary
281
     1
  3
2dWireframe
350
2F
  3
3D Hidden
350
31
  3
3dWireframe
350
30
  3
Basic
350
32
  3
Brighten
350
36
  3
ColorChange
350
3A
  3
Conceptual
350
34
  3
Dim
350
35
  3
Facepattern
350
39
  3
Flat
350
2B
  3
FlatWithEdges
350
2C
  3
Gouraud
350
2D
  3
GouraudWithEdges
350
2E
  3
Linepattern
350
38
  3
Realistic
350
33
  3
Thicken
350
37
  0
DICTIONARY
  5
1EB
102
{ACAD_REACTORS
330
C
102
}
330
C
100
AcDbDictionary
281
     1
  3
DIMASSOC
350
1EE
  3
HIDETEXT
350
1EF
  0
LAYOUT
  5
1E
102
{ACAD_REACTORS
330
1A
102
}
330
1A
100
AcDbPlotSettings
  1

  2
none_device
  4

  6

 40
0.0
 41
0.0
 42
0.0
 43
0.0
 44
0.0
 45
0.0
 46
0.0
 47
0.0
 48
0.0
 49
0.0
140
0.0
141
0.0
142
1.0
143
1.0
 70
   688
 72
     0
 73
     0
 74
     5
  7

 75
    16
147
1.0
148
0.0
149
0.0
100
AcDbLayout
  1
Layout1
 70
     1
 71
     1
 10
0.0
 20
0.0
 11
12.0
 21
9.0
 12
0.0
 22
0.0
 32
0.0
 14
1.00000000000000E+20
 24
1.00000000000000E+20
 34
1.00000000000000E+20
 15
-1.00000000000000E+20
 25
-1.00000000000000E+20
 35
-1.00000000000000E+20
146
0.0
 13
0.0
 23
0.0
 33
0.0
 16
1.0
 26
0.0
 36
0.0
 17
0.0
 27
1.0
 37
0.0
 76
     0
330
1B
  0
LAYOUT
  5
26
102
{ACAD_REACTORS
330
1A
102
}
330
1A
100
AcDbPlotSettings
  1

  2
none_device
  4

  6

 40
0.0
 41
0.0
 42
0.0
 43
0.0
 44
0.0
 45
0.0
 46
0.0
 47
0.0
 48
0.0
 49
0.0
140
0.0
141
0.0
142
1.0
143
1.0
 70
   688
 72
     0
 73
     0
 74
     5
  7

 75
    16
147
1.0
148
0.0
149
0.0
100
AcDbLayout
  1
Layout2
 70
     1
 71
     2
 10
0.0
 20
0.0
 11
0.0
 21
0.0
 12
0.0
 22
0.0
 32
0.0
 14
0.0
 24
0.0
 34
0.0
 15
0.0
 25
0.0
 35
0.0
146
0.0
 13
0.0
 23
0.0
 33
0.0
 16
1.0
 26
0.0
 36
0.0
 17
0.0
 27
1.0
 37
0.0
 76
     0
330
23
  0
LAYOUT
  5
22
102
{ACAD_REACTORS
330
1A
102
}
330
1A
100
AcDbPlotSettings
  1

  2
none_device
  4

  6

 40
0.0
 41
0.0
 42
0.0
 43
0.0
 44
0.0
 45
0.0
 46
0.0
 47
0.0
 48
0.0
 49
0.0
140
0.0
141
0.0
142
1.0
143
1.0
 70
  1712
 72
     0
 73
     0
 74
     0
  7

 75
     0
147
1.0
148
0.0
149
0.0
100
AcDbLayout
  1
Model
 70
     1
 71
     0
 10
0.0
 20
0.0
 11
12.0
 21
9.0
 12
0.0
 22
0.0
 32
0.0
 14
0.0
 24
0.0
 34
0.0
 15
315.0
 25
445.5
 35
0.0
146
0.0
 13
0.0
 23
0.0
 33
0.0
 16
1.0
 26
0.0
 36
0.0
 17
0.0
 27
1.0
 37
0.0
 76
     0
330
1F
331
29
  0
MATERIAL
  5
3D
102
{ACAD_REACTORS
330
3B
102
}
102
{ACAD_XDICTIONARY
360
212
102
}
330
3B
100
AcDbMaterial
  1
ByBlock
  0
MATERIAL
  5
3C
102
{ACAD_REACTORS
330
3B
102
}
102
{ACAD_XDICTIONARY
360
210
102
}
330
3B
100
AcDbMaterial
  1
ByLayer
  0
MATERIAL
  5
3E
102
{ACAD_REACTORS
330
3B
102
}
102
{ACAD_XDICTIONARY
360
214
102
}
330
3B
100
AcDbMaterial
  1
Global
  0
MLINESTYLE
  5
18
102
{ACAD_REACTORS
330
17
102
}
330
17
100
AcDbMlineStyle
  2
Standard
 70
     0
  3

 62
   256
 51
90.0
 52
90.0
 71
     2
 49
0.5
 62
   256
  6
BYLAYER
 49
-0.5
 62
   256
  6
BYLAYER
  0
ACDBPLACEHOLDER
  5
F
102
{ACAD_REACTORS
330
E
102
}
330
E
  0
VISUALSTYLE
  5
2F
102
{ACAD_REACTORS
330
2A
102
}
102
{ACAD_XDICTIONARY
360
1F8
102
}
330
2A
100
AcDbVisualStyle
  2
2dWireframe
 70
     4
 71
     0
 72
     2
 73
     0
 90
        0
 40
-0.6
 41
-30.0
 62
     5
 63
     7
 74
     1
 91
        4
 64
     7
 65
   257
 75
     1
175
     1
 42
1.0
 92
        0
 66
   257
 43
1.0
 76
     1
 77
     6
 78
     2
 67
     7
 79
     5
170
     0
171
     0
290
     0
174
     0
 93
        1
 44
0.0
173
     0
291
     0
 45
0.0
1001
ACAD
1000
AcDbSavedByObjectVersion
1070
     0
  0
VISUALSTYLE
  5
31
102
{ACAD_REACTORS
330
2A
102
}
102
{ACAD_XDICTIONARY
360
1FC
102
}
330
2A
100
AcDbVisualStyle
  2
3D Hidden
 70
     6
 71
     1
 72
     2
 73
     2
 90
        0
 40
-0.6
 41
-30.0
 62
     5
 63
     7
 74
     2
 91
        2
 64
     7
 65
   257
 75
     2
175
     1
 42
40.0
 92
        0
 66
   257
 43
1.0
 76
     1
 77
     6
 78
     2
 67
     7
 79
     3
170
     0
171
     0
290
     0
174
     0
 93
        1
 44
0.0
173
     0
291
     0
 45
0.0
1001
ACAD
1000
AcDbSavedByObjectVersion
1070
     0
  0
VISUALSTYLE
  5
30
102
{ACAD_REACTORS
330
2A
102
}
102
{ACAD_XDICTIONARY
360
1FA
102
}
330
2A
100
AcDbVisualStyle
  2
3dWireframe
 70
     5
 71
     0
 72
     2
 73
     0
 90
        0
 40
-0.6
 41
-30.0
 62
     5
 63
     7
 74
     1
 91
        4
 64
     7
 65
   257
 75
     1
175
     1
 42
1.0
 92
        0
 66
   257
 43
1.0
 76
     1
 77
     6
 78
     2
 67
     7
 79
     5
170
     0
171
     0
290
     0
174
     0
 93
        1
 44
0.0
173
     0
291
     0
 45
0.0
1001
ACAD
1000
AcDbSavedByObjectVersion
1070
     0
  0
VISUALSTYLE
  5
32
102
{ACAD_REACTORS
330
2A
102
}
102
{ACAD_XDICTIONARY
360
1FE
102
}
330
2A
100
AcDbVisualStyle
  2
Basic
 70
     7
 71
     1
 72
     0
 73
     1
 90
        0
 40
-0.6
 41
-30.0
 62
     5
 63
     7
 74
     0
 91
        4
 64
     7
 65
   257
 75
     1
175
     1
 42
1.0
 92
        8
 66
     7
 43
1.0
 76
     1
 77
     6
 78
     2
 67
     7
 79
     5
170
     0
171
     0
290
     0
174
     0
 93
        1
 44
0.0
173
     0
291
     1
 45
0.0
1001
ACAD
1000
AcDbSavedByObjectVersion
1070
     0
  0
VISUALSTYLE
  5
36
102
{ACAD_REACTORS
330
2A
102
}
102
{ACAD_XDICTIONARY
360
206
102
}
330
2A
100
AcDbVisualStyle
  2
Brighten
 70
    12
 71
     2
 72
     2
 73
     0
 90
        0
 40
-0.6
 41
-30.0
 62
     5
 63
     7
 74
     1
 91
        4
 64
     7
 65
   257
 75
     1
175
     1
 42
1.0
 92
        8
 66
     7
 43
1.0
 76
     1
 77
     6
 78
     2
 67
     7
 79
     5
170
     0
171
     0
290
     0
174
     0
 93
        1
 44
50.0
173
     0
291
     1
 45
0.0
1001
ACAD
1000
AcDbSavedByObjectVersion
1070
     0
  0
VISUALSTYLE
  5
3A
102
{ACAD_REACTORS
330
2A
102
}
102
{ACAD_XDICTIONARY
360
20E
102
}
330
2A
100
AcDbVisualStyle
  2
ColorChange
 70
    16
 71
     2
 72
     2
 73
     3
 90
        0
 40
-0.6
 41
-30.0
 62
     5
 63
     8
 74
     1
 91
        4
 64
     7
 65
   257
 75
     1
175
     1
 42
1.0
 92
        8
 66
     8
 43
1.0
 76
     1
 77
     6
 78
     2
 67
     7
 79
     5
170
     0
171
     0
290
     0
174
     0
 93
        1
 44
0.0
173
     0
291
     1
 45
0.0
1001
ACAD
1000
AcDbSavedByObjectVersion
1070
     0
  0
VISUALSTYLE
  5
34
102
{ACAD_REACTORS
330
2A
102
}
102
{ACAD_XDICTIONARY
360
202
102
}
330
2A
100
AcDbVisualStyle
  2
Conceptual
 70
     9
 71
     3
 72
     2
 73
     0
 90
        0
 40
-0.6
 41
-30.0
 62
     5
 63
     7
 74
     2
 91
        2
 64
     7
 65
   257
 75
     1
175
     1
 42
40.0
 92
        8
 66
     7
 43
1.0
 76
     1
 77
     6
 78
     2
 67
     7
 79
     3
170
     0
171
     0
290
     0
174
     0
 93
        1
 44
0.0
173
     0
291
     0
 45
0.0
1001
ACAD
1000
AcDbSavedByObjectVersion
1070
     0
  0
VISUALSTYLE
  5
35
102
{ACAD_REACTORS
330
2A
102
}
102
{ACAD_XDICTIONARY
360
204
102
}
330
2A
100
AcDbVisualStyle
  2
Dim
 70
    11
 71
     2
 72
     2
 73
     0
 90
        0
 40
-0.6
 41
-30.0
 62
     5
 63
     7
 74
     1
 91
        4
 64
     7
 65
   257
 75
     1
175
     1
 42
1.0
 92
        8
 66
     7
 43
1.0
 76
     1
 77
     6
 78
     2
 67
     7
 79
     5
170
     0
171
     0
290
     0
174
     0
 93
        1
 44
-50.0
173
     0
291
     1
 45
0.0
1001
ACAD
1000
AcDbSavedByObjectVersion
1070
     0
  0
VISUALSTYLE
  5
39
102
{ACAD_REACTORS
330
2A
102
}
102
{ACAD_XDICTIONARY
360
20C
102
}
330
2A
100
AcDbVisualStyle
  2
Facepattern
 70
    15
 71
     2
 72
     2
 73
     0
 90
        0
 40
-0.6
 41
-30.0
 62
     5
 63
     7
 74
     1
 91
        4
 64
     7
 65
   257
 75
     1
175
     1
 42
1.0
 92
        8
 66
     7
 43
1.0
 76
     1
 77
     6
 78
     2
 67
     7
 79
     5
170
     0
171
     0
290
     0
174
     0
 93
        1
 44
0.0
173
     0
291
     1
 45
0.0
1001
ACAD
1000
AcDbSavedByObjectVersion
1070
     0
  0
VISUALSTYLE
  5
2B
102
{ACAD_REACTORS
330
2A
102
}
102
{ACAD_XDICTIONARY
360
1F0
102
}
330
2A
100
AcDbVisualStyle
  2
Flat
 70
     0
 71
     2
 72
     1
 73
     1
 90
        2
 40
-0.6
 41
30.0
 62
     5
 63
     7
 74
     0
 91
        4
 64
     7
 65
   257
 75
     1
175
     1
 42
1.0
 92
        8
 66
     7
 43
1.0
 76
     1
 77
     6
 78
     2
 67
     7
 79
     5
170
     0
171
     0
290
     0
174
     0
 93
       13
 44
0.0
173
     0
291
     1
 45
0.0
1001
ACAD
1000
AcDbSavedByObjectVersion
1070
     0
  0
VISUALSTYLE
  5
2C
102
{ACAD_REACTORS
330
2A
102
}
102
{ACAD_XDICTIONARY
360
1F2
102
}
330
2A
100
AcDbVisualStyle
  2
FlatWithEdges
 70
     1
 71
     2
 72
     1
 73
     1
 90
        2
 40
-0.6
 41
30.0
 62
     5
 63
     7
 74
     1
 91
        4
 64
     7
 65
   257
 75
     1
175
     1
 42
1.0
 92
        0
 66
   257
 43
1.0
 76
     1
 77
     6
 78
     2
 67
     7
 79
     5
170
     0
171
     0
290
     0
174
     0
 93
       13
 44
0.0
173
     0
291
     1
 45
0.0
1001
ACAD
1000
AcDbSavedByObjectVersion
1070
     0
  0
VISUALSTYLE
  5
2D
102
{ACAD_REACTORS
330
2A
102
}
102
{ACAD_XDICTIONARY
360
1F4
102
}
330
2A
100
AcDbVisualStyle
  2
Gouraud
 70
     2
 71
     2
 72
     2
 73
     1
 90
        2
 40
-0.6
 41
30.0
 62
     5
 63
     7
 74
     0
 91
        4
 64
     7
 65
   257
 75
     1
175
     1
 42
1.0
 92
        0
 66
     7
 43
1.0
 76
     1
 77
     6
 78
     2
 67
     7
 79
     5
170
     0
171
     0
290
     0
174
     0
 93
       13
 44
0.0
173
     0
291
     1
 45
0.0
1001
ACAD
1000
AcDbSavedByObjectVersion
1070
     0
  0
VISUALSTYLE
  5
2E
102
{ACAD_REACTORS
330
2A
102
}
102
{ACAD_XDICTIONARY
360
1F6
102
}
330
2A
100
AcDbVisualStyle
  2
GouraudWithEdges
 70
     3
 71
     2
 72
     2
 73
     1
 90
        2
 40
-0.6
 41
30.0
 62
     5
 63
     7
 74
     1
 91
        4
 64
     7
 65
   257
 75
     1
175
     1
 42
1.0
 92
        0
 66
   257
 43
1.0
 76
     1
 77
     6
 78
     2
 67
     7
 79
     5
170
     0
171
     0
290
     0
174
     0
 93
       13
 44
0.0
173
     0
291
     1
 45
0.0
1001
ACAD
1000
AcDbSavedByObjectVersion
1070
     0
  0
VISUALSTYLE
  5
38
102
{ACAD_REACTORS
330
2A
102
}
102
{ACAD_XDICTIONARY
360
20A
102
}
330
2A
100
AcDbVisualStyle
  2
Linepattern
 70
    14
 71
     2
 72
     2
 73
     0
 90
        0
 40
-0.6
 41
-30.0
 62
     5
 63
     7
 74
     1
 91
        4
 64
     7
 65
   257
 75
     7
175
     7
 42
1.0
 92
        8
 66
     7
 43
1.0
 76
     1
 77
     6
 78
     2
 67
     7
 79
     5
170
     0
171
     0
290
     0
174
     0
 93
        1
 44
0.0
173
     0
291
     1
 45
0.0
1001
ACAD
1000
AcDbSavedByObjectVersion
1070
     0
  0
VISUALSTYLE
  5
33
102
{ACAD_REACTORS
330
2A
102
}
102
{ACAD_XDICTIONARY
360
200
102
}
330
2A
100
AcDbVisualStyle
  2
Realistic
 70
     8
 71
     2
 72
     2
 73
     0
 90
        0
 40
-0.6
 41
-30.0
 62
     5
 63
     7
 74
     1
 91
        0
 64
     7
 65
   257
 75
     1
175
     1
 42
1.0
 92
        8
 66
     8
 43
1.0
 76
     1
 77
     6
 78
     2
 67
     7
 79
     5
170
     0
171
     0
290
     0
174
     0
 93
       13
 44
0.0
173
     0
291
     0
 45
0.0
1001
ACAD
1000
AcDbSavedByObjectVersion
1070
     0
  0
VISUALSTYLE
  5
37
102
{ACAD_REACTORS
330
2A
102
}
102
{ACAD_XDICTIONARY
360
208
102
}
330
2A
100
AcDbVisualStyle
  2
Thicken
 70
    13
 71
     2
 72
     2
 73
     0
 90
        0
 40
-0.6
 41
-30.0
 62
     5
 63
     7
 74
     1
 91
        4
 64
     7
 65
   257
 75
     1
175
     1
 42
1.0
 92
       12
 66
     7
 43
1.0
 76
     1
 77
     6
 78
     2
 67
     7
 79
     5
170
     0
171
     0
290
     0
174
     0
 93
        1
 44
0.0
173
     0
291
     1
 45
0.0
1001
ACAD
1000
AcDbSavedByObjectVersion
1070
     0
  0
DICTIONARYVAR
  5
1EE
102
{ACAD_REACTORS
330
1EB
102
}
330
1EB
100
DictionaryVariables
280
     0
  1
2
  0
DICTIONARYVAR
  5
1EF
102
{ACAD_REACTORS
330
1EB
102
}
330
1EB
100
DictionaryVariables
280
     0
  1
1
  0
DICTIONARY
  5
212
330
3D
100
AcDbDictionary
280
     1
281
     1
  3
ACAD_XREC_ROUNDTRIP
360
213
  0
DICTIONARY
  5
210
330
3C
100
AcDbDictionary
280
     1
281
     1
  3
ACAD_XREC_ROUNDTRIP
360
211
  0
DICTIONARY
  5
214
330
3E
100
AcDbDictionary
280
     1
281
     1
  3
ACAD_XREC_ROUNDTRIP
360
215
  0
DICTIONARY
  5
1F8
330
2F
100
AcDbDictionary
280
     1
281
     1
  3
ACAD_XREC_ROUNDTRIP
360
1F9
  0
DICTIONARY
  5
1FC
330
31
100
AcDbDictionary
280
     1
281
     1
  3
ACAD_XREC_ROUNDTRIP
360
1FD
  0
DICTIONARY
  5
1FA
330
30
100
AcDbDictionary
280
     1
281
     1
  3
ACAD_XREC_ROUNDTRIP
360
1FB
  0
DICTIONARY
  5
1FE
330
32
100
AcDbDictionary
280
     1
281
     1
  3
ACAD_XREC_ROUNDTRIP
360
1FF
  0
DICTIONARY
  5
206
330
36
100
AcDbDictionary
280
     1
281
     1
  3
ACAD_XREC_ROUNDTRIP
360
207
  0
DICTIONARY
  5
20E
330
3A
100
AcDbDictionary
280
     1
281
     1
  3
ACAD_XREC_ROUNDTRIP
360
20F
  0
DICTIONARY
  5
202
330
34
100
AcDbDictionary
280
     1
281
     1
  3
ACAD_XREC_ROUNDTRIP
360
203
  0
DICTIONARY
  5
204
330
35
100
AcDbDictionary
280
     1
281
     1
  3
ACAD_XREC_ROUNDTRIP
360
205
  0
DICTIONARY
  5
20C
330
39
100
AcDbDictionary
280
     1
281
     1
  3
ACAD_XREC_ROUNDTRIP
360
20D
  0
DICTIONARY
  5
1F0
330
2B
100
AcDbDictionary
280
     1
281
     1
  3
ACAD_XREC_ROUNDTRIP
360
1F1
  0
DICTIONARY
  5
1F2
330
2C
100
AcDbDictionary
280
     1
281
     1
  3
ACAD_XREC_ROUNDTRIP
360
1F3
  0
DICTIONARY
  5
1F4
330
2D
100
AcDbDictionary
280
     1
281
     1
  3
ACAD_XREC_ROUNDTRIP
360
1F5
  0
DICTIONARY
  5
1F6
330
2E
100
AcDbDictionary
280
     1
281
     1
  3
ACAD_XREC_ROUNDTRIP
360
1F7
  0
DICTIONARY
  5
20A
330
38
100
AcDbDictionary
280
     1
281
     1
  3
ACAD_XREC_ROUNDTRIP
360
20B
  0
DICTIONARY
  5
200
330
33
100
AcDbDictionary
280
     1
281
     1
  3
ACAD_XREC_ROUNDTRIP
360
201
  0
DICTIONARY
  5
208
330
37
100
AcDbDictionary
280
     1
281
     1
  3
ACAD_XREC_ROUNDTRIP
360
209
  0
XRECORD
  5
213
102
{ACAD_REACTORS
330
212
102
}
330
212
100
AcDbXrecord
280
     1
102
MATERIAL
148
0.0
149
0.0
149
0.0
 93
        0
 94
      127
282
     0
 72
     1
 77
     1
171
     1
175
     1
179
     1
273
     0
  0
XRECORD
  5
211
102
{ACAD_REACTORS
330
210
102
}
330
210
100
AcDbXrecord
280
     1
102
MATERIAL
148
0.0
149
0.0
149
0.0
 93
        0
 94
      127
282
     0
 72
     1
 77
     1
171
     1
175
     1
179
     1
273
     0
  0
XRECORD
  5
215
102
{ACAD_REACTORS
330
214
102
}
330
214
100
AcDbXrecord
280
     1
102
MATERIAL
148
0.0
149
0.0
149
0.0
 93
        0
 94
      127
282
     0
 72
     1
 77
     1
171
     1
175
     1
179
     1
273
     0
  0
XRECORD
  5
1F9
102
{ACAD_REACTORS
330
1F8
102
}
330
1F8
100
AcDbXrecord
280
     1
102
RTVSPropertyOp0
 70
     1
102
RTVSPropertyOp1
 70
     1
102
RTVSPropertyOp2
 70
     1
102
RTVSPropertyOp3
 70
     1
102
RTVSPropertyOp4
 70
     1
102
RTVSPropertyOp5
 70
     1
102
RTVSPropertyOp6
 70
     1
102
RTVSPropertyOp7
 70
     1
102
RTVSPropertyOp8
 70
     1
102
RTVSPropertyOp9
 70
     1
102
RTVSPropertyOp10
 70
     1
102
RTVSPropertyOp11
 70
     1
102
RTVSPropertyOp12
 70
     1
102
RTVSPropertyOp13
 70
     1
102
RTVSPropertyOp14
 70
     1
102
RTVSPropertyOp15
 70
     1
102
RTVSPropertyOp16
 70
     1
102
RTVSPropertyOp17
 70
     1
102
RTVSPropertyOp18
 70
     1
102
RTVSPropertyOp19
 70
     1
102
RTVSPropertyOp20
 70
     1
102
RTVSPropertyOp21
 70
     1
102
RTVSPropertyOp22
 70
     1
102
RTVSPropertyOp23
 70
     1
102
RTVSPropertyOp24
 70
     1
102
RTVSPropertyOp25
 70
     1
102
RTVSPropertyOp26
 70
     1
102
RTVSPropertyOp27
 70
     1
102
RTVSPropertyOp28
 70
     1
102
RTVSPropertyOp29
 70
     1
102
RTVSPropertyOp30
 70
     1
102
RTVSPropertyOp31
 70
     1
102
RTVSPropertyOp32
 70
     1
  0
XRECORD
  5
1FD
102
{ACAD_REACTORS
330
1FC
102
}
330
1FC
100
AcDbXrecord
280
     1
102
RTVSPropertyOp0
 70
     1
102
RTVSPropertyOp1
 70
     1
102
RTVSPropertyOp2
 70
     1
102
RTVSPropertyOp3
 70
     1
102
RTVSPropertyOp4
 70
     1
102
RTVSPropertyOp5
 70
     1
102
RTVSPropertyOp6
 70
     1
102
RTVSPropertyOp7
 70
     1
102
RTVSPropertyOp8
 70
     1
102
RTVSPropertyOp9
 70
     1
102
RTVSPropertyOp10
 70
     1
102
RTVSPropertyOp11
 70
     1
102
RTVSPropertyOp12
 70
     1
102
RTVSPropertyOp13
 70
     1
102
RTVSPropertyOp14
 70
     1
102
RTVSPropertyOp15
 70
     1
102
RTVSPropertyOp16
 70
     1
102
RTVSPropertyOp17
 70
     1
102
RTVSPropertyOp18
 70
     1
102
RTVSPropertyOp19
 70
     1
102
RTVSPropertyOp20
 70
     1
102
RTVSPropertyOp21
 70
     1
102
RTVSPropertyOp22
 70
     1
102
RTVSPropertyOp23
 70
     1
102
RTVSPropertyOp24
 70
     1
102
RTVSPropertyOp25
 70
     1
102
RTVSPropertyOp26
 70
     1
102
RTVSPropertyOp27
 70
     1
102
RTVSPropertyOp28
 70
     1
102
RTVSPropertyOp29
 70
     1
102
RTVSPropertyOp30
 70
     1
102
RTVSPropertyOp31
 70
     1
102
RTVSPropertyOp32
 70
     1
  0
XRECORD
  5
1FB
102
{ACAD_REACTORS
330
1FA
102
}
330
1FA
100
AcDbXrecord
280
     1
102
RTVSPropertyOp0
 70
     1
102
RTVSPropertyOp1
 70
     1
102
RTVSPropertyOp2
 70
     1
102
RTVSPropertyOp3
 70
     1
102
RTVSPropertyOp4
 70
     1
102
RTVSPropertyOp5
 70
     1
102
RTVSPropertyOp6
 70
     1
102
RTVSPropertyOp7
 70
     1
102
RTVSPropertyOp8
 70
     1
102
RTVSPropertyOp9
 70
     1
102
RTVSPropertyOp10
 70
     1
102
RTVSPropertyOp11
 70
     1
102
RTVSPropertyOp12
 70
     1
102
RTVSPropertyOp13
 70
     1
102
RTVSPropertyOp14
 70
     1
102
RTVSPropertyOp15
 70
     1
102
RTVSPropertyOp16
 70
     1
102
RTVSPropertyOp17
 70
     1
102
RTVSPropertyOp18
 70
     1
102
RTVSPropertyOp19
 70
     1
102
RTVSPropertyOp20
 70
     1
102
RTVSPropertyOp21
 70
     1
102
RTVSPropertyOp22
 70
     1
102
RTVSPropertyOp23
 70
     1
102
RTVSPropertyOp24
 70
     1
102
RTVSPropertyOp25
 70
     1
102
RTVSPropertyOp26
 70
     1
102
RTVSPropertyOp27
 70
     1
102
RTVSPropertyOp28
 70
     1
102
RTVSPropertyOp29
 70
     1
102
RTVSPropertyOp30
 70
     1
102
RTVSPropertyOp31
 70
     1
102
RTVSPropertyOp32
 70
     1
  0
XRECORD
  5
1FF
102
{ACAD_REACTORS
330
1FE
102
}
330
1FE
100
AcDbXrecord
280
     1
102
RTVSPropertyOp0
 70
     1
102
RTVSPropertyOp1
 70
     1
102
RTVSPropertyOp2
 70
     1
102
RTVSPropertyOp3
 70
     1
102
RTVSPropertyOp4
 70
     1
102
RTVSPropertyOp5
 70
     1
102
RTVSPropertyOp6
 70
     1
102
RTVSPropertyOp7
 70
     1
102
RTVSPropertyOp8
 70
     1
102
RTVSPropertyOp9
 70
     1
102
RTVSPropertyOp10
 70
     1
102
RTVSPropertyOp11
 70
     1
102
RTVSPropertyOp12
 70
     1
102
RTVSPropertyOp13
 70
     1
102
RTVSPropertyOp14
 70
     1
102
RTVSPropertyOp15
 70
     1
102
RTVSPropertyOp16
 70
     1
102
RTVSPropertyOp17
 70
     1
102
RTVSPropertyOp18
 70
     1
102
RTVSPropertyOp19
 70
     1
102
RTVSPropertyOp20
 70
     1
102
RTVSPropertyOp21
 70
     1
102
RTVSPropertyOp22
 70
     1
102
RTVSPropertyOp23
 70
     1
102
RTVSPropertyOp24
 70
     1
102
RTVSPropertyOp25
 70
     1
102
RTVSPropertyOp26
 70
     1
102
RTVSPropertyOp27
 70
     1
102
RTVSPropertyOp28
 70
     1
102
RTVSPropertyOp29
 70
     1
102
RTVSPropertyOp30
 70
     1
102
RTVSPropertyOp31
 70
     1
102
RTVSPropertyOp32
 70
     1
  0
XRECORD
  5
207
102
{ACAD_REACTORS
330
206
102
}
330
206
100
AcDbXrecord
280
     1
102
RTVSPropertyOp0
 70
     1
102
RTVSPropertyOp1
 70
     1
102
RTVSPropertyOp2
 70
     1
102
RTVSPropertyOp3
 70
     1
102
RTVSPropertyOp4
 70
     1
102
RTVSPropertyOp5
 70
     1
102
RTVSPropertyOp6
 70
     1
102
RTVSPropertyOp7
 70
     1
102
RTVSPropertyOp8
 70
     1
102
RTVSPropertyOp9
 70
     1
102
RTVSPropertyOp10
 70
     1
102
RTVSPropertyOp11
 70
     1
102
RTVSPropertyOp12
 70
     1
102
RTVSPropertyOp13
 70
     1
102
RTVSPropertyOp14
 70
     1
102
RTVSPropertyOp15
 70
     1
102
RTVSPropertyOp16
 70
     1
102
RTVSPropertyOp17
 70
     1
102
RTVSPropertyOp18
 70
     1
102
RTVSPropertyOp19
 70
     1
102
RTVSPropertyOp20
 70
     1
102
RTVSPropertyOp21
 70
     1
102
RTVSPropertyOp22
 70
     1
102
RTVSPropertyOp23
 70
     1
102
RTVSPropertyOp24
 70
     1
102
RTVSPropertyOp25
 70
     1
102
RTVSPropertyOp26
 70
     1
102
RTVSPropertyOp27
 70
     1
102
RTVSPropertyOp28
 70
     1
102
RTVSPropertyOp29
 70
     1
102
RTVSPropertyOp30
 70
     1
102
RTVSPropertyOp31
 70
     1
102
RTVSPropertyOp32
 70
     1
  0
XRECORD
  5
20F
102
{ACAD_REACTORS
330
20E
102
}
330
20E
100
AcDbXrecord
280
     1
102
RTVSPropertyOp0
 70
     1
102
RTVSPropertyOp1
 70
     1
102
RTVSPropertyOp2
 70
     1
102
RTVSPropertyOp3
 70
     1
102
RTVSPropertyOp4
 70
     1
102
RTVSPropertyOp5
 70
     1
102
RTVSPropertyOp6
 70
     1
102
RTVSPropertyOp7
 70
     1
102
RTVSPropertyOp8
 70
     1
102
RTVSPropertyOp9
 70
     1
102
RTVSPropertyOp10
 70
     1
102
RTVSPropertyOp11
 70
     1
102
RTVSPropertyOp12
 70
     1
102
RTVSPropertyOp13
 70
     1
102
RTVSPropertyOp14
 70
     1
102
RTVSPropertyOp15
 70
     1
102
RTVSPropertyOp16
 70
     1
102
RTVSPropertyOp17
 70
     1
102
RTVSPropertyOp18
 70
     1
102
RTVSPropertyOp19
 70
     1
102
RTVSPropertyOp20
 70
     1
102
RTVSPropertyOp21
 70
     1
102
RTVSPropertyOp22
 70
     1
102
RTVSPropertyOp23
 70
     1
102
RTVSPropertyOp24
 70
     1
102
RTVSPropertyOp25
 70
     1
102
RTVSPropertyOp26
 70
     1
102
RTVSPropertyOp27
 70
     1
102
RTVSPropertyOp28
 70
     1
102
RTVSPropertyOp29
 70
     1
102
RTVSPropertyOp30
 70
     1
102
RTVSPropertyOp31
 70
     1
102
RTVSPropertyOp32
 70
     1
  0
XRECORD
  5
203
102
{ACAD_REACTORS
330
202
102
}
330
202
100
AcDbXrecord
280
     1
102
RTVSPropertyOp0
 70
     1
102
RTVSPropertyOp1
 70
     1
102
RTVSPropertyOp2
 70
     1
102
RTVSPropertyOp3
 70
     1
102
RTVSPropertyOp4
 70
     1
102
RTVSPropertyOp5
 70
     1
102
RTVSPropertyOp6
 70
     1
102
RTVSPropertyOp7
 70
     1
102
RTVSPropertyOp8
 70
     1
102
RTVSPropertyOp9
 70
     1
102
RTVSPropertyOp10
 70
     1
102
RTVSPropertyOp11
 70
     1
102
RTVSPropertyOp12
 70
     1
102
RTVSPropertyOp13
 70
     1
102
RTVSPropertyOp14
 70
     1
102
RTVSPropertyOp15
 70
     1
102
RTVSPropertyOp16
 70
     1
102
RTVSPropertyOp17
 70
     1
102
RTVSPropertyOp18
 70
     1
102
RTVSPropertyOp19
 70
     1
102
RTVSPropertyOp20
 70
     1
102
RTVSPropertyOp21
 70
     1
102
RTVSPropertyOp22
 70
     1
102
RTVSPropertyOp23
 70
     1
102
RTVSPropertyOp24
 70
     1
102
RTVSPropertyOp25
 70
     1
102
RTVSPropertyOp26
 70
     1
102
RTVSPropertyOp27
 70
     1
102
RTVSPropertyOp28
 70
     1
102
RTVSPropertyOp29
 70
     1
102
RTVSPropertyOp30
 70
     1
102
RTVSPropertyOp31
 70
     1
102
RTVSPropertyOp32
 70
     1
  0
XRECORD
  5
205
102
{ACAD_REACTORS
330
204
102
}
330
204
100
AcDbXrecord
280
     1
102
RTVSPropertyOp0
 70
     1
102
RTVSPropertyOp1
 70
     1
102
RTVSPropertyOp2
 70
     1
102
RTVSPropertyOp3
 70
     1
102
RTVSPropertyOp4
 70
     1
102
RTVSPropertyOp5
 70
     1
102
RTVSPropertyOp6
 70
     1
102
RTVSPropertyOp7
 70
     1
102
RTVSPropertyOp8
 70
     1
102
RTVSPropertyOp9
 70
     1
102
RTVSPropertyOp10
 70
     1
102
RTVSPropertyOp11
 70
     1
102
RTVSPropertyOp12
 70
     1
102
RTVSPropertyOp13
 70
     1
102
RTVSPropertyOp14
 70
     1
102
RTVSPropertyOp15
 70
     1
102
RTVSPropertyOp16
 70
     1
102
RTVSPropertyOp17
 70
     1
102
RTVSPropertyOp18
 70
     1
102
RTVSPropertyOp19
 70
     1
102
RTVSPropertyOp20
 70
     1
102
RTVSPropertyOp21
 70
     1
102
RTVSPropertyOp22
 70
     1
102
RTVSPropertyOp23
 70
     1
102
RTVSPropertyOp24
 70
     1
102
RTVSPropertyOp25
 70
     1
102
RTVSPropertyOp26
 70
     1
102
RTVSPropertyOp27
 70
     1
102
RTVSPropertyOp28
 70
     1
102
RTVSPropertyOp29
 70
     1
102
RTVSPropertyOp30
 70
     1
102
RTVSPropertyOp31
 70
     1
102
RTVSPropertyOp32
 70
     1
  0
XRECORD
  5
20D
102
{ACAD_REACTORS
330
20C
102
}
330
20C
100
AcDbXrecord
280
     1
102
RTVSPropertyOp0
 70
     1
102
RTVSPropertyOp1
 70
     1
102
RTVSPropertyOp2
 70
     1
102
RTVSPropertyOp3
 70
     1
102
RTVSPropertyOp4
 70
     1
102
RTVSPropertyOp5
 70
     1
102
RTVSPropertyOp6
 70
     1
102
RTVSPropertyOp7
 70
     1
102
RTVSPropertyOp8
 70
     1
102
RTVSPropertyOp9
 70
     1
102
RTVSPropertyOp10
 70
     1
102
RTVSPropertyOp11
 70
     1
102
RTVSPropertyOp12
 70
     1
102
RTVSPropertyOp13
 70
     1
102
RTVSPropertyOp14
 70
     1
102
RTVSPropertyOp15
 70
     1
102
RTVSPropertyOp16
 70
     1
102
RTVSPropertyOp17
 70
     1
102
RTVSPropertyOp18
 70
     1
102
RTVSPropertyOp19
 70
     1
102
RTVSPropertyOp20
 70
     1
102
RTVSPropertyOp21
 70
     1
102
RTVSPropertyOp22
 70
     1
102
RTVSPropertyOp23
 70
     1
102
RTVSPropertyOp24
 70
     1
102
RTVSPropertyOp25
 70
     1
102
RTVSPropertyOp26
 70
     1
102
RTVSPropertyOp27
 70
     1
102
RTVSPropertyOp28
 70
     1
102
RTVSPropertyOp29
 70
     1
102
RTVSPropertyOp30
 70
     1
102
RTVSPropertyOp31
 70
     1
102
RTVSPropertyOp32
 70
     1
  0
XRECORD
  5
1F1
102
{ACAD_REACTORS
330
1F0
102
}
330
1F0
100
AcDbXrecord
280
     1
102
RTVSPropertyOp0
 70
     1
102
RTVSPropertyOp1
 70
     1
102
RTVSPropertyOp2
 70
     1
102
RTVSPropertyOp3
 70
     1
102
RTVSPropertyOp4
 70
     1
102
RTVSPropertyOp5
 70
     1
102
RTVSPropertyOp6
 70
     1
102
RTVSPropertyOp7
 70
     1
102
RTVSPropertyOp8
 70
     1
102
RTVSPropertyOp9
 70
     1
102
RTVSPropertyOp10
 70
     1
102
RTVSPropertyOp11
 70
     1
102
RTVSPropertyOp12
 70
     1
102
RTVSPropertyOp13
 70
     1
102
RTVSPropertyOp14
 70
     1
102
RTVSPropertyOp15
 70
     1
102
RTVSPropertyOp16
 70
     1
102
RTVSPropertyOp17
 70
     1
102
RTVSPropertyOp18
 70
     1
102
RTVSPropertyOp19
 70
     1
102
RTVSPropertyOp20
 70
     1
102
RTVSPropertyOp21
 70
     1
102
RTVSPropertyOp22
 70
     1
102
RTVSPropertyOp23
 70
     1
102
RTVSPropertyOp24
 70
     1
102
RTVSPropertyOp25
 70
     1
102
RTVSPropertyOp26
 70
     1
102
RTVSPropertyOp27
 70
     1
102
RTVSPropertyOp28
 70
     1
102
RTVSPropertyOp29
 70
     1
102
RTVSPropertyOp30
 70
     1
102
RTVSPropertyOp31
 70
     1
102
RTVSPropertyOp32
 70
     1
  0
XRECORD
  5
1F3
102
{ACAD_REACTORS
330
1F2
102
}
330
1F2
100
AcDbXrecord
280
     1
102
RTVSPropertyOp0
 70
     1
102
RTVSPropertyOp1
 70
     1
102
RTVSPropertyOp2
 70
     1
102
RTVSPropertyOp3
 70
     1
102
RTVSPropertyOp4
 70
     1
102
RTVSPropertyOp5
 70
     1
102
RTVSPropertyOp6
 70
     1
102
RTVSPropertyOp7
 70
     1
102
RTVSPropertyOp8
 70
     1
102
RTVSPropertyOp9
 70
     1
102
RTVSPropertyOp10
 70
     1
102
RTVSPropertyOp11
 70
     1
102
RTVSPropertyOp12
 70
     1
102
RTVSPropertyOp13
 70
     1
102
RTVSPropertyOp14
 70
     1
102
RTVSPropertyOp15
 70
     1
102
RTVSPropertyOp16
 70
     1
102
RTVSPropertyOp17
 70
     1
102
RTVSPropertyOp18
 70
     1
102
RTVSPropertyOp19
 70
     1
102
RTVSPropertyOp20
 70
     1
102
RTVSPropertyOp21
 70
     1
102
RTVSPropertyOp22
 70
     1
102
RTVSPropertyOp23
 70
     1
102
RTVSPropertyOp24
 70
     1
102
RTVSPropertyOp25
 70
     1
102
RTVSPropertyOp26
 70
     1
102
RTVSPropertyOp27
 70
     1
102
RTVSPropertyOp28
 70
     1
102
RTVSPropertyOp29
 70
     1
102
RTVSPropertyOp30
 70
     1
102
RTVSPropertyOp31
 70
     1
102
RTVSPropertyOp32
 70
     1
  0
XRECORD
  5
1F5
102
{ACAD_REACTORS
330
1F4
102
}
330
1F4
100
AcDbXrecord
280
     1
102
RTVSPropertyOp0
 70
     1
102
RTVSPropertyOp1
 70
     1
102
RTVSPropertyOp2
 70
     1
102
RTVSPropertyOp3
 70
     1
102
RTVSPropertyOp4
 70
     1
102
RTVSPropertyOp5
 70
     1
102
RTVSPropertyOp6
 70
     1
102
RTVSPropertyOp7
 70
     1
102
RTVSPropertyOp8
 70
     1
102
RTVSPropertyOp9
 70
     1
102
RTVSPropertyOp10
 70
     1
102
RTVSPropertyOp11
 70
     1
102
RTVSPropertyOp12
 70
     1
102
RTVSPropertyOp13
 70
     1
102
RTVSPropertyOp14
 70
     1
102
RTVSPropertyOp15
 70
     1
102
RTVSPropertyOp16
 70
     1
102
RTVSPropertyOp17
 70
     1
102
RTVSPropertyOp18
 70
     1
102
RTVSPropertyOp19
 70
     1
102
RTVSPropertyOp20
 70
     1
102
RTVSPropertyOp21
 70
     1
102
RTVSPropertyOp22
 70
     1
102
RTVSPropertyOp23
 70
     1
102
RTVSPropertyOp24
 70
     1
102
RTVSPropertyOp25
 70
     1
102
RTVSPropertyOp26
 70
     1
102
RTVSPropertyOp27
 70
     1
102
RTVSPropertyOp28
 70
     1
102
RTVSPropertyOp29
 70
     1
102
RTVSPropertyOp30
 70
     1
102
RTVSPropertyOp31
 70
     1
102
RTVSPropertyOp32
 70
     1
  0
XRECORD
  5
1F7
102
{ACAD_REACTORS
330
1F6
102
}
330
1F6
100
AcDbXrecord
280
     1
102
RTVSPropertyOp0
 70
     1
102
RTVSPropertyOp1
 70
     1
102
RTVSPropertyOp2
 70
     1
102
RTVSPropertyOp3
 70
     1
102
RTVSPropertyOp4
 70
     1
102
RTVSPropertyOp5
 70
     1
102
RTVSPropertyOp6
 70
     1
102
RTVSPropertyOp7
 70
     1
102
RTVSPropertyOp8
 70
     1
102
RTVSPropertyOp9
 70
     1
102
RTVSPropertyOp10
 70
     1
102
RTVSPropertyOp11
 70
     1
102
RTVSPropertyOp12
 70
     1
102
RTVSPropertyOp13
 70
     1
102
RTVSPropertyOp14
 70
     1
102
RTVSPropertyOp15
 70
     1
102
RTVSPropertyOp16
 70
     1
102
RTVSPropertyOp17
 70
     1
102
RTVSPropertyOp18
 70
     1
102
RTVSPropertyOp19
 70
     1
102
RTVSPropertyOp20
 70
     1
102
RTVSPropertyOp21
 70
     1
102
RTVSPropertyOp22
 70
     1
102
RTVSPropertyOp23
 70
     1
102
RTVSPropertyOp24
 70
     1
102
RTVSPropertyOp25
 70
     1
102
RTVSPropertyOp26
 70
     1
102
RTVSPropertyOp27
 70
     1
102
RTVSPropertyOp28
 70
     1
102
RTVSPropertyOp29
 70
     1
102
RTVSPropertyOp30
 70
     1
102
RTVSPropertyOp31
 70
     1
102
RTVSPropertyOp32
 70
     1
  0
XRECORD
  5
20B
102
{ACAD_REACTORS
330
20A
102
}
330
20A
100
AcDbXrecord
280
     1
102
RTVSPropertyOp0
 70
     1
102
RTVSPropertyOp1
 70
     1
102
RTVSPropertyOp2
 70
     1
102
RTVSPropertyOp3
 70
     1
102
RTVSPropertyOp4
 70
     1
102
RTVSPropertyOp5
 70
     1
102
RTVSPropertyOp6
 70
     1
102
RTVSPropertyOp7
 70
     1
102
RTVSPropertyOp8
 70
     1
102
RTVSPropertyOp9
 70
     1
102
RTVSPropertyOp10
 70
     1
102
RTVSPropertyOp11
 70
     1
102
RTVSPropertyOp12
 70
     1
102
RTVSPropertyOp13
 70
     1
102
RTVSPropertyOp14
 70
     1
102
RTVSPropertyOp15
 70
     1
102
RTVSPropertyOp16
 70
     1
102
RTVSPropertyOp17
 70
     1
102
RTVSPropertyOp18
 70
     1
102
RTVSPropertyOp19
 70
     1
102
RTVSPropertyOp20
 70
     1
102
RTVSPropertyOp21
 70
     1
102
RTVSPropertyOp22
 70
     1
102
RTVSPropertyOp23
 70
     1
102
RTVSPropertyOp24
 70
     1
102
RTVSPropertyOp25
 70
     1
102
RTVSPropertyOp26
 70
     1
102
RTVSPropertyOp27
 70
     1
102
RTVSPropertyOp28
 70
     1
102
RTVSPropertyOp29
 70
     1
102
RTVSPropertyOp30
 70
     1
102
RTVSPropertyOp31
 70
     1
102
RTVSPropertyOp32
 70
     1
  0
XRECORD
  5
201
102
{ACAD_REACTORS
330
200
102
}
330
200
100
AcDbXrecord
280
     1
102
RTVSPropertyOp0
 70
     1
102
RTVSPropertyOp1
 70
     1
102
RTVSPropertyOp2
 70
     1
102
RTVSPropertyOp3
 70
     1
102
RTVSPropertyOp4
 70
     1
102
RTVSPropertyOp5
 70
     1
102
RTVSPropertyOp6
 70
     1
102
RTVSPropertyOp7
 70
     1
102
RTVSPropertyOp8
 70
     1
102
RTVSPropertyOp9
 70
     1
102
RTVSPropertyOp10
 70
     1
102
RTVSPropertyOp11
 70
     1
102
RTVSPropertyOp12
 70
     1
102
RTVSPropertyOp13
 70
     1
102
RTVSPropertyOp14
 70
     1
102
RTVSPropertyOp15
 70
     1
102
RTVSPropertyOp16
 70
     1
102
RTVSPropertyOp17
 70
     1
102
RTVSPropertyOp18
 70
     1
102
RTVSPropertyOp19
 70
     1
102
RTVSPropertyOp20
 70
     1
102
RTVSPropertyOp21
 70
     1
102
RTVSPropertyOp22
 70
     1
102
RTVSPropertyOp23
 70
     1
102
RTVSPropertyOp24
 70
     1
102
RTVSPropertyOp25
 70
     1
102
RTVSPropertyOp26
 70
     1
102
RTVSPropertyOp27
 70
     1
102
RTVSPropertyOp28
 70
     1
102
RTVSPropertyOp29
 70
     1
102
RTVSPropertyOp30
 70
     1
102
RTVSPropertyOp31
 70
     1
102
RTVSPropertyOp32
 70
     1
  0
XRECORD
  5
209
102
{ACAD_REACTORS
330
208
102
}
330
208
100
AcDbXrecord
280
     1
102
RTVSPropertyOp0
 70
     1
102
RTVSPropertyOp1
 70
     1
102
RTVSPropertyOp2
 70
     1
102
RTVSPropertyOp3
 70
     1
102
RTVSPropertyOp4
 70
     1
102
RTVSPropertyOp5
 70
     1
102
RTVSPropertyOp6
 70
     1
102
RTVSPropertyOp7
 70
     1
102
RTVSPropertyOp8
 70
     1
102
RTVSPropertyOp9
 70
     1
102
RTVSPropertyOp10
 70
     1
102
RTVSPropertyOp11
 70
     1
102
RTVSPropertyOp12
 70
     1
102
RTVSPropertyOp13
 70
     1
102
RTVSPropertyOp14
 70
     1
102
RTVSPropertyOp15
 70
     1
102
RTVSPropertyOp16
 70
     1
102
RTVSPropertyOp17
 70
     1
102
RTVSPropertyOp18
 70
     1
102
RTVSPropertyOp19
 70
     1
102
RTVSPropertyOp20
 70
     1
102
RTVSPropertyOp21
 70
     1
102
RTVSPropertyOp22
 70
     1
102
RTVSPropertyOp23
 70
     1
102
RTVSPropertyOp24
 70
     1
102
RTVSPropertyOp25
 70
     1
102
RTVSPropertyOp26
 70
     1
102
RTVSPropertyOp27
 70
     1
102
RTVSPropertyOp28
 70
     1
102
RTVSPropertyOp29
 70
     1
102
RTVSPropertyOp30
 70
     1
102
RTVSPropertyOp31
 70
     1
102
RTVSPropertyOp32
 70
     1
  0
ENDSEC
  0
EOF
