  0
SECTION
  2
HEADER
  9
$ACADVER
  1
AC1015
  9
$ACADMAINTVER
 70
     6
  9
$DWGCODEPAGE
  3
ANSI_932
  9
$INSBASE
 10
0.0
 20
0.0
 30
0.0
  9
$EXTMIN
 10
0.0
 20
0.0
 30
0.0
  9
$EXTMAX
 10
210.0
 20
297.0
 30
0.0
  9
$LIMMIN
 10
0.0
 20
0.0
  9
$LIMMAX
 10
12.0
 20
9.0
  9
$ORTHOMODE
 70
     0
  9
$REGENMODE
 70
     1
  9
$FILLMODE
 70
     1
  9
$QTEXTMODE
 70
     0
  9
$MIRRTEXT
 70
     1
  9
$LTSCALE
 40
1.0
  9
$ATTMODE
 70
     1
  9
$TEXTSIZE
 40
0.2
  9
$TRACEWID
 40
0.05
  9
$TEXTSTYLE
  7
Standard
  9
$CLAYER
  8
0
  9
$CELTYPE
  6
ByLayer
  9
$CECOLOR
 62
   256
  9
$CELTSCALE
 40
1.0
  9
$DISPSILH
 70
     0
  9
$DIMSCALE
 40
1.0
  9
$DIMASZ
 40
0.18
  9
$DIMEXO
 40
0.0625
  9
$DIMDLI
 40
0.38
  9
$DIMRND
 40
0.0
  9
$DIMDLE
 40
0.0
  9
$DIMEXE
 40
0.18
  9
$DIMTP
 40
0.0
  9
$DIMTM
 40
0.0
  9
$DIMTXT
 40
0.18
  9
$DIMCEN
 40
0.09
  9
$DIMTSZ
 40
0.0
  9
$DIMTOL
 70
     0
  9
$DIMLIM
 70
     0
  9
$DIMTIH
 70
     1
  9
$DIMTOH
 70
     1
  9
$DIMSE1
 70
     0
  9
$DIMSE2
 70
     0
  9
$DIMTAD
 70
     0
  9
$DIMZIN
 70
     0
  9
$DIMBLK
  1

  9
$DIMASO
 70
     1
  9
$DIMSHO
 70
     1
  9
$DIMPOST
  1

  9
$DIMAPOST
  1

  9
$DIMALT
 70
     0
  9
$DIMALTD
 70
     2
  9
$DIMALTF
 40
25.4
  9
$DIMLFAC
 40
1.0
  9
$DIMTOFL
 70
     0
  9
$DIMTVP
 40
0.0
  9
$DIMTIX
 70
     0
  9
$DIMSOXD
 70
     0
  9
$DIMSAH
 70
     0
  9
$DIMBLK1
  1

  9
$DIMBLK2
  1

  9
$DIMSTYLE
  2
Standard
  9
$DIMCLRD
 70
     0
  9
$DIMCLRE
 70
     0
  9
$DIMCLRT
 70
     0
  9
$DIMTFAC
 40
1.0
  9
$DIMGAP
 40
0.09
  9
$DIMJUST
 70
     0
  9
$DIMSD1
 70
     0
  9
$DIMSD2
 70
     0
  9
$DIMTOLJ
 70
     1
  9
$DIMTZIN
 70
     0
  9
$DIMALTZ
 70
     0
  9
$DIMALTTZ
 70
     0
  9
$DIMUPT
 70
     0
  9
$DIMDEC
 70
     4
  9
$DIMTDEC
 70
     4
  9
$DIMALTU
 70
     2
  9
$DIMALTTD
 70
     2
  9
$DIMTXSTY
  7
Standard
  9
$DIMAUNIT
 70
     0
  9
$DIMADEC
 70
     0
  9
$DIMALTRND
 40
0.0
  9
$DIMAZIN
 70
     0
  9
$DIMDSEP
 70
    46
  9
$DIMATFIT
 70
     3
  9
$DIMFRAC
 70
     0
  9
$DIMLDRBLK
  1

  9
$DIMLUNIT
 70
     2
  9
$DIMLWD
 70
    -2
  9
$DIMLWE
 70
    -2
  9
$DIMTMOVE
 70
     0
  9
$LUNITS
 70
     2
  9
$LUPREC
 70
     4
  9
$SKETCHINC
 40
0.1
  9
$FILLETRAD
 40
0.5
  9
$AUNITS
 70
     0
  9
$AUPREC
 70
     0
  9
$MENU
  1
.
  9
$ELEVATION
 40
0.0
  9
$PELEVATION
 40
0.0
  9
$THICKNESS
 40
0.0
  9
$LIMCHECK
 70
     0
  9
$CHAMFERA
 40
0.5
  9
$CHAMFERB
 40
0.5
  9
$CHAMFERC
 40
1.0
  9
$CHAMFERD
 40
0.0
  9
$SKPOLY
 70
     0
  9
$TDCREATE
 40
2457213.624261539
  9
$TDUCREATE
 40
2457213.249261539
  9
$TDUPDATE
 40
2457213.624262801
  9
$TDUUPDATE
 40
2457213.249262801
  9
$TDINDWG
 40
0.0000000116
  9
$TDUSRTIMER
 40
0.0000000116
  9
$USRTIMER
 70
     1
  9
$ANGBASE
 50
0.0
  9
$ANGDIR
 70
     0
  9
$PDMODE
 70
     0
  9
$PDSIZE
 40
0.0
  9
$PLINEWID
 40
0.0
  9
$SPLFRAME
 70
     0
  9
$SPLINETYPE
 70
     6
  9
$SPLINESEGS
 70
     8
  9
$HANDSEED
  5
270
  9
$SURFTAB1
 70
     6
  9
$SURFTAB2
 70
     6
  9
$SURFTYPE
 70
     6
  9
$SURFU
 70
     6
  9
$SURFV
 70
     6
  9
$UCSBASE
  2

  9
$UCSNAME
  2

  9
$UCSORG
 10
0.0
 20
0.0
 30
0.0
  9
$UCSXDIR
 10
1.0
 20
0.0
 30
0.0
  9
$UCSYDIR
 10
0.0
 20
1.0
 30
0.0
  9
$UCSORTHOREF
  2

  9
$UCSORTHOVIEW
 70
     0
  9
$UCSORGTOP
 10
0.0
 20
0.0
 30
0.0
  9
$UCSORGBOTTOM
 10
0.0
 20
0.0
 30
0.0
  9
$UCSORGLEFT
 10
0.0
 20
0.0
 30
0.0
  9
$UCSORGRIGHT
 10
0.0
 20
0.0
 30
0.0
  9
$UCSORGFRONT
 10
0.0
 20
0.0
 30
0.0
  9
$UCSORGBACK
 10
0.0
 20
0.0
 30
0.0
  9
$PUCSBASE
  2

  9
$PUCSNAME
  2

  9
$PUCSORG
 10
0.0
 20
0.0
 30
0.0
  9
$PUCSXDIR
 10
1.0
 20
0.0
 30
0.0
  9
$PUCSYDIR
 10
0.0
 20
1.0
 30
0.0
  9
$PUCSORTHOREF
  2

  9
$PUCSORTHOVIEW
 70
     0
  9
$PUCSORGTOP
 10
0.0
 20
0.0
 30
0.0
  9
$PUCSORGBOTTOM
 10
0.0
 20
0.0
 30
0.0
  9
$PUCSORGLEFT
 10
0.0
 20
0.0
 30
0.0
  9
$PUCSORGRIGHT
 10
0.0
 20
0.0
 30
0.0
  9
$PUCSORGFRONT
 10
0.0
 20
0.0
 30
0.0
  9
$PUCSORGBACK
 10
0.0
 20
0.0
 30
0.0
  9
$USERI1
 70
     0
  9
$USERI2
 70
     0
  9
$USERI3
 70
     0
  9
$USERI4
 70
     0
  9
$USERI5
 70
     0
  9
$USERR1
 40
18.1
  9
$USERR2
 40
0.0
  9
$USERR3
 40
0.0
  9
$USERR4
 40
0.0
  9
$USERR5
 40
0.0
  9
$WORLDVIEW
 70
     1
  9
$SHADEDGE
 70
     3
  9
$SHADEDIF
 70
    70
  9
$TILEMODE
 70
     1
  9
$MAXACTVP
 70
    64
  9
$PINSBASE
 10
0.0
 20
0.0
 30
0.0
  9
$PLIMCHECK
 70
     0
  9
$PEXTMIN
 10
1.00000000000000E+20
 20
1.00000000000000E+20
 30
1.00000000000000E+20
  9
$PEXTMAX
 10
-1.00000000000000E+20
 20
-1.00000000000000E+20
 30
-1.00000000000000E+20
  9
$PLIMMIN
 10
0.0
 20
0.0
  9
$PLIMMAX
 10
12.0
 20
9.0
  9
$UNITMODE
 70
     0
  9
$VISRETAIN
 70
     1
  9
$PLINEGEN
 70
     0
  9
$PSLTSCALE
 70
     1
  9
$TREEDEPTH
 70
  3020
  9
$CMLSTYLE
  2
Standard
  9
$CMLJUST
 70
     0
  9
$CMLSCALE
 40
1.0
  9
$PROXYGRAPHICS
 70
     1
  9
$MEASUREMENT
 70
     1
  9
$CELWEIGHT
370
    -1
  9
$ENDCAPS
280
     0
  9
$JOINSTYLE
280
     0
  9
$LWDISPLAY
290
     0
  9
$INSUNITS
 70
     4
  9
$HYPERLINKBASE
  1

  9
$STYLESHEET
  1

  9
$XEDIT
290
     1
  9
$CEPSNTYPE
380
     0
  9
$PSTYLEMODE
290
     1
  9
$FINGERPRINTGUID
  2
{5370C67E-0405-4C37-A657-AE78A2CBE58E}
  9
$VERSIONGUID
  2
{FAEB1C32-E019-11D5-929B-00C0DF256EC4}
  9
$EXTNAMES
290
     1
  9
$PSVPSCALE
 40
0.0
  9
$OLESTARTUP
290
     0
  0
ENDSEC
  0
SECTION
  2
CLASSES
  0
CLASS
  1
ACDBDICTIONARYWDFLT
  2
AcDbDictionaryWithDefault
  3
ObjectDBX Classes
 90
        0
280
     0
281
     0
  0
CLASS
  1
VISUALSTYLE
  2
AcDbVisualStyle
  3
ObjectDBX Classes
 90
     4095
280
     0
281
     0
  0
CLASS
  1
MATERIAL
  2
AcDbMaterial
  3
ObjectDBX Classes
 90
     1153
280
     0
281
     0
  0
CLASS
  1
DICTIONARYVAR
  2
AcDbDictionaryVar
  3
ObjectDBX Classes
 90
        0
280
     0
281
     0
  0
CLASS
  1
ACDBPLACEHOLDER
  2
AcDbPlaceHolder
  3
ObjectDBX Classes
 90
        0
280
     0
281
     0
  0
CLASS
  1
LAYOUT
  2
AcDbLayout
  3
ObjectDBX Classes
 90
        0
280
     0
281
     0
  0
ENDSEC
  0
SECTION
  2
TABLES
  0
TABLE
  2
VPORT
  5
8
330
0
100
AcDbSymbolTable
 70
     1
  0
VPORT
  5
29
330
8
100
AcDbSymbolTableRecord
100
AcDbViewportTableRecord
  2
*Active
 70
     0
 10
0.0
 20
0.0
 11
1.0
 21
1.0
 12
105.0
 22
148.5
 13
0.0
 23
0.0
 14
0.5
 24
0.5
 15
0.5
 25
0.5
 16
0.0
 26
0.0
 36
1.0
 17
0.0
 27
0.0
 37
0.0
 40
326.7
 41
1.60267857142857
 42
50.0
 43
0.0
 44
0.0
 50
0.0
 51
0.0
 71
     0
 72
   100
 73
     1
 74
     3
 75
     0
 76
     0
 77
     0
 78
     0
281
     0
 65
     1
110
0.0
120
0.0
130
0.0
111
1.0
121
0.0
131
0.0
112
0.0
122
1.0
132
0.0
 79
     0
146
0.0
  0
ENDTAB
  0
TABLE
  2
LTYPE
  5
5
330
0
100
AcDbSymbolTable
 70
     8
  0
LTYPE
  5
14
330
5
100
AcDbSymbolTableRecord
100
AcDbLinetypeTableRecord
  2
ByBlock
 70
     0
  3

 72
    65
 73
     0
 40
0.0
  0
LTYPE
  5
15
330
5
100
AcDbSymbolTableRecord
100
AcDbLinetypeTableRecord
  2
ByLayer
 70
     0
  3

 72
    65
 73
     0
 40
0.0
  0
LTYPE
  5
16
330
5
100
AcDbSymbolTableRecord
100
AcDbLinetypeTableRecord
  2
Continuous
 70
     0
  3
Solid line
 72
    65
 73
     0
 40
0.0
  0
LTYPE
  5
3F
330
5
100
AcDbSymbolTableRecord
100
AcDbLinetypeTableRecord
  2
DASHED
 70
     0
  3
Dashed
 72
    65
 73
     2
 40
15.0
 49
7.0
 74
     0
 49
-8.0
 74
     0
  0
LTYPE
  5
40
330
5
100
AcDbSymbolTableRecord
100
AcDbLinetypeTableRecord
  2
DOTTED
 70
     0
  3
Dotted
 72
    65
 73
     2
 40
1.0
 49
0.0
 74
     0
 49
-1.0
 74
     0
  0
LTYPE
  5
41
330
5
100
AcDbSymbolTableRecord
100
AcDbLinetypeTableRecord
  2
DOT_CENTER
 70
     0
  3
Dot_Center
 72
    65
 73
     4
 40
14.0
 49
12.0
 74
     0
 49
-1.0
 74
     0
 49
0.0
 74
     0
 49
-1.0
 74
     0
  0
LTYPE
  5
42
330
5
100
AcDbSymbolTableRecord
100
AcDbLinetypeTableRecord
  2
LONG_DASHED
 70
     0
  3
Long_Dashed
 72
    65
 73
     2
 40
15.0
 49
10.0
 74
     0
 49
-5.0
 74
     0
  0
LTYPE
  5
43
330
5
100
AcDbSymbolTableRecord
100
AcDbLinetypeTableRecord
  2
DASH_CENTER
 70
     0
  3
Dash_Center
 72
    65
 73
     4
 40
14.0
 49
11.0
 74
     0
 49
-1.0
 74
     0
 49
1.0
 74
     0
 49
-1.0
 74
     0
  0
LTYPE
  5
44
330
5
100
AcDbSymbolTableRecord
100
AcDbLinetypeTableRecord
  2
PHANTOM
 70
     0
  3
Phantom
 72
    65
 73
     6
 40
13.0
 49
10.0
 74
     0
 49
-1.0
 74
     0
 49
0.0
 74
     0
 49
-1.0
 74
     0
 49
0.0
 74
     0
 49
-1.0
 74
     0
  0
LTYPE
  5
45
330
5
100
AcDbSymbolTableRecord
100
AcDbLinetypeTableRecord
  2
CENTER_DASH_DASH
 70
     0
  3
Center_Dash_Dash
 72
    65
 73
     6
 40
14.0
 49
9.0
 74
     0
 49
-1.0
 74
     0
 49
1.0
 74
     0
 49
-1.0
 74
     0
 49
1.0
 74
     0
 49
-1.0
 74
     0
  0
ENDTAB
  0
TABLE
  2
LAYER
  5
2
330
0
100
AcDbSymbolTable
 70
     2
  0
LAYER
  5
10
330
2
100
AcDbSymbolTableRecord
100
AcDbLayerTableRecord
  2
0
 70
     0
 62
     7
  6
Continuous
370
    -3
390
F
  0
LAYER
  5
46
330
2
100
AcDbSymbolTableRecord
100
AcDbLayerTableRecord
  2
1
 70
     0
 62
     7
  6
Continuous
370
    -3
390
F
  0
ENDTAB
  0
TABLE
  2
STYLE
  5
3
330
0
100
AcDbSymbolTable
 70
     3
  0
STYLE
  5
11
330
3
100
AcDbSymbolTableRecord
100
AcDbTextStyleTableRecord
  2
Standard
 70
     0
 40
0.0
 41
1.0
 50
0.0
 71
     0
 42
0.2
  3
txt
  4

  0
STYLE
  5
BA
330
3
100
AcDbSymbolTableRecord
100
AcDbTextStyleTableRecord
  2
CONVERTER_11
 70
     0
 40
0.0
 41
0.89
 50
0.0
 71
     0
 42
0.2
  3
MS Mincho.ttf
  4

1001
ACAD
1000
MS Mincho
1071
    32785
  0
STYLE
  5
20A
330
3
100
AcDbSymbolTableRecord
100
AcDbTextStyleTableRecord
  2
CONVERTER_12
 70
     0
 40
0.0
 41
0.9
 50
0.0
 71
     0
 42
0.2
  3
txt.shx
  4

  0
ENDTAB
  0
TABLE
  2
VIEW
  5
6
330
0
100
AcDbSymbolTable
 70
     0
  0
ENDTAB
  0
TABLE
  2
UCS
  5
7
330
0
100
AcDbSymbolTable
 70
     0
  0
ENDTAB
  0
TABLE
  2
APPID
  5
9
330
0
100
AcDbSymbolTable
 70
     1
  0
APPID
  5
12
330
9
100
AcDbSymbolTableRecord
100
AcDbRegAppTableRecord
  2
ACAD
 70
     0
  0
ENDTAB
  0
TABLE
  2
DIMSTYLE
  5
A
330
0
100
AcDbSymbolTable
 70
     5
100
AcDbDimStyleTable
  0
DIMSTYLE
105
27
330
A
100
AcDbSymbolTableRecord
100
AcDbDimStyleTableRecord
  2
Standard
 70
     0
178
     0
340
11
  0
DIMSTYLE
105
222
102
{ACAD_REACTORS
330
223
102
}
330
A
100
AcDbSymbolTableRecord
100
AcDbDimStyleTableRecord
  2
ME10_DIM_10
 70
     0
 41
3.5
 42
0.0
 44
1.0
 73
     0
 74
     0
 77
     1
 78
     8
140
3.5
147
1.0
172
     1
173
     1
174
     1
175
     1
176
     2
177
     2
271
     2
178
     7
271
     2
340
20A
  0
DIMSTYLE
105
22D
102
{ACAD_REACTORS
330
22E
102
}
330
A
100
AcDbSymbolTableRecord
100
AcDbDimStyleTableRecord
  2
ME10_DIM_11
 70
     0
 41
3.5
 42
0.0
 44
1.0
 73
     0
 74
     0
 77
     1
 78
     8
140
3.5
147
1.0
172
     1
173
     1
174
     1
175
     1
176
     2
177
     2
271
     2
178
     7
271
     2
340
BA
  0
DIMSTYLE
105
238
102
{ACAD_REACTORS
330
239
102
}
330
A
100
AcDbSymbolTableRecord
100
AcDbDimStyleTableRecord
  2
ME10_DIM_12
 70
     0
 41
3.5
 42
0.0
 44
1.0
 73
     0
 74
     0
 77
     1
 78
     8
140
3.5
147
1.0
172
     1
173
     1
174
     1
175
     1
176
     2
177
     2
271
     2
178
     7
271
     2
340
20A
  0
DIMSTYLE
105
243
102
{ACAD_REACTORS
330
244
102
}
330
A
100
AcDbSymbolTableRecord
100
AcDbDimStyleTableRecord
  2
ME10_DIM_13
 70
     0
 41
3.5
 42
0.0
 44
1.0
 73
     0
 74
     0
 77
     1
 78
     8
140
3.5
147
1.0
172
     1
173
     1
174
     1
175
     1
176
     2
177
     2
271
     2
178
     7
271
     2
340
20A
  0
ENDTAB
  0
TABLE
  2
BLOCK_RECORD
  5
1
330
0
100
AcDbSymbolTable
 70
    15
  0
BLOCK_RECORD
  5
1F
330
1
100
AcDbSymbolTableRecord
100
AcDbBlockTableRecord
  2
*Model_Space
340
22
  0
BLOCK_RECORD
  5
1B
330
1
100
AcDbSymbolTableRecord
100
AcDbBlockTableRecord
  2
*Paper_Space
340
1E
  0
BLOCK_RECORD
  5
23
330
1
100
AcDbSymbolTableRecord
100
AcDbBlockTableRecord
  2
*Paper_Space0
340
26
  0
BLOCK_RECORD
  5
47
330
1
100
AcDbSymbolTableRecord
100
AcDbBlockTableRecord
  2
開示A4
340
0
102
{BLKREFS
331
6A
102
}
  0
BLOCK_RECORD
  5
4A
330
1
100
AcDbSymbolTableRecord
100
AcDbBlockTableRecord
  2
91-1
340
0
102
{BLKREFS
331
5A
102
}
  0
BLOCK_RECORD
  5
4D
330
1
100
AcDbSymbolTableRecord
100
AcDbBlockTableRecord
  2
42-15
340
0
102
{BLKREFS
331
5B
102
}
  0
BLOCK_RECORD
  5
50
330
1
100
AcDbSymbolTableRecord
100
AcDbBlockTableRecord
  2
21-1C
340
0
102
{BLKREFS
331
5C
102
}
  0
BLOCK_RECORD
  5
53
330
1
100
AcDbSymbolTableRecord
100
AcDbBlockTableRecord
  2
36-54
340
0
102
{BLKREFS
331
5D
102
}
  0
BLOCK_RECORD
  5
56
330
1
100
AcDbSymbolTableRecord
100
AcDbBlockTableRecord
  2
37-1-13
340
0
102
{BLKREFS
331
5E
102
}
  0
BLOCK_RECORD
  5
59
330
1
100
AcDbSymbolTableRecord
100
AcDbBlockTableRecord
  2
R10AK-13
340
0
102
{BLKREFS
331
6B
102
}
  0
BLOCK_RECORD
  5
61
330
1
100
AcDbSymbolTableRecord
100
AcDbBlockTableRecord
  2
V261-13
340
0
102
{BLKREFS
331
6C
102
}
  0
BLOCK_RECORD
  5
64
330
1
100
AcDbSymbolTableRecord
100
AcDbBlockTableRecord
  2
35-22
340
0
102
{BLKREFS
331
6D
102
}
  0
BLOCK_RECORD
  5
67
330
1
100
AcDbSymbolTableRecord
100
AcDbBlockTableRecord
  2
32-26-M11-314
340
0
102
{BLKREFS
331
6E
102
}
  0
BLOCK_RECORD
  5
219
330
1
100
AcDbSymbolTableRecord
100
AcDbBlockTableRecord
  2
*D11
340
0
  0
BLOCK_RECORD
  5
224
330
1
100
AcDbSymbolTableRecord
100
AcDbBlockTableRecord
  2
*D12
340
0
  0
BLOCK_RECORD
  5
22F
330
1
100
AcDbSymbolTableRecord
100
AcDbBlockTableRecord
  2
*D13
340
0
  0
BLOCK_RECORD
  5
23A
330
1
100
AcDbSymbolTableRecord
100
AcDbBlockTableRecord
  2
*D14
340
0
  0
ENDTAB
  0
ENDSEC
  0
SECTION
  2
BLOCKS
  0
BLOCK
  5
20
330
1F
100
AcDbEntity
  8
0
100
AcDbBlockBegin
  2
*Model_Space
 70
     0
 10
0.0
 20
0.0
 30
0.0
  3
*Model_Space
  1

  0
ENDBLK
  5
21
330
1F
100
AcDbEntity
  8
0
100
AcDbBlockEnd
  0
BLOCK
  5
1C
330
1B
100
AcDbEntity
 67
     1
  8
0
100
AcDbBlockBegin
  2
*Paper_Space
 70
     0
 10
0.0
 20
0.0
 30
0.0
  3
*Paper_Space
  1

  0
ENDBLK
  5
1D
330
1B
100
AcDbEntity
 67
     1
  8
0
100
AcDbBlockEnd
  0
BLOCK
  5
24
330
23
100
AcDbEntity
  8
0
100
AcDbBlockBegin
  2
*Paper_Space0
 70
     0
 10
0.0
 20
0.0
 30
0.0
  3
*Paper_Space0
  1

  0
ENDBLK
  5
25
330
23
100
AcDbEntity
  8
0
100
AcDbBlockEnd
  0
BLOCK
  5
48
330
47
100
AcDbEntity
  8
0
100
AcDbBlockBegin
  2
開示A4
 70
     0
 10
0.0
 20
0.0
 30
0.0
  3
開示A4
  1

  0
POINT
  5
6F
330
47
100
AcDbEntity
  8
1
 62
     4
100
AcDbPoint
 10
93.75000000000003
 20
17.0
 30
0.0
  0
POINT
  5
70
330
47
100
AcDbEntity
  8
1
 62
     4
100
AcDbPoint
 10
85.25000000000003
 20
17.0
 30
0.0
  0
POINT
  5
71
330
47
100
AcDbEntity
  8
1
 62
     4
100
AcDbPoint
 10
106.5
 20
19.00000000000002
 30
0.0
  0
POINT
  5
72
330
47
100
AcDbEntity
  8
1
 62
     4
100
AcDbPoint
 10
106.5
 20
12.5
 30
0.0
  0
POINT
  5
73
330
47
100
AcDbEntity
  8
1
 62
     4
100
AcDbPoint
 10
112.25
 20
12.5
 30
0.0
  0
POINT
  5
74
330
47
100
AcDbEntity
  8
1
 62
     4
100
AcDbPoint
 10
100.75
 20
12.5
 30
0.0
  0
POINT
  5
75
330
47
100
AcDbEntity
  8
1
 62
     4
100
AcDbPoint
 10
123.5
 20
19.00000000000002
 30
0.0
  0
POINT
  5
76
330
47
100
AcDbEntity
  8
1
 62
     4
100
AcDbPoint
 10
123.5
 20
12.5
 30
0.0
  0
POINT
  5
77
330
47
100
AcDbEntity
  8
1
 62
     4
100
AcDbPoint
 10
129.25
 20
12.5
 30
0.0
  0
POINT
  5
78
330
47
100
AcDbEntity
  8
1
 62
     4
100
AcDbPoint
 10
117.75
 20
12.5
 30
0.0
  0
POINT
  5
79
330
47
100
AcDbEntity
  8
1
 62
     4
100
AcDbPoint
 10
140.5
 20
19.00000000000002
 30
0.0
  0
POINT
  5
7A
330
47
100
AcDbEntity
  8
1
 62
     4
100
AcDbPoint
 10
140.5
 20
12.5
 30
0.0
  0
POINT
  5
7B
330
47
100
AcDbEntity
  8
1
 62
     4
100
AcDbPoint
 10
146.25
 20
12.5
 30
0.0
  0
POINT
  5
7C
330
47
100
AcDbEntity
  8
1
 62
     4
100
AcDbPoint
 10
134.75
 20
12.5
 30
0.0
  0
POINT
  5
7D
330
47
100
AcDbEntity
  8
1
 62
     4
100
AcDbPoint
 10
151.75
 20
12.5
 30
0.0
  0
POINT
  5
7E
330
47
100
AcDbEntity
  8
1
 62
     4
100
AcDbPoint
 10
163.25
 20
12.5
 30
0.0
  0
POINT
  5
7F
330
47
100
AcDbEntity
  8
1
 62
     4
100
AcDbPoint
 10
157.5
 20
12.5
 30
0.0
  0
POINT
  5
80
330
47
100
AcDbEntity
  8
1
 62
     4
100
AcDbPoint
 10
57.00000000000003
 20
14.25
 30
0.0
  0
POINT
  5
81
330
47
100
AcDbEntity
  8
1
 62
     4
100
AcDbPoint
 10
57.00000000000003
 20
22.75000000000002
 30
0.0
  0
POINT
  5
82
330
47
100
AcDbEntity
  8
1
 62
     4
100
AcDbPoint
 10
47.50000000000003
 20
282.0000000000003
 30
0.0
  0
POINT
  5
83
330
47
100
AcDbEntity
  8
1
 62
     4
100
AcDbPoint
 10
157.5
 20
19.00000000000002
 30
0.0
  0
POINT
  5
84
330
47
100
AcDbEntity
  8
1
 62
     4
100
AcDbPoint
 10
57.00000000000003
 20
16.25
 30
0.0
  0
POINT
  5
85
330
47
100
AcDbEntity
  8
1
 62
     4
100
AcDbPoint
 10
57.00000000000003
 20
24.75000000000002
 30
0.0
  0
POINT
  5
86
330
47
100
AcDbEntity
  8
1
 62
     4
100
AcDbPoint
 10
57.00000000000003
 20
20.75000000000002
 30
0.0
  0
POINT
  5
87
330
47
100
AcDbEntity
  8
1
 62
     4
100
AcDbPoint
 10
57.00000000000003
 20
12.25
 30
0.0
  0
POINT
  5
88
330
47
100
AcDbEntity
  8
1
 62
     4
100
AcDbPoint
 10
34.00000000000003
 20
34.00000000000001
 30
0.0
  0
LINE
  5
89
330
47
100
AcDbEntity
  8
1
  6
Continuous
 62
     7
100
AcDbLine
 10
105.0
 20
10.0
 30
0.0
 11
200.0
 21
10.0
 31
0.0
  0
LINE
  5
8A
330
47
100
AcDbEntity
  8
1
  6
Continuous
 62
     2
100
AcDbLine
 10
105.0
 20
10.0
 30
0.0
 11
105.0
 21
5.0
 31
0.0
  0
LINE
  5
8B
330
47
100
AcDbEntity
  8
1
  6
Continuous
 62
     7
100
AcDbLine
 10
200.0
 20
148.5
 30
0.0
 11
200.0
 21
287.0000000000003
 31
0.0
  0
LINE
  5
8C
330
47
100
AcDbEntity
  8
1
  6
Continuous
 62
     2
100
AcDbLine
 10
200.0
 20
148.5
 30
0.0
 11
205.0
 21
148.5
 31
0.0
  0
LINE
  5
8D
330
47
100
AcDbEntity
  8
1
  6
Continuous
 62
     7
100
AcDbLine
 10
25.00000000000003
 20
148.5
 30
0.0
 11
25.00000000000003
 21
287.0000000000003
 31
0.0
  0
LINE
  5
8E
330
47
100
AcDbEntity
  8
1
  6
Continuous
 62
     2
100
AcDbLine
 10
25.00000000000003
 20
148.5
 30
0.0
 11
20.00000000000003
 21
148.5
 31
0.0
  0
LINE
  5
8F
330
47
100
AcDbEntity
  8
1
  6
Continuous
 62
     7
100
AcDbLine
 10
105.0
 20
287.0000000000003
 30
0.0
 11
25.00000000000003
 21
287.0000000000003
 31
0.0
  0
LINE
  5
90
330
47
100
AcDbEntity
  8
1
  6
Continuous
 62
     2
100
AcDbLine
 10
105.0
 20
287.0000000000003
 30
0.0
 11
105.0
 21
292.0000000000003
 31
0.0
  0
LINE
  5
91
330
47
100
AcDbEntity
  8
1
  6
Continuous
 62
     2
100
AcDbLine
 10
166.0
 20
20.00000000000002
 30
0.0
 11
200.0
 21
20.00000000000002
 31
0.0
  0
LINE
  5
92
330
47
100
AcDbEntity
  8
1
  6
Continuous
 62
     2
100
AcDbLine
 10
98.00000000000003
 20
27.00000000000002
 30
0.0
 11
98.00000000000003
 21
9.99999999999999
 31
0.0
  0
LINE
  5
93
330
47
100
AcDbEntity
  8
1
  6
Continuous
 62
     2
100
AcDbLine
 10
115.0
 20
27.00000000000002
 30
0.0
 11
115.0
 21
9.99999999999999
 31
0.0
  0
LINE
  5
94
330
47
100
AcDbEntity
  8
1
  6
Continuous
 62
     2
100
AcDbLine
 10
149.0
 20
27.00000000000002
 30
0.0
 11
149.0
 21
10.0
 31
0.0
  0
LINE
  5
95
330
47
100
AcDbEntity
  8
1
  6
Continuous
 62
     2
100
AcDbLine
 10
132.0
 20
27.00000000000002
 30
0.0
 11
132.0
 21
9.99999999999999
 31
0.0
  0
LINE
  5
96
330
47
100
AcDbEntity
  8
1
  6
Continuous
 62
     2
100
AcDbLine
 10
166.0
 20
27.00000000000002
 30
0.0
 11
166.0
 21
10.0
 31
0.0
  0
LINE
  5
97
330
47
100
AcDbEntity
  8
1
  6
Continuous
 62
     2
100
AcDbLine
 10
55.00000000000003
 20
277.0000000000003
 30
0.0
 11
25.00000000000003
 21
277.0000000000003
 31
0.0
  0
LINE
  5
98
330
47
100
AcDbEntity
  8
1
  6
Continuous
 62
     7
100
AcDbLine
 10
25.00000000000003
 20
10.0
 30
0.0
 11
25.00000000000003
 21
148.5
 31
0.0
  0
LINE
  5
99
330
47
100
AcDbEntity
  8
1
  6
Continuous
 62
     2
100
AcDbLine
 10
40.00000000000003
 20
287.0000000000003
 30
0.0
 11
40.00000000000003
 21
277.0000000000003
 31
0.0
  0
LINE
  5
9A
330
47
100
AcDbEntity
  8
1
  6
Continuous
 62
     2
100
AcDbLine
 10
55.00000000000003
 20
287.0000000000003
 30
0.0
 11
55.00000000000003
 21
277.0000000000003
 31
0.0
  0
LINE
  5
9B
330
47
100
AcDbEntity
  8
1
  6
Continuous
 62
     2
100
AcDbLine
 10
33.00000000000003
 20
41.00000000000001
 30
0.0
 11
33.00000000000003
 21
27.0
 31
0.0
  0
LINE
  5
9C
330
47
100
AcDbEntity
  8
1
  6
Continuous
 62
     7
100
AcDbLine
 10
200.0
 20
27.00000000000002
 30
0.0
 11
25.00000000000003
 21
27.00000000000002
 31
0.0
  0
LINE
  5
9D
330
47
100
AcDbEntity
  8
1
  6
Continuous
 62
     7
100
AcDbLine
 10
25.00000000000003
 20
41.0
 30
0.0
 11
200.0
 21
41.0
 31
0.0
  0
LINE
  5
9E
330
47
100
AcDbEntity
  8
1
  6
PHANTOM
 62
     4
100
AcDbLine
 10
0.0
 20
0.0
 30
0.0
 11
210.0
 21
0.0
 31
0.0
  0
LINE
  5
9F
330
47
100
AcDbEntity
  8
1
  6
PHANTOM
 62
     4
100
AcDbLine
 10
210.0
 20
0.0
 30
0.0
 11
210.0
 21
297.0
 31
0.0
  0
LINE
  5
A0
330
47
100
AcDbEntity
  8
1
  6
PHANTOM
 62
     4
100
AcDbLine
 10
210.0
 20
297.0
 30
0.0
 11
0.0
 21
297.0
 31
0.0
  0
LINE
  5
A1
330
47
100
AcDbEntity
  8
1
  6
PHANTOM
 62
     4
100
AcDbLine
 10
0.0
 20
297.0
 30
0.0
 11
0.0
 21
0.0
 31
0.0
  0
LINE
  5
A2
330
47
100
AcDbEntity
  8
1
  6
Continuous
 62
     7
100
AcDbLine
 10
25.00000000000003
 20
10.0
 30
0.0
 11
105.0
 21
10.0
 31
0.0
  0
LINE
  5
A3
330
47
100
AcDbEntity
  8
1
  6
Continuous
 62
     7
100
AcDbLine
 10
200.0
 20
10.0
 30
0.0
 11
200.0
 21
148.5
 31
0.0
  0
LINE
  5
A4
330
47
100
AcDbEntity
  8
1
  6
Continuous
 62
     7
100
AcDbLine
 10
200.0
 20
287.0000000000003
 30
0.0
 11
105.0
 21
287.0000000000003
 31
0.0
  0
LINE
  5
A5
330
47
100
AcDbEntity
  8
1
  6
Continuous
 62
     2
100
AcDbLine
 10
25.00000000000003
 20
18.50000000000002
 30
0.0
 11
81.00000000000003
 21
18.50000000000002
 31
0.0
  0
LINE
  5
A6
330
47
100
AcDbEntity
  8
1
  6
Continuous
 62
     2
100
AcDbLine
 10
33.00000000000003
 20
27.0
 30
0.0
 11
33.00000000000003
 21
10.0
 31
0.0
  0
LINE
  5
A7
330
47
100
AcDbEntity
  8
1
  6
Continuous
 62
     7
100
AcDbLine
 10
191.0
 20
24.70000000000001
 30
0.0
 11
191.0
 21
22.30000000000001
 31
0.0
  0
LINE
  5
A8
330
47
100
AcDbEntity
  8
1
  6
Continuous
 62
     7
100
AcDbLine
 10
191.0
 20
24.70000000000001
 30
0.0
 11
196.0
 21
25.50000000000002
 31
0.0
  0
LINE
  5
A9
330
47
100
AcDbEntity
  8
1
  6
Continuous
 62
     7
100
AcDbLine
 10
196.0
 20
25.50000000000002
 30
0.0
 11
196.0
 21
21.50000000000002
 31
0.0
  0
LINE
  5
AA
330
47
100
AcDbEntity
  8
1
  6
Continuous
 62
     7
100
AcDbLine
 10
196.0
 20
21.50000000000002
 30
0.0
 11
191.0
 21
22.30000000000001
 31
0.0
  0
LINE
  5
AB
330
47
100
AcDbEntity
  8
1
  6
DOT_CENTER
 62
     2
100
AcDbLine
 10
184.0
 20
23.50000000000002
 30
0.0
 11
197.0
 21
23.50000000000002
 31
0.0
  0
LINE
  5
AC
330
47
100
AcDbEntity
  8
1
  6
DOT_CENTER
 62
     2
100
AcDbLine
 10
187.0
 20
26.50000000000002
 30
0.0
 11
187.0
 21
20.50000000000002
 31
0.0
  0
LINE
  5
AD
330
47
100
AcDbEntity
  8
1
  6
Continuous
 62
     2
100
AcDbLine
 10
81.00000000000003
 20
27.00000000000002
 30
0.0
 11
81.00000000000003
 21
10.0
 31
0.0
  0
CIRCLE
  5
AE
330
47
100
AcDbEntity
  8
1
  6
Continuous
 62
     7
100
AcDbCircle
 10
103.5
 20
12.5
 30
0.0
 40
0.2999999999999972
  0
CIRCLE
  5
AF
330
47
100
AcDbEntity
  8
1
  6
Continuous
 62
     7
100
AcDbCircle
 10
109.5
 20
12.5
 30
0.0
 40
0.2999999999999972
  0
CIRCLE
  5
B0
330
47
100
AcDbEntity
  8
1
  6
Continuous
 62
     7
100
AcDbCircle
 10
120.5
 20
12.5
 30
0.0
 40
0.2999999999999972
  0
CIRCLE
  5
B1
330
47
100
AcDbEntity
  8
1
  6
Continuous
 62
     7
100
AcDbCircle
 10
126.5
 20
12.5
 30
0.0
 40
0.2999999999999972
  0
CIRCLE
  5
B2
330
47
100
AcDbEntity
  8
1
  6
Continuous
 62
     7
100
AcDbCircle
 10
137.5
 20
12.5
 30
0.0
 40
0.3000000000000114
  0
CIRCLE
  5
B3
330
47
100
AcDbEntity
  8
1
  6
Continuous
 62
     7
100
AcDbCircle
 10
143.5
 20
12.5
 30
0.0
 40
0.3000000000000114
  0
CIRCLE
  5
B4
330
47
100
AcDbEntity
  8
1
  6
Continuous
 62
     7
100
AcDbCircle
 10
160.5
 20
12.5
 30
0.0
 40
0.3000000000000114
  0
CIRCLE
  5
B5
330
47
100
AcDbEntity
  8
1
  6
Continuous
 62
     7
100
AcDbCircle
 10
154.5
 20
12.5
 30
0.0
 40
0.3000000000000114
  0
CIRCLE
  5
B6
330
47
100
AcDbEntity
  8
1
  6
Continuous
 62
     7
100
AcDbCircle
 10
187.0
 20
23.50000000000002
 30
0.0
 40
1.199999999999989
  0
CIRCLE
  5
B7
330
47
100
AcDbEntity
  8
1
  6
Continuous
 62
     7
100
AcDbCircle
 10
187.0
 20
23.50000000000002
 30
0.0
 40
2.0
  0
CIRCLE
  5
B8
330
47
100
AcDbEntity
  8
1
  6
DOT_CENTER
 62
     7
100
AcDbCircle
 10
89.50000000000003
 20
16.0
 30
0.0
 40
0.0999999999999943
  0
CIRCLE
  5
B9
330
47
100
AcDbEntity
  8
1
  6
DOT_CENTER
 62
     7
100
AcDbCircle
 10
89.50000000000003
 20
18.0
 30
0.0
 40
0.0999999999999943
  0
MTEXT
  5
BB
330
47
100
AcDbEntity
  8
1
 62
     7
100
AcDbMText
 10
188.5
 20
15.0
 30
0.0
 40
3.0
 41
0.0
 71
     5
 72
     1
  1
三栄水栓製作所
  7
CONVERTER_11
 73
     1
 44
1.0
  0
MTEXT
  5
BC
330
47
100
AcDbEntity
  8
1
 62
     7
100
AcDbMText
 10
171.5
 20
15.0
 30
0.0
 40
2.5
 41
0.0
 71
     5
 72
     1
  1
株式会社
  7
CONVERTER_11
 73
     1
 44
1.0
  0
MTEXT
  5
BD
330
47
100
AcDbEntity
  8
1
 62
     2
100
AcDbMText
 10
32.50000000000003
 20
282.0000000000003
 30
0.0
 40
5.0
 41
0.0
 71
     5
 72
     1
  1
図番
  7
CONVERTER_11
 73
     1
 44
0.45454545454545
  0
MTEXT
  5
BE
330
47
100
AcDbEntity
  8
1
 62
     2
100
AcDbMText
 10
29.00000000000003
 20
34.00000000000001
 30
0.0
 40
3.5
 41
0.0
 71
     5
 72
     1
  1
備考
  7
CONVERTER_11
 73
     1
 44
0.45454545454545
  0
MTEXT
  5
BF
330
47
100
AcDbEntity
  8
1
 62
     2
100
AcDbMText
 10
29.00000000000003
 20
22.75
 30
0.0
 40
3.5
 41
0.0
 71
     5
 72
     1
  1
品名
  7
CONVERTER_11
 73
     1
 44
0.72727272727273
  0
MTEXT
  5
C0
330
47
100
AcDbEntity
  8
1
 62
     2
100
AcDbMText
 10
29.00000000000003
 20
14.25
 30
0.0
 40
3.5
 41
0.0
 71
     5
 72
     1
  1
品番
  7
CONVERTER_11
 73
     1
 44
0.72727272727273
  0
MTEXT
  5
C1
330
47
100
AcDbEntity
  8
1
 62
     2
100
AcDbMText
 10
101.5
 20
25.00000000000002
 30
0.0
 40
3.0
 41
0.0
 71
     5
 72
     1
  1
承認
  7
CONVERTER_11
 73
     1
 44
0.59090909090909
  0
MTEXT
  5
C2
330
47
100
AcDbEntity
  8
1
 62
     2
100
AcDbMText
 10
175.0
 20
23.50000000000002
 30
0.0
 40
3.5
 41
0.0
 71
     5
 72
     1
  1
第三角法
  7
CONVERTER_11
 73
     1
 44
0.54545454545455
  0
MTEXT
  5
C3
330
47
100
AcDbEntity
  8
1
 62
     2
100
AcDbMText
 10
118.5
 20
25.00000000000002
 30
0.0
 40
3.0
 41
0.0
 71
     5
 72
     1
  1
検図
  7
CONVERTER_11
 73
     1
 44
0.59090909090909
  0
MTEXT
  5
C4
330
47
100
AcDbEntity
  8
1
 62
     2
100
AcDbMText
 10
152.5
 20
25.00000000000002
 30
0.0
 40
3.0
 41
0.0
 71
     5
 72
     1
  1
設計
  7
CONVERTER_11
 73
     1
 44
0.59090909090909
  0
MTEXT
  5
C5
330
47
100
AcDbEntity
  8
1
 62
     2
100
AcDbMText
 10
135.5
 20
25.00000000000002
 30
0.0
 40
3.0
 41
0.0
 71
     5
 72
     1
  1
製図
  7
CONVERTER_11
 73
     1
 44
0.59090909090909
  0
MTEXT
  5
C6
330
47
100
AcDbEntity
  8
1
 62
     2
100
AcDbMText
 10
89.50000000000003
 20
24.00000000000002
 30
0.0
 40
3.5
 41
0.0
 71
     5
 72
     1
  1
尺度
  7
CONVERTER_11
 73
     1
 44
0.54545454545455
  0
MTEXT
  5
C7
330
47
100
AcDbEntity
  8
1
 62
   250
100
AcDbMText
 10
25.00000000000003
 20
5.0
 30
0.0
 40
3.5
 41
0.0
 71
     4
 72
     1
  1
備考欄の文字列 原点位置=4
  7
CONVERTER_11
 73
     1
 44
0.54545454545455
  0
ENDBLK
  5
49
330
47
100
AcDbEntity
  8
0
100
AcDbBlockEnd
  0
BLOCK
  5
4B
330
4A
100
AcDbEntity
  8
0
100
AcDbBlockBegin
  2
91-1
 70
     0
 10
375.5999999999999
 20
100.0333771056857
 30
0.0
  3
91-1
  1

  0
LINE
  5
C8
330
4A
100
AcDbEntity
  8
1
  6
Continuous
 62
     7
100
AcDbLine
 10
58.16522954927339
 20
90.4745980945858
 30
0.0
 11
70.5352749915933
 21
90.4745980945858
 31
0.0
  0
ENDBLK
  5
4C
330
4A
100
AcDbEntity
  8
0
100
AcDbBlockEnd
  0
BLOCK
  5
4E
330
4D
100
AcDbEntity
  8
0
100
AcDbBlockBegin
  2
42-15
 70
     0
 10
460.5897683484694
 20
236.5046160437388
 30
0.0
  3
42-15
  1

  0
LINE
  5
C9
330
4D
100
AcDbEntity
  8
1
  6
Continuous
 62
     7
100
AcDbLine
 10
71.35025227043334
 20
145.7745980945858
 30
0.0
 11
57.35025227043334
 21
145.7745980945857
 31
0.0
  0
LINE
  5
CA
330
4D
100
AcDbEntity
  8
1
  6
Continuous
 62
     2
100
AcDbLine
 10
63.35025227043334
 20
145.016936196757
 30
0.0
 11
63.35025227043334
 21
143.9516971061465
 31
0.0
  0
LINE
  5
CB
330
4D
100
AcDbEntity
  8
1
  6
Continuous
 62
     2
100
AcDbLine
 10
62.35025227043334
 20
145.2602514064897
 30
0.0
 11
62.35025227043334
 21
143.6921608824316
 31
0.0
  0
LINE
  5
CC
330
4D
100
AcDbEntity
  8
1
  6
Continuous
 62
     2
100
AcDbLine
 10
61.35025227043334
 20
145.4711245882581
 30
0.0
 11
61.35025227043334
 21
143.3352985748235
 31
0.0
  0
LINE
  5
CD
330
4D
100
AcDbEntity
  8
1
  6
Continuous
 62
     2
100
AcDbLine
 10
60.35025227043334
 20
145.5846716861335
 30
0.0
 11
60.35025227043334
 21
143.1406464070373
 31
0.0
  0
LINE
  5
CE
330
4D
100
AcDbEntity
  8
1
  6
Continuous
 62
     2
100
AcDbLine
 10
59.35025227043334
 20
145.7745980945857
 30
0.0
 11
59.35025227043334
 21
142.9745980945858
 31
0.0
  0
LINE
  5
CF
330
4D
100
AcDbEntity
  8
1
  6
Continuous
 62
     2
100
AcDbLine
 10
58.35025227043334
 20
145.7745980945857
 30
0.0
 11
58.35025227043334
 21
142.9745980945858
 31
0.0
  0
LINE
  5
D0
330
4D
100
AcDbEntity
  8
1
  6
Continuous
 62
     7
100
AcDbLine
 10
57.35025227043334
 20
145.7745980945857
 30
0.0
 11
58.35025227043323
 21
146.043920293609
 31
0.0
  0
LINE
  5
D1
330
4D
100
AcDbEntity
  8
1
  6
Continuous
 62
     7
100
AcDbLine
 10
57.35025227043334
 20
142.9745980945858
 30
0.0
 11
57.35025227043334
 21
145.7745980945857
 31
0.0
  0
LINE
  5
D2
330
4D
100
AcDbEntity
  8
1
  6
Continuous
 62
     2
100
AcDbLine
 10
57.85025227043334
 20
145.7745980945857
 30
0.0
 11
57.85025227043334
 21
142.9745980945858
 31
0.0
  0
LINE
  5
D3
330
4D
100
AcDbEntity
  8
1
  6
Continuous
 62
     2
100
AcDbLine
 10
58.85025227043334
 20
145.7745980945857
 30
0.0
 11
58.85025227043334
 21
142.9745980945858
 31
0.0
  0
LINE
  5
D4
330
4D
100
AcDbEntity
  8
1
  6
Continuous
 62
     7
100
AcDbLine
 10
57.35025227043334
 20
142.9745980945858
 30
0.0
 11
71.35025227043334
 21
142.9745980945858
 31
0.0
  0
LINE
  5
D5
330
4D
100
AcDbEntity
  8
1
  6
Continuous
 62
     2
100
AcDbLine
 10
59.85025227043334
 20
145.6301858595635
 30
0.0
 11
59.85025227043334
 21
143.0801854207732
 31
0.0
  0
LINE
  5
D6
330
4D
100
AcDbEntity
  8
1
  6
Continuous
 62
     2
100
AcDbLine
 10
60.85025227043334
 20
145.4988164118506
 30
0.0
 11
60.85025227043334
 21
143.2290707948478
 31
0.0
  0
LINE
  5
D7
330
4D
100
AcDbEntity
  8
1
  6
Continuous
 62
     2
100
AcDbLine
 10
61.85025227043334
 20
145.3061412218717
 30
0.0
 11
61.85025227043334
 21
143.5881472852631
 31
0.0
  0
LINE
  5
D8
330
4D
100
AcDbEntity
  8
1
  6
Continuous
 62
     2
100
AcDbLine
 10
62.85025227043334
 20
145.0609182528075
 30
0.0
 11
62.85025227043334
 21
143.912191922955
 31
0.0
  0
LINE
  5
D9
330
4D
100
AcDbEntity
  8
1
  6
Continuous
 62
     7
100
AcDbLine
 10
71.35025227043334
 20
145.7745980945858
 30
0.0
 11
71.35025227043334
 21
142.9745980945858
 31
0.0
  0
LINE
  5
DA
330
4D
100
AcDbEntity
  8
1
  6
Continuous
 62
     7
100
AcDbLine
 10
71.35025227043334
 20
145.7745980945858
 30
0.0
 11
70.10025227043334
 21
146.1043638147895
 31
0.0
  0
LINE
  5
DB
330
4D
100
AcDbEntity
  8
1
  6
Continuous
 62
     7
100
AcDbLine
 10
153.3502522704333
 20
144.7745980945858
 30
0.0
 11
139.3502522704333
 21
144.7745980945857
 31
0.0
  0
LINE
  5
DC
330
4D
100
AcDbEntity
  8
1
  6
Continuous
 62
     2
100
AcDbLine
 10
145.3502522704333
 20
144.016936196757
 30
0.0
 11
145.3502522704333
 21
142.9516971061465
 31
0.0
  0
LINE
  5
DD
330
4D
100
AcDbEntity
  8
1
  6
Continuous
 62
     2
100
AcDbLine
 10
144.3502522704333
 20
144.2602514064897
 30
0.0
 11
144.3502522704333
 21
142.6921608824316
 31
0.0
  0
LINE
  5
DE
330
4D
100
AcDbEntity
  8
1
  6
Continuous
 62
     2
100
AcDbLine
 10
143.3502522704333
 20
144.4711245882581
 30
0.0
 11
143.3502522704333
 21
142.3352985748235
 31
0.0
  0
LINE
  5
DF
330
4D
100
AcDbEntity
  8
1
  6
Continuous
 62
     2
100
AcDbLine
 10
142.3502522704333
 20
144.5846716861335
 30
0.0
 11
142.3502522704333
 21
142.1406464070373
 31
0.0
  0
LINE
  5
E0
330
4D
100
AcDbEntity
  8
1
  6
Continuous
 62
     2
100
AcDbLine
 10
141.3502522704333
 20
144.7745980945857
 30
0.0
 11
141.3502522704333
 21
141.9745980945858
 31
0.0
  0
LINE
  5
E1
330
4D
100
AcDbEntity
  8
1
  6
Continuous
 62
     2
100
AcDbLine
 10
140.3502522704333
 20
144.7745980945857
 30
0.0
 11
140.3502522704333
 21
141.9745980945858
 31
0.0
  0
LINE
  5
E2
330
4D
100
AcDbEntity
  8
1
  6
Continuous
 62
     7
100
AcDbLine
 10
139.3502522704333
 20
144.7745980945857
 30
0.0
 11
140.3502522704332
 21
145.043920293609
 31
0.0
  0
LINE
  5
E3
330
4D
100
AcDbEntity
  8
1
  6
Continuous
 62
     7
100
AcDbLine
 10
139.3502522704333
 20
141.9745980945858
 30
0.0
 11
139.3502522704333
 21
144.7745980945857
 31
0.0
  0
LINE
  5
E4
330
4D
100
AcDbEntity
  8
1
  6
Continuous
 62
     2
100
AcDbLine
 10
139.8502522704333
 20
144.7745980945857
 30
0.0
 11
139.8502522704333
 21
141.9745980945858
 31
0.0
  0
LINE
  5
E5
330
4D
100
AcDbEntity
  8
1
  6
Continuous
 62
     2
100
AcDbLine
 10
140.8502522704333
 20
144.7745980945857
 30
0.0
 11
140.8502522704333
 21
141.9745980945858
 31
0.0
  0
LINE
  5
E6
330
4D
100
AcDbEntity
  8
1
  6
Continuous
 62
     7
100
AcDbLine
 10
139.3502522704333
 20
141.9745980945858
 30
0.0
 11
153.3502522704333
 21
141.9745980945858
 31
0.0
  0
LINE
  5
E7
330
4D
100
AcDbEntity
  8
1
  6
Continuous
 62
     2
100
AcDbLine
 10
141.8502522704333
 20
144.6301858595635
 30
0.0
 11
141.8502522704333
 21
142.0801854207732
 31
0.0
  0
LINE
  5
E8
330
4D
100
AcDbEntity
  8
1
  6
Continuous
 62
     2
100
AcDbLine
 10
142.8502522704333
 20
144.4988164118506
 30
0.0
 11
142.8502522704333
 21
142.2290707948478
 31
0.0
  0
LINE
  5
E9
330
4D
100
AcDbEntity
  8
1
  6
Continuous
 62
     2
100
AcDbLine
 10
143.8502522704333
 20
144.3061412218717
 30
0.0
 11
143.8502522704333
 21
142.5881472852631
 31
0.0
  0
LINE
  5
EA
330
4D
100
AcDbEntity
  8
1
  6
Continuous
 62
     2
100
AcDbLine
 10
144.8502522704333
 20
144.0609182528075
 30
0.0
 11
144.8502522704333
 21
142.912191922955
 31
0.0
  0
LINE
  5
EB
330
4D
100
AcDbEntity
  8
1
  6
Continuous
 62
     7
100
AcDbLine
 10
153.3502522704333
 20
144.7745980945858
 30
0.0
 11
153.3502522704333
 21
141.9745980945858
 31
0.0
  0
LINE
  5
EC
330
4D
100
AcDbEntity
  8
1
  6
Continuous
 62
     7
100
AcDbLine
 10
153.3502522704333
 20
144.7745980945858
 30
0.0
 11
152.1002522704333
 21
145.1043638147895
 31
0.0
  0
ARC
  5
ED
330
4D
100
AcDbEntity
  8
1
  6
Continuous
 62
     7
100
AcDbCircle
 10
64.35025227043334
 20
121.7745980945858
 30
0.0
 40
25.0
100
AcDbArc
 50
90.0
 51
103.2970717472091
  0
ARC
  5
EE
330
4D
100
AcDbEntity
  8
1
  6
Continuous
 62
     7
100
AcDbCircle
 10
64.35025227043334
 20
121.7745980945858
 30
0.0
 40
24.99999999999999
100
AcDbArc
 50
103.2970717472091
 51
103.8865403626292
  0
ARC
  5
EF
330
4D
100
AcDbEntity
  8
1
  6
Continuous
 62
     7
100
AcDbCircle
 10
64.35025227043334
 20
121.7745980945858
 30
0.0
 40
24.99999999999999
100
AcDbArc
 50
76.70292825279094
 51
90.0
  0
ARC
  5
F0
330
4D
100
AcDbEntity
  8
1
  6
Continuous
 62
     7
100
AcDbCircle
 10
146.3502522704333
 20
120.7745980945858
 30
0.0
 40
25.0
100
AcDbArc
 50
90.0
 51
103.2970717472091
  0
ARC
  5
F1
330
4D
100
AcDbEntity
  8
1
  6
Continuous
 62
     7
100
AcDbCircle
 10
146.3502522704333
 20
120.7745980945858
 30
0.0
 40
24.99999999999999
100
AcDbArc
 50
103.2970717472091
 51
103.8865403626292
  0
ARC
  5
F2
330
4D
100
AcDbEntity
  8
1
  6
Continuous
 62
     7
100
AcDbCircle
 10
146.3502522704333
 20
120.7745980945858
 30
0.0
 40
24.99999999999999
100
AcDbArc
 50
76.70292825279094
 51
90.0
  0
CIRCLE
  5
F3
330
4D
100
AcDbEntity
  8
1
  6
Continuous
 62
     7
100
AcDbCircle
 10
64.35025227043315
 20
198.9136535609073
 30
0.0
 40
7.0
  0
ENDBLK
  5
4F
330
4D
100
AcDbEntity
  8
0
100
AcDbBlockEnd
  0
BLOCK
  5
51
330
50
100
AcDbEntity
  8
0
100
AcDbBlockBegin
  2
21-1C
 70
     0
 10
112.1680324394957
 20
77.7605234460841
 30
0.0
  3
21-1C
  1

  0
LINE
  5
F4
330
50
100
AcDbEntity
  8
1
  6
Continuous
 62
     7
100
AcDbLine
 10
58.55469731269852
 20
172.360739290292
 30
0.0
 11
54.90328810122824
 21
185.9879839867248
 31
0.0
  0
LINE
  5
F5
330
50
100
AcDbEntity
  8
1
  6
Continuous
 62
     7
100
AcDbLine
 10
38.45697648870282
 20
207.1710128737878
 30
0.0
 11
48.43281197366514
 21
197.1951773888255
 31
0.0
  0
LINE
  5
F6
330
50
100
AcDbEntity
  8
1
  6
Continuous
 62
     7
100
AcDbLine
 10
44.25253144643725
 20
217.2092085186414
 30
0.0
 11
57.87977614287004
 21
213.5577993071709
 31
0.0
  0
LINE
  5
F7
330
50
100
AcDbEntity
  8
1
  6
Continuous
 62
     7
100
AcDbLine
 10
84.44797309442885
 20
217.2092085186414
 30
0.0
 11
70.82072839799605
 21
213.5577993071709
 31
0.0
  0
LINE
  5
F8
330
50
100
AcDbEntity
  8
1
  6
Continuous
 62
     7
100
AcDbLine
 10
90.24352805216324
 20
207.1710128737878
 30
0.0
 11
80.26769256720092
 21
197.1951773888254
 31
0.0
  0
LINE
  5
F9
330
50
100
AcDbEntity
  8
1
  6
Continuous
 62
     7
100
AcDbLine
 10
70.14580722816754
 20
172.360739290292
 30
0.0
 11
73.79721643963782
 21
185.9879839867247
 31
0.0
  0
LINE
  5
FA
330
50
100
AcDbEntity
  8
1
  6
Continuous
 62
     7
100
AcDbLine
 10
37.19961717582234
 20
131.4745980945857
 30
0.0
 11
91.50088736504412
 21
131.4745980945857
 31
0.0
  0
LINE
  5
FB
330
50
100
AcDbEntity
  8
1
  6
Continuous
 62
     7
100
AcDbLine
 10
36.69961717582234
 20
135.3376902217238
 30
0.0
 11
36.69961717582234
 21
131.9745980945857
 31
0.0
  0
LINE
  5
FC
330
50
100
AcDbEntity
  8
1
  6
Continuous
 62
     7
100
AcDbLine
 10
92.00088736504412
 20
131.9745980945857
 30
0.0
 11
92.00088736504412
 21
135.3376902217238
 31
0.0
  0
LINE
  5
FD
330
50
100
AcDbEntity
  8
1
  6
Continuous
 62
     7
100
AcDbLine
 10
160.1425436739239
 20
130.9745980945858
 30
0.0
 11
164.275026558359
 21
130.9745980945858
 31
0.0
  0
LINE
  5
FE
330
50
100
AcDbEntity
  8
1
  6
Continuous
 62
     7
100
AcDbLine
 10
115.8822105386654
 20
134.7596778499364
 30
0.0
 11
115.4303024396729
 21
131.5441846450659
 31
0.0
  0
LINE
  5
FF
330
50
100
AcDbEntity
  8
1
  6
Continuous
 62
     7
100
AcDbLine
 10
142.3502522704333
 20
141.9745980945858
 30
0.0
 11
150.3502522704333
 21
141.9745980945858
 31
0.0
  0
LINE
  5
100
330
50
100
AcDbEntity
  8
1
  6
PHANTOM
 62
     4
100
AcDbLine
 10
146.3502522704333
 20
144.9745980945858
 30
0.0
 11
146.3502522704333
 21
127.9745980945858
 31
0.0
  0
LINE
  5
101
330
50
100
AcDbEntity
  8
1
  6
Continuous
 62
     7
100
AcDbLine
 10
164.1529381247844
 20
135.9336747003294
 30
0.0
 11
164.7701556187921
 21
131.5442200272984
 31
0.0
  0
LINE
  5
102
330
50
100
AcDbEntity
  8
1
  6
Continuous
 62
     2
100
AcDbLine
 10
115.4303024396729
 20
131.5441846450659
 30
0.0
 11
115.4303024396729
 21
131.5534434797767
 31
0.0
  0
LINE
  5
103
330
50
100
AcDbEntity
  8
1
  6
Continuous
 62
     7
100
AcDbLine
 10
115.9254364740438
 20
130.9745980945858
 30
0.0
 11
146.3502522704333
 21
130.9745980945858
 31
0.0
  0
LINE
  5
104
330
50
100
AcDbEntity
  8
1
  6
Continuous
 62
     7
100
AcDbLine
 10
146.3502522704333
 20
130.9745980945858
 30
0.0
 11
158.5771870428321
 21
130.9745980945858
 31
0.0
  0
LINE
  5
105
330
50
100
AcDbEntity
  8
1
  6
Continuous
 62
     7
100
AcDbLine
 10
160.1425436739239
 20
130.9745980945858
 30
0.0
 11
158.5771870428321
 21
130.9745980945858
 31
0.0
  0
ARC
  5
106
330
50
100
AcDbEntity
  8
1
  6
Continuous
 62
     7
100
AcDbCircle
 10
64.35025227043295
 20
173.913653560907
 30
0.0
 40
5.99999999999998
100
AcDbArc
 50
194.9999999999987
 51
345.0000000000017
  0
ARC
  5
107
330
50
100
AcDbEntity
  8
1
  6
Continuous
 62
     7
100
AcDbCircle
 10
42.69961717582214
 20
211.413653560907
 30
0.0
 40
5.999999999999983
100
AcDbArc
 50
75.00000000000009
 51
224.9999999999992
  0
ARC
  5
108
330
50
100
AcDbEntity
  8
1
  6
Continuous
 62
     7
100
AcDbCircle
 10
86.00088736504392
 20
211.413653560907
 30
0.0
 40
5.999999999999968
100
AcDbArc
 50
315.0000000000007
 51
104.9999999999996
  0
ARC
  5
109
330
50
100
AcDbEntity
  8
1
  6
Continuous
 62
     7
100
AcDbCircle
 10
64.35025227043334
 20
-7.02540190541423
 30
0.0
 40
149.9999999999999
100
AcDbArc
 50
81.3526952746612
 51
98.6473047253389
  0
ARC
  5
10A
330
50
100
AcDbEntity
  8
1
  6
Continuous
 62
     7
100
AcDbCircle
 10
146.71444793568
 20
67.0627770858866
 30
0.0
 40
74.99999999999999
100
AcDbArc
 50
80.4085075173349
 51
87.22136103403739
  0
ARC
  5
10B
330
50
100
AcDbEntity
  8
1
  6
Continuous
 62
     7
100
AcDbCircle
 10
146.3502522704333
 20
-8.02540190541417
 30
0.0
 40
150.0533238552216
100
AcDbArc
 50
98.63404412973965
 51
99.80290179376779
  0
ARC
  5
10C
330
50
100
AcDbEntity
  8
1
  6
Continuous
 62
     7
100
AcDbCircle
 10
146.3502522704333
 20
-8.02540190541417
 30
0.0
 40
150.0533238552215
100
AcDbArc
 50
91.52752544221293
 51
98.63404412973965
  0
ARC
  5
10D
330
50
100
AcDbEntity
  8
1
  6
Continuous
 62
     7
100
AcDbCircle
 10
30.75514244400145
 20
179.5175078591618
 30
0.0
 40
25.00000000000007
100
AcDbArc
 50
14.99999999999988
 51
45.0
  0
ARC
  5
10E
330
50
100
AcDbEntity
  8
1
  6
Continuous
 62
     7
100
AcDbCircle
 10
97.94536209686464
 20
179.5175078591617
 30
0.0
 40
25.00000000000004
100
AcDbArc
 50
135.0
 51
165.0000000000001
  0
ARC
  5
10F
330
50
100
AcDbEntity
  8
1
  6
Continuous
 62
     7
100
AcDbCircle
 10
64.35025227043295
 20
237.7059449643976
 30
0.0
 40
24.99999999999994
100
AcDbArc
 50
255.0000000000002
 51
285.0000000000002
  0
ARC
  5
110
330
50
100
AcDbEntity
  8
1
  6
Continuous
 62
     7
100
AcDbCircle
 10
37.19961717582234
 20
131.9745980945857
 30
0.0
 40
0.5
100
AcDbArc
 50
180.0
 51
270.0
  0
ARC
  5
111
330
50
100
AcDbEntity
  8
1
  6
Continuous
 62
     7
100
AcDbCircle
 10
42.69961717582234
 20
135.3376902217238
 30
0.0
 40
5.999999999999981
100
AcDbArc
 50
98.64730472533886
 51
180.0
  0
ARC
  5
112
330
50
100
AcDbEntity
  8
1
  6
Continuous
 62
     7
100
AcDbCircle
 10
86.00088736504412
 20
135.3376902217238
 30
0.0
 40
6.0
100
AcDbArc
 50
0.0
 51
81.3526952746608
  0
ARC
  5
113
330
50
100
AcDbEntity
  8
1
  6
Continuous
 62
     7
100
AcDbCircle
 10
91.50088736504412
 20
131.9745980945857
 30
0.0
 40
0.5
100
AcDbArc
 50
270.0
 51
0.0
  0
ARC
  5
114
330
50
100
AcDbEntity
  8
1
  6
Continuous
 62
     7
100
AcDbCircle
 10
121.8238189511147
 20
133.9246392441762
 30
0.0
 40
5.999999999999892
100
AcDbArc
 50
99.80290179376716
 51
172.0000000000018
  0
ARC
  5
115
330
50
100
AcDbEntity
  8
1
  6
Continuous
 62
     7
100
AcDbCircle
 10
158.2113893995874
 20
135.098211507778
 30
0.0
 40
5.999999999999866
100
AcDbArc
 50
8.00409437170118
 51
80.40850751733568
  0
ARC
  5
116
330
50
100
AcDbEntity
  8
1
  6
Continuous
 62
     7
100
AcDbCircle
 10
115.9254364740438
 20
131.4745980945858
 30
0.0
 40
0.5000000000001328
100
AcDbArc
 50
171.9999999999915
 51
270.0
  0
ARC
  5
117
330
50
100
AcDbEntity
  8
1
  6
Continuous
 62
     7
100
AcDbCircle
 10
164.275026558359
 20
131.4745980945858
 30
0.0
 40
0.5
100
AcDbArc
 50
270.0
 51
8.00409437169984
  0
ENDBLK
  5
52
330
50
100
AcDbEntity
  8
0
100
AcDbBlockEnd
  0
BLOCK
  5
54
330
53
100
AcDbEntity
  8
0
100
AcDbBlockBegin
  2
36-54
 70
     0
 10
156.8502522704333
 20
91.9745980945858
 30
0.0
  3
36-54
  1

  0
LINE
  5
118
330
53
100
AcDbEntity
  8
1
  6
Continuous
 62
     7
100
AcDbLine
 10
141.6002522704333
 20
130.9745980945858
 30
0.0
 11
141.6002522704333
 21
127.905416215525
 31
0.0
  0
LINE
  5
119
330
53
100
AcDbEntity
  8
1
  6
Continuous
 62
     7
100
AcDbLine
 10
151.1002522704333
 20
130.9745980945858
 30
0.0
 11
151.1002522704333
 21
127.905416215525
 31
0.0
  0
LINE
  5
11A
330
53
100
AcDbEntity
  8
1
  6
Continuous
 62
     7
100
AcDbLine
 10
58.87230680159857
 20
91.9745980945858
 30
0.0
 11
69.82819773926812
 21
91.9745980945858
 31
0.0
  0
LINE
  5
11B
330
53
100
AcDbEntity
  8
1
  6
Continuous
 62
     7
100
AcDbLine
 10
69.10025227043334
 20
131.4745980945858
 30
0.0
 11
69.10025227043334
 21
127.905416215525
 31
0.0
  0
LINE
  5
11C
330
53
100
AcDbEntity
  8
1
  6
Continuous
 62
     7
100
AcDbLine
 10
59.60025227043334
 20
131.4745980945858
 30
0.0
 11
59.60025227043334
 21
127.905416215525
 31
0.0
  0
ENDBLK
  5
55
330
53
100
AcDbEntity
  8
0
100
AcDbBlockEnd
  0
BLOCK
  5
57
330
56
100
AcDbEntity
  8
0
100
AcDbBlockBegin
  2
37-1-13
 70
     0
 10
137.3304097316114
 20
111.3153832699444
 30
0.0
  3
37-1-13
  1

  0
LINE
  5
11D
330
56
100
AcDbEntity
  8
1
  6
Continuous
 62
     7
100
AcDbLine
 10
51.35025227043334
 20
120.9761304297964
 30
0.0
 11
51.35025227043334
 21
113.905416215525
 31
0.0
  0
LINE
  5
11E
330
56
100
AcDbEntity
  8
1
  6
Continuous
 62
     7
100
AcDbLine
 10
70.35025227043334
 20
127.905416215525
 30
0.0
 11
58.35025227043334
 21
127.905416215525
 31
0.0
  0
LINE
  5
11F
330
56
100
AcDbEntity
  8
1
  6
Continuous
 62
     7
100
AcDbLine
 10
64.35025227043334
 20
113.905416215525
 30
0.0
 11
51.35025227043334
 21
113.905416215525
 31
0.0
  0
LINE
  5
120
330
56
100
AcDbEntity
  8
1
  6
Continuous
 62
     7
100
AcDbLine
 10
77.35025227043334
 20
113.905416215525
 30
0.0
 11
64.35025227043334
 21
113.905416215525
 31
0.0
  0
LINE
  5
121
330
56
100
AcDbEntity
  8
1
  6
Continuous
 62
     7
100
AcDbLine
 10
77.35025227043334
 20
120.9761304297964
 30
0.0
 11
77.35025227043334
 21
113.905416215525
 31
0.0
  0
LINE
  5
122
330
56
100
AcDbEntity
  8
1
  6
Continuous
 62
     7
100
AcDbLine
 10
146.9723780007642
 20
113.905416215525
 30
0.0
 11
133.2795380561619
 21
113.905416215525
 31
0.0
  0
LINE
  5
123
330
56
100
AcDbEntity
  8
1
  6
Continuous
 62
     7
100
AcDbLine
 10
159.4209664847049
 20
113.905416215525
 30
0.0
 11
145.728126540102
 21
113.905416215525
 31
0.0
  0
LINE
  5
124
330
56
100
AcDbEntity
  8
1
  6
Continuous
 62
     7
100
AcDbLine
 10
152.3502522704333
 20
127.905416215525
 30
0.0
 11
146.3502522704333
 21
127.905416215525
 31
0.0
  0
LINE
  5
125
330
56
100
AcDbEntity
  8
1
  6
Continuous
 62
     7
100
AcDbLine
 10
146.3502522704333
 20
127.905416215525
 30
0.0
 11
140.3502522704333
 21
127.905416215525
 31
0.0
  0
ARC
  5
126
330
56
100
AcDbEntity
  8
1
  6
Continuous
 62
     7
100
AcDbCircle
 10
73.85025227043334
 20
117.405416215525
 30
0.0
 40
4.999999999999986
100
AcDbArc
 50
45.57299599919413
 51
53.13010235415771
  0
ARC
  5
127
330
56
100
AcDbEntity
  8
1
  6
Continuous
 62
     7
100
AcDbCircle
 10
90.25670747554824
 20
141.31187142064
 30
0.0
 40
24.00000000000002
100
AcDbArc
 50
213.9591925000977
 51
236.0408074999023
  0
ARC
  5
128
330
56
100
AcDbEntity
  8
1
  6
Continuous
 62
     7
100
AcDbCircle
 10
136.8502522704333
 20
117.405416215525
 30
0.0
 40
4.999999999999932
100
AcDbArc
 50
126.869897645843
 51
224.427004000806
  0
ARC
  5
129
330
56
100
AcDbEntity
  8
1
  6
Continuous
 62
     7
100
AcDbCircle
 10
155.8502522704333
 20
117.405416215525
 30
0.0
 40
5.000000000000138
100
AcDbArc
 50
315.5729959991959
 51
53.13010235415676
  0
ARC
  5
12A
330
56
100
AcDbEntity
  8
1
  6
Continuous
 62
     7
100
AcDbCircle
 10
172.2567074755482
 20
141.3118714206396
 30
0.0
 40
23.99999999999982
100
AcDbArc
 50
213.9591925000968
 51
236.0408074999019
  0
ARC
  5
12B
330
56
100
AcDbEntity
  8
1
  6
Continuous
 62
     7
100
AcDbCircle
 10
120.4437970653185
 20
141.3118714206399
 30
0.0
 40
23.99999999999998
100
AcDbArc
 50
303.9591925000975
 51
326.0408074999023
  0
ARC
  5
12C
330
56
100
AcDbEntity
  8
1
  6
Continuous
 62
     7
100
AcDbCircle
 10
54.85025227043334
 20
117.405416215525
 30
0.0
 40
5.000000000000024
100
AcDbArc
 50
126.8698976458425
 51
134.4270040008059
  0
ARC
  5
12D
330
56
100
AcDbEntity
  8
1
  6
Continuous
 62
     7
100
AcDbCircle
 10
38.44379706531845
 20
141.31187142064
 30
0.0
 40
24.00000000000001
100
AcDbArc
 50
303.9591925000976
 51
326.0408074999023
  0
SPLINE
  5
12E
330
56
100
AcDbEntity
  8
1
  6
Continuous
 62
     7
100
AcDbSpline
210
0.0
220
0.0
230
1.0
 70
    11
 71
     3
 72
    79
 73
    75
 74
    73
 42
0.000000001
 43
0.0000000001
 44
0.00000001
 40
0.0
 40
0.0
 40
0.0
 40
0.0
 40
0.2803981055170962
 40
0.5607977780794611
 40
0.8427454767815387
 40
1.124697465942923
 40
1.409536444711989
 40
1.694381494092215
 40
1.983071303433825
 40
2.27176783680918
 40
2.564776135645515
 40
2.857790848031841
 40
3.155055692063515
 40
3.452325972452595
 40
3.75328482090956
 40
4.054247736388437
 40
4.357919800455379
 40
4.661594361771559
 40
4.966700742338164
 40
5.271807963175656
 40
5.576915184002984
 40
5.882021564538663
 40
6.185696125802701
 40
6.489368189795974
 40
6.790331105179831
 40
7.091289953518729
 40
7.388560233767554
 40
7.685825077633807
 40
7.978839789830574
 40
8.271848088449197
 40
8.560544621579893
 40
8.849234430642744
 40
9.134079479707532
 40
9.418918458106454
 40
9.700870446812928
 40
9.982818144856148
 40
10.26321781600891
 40
10.5436159303525
 40
10.82401404469604
 40
11.10441371584885
 40
11.38636141389199
 40
11.66831340259844
 40
11.95315238099746
 40
12.23799743006225
 40
12.52668723912509
 40
12.8153837722558
 40
13.10839207087434
 40
13.40140678307105
 40
13.69867162693735
 40
13.99594190718623
 40
14.2969007555251
 40
14.59786367090894
 40
14.90153573490223
 40
15.20521029616628
 40
15.51031667670192
 40
15.81542389752929
 40
16.12053111836681
 40
16.42563749893338
 40
16.72931206024959
 40
17.03298412431653
 40
17.33394703979539
 40
17.63490588825233
 40
17.93217616864145
 40
18.22944101267318
 40
18.52245572505944
 40
18.81546402389571
 40
19.10416055727102
 40
19.39285036661268
 40
19.67769541599298
 40
19.96253439476207
 40
20.24448638392338
 40
20.52643408262542
 40
20.80683375518785
 40
21.08723186070489
 40
21.08723186070489
 40
21.08723186070489
 40
21.08723186070489
 10
157.608582519631
 20
120.905416215525
 30
0.0
 10
157.7020830596731
 20
120.9028348297189
 30
0.0
 10
157.8890846624753
 20
120.8976720490144
 30
0.0
 10
158.1675690736683
 20
120.856199700451
 30
0.0
 10
158.4415112708209
 20
120.7902995406093
 30
0.0
 10
158.7094394365897
 20
120.6980674316519
 30
0.0
 10
158.9684852244602
 20
120.5809852425229
 30
0.0
 10
159.2176445188772
 20
120.4395089611238
 30
0.0
 10
159.4539545392913
 20
120.2752266152876
 30
0.0
 10
159.6767295334292
 20
120.088766467209
 30
0.0
 10
159.8831855659351
 20
119.8823419923958
 30
0.0
 10
160.0727983097751
 20
119.6566242980724
 30
0.0
 10
160.2431974858935
 20
119.4143334998274
 30
0.0
 10
160.3939102936894
 20
119.1562760070836
 30
0.0
 10
160.5231334303985
 20
118.8854488036909
 30
0.0
 10
160.6304131037636
 20
118.6029319502777
 30
0.0
 10
160.714567607497
 20
118.3117439797626
 30
0.0
 10
160.7752108815047
 20
118.0133652069214
 30
0.0
 10
160.8117446439513
 20
117.7106042351104
 30
0.0
 10
160.823963674863
 20
117.4054162249278
 30
0.0
 10
160.8117446443014
 20
117.1002282147431
 30
0.0
 10
160.7752108822058
 20
116.7974672429165
 30
0.0
 10
160.7145676085514
 20
116.4990884700737
 30
0.0
 10
160.6304131051742
 20
116.2079004994698
 30
0.0
 10
160.5231334321697
 20
115.9253836462538
 30
0.0
 10
160.3939102958262
 20
115.6545564419577
 30
0.0
 10
160.2431974884027
 20
115.396498952331
 30
0.0
 10
160.0727983126637
 20
115.1542081422746
 30
0.0
 10
159.8831855692126
 20
114.9284904911127
 30
0.0
 10
159.6767295371059
 20
114.7220658561187
 30
0.0
 10
159.4539545433821
 20
114.5356062969706
 30
0.0
 10
159.2176445234003
 20
114.3713217692848
 30
0.0
 10
158.9684852294459
 20
114.2298535262367
 30
0.0
 10
158.7094394420854
 20
114.1127415226529
 30
0.0
 10
158.4415112769517
 20
114.0206196041941
 30
0.0
 10
158.1675690807518
 20
113.9543098386365
 30
0.0
 10
157.8890846677153
 20
113.9143581735467
 30
0.0
 10
157.608582519631
 20
113.9009452639258
 30
0.0
 10
157.3280803715468
 20
113.9143581735467
 30
0.0
 10
157.0495959585102
 20
113.9543098386365
 30
0.0
 10
156.7756537623105
 20
114.0206196041941
 30
0.0
 10
156.5077255971766
 20
114.112741522653
 30
0.0
 10
156.2486798098162
 20
114.2298535262366
 30
0.0
 10
155.9995205158618
 20
114.3713217692848
 30
0.0
 10
155.7632104958799
 20
114.5356062969705
 30
0.0
 10
155.5404355021561
 20
114.7220658561186
 30
0.0
 10
155.3339794700496
 20
114.9284904911128
 30
0.0
 10
155.1443667265985
 20
115.1542081422747
 30
0.0
 10
154.9739675508594
 20
115.396498952331
 30
0.0
 10
154.8232547434359
 20
115.6545564419576
 30
0.0
 10
154.6940316070923
 20
115.9253836462538
 30
0.0
 10
154.5867519340879
 20
116.2079004994698
 30
0.0
 10
154.5025974307108
 20
116.4990884700737
 30
0.0
 10
154.4419541570562
 20
116.7974672429165
 30
0.0
 10
154.4054203949606
 20
117.1002282147431
 30
0.0
 10
154.3932013643991
 20
117.4054162249279
 30
0.0
 10
154.4054203953107
 20
117.7106042351104
 30
0.0
 10
154.4419541577573
 20
118.0133652069214
 30
0.0
 10
154.5025974317652
 20
118.3117439797626
 30
0.0
 10
154.5867519354985
 20
118.6029319502777
 30
0.0
 10
154.6940316088636
 20
118.8854488036909
 30
0.0
 10
154.8232547455727
 20
119.1562760070837
 30
0.0
 10
154.9739675533686
 20
119.4143334998274
 30
0.0
 10
155.1443667294871
 20
119.6566242980722
 30
0.0
 10
155.333979473327
 20
119.8823419923959
 30
0.0
 10
155.5404355058328
 20
120.088766467209
 30
0.0
 10
155.7632104999706
 20
120.2752266152877
 30
0.0
 10
155.9995205203848
 20
120.4395089611238
 30
0.0
 10
156.2486798148019
 20
120.5809852425228
 30
0.0
 10
156.5077256026723
 20
120.6980674316519
 30
0.0
 10
156.7756537684411
 20
120.7902995406093
 30
0.0
 10
157.0495959655937
 20
120.856199700451
 30
0.0
 10
157.3280803767868
 20
120.8976720490143
 30
0.0
 10
157.5150819795889
 20
120.9028348297189
 30
0.0
 10
157.608582519631
 20
120.905416215525
 30
0.0
 11
157.608582519631
 21
120.905416215525
 31
0.0
 11
157.8886625185007
 21
120.8920634302269
 31
0.0
 11
158.1662203268793
 21
120.8522433510678
 31
0.0
 11
158.4402717312582
 21
120.7859837683438
 31
0.0
 11
158.7069145915326
 21
120.6943403882756
 31
0.0
 11
158.9665030160686
 21
120.5770923879904
 31
0.0
 11
159.2142365919641
 21
120.4365051287704
 31
0.0
 11
159.4513370765731
 21
120.2718079334184
 31
0.0
 11
159.672771605908
 21
120.0865717664414
 31
0.0
 11
159.8800549952177
 21
119.8794788895261
 31
0.0
 11
160.0685872789953
 21
119.6551728494277
 31
0.0
 11
160.2396758255689
 21
119.412078018727
 31
0.0
 11
160.3896569522918
 21
119.155416215525
 31
0.0
 11
160.5193337321662
 21
118.8838279955538
 31
0.0
 11
160.6262250862436
 21
118.6024867171647
 31
0.0
 11
160.7105911475739
 21
118.3107692336193
 31
0.0
 11
160.7711036778096
 21
118.0131848373591
 31
0.0
 11
160.8076826263726
 21
117.7102791028249
 31
0.0
 11
160.8198906642973
 21
117.405416215525
 31
0.0
 11
160.8076826263726
 21
117.1005533282249
 31
0.0
 11
160.7711036778096
 21
116.7976475936905
 31
0.0
 11
160.7105911475739
 21
116.5000631974305
 31
0.0
 11
160.6262250862436
 21
116.2083457138852
 31
0.0
 11
160.5193337321662
 21
115.9270044354962
 31
0.0
 11
160.3896569522918
 21
115.655416215525
 31
0.0
 11
160.2396758255689
 21
115.3987544123228
 31
0.0
 11
160.0685872789953
 21
115.155659581622
 31
0.0
 11
159.8800549952177
 21
114.9313535415237
 31
0.0
 11
159.672771605908
 21
114.7242606646085
 31
0.0
 11
159.4513370765731
 21
114.5390244976313
 31
0.0
 11
159.2142365919641
 21
114.3743273022792
 31
0.0
 11
158.9665030160686
 21
114.2337400430592
 31
0.0
 11
158.7069145915326
 21
114.1164920427741
 31
0.0
 11
158.4402717312582
 21
114.0248486627061
 31
0.0
 11
158.1662203268793
 21
113.9585890799822
 31
0.0
 11
157.8886625185007
 21
113.9187690008231
 31
0.0
 11
157.608582519631
 21
113.905416215525
 31
0.0
 11
157.3285025207614
 21
113.9187690008231
 31
0.0
 11
157.0509447123827
 21
113.9585890799822
 31
0.0
 11
156.7768933080039
 21
114.0248486627061
 31
0.0
 11
156.5102504477295
 21
114.1164920427741
 31
0.0
 11
156.2506620231934
 21
114.2337400430592
 31
0.0
 11
156.0029284472979
 21
114.3743273022792
 31
0.0
 11
155.7658279626889
 21
114.5390244976313
 31
0.0
 11
155.544393433354
 21
114.7242606646085
 31
0.0
 11
155.3371100440444
 21
114.9313535415237
 31
0.0
 11
155.1485777602669
 21
115.155659581622
 31
0.0
 11
154.9774892136932
 21
115.3987544123228
 31
0.0
 11
154.8275080869702
 21
115.655416215525
 31
0.0
 11
154.6978313070959
 21
115.9270044354961
 31
0.0
 11
154.5909399530185
 21
116.2083457138852
 31
0.0
 11
154.5065738916882
 21
116.5000631974305
 31
0.0
 11
154.4460613614524
 21
116.7976475936905
 31
0.0
 11
154.4094824128894
 21
117.1005533282249
 31
0.0
 11
154.3972743749647
 21
117.405416215525
 31
0.0
 11
154.4094824128894
 21
117.7102791028249
 31
0.0
 11
154.4460613614524
 21
118.0131848373591
 31
0.0
 11
154.5065738916882
 21
118.3107692336193
 31
0.0
 11
154.5909399530185
 21
118.6024867171647
 31
0.0
 11
154.6978313070958
 21
118.8838279955538
 31
0.0
 11
154.8275080869702
 21
119.155416215525
 31
0.0
 11
154.9774892136933
 21
119.412078018727
 31
0.0
 11
155.1485777602669
 21
119.6551728494277
 31
0.0
 11
155.3371100440444
 21
119.8794788895261
 31
0.0
 11
155.544393433354
 21
120.0865717664414
 31
0.0
 11
155.7658279626888
 21
120.2718079334184
 31
0.0
 11
156.0029284472979
 21
120.4365051287704
 31
0.0
 11
156.2506620231935
 21
120.5770923879904
 31
0.0
 11
156.5102504477295
 21
120.6943403882756
 31
0.0
 11
156.7768933080038
 21
120.7859837683438
 31
0.0
 11
157.0509447123827
 21
120.8522433510678
 31
0.0
 11
157.3285025207614
 21
120.8920634302269
 31
0.0
 11
157.608582519631
 21
120.905416215525
 31
0.0
  0
SPLINE
  5
12F
330
56
100
AcDbEntity
  8
1
  6
Continuous
 62
     7
100
AcDbSpline
210
0.0
220
0.0
230
1.0
 70
    11
 71
     3
 72
    79
 73
    75
 74
    73
 42
0.000000001
 43
0.0000000001
 44
0.00000001
 40
0.0
 40
0.0
 40
0.0
 40
0.0
 40
0.2803981055170962
 40
0.5607977780795456
 40
0.8427454767816231
 40
1.124697465943008
 40
1.409536444712048
 40
1.694381494092323
 40
1.98307130343391
 40
2.2717678368092
 40
2.564776135645574
 40
2.857790848031865
 40
3.155055692063538
 40
3.452325972452619
 40
3.753284820909596
 40
4.054247736388464
 40
4.357919800455422
 40
4.661594361771608
 40
4.966700742338206
 40
5.271807963175697
 40
5.576915184003023
 40
5.882021564538698
 40
6.185696125802742
 40
6.489368189796031
 40
6.790331105179877
 40
7.091289953518788
 40
7.388560233767612
 40
7.685825077633866
 40
7.97883978983065
 40
8.271848088449254
 40
8.560544621579906
 40
8.84923443064271
 40
9.134079479707538
 40
9.418918458106447
 40
9.700870446812948
 40
9.982818144856141
 40
10.26321781600898
 40
10.54361593035258
 40
10.82401404469612
 40
11.10441371584882
 40
11.38636141389204
 40
11.66831340259862
 40
11.95315238099756
 40
12.23799743006234
 40
12.52668723912514
 40
12.81538377225579
 40
13.10839207087442
 40
13.4014067830712
 40
13.69867162693749
 40
13.99594190718632
 40
14.2969007555252
 40
14.59786367090904
 40
14.90153573490232
 40
15.20521029616635
 40
15.51031667670201
 40
15.81542389752935
 40
16.12053111836684
 40
16.42563749893345
 40
16.72931206024963
 40
17.03298412431657
 40
17.33394703979542
 40
17.63490588825237
 40
17.93217616864151
 40
18.22944101267317
 40
18.52245572505948
 40
18.81546402389586
 40
19.10416055727115
 40
19.39285036661273
 40
19.67769541599296
 40
19.96253439476203
 40
20.2444863839235
 40
20.5264340826256
 40
20.80683375518791
 40
21.08723186070495
 40
21.08723186070495
 40
21.08723186070495
 40
21.08723186070495
 10
135.0919220212356
 20
120.905416215525
 30
0.0
 10
134.9984214811934
 20
120.9028348297189
 30
0.0
 10
134.8114198783913
 20
120.8976720490143
 30
0.0
 10
134.5329354671982
 20
120.856199700451
 30
0.0
 10
134.2589932700456
 20
120.7902995406092
 30
0.0
 10
133.9910651042768
 20
120.6980674316519
 30
0.0
 10
133.7320193164063
 20
120.5809852425228
 30
0.0
 10
133.4828600219894
 20
120.4395089611239
 30
0.0
 10
133.2465500015751
 20
120.2752266152876
 30
0.0
 10
133.0237750074375
 20
120.088766467209
 30
0.0
 10
132.8173189749314
 20
119.8823419923959
 30
0.0
 10
132.6277062310915
 20
119.6566242980723
 30
0.0
 10
132.4573070549731
 20
119.4143334998274
 30
0.0
 10
132.3065942471773
 20
119.1562760070836
 30
0.0
 10
132.177371110468
 20
118.8854488036909
 30
0.0
 10
132.070091437103
 20
118.6029319502777
 30
0.0
 10
131.9859369333695
 20
118.3117439797626
 30
0.0
 10
131.9252936593618
 20
118.0133652069214
 30
0.0
 10
131.8887598969153
 20
117.7106042351104
 30
0.0
 10
131.8765408660037
 20
117.4054162249278
 30
0.0
 10
131.8887598965651
 20
117.1002282147431
 30
0.0
 10
131.9252936586607
 20
116.7974672429165
 30
0.0
 10
131.9859369323152
 20
116.4990884700737
 30
0.0
 10
132.0700914356924
 20
116.2079004994699
 30
0.0
 10
132.1773711086968
 20
115.9253836462538
 30
0.0
 10
132.3065942450405
 20
115.6545564419577
 30
0.0
 10
132.4573070524638
 20
115.396498952331
 30
0.0
 10
132.627706228203
 20
115.1542081422746
 30
0.0
 10
132.817318971654
 20
114.9284904911127
 30
0.0
 10
133.0237750037607
 20
114.7220658561187
 30
0.0
 10
133.2465499974845
 20
114.5356062969705
 30
0.0
 10
133.4828600174662
 20
114.3713217692848
 30
0.0
 10
133.7320193114206
 20
114.2298535262366
 30
0.0
 10
133.9910650987811
 20
114.1127415226529
 30
0.0
 10
134.2589932639149
 20
114.0206196041941
 30
0.0
 10
134.5329354601147
 20
113.9543098386365
 30
0.0
 10
134.8114198731513
 20
113.9143581735467
 30
0.0
 10
135.0919220212356
 20
113.9009452639258
 30
0.0
 10
135.3724241693197
 20
113.9143581735467
 30
0.0
 10
135.6509085823564
 20
113.9543098386365
 30
0.0
 10
135.9248507785561
 20
114.0206196041941
 30
0.0
 10
136.19277894369
 20
114.1127415226529
 30
0.0
 10
136.4518247310505
 20
114.2298535262366
 30
0.0
 10
136.7009840250049
 20
114.3713217692848
 30
0.0
 10
136.9372940449866
 20
114.5356062969705
 30
0.0
 10
137.1600690387103
 20
114.7220658561187
 30
0.0
 10
137.3665250708171
 20
114.9284904911128
 30
0.0
 10
137.5561378142682
 20
115.1542081422746
 30
0.0
 10
137.7265369900073
 20
115.396498952331
 30
0.0
 10
137.8772497974307
 20
115.6545564419576
 30
0.0
 10
138.0064729337743
 20
115.9253836462538
 30
0.0
 10
138.1137526067787
 20
116.2079004994698
 30
0.0
 10
138.1979071101558
 20
116.4990884700737
 30
0.0
 10
138.2585503838103
 20
116.7974672429165
 30
0.0
 10
138.2950841459059
 20
117.1002282147431
 30
0.0
 10
138.3073031764675
 20
117.4054162249278
 30
0.0
 10
138.2950841455558
 20
117.7106042351104
 30
0.0
 10
138.2585503831091
 20
118.0133652069213
 30
0.0
 10
138.1979071091015
 20
118.3117439797626
 30
0.0
 10
138.1137526053681
 20
118.6029319502777
 30
0.0
 10
138.0064729320031
 20
118.8854488036909
 30
0.0
 10
137.877249795294
 20
119.1562760070836
 30
0.0
 10
137.7265369874981
 20
119.4143334998274
 30
0.0
 10
137.5561378113796
 20
119.6566242980723
 30
0.0
 10
137.3665250675396
 20
119.8823419923959
 30
0.0
 10
137.1600690350337
 20
120.088766467209
 30
0.0
 10
136.9372940408959
 20
120.2752266152877
 30
0.0
 10
136.7009840204817
 20
120.4395089611238
 30
0.0
 10
136.4518247260649
 20
120.5809852425229
 30
0.0
 10
136.1927789381943
 20
120.6980674316519
 30
0.0
 10
135.9248507724254
 20
120.7902995406092
 30
0.0
 10
135.6509085752729
 20
120.856199700451
 30
0.0
 10
135.3724241640798
 20
120.8976720490143
 30
0.0
 10
135.1854225612777
 20
120.9028348297189
 30
0.0
 10
135.0919220212356
 20
120.905416215525
 30
0.0
 11
135.0919220212356
 21
120.905416215525
 31
0.0
 11
134.8118420223659
 21
120.8920634302269
 31
0.0
 11
134.5342842139872
 21
120.8522433510678
 31
0.0
 11
134.2602328096083
 21
120.7859837683438
 31
0.0
 11
133.9935899493339
 21
120.6943403882756
 31
0.0
 11
133.7340015247979
 21
120.5770923879904
 31
0.0
 11
133.4862679489024
 21
120.4365051287704
 31
0.0
 11
133.2491674642934
 21
120.2718079334184
 31
0.0
 11
133.0277329349586
 21
120.0865717664414
 31
0.0
 11
132.8204495456488
 21
119.8794788895261
 31
0.0
 11
132.6319172618713
 21
119.6551728494277
 31
0.0
 11
132.4608287152977
 21
119.412078018727
 31
0.0
 11
132.3108475885748
 21
119.155416215525
 31
0.0
 11
132.1811708087004
 21
118.8838279955538
 31
0.0
 11
132.074279454623
 21
118.6024867171647
 31
0.0
 11
131.9899133932927
 21
118.3107692336193
 31
0.0
 11
131.9294008630569
 21
118.0131848373591
 31
0.0
 11
131.892821914494
 21
117.7102791028249
 31
0.0
 11
131.8806138765693
 21
117.405416215525
 31
0.0
 11
131.892821914494
 21
117.1005533282249
 31
0.0
 11
131.9294008630569
 21
116.7976475936905
 31
0.0
 11
131.9899133932927
 21
116.5000631974305
 31
0.0
 11
132.074279454623
 21
116.2083457138852
 31
0.0
 11
132.1811708087004
 21
115.9270044354962
 31
0.0
 11
132.3108475885748
 21
115.655416215525
 31
0.0
 11
132.4608287152977
 21
115.3987544123228
 31
0.0
 11
132.6319172618713
 21
115.155659581622
 31
0.0
 11
132.8204495456489
 21
114.9313535415237
 31
0.0
 11
133.0277329349586
 21
114.7242606646085
 31
0.0
 11
133.2491674642934
 21
114.5390244976313
 31
0.0
 11
133.4862679489024
 21
114.3743273022792
 31
0.0
 11
133.7340015247979
 21
114.2337400430592
 31
0.0
 11
133.9935899493339
 21
114.1164920427741
 31
0.0
 11
134.2602328096083
 21
114.0248486627061
 31
0.0
 11
134.5342842139872
 21
113.9585890799822
 31
0.0
 11
134.8118420223659
 21
113.9187690008231
 31
0.0
 11
135.0919220212356
 21
113.905416215525
 31
0.0
 11
135.3720020201052
 21
113.9187690008231
 31
0.0
 11
135.6495598284838
 21
113.9585890799822
 31
0.0
 11
135.9236112328627
 21
114.0248486627061
 31
0.0
 11
136.1902540931372
 21
114.1164920427741
 31
0.0
 11
136.4498425176732
 21
114.2337400430592
 31
0.0
 11
136.6975760935687
 21
114.3743273022792
 31
0.0
 11
136.9346765781777
 21
114.5390244976313
 31
0.0
 11
137.1561111075125
 21
114.7242606646085
 31
0.0
 11
137.3633944968222
 21
114.9313535415237
 31
0.0
 11
137.5519267805998
 21
115.155659581622
 31
0.0
 11
137.7230153271734
 21
115.3987544123228
 31
0.0
 11
137.8729964538964
 21
115.655416215525
 31
0.0
 11
138.0026732337707
 21
115.9270044354961
 31
0.0
 11
138.1095645878481
 21
116.2083457138852
 31
0.0
 11
138.1939306491784
 21
116.5000631974305
 31
0.0
 11
138.2544431794141
 21
116.7976475936905
 31
0.0
 11
138.2910221279771
 21
117.1005533282249
 31
0.0
 11
138.3032301659018
 21
117.405416215525
 31
0.0
 11
138.2910221279771
 21
117.7102791028249
 31
0.0
 11
138.2544431794141
 21
118.0131848373591
 31
0.0
 11
138.1939306491784
 21
118.3107692336193
 31
0.0
 11
138.1095645878481
 21
118.6024867171647
 31
0.0
 11
138.0026732337708
 21
118.8838279955538
 31
0.0
 11
137.8729964538964
 21
119.155416215525
 31
0.0
 11
137.7230153271734
 21
119.412078018727
 31
0.0
 11
137.5519267805998
 21
119.6551728494277
 31
0.0
 11
137.3633944968223
 21
119.8794788895261
 31
0.0
 11
137.1561111075125
 21
120.0865717664414
 31
0.0
 11
136.9346765781777
 21
120.2718079334184
 31
0.0
 11
136.6975760935687
 21
120.4365051287704
 31
0.0
 11
136.4498425176732
 21
120.5770923879904
 31
0.0
 11
136.1902540931372
 21
120.6943403882756
 31
0.0
 11
135.9236112328627
 21
120.7859837683438
 31
0.0
 11
135.6495598284838
 21
120.8522433510678
 31
0.0
 11
135.3720020201052
 21
120.8920634302269
 31
0.0
 11
135.0919220212356
 21
120.905416215525
 31
0.0
  0
SPLINE
  5
130
330
56
100
AcDbEntity
  8
1
  6
Continuous
 62
     7
100
AcDbSpline
210
0.0
220
0.0
230
1.0
 70
     8
 71
     3
 72
    29
 73
    25
 74
    23
 42
0.000000001
 43
0.0000000001
 44
0.00000001
 40
0.0
 40
0.0
 40
0.0
 40
0.0
 40
0.6069077071334942
 40
1.212222618922171
 40
1.84266669998109
 40
2.474631891987842
 40
3.102420163135084
 40
3.729333881624579
 40
4.271042929453214
 40
4.812985317241368
 40
5.340107969104258
 40
5.866248914949049
 40
6.263874824440587
 40
6.661485222726908
 40
7.280966483141271
 40
7.90259672321035
 40
8.549168899022899
 40
9.195896755585037
 40
9.722415956712014
 40
10.24911839923914
 40
11.07897535377097
 40
11.90732205839679
 40
12.67331707894468
 40
13.44191268485683
 40
13.44191268485683
 40
13.44191268485683
 40
13.44191268485683
 10
146.3502522704333
 20
120.905416215525
 30
0.0
 10
146.1481924428876
 20
120.895540842161
 30
0.0
 10
145.7446030832104
 20
120.8758160009483
 30
0.0
 10
145.1328975351265
 20
120.8120256527269
 30
0.0
 10
144.5234804739844
 20
120.6778423549864
 30
0.0
 10
143.9250742990061
 20
120.4773867354599
 30
0.0
 10
143.3505117675325
 20
120.2188256192297
 30
0.0
 10
142.8356139701639
 20
119.9098962301252
 30
0.0
 10
142.3865950964078
 20
119.5560793061808
 30
0.0
 10
142.0126534941099
 20
119.1680546386639
 30
0.0
 10
141.705687592803
 20
118.7311242355887
 30
0.0
 10
141.4983789353636
 20
118.2909102691524
 30
0.0
 10
141.3824763471434
 20
117.8642011490998
 30
0.0
 10
141.3317731422659
 20
117.3932857072978
 30
0.0
 10
141.3922294655069
 20
116.8443111150569
 30
0.0
 10
141.6051766971362
 20
116.2465650497351
 30
0.0
 10
141.9524136342886
 20
115.7049628045947
 30
0.0
 10
142.3737713598687
 20
115.2643548372046
 30
0.0
 10
142.821184849849
 20
114.9144809142351
 30
0.0
 10
143.3570212353942
 20
114.5855705318937
 30
0.0
 10
144.0219122847801
 20
114.2818319114917
 30
0.0
 10
144.8015733454168
 20
114.0570620457751
 30
0.0
 10
145.583978961521
 20
113.9526752463844
 30
0.0
 10
146.0945394276948
 20
113.9212527558784
 30
0.0
 10
146.3502522704333
 20
113.9055148916117
 30
0.0
 11
146.3502522704333
 21
120.905416215525
 31
0.0
 11
145.7443662486751
 21
120.8702153497626
 31
0.0
 11
145.1429234291936
 21
120.8018583576784
 31
0.0
 11
144.5270322174524
 21
120.6671818718541
 31
0.0
 11
143.9275707559038
 21
120.467116979909
 31
0.0
 11
143.3558719825837
 21
120.2077357416587
 31
0.0
 11
142.8193067655707
 21
119.8835157868806
 31
0.0
 11
142.3948742267916
 21
119.5469066468996
 31
0.0
 11
142.0201252515111
 21
119.155416215525
 31
0.0
 11
141.718569365551
 21
118.7230710543063
 31
0.0
 11
141.4965490517172
 21
118.24606866869
 31
0.0
 11
141.3927883345742
 21
117.8622196385603
 31
0.0
 11
141.3510302367535
 21
117.4668080927461
 31
0.0
 11
141.4156238483749
 21
116.8507036385363
 31
0.0
 11
141.6232420185262
 21
116.2647694682595
 31
0.0
 11
141.9686146193812
 21
115.7181678343455
 31
0.0
 11
142.4128887459841
 21
115.2481918542651
 31
0.0
 11
142.8267591647588
 21
114.9227172066941
 31
0.0
 11
143.2747980119829
 21
114.6458117085145
 31
0.0
 11
144.0295587186206
 21
114.3008496203369
 31
0.0
 11
144.8257150290087
 21
114.0721721305904
 31
0.0
 11
145.5837241596082
 21
113.9618520015758
 31
0.0
 11
146.3502522704333
 21
113.9055148916117
 31
0.0
  0
SPLINE
  5
131
330
56
100
AcDbEntity
  8
1
  6
Continuous
 62
     7
100
AcDbSpline
210
0.0
220
0.0
230
1.0
 70
     8
 71
     3
 72
    29
 73
    25
 74
    23
 42
0.000000001
 43
0.0000000001
 44
0.00000001
 40
0.0
 40
0.0
 40
0.0
 40
0.0
 40
0.6069077071334399
 40
1.212222618922083
 40
1.842666699981049
 40
2.474631891987949
 40
3.102420163135059
 40
3.729333881624428
 40
4.271042929453134
 40
4.812985317241355
 40
5.340107969104277
 40
5.866248914949044
 40
6.263874824440605
 40
6.661485222726917
 40
7.280966483141289
 40
7.902596723210368
 40
8.549168899022916
 40
9.195896755585055
 40
9.7224159567121
 40
10.24911839923933
 40
11.07897535377102
 40
11.9073220583967
 40
12.6733170789446
 40
13.44191268485678
 40
13.44191268485678
 40
13.44191268485678
 40
13.44191268485678
 10
146.3502522704333
 20
120.905416215525
 30
0.0
 10
146.552312097979
 20
120.8955408421609
 30
0.0
 10
146.9559014576562
 20
120.8758160009482
 30
0.0
 10
147.56760700574
 20
120.8120256527269
 30
0.0
 10
148.1770240668822
 20
120.6778423549864
 30
0.0
 10
148.7754302418605
 20
120.47738673546
 30
0.0
 10
149.3499927733341
 20
120.2188256192295
 30
0.0
 10
149.8648905707026
 20
119.9098962301252
 30
0.0
 10
150.3139094444586
 20
119.5560793061807
 30
0.0
 10
150.6878510467567
 20
119.168054638664
 30
0.0
 10
150.9948169480637
 20
118.7311242355888
 30
0.0
 10
151.2021256055029
 20
118.2909102691524
 30
0.0
 10
151.3180281937233
 20
117.8642011490998
 30
0.0
 10
151.3687313986007
 20
117.3932857072977
 30
0.0
 10
151.3082750753596
 20
116.844311115057
 30
0.0
 10
151.0953278437303
 20
116.2465650497351
 30
0.0
 10
150.7480909065779
 20
115.7049628045947
 30
0.0
 10
150.3267331809978
 20
115.2643548372046
 30
0.0
 10
149.8793196910174
 20
114.9144809142351
 30
0.0
 10
149.3434833054721
 20
114.5855705318938
 30
0.0
 10
148.6785922560864
 20
114.2818319114917
 30
0.0
 10
147.8989311954498
 20
114.0570620457752
 30
0.0
 10
147.1165255793456
 20
113.9526752463843
 30
0.0
 10
146.6059651131718
 20
113.9212527558784
 30
0.0
 10
146.3502522704333
 20
113.9055148916117
 30
0.0
 11
146.3502522704333
 21
120.905416215525
 31
0.0
 11
146.9561382921914
 21
120.8702153497626
 31
0.0
 11
147.5575811116729
 21
120.8018583576784
 31
0.0
 11
148.1734723234141
 21
120.6671818718541
 31
0.0
 11
148.7729337849629
 21
120.467116979909
 31
0.0
 11
149.3446325582828
 21
120.2077357416586
 31
0.0
 11
149.8811977752957
 21
119.8835157868806
 31
0.0
 11
150.3056303140749
 21
119.5469066468996
 31
0.0
 11
150.6803792893555
 21
119.155416215525
 31
0.0
 11
150.9819351753156
 21
118.7230710543063
 31
0.0
 11
151.2039554891494
 21
118.24606866869
 31
0.0
 11
151.3077162062924
 21
117.8622196385603
 31
0.0
 11
151.3494743041131
 21
117.4668080927461
 31
0.0
 11
151.2848806924916
 21
116.8507036385363
 31
0.0
 11
151.0772625223403
 21
116.2647694682595
 31
0.0
 11
150.7318899214853
 21
115.7181678343455
 31
0.0
 11
150.2876157948824
 21
115.2481918542651
 31
0.0
 11
149.8737453761077
 21
114.9227172066941
 31
0.0
 11
149.4257065288834
 21
114.6458117085145
 31
0.0
 11
148.6709458222459
 21
114.3008496203369
 31
0.0
 11
147.8747895118579
 21
114.0721721305904
 31
0.0
 11
147.1167803812584
 21
113.9618520015757
 31
0.0
 11
146.3502522704333
 21
113.9055148916117
 31
0.0
  0
SPLINE
  5
132
330
56
100
AcDbEntity
  8
1
  6
Continuous
 62
     7
100
AcDbSpline
210
0.0
220
0.0
230
1.0
 70
    11
 71
     3
 72
    79
 73
    75
 74
    73
 42
0.000000001
 43
0.0000000001
 44
0.00000001
 40
0.0
 40
0.0
 40
0.0
 40
0.0
 40
0.3105305852300681
 40
0.6211096995128542
 40
0.9446853825175169
 40
1.268350829332531
 40
1.615177937220527
 40
1.962073587500681
 40
2.337982250496455
 40
2.713934410282965
 40
3.120408255190386
 40
3.52690943908924
 40
3.961816264051621
 40
4.396740380766692
 40
4.855202003460476
 40
5.313674294823822
 40
5.788867662508675
 40
6.264066850589983
 40
6.747928777579677
 40
7.231792556800854
 40
7.715656336020729
 40
8.199518263006158
 40
8.674717451079381
 40
9.14991081875049
 40
9.608383110092559
 40
10.06684473275366
 40
10.50176884942252
 40
10.93667567431767
 40
11.34317685812703
 40
11.74965070290939
 40
12.12560286253659
 40
12.50151152531591
 40
12.84840717532578
 40
13.19523428284667
 40
13.51889972917787
 40
13.8424754113905
 40
14.15305452357892
 40
14.46358511619985
 40
14.77411570882085
 40
15.08469482100932
 40
15.40827050322202
 40
15.73193594955324
 40
16.07876305707404
 40
16.42565870708391
 40
16.80156736986322
 40
17.17751952949042
 40
17.58399337427278
 40
17.99049455808209
 40
18.42540138297727
 40
18.86032549964614
 40
19.31878712230723
 40
19.77725941364934
 40
20.25245278132046
 40
20.72765196939367
 40
21.2115138963791
 40
21.69537767559897
 40
22.17924145482015
 40
22.66310338180984
 40
23.13830256989115
 40
23.613495937576
 40
24.07196822893939
 40
24.53042985163317
 40
24.96535396834825
 40
25.40026079331066
 40
25.80676197720949
 40
26.21323582211688
 40
26.58918798190339
 40
26.96509664489916
 40
27.3119922951793
 40
27.65881940306722
 40
27.98248484988226
 40
28.306060532887
 40
28.61663964716982
 40
28.92717023239996
 40
28.92717023239996
 40
28.92717023239996
 40
28.92717023239996
 10
65.28810340511154
 20
117.4407733226608
 30
0.0
 10
65.29231945572829
 20
117.5443583544789
 30
0.0
 10
65.30075220716765
 20
117.7515446066554
 30
0.0
 10
65.36748014031288
 20
118.0607642020827
 30
0.0
 10
65.47318752117161
 20
118.3627693494154
 30
0.0
 10
65.62171038927048
 20
118.6599295387344
 30
0.0
 10
65.80817812451353
 20
118.9440762044924
 30
0.0
 10
66.03534917993035
 20
119.2196757899419
 30
0.0
 10
66.29578263792774
 20
119.4780409100416
 30
0.0
 10
66.59418874888149
 20
119.7238088877046
 30
0.0
 10
66.92070246826157
 20
119.9492415403961
 30
0.0
 10
67.28092932649345
 20
120.1579872698278
 30
0.0
 10
67.66394253371804
 20
120.344056064163
 30
0.0
 10
68.07489229146097
 20
120.5097050138594
 30
0.0
 10
68.50314159911598
 20
120.6509194345798
 30
0.0
 10
68.95228186110684
 20
120.7686655566999
 30
0.0
 10
69.41306853192279
 20
120.8607366389141
 30
0.0
 10
69.88676740072388
 20
120.9271982124624
 30
0.0
 10
70.36632621955775
 20
120.9672418659086
 30
0.0
 10
70.85025226054962
 20
120.9805747179553
 30
0.0
 10
71.334178301537
 20
120.9672418659534
 30
0.0
 10
71.81373712038311
 20
120.9271982125566
 30
0.0
 10
72.28743598913718
 20
120.8607366390669
 30
0.0
 10
72.74822266012225
 20
120.7686655569246
 30
0.0
 10
73.19736292150117
 20
120.6509194348954
 30
0.0
 10
73.62561223138536
 20
120.5097050142879
 30
0.0
 10
74.03656198122678
 20
120.3440560647338
 30
0.0
 10
74.41957521699636
 20
120.1579872705714
 30
0.0
 10
74.77980197537742
 20
119.9492415413533
 30
0.0
 10
75.10631605287801
 20
119.723808888915
 30
0.0
 10
75.40472092302625
 20
119.478040911559
 30
0.0
 10
75.66515881670671
 20
119.2196757918181
 30
0.0
 10
75.89231453444992
 20
118.9440762068029
 30
0.0
 10
76.07883726068481
 20
118.659929541564
 30
0.0
 10
76.2271679495524
 20
118.3627693529493
 30
0.0
 10
76.33357230891532
 20
118.0607642068641
 30
0.0
 10
76.39779843465979
 20
117.7515446103937
 30
0.0
 10
76.41970190093946
 20
117.4407733226608
 30
0.0
 10
76.39779843465979
 20
117.1300020349278
 30
0.0
 10
76.33357230891531
 20
116.8207824384574
 30
0.0
 10
76.22716794955242
 20
116.5187772923721
 30
0.0
 10
76.07883726068485
 20
116.2216171037575
 30
0.0
 10
75.89231453444987
 20
115.9374704385185
 30
0.0
 10
75.66515881670674
 20
115.6618708535033
 30
0.0
 10
75.40472092302629
 20
115.4035057337624
 30
0.0
 10
75.10631605287801
 20
115.1577377564065
 30
0.0
 10
74.77980197537745
 20
114.9323051039683
 30
0.0
 10
74.41957521699635
 20
114.7235593747502
 30
0.0
 10
74.03656198122674
 20
114.5374905805878
 30
0.0
 10
73.62561223138539
 20
114.3718416310336
 30
0.0
 10
73.19736292150118
 20
114.2306272104261
 30
0.0
 10
72.74822266012224
 20
114.1128810883967
 30
0.0
 10
72.28743598913717
 20
114.0208100062545
 30
0.0
 10
71.81373712038311
 20
113.9543484327648
 30
0.0
 10
71.334178301537
 20
113.914304779368
 30
0.0
 10
70.85025226054965
 20
113.9009719273661
 30
0.0
 10
70.36632621955775
 20
113.9143047794128
 30
0.0
 10
69.8867674007239
 20
113.9543484328589
 30
0.0
 10
69.41306853192279
 20
114.0208100064074
 30
0.0
 10
68.95228186110684
 20
114.1128810886214
 30
0.0
 10
68.50314159911599
 20
114.2306272107417
 30
0.0
 10
68.07489229146096
 20
114.371841631462
 30
0.0
 10
67.66394253371803
 20
114.5374905811585
 30
0.0
 10
67.28092932649348
 20
114.7235593754938
 30
0.0
 10
66.9207024682616
 20
114.9323051049255
 30
0.0
 10
66.59418874888146
 20
115.1577377576169
 30
0.0
 10
66.29578263792776
 20
115.4035057352799
 30
0.0
 10
66.03534917993034
 20
115.6618708553796
 30
0.0
 10
65.80817812451357
 20
115.9374704408291
 30
0.0
 10
65.62171038927042
 20
116.221617106587
 30
0.0
 10
65.47318752117162
 20
116.518777295906
 30
0.0
 10
65.36748014031285
 20
116.8207824432388
 30
0.0
 10
65.30075220716766
 20
117.1300020386661
 30
0.0
 10
65.29231945572829
 20
117.3371882908427
 30
0.0
 10
65.28810340511154
 20
117.4407733226608
 30
0.0
 11
65.28810340511154
 21
117.4407733226608
 31
0.0
 11
65.30961001732489
 21
117.7505582717355
 31
0.0
 11
65.37260494445644
 21
118.0546816417167
 31
0.0
 11
65.47949402673525
 21
118.3600927520169
 31
0.0
 11
65.62354202597774
 21
118.6499366671507
 31
0.0
 11
65.81321171000383
 21
118.9403061792381
 31
0.0
 11
66.03329005343394
 21
119.2084518762286
 31
0.0
 11
66.29964225296365
 21
119.4737136876949
 31
0.0
 11
66.58939904035304
 21
119.7132570669449
 31
0.0
 11
66.92354868278534
 21
119.944698210659
 31
0.0
 11
67.27497189657242
 21
120.1490139890234
 31
0.0
 11
67.66595810438733
 21
120.3394706289003
 31
0.0
 11
68.06917783777243
 21
120.5024823888902
 31
0.0
 11
68.50447761449625
 21
120.6463613792213
 31
0.0
 11
68.94788531831725
 21
120.7629223080792
 31
0.0
 11
69.41383002235894
 21
120.8562189825426
 31
0.0
 11
69.88439525605804
 21
120.9224204114348
 31
0.0
 11
70.36657353422129
 21
120.9627499596524
 31
0.0
 11
70.85025227043334
 21
120.9761304297964
 31
0.0
 11
71.3339310066454
 21
120.9627499596524
 31
0.0
 11
71.81610928480865
 21
120.9224204114348
 31
0.0
 11
72.28667451850775
 21
120.8562189825426
 31
0.0
 11
72.75261922254944
 21
120.7629223080792
 31
0.0
 11
73.19602692637037
 21
120.6463613792213
 31
0.0
 11
73.63132670309415
 21
120.5024823888902
 31
0.0
 11
74.03454643647923
 21
120.3394706289003
 31
0.0
 11
74.42553264429412
 21
120.1490139890234
 31
0.0
 11
74.77695585808122
 21
119.944698210659
 31
0.0
 11
75.11110550051353
 21
119.7132570669449
 31
0.0
 11
75.40086228790297
 21
119.4737136876949
 31
0.0
 11
75.66721448743274
 21
119.2084518762286
 31
0.0
 11
75.88729283086285
 21
118.9403061792382
 31
0.0
 11
76.07696251488895
 21
118.6499366671507
 31
0.0
 11
76.22101051413146
 21
118.3600927520169
 31
0.0
 11
76.32789959641025
 21
118.0546816417167
 31
0.0
 11
76.39089452354173
 21
117.7505582717355
 31
0.0
 11
76.41240113575503
 21
117.4407733226608
 31
0.0
 11
76.39089452354173
 21
117.1309883735861
 31
0.0
 11
76.32789959641025
 21
116.8268650036048
 31
0.0
 11
76.22101051413146
 21
116.5214538933045
 31
0.0
 11
76.07696251488895
 21
116.2316099781707
 31
0.0
 11
75.88729283086285
 21
115.9412404660833
 31
0.0
 11
75.66721448743274
 21
115.6730947690929
 31
0.0
 11
75.40086228790298
 21
115.4078329576266
 31
0.0
 11
75.11110550051353
 21
115.1682895783766
 31
0.0
 11
74.77695585808121
 21
114.9368484346626
 31
0.0
 11
74.42553264429412
 21
114.7325326562982
 31
0.0
 11
74.03454643647922
 21
114.5420760164213
 31
0.0
 11
73.63132670309415
 21
114.3790642564313
 31
0.0
 11
73.19602692637038
 21
114.2351852661002
 31
0.0
 11
72.75261922254944
 21
114.1186243372422
 31
0.0
 11
72.28667451850774
 21
114.0253276627788
 31
0.0
 11
71.81610928480865
 21
113.9591262338866
 31
0.0
 11
71.3339310066454
 21
113.918796685669
 31
0.0
 11
70.85025227043334
 21
113.905416215525
 31
0.0
 11
70.36657353422129
 21
113.918796685669
 31
0.0
 11
69.88439525605804
 21
113.9591262338866
 31
0.0
 11
69.41383002235894
 21
114.0253276627788
 31
0.0
 11
68.94788531831725
 21
114.1186243372422
 31
0.0
 11
68.50447761449624
 21
114.2351852661002
 31
0.0
 11
68.06917783777243
 21
114.3790642564313
 31
0.0
 11
67.66595810438733
 21
114.5420760164213
 31
0.0
 11
67.27497189657242
 21
114.7325326562982
 31
0.0
 11
66.92354868278534
 21
114.9368484346626
 31
0.0
 11
66.58939904035304
 21
115.1682895783766
 31
0.0
 11
66.29964225296365
 21
115.4078329576266
 31
0.0
 11
66.03329005343394
 21
115.6730947690929
 31
0.0
 11
65.81321171000383
 21
115.9412404660833
 31
0.0
 11
65.62354202597774
 21
116.2316099781707
 31
0.0
 11
65.47949402673524
 21
116.5214538933045
 31
0.0
 11
65.37260494445644
 21
116.8268650036048
 31
0.0
 11
65.30961001732489
 21
117.1309883735861
 31
0.0
 11
65.28810340511154
 21
117.4407733226608
 31
0.0
  0
SPLINE
  5
133
330
56
100
AcDbEntity
  8
1
  6
Continuous
 62
     7
100
AcDbSpline
210
0.0
220
0.0
230
1.0
 70
    11
 71
     3
 72
    79
 73
    75
 74
    73
 42
0.000000001
 43
0.0000000001
 44
0.00000001
 40
0.0
 40
0.0
 40
0.0
 40
0.0
 40
0.3105305852300685
 40
0.6211096995128518
 40
0.9446853825175192
 40
1.268350829332527
 40
1.615177937220504
 40
1.962073587500631
 40
2.337982250496425
 40
2.713934410282968
 40
3.1204082551904
 40
3.526909439089274
 40
3.961816264051661
 40
4.396740380766731
 40
4.855202003460501
 40
5.313674294823826
 40
5.788867662508687
 40
6.264066850590002
 40
6.747928777579696
 40
7.23179255680088
 40
7.715656336020747
 40
8.199518263006164
 40
8.674717451079344
 40
9.149910818750417
 40
9.608383110092541
 40
10.06684473275367
 40
10.50176884942254
 40
10.9366756743177
 40
11.34317685812706
 40
11.74965070290942
 40
12.12560286253663
 40
12.50151152531593
 40
12.84840717532577
 40
13.19523428284663
 40
13.51889972917785
 40
13.8424754113905
 40
14.15305452357888
 40
14.46358511619986
 40
14.77411570882088
 40
15.08469482100933
 40
15.40827050322205
 40
15.73193594955329
 40
16.07876305707406
 40
16.4256587070839
 40
16.8015673698632
 40
17.1775195294904
 40
17.58399337427273
 40
17.99049455808207
 40
18.42540138297725
 40
18.86032549964614
 40
19.31878712230727
 40
19.77725941364942
 40
20.2524527813205
 40
20.72765196939368
 40
21.21151389637909
 40
21.69537767559896
 40
22.17924145482014
 40
22.66310338180984
 40
23.13830256989115
 40
23.61349593757601
 40
24.07196822893937
 40
24.53042985163314
 40
24.96535396834822
 40
25.40026079331064
 40
25.80676197720949
 40
26.21323582211689
 40
26.58918798190338
 40
26.96509664489914
 40
27.31199229517928
 40
27.65881940306722
 40
27.98248484988225
 40
28.30606053288699
 40
28.61663964716982
 40
28.92717023239996
 40
28.92717023239996
 40
28.92717023239996
 40
28.92717023239996
 10
63.41240113575515
 20
117.4407733226608
 30
0.0
 10
63.40818508513837
 20
117.5443583544789
 30
0.0
 10
63.39975233369903
 20
117.7515446066554
 30
0.0
 10
63.33302440055382
 20
118.0607642020826
 30
0.0
 10
63.22731701969506
 20
118.3627693494154
 30
0.0
 10
63.07879415159621
 20
118.6599295387343
 30
0.0
 10
62.89232641635319
 20
118.9440762044924
 30
0.0
 10
62.66515536093645
 20
119.2196757899419
 30
0.0
 10
62.40472190293899
 20
119.4780409100416
 30
0.0
 10
62.10631579198522
 20
119.7238088877045
 30
0.0
 10
61.77980207260511
 20
119.9492415403961
 30
0.0
 10
61.4195752143732
 20
120.1579872698277
 30
0.0
 10
61.03656200714865
 20
120.3440560641631
 30
0.0
 10
60.62561224940568
 20
120.5097050138594
 30
0.0
 10
60.19736294175068
 20
120.6509194345798
 30
0.0
 10
59.74822267975983
 20
120.7686655566999
 30
0.0
 10
59.28743600894392
 20
120.8607366389141
 30
0.0
 10
58.81373714014279
 20
120.9271982124624
 30
0.0
 10
58.33417832130893
 20
120.9672418659086
 30
0.0
 10
57.85025228031702
 20
120.9805747179553
 30
0.0
 10
57.3663262393297
 20
120.9672418659535
 30
0.0
 10
56.88676742048358
 20
120.9271982125566
 30
0.0
 10
56.41306855172956
 20
120.8607366390668
 30
0.0
 10
55.95228188074451
 20
120.7686655569246
 30
0.0
 10
55.50314161936553
 20
120.6509194348954
 30
0.0
 10
55.07489230948133
 20
120.509705014288
 30
0.0
 10
54.66394255963991
 20
120.3440560647338
 30
0.0
 10
54.2809293238703
 20
120.1579872705714
 30
0.0
 10
53.92070256548922
 20
119.9492415413533
 30
0.0
 10
53.59418848798864
 20
119.723808888915
 30
0.0
 10
53.29578361784041
 20
119.4780409115591
 30
0.0
 10
53.03534572415992
 20
119.2196757918181
 30
0.0
 10
52.80819000641682
 20
118.9440762068029
 30
0.0
 10
52.62166728018198
 20
118.6599295415639
 30
0.0
 10
52.47333659131432
 20
118.3627693529493
 30
0.0
 10
52.36693223195139
 20
118.0607642068641
 30
0.0
 10
52.30270610620684
 20
117.7515446103938
 30
0.0
 10
52.28080263992724
 20
117.4407733226608
 30
0.0
 10
52.30270610620681
 20
117.1300020349278
 30
0.0
 10
52.36693223195141
 20
116.8207824384574
 30
0.0
 10
52.47333659131429
 20
116.5187772923721
 30
0.0
 10
52.62166728018195
 20
116.2216171037575
 30
0.0
 10
52.80819000641686
 20
115.9374704385186
 30
0.0
 10
53.03534572415996
 20
115.6618708535034
 30
0.0
 10
53.29578361784037
 20
115.4035057337624
 30
0.0
 10
53.59418848798865
 20
115.1577377564066
 30
0.0
 10
53.9207025654892
 20
114.9323051039682
 30
0.0
 10
54.28092932387032
 20
114.7235593747502
 30
0.0
 10
54.66394255963991
 20
114.5374905805878
 30
0.0
 10
55.07489230948131
 20
114.3718416310336
 30
0.0
 10
55.50314161936554
 20
114.2306272104261
 30
0.0
 10
55.95228188074451
 20
114.1128810883967
 30
0.0
 10
56.41306855172955
 20
114.0208100062546
 30
0.0
 10
56.88676742048359
 20
113.9543484327648
 30
0.0
 10
57.36632623932969
 20
113.9143047793679
 30
0.0
 10
57.85025228031704
 20
113.9009719273661
 30
0.0
 10
58.33417832130893
 20
113.9143047794128
 30
0.0
 10
58.81373714014281
 20
113.954348432859
 30
0.0
 10
59.28743600894389
 20
114.0208100064073
 30
0.0
 10
59.74822267975988
 20
114.1128810886214
 30
0.0
 10
60.19736294175069
 20
114.2306272107417
 30
0.0
 10
60.62561224940566
 20
114.3718416314621
 30
0.0
 10
61.03656200714865
 20
114.5374905811585
 30
0.0
 10
61.4195752143732
 20
114.7235593754938
 30
0.0
 10
61.77980207260509
 20
114.9323051049255
 30
0.0
 10
62.10631579198524
 20
115.1577377576169
 30
0.0
 10
62.4047219029389
 20
115.4035057352799
 30
0.0
 10
62.66515536093636
 20
115.6618708553796
 30
0.0
 10
62.89232641635311
 20
115.9374704408291
 30
0.0
 10
63.07879415159626
 20
116.2216171065871
 30
0.0
 10
63.22731701969509
 20
116.518777295906
 30
0.0
 10
63.33302440055385
 20
116.8207824432389
 30
0.0
 10
63.39975233369902
 20
117.1300020386661
 30
0.0
 10
63.40818508513838
 20
117.3371882908427
 30
0.0
 10
63.41240113575515
 20
117.4407733226608
 30
0.0
 11
63.41240113575515
 21
117.4407733226608
 31
0.0
 11
63.3908945235418
 21
117.7505582717355
 31
0.0
 11
63.32789959641025
 21
118.0546816417167
 31
0.0
 11
63.22101051413144
 21
118.3600927520169
 31
0.0
 11
63.07696251488895
 21
118.6499366671507
 31
0.0
 11
62.8872928308629
 21
118.9403061792381
 31
0.0
 11
62.66721448743283
 21
119.2084518762286
 31
0.0
 11
62.4008622879031
 21
119.4737136876949
 31
0.0
 11
62.11110550051365
 21
119.7132570669449
 31
0.0
 11
61.77695585808134
 21
119.944698210659
 31
0.0
 11
61.42553264429424
 21
120.1490139890234
 31
0.0
 11
61.03454643647933
 21
120.3394706289003
 31
0.0
 11
60.63132670309423
 21
120.5024823888902
 31
0.0
 11
60.19602692637042
 21
120.6463613792213
 31
0.0
 11
59.75261922254944
 21
120.7629223080792
 31
0.0
 11
59.28667451850775
 21
120.8562189825426
 31
0.0
 11
58.81610928480865
 21
120.9224204114348
 31
0.0
 11
58.3339310066454
 21
120.9627499596524
 31
0.0
 11
57.85025227043334
 21
120.9761304297964
 31
0.0
 11
57.36657353422129
 21
120.9627499596524
 31
0.0
 11
56.88439525605804
 21
120.9224204114348
 31
0.0
 11
56.41383002235899
 21
120.8562189825426
 31
0.0
 11
55.94788531831733
 21
120.7629223080792
 31
0.0
 11
55.50447761449636
 21
120.6463613792213
 31
0.0
 11
55.06917783777254
 21
120.5024823888902
 31
0.0
 11
54.66595810438744
 21
120.3394706289003
 31
0.0
 11
54.27497189657254
 21
120.1490139890234
 31
0.0
 11
53.92354868278544
 21
119.944698210659
 31
0.0
 11
53.58939904035313
 21
119.7132570669449
 31
0.0
 11
53.29964225296368
 21
119.4737136876949
 31
0.0
 11
53.03329005343394
 21
119.2084518762286
 31
0.0
 11
52.81321171000388
 21
118.9403061792382
 31
0.0
 11
52.62354202597783
 21
118.6499366671507
 31
0.0
 11
52.47949402673528
 21
118.3600927520169
 31
0.0
 11
52.37260494445644
 21
118.0546816417167
 31
0.0
 11
52.30961001732493
 21
117.7505582717355
 31
0.0
 11
52.28810340511163
 21
117.4407733226608
 31
0.0
 11
52.30961001732493
 21
117.130988373586
 31
0.0
 11
52.37260494445644
 21
116.8268650036048
 31
0.0
 11
52.47949402673528
 21
116.5214538933045
 31
0.0
 11
52.62354202597783
 21
116.2316099781707
 31
0.0
 11
52.81321171000388
 21
115.9412404660833
 31
0.0
 11
53.03329005343394
 21
115.6730947690929
 31
0.0
 11
53.29964225296368
 21
115.4078329576266
 31
0.0
 11
53.58939904035313
 21
115.1682895783766
 31
0.0
 11
53.92354868278544
 21
114.9368484346626
 31
0.0
 11
54.27497189657254
 21
114.7325326562982
 31
0.0
 11
54.66595810438745
 21
114.5420760164213
 31
0.0
 11
55.06917783777254
 21
114.3790642564313
 31
0.0
 11
55.50447761449635
 21
114.2351852661002
 31
0.0
 11
55.94788531831733
 21
114.1186243372422
 31
0.0
 11
56.41383002235899
 21
114.0253276627788
 31
0.0
 11
56.88439525605804
 21
113.9591262338866
 31
0.0
 11
57.36657353422129
 21
113.918796685669
 31
0.0
 11
57.85025227043334
 21
113.905416215525
 31
0.0
 11
58.3339310066454
 21
113.918796685669
 31
0.0
 11
58.81610928480865
 21
113.9591262338866
 31
0.0
 11
59.28667451850775
 21
114.0253276627788
 31
0.0
 11
59.75261922254944
 21
114.1186243372422
 31
0.0
 11
60.19602692637044
 21
114.2351852661002
 31
0.0
 11
60.63132670309423
 21
114.3790642564313
 31
0.0
 11
61.03454643647932
 21
114.5420760164213
 31
0.0
 11
61.42553264429424
 21
114.7325326562982
 31
0.0
 11
61.77695585808135
 21
114.9368484346626
 31
0.0
 11
62.11110550051365
 21
115.1682895783766
 31
0.0
 11
62.40086228790302
 21
115.4078329576266
 31
0.0
 11
62.66721448743274
 21
115.6730947690929
 31
0.0
 11
62.88729283086285
 21
115.9412404660833
 31
0.0
 11
63.07696251488895
 21
116.2316099781707
 31
0.0
 11
63.22101051413145
 21
116.5214538933045
 31
0.0
 11
63.32789959641025
 21
116.8268650036048
 31
0.0
 11
63.39089452354181
 21
117.1309883735861
 31
0.0
 11
63.41240113575515
 21
117.4407733226608
 31
0.0
  0
ENDBLK
  5
58
330
56
100
AcDbEntity
  8
0
100
AcDbBlockEnd
  0
BLOCK
  5
5F
330
59
100
AcDbEntity
  8
0
100
AcDbBlockBegin
  2
R10AK-13
 70
     0
 10
166.3502522704333
 20
220.9042893827707
 30
0.0
  3
R10AK-13
  1

  0
INSERT
  5
5A
330
59
100
AcDbEntity
  8
0
100
AcDbBlockReference
  2
91-1
 10
375.5999999999999
 20
100.0333771056857
 30
0.0
  0
INSERT
  5
5B
330
59
100
AcDbEntity
  8
0
100
AcDbBlockReference
  2
42-15
 10
460.5897683484694
 20
236.5046160437388
 30
0.0
  0
INSERT
  5
5C
330
59
100
AcDbEntity
  8
1
100
AcDbBlockReference
  2
21-1C
 10
112.1680324394957
 20
77.7605234460841
 30
0.0
  0
INSERT
  5
5D
330
59
100
AcDbEntity
  8
1
100
AcDbBlockReference
  2
36-54
 10
156.8502522704333
 20
91.9745980945858
 30
0.0
  0
INSERT
  5
5E
330
59
100
AcDbEntity
  8
1
100
AcDbBlockReference
  2
37-1-13
 10
137.3304097316114
 20
111.3153832699444
 30
0.0
  0
LINE
  5
134
330
59
100
AcDbEntity
  8
1
  6
PHANTOM
 62
     4
100
AcDbLine
 10
146.3502522704333
 20
72.9279769580482
 30
0.0
 11
146.3502522704333
 21
149.4745980945858
 31
0.0
  0
ENDBLK
  5
60
330
59
100
AcDbEntity
  8
0
100
AcDbBlockEnd
  0
BLOCK
  5
62
330
61
100
AcDbEntity
  8
0
100
AcDbBlockBegin
  2
V261-13
 70
     0
 10
51.85025227043334
 20
75.9279769580482
 30
0.0
  3
V261-13
  1

  0
LINE
  5
135
330
61
100
AcDbEntity
  8
1
  6
Continuous
 62
     7
100
AcDbLine
 10
70.35025227043334
 20
89.7257249273401
 30
0.0
 11
70.35025227043334
 21
89.4757249273401
 31
0.0
  0
LINE
  5
136
330
61
100
AcDbEntity
  8
1
  6
Continuous
 62
     7
100
AcDbLine
 10
58.35025227043334
 20
89.4757249273401
 30
0.0
 11
58.35025227043334
 21
89.7257249273401
 31
0.0
  0
LINE
  5
137
330
61
100
AcDbEntity
  8
1
  6
Continuous
 62
     7
100
AcDbLine
 10
70.7728685597659
 20
89.4757249273401
 30
0.0
 11
57.92763598110079
 21
89.4757249273401
 31
0.0
  0
LINE
  5
138
330
61
100
AcDbEntity
  8
1
  6
Continuous
 62
     7
100
AcDbLine
 10
69.60025227043334
 20
90.4757249273401
 30
0.0
 11
59.10025227043334
 21
90.4757249273401
 31
0.0
  0
LINE
  5
139
330
61
100
AcDbEntity
  8
1
  6
Continuous
 62
     7
100
AcDbLine
 10
76.85025227043334
 20
192.9337793758983
 30
0.0
 11
76.85025227043334
 21
190.913653560907
 31
0.0
  0
LINE
  5
13A
330
61
100
AcDbEntity
  8
1
  6
Continuous
 62
     7
100
AcDbLine
 10
53.06052325402592
 20
190.8077685700484
 30
0.0
 11
51.85025227043334
 21
190.913653560907
 31
0.0
  0
LINE
  5
13B
330
61
100
AcDbEntity
  8
1
  6
Continuous
 62
     7
100
AcDbLine
 10
76.85025227043334
 20
190.913653560907
 30
0.0
 11
75.63998128684014
 21
190.8077685700483
 31
0.0
  0
LINE
  5
13C
330
61
100
AcDbEntity
  8
1
  6
Continuous
 62
     7
100
AcDbLine
 10
51.85025227043334
 20
190.913653560907
 30
0.0
 11
51.85025227043334
 21
192.9337793758977
 31
0.0
  0
LINE
  5
13D
330
61
100
AcDbEntity
  8
1
  6
Continuous
 62
     7
100
AcDbLine
 10
73.72025227043343
 20
105.6559561501021
 30
0.0
 11
76.85025227043334
 21
105.382116633266
 31
0.0
  0
LINE
  5
13E
330
61
100
AcDbEntity
  8
1
  6
Continuous
 62
     7
100
AcDbLine
 10
51.85025227043334
 20
105.382116633266
 30
0.0
 11
51.85025227043334
 21
88.4757249273401
 31
0.0
  0
LINE
  5
13F
330
61
100
AcDbEntity
  8
1
  6
Continuous
 62
     7
100
AcDbLine
 10
76.85025227043334
 20
105.382116633266
 30
0.0
 11
76.85025227043334
 21
105.4757249273401
 31
0.0
  0
LINE
  5
140
330
61
100
AcDbEntity
  8
1
  6
Continuous
 62
     7
100
AcDbLine
 10
121.3502522704333
 20
81.9757249273401
 30
0.0
 11
121.3502522704333
 21
79.1602249273401
 31
0.0
  0
LINE
  5
141
330
61
100
AcDbEntity
  8
1
  6
Continuous
 62
     7
100
AcDbLine
 10
121.3502522704333
 20
94.9757249273401
 30
0.0
 11
121.3502522704333
 21
81.9757249273401
 31
0.0
  0
LINE
  5
142
330
61
100
AcDbEntity
  8
1
  6
Continuous
 62
     7
100
AcDbLine
 10
169.3502522704333
 20
99.4757249273401
 30
0.0
 11
169.8502522704333
 21
98.9757249273401
 31
0.0
  0
LINE
  5
143
330
61
100
AcDbEntity
  8
1
  6
Continuous
 62
     7
100
AcDbLine
 10
169.3502522704333
 20
99.4757249273401
 30
0.0
 11
163.8502522704333
 21
99.4757249273401
 31
0.0
  0
LINE
  5
144
330
61
100
AcDbEntity
  8
0
  6
Continuous
 62
     7
100
AcDbLine
 10
158.8502522704333
 20
104.4757249273401
 30
0.0
 11
158.8502522704333
 21
110.2015422170028
 31
0.0
  0
LINE
  5
145
330
61
100
AcDbEntity
  8
0
  6
Continuous
 62
     7
100
AcDbLine
 10
158.8502522704333
 20
110.2015422170028
 30
0.0
 11
158.3502522704333
 21
111.0675676207866
 31
0.0
  0
LINE
  5
146
330
61
100
AcDbEntity
  8
0
  6
Continuous
 62
     7
100
AcDbLine
 10
134.3502522704333
 20
111.0675676207866
 30
0.0
 11
133.8502522704333
 21
110.2015422170027
 31
0.0
  0
LINE
  5
147
330
61
100
AcDbEntity
  8
1
  6
Continuous
 62
     7
100
AcDbLine
 10
169.8502522704333
 20
77.9757249273401
 30
0.0
 11
169.3502818168555
 21
77.475754473762
 31
0.0
  0
LINE
  5
148
330
61
100
AcDbEntity
  8
1
  6
Continuous
 62
     7
100
AcDbLine
 10
134.3502522704333
 20
111.0675676207866
 30
0.0
 11
134.3502522704333
 21
113.905416215525
 31
0.0
  0
LINE
  5
149
330
61
100
AcDbEntity
  8
1
  6
Continuous
 62
     7
100
AcDbLine
 10
169.8502522704333
 20
77.9757249273401
 30
0.0
 11
169.8502522704333
 21
80.8757249273401
 31
0.0
  0
LINE
  5
14A
330
61
100
AcDbEntity
  8
1
  6
Continuous
 62
     7
100
AcDbLine
 10
169.8502522704333
 20
80.8757249273401
 30
0.0
 11
169.8502522704333
 21
98.9757249273401
 31
0.0
  0
LINE
  5
14B
330
61
100
AcDbEntity
  8
1
  6
Continuous
 62
     7
100
AcDbLine
 10
121.3502522704333
 20
79.1602249273401
 30
0.0
 11
122.5122522704333
 21
77.9982249273403
 31
0.0
  0
LINE
  5
14C
330
61
100
AcDbEntity
  8
1
  6
Continuous
 62
     7
100
AcDbLine
 10
122.5122522704333
 20
77.9982249273403
 30
0.0
 11
130.8502522704333
 21
77.9982249273403
 31
0.0
  0
LINE
  5
14D
330
61
100
AcDbEntity
  8
1
  6
Continuous
 62
     7
100
AcDbLine
 10
122.5122522704333
 20
98.95328402018389
 30
0.0
 11
121.3502522704333
 21
97.79128402018391
 31
0.0
  0
LINE
  5
14E
330
61
100
AcDbEntity
  8
1
  6
Continuous
 62
     7
100
AcDbLine
 10
121.3502522704333
 20
97.79128402018391
 30
0.0
 11
121.3502522704333
 21
94.9757249273401
 31
0.0
  0
LINE
  5
14F
330
61
100
AcDbEntity
  8
1
  6
Continuous
 62
     7
100
AcDbLine
 10
122.5122522704333
 20
98.95322492734009
 30
0.0
 11
122.5122522704333
 21
98.95328402018389
 31
0.0
  0
LINE
  5
150
330
61
100
AcDbEntity
  8
1
  6
Continuous
 62
     7
100
AcDbLine
 10
130.8502522704333
 20
98.95322492734009
 30
0.0
 11
122.5122522704333
 21
98.95322492734009
 31
0.0
  0
LINE
  5
151
330
61
100
AcDbEntity
  8
0
  6
Continuous
 62
     7
100
AcDbLine
 10
133.8502522704333
 20
110.2015422170027
 30
0.0
 11
133.8502522704333
 21
102.7032249273401
 31
0.0
  0
LINE
  5
152
330
61
100
AcDbEntity
  8
1
  6
Continuous
 62
     7
100
AcDbLine
 10
131.5487629376976
 20
99.78567752451731
 30
0.0
 11
130.8502522704333
 21
98.95322492734009
 31
0.0
  0
LINE
  5
153
330
61
100
AcDbEntity
  8
1
  6
Continuous
 62
     7
100
AcDbLine
 10
130.8502522704333
 20
77.9982249273403
 30
0.0
 11
131.4795769938163
 21
77.2482249273403
 31
0.0
  0
LINE
  5
154
330
61
100
AcDbEntity
  8
1
  6
Continuous
 62
     7
100
AcDbLine
 10
74.82775227043314
 20
183.413653560907
 30
0.0
 11
75.57775227043302
 21
184.0429782842899
 31
0.0
  0
LINE
  5
155
330
61
100
AcDbEntity
  8
0
  6
Continuous
 62
     2
100
AcDbLine
 10
73.66575227043325
 20
181.913653560907
 30
0.0
 11
74.82775227043314
 21
183.413653560907
 31
0.0
  0
LINE
  5
156
330
61
100
AcDbEntity
  8
0
  6
Continuous
 62
     2
100
AcDbLine
 10
53.87275227043332
 20
183.413653560907
 30
0.0
 11
55.03469317758945
 21
181.913653560907
 31
0.0
  0
LINE
  5
157
330
61
100
AcDbEntity
  8
1
  6
Continuous
 62
     7
100
AcDbLine
 10
73.66575227043325
 20
181.913653560907
 30
0.0
 11
74.82775227043314
 21
181.913653560907
 31
0.0
  0
LINE
  5
158
330
61
100
AcDbEntity
  8
1
  6
Continuous
 62
     7
100
AcDbLine
 10
74.82775227043314
 20
175.075653560907
 30
0.0
 11
73.66575227043325
 21
175.075653560907
 31
0.0
  0
LINE
  5
159
330
61
100
AcDbEntity
  8
1
  6
Continuous
 62
     7
100
AcDbLine
 10
73.66575227043325
 20
173.913653560907
 30
0.0
 11
74.82775227043314
 21
175.075653560907
 31
0.0
  0
LINE
  5
15A
330
61
100
AcDbEntity
  8
1
  6
Continuous
 62
     7
100
AcDbLine
 10
74.82775227043314
 20
175.075653560907
 30
0.0
 11
74.82775227043314
 21
183.413653560907
 31
0.0
  0
LINE
  5
15B
330
61
100
AcDbEntity
  8
1
  6
Continuous
 62
     2
100
AcDbLine
 10
55.03469317758945
 20
181.913653560907
 30
0.0
 11
55.03469317758945
 21
175.075653560907
 31
0.0
  0
LINE
  5
15C
330
61
100
AcDbEntity
  8
1
  6
Continuous
 62
     7
100
AcDbLine
 10
53.87269317758953
 20
175.075653560907
 30
0.0
 11
55.03469317758945
 21
173.913653560907
 31
0.0
  0
LINE
  5
15D
330
61
100
AcDbEntity
  8
1
  6
Continuous
 62
     7
100
AcDbLine
 10
55.03469317758945
 20
175.075653560907
 30
0.0
 11
53.87275227043332
 21
175.075653560907
 31
0.0
  0
LINE
  5
15E
330
61
100
AcDbEntity
  8
1
  6
Continuous
 62
     7
100
AcDbLine
 10
53.87269317758972
 20
181.913653560907
 30
0.0
 11
55.03469317758945
 21
181.913653560907
 31
0.0
  0
LINE
  5
15F
330
61
100
AcDbEntity
  8
1
  6
Continuous
 62
     2
100
AcDbLine
 10
73.66575227043325
 20
175.075653560907
 30
0.0
 11
73.66575227043325
 21
181.913653560907
 31
0.0
  0
LINE
  5
160
330
61
100
AcDbEntity
  8
1
  6
Continuous
 62
     2
100
AcDbLine
 10
73.66575227043325
 20
173.913653560907
 30
0.0
 11
73.66575227043325
 21
175.075653560907
 31
0.0
  0
LINE
  5
161
330
61
100
AcDbEntity
  8
1
  6
Continuous
 62
     7
100
AcDbLine
 10
55.03469317758945
 20
173.913653560907
 30
0.0
 11
58.13859518797273
 21
173.913653560907
 31
0.0
  0
LINE
  5
162
330
61
100
AcDbEntity
  8
1
  6
Continuous
 62
     2
100
AcDbLine
 10
55.03469317758945
 20
175.075653560907
 30
0.0
 11
55.03469317758945
 21
173.913653560907
 31
0.0
  0
LINE
  5
163
330
61
100
AcDbEntity
  8
1
  6
Continuous
 62
     7
100
AcDbLine
 10
53.87275227043332
 20
175.075653560907
 30
0.0
 11
53.87269317758953
 21
175.075653560907
 31
0.0
  0
LINE
  5
164
330
61
100
AcDbEntity
  8
1
  6
Continuous
 62
     7
100
AcDbLine
 10
55.03469317758945
 20
181.913653560907
 30
0.0
 11
55.99500164852373
 21
181.913653560907
 31
0.0
  0
LINE
  5
165
330
61
100
AcDbEntity
  8
1
  6
Continuous
 62
     7
100
AcDbLine
 10
73.66575227043325
 20
175.075653560907
 30
0.0
 11
70.87326631449872
 21
175.075653560907
 31
0.0
  0
LINE
  5
166
330
61
100
AcDbEntity
  8
1
  6
Continuous
 62
     7
100
AcDbLine
 10
53.87275227043332
 20
183.413653560907
 30
0.0
 11
53.87275227043332
 21
175.075653560907
 31
0.0
  0
LINE
  5
167
330
61
100
AcDbEntity
  8
1
  6
Continuous
 62
     7
100
AcDbLine
 10
53.12275227043352
 20
184.04297828429
 30
0.0
 11
53.87275227043332
 21
183.413653560907
 31
0.0
  0
LINE
  5
168
330
61
100
AcDbEntity
  8
1
  6
Continuous
 62
     7
100
AcDbLine
 10
74.85025227043315
 20
222.4136535609069
 30
0.0
 11
75.35025227043334
 21
221.9136535609069
 31
0.0
  0
LINE
  5
169
330
61
100
AcDbEntity
  8
1
  6
Continuous
 62
     7
100
AcDbLine
 10
64.35025227043334
 20
222.4136535609069
 30
0.0
 11
74.85025227043315
 21
222.4136535609069
 31
0.0
  0
LINE
  5
16A
330
61
100
AcDbEntity
  8
1
  6
Continuous
 62
     7
100
AcDbLine
 10
64.35025227043334
 20
221.9136535609069
 30
0.0
 11
75.35025227043334
 21
221.9136535609069
 31
0.0
  0
LINE
  5
16B
330
61
100
AcDbEntity
  8
1
  6
Continuous
 62
     7
100
AcDbLine
 10
53.35025227043334
 20
221.913653560907
 30
0.0
 11
64.35025227043334
 21
221.9136535609069
 31
0.0
  0
LINE
  5
16C
330
61
100
AcDbEntity
  8
1
  6
Continuous
 62
     7
100
AcDbLine
 10
53.85025227043334
 20
222.413653560907
 30
0.0
 11
64.35025227043334
 21
222.4136535609069
 31
0.0
  0
LINE
  5
16D
330
61
100
AcDbEntity
  8
1
  6
Continuous
 62
     7
100
AcDbLine
 10
53.35025227043334
 20
221.913653560907
 30
0.0
 11
53.85025227043334
 21
222.413653560907
 31
0.0
  0
LINE
  5
16E
330
61
100
AcDbEntity
  8
0
  6
Continuous
 62
     7
100
AcDbLine
 10
52.35025227043334
 20
111.0675676207866
 30
0.0
 11
52.35025227043334
 21
113.9054162155251
 31
0.0
  0
LINE
  5
16F
330
61
100
AcDbEntity
  8
0
  6
Continuous
 62
     2
100
AcDbLine
 10
53.16025227043355
 20
112.4757249273401
 30
0.0
 11
53.16025227043355
 21
113.9054162155251
 31
0.0
  0
LINE
  5
170
330
61
100
AcDbEntity
  8
0
  6
Continuous
 62
     2
100
AcDbLine
 10
75.54025227043343
 20
113.9054162155251
 30
0.0
 11
75.54025227043343
 21
112.4757249273401
 31
0.0
  0
LINE
  5
171
330
61
100
AcDbEntity
  8
0
  6
Continuous
 62
     7
100
AcDbLine
 10
76.35025227043334
 20
113.9054162155251
 30
0.0
 11
76.35025227043334
 21
111.0675676207866
 31
0.0
  0
LINE
  5
172
330
61
100
AcDbEntity
  8
0
  6
Continuous
 62
     7
100
AcDbLine
 10
76.35025227043334
 20
112.4757249273401
 30
0.0
 11
52.35025227043334
 21
112.4757249273401
 31
0.0
  0
LINE
  5
173
330
61
100
AcDbEntity
  8
0
  6
Continuous
 62
     2
100
AcDbLine
 10
75.54025227043343
 20
112.4757249273401
 30
0.0
 11
76.35025227043334
 21
111.0675676207866
 31
0.0
  0
LINE
  5
174
330
61
100
AcDbEntity
  8
0
  6
Continuous
 62
     7
100
AcDbLine
 10
76.35025227043334
 20
111.0675676207866
 30
0.0
 11
76.85025227043334
 21
110.2015422170027
 31
0.0
  0
LINE
  5
175
330
61
100
AcDbEntity
  8
0
  6
Continuous
 62
     2
100
AcDbLine
 10
52.35025227043334
 20
111.0675676207866
 30
0.0
 11
53.16025227043355
 21
112.4757249273401
 31
0.0
  0
LINE
  5
176
330
61
100
AcDbEntity
  8
0
  6
Continuous
 62
     7
100
AcDbLine
 10
51.85025227043334
 20
110.2015422170027
 30
0.0
 11
52.35025227043334
 21
111.0675676207866
 31
0.0
  0
LINE
  5
177
330
61
100
AcDbEntity
  8
1
  6
Continuous
 62
     7
100
AcDbLine
 10
76.85025227043334
 20
88.4757249273401
 30
0.0
 11
76.85025227043334
 21
105.382116633266
 31
0.0
  0
LINE
  5
178
330
61
100
AcDbEntity
  8
1
  6
Continuous
 62
     7
100
AcDbLine
 10
51.85025227043334
 20
110.2015422170027
 30
0.0
 11
51.85025227043334
 21
105.4757249273401
 31
0.0
  0
LINE
  5
179
330
61
100
AcDbEntity
  8
1
  6
Continuous
 62
     7
100
AcDbLine
 10
51.85025227043334
 20
88.4757249273401
 30
0.0
 11
51.85025227043334
 21
77.02158525212229
 31
0.0
  0
LINE
  5
17A
330
61
100
AcDbEntity
  8
1
  6
Continuous
 62
     7
100
AcDbLine
 10
76.85025227043334
 20
77.02158525212229
 30
0.0
 11
76.85025227043334
 21
88.4757249273401
 31
0.0
  0
LINE
  5
17B
330
61
100
AcDbEntity
  8
1
  6
PHANTOM
 62
     4
100
AcDbLine
 10
64.35025227043334
 20
75.9279769580482
 30
0.0
 11
64.85025227043334
 21
75.9279769580482
 31
0.0
  0
LINE
  5
17C
330
61
100
AcDbEntity
  8
1
  6
Continuous
 62
     7
100
AcDbLine
 10
51.85025227043334
 20
105.382116633266
 30
0.0
 11
54.98025227043343
 21
105.6559561501021
 31
0.0
  0
LINE
  5
17D
330
61
100
AcDbEntity
  8
1
  6
Continuous
 62
     7
100
AcDbLine
 10
51.85025227043334
 20
105.4757249273401
 30
0.0
 11
51.85025227043334
 21
105.382116633266
 31
0.0
  0
LINE
  5
17E
330
61
100
AcDbEntity
  8
1
  6
Continuous
 62
     7
100
AcDbLine
 10
76.85025227043334
 20
105.4757249273401
 30
0.0
 11
76.85025227043334
 21
110.2015422170027
 31
0.0
  0
LINE
  5
17F
330
61
100
AcDbEntity
  8
1
  6
Continuous
 62
     7
100
AcDbLine
 10
53.87275227043332
 20
183.413653560907
 30
0.0
 11
55.59307785987713
 21
183.413653560907
 31
0.0
  0
LINE
  5
180
330
61
100
AcDbEntity
  8
1
  6
Continuous
 62
     7
100
AcDbLine
 10
76.35025227043334
 20
111.0675676207866
 30
0.0
 11
52.35025227043334
 21
111.0675676207866
 31
0.0
  0
LINE
  5
181
330
61
100
AcDbEntity
  8
1
  6
Continuous
 62
     7
100
AcDbLine
 10
135.1632522704335
 20
112.4757249273401
 30
0.0
 11
134.3502522704333
 21
112.4757249273401
 31
0.0
  0
LINE
  5
182
330
61
100
AcDbEntity
  8
1
  6
Continuous
 62
     7
100
AcDbLine
 10
158.3502522704333
 20
112.4757249273401
 30
0.0
 11
157.5372522704334
 21
112.4757249273401
 31
0.0
  0
LINE
  5
183
330
61
100
AcDbEntity
  8
1
  6
Continuous
 62
     2
100
AcDbLine
 10
157.5372522704334
 20
112.4757249273401
 30
0.0
 11
157.5372522704334
 21
113.905416215525
 31
0.0
  0
LINE
  5
184
330
61
100
AcDbEntity
  8
1
  6
Continuous
 62
     2
100
AcDbLine
 10
158.3502522704333
 20
111.0675676207866
 30
0.0
 11
157.5372522704334
 21
112.4757249273401
 31
0.0
  0
LINE
  5
185
330
61
100
AcDbEntity
  8
1
  6
Continuous
 62
     2
100
AcDbLine
 10
135.1632522704335
 20
112.4757249273401
 30
0.0
 11
134.3502522704333
 21
111.0675676207866
 31
0.0
  0
LINE
  5
186
330
61
100
AcDbEntity
  8
1
  6
Continuous
 62
     7
100
AcDbLine
 10
129.3502522704333
 20
79.1602249273402
 30
0.0
 11
129.3502522704333
 21
77.9982249273403
 31
0.0
  0
LINE
  5
187
330
61
100
AcDbEntity
  8
1
  6
Continuous
 62
     7
100
AcDbLine
 10
122.5122522704333
 20
77.9982249273403
 30
0.0
 11
122.5122522704333
 21
79.1602249273401
 31
0.0
  0
LINE
  5
188
330
61
100
AcDbEntity
  8
1
  6
Continuous
 62
     2
100
AcDbLine
 10
122.5122522704333
 20
79.1602249273401
 30
0.0
 11
129.3502522704333
 21
79.1602249273402
 31
0.0
  0
LINE
  5
189
330
61
100
AcDbEntity
  8
1
  6
Continuous
 62
     2
100
AcDbLine
 10
121.3502522704333
 20
79.1602249273401
 30
0.0
 11
122.5122522704333
 21
79.1602249273401
 31
0.0
  0
LINE
  5
18A
330
61
100
AcDbEntity
  8
1
  6
Continuous
 62
     2
100
AcDbLine
 10
129.3502522704333
 20
79.1602249273402
 30
0.0
 11
130.8502522704333
 21
77.9982249273403
 31
0.0
  0
LINE
  5
18B
330
61
100
AcDbEntity
  8
1
  6
Continuous
 62
     7
100
AcDbLine
 10
129.3502522704333
 20
98.95322492734
 30
0.0
 11
129.3502522704333
 21
97.79122492733991
 31
0.0
  0
LINE
  5
18C
330
61
100
AcDbEntity
  8
1
  6
Continuous
 62
     7
100
AcDbLine
 10
122.5122522704333
 20
97.7912249273402
 30
0.0
 11
122.5122522704333
 21
98.95322492734009
 31
0.0
  0
LINE
  5
18D
330
61
100
AcDbEntity
  8
1
  6
Continuous
 62
     7
100
AcDbLine
 10
122.5122522704333
 20
98.95322492734009
 30
0.0
 11
121.3502522704333
 21
97.7912249273402
 31
0.0
  0
LINE
  5
18E
330
61
100
AcDbEntity
  8
1
  6
Continuous
 62
     2
100
AcDbLine
 10
130.8502522704333
 20
98.95322492734009
 30
0.0
 11
129.3502522704333
 21
97.79122492733991
 31
0.0
  0
LINE
  5
18F
330
61
100
AcDbEntity
  8
1
  6
Continuous
 62
     2
100
AcDbLine
 10
129.3502522704333
 20
97.79122492733991
 30
0.0
 11
122.5122522704333
 21
97.7912249273402
 31
0.0
  0
LINE
  5
190
330
61
100
AcDbEntity
  8
1
  6
Continuous
 62
     2
100
AcDbLine
 10
122.5122522704333
 20
97.7912249273402
 30
0.0
 11
121.3502522704333
 21
97.7912249273402
 31
0.0
  0
LINE
  5
191
330
61
100
AcDbEntity
  8
1
  6
Continuous
 62
     7
100
AcDbLine
 10
159.8777381495835
 20
77.475754473762
 30
0.0
 11
169.3502522704333
 21
77.475754473762
 31
0.0
  0
LINE
  5
192
330
61
100
AcDbEntity
  8
1
  6
Continuous
 62
     7
100
AcDbLine
 10
64.35025227043334
 20
75.9279769580482
 30
0.0
 11
76.85025227043334
 21
77.02158525212229
 31
0.0
  0
LINE
  5
193
330
61
100
AcDbEntity
  8
1
  6
Continuous
 62
     7
100
AcDbLine
 10
51.85025227043334
 20
77.02158525212229
 30
0.0
 11
64.35025227043334
 21
75.9279769580482
 31
0.0
  0
LINE
  5
194
330
61
100
AcDbEntity
  8
1
  6
Continuous
 62
     7
100
AcDbLine
 10
53.12275227043352
 20
184.04297828429
 30
0.0
 11
53.12275227043344
 21
187.1511817224711
 31
0.0
  0
LINE
  5
195
330
61
100
AcDbEntity
  8
1
  6
Continuous
 62
     7
100
AcDbLine
 10
53.35025227043334
 20
221.913653560907
 30
0.0
 11
53.35025227043334
 21
214.7714815708879
 31
0.0
  0
LINE
  5
196
330
61
100
AcDbEntity
  8
1
  6
Continuous
 62
     7
100
AcDbLine
 10
75.57775227043314
 20
187.151181722471
 30
0.0
 11
75.57775227043302
 21
184.0429782842899
 31
0.0
  0
LINE
  5
197
330
61
100
AcDbEntity
  8
1
  6
Continuous
 62
     7
100
AcDbLine
 10
131.4795769938163
 20
77.2482249273403
 30
0.0
 11
133.1213941918724
 21
77.2482249273403
 31
0.0
  0
LINE
  5
198
330
61
100
AcDbEntity
  8
1
  6
Continuous
 62
     7
100
AcDbLine
 10
137.6712470221895
 20
75.9279769580482
 30
0.0
 11
146.3502522704333
 21
75.9279769580482
 31
0.0
  0
LINE
  5
199
330
61
100
AcDbEntity
  8
1
  6
Continuous
 62
     7
100
AcDbLine
 10
146.3502522704333
 20
75.9279769580482
 30
0.0
 11
154.9872777899665
 21
75.9279769580482
 31
0.0
  0
LINE
  5
19A
330
61
100
AcDbEntity
  8
1
  6
Continuous
 62
     7
100
AcDbLine
 10
75.35025227043334
 20
214.7714815708878
 30
0.0
 11
75.35025227043334
 21
221.9136535609069
 31
0.0
  0
LINE
  5
19B
330
61
100
AcDbEntity
  8
1
  6
Continuous
 62
     7
100
AcDbLine
 10
57.82723822636783
 20
175.075653560907
 30
0.0
 11
55.03469317758945
 21
175.075653560907
 31
0.0
  0
LINE
  5
19C
330
61
100
AcDbEntity
  8
1
  6
Continuous
 62
     7
100
AcDbLine
 10
70.56190935289362
 20
173.913653560907
 30
0.0
 11
73.66575227043325
 21
173.913653560907
 31
0.0
  0
LINE
  5
19D
330
61
100
AcDbEntity
  8
1
  6
Continuous
 62
     7
100
AcDbLine
 10
72.70550289234262
 20
181.913653560907
 30
0.0
 11
73.66575227043325
 21
181.913653560907
 31
0.0
  0
LINE
  5
19E
330
61
100
AcDbEntity
  8
1
  6
Continuous
 62
     7
100
AcDbLine
 10
73.10742668098945
 20
183.413653560907
 30
0.0
 11
74.82775227043314
 21
183.413653560907
 31
0.0
  0
LINE
  5
19F
330
61
100
AcDbEntity
  8
0
  6
Continuous
 62
     7
100
AcDbLine
 10
135.1632522704335
 20
112.4757249273401
 30
0.0
 11
157.5372522704334
 21
112.4757249273401
 31
0.0
  0
LINE
  5
1A0
330
61
100
AcDbEntity
  8
0
  6
Continuous
 62
     7
100
AcDbLine
 10
122.5122522704333
 20
97.7912249273402
 30
0.0
 11
122.5122522704333
 21
79.1602249273401
 31
0.0
  0
LINE
  5
1A1
330
61
100
AcDbEntity
  8
0
  6
Continuous
 62
     7
100
AcDbLine
 10
129.3502522704333
 20
97.79122492733991
 30
0.0
 11
129.3502522704333
 21
79.1602249273402
 31
0.0
  0
LINE
  5
1A2
330
61
100
AcDbEntity
  8
0
  6
Continuous
 62
     7
100
AcDbLine
 10
169.3502522704333
 20
99.4757249273401
 30
0.0
 11
169.3502522704333
 21
77.475754473762
 31
0.0
  0
LINE
  5
1A3
330
61
100
AcDbEntity
  8
1
  6
Continuous
 62
     7
100
AcDbLine
 10
169.3502522704333
 20
77.475754473762
 30
0.0
 11
169.3502818168555
 21
77.475754473762
 31
0.0
  0
LINE
  5
1A4
330
61
100
AcDbEntity
  8
1
  6
Continuous
 62
     2
100
AcDbLine
 10
135.1632522704335
 20
113.905416215525
 30
0.0
 11
135.1632522704335
 21
112.4757249273401
 31
0.0
  0
LINE
  5
1A5
330
61
100
AcDbEntity
  8
1
  6
Continuous
 62
     7
100
AcDbLine
 10
158.3502522704333
 20
113.905416215525
 30
0.0
 11
158.3502522704333
 21
111.0675676207866
 31
0.0
  0
LINE
  5
1A6
330
61
100
AcDbEntity
  8
0
  6
Continuous
 62
     7
100
AcDbLine
 10
130.8502522704333
 20
98.95322492734009
 30
0.0
 11
130.8502522704333
 21
77.9982249273403
 31
0.0
  0
LINE
  5
1A7
330
61
100
AcDbEntity
  8
0
  6
Continuous
 62
     7
100
AcDbLine
 10
134.3502522704333
 20
111.0675676207866
 30
0.0
 11
158.3502522704333
 21
111.0675676207866
 31
0.0
  0
LINE
  5
1A8
330
61
100
AcDbEntity
  8
1
  6
Continuous
 62
     7
100
AcDbLine
 10
158.3502522704333
 20
113.905416215525
 30
0.0
 11
158.3502522704333
 21
111.0675676207866
 31
0.0
  0
LINE
  5
1A9
330
61
100
AcDbEntity
  8
1
  6
Continuous
 62
     7
100
AcDbLine
 10
152.8502522704333
 20
105.3383723015031
 30
0.0
 11
139.8502522704333
 21
105.3383723015031
 31
0.0
  0
LINE
  5
1AA
330
61
100
AcDbEntity
  8
1
  6
Continuous
 62
     7
100
AcDbLine
 10
154.3502522704333
 20
103.8383723015031
 30
0.0
 11
154.3502522704333
 21
78.52158525212229
 31
0.0
  0
LINE
  5
1AB
330
61
100
AcDbEntity
  8
1
  6
Continuous
 62
     7
100
AcDbLine
 10
138.3502522704333
 20
78.52158525212229
 30
0.0
 11
138.3502522704333
 21
103.8383723015031
 31
0.0
  0
LINE
  5
1AC
330
61
100
AcDbEntity
  8
1
  6
Continuous
 62
     7
100
AcDbLine
 10
152.8502522704333
 20
77.02158525212229
 30
0.0
 11
139.8502522704333
 21
77.02158525212229
 31
0.0
  0
ARC
  5
1AD
330
61
100
AcDbEntity
  8
1
  6
Continuous
 62
     7
100
AcDbCircle
 10
59.10025227043334
 20
89.7257249273401
 30
0.0
 40
0.75
100
AcDbArc
 50
90.0
 51
180.0
  0
ARC
  5
1AE
330
61
100
AcDbEntity
  8
1
  6
Continuous
 62
     7
100
AcDbCircle
 10
69.60025227043334
 20
89.7257249273401
 30
0.0
 40
0.75
100
AcDbArc
 50
0.0
 51
90.0
  0
ARC
  5
1AF
330
61
100
AcDbEntity
  8
1
  6
Continuous
 62
     7
100
AcDbCircle
 10
64.35025227043334
 20
88.4757249273401
 30
0.0
 40
6.5
100
AcDbArc
 50
0.0
 51
8.84988309842905
  0
ARC
  5
1B0
330
61
100
AcDbEntity
  8
1
  6
Continuous
 62
     7
100
AcDbCircle
 10
64.35025227043334
 20
88.4757249273401
 30
0.0
 40
6.499999999999988
100
AcDbArc
 50
171.150116901571
 51
0.0
  0
ARC
  5
1B1
330
61
100
AcDbEntity
  8
1
  6
Continuous
 62
     7
100
AcDbCircle
 10
64.35025227043334
 20
88.4757249273401
 30
0.0
 40
6.499999999999988
100
AcDbArc
 50
8.84988309842905
 51
171.150116901571
  0
ARC
  5
1B2
330
61
100
AcDbEntity
  8
1
  6
Continuous
 62
     7
100
AcDbCircle
 10
64.35025227043334
 20
88.4757249273401
 30
0.0
 40
12.50000000000001
100
AcDbArc
 50
180.0
 51
0.0
  0
ARC
  5
1B3
330
61
100
AcDbEntity
  8
1
  6
Continuous
 62
     7
100
AcDbCircle
 10
48.10218017450492
 20
187.6042796678991
 30
0.0
 40
5.000000000000418
100
AcDbArc
 50
5.19925258849443
 51
41.44301127610802
  0
ARC
  5
1B4
330
61
100
AcDbEntity
  8
1
  6
Continuous
 62
     7
100
AcDbCircle
 10
80.59832436636154
 20
187.604279667899
 30
0.0
 40
4.999999999999849
100
AcDbArc
 50
138.5569887238893
 51
174.8007474115053
  0
ARC
  5
1B5
330
61
100
AcDbEntity
  8
1
  6
Continuous
 62
     7
100
AcDbCircle
 10
159.8777381495835
 20
70.475754473762
 30
0.0
 40
7.0
100
AcDbArc
 50
90.0
 51
125.1240259374055
  0
ARC
  5
1B6
330
61
100
AcDbEntity
  8
1
  6
Continuous
 62
     7
100
AcDbCircle
 10
133.1213941918724
 20
70.2482249273403
 30
0.0
 40
7.000000000000028
100
AcDbArc
 50
57.63731450456084
 51
90.0
  0
CIRCLE
  5
1B7
330
61
100
AcDbEntity
  8
1
  6
Continuous
 62
     2
100
AcDbCircle
 10
64.35025227043334
 20
88.4757249273401
 30
0.0
 40
9.315500000000043
  0
CIRCLE
  5
1B8
330
61
100
AcDbEntity
  8
1
  6
Continuous
 62
     7
100
AcDbCircle
 10
64.35025227043334
 20
88.4757249273401
 30
0.0
 40
10.47749999999985
  0
CIRCLE
  5
1B9
330
61
100
AcDbEntity
  8
1
  6
Continuous
 62
     7
100
AcDbCircle
 10
64.35025227043334
 20
88.4757249273401
 30
0.0
 40
11.22749999999985
  0
ARC
  5
1BA
330
61
100
AcDbEntity
  8
1
  6
Continuous
 62
     7
100
AcDbCircle
 10
130.8502522704333
 20
102.7032249273401
 30
0.0
 40
3.000000000000008
100
AcDbArc
 50
283.4641490143969
 51
0.0
  0
ARC
  5
1BB
330
61
100
AcDbEntity
  8
1
  6
Continuous
 62
     7
100
AcDbCircle
 10
163.8502522704333
 20
104.4757249273401
 30
0.0
 40
5.0
100
AcDbArc
 50
180.0
 51
270.0
  0
ARC
  5
1BC
330
61
100
AcDbEntity
  8
1
  6
Continuous
 62
     7
100
AcDbCircle
 10
43.12275227043344
 20
187.1511817224711
 30
0.0
 40
10.0
100
AcDbArc
 50
0.0
 51
5.19925258849481
  0
ARC
  5
1BD
330
61
100
AcDbEntity
  8
1
  6
Continuous
 62
     7
100
AcDbCircle
 10
85.57775227043314
 20
187.151181722471
 30
0.0
 40
9.999999999999902
100
AcDbArc
 50
174.8007474115051
 51
180.0
  0
ARC
  5
1BE
330
61
100
AcDbEntity
  8
1
  6
Continuous
 62
     7
100
AcDbCircle
 10
85.57775227043314
 20
187.151181722471
 30
0.0
 40
9.999999999999902
100
AcDbArc
 50
174.8007474115051
 51
180.0
  0
ARC
  5
1BF
330
61
100
AcDbEntity
  8
1
  6
Continuous
 62
     7
100
AcDbCircle
 10
85.57775227043314
 20
187.151181722471
 30
0.0
 40
9.999999999999902
100
AcDbArc
 50
174.8007474115051
 51
180.0
  0
ARC
  5
1C0
330
61
100
AcDbEntity
  8
1
  6
Continuous
 62
     7
100
AcDbCircle
 10
154.9872777899665
 20
77.4279769580482
 30
0.0
 40
1.5
100
AcDbArc
 50
270.0
 51
305.1240259373985
  0
ARC
  5
1C1
330
61
100
AcDbEntity
  8
1
  6
Continuous
 62
     7
100
AcDbCircle
 10
137.6712470221895
 20
77.4279769580482
 30
0.0
 40
1.499999999999896
100
AcDbArc
 50
237.6373145045613
 51
270.0
  0
ARC
  5
1C2
330
61
100
AcDbEntity
  8
0
  6
Continuous
 62
     7
100
AcDbCircle
 10
139.8502522704333
 20
103.8383723015031
 30
0.0
 40
1.5
100
AcDbArc
 50
90.0
 51
180.0
  0
ARC
  5
1C3
330
61
100
AcDbEntity
  8
0
  6
Continuous
 62
     7
100
AcDbCircle
 10
139.8502522704333
 20
78.52158525212229
 30
0.0
 40
1.5
100
AcDbArc
 50
180.0
 51
270.0
  0
ARC
  5
1C4
330
61
100
AcDbEntity
  8
0
  6
Continuous
 62
     7
100
AcDbCircle
 10
152.8502522704333
 20
78.52158525212229
 30
0.0
 40
1.5
100
AcDbArc
 50
270.0
 51
0.0
  0
ARC
  5
1C5
330
61
100
AcDbEntity
  8
0
  6
Continuous
 62
     7
100
AcDbCircle
 10
152.8502522704333
 20
103.8383723015031
 30
0.0
 40
1.5
100
AcDbArc
 50
0.0
 51
90.0
  0
ENDBLK
  5
63
330
61
100
AcDbEntity
  8
0
100
AcDbBlockEnd
  0
BLOCK
  5
65
330
64
100
AcDbEntity
  8
0
100
AcDbBlockBegin
  2
35-22
 70
     0
 10
86.87861562057495
 20
123.691204945874
 30
0.0
  3
35-22
  1

  0
LINE
  5
1C6
330
64
100
AcDbEntity
  8
1
  6
Continuous
 62
     7
100
AcDbLine
 10
72.95025227043334
 20
223.4136535609072
 30
0.0
 11
72.95025227043334
 21
222.4136535609072
 31
0.0
  0
LINE
  5
1C7
330
64
100
AcDbEntity
  8
1
  6
Continuous
 62
     7
100
AcDbLine
 10
55.75025227043332
 20
222.4136535609072
 30
0.0
 11
55.75025227043332
 21
223.4136535609072
 31
0.0
  0
LINE
  5
1C8
330
64
100
AcDbEntity
  8
1
  6
Continuous
 62
     7
100
AcDbLine
 10
169.8502522704333
 20
97.07572492734009
 30
0.0
 11
170.8502522704333
 21
97.07572492734009
 31
0.0
  0
LINE
  5
1C9
330
64
100
AcDbEntity
  8
1
  6
Continuous
 62
     7
100
AcDbLine
 10
170.8502522704333
 20
79.8757249273401
 30
0.0
 11
169.8502522704333
 21
79.8757249273401
 31
0.0
  0
ENDBLK
  5
66
330
64
100
AcDbEntity
  8
0
100
AcDbBlockEnd
  0
BLOCK
  5
68
330
67
100
AcDbEntity
  8
0
100
AcDbBlockBegin
  2
32-26-M11-314
 70
     0
 10
7.75025227043345
 20
289.1912209889001
 30
0.0
  3
32-26-M11-314
  1

  0
LINE
  5
1CA
330
67
100
AcDbEntity
  8
1
  6
Continuous
 62
     7
100
AcDbLine
 10
77.55158274762712
 20
87.3411000413473
 30
0.0
 11
76.85025227043334
 21
86.1263600219511
 31
0.0
  0
LINE
  5
1CB
330
67
100
AcDbEntity
  8
1
  6
Continuous
 62
     7
100
AcDbLine
 10
51.14892179323954
 20
89.610349813333
 30
0.0
 11
51.85025227043334
 21
90.8250898327291
 31
0.0
  0
LINE
  5
1CC
330
67
100
AcDbEntity
  8
1
  6
Continuous
 62
     7
100
AcDbLine
 10
52.99000924878894
 20
236.9136535609071
 30
0.0
 11
75.71049529207792
 21
236.913653560907
 31
0.0
  0
LINE
  5
1CD
330
67
100
AcDbEntity
  8
1
  6
Continuous
 62
     7
100
AcDbLine
 10
52.99000924878894
 20
223.4136535609071
 30
0.0
 11
75.71049529207792
 21
223.413653560907
 31
0.0
  0
LINE
  5
1CE
330
67
100
AcDbEntity
  8
1
  6
Continuous
 62
     7
100
AcDbLine
 10
51.85025227043334
 20
86.1263600219511
 30
0.0
 11
51.14892179323954
 21
87.3411000413473
 31
0.0
  0
LINE
  5
1CF
330
67
100
AcDbEntity
  8
1
  6
Continuous
 62
     7
100
AcDbLine
 10
76.85025227043334
 20
90.8250898327291
 30
0.0
 11
77.55158274762712
 21
89.610349813333
 31
0.0
  0
LINE
  5
1D0
330
67
100
AcDbEntity
  8
1
  6
Continuous
 62
     7
100
AcDbLine
 10
184.3502522704333
 20
99.83596794898459
 30
0.0
 11
184.3502522704333
 21
98.8257249273402
 31
0.0
  0
LINE
  5
1D1
330
67
100
AcDbEntity
  8
1
  6
Continuous
 62
     7
100
AcDbLine
 10
172.0381034051117
 20
100.4757249273401
 30
0.0
 11
183.1624011357551
 21
100.4757249273401
 31
0.0
  0
LINE
  5
1D2
330
67
100
AcDbEntity
  8
1
  6
Continuous
 62
     7
100
AcDbLine
 10
184.3502522704333
 20
98.66372492734011
 30
0.0
 11
184.3502522704333
 21
78.1257249273401
 31
0.0
  0
LINE
  5
1D3
330
67
100
AcDbEntity
  8
1
  6
Continuous
 62
     7
100
AcDbLine
 10
184.3502522704333
 20
78.1257249273401
 30
0.0
 11
184.3502522704333
 21
77.1154819056957
 31
0.0
  0
LINE
  5
1D4
330
67
100
AcDbEntity
  8
1
  6
Continuous
 62
     7
100
AcDbLine
 10
170.8502522704333
 20
99.83596794898459
 30
0.0
 11
170.8502522704333
 21
79.8757249273401
 31
0.0
  0
LINE
  5
1D5
330
67
100
AcDbEntity
  8
1
  6
Continuous
 62
     7
100
AcDbLine
 10
183.1624011357551
 20
76.4757249273401
 30
0.0
 11
172.0381034051117
 21
76.4757249273401
 31
0.0
  0
LINE
  5
1D6
330
67
100
AcDbEntity
  8
1
  6
Continuous
 62
     7
100
AcDbLine
 10
170.8502522704333
 20
79.8757249273401
 30
0.0
 11
170.8502522704333
 21
77.1154819056957
 31
0.0
  0
ARC
  5
1D7
330
67
100
AcDbEntity
  8
1
  6
Continuous
 62
     7
100
AcDbCircle
 10
64.35025227043334
 20
88.4757249273401
 30
0.0
 40
13.24999999999998
100
AcDbArc
 50
355.0876278415119
 51
4.91237215848861
  0
ARC
  5
1D8
330
67
100
AcDbEntity
  8
1
  6
Continuous
 62
     7
100
AcDbCircle
 10
64.35025227043334
 20
88.4757249273401
 30
0.0
 40
13.25000000000002
100
AcDbArc
 50
175.0876278415114
 51
184.9123721584881
  0
ARC
  5
1D9
330
67
100
AcDbEntity
  8
1
  6
Continuous
 62
     7
100
AcDbCircle
 10
64.54727424455774
 20
230.1633791974157
 30
0.0
 40
5.987636470588095
100
AcDbArc
 50
0.00262538819547
 51
51.89516729397603
  0
ARC
  5
1DA
330
67
100
AcDbEntity
  8
1
  6
Continuous
 62
     7
100
AcDbCircle
 10
64.29931835221143
 20
230.3639612788308
 30
0.0
 40
6.238808798172343
100
AcDbArc
 50
270.4677705411074
 51
358.160103968656
  0
ARC
  5
1DB
330
67
100
AcDbEntity
  8
1
  6
Continuous
 62
     7
100
AcDbCircle
 10
64.33470595948143
 20
229.892327901029
 30
0.0
 40
6.332098487497254
100
AcDbArc
 50
51.89516729397691
 51
89.85932958857553
  0
ARC
  5
1DC
330
67
100
AcDbEntity
  8
1
  6
Continuous
 62
     7
100
AcDbCircle
 10
64.60025227043343
 20
230.163653560907
 30
0.0
 40
13.00000000000001
100
AcDbArc
 50
328.7193328479515
 51
31.28066715204843
  0
ARC
  5
1DD
330
67
100
AcDbEntity
  8
1
  6
Continuous
 62
     7
100
AcDbCircle
 10
64.15323029630903
 20
230.1633791974157
 30
0.0
 40
5.987636470587921
100
AcDbArc
 50
128.1048327060231
 51
179.9973746118045
  0
ARC
  5
1DE
330
67
100
AcDbEntity
  8
1
  6
Continuous
 62
     7
100
AcDbCircle
 10
64.40118618865554
 20
230.3639612788308
 30
0.0
 40
6.23880879817247
100
AcDbArc
 50
181.8398960313439
 51
269.5322294588916
  0
ARC
  5
1DF
330
67
100
AcDbEntity
  8
1
  6
Continuous
 62
     7
100
AcDbCircle
 10
64.36579858138535
 20
229.892327901029
 30
0.0
 40
6.332098487497178
100
AcDbArc
 50
90.1406704114237
 51
128.1048327060223
  0
ARC
  5
1E0
330
67
100
AcDbEntity
  8
1
  6
Continuous
 62
     7
100
AcDbCircle
 10
64.10025227043343
 20
230.163653560907
 30
0.0
 40
13.00000000000007
100
AcDbArc
 50
148.7193328479511
 51
211.280667152048
  0
ARC
  5
1E1
330
67
100
AcDbEntity
  8
1
  6
Continuous
 62
     7
100
AcDbCircle
 10
177.6002522704333
 20
88.7257249273401
 30
0.0
 40
12.99999999999993
100
AcDbArc
 50
115.3316750167123
 51
121.2806671520484
  0
ARC
  5
1E2
330
67
100
AcDbEntity
  8
1
  6
Continuous
 62
     7
100
AcDbCircle
 10
177.6002522704333
 20
88.7257249273401
 30
0.0
 40
13.00000000000001
100
AcDbArc
 50
58.71933284795157
 51
64.66832498328678
  0
ARC
  5
1E3
330
67
100
AcDbEntity
  8
1
  6
Continuous
 62
     7
100
AcDbCircle
 10
177.6002522704333
 20
88.2257249273401
 30
0.0
 40
12.99999999999992
100
AcDbArc
 50
238.7193328479513
 51
244.6683249832876
  0
ARC
  5
1E4
330
67
100
AcDbEntity
  8
1
  6
Continuous
 62
     7
100
AcDbCircle
 10
177.6002522704333
 20
88.2257249273401
 30
0.0
 40
13.00000000000002
100
AcDbArc
 50
295.3316750167132
 51
301.2806671520486
  0
SPLINE
  5
1E5
330
67
100
AcDbEntity
  8
1
  6
Continuous
 62
     7
100
AcDbSpline
210
0.0
220
0.0
230
1.0
 70
    11
 71
     3
 72
    79
 73
    75
 74
    73
 42
0.000000001
 43
0.0000000001
 44
0.00000001
 40
0.0
 40
0.0
 40
0.0
 40
0.0
 40
0.4678743918470899
 40
0.9357531851523915
 40
1.407485922984354
 40
1.879230477450244
 40
2.358135835206645
 40
2.837057232580207
 40
3.32546336081718
 40
3.813886395812711
 40
4.312879550877271
 40
4.811888063607396
 40
5.321250491861628
 40
5.830625400768928
 40
6.348936652492648
 40
6.867256943114006
 40
7.392112791312219
 40
7.916974070462962
 40
8.445280248319927
 40
8.973588233934224
 40
9.501896219539313
 40
10.03020239736846
 40
10.55506367647259
 40
11.07991952460451
 40
11.59823981513977
 40
12.11655106675558
 40
12.62592597553353
 40
13.13528840363336
 40
13.63429691618533
 40
14.13329007104223
 40
14.62171310580227
 40
15.11011923376688
 40
15.58904063082964
 40
16.06794598821601
 40
16.53969054222286
 40
17.01142327937861
 40
17.47930207119716
 40
17.94717647177421
 40
18.4150508723513
 40
18.88292966416989
 40
19.35466240132564
 40
19.8264069553325
 40
20.30531231271883
 40
20.78423370978163
 40
21.27263983774615
 40
21.76106287250613
 40
22.26005602736305
 40
22.75906453991506
 40
23.26842696801492
 40
23.7778018767929
 40
24.29611312840863
 40
24.81443341894393
 40
25.33928926707585
 40
25.86415054617998
 40
26.39245672400913
 40
26.92076470961421
 40
27.44907269522851
 40
27.97737887308547
 40
28.50224015223622
 40
29.02709600043443
 40
29.54541629105579
 40
30.06372754277947
 40
30.57310245168675
 40
31.08246487994107
 40
31.58147339267123
 40
32.08046654773582
 40
32.56888958273125
 40
33.05729571096816
 40
33.53621710834171
 40
34.01512246609813
 40
34.48686702056403
 40
34.95859975839598
 40
35.42647855170132
 40
35.89435294354845
 40
35.89435294354845
 40
35.89435294354845
 40
35.89435294354845
 10
183.6624300969245
 20
94.4757249273401
 30
0.0
 10
183.6579502784075
 20
94.6317448854331
 30
0.0
 10
183.6489906048595
 20
94.94378626955044
 30
0.0
 10
183.5770907390001
 20
95.40857038979416
 30
0.0
 10
183.4628571430589
 20
95.86554100676061
 30
0.0
 10
183.3029286580387
 20
96.31272219153858
 30
0.0
 10
183.1000688259609
 20
96.74468754502513
 30
0.0
 10
182.854770112177
 20
97.16049792345962
 30
0.0
 10
182.5702431582814
 20
97.55442320597064
 30
0.0
 10
182.2470131250748
 20
97.92612742823765
 30
0.0
 10
181.8896019001189
 20
98.27020708816383
 30
0.0
 10
181.4984171746411
 20
98.58650284370464
 30
0.0
 10
181.0789757196316
 20
98.87045625481349
 30
0.0
 10
180.6318598208962
 20
99.12179977742525
 30
0.0
 10
180.1630443296262
 20
99.33713425259006
 30
0.0
 10
179.6736681472626
 20
99.51600088543462
 30
0.0
 10
179.1695918693705
 20
99.65624511122027
 30
0.0
 10
178.6528504187056
 20
99.7573296470308
 30
0.0
 10
178.1286901801314
 20
99.81822670213015
 30
0.0
 10
177.6002522799085
 20
99.83858102876763
 30
0.0
 10
177.0718143796854
 20
99.81822670245074
 30
0.0
 10
176.5476541410935
 20
99.75732964767334
 30
0.0
 10
176.0309126904436
 20
99.65624511218805
 30
0.0
 10
175.5268364124146
 20
99.51600088673165
 30
0.0
 10
175.0374602304429
 20
99.33713425422275
 30
0.0
 10
174.5686447375729
 20
99.12179977940023
 30
0.0
 10
174.1215288445214
 20
98.8704562571404
 30
0.0
 10
173.7020873682859
 20
98.5865028463927
 30
0.0
 10
173.3109027201977
 20
98.27020709122627
 30
0.0
 10
172.9534912093599
 20
97.92612743168755
 30
0.0
 10
172.6302622210275
 20
97.55442320982647
 30
0.0
 10
172.3457314099032
 20
97.16049792774285
 30
0.0
 10
172.1004468234758
 20
96.74468754977025
 30
0.0
 10
171.8975347469744
 20
96.31272219679697
 30
0.0
 10
171.7377984550427
 20
95.8655410126652
 30
0.0
 10
171.622851809733
 20
95.4085703966867
 30
0.0
 10
171.5535924005598
 20
94.94378627468001
 30
0.0
 10
171.5303155170442
 20
94.47572492734008
 30
0.0
 10
171.5535924005598
 20
94.0076635800001
 30
0.0
 10
171.622851809733
 20
93.54287945799345
 30
0.0
 10
171.7377984550426
 20
93.08590884201487
 30
0.0
 10
171.8975347469743
 20
92.63872765788317
 30
0.0
 10
172.1004468234757
 20
92.20676230490982
 30
0.0
 10
172.3457314099032
 20
91.79095192693728
 30
0.0
 10
172.6302622210275
 20
91.39702664485378
 30
0.0
 10
172.95349120936
 20
91.02532242299276
 30
0.0
 10
173.3109027201977
 20
90.68124276345398
 30
0.0
 10
173.702087368286
 20
90.36494700828752
 30
0.0
 10
174.1215288445214
 20
90.08099359753973
 30
0.0
 10
174.5686447375728
 20
89.82965007527984
 30
0.0
 10
175.0374602304428
 20
89.61431560045736
 30
0.0
 10
175.5268364124146
 20
89.43544896794863
 30
0.0
 10
176.0309126904436
 20
89.29520474249213
 30
0.0
 10
176.5476541410935
 20
89.19412020700689
 30
0.0
 10
177.0718143796854
 20
89.13322315222945
 30
0.0
 10
177.6002522799085
 20
89.11286882591253
 30
0.0
 10
178.1286901801315
 20
89.13322315255009
 30
0.0
 10
178.6528504187056
 20
89.1941202076494
 30
0.0
 10
179.1695918693707
 20
89.29520474345993
 30
0.0
 10
179.6736681472626
 20
89.43544896924558
 30
0.0
 10
180.1630443296263
 20
89.61431560209007
 30
0.0
 10
180.6318598208963
 20
89.82965007725483
 30
0.0
 10
181.0789757196316
 20
90.08099359986662
 30
0.0
 10
181.4984171746411
 20
90.36494701097558
 30
0.0
 10
181.8896019001189
 20
90.68124276651645
 30
0.0
 10
182.2470131250747
 20
91.02532242644263
 30
0.0
 10
182.5702431582813
 20
91.3970266487096
 30
0.0
 10
182.8547701121769
 20
91.79095193122052
 30
0.0
 10
183.1000688259609
 20
92.20676230965499
 30
0.0
 10
183.3029286580387
 20
92.63872766314151
 30
0.0
 10
183.4628571430589
 20
93.08590884791951
 30
0.0
 10
183.5770907390001
 20
93.54287946488597
 30
0.0
 10
183.6489906048595
 20
94.0076635851297
 30
0.0
 10
183.6579502784074
 20
94.31970496924708
 30
0.0
 10
183.6624300969245
 20
94.4757249273401
 30
0.0
 11
183.6624300969245
 21
94.4757249273401
 31
0.0
 11
183.6392801719747
 21
94.94302626039449
 31
0.0
 11
183.5703319941004
 21
95.4057969517565
 31
0.0
 11
183.4554288324045
 21
95.863321857
 31
0.0
 11
183.2968360398789
 21
96.3076092083502
 31
0.0
 11
183.0934360625003
 21
96.74117441764332
 31
0.0
 11
182.8502522704333
 21
97.1537605880436
 31
0.0
 11
182.5644915289251
 21
97.54984308526839
 31
0.0
 11
182.2441499076158
 21
97.9185412093381
 31
0.0
 11
181.8848488856581
 21
98.26480259089963
 31
0.0
 11
181.4969450650183
 21
98.578713600053
 31
0.0
 11
181.0752775838457
 21
98.86445232443346
 31
0.0
 11
180.6313411836788
 21
99.1142187561599
 31
0.0
 11
180.1604138152761
 21
99.33072272229312
 31
0.0
 11
179.6736391995155
 21
99.50878562446941
 31
0.0
 11
179.1680212293809
 21
99.6495838122655
 31
0.0
 11
178.6529384026963
 21
99.7504254903482
 31
0.0
 11
178.1281682229713
 21
99.81144742145389
 31
0.0
 11
177.6002522704333
 21
99.83179624874721
 31
0.0
 11
177.0723363178953
 21
99.81144742145388
 31
0.0
 11
176.5475661381703
 21
99.7504254903482
 31
0.0
 11
176.0324833114857
 21
99.6495838122655
 31
0.0
 11
175.5268653413511
 21
99.50878562446941
 31
0.0
 11
175.0400907255906
 21
99.33072272229312
 31
0.0
 11
174.5691633571878
 21
99.1142187561599
 31
0.0
 11
174.1252269570209
 21
98.86445232443349
 31
0.0
 11
173.7035594758483
 21
98.578713600053
 31
0.0
 11
173.3156556552085
 21
98.26480259089963
 31
0.0
 11
172.9563546332508
 21
97.9185412093381
 31
0.0
 11
172.6360130119415
 21
97.54984308526842
 31
0.0
 11
172.3502522704333
 21
97.1537605880436
 31
0.0
 11
172.1070684783663
 21
96.74117441764332
 31
0.0
 11
171.9036685009877
 21
96.3076092083502
 31
0.0
 11
171.7450757084622
 21
95.863321857
 31
0.0
 11
171.6301725467663
 21
95.4057969517565
 31
0.0
 11
171.5612243688921
 21
94.94302626039449
 31
0.0
 11
171.5380744439422
 21
94.4757249273401
 31
0.0
 11
171.5612243688921
 21
94.00842359428566
 31
0.0
 11
171.6301725467663
 21
93.5456529029236
 31
0.0
 11
171.7450757084622
 21
93.0881279976801
 31
0.0
 11
171.9036685009877
 21
92.6438406463299
 31
0.0
 11
172.1070684783662
 21
92.21027543703678
 31
0.0
 11
172.3502522704333
 21
91.79768926663651
 31
0.0
 11
172.6360130119416
 21
91.40160676941181
 31
0.0
 11
172.9563546332508
 21
91.0329086453422
 31
0.0
 11
173.3156556552085
 21
90.68664726378063
 31
0.0
 11
173.7035594758483
 21
90.3727362546272
 31
0.0
 11
174.1252269570209
 21
90.08699753024665
 31
0.0
 11
174.5691633571878
 21
89.83723109852019
 31
0.0
 11
175.0400907255905
 21
89.62072713238702
 31
0.0
 11
175.5268653413511
 21
89.4426642302108
 31
0.0
 11
176.0324833114857
 21
89.3018660424147
 31
0.0
 11
176.5475661381703
 21
89.201024364332
 31
0.0
 11
177.0723363178953
 21
89.14000243322631
 31
0.0
 11
177.6002522704333
 21
89.119653605933
 31
0.0
 11
178.1281682229713
 21
89.14000243322633
 31
0.0
 11
178.6529384026963
 21
89.201024364332
 31
0.0
 11
179.1680212293809
 21
89.3018660424147
 31
0.0
 11
179.6736391995155
 21
89.4426642302108
 31
0.0
 11
180.1604138152761
 21
89.62072713238702
 31
0.0
 11
180.6313411836788
 21
89.83723109852019
 31
0.0
 11
181.0752775838457
 21
90.08699753024665
 31
0.0
 11
181.4969450650183
 21
90.3727362546272
 31
0.0
 11
181.8848488856581
 21
90.68664726378064
 31
0.0
 11
182.2441499076158
 21
91.0329086453422
 31
0.0
 11
182.564491528925
 21
91.40160676941183
 31
0.0
 11
182.8502522704333
 21
91.79768926663651
 31
0.0
 11
183.0934360625003
 21
92.21027543703677
 31
0.0
 11
183.2968360398789
 21
92.6438406463299
 31
0.0
 11
183.4554288324045
 21
93.0881279976801
 31
0.0
 11
183.5703319941004
 21
93.5456529029236
 31
0.0
 11
183.6392801719747
 21
94.00842359428566
 31
0.0
 11
183.6624300969245
 21
94.4757249273401
 31
0.0
  0
SPLINE
  5
1E6
330
67
100
AcDbEntity
  8
1
  6
Continuous
 62
     7
100
AcDbSpline
210
0.0
220
0.0
230
1.0
 70
    11
 71
     3
 72
    79
 73
    75
 74
    73
 42
0.000000001
 43
0.0000000001
 44
0.00000001
 40
0.0
 40
0.0
 40
0.0
 40
0.0
 40
0.4678743918470927
 40
0.9357531851523719
 40
1.407485922984335
 40
1.879230477450224
 40
2.358135835206587
 40
2.837057232580112
 40
3.325463360817118
 40
3.813886395812601
 40
4.31287955087716
 40
4.811888063607285
 40
5.321250491861518
 40
5.830625400768818
 40
6.348936652492567
 40
6.867256943113935
 40
7.392112791312155
 40
7.916974070462893
 40
8.445280248319856
 40
8.973588233934155
 40
9.501896219539244
 40
10.03020239736839
 40
10.55506367647257
 40
11.07991952460444
 40
11.59823981513977
 40
12.11655106675556
 40
12.62592597553352
 40
13.13528840363334
 40
13.6342969161853
 40
14.1332900710422
 40
14.62171310580225
 40
15.11011923376684
 40
15.58904063082956
 40
16.06794598821589
 40
16.53969054222275
 40
17.0114232793785
 40
17.47930207119705
 40
17.94717647177409
 40
18.41505087235118
 40
18.88292966416978
 40
19.35466240132552
 40
19.82640695533239
 40
20.30531231271873
 40
20.78423370978152
 40
21.27263983774609
 40
21.76106287250609
 40
22.26005602736297
 40
22.75906453991495
 40
23.26842696801481
 40
23.77780187679279
 40
24.29611312840852
 40
24.81443341894382
 40
25.33928926707573
 40
25.86415054617986
 40
26.39245672400903
 40
26.92076470961412
 40
27.44907269522842
 40
27.9773788730854
 40
28.50224015223615
 40
29.02709600043435
 40
29.54541629105571
 40
30.06372754277939
 40
30.57310245168668
 40
31.08246487994098
 40
31.58147339267111
 40
32.08046654773565
 40
32.56888958273111
 40
33.05729571096808
 40
33.53621710834164
 40
34.01512246609804
 40
34.48686702056394
 40
34.9585997583959
 40
35.42647855170124
 40
35.89435294354838
 40
35.89435294354838
 40
35.89435294354838
 40
35.89435294354838
 10
183.6624300969245
 20
82.4757249273401
 30
0.0
 10
183.6579502784075
 20
82.31970496924711
 30
0.0
 10
183.6489906048594
 20
82.00766358512978
 30
0.0
 10
183.5770907390001
 20
81.54287946488603
 30
0.0
 10
183.4628571430588
 20
81.08590884791963
 30
0.0
 10
183.3029286580388
 20
80.63872766314164
 30
0.0
 10
183.1000688259609
 20
80.20676230965515
 30
0.0
 10
182.8547701121769
 20
79.79095193122066
 30
0.0
 10
182.5702431582814
 20
79.3970266487097
 30
0.0
 10
182.2470131250748
 20
79.02532242644264
 30
0.0
 10
181.8896019001189
 20
78.68124276651645
 30
0.0
 10
181.4984171746412
 20
78.3649470109757
 30
0.0
 10
181.0789757196316
 20
78.08099359986679
 30
0.0
 10
180.6318598208963
 20
77.82965007725505
 30
0.0
 10
180.1630443296262
 20
77.61431560209013
 30
0.0
 10
179.6736681472626
 20
77.43544896924558
 30
0.0
 10
179.1695918693706
 20
77.29520474345986
 30
0.0
 10
178.6528504187056
 20
77.19412020764945
 30
0.0
 10
178.1286901801314
 20
77.13322315255007
 30
0.0
 10
177.6002522799085
 20
77.11286882591254
 30
0.0
 10
177.0718143796853
 20
77.13322315222945
 30
0.0
 10
176.5476541410934
 20
77.19412020700688
 30
0.0
 10
176.0309126904436
 20
77.29520474249215
 30
0.0
 10
175.5268364124146
 20
77.43544896794859
 30
0.0
 10
175.0374602304428
 20
77.61431560045747
 30
0.0
 10
174.5686447375728
 20
77.82965007528007
 30
0.0
 10
174.1215288445215
 20
78.08099359753994
 30
0.0
 10
173.7020873682859
 20
78.36494700828759
 30
0.0
 10
173.3109027201977
 20
78.68124276345404
 30
0.0
 10
172.9534912093599
 20
79.02532242299276
 30
0.0
 10
172.6302622210275
 20
79.39702664485388
 30
0.0
 10
172.3457314099032
 20
79.79095192693744
 30
0.0
 10
172.1004468234758
 20
80.20676230490999
 30
0.0
 10
171.8975347469743
 20
80.63872765788328
 30
0.0
 10
171.7377984550425
 20
81.08590884201494
 30
0.0
 10
171.6228518097331
 20
81.54287945799356
 30
0.0
 10
171.5535924005598
 20
82.00766358000016
 30
0.0
 10
171.5303155170442
 20
82.47572492734011
 30
0.0
 10
171.5535924005599
 20
82.94378627468011
 30
0.0
 10
171.622851809733
 20
83.40857039668674
 30
0.0
 10
171.7377984550426
 20
83.86554101266533
 30
0.0
 10
171.8975347469744
 20
84.31272219679704
 30
0.0
 10
172.1004468234757
 20
84.74468754977042
 30
0.0
 10
172.3457314099032
 20
85.16049792774292
 30
0.0
 10
172.6302622210275
 20
85.55442320982648
 30
0.0
 10
172.9534912093599
 20
85.92612743168755
 30
0.0
 10
173.3109027201978
 20
86.27020709122625
 30
0.0
 10
173.7020873682859
 20
86.5865028463927
 30
0.0
 10
174.1215288445215
 20
86.87045625714045
 30
0.0
 10
174.5686447375728
 20
87.12179977940032
 30
0.0
 10
175.0374602304428
 20
87.33713425422282
 30
0.0
 10
175.5268364124146
 20
87.51600088673162
 30
0.0
 10
176.0309126904436
 20
87.65624511218796
 30
0.0
 10
176.5476541410935
 20
87.75732964767333
 30
0.0
 10
177.0718143796853
 20
87.81822670245083
 30
0.0
 10
177.6002522799085
 20
87.83858102876792
 30
0.0
 10
178.1286901801314
 20
87.81822670213026
 30
0.0
 10
178.6528504187056
 20
87.75732964703076
 30
0.0
 10
179.1695918693706
 20
87.65624511122023
 30
0.0
 10
179.6736681472626
 20
87.51600088543461
 30
0.0
 10
180.1630443296263
 20
87.33713425259015
 30
0.0
 10
180.6318598208962
 20
87.12179977742538
 30
0.0
 10
181.0789757196316
 20
86.87045625481358
 30
0.0
 10
181.4984171746411
 20
86.58650284370461
 30
0.0
 10
181.889601900119
 20
86.27020708816382
 30
0.0
 10
182.2470131250747
 20
85.92612742823766
 30
0.0
 10
182.5702431582815
 20
85.55442320597072
 30
0.0
 10
182.8547701121769
 20
85.16049792345966
 30
0.0
 10
183.1000688259608
 20
84.74468754502522
 30
0.0
 10
183.3029286580388
 20
84.31272219153867
 30
0.0
 10
183.4628571430589
 20
83.86554100676071
 30
0.0
 10
183.5770907390001
 20
83.40857038979422
 30
0.0
 10
183.6489906048595
 20
82.94378626955051
 30
0.0
 10
183.6579502784075
 20
82.63174488543311
 30
0.0
 10
183.6624300969245
 20
82.4757249273401
 30
0.0
 11
183.6624300969245
 21
82.4757249273401
 31
0.0
 11
183.6392801719746
 21
82.0084235942857
 31
0.0
 11
183.5703319941004
 21
81.5456529029237
 31
0.0
 11
183.4554288324045
 21
81.0881279976802
 31
0.0
 11
183.2968360398789
 21
80.64384064633
 31
0.0
 11
183.0934360625003
 21
80.21027543703693
 31
0.0
 11
182.8502522704333
 21
79.7976892666367
 31
0.0
 11
182.564491528925
 21
79.4016067694119
 31
0.0
 11
182.2441499076158
 21
79.0329086453422
 31
0.0
 11
181.8848488856581
 21
78.68664726378067
 31
0.0
 11
181.4969450650183
 21
78.3727362546273
 31
0.0
 11
181.0752775838457
 21
78.08699753024685
 31
0.0
 11
180.6313411836788
 21
77.8372310985204
 31
0.0
 11
180.1604138152761
 21
77.62072713238712
 31
0.0
 11
179.6736391995155
 21
77.4426642302108
 31
0.0
 11
179.1680212293809
 21
77.30186604241467
 31
0.0
 11
178.6529384026963
 21
77.201024364332
 31
0.0
 11
178.1281682229713
 21
77.14000243322633
 31
0.0
 11
177.6002522704333
 21
77.119653605933
 31
0.0
 11
177.0723363178953
 21
77.14000243322633
 31
0.0
 11
176.5475661381703
 21
77.201024364332
 31
0.0
 11
176.0324833114857
 21
77.3018660424147
 31
0.0
 11
175.5268653413511
 21
77.4426642302108
 31
0.0
 11
175.0400907255905
 21
77.62072713238713
 31
0.0
 11
174.5691633571878
 21
77.8372310985204
 31
0.0
 11
174.1252269570209
 21
78.08699753024685
 31
0.0
 11
173.7035594758483
 21
78.3727362546273
 31
0.0
 11
173.3156556552085
 21
78.68664726378067
 31
0.0
 11
172.9563546332508
 21
79.0329086453422
 31
0.0
 11
172.6360130119415
 21
79.4016067694119
 31
0.0
 11
172.3502522704333
 21
79.7976892666367
 31
0.0
 11
172.1070684783663
 21
80.21027543703693
 31
0.0
 11
171.9036685009877
 21
80.64384064633
 31
0.0
 11
171.7450757084622
 21
81.08812799768019
 31
0.0
 11
171.6301725467663
 21
81.5456529029237
 31
0.0
 11
171.5612243688921
 21
82.00842359428572
 31
0.0
 11
171.5380744439422
 21
82.4757249273401
 31
0.0
 11
171.5612243688921
 21
82.94302626039453
 31
0.0
 11
171.6301725467663
 21
83.4057969517566
 31
0.0
 11
171.7450757084622
 21
83.86332185700009
 31
0.0
 11
171.9036685009877
 21
84.3076092083503
 31
0.0
 11
172.1070684783662
 21
84.74117441764344
 31
0.0
 11
172.3502522704333
 21
85.1537605880437
 31
0.0
 11
172.6360130119416
 21
85.54984308526845
 31
0.0
 11
172.9563546332508
 21
85.9185412093381
 31
0.0
 11
173.3156556552085
 21
86.2648025908996
 31
0.0
 11
173.7035594758483
 21
86.57871360005299
 31
0.0
 11
174.1252269570209
 21
86.86445232443353
 31
0.0
 11
174.5691633571878
 21
87.11421875616
 31
0.0
 11
175.0400907255905
 21
87.33072272229317
 31
0.0
 11
175.5268653413511
 21
87.5087856244694
 31
0.0
 11
176.0324833114857
 21
87.64958381226545
 31
0.0
 11
176.5475661381703
 21
87.75042549034819
 31
0.0
 11
177.0723363178953
 21
87.81144742145399
 31
0.0
 11
177.6002522704333
 21
87.8317962487474
 31
0.0
 11
178.1281682229713
 21
87.81144742145399
 31
0.0
 11
178.6529384026963
 21
87.75042549034819
 31
0.0
 11
179.1680212293809
 21
87.64958381226545
 31
0.0
 11
179.6736391995155
 21
87.5087856244694
 31
0.0
 11
180.1604138152761
 21
87.33072272229317
 31
0.0
 11
180.6313411836788
 21
87.11421875616
 31
0.0
 11
181.0752775838457
 21
86.86445232443353
 31
0.0
 11
181.4969450650183
 21
86.57871360005299
 31
0.0
 11
181.8848488856581
 21
86.2648025908996
 31
0.0
 11
182.2441499076158
 21
85.9185412093381
 31
0.0
 11
182.5644915289251
 21
85.54984308526846
 31
0.0
 11
182.8502522704333
 21
85.1537605880437
 31
0.0
 11
183.0934360625003
 21
84.74117441764342
 31
0.0
 11
183.2968360398789
 21
84.3076092083503
 31
0.0
 11
183.4554288324045
 21
83.8633218570001
 31
0.0
 11
183.5703319941004
 21
83.4057969517566
 31
0.0
 11
183.6392801719747
 21
82.94302626039455
 31
0.0
 11
183.6624300969245
 21
82.4757249273401
 31
0.0
  0
SPLINE
  5
1E7
330
67
100
AcDbEntity
  8
1
  6
Continuous
 62
     7
100
AcDbSpline
210
0.0
220
0.0
230
1.0
 70
    11
 71
     3
 72
    79
 73
    75
 74
    73
 42
0.000000001
 43
0.0000000001
 44
0.00000001
 40
0.0
 40
0.0
 40
0.0
 40
0.0
 40
0.2732520535846441
 40
0.546686970359328
 40
0.8413986774770795
 40
1.136327585877806
 40
1.467767923047329
 40
1.799287328340508
 40
2.174576151775101
 40
2.54990745876665
 40
2.969561233397486
 40
3.389237627002606
 40
3.849011452193051
 40
4.308799501846007
 40
4.801169040845169
 40
5.293547116741345
 40
5.808782065049265
 40
6.324021647714522
 40
6.851020323954292
 40
7.378020463799136
 40
7.90502060364698
 40
8.432019279895565
 40
8.947258862573989
 40
9.462493810897687
 40
9.954871886808553
 40
10.44724142581808
 40
10.90702947547146
 40
11.366803300646
 40
11.78647969421289
 40
12.20613346877018
 40
12.58146477564964
 40
12.95675359890685
 40
13.28827300396008
 40
13.619713340773
 40
13.91464224869214
 40
14.20935395499997
 40
14.48278886957101
 40
14.7560409291517
 40
15.02929298873239
 40
15.30272790330338
 40
15.5974396096112
 40
15.89236851753035
 40
16.22380885434327
 40
16.5553282593965
 40
16.93061708265368
 40
17.3059483895331
 40
17.72560216409039
 40
18.14527855765729
 40
18.60505238283182
 40
19.06484043248521
 40
19.55720997149477
 40
20.04958804740565
 40
20.56482299572929
 40
21.08006257840773
 40
21.60706125465633
 40
22.13406139450418
 40
22.66106153434902
 40
23.1880602105888
 40
23.70329979325401
 40
24.21853474156194
 40
24.71091281745814
 40
25.20328235645735
 40
25.66307040611038
 40
26.12284423130082
 40
26.54252062490586
 40
26.96217439953667
 40
27.33750570652818
 40
27.71279452996275
 40
28.04431393525593
 40
28.37575427242545
 40
28.67068318082617
 40
28.96539488794392
 40
29.23882980471858
 40
29.5120818583032
 40
29.5120818583032
 40
29.5120818583032
 40
29.5120818583032
 10
54.44228268735162
 20
224.1014757344161
 30
0.0
 10
54.35110374043416
 20
224.1062075232253
 30
0.0
 10
54.16868482784002
 20
224.1156742566345
 30
0.0
 10
53.89606501310026
 20
224.1892640293295
 30
0.0
 10
53.63181110227007
 20
224.3052198745548
 30
0.0
 10
53.37082416510938
 20
224.4687726618344
 30
0.0
 10
53.12337203719144
 20
224.6718349066831
 30
0.0
 10
52.88210286523326
 20
224.9207840385429
 30
0.0
 10
52.65738614773748
 20
225.2036715817309
 30
0.0
 10
52.44252197873779
 20
225.5297437644959
 30
0.0
 10
52.2463243935122
 20
225.8843720178688
 30
0.0
 10
52.063911849021
 20
226.277442169711
 30
0.0
 10
51.90180313382486
 20
226.6936953755499
 30
0.0
 10
51.75707697178112
 20
227.1417819866292
 30
0.0
 10
51.63392968569876
 20
227.6075196965117
 30
0.0
 10
51.53107316716029
 20
228.0970226376844
 30
0.0
 10
51.45072014361357
 20
228.5984389259889
 30
0.0
 10
51.39267932612506
 20
229.1145221100641
 30
0.0
 10
51.35770574028547
 20
229.6366095211161
 30
0.0
 10
51.34607732748701
 20
230.1636535509252
 30
0.0
 10
51.35770574041405
 20
230.6906975807279
 30
0.0
 10
51.39267932637603
 20
231.2127849917998
 30
0.0
 10
51.4507201439754
 20
231.7288681758039
 30
0.0
 10
51.53107316761465
 20
232.2302844643668
 30
0.0
 10
51.63392968622206
 20
232.7197874046145
 30
0.0
 10
51.75707697234289
 20
233.1855251178344
 30
0.0
 10
51.90180313438783
 20
233.633611717236
 30
0.0
 10
52.0639118495427
 20
234.0498649647534
 30
0.0
 10
52.24632439393996
 20
234.4429349739457
 30
0.0
 10
52.44252197901657
 20
234.7975637307898
 30
0.0
 10
52.65738614779463
 20
235.1236342230233
 30
0.0
 10
52.88210286499853
 20
235.4065276822668
 30
0.0
 10
53.12337203656379
 20
235.6554571767008
 30
0.0
 10
53.37082416398309
 20
235.8585880907457
 30
0.0
 10
53.63181110045322
 20
236.0219113932636
 30
0.0
 10
53.89606500997229
 20
236.1386812599297
 30
0.0
 10
54.16868482540855
 20
236.2094416674213
 30
0.0
 10
54.44228268735163
 20
236.2340234913844
 30
0.0
 10
54.71588054929467
 20
236.2094416674213
 30
0.0
 10
54.9885003647309
 20
236.1386812599298
 30
0.0
 10
55.25275427424999
 20
236.0219113932635
 30
0.0
 10
55.51374121072008
 20
235.8585880907458
 30
0.0
 10
55.76119333813938
 20
235.6554571767008
 30
0.0
 10
56.00246250970466
 20
235.4065276822668
 30
0.0
 10
56.2271792269085
 20
235.1236342230234
 30
0.0
 10
56.44204339568649
 20
234.7975637307897
 30
0.0
 10
56.63824098076313
 20
234.4429349739457
 30
0.0
 10
56.82065352516037
 20
234.0498649647534
 30
0.0
 10
56.98276224031521
 20
233.633611717236
 30
0.0
 10
57.12748840236018
 20
233.1855251178343
 30
0.0
 10
57.25063568848114
 20
232.7197874046144
 30
0.0
 10
57.35349220708869
 20
232.2302844643668
 30
0.0
 10
57.43384523072772
 20
231.7288681758039
 30
0.0
 10
57.4918860483269
 20
231.2127849917998
 30
0.0
 10
57.52685963428908
 20
230.6906975807278
 30
0.0
 10
57.53848804721632
 20
230.1636535509253
 30
0.0
 10
57.52685963441767
 20
229.6366095211161
 30
0.0
 10
57.49188604857788
 20
229.114522110064
 30
0.0
 10
57.43384523108958
 20
228.5984389259891
 30
0.0
 10
57.35349220754303
 20
228.0970226376842
 30
0.0
 10
57.25063568900438
 20
227.6075196965118
 30
0.0
 10
57.12748840292178
 20
227.1417819866292
 30
0.0
 10
56.98276224087813
 20
226.6936953755499
 30
0.0
 10
56.8206535256821
 20
226.2774421697108
 30
0.0
 10
56.63824098119089
 20
225.8843720178687
 30
0.0
 10
56.44204339596526
 20
225.529743764496
 30
0.0
 10
56.22717922696563
 20
225.2036715817309
 30
0.0
 10
56.00246250946991
 20
224.920784038543
 30
0.0
 10
55.76119333751174
 20
224.6718349066831
 30
0.0
 10
55.5137412095938
 20
224.4687726618343
 30
0.0
 10
55.25275427243309
 20
224.3052198745547
 30
0.0
 10
54.98850036160299
 20
224.1892640293295
 30
0.0
 10
54.71588054686318
 20
224.1156742566345
 30
0.0
 10
54.53346163426909
 20
224.1062075232253
 30
0.0
 10
54.44228268735162
 20
224.1014757344161
 30
0.0
 11
54.44228268735162
 21
224.1014757344161
 31
0.0
 11
54.17006696057138
 21
224.125251483018
 31
0.0
 11
53.90530535368905
 21
224.19357383724
 31
0.0
 11
53.63524027701125
 21
224.3115562268312
 31
0.0
 11
53.38464380458615
 21
224.4670697914615
 31
0.0
 11
53.1276923626418
 21
224.676422731252
 31
0.0
 11
52.89611807774494
 21
224.9136535609071
 31
0.0
 11
52.66190907121184
 21
225.206890397194
 31
0.0
 11
52.45457178016963
 21
225.5197559237245
 31
0.0
 11
52.25075745218509
 21
225.8865924134959
 31
0.0
 11
52.07342107267874
 21
226.2669607663222
 31
0.0
 11
51.90606762875809
 21
226.6951952758248
 31
0.0
 11
51.76424702664792
 21
227.1325646476615
 31
0.0
 11
51.63803639987601
 21
227.6084833808813
 31
0.0
 11
51.53644373901625
 21
228.0902666318249
 31
0.0
 11
51.45471312981059
 21
228.5989779050278
 31
0.0
 11
51.39693289740404
 21
229.110967428644
 31
0.0
 11
51.36164030638908
 21
229.6367830215845
 31
0.0
 11
51.34995346813832
 21
230.1636535609071
 31
0.0
 11
51.36164030638909
 21
230.6905241002296
 31
0.0
 11
51.39693289740404
 21
231.2163396931701
 31
0.0
 11
51.45471312981057
 21
231.7283292167862
 31
0.0
 11
51.53644373901625
 21
232.2370404899892
 31
0.0
 11
51.63803639987609
 21
232.7188237409328
 31
0.0
 11
51.76424702664804
 21
233.1947424741526
 31
0.0
 11
51.90606762875815
 21
233.6321118459894
 31
0.0
 11
52.07342107267874
 21
234.060346355492
 31
0.0
 11
52.2507574521851
 21
234.4407147083182
 31
0.0
 11
52.45457178016963
 21
234.8075511980896
 31
0.0
 11
52.66190907121183
 21
235.1204167246202
 31
0.0
 11
52.89611807774494
 21
235.4136535609071
 31
0.0
 11
53.12769236264181
 21
235.6508843905623
 31
0.0
 11
53.38464380458615
 21
235.8602373303527
 31
0.0
 11
53.63524027701125
 21
236.0157508949831
 31
0.0
 11
53.90530535368905
 21
236.1337332845743
 31
0.0
 11
54.17006696057138
 21
236.2020556387963
 31
0.0
 11
54.44228268735162
 21
236.2258313873981
 31
0.0
 11
54.71449841413185
 21
236.2020556387963
 31
0.0
 11
54.97926002101414
 21
236.1337332845743
 31
0.0
 11
55.24932509769194
 21
236.0157508949831
 31
0.0
 11
55.49992157011704
 21
235.8602373303527
 31
0.0
 11
55.75687301206138
 21
235.6508843905623
 31
0.0
 11
55.98844729695824
 21
235.4136535609071
 31
0.0
 11
56.22265630349129
 21
235.1204167246202
 31
0.0
 11
56.42999359453344
 21
234.8075511980896
 31
0.0
 11
56.63380792251797
 21
234.4407147083182
 31
0.0
 11
56.81114430202433
 21
234.060346355492
 31
0.0
 11
56.97849774594491
 21
233.6321118459894
 31
0.0
 11
57.12031834805504
 21
233.1947424741526
 31
0.0
 11
57.24652897482711
 21
232.7188237409328
 31
0.0
 11
57.34812163568702
 21
232.2370404899892
 31
0.0
 11
57.42985224489255
 21
231.7283292167863
 31
0.0
 11
57.48763247729895
 21
231.2163396931701
 31
0.0
 11
57.52292506831404
 21
230.6905241002296
 31
0.0
 11
57.53461190656495
 21
230.1636535609071
 31
0.0
 11
57.52292506831404
 21
229.6367830215845
 31
0.0
 11
57.48763247729895
 21
229.110967428644
 31
0.0
 11
57.42985224489254
 21
228.5989779050279
 31
0.0
 11
57.34812163568702
 21
228.0902666318249
 31
0.0
 11
57.24652897482712
 21
227.6084833808813
 31
0.0
 11
57.12031834805504
 21
227.1325646476615
 31
0.0
 11
56.97849774594491
 21
226.6951952758247
 31
0.0
 11
56.81114430202433
 21
226.2669607663221
 31
0.0
 11
56.63380792251799
 21
225.8865924134959
 31
0.0
 11
56.42999359453344
 21
225.5197559237245
 31
0.0
 11
56.22265630349128
 21
225.206890397194
 31
0.0
 11
55.98844729695824
 21
224.9136535609071
 31
0.0
 11
55.75687301206138
 21
224.676422731252
 31
0.0
 11
55.49992157011704
 21
224.4670697914615
 31
0.0
 11
55.24932509769194
 21
224.3115562268312
 31
0.0
 11
54.97926002101414
 21
224.19357383724
 31
0.0
 11
54.71449841413185
 21
224.125251483018
 31
0.0
 11
54.44228268735162
 21
224.1014757344161
 31
0.0
  0
SPLINE
  5
1E8
330
67
100
AcDbEntity
  8
1
  6
Continuous
 62
     7
100
AcDbSpline
210
0.0
220
0.0
230
1.0
 70
    11
 71
     3
 72
    79
 73
    75
 74
    73
 42
0.000000001
 43
0.0000000001
 44
0.00000001
 40
0.0
 40
0.0
 40
0.0
 40
0.0
 40
0.2732520535846674
 40
0.5466869703593442
 40
0.8413986774770941
 40
1.136327585877803
 40
1.467767923047396
 40
1.799287328340655
 40
2.17457615177519
 40
2.549907458766701
 40
2.969561233397579
 40
3.38923762700266
 40
3.849011452193018
 40
4.30879950184597
 40
4.801169040845197
 40
5.293547116741446
 40
5.808782065049343
 40
6.324021647714499
 40
6.851020323954273
 40
7.378020463799092
 40
7.905020603647023
 40
8.432019279895641
 40
8.947258862573994
 40
9.462493810897637
 40
9.95487188680859
 40
10.44724142581814
 40
10.90702947547148
 40
11.36680330064601
 40
11.78647969421281
 40
12.20613346877017
 40
12.58146477564957
 40
12.95675359890665
 40
13.28827300396003
 40
13.61971334077302
 40
13.91464224869218
 40
14.20935395499999
 40
14.48278886957104
 40
14.75604092915176
 40
15.02929298873242
 40
15.30272790330341
 40
15.59743960961124
 40
15.89236851753039
 40
16.22380885434336
 40
16.5553282593967
 40
16.93061708265385
 40
17.30594838953323
 40
17.7256021640905
 40
18.14527855765741
 40
18.60505238283194
 40
19.06484043248527
 40
19.55720997149481
 40
20.04958804740576
 40
20.5648229957294
 40
21.08006257840776
 40
21.60706125465638
 40
22.13406139450431
 40
22.66106153434911
 40
23.18806021058891
 40
23.70329979325405
 40
24.21853474156197
 40
24.71091281745821
 40
25.20328235645743
 40
25.66307040611044
 40
26.12284423130085
 40
26.54252062490588
 40
26.96217439953671
 40
27.33750570652825
 40
27.71279452996281
 40
28.04431393525606
 40
28.3757542724256
 40
28.67068318082632
 40
28.96539488794406
 40
29.2388298047187
 40
29.51208185830329
 40
29.51208185830329
 40
29.51208185830329
 40
29.51208185830329
 10
74.25822185351524
 20
224.1014757344161
 30
0.0
 10
74.34940080043272
 20
224.1062075232253
 30
0.0
 10
74.53181971302683
 20
224.1156742566344
 30
0.0
 10
74.80443952776668
 20
224.1892640293294
 30
0.0
 10
75.06869343859675
 20
224.3052198745547
 30
0.0
 10
75.32968037575753
 20
224.4687726618342
 30
0.0
 10
75.57713250367556
 20
224.6718349066829
 30
0.0
 10
75.81840167563384
 20
224.9207840385428
 30
0.0
 10
76.04311839312942
 20
225.2036715817309
 30
0.0
 10
76.25798256212896
 20
225.5297437644959
 30
0.0
 10
76.45418014735452
 20
225.8843720178688
 30
0.0
 10
76.63659269184578
 20
226.2774421697109
 30
0.0
 10
76.79870140704193
 20
226.69369537555
 30
0.0
 10
76.94342756908557
 20
227.141781986629
 30
0.0
 10
77.06657485516817
 20
227.6075196965118
 30
0.0
 10
77.16943137370673
 20
228.0970226376843
 30
0.0
 10
77.24978439725326
 20
228.5984389259891
 30
0.0
 10
77.30782521474158
 20
229.1145221100639
 30
0.0
 10
77.34279880058129
 20
229.636609521116
 30
0.0
 10
77.35442721337989
 20
230.1636535509252
 30
0.0
 10
77.34279880045273
 20
230.6906975807278
 30
0.0
 10
77.30782521449059
 20
231.2127849917997
 30
0.0
 10
77.2497843968914
 20
231.7288681758039
 30
0.0
 10
77.16943137325237
 20
232.2302844643667
 30
0.0
 10
77.06657485464491
 20
232.7197874046145
 30
0.0
 10
76.943427568524
 20
233.1855251178343
 30
0.0
 10
76.79870140647895
 20
233.6336117172359
 30
0.0
 10
76.63659269132413
 20
234.0498649647533
 30
0.0
 10
76.45418014692673
 20
234.4429349739455
 30
0.0
 10
76.2579825618502
 20
234.7975637307896
 30
0.0
 10
76.04311839307229
 20
235.1236342230233
 30
0.0
 10
75.81840167586849
 20
235.4065276822666
 30
0.0
 10
75.57713250430322
 20
235.6554571767008
 30
0.0
 10
75.32968037688381
 20
235.8585880907457
 30
0.0
 10
75.06869344041367
 20
236.0219113932635
 30
0.0
 10
74.80443953089458
 20
236.1386812599298
 30
0.0
 10
74.53181971545834
 20
236.2094416674213
 30
0.0
 10
74.25822185351527
 20
236.2340234913844
 30
0.0
 10
73.98462399157219
 20
236.2094416674212
 30
0.0
 10
73.71200417613598
 20
236.1386812599298
 30
0.0
 10
73.4477502666169
 20
236.0219113932635
 30
0.0
 10
73.18676333014682
 20
235.8585880907458
 30
0.0
 10
72.93931120272738
 20
235.6554571767008
 30
0.0
 10
72.69804203116215
 20
235.4065276822667
 30
0.0
 10
72.47332531395837
 20
235.1236342230232
 30
0.0
 10
72.25846114518042
 20
234.7975637307896
 30
0.0
 10
72.06226356010372
 20
234.4429349739455
 30
0.0
 10
71.87985101570654
 20
234.0498649647534
 30
0.0
 10
71.71774230055158
 20
233.633611717236
 30
0.0
 10
71.57301613850656
 20
233.1855251178343
 30
0.0
 10
71.44986885238569
 20
232.7197874046146
 30
0.0
 10
71.34701233377831
 20
232.2302844643667
 30
0.0
 10
71.26665931013923
 20
231.7288681758038
 30
0.0
 10
71.20861849253996
 20
231.2127849917996
 30
0.0
 10
71.17364490657786
 20
230.6906975807278
 30
0.0
 10
71.16201649365065
 20
230.1636535509252
 30
0.0
 10
71.17364490644927
 20
229.636609521116
 30
0.0
 10
71.208618492289
 20
229.114522110064
 30
0.0
 10
71.26665930977741
 20
228.598438925989
 30
0.0
 10
71.34701233332389
 20
228.0970226376842
 30
0.0
 10
71.44986885186248
 20
227.6075196965118
 30
0.0
 10
71.57301613794498
 20
227.1417819866291
 30
0.0
 10
71.71774229998866
 20
226.6936953755499
 30
0.0
 10
71.87985101518476
 20
226.2774421697109
 30
0.0
 10
72.06226355967605
 20
225.8843720178688
 30
0.0
 10
72.25846114490163
 20
225.5297437644959
 30
0.0
 10
72.47332531390121
 20
225.2036715817309
 30
0.0
 10
72.69804203139685
 20
224.9207840385428
 30
0.0
 10
72.93931120335505
 20
224.6718349066829
 30
0.0
 10
73.1867633312731
 20
224.4687726618342
 30
0.0
 10
73.44775026843381
 20
224.3052198745547
 30
0.0
 10
73.71200417926391
 20
224.1892640293294
 30
0.0
 10
73.9846239940037
 20
224.1156742566343
 30
0.0
 10
74.16704290659777
 20
224.1062075232253
 30
0.0
 10
74.25822185351524
 20
224.1014757344161
 30
0.0
 11
74.25822185351524
 21
224.1014757344161
 31
0.0
 11
74.53043758029551
 21
224.125251483018
 31
0.0
 11
74.79519918717784
 21
224.1935738372399
 31
0.0
 11
75.06526426385562
 21
224.3115562268311
 31
0.0
 11
75.31586073628074
 21
224.4670697914614
 31
0.0
 11
75.57281217822519
 21
224.6764227312518
 31
0.0
 11
75.80438646312214
 21
224.913653560907
 31
0.0
 11
76.03859546965509
 21
225.2068903971939
 31
0.0
 11
76.24593276069714
 21
225.5197559237245
 31
0.0
 11
76.44974708868166
 21
225.8865924134959
 31
0.0
 11
76.62708346818803
 21
226.2669607663222
 31
0.0
 11
76.79443691210867
 21
226.6951952758247
 31
0.0
 11
76.93625751421882
 21
227.1325646476614
 31
0.0
 11
77.06246814099087
 21
227.6084833808813
 31
0.0
 11
77.16406080185072
 21
228.0902666318249
 31
0.0
 11
77.24579141105625
 21
228.5989779050278
 31
0.0
 11
77.30357164346265
 21
229.1109674286439
 31
0.0
 11
77.33886423447767
 21
229.6367830215844
 31
0.0
 11
77.35055107272854
 21
230.163653560907
 31
0.0
 11
77.33886423447768
 21
230.6905241002296
 31
0.0
 11
77.30357164346265
 21
231.2163396931701
 31
0.0
 11
77.24579141105625
 21
231.7283292167862
 31
0.0
 11
77.16406080185072
 21
232.2370404899891
 31
0.0
 11
77.06246814099087
 21
232.7188237409328
 31
0.0
 11
76.93625751421882
 21
233.1947424741526
 31
0.0
 11
76.79443691210867
 21
233.6321118459893
 31
0.0
 11
76.62708346818803
 21
234.0603463554919
 31
0.0
 11
76.44974708868165
 21
234.440714708318
 31
0.0
 11
76.24593276069714
 21
234.8075511980895
 31
0.0
 11
76.03859546965508
 21
235.1204167246201
 31
0.0
 11
75.80438646312214
 21
235.413653560907
 31
0.0
 11
75.57281217822518
 21
235.6508843905623
 31
0.0
 11
75.31586073628074
 21
235.8602373303527
 31
0.0
 11
75.06526426385562
 21
236.0157508949831
 31
0.0
 11
74.79519918717784
 21
236.1337332845743
 31
0.0
 11
74.53043758029551
 21
236.2020556387963
 31
0.0
 11
74.25822185351524
 21
236.2258313873981
 31
0.0
 11
73.98600612673502
 21
236.2020556387963
 31
0.0
 11
73.72124451985275
 21
236.1337332845743
 31
0.0
 11
73.45117944317494
 21
236.0157508949831
 31
0.0
 11
73.20058297074985
 21
235.8602373303527
 31
0.0
 11
72.94363152880544
 21
235.6508843905623
 31
0.0
 11
72.71205724390853
 21
235.413653560907
 31
0.0
 11
72.47784823737555
 21
235.12041672462
 31
0.0
 11
72.27051094633345
 21
234.8075511980895
 31
0.0
 11
72.06669661834891
 21
234.4407147083182
 31
0.0
 11
71.88936023884253
 21
234.0603463554919
 31
0.0
 11
71.72200679492188
 21
233.6321118459893
 31
0.0
 11
71.58018619281174
 21
233.1947424741526
 31
0.0
 11
71.45397556603973
 21
232.7188237409328
 31
0.0
 11
71.35238290517992
 21
232.2370404899891
 31
0.0
 11
71.27065229597439
 21
231.7283292167862
 31
0.0
 11
71.21287206356794
 21
231.2163396931701
 31
0.0
 11
71.17757947255289
 21
230.6905241002296
 31
0.0
 11
71.16589263430203
 21
230.163653560907
 31
0.0
 11
71.17757947255289
 21
229.6367830215844
 31
0.0
 11
71.21287206356794
 21
229.1109674286439
 31
0.0
 11
71.2706522959744
 21
228.5989779050279
 31
0.0
 11
71.35238290517992
 21
228.0902666318249
 31
0.0
 11
71.45397556603973
 21
227.6084833808813
 31
0.0
 11
71.58018619281174
 21
227.1325646476614
 31
0.0
 11
71.7220067949219
 21
226.6951952758246
 31
0.0
 11
71.88936023884253
 21
226.2669607663221
 31
0.0
 11
72.06669661834891
 21
225.8865924134959
 31
0.0
 11
72.27051094633345
 21
225.5197559237245
 31
0.0
 11
72.47784823737555
 21
225.2068903971939
 31
0.0
 11
72.71205724390853
 21
224.913653560907
 31
0.0
 11
72.94363152880544
 21
224.6764227312518
 31
0.0
 11
73.20058297074985
 21
224.4670697914614
 31
0.0
 11
73.45117944317496
 21
224.3115562268311
 31
0.0
 11
73.72124451985275
 21
224.1935738372399
 31
0.0
 11
73.98600612673503
 21
224.125251483018
 31
0.0
 11
74.25822185351524
 21
224.1014757344161
 31
0.0
  0
ENDBLK
  5
69
330
67
100
AcDbEntity
  8
0
100
AcDbBlockEnd
  0
BLOCK
  5
220
330
219
100
AcDbEntity
  8
0
100
AcDbBlockBegin
  2
*D11
 70
     1
 10
0.0
 20
0.0
 30
0.0
  3
*D11
  1

  0
LINE
  5
21A
330
219
100
AcDbEntity
  8
0
  6
Continuous
 62
     2
100
AcDbLine
 10
194.3502522704333
 20
76.4757249273401
 30
0.0
 11
194.3502522704333
 21
100.4757249273401
 31
0.0
  0
LINE
  5
21B
330
219
100
AcDbEntity
  8
0
  6
Continuous
 62
     2
100
AcDbLine
 10
183.1624011357551
 20
100.4757249273401
 30
0.0
 11
195.3502522704333
 21
100.4757249273401
 31
0.0
  0
LINE
  5
21C
330
219
100
AcDbEntity
  8
0
  6
Continuous
 62
     2
100
AcDbLine
 10
183.162401135755
 20
76.4757249273401
 30
0.0
 11
195.3502522704333
 21
76.4757249273401
 31
0.0
  0
SOLID
  5
21D
330
219
100
AcDbEntity
  8
0
 62
     2
100
AcDbTrace
 10
193.8894685288774
 20
79.9757249273401
 30
0.0
 11
194.8110360119892
 21
79.9757249273401
 31
0.0
 12
194.3502522704333
 22
76.4757249273401
 32
0.0
 13
194.3502522704333
 23
76.4757249273401
 33
0.0
  0
SOLID
  5
21E
330
219
100
AcDbEntity
  8
0
 62
     2
100
AcDbTrace
 10
194.8110360119892
 20
96.9757249273401
 30
0.0
 11
193.8894685288774
 21
96.9757249273401
 31
0.0
 12
194.3502522704333
 22
100.4757249273401
 32
0.0
 13
194.3502522704333
 23
100.4757249273401
 33
0.0
  0
MTEXT
  5
21F
330
219
100
AcDbEntity
  8
0
 62
     7
100
AcDbMText
 10
193.3502522704333
 20
86.0368104675697
 30
0.0
 40
3.5
 41
0.0
 71
     7
 72
     1
  1
24
  7
CONVERTER_12
 11
0.0
 21
1.0
 31
0.0
 73
     1
 44
0.60024009603842
  0
ENDBLK
  5
221
330
219
100
AcDbEntity
  8
0
100
AcDbBlockEnd
  0
BLOCK
  5
22B
330
224
100
AcDbEntity
  8
0
100
AcDbBlockBegin
  2
*D12
 70
     1
 10
0.0
 20
0.0
 30
0.0
  3
*D12
  1

  0
LINE
  5
225
330
224
100
AcDbEntity
  8
1
  6
Continuous
 62
     2
100
AcDbLine
 10
105.3502522704334
 20
88.47572492734004
 30
0.0
 11
105.3502522704334
 21
145.7745980945858
 31
0.0
  0
LINE
  5
226
330
224
100
AcDbEntity
  8
1
  6
Continuous
 62
     2
100
AcDbLine
 10
146.3502522704333
 20
145.7745980945858
 30
0.0
 11
104.3502522704334
 21
145.7745980945858
 31
0.0
  0
LINE
  5
227
330
224
100
AcDbEntity
  8
1
  6
Continuous
 62
     2
100
AcDbLine
 10
118.3502522704333
 20
88.47572492734004
 30
0.0
 11
104.3502522704334
 21
88.47572492734004
 31
0.0
  0
SOLID
  5
228
330
224
100
AcDbEntity
  8
1
 62
     2
100
AcDbTrace
 10
104.8894685288775
 20
91.97572492734004
 30
0.0
 11
105.8110360119893
 21
91.97572492734004
 31
0.0
 12
105.3502522704334
 22
88.47572492734004
 32
0.0
 13
105.3502522704334
 23
88.47572492734004
 33
0.0
  0
SOLID
  5
229
330
224
100
AcDbEntity
  8
1
 62
     2
100
AcDbTrace
 10
105.8110360119893
 20
142.2745980945858
 30
0.0
 11
104.8894685288775
 21
142.2745980945858
 31
0.0
 12
105.3502522704334
 22
145.7745980945858
 32
0.0
 13
105.3502522704334
 23
145.7745980945858
 33
0.0
  0
MTEXT
  5
22A
330
224
100
AcDbEntity
  8
1
 62
     7
100
AcDbMText
 10
104.3502522704334
 20
106.661993316887
 30
0.0
 40
3.5
 41
0.0
 71
     7
 72
     1
  1
58リフト5
  7
CONVERTER_11
 11
0.0
 21
1.0
 31
0.0
 73
     1
 44
0.45454545454545
  0
ENDBLK
  5
22C
330
224
100
AcDbEntity
  8
0
100
AcDbBlockEnd
  0
BLOCK
  5
236
330
22F
100
AcDbEntity
  8
0
100
AcDbBlockBegin
  2
*D13
 70
     1
 10
0.0
 20
0.0
 30
0.0
  3
*D13
  1

  0
LINE
  5
230
330
22F
100
AcDbEntity
  8
0
  6
Continuous
 62
     2
100
AcDbLine
 10
121.3502522704333
 20
65.9279769580482
 30
0.0
 11
146.3502522704333
 21
65.9279769580482
 31
0.0
  0
LINE
  5
231
330
22F
100
AcDbEntity
  8
0
  6
Continuous
 62
     2
100
AcDbLine
 10
121.3502522704333
 20
79.1602249273401
 30
0.0
 11
121.3502522704333
 21
64.9279769580482
 31
0.0
  0
LINE
  5
232
330
22F
100
AcDbEntity
  8
0
  6
Continuous
 62
     2
100
AcDbLine
 10
146.3502522704333
 20
72.9279769580482
 30
0.0
 11
146.3502522704333
 21
64.9279769580482
 31
0.0
  0
SOLID
  5
233
330
22F
100
AcDbEntity
  8
0
 62
     2
100
AcDbTrace
 10
124.8502522704333
 20
66.38876069960409
 30
0.0
 11
124.8502522704333
 21
65.46719321649232
 31
0.0
 12
121.3502522704333
 22
65.9279769580482
 32
0.0
 13
121.3502522704333
 23
65.9279769580482
 33
0.0
  0
SOLID
  5
234
330
22F
100
AcDbEntity
  8
0
 62
     2
100
AcDbTrace
 10
142.8502522704333
 20
65.46719321649232
 30
0.0
 11
142.8502522704333
 21
66.38876069960409
 31
0.0
 12
146.3502522704333
 22
65.9279769580482
 32
0.0
 13
146.3502522704333
 23
65.9279769580482
 33
0.0
  0
MTEXT
  5
235
330
22F
100
AcDbEntity
  8
0
 62
     7
100
AcDbMText
 10
131.2252522704333
 20
66.9279769580482
 30
0.0
 40
3.5
 41
0.0
 71
     7
 72
     1
  1
25
  7
CONVERTER_12
 11
0.9999999999970619
 21
2.424068405545306E-6
 31
0.0
 73
     1
 44
0.60024009603842
  0
ENDBLK
  5
237
330
22F
100
AcDbEntity
  8
0
100
AcDbBlockEnd
  0
BLOCK
  5
241
330
23A
100
AcDbEntity
  8
0
100
AcDbBlockBegin
  2
*D14
 70
     1
 10
0.0
 20
0.0
 30
0.0
  3
*D14
  1

  0
LINE
  5
23B
330
23A
100
AcDbEntity
  8
0
  6
Continuous
 62
     2
100
AcDbLine
 10
146.3502522704333
 20
65.9279769580482
 30
0.0
 11
184.3502522704333
 21
65.9279769580482
 31
0.0
  0
LINE
  5
23C
330
23A
100
AcDbEntity
  8
0
  6
Continuous
 62
     2
100
AcDbLine
 10
146.3502522704333
 20
72.9279769580482
 30
0.0
 11
146.3502522704333
 21
64.9279769580482
 31
0.0
  0
LINE
  5
23D
330
23A
100
AcDbEntity
  8
0
  6
Continuous
 62
     2
100
AcDbLine
 10
184.3502522704333
 20
77.1154819056957
 30
0.0
 11
184.3502522704333
 21
64.9279769580482
 31
0.0
  0
SOLID
  5
23E
330
23A
100
AcDbEntity
  8
0
 62
     2
100
AcDbTrace
 10
149.8502522704333
 20
66.38876069960409
 30
0.0
 11
149.8502522704333
 21
65.46719321649232
 31
0.0
 12
146.3502522704333
 22
65.9279769580482
 32
0.0
 13
146.3502522704333
 23
65.9279769580482
 33
0.0
  0
SOLID
  5
23F
330
23A
100
AcDbEntity
  8
0
 62
     2
100
AcDbTrace
 10
180.8502522704333
 20
65.46719321649232
 30
0.0
 11
180.8502522704333
 21
66.38876069960409
 31
0.0
 12
184.3502522704333
 22
65.9279769580482
 32
0.0
 13
184.3502522704333
 23
65.9279769580482
 33
0.0
  0
MTEXT
  5
240
330
23A
100
AcDbEntity
  8
0
 62
     7
100
AcDbMText
 10
162.7252522704333
 20
66.9279769580482
 30
0.0
 40
3.5
 41
0.0
 71
     7
 72
     1
  1
38
  7
CONVERTER_12
 11
0.9999999999970619
 21
2.424068405545306E-6
 31
0.0
 73
     1
 44
0.60024009603842
  0
ENDBLK
  5
242
330
23A
100
AcDbEntity
  8
0
100
AcDbBlockEnd
  0
ENDSEC
  0
SECTION
  2
ENTITIES
  0
INSERT
  5
6A
330
1F
100
AcDbEntity
  8
1
100
AcDbBlockReference
  2
開示A4
 10
0.0
 20
0.0
 30
0.0
  0
INSERT
  5
6B
330
1F
100
AcDbEntity
  8
1
100
AcDbBlockReference
  2
R10AK-13
 10
166.3502522704333
 20
220.9042893827707
 30
0.0
  0
INSERT
  5
6C
330
1F
100
AcDbEntity
  8
1
100
AcDbBlockReference
  2
V261-13
 10
51.85025227043334
 20
75.9279769580482
 30
0.0
  0
INSERT
  5
6D
330
1F
100
AcDbEntity
  8
1
100
AcDbBlockReference
  2
35-22
 10
86.87861562057495
 20
123.691204945874
 30
0.0
  0
INSERT
  5
6E
330
1F
100
AcDbEntity
  8
1
100
AcDbBlockReference
  2
32-26-M11-314
 10
7.75025227043345
 20
289.1912209889001
 30
0.0
  0
LINE
  5
1E9
330
1F
100
AcDbEntity
  8
1
  6
DASH_CENTER
 62
     2
100
AcDbLine
 10
34.90538854176236
 20
215.9136535609072
 30
0.0
 11
83.49628339983923
 21
187.8596873344317
 31
0.0
  0
LINE
  5
1EA
330
1F
100
AcDbEntity
  8
1
  6
DASH_CENTER
 62
     2
100
AcDbLine
 10
93.79511599910388
 20
215.9136535609069
 30
0.0
 11
45.83889565851354
 21
188.2261168379502
 31
0.0
  0
LINE
  5
1EB
330
1F
100
AcDbEntity
  8
1
  6
DASH_CENTER
 62
     2
100
AcDbLine
 10
146.3502522704333
 20
72.9279769580482
 30
0.0
 11
146.3502522704333
 21
149.7745980945858
 31
0.0
  0
LINE
  5
1EC
330
1F
100
AcDbEntity
  8
1
  6
Continuous
 62
     2
100
AcDbLine
 10
141.2899548532735
 20
249.9385593665054
 30
0.0
 11
187.2899548532735
 21
249.9385593665054
 31
0.0
  0
LINE
  5
1ED
330
1F
100
AcDbEntity
  8
1
  6
Continuous
 62
     7
100
AcDbLine
 10
141.2899548532735
 20
270.9385593665054
 30
0.0
 11
141.2899548532735
 21
242.9385593665054
 31
0.0
  0
LINE
  5
1EE
330
1F
100
AcDbEntity
  8
1
  6
Continuous
 62
     7
100
AcDbLine
 10
171.9623909450602
 20
126.9153265440129
 30
0.0
 11
171.9623909450602
 21
127.8753265440128
 31
0.0
  0
LINE
  5
1EF
330
1F
100
AcDbEntity
  8
1
  6
Continuous
 62
     7
100
AcDbLine
 10
175.5623909450602
 20
126.9153265440129
 30
0.0
 11
171.9623909450602
 21
126.9153265440129
 31
0.0
  0
LINE
  5
1F0
330
1F
100
AcDbEntity
  8
1
  6
Continuous
 62
     7
100
AcDbLine
 10
175.5623909450602
 20
124.9353265440129
 30
0.0
 11
175.5623909450602
 21
126.9153265440129
 31
0.0
  0
LINE
  5
1F1
330
1F
100
AcDbEntity
  8
1
  6
Continuous
 62
     7
100
AcDbLine
 10
171.9623909450602
 20
124.9353265440129
 30
0.0
 11
175.5623909450602
 21
124.9353265440129
 31
0.0
  0
LINE
  5
1F2
330
1F
100
AcDbEntity
  8
1
  6
Continuous
 62
     7
100
AcDbLine
 10
171.9623909450598
 20
123.9753265440128
 30
0.0
 11
171.9623909450602
 21
124.9353265440129
 31
0.0
  0
LINE
  5
1F3
330
1F
100
AcDbEntity
  8
1
  6
Continuous
 62
     7
100
AcDbLine
 10
168.5423909450603
 20
125.9253265440128
 30
0.0
 11
171.9623909450598
 21
123.9753265440128
 31
0.0
  0
LINE
  5
1F4
330
1F
100
AcDbEntity
  8
1
  6
Continuous
 62
     7
100
AcDbLine
 10
171.9623909450602
 20
127.8753265440128
 30
0.0
 11
168.5423909450603
 21
125.9253265440128
 31
0.0
  0
LINE
  5
1F5
330
1F
100
AcDbEntity
  8
1
  6
DASH_CENTER
 62
     2
100
AcDbLine
 10
64.35025227043334
 20
164.9136535609072
 30
0.0
 11
64.35025227043334
 21
211.4136535609072
 31
0.0
  0
LINE
  5
1F6
330
1F
100
AcDbEntity
  8
1
  6
DASH_CENTER
 62
     2
100
AcDbLine
 10
86.35025227043334
 20
198.9136535609072
 30
0.0
 11
42.35025227043334
 21
198.9136535609072
 31
0.0
  0
LINE
  5
1F7
330
1F
100
AcDbEntity
  8
1
  6
DASH_CENTER
 62
     2
100
AcDbLine
 10
64.35025227043334
 20
211.4136535609072
 30
0.0
 11
64.35025227043334
 21
239.9136535609072
 31
0.0
  0
LINE
  5
1F8
330
1F
100
AcDbEntity
  8
1
  6
DASH_CENTER
 62
     2
100
AcDbLine
 10
187.3502522704333
 20
88.4757249273401
 30
0.0
 11
146.3502522704333
 21
88.4757249273401
 31
0.0
  0
LINE
  5
1F9
330
1F
100
AcDbEntity
  8
1
  6
DASH_CENTER
 62
     2
100
AcDbLine
 10
64.35025227043334
 20
149.9745980945858
 30
0.0
 11
64.35025227043334
 21
72.9279769580482
 31
0.0
  0
LINE
  5
1FA
330
1F
100
AcDbEntity
  8
1
  6
DASH_CENTER
 62
     2
100
AcDbLine
 10
48.85025227043334
 20
88.4757249273401
 30
0.0
 11
79.85025227043334
 21
88.4757249273401
 31
0.0
  0
LINE
  5
1FB
330
1F
100
AcDbEntity
  8
1
  6
DASH_CENTER
 62
     2
100
AcDbLine
 10
146.3502522704333
 20
88.4757249273401
 30
0.0
 11
118.3502522704333
 21
88.4757249273401
 31
0.0
  0
LINE
  5
1FC
330
1F
100
AcDbEntity
  8
1
  6
Continuous
 62
     2
100
AcDbLine
 10
141.2899548532735
 20
263.9385593665054
 30
0.0
 11
187.2899548532735
 21
263.9385593665054
 31
0.0
  0
LINE
  5
1FD
330
1F
100
AcDbEntity
  8
1
  6
Continuous
 62
     7
100
AcDbLine
 10
141.2899548532735
 20
270.9385593665054
 30
0.0
 11
187.2899548532735
 21
270.9385593665054
 31
0.0
  0
LINE
  5
1FE
330
1F
100
AcDbEntity
  8
1
  6
Continuous
 62
     2
100
AcDbLine
 10
171.2899548532735
 20
270.9385593665054
 30
0.0
 11
171.2899548532735
 21
242.9385593665054
 31
0.0
  0
LINE
  5
1FF
330
1F
100
AcDbEntity
  8
1
  6
Continuous
 62
     2
100
AcDbLine
 10
141.2899548532735
 20
256.9385593665054
 30
0.0
 11
187.2899548532735
 21
256.9385593665054
 31
0.0
  0
LINE
  5
200
330
1F
100
AcDbEntity
  8
1
  6
Continuous
 62
     7
100
AcDbLine
 10
187.2899548532735
 20
270.9385593665054
 30
0.0
 11
187.2899548532735
 21
242.9385593665054
 31
0.0
  0
LINE
  5
201
330
1F
100
AcDbEntity
  8
1
  6
Continuous
 62
     7
100
AcDbLine
 10
141.2899548532735
 20
242.9385593665054
 30
0.0
 11
187.2899548532735
 21
242.9385593665054
 31
0.0
  0
SOLID
  5
202
330
1F
100
AcDbEntity
  8
1
 62
     2
100
AcDbTrace
 10
124.0161832429797
 20
74.73674414331681
 30
0.0
 11
123.2180823913032
 21
75.1975278848727
 31
0.0
 12
125.3671328171414
 22
77.9982249273403
 32
0.0
 13
125.3671328171414
 23
77.9982249273403
 33
0.0
  0
LEADER
  5
203
330
1F
100
AcDbEntity
  8
1
  6
Continuous
 62
     2
100
AcDbLeader
  3
Standard
 71
     0
 76
     3
 10
125.3671328171414
 20
77.9982249273403
 30
0.0
 10
118.3983719028852
 20
65.9279769580482
 30
0.0
 10
105.7033961725267
 20
65.9279769580482
 30
0.0
  0
CIRCLE
  5
204
102
{ACAD_REACTORS
330
205
102
}
330
1F
100
AcDbEntity
  8
1
 62
     2
100
AcDbCircle
 10
146.3502522704333
 20
88.4757249273401
 30
0.0
 40
0.9000000000000001
  0
HATCH
  5
205
330
1F
100
AcDbEntity
  8
1
 62
     2
100
AcDbHatch
 10
0.0
 20
0.0
 30
0.0
210
0.0
220
0.0
230
1.0
  2
SOLID
 70
     1
 71
     1
 91
        1
 92
        1
 93
        1
 72
     2
 10
146.3502522704333
 20
88.4757249273401
 40
0.9000000000000001
 50
0.0
 51
360.0
 73
     1
 97
        1
330
204
 75
     0
 76
     1
 98
        0
  0
LEADER
  5
206
330
1F
100
AcDbEntity
  8
1
  6
Continuous
 62
     2
100
AcDbLeader
  3
Standard
 71
     0
 76
     3
 10
146.3502522704333
 20
88.4757249273401
 30
0.0
 10
166.2828517772102
 20
123.0
 30
0.0
 10
177.6136333205281
 20
123.0
 30
0.0
  0
SOLID
  5
207
330
1F
100
AcDbEntity
  8
1
 62
     2
100
AcDbTrace
 10
185.7012018445951
 20
101.9252057113636
 30
0.0
 11
186.4993026962715
 21
101.4644219698077
 31
0.0
 12
184.3502522704333
 22
98.66372492734011
 32
0.0
 13
184.3502522704333
 23
98.66372492734011
 33
0.0
  0
LEADER
  5
208
330
1F
100
AcDbEntity
  8
1
  6
Continuous
 62
     2
100
AcDbLeader
  3
Standard
 71
     0
 76
     3
 10
184.3502522704333
 20
98.66372492734011
 30
0.0
 10
189.8069930249144
 20
108.1150771578328
 30
0.0
 10
177.1065236900274
 20
108.1150771578328
 30
0.0
  0
MTEXT
  5
209
330
1F
100
AcDbEntity
  8
1
 62
     7
100
AcDbMText
 10
34.00000000000003
 20
34.00000000000001
 30
0.0
 40
3.5
 41
0.0
 71
     4
 72
     1
  1
共用形
  7
CONVERTER_11
 73
     1
 44
0.54545454545455
  0
MTEXT
  5
20B
330
1F
100
AcDbEntity
  8
1
 62
     7
100
AcDbMText
 10
111.6836393316046
 20
68.9279769580482
 30
0.0
 40
3.5
 41
0.0
 71
     5
 72
     1
  1
G1/2
  7
CONVERTER_12
 73
     1
 44
0.7202881152461
  0
MTEXT
  5
20C
330
1F
100
AcDbEntity
  8
0
 62
     7
100
AcDbMText
 10
57.00000000000003
 20
22.75000000000002
 30
0.0
 40
3.5
 41
0.0
 71
     5
 72
     1
  1
ナット付化粧バルブ
  7
CONVERTER_11
 73
     1
 44
0.54545454545455
  0
MTEXT
  5
20D
330
1F
100
AcDbEntity
  8
0
 62
     7
100
AcDbMText
 10
57.00000000000003
 20
14.25
 30
0.0
 40
3.5
 41
0.0
 71
     5
 72
     1
  1
V261-13-色
  7
CONVERTER_11
 73
     1
 44
0.54545454545455
  0
MTEXT
  5
20E
330
1F
100
AcDbEntity
  8
0
 62
     7
100
AcDbMText
 10
85.25000000000003
 20
17.0
 30
0.0
 40
3.5
 41
0.0
 71
     5
 72
     1
  1
1
  7
CONVERTER_12
 73
     1
 44
0.7202881152461
  0
MTEXT
  5
20F
330
1F
100
AcDbEntity
  8
0
 62
     7
100
AcDbMText
 10
93.75000000000003
 20
17.0
 30
0.0
 40
3.5
 41
0.0
 71
     5
 72
     1
  1
1
  7
CONVERTER_12
 73
     1
 44
0.7202881152461
  0
MTEXT
  5
210
330
1F
100
AcDbEntity
  8
1
 62
     7
100
AcDbMText
 10
183.4570414607964
 20
111.1150771578328
 30
0.0
 40
3.5
 41
0.0
 71
     5
 72
     1
  1
G1/2
  7
CONVERTER_12
 73
     1
 44
0.7202881152461
  0
MTEXT
  5
211
330
1F
100
AcDbEntity
  8
1
 62
     7
100
AcDbMText
 10
179.2899548532735
 20
253.4385593665054
 30
0.0
 40
3.5
 41
0.0
 71
     5
 72
     1
  1
赤
  7
CONVERTER_11
 73
     1
 44
0.54545454545455
  0
MTEXT
  5
212
330
1F
100
AcDbEntity
  8
1
 62
     7
100
AcDbMText
 10
156.2899548532735
 20
253.4385593665054
 30
0.0
 40
3.5
 41
0.0
 71
     5
 72
     1
  1
V261-13-R
  7
CONVERTER_12
 73
     1
 44
0.7202881152461
  0
MTEXT
  5
213
330
1F
100
AcDbEntity
  8
1
 62
     7
100
AcDbMText
 10
179.2899548532735
 20
267.4385593665054
 30
0.0
 40
3.5
 41
0.0
 71
     5
 72
     1
  1
ビス色
  7
CONVERTER_11
 73
     1
 44
0.54545454545455
  0
MTEXT
  5
214
330
1F
100
AcDbEntity
  8
1
 62
     7
100
AcDbMText
 10
156.2899548532735
 20
267.4385593665054
 30
0.0
 40
3.5
 41
0.0
 71
     5
 72
     1
  1
品番
  7
CONVERTER_11
 73
     1
 44
0.54545454545455
  0
MTEXT
  5
215
330
1F
100
AcDbEntity
  8
1
 62
     7
100
AcDbMText
 10
179.2899548532735
 20
260.4385593665054
 30
0.0
 40
3.5
 41
0.0
 71
     5
 72
     1
  1
無地
  7
CONVERTER_11
 73
     1
 44
0.54545454545455
  0
MTEXT
  5
216
330
1F
100
AcDbEntity
  8
1
 62
     7
100
AcDbMText
 10
156.2899548532735
 20
260.4385593665054
 30
0.0
 40
3.5
 41
0.0
 71
     5
 72
     1
  1
V261-13
  7
CONVERTER_12
 73
     1
 44
0.7202881152461
  0
MTEXT
  5
217
330
1F
100
AcDbEntity
  8
1
 62
     7
100
AcDbMText
 10
156.2899548532735
 20
246.4385593665054
 30
0.0
 40
3.5
 41
0.0
 71
     5
 72
     1
  1
V261-13-B
  7
CONVERTER_12
 73
     1
 44
0.7202881152461
  0
MTEXT
  5
218
330
1F
100
AcDbEntity
  8
1
 62
     7
100
AcDbMText
 10
179.2899548532735
 20
246.4385593665054
 30
0.0
 40
3.5
 41
0.0
 71
     5
 72
     1
  1
青
  7
CONVERTER_11
 73
     1
 44
0.54545454545455
  0
DIMENSION
  5
223
330
1F
100
AcDbEntity
  8
0
100
AcDbDimension
  2
*D11
 10
194.3502522704333
 20
76.4757249273401
 30
0.0
 11
191.6002522704333
 21
88.6618104675697
 31
0.0
 70
    32
  1
<>
 71
     5
 42
-1.0
 53
90.0
  3
ME10_DIM_10
100
AcDbAlignedDimension
 13
183.1624011357551
 23
100.4757249273401
 33
0.0
 14
183.1624011357551
 24
76.4757249273401
 34
0.0
 50
90.0
100
AcDbRotatedDimension
  0
DIMENSION
  5
22E
330
1F
100
AcDbEntity
  8
1
100
AcDbDimension
  2
*D12
 10
105.3502522704334
 20
88.47572492734004
 30
0.0
 11
102.6002522704334
 21
116.111993316887
 31
0.0
 70
    32
  1
58リフト5
 71
     5
 42
-1.0
 53
90.0
  3
ME10_DIM_11
100
AcDbAlignedDimension
 13
146.3502522704333
 23
145.7745980945858
 33
0.0
 14
118.3502522704333
 24
88.4757249273401
 34
0.0
 50
90.0
100
AcDbRotatedDimension
  0
DIMENSION
  5
239
330
1F
100
AcDbEntity
  8
0
100
AcDbDimension
  2
*D13
 10
121.3502522704333
 20
65.9279769580482
 30
0.0
 11
133.8502522704333
 21
68.6779769580482
 31
0.0
 70
    32
  1
<>
 71
     5
 42
-1.0
 53
0.00013888888889
  3
ME10_DIM_12
100
AcDbAlignedDimension
 13
146.3502522704333
 23
72.9279769580482
 33
0.0
 14
121.3502522704333
 24
79.1602249273401
 34
0.0
100
AcDbRotatedDimension
  0
DIMENSION
  5
244
330
1F
100
AcDbEntity
  8
0
100
AcDbDimension
  2
*D14
 10
146.3502522704333
 20
65.9279769580482
 30
0.0
 11
165.3502522704333
 21
68.6779769580482
 31
0.0
 70
    32
  1
<>
 71
     5
 42
-1.0
 53
0.00013888888889
  3
ME10_DIM_13
100
AcDbAlignedDimension
 13
184.3502522704333
 23
77.1154819056957
 33
0.0
 14
146.3502522704333
 24
72.9279769580482
 34
0.0
100
AcDbRotatedDimension
  0
ENDSEC
  0
SECTION
  2
OBJECTS
  0
DICTIONARY
  5
C
330
0
100
AcDbDictionary
281
     1
  3
ACAD_GROUP
350
D
  3
ACAD_LAYOUT
350
1A
  3
ACAD_MATERIAL
350
3B
  3
ACAD_MLEADERSTYLE
350
247
  3
ACAD_MLINESTYLE
350
17
  3
ACAD_PLOTSETTINGS
350
19
  3
ACAD_PLOTSTYLENAME
350
E
  3
ACAD_VISUALSTYLE
350
2A
  3
AcDbVariableDictionary
350
245
  0
DICTIONARY
  5
D
102
{ACAD_REACTORS
330
C
102
}
330
C
100
AcDbDictionary
281
     1
  0
DICTIONARY
  5
1A
102
{ACAD_REACTORS
330
C
102
}
330
C
100
AcDbDictionary
281
     1
  3
Layout1
350
1E
  3
Layout2
350
26
  3
Model
350
22
  0
DICTIONARY
  5
3B
102
{ACAD_REACTORS
330
C
102
}
330
C
100
AcDbDictionary
281
     1
  3
ByBlock
350
3D
  3
ByLayer
350
3C
  3
Global
350
3E
  0
DICTIONARY
  5
247
102
{ACAD_REACTORS
330
C
102
}
330
C
100
AcDbDictionary
281
     1
  0
DICTIONARY
  5
17
102
{ACAD_REACTORS
330
C
102
}
330
C
100
AcDbDictionary
281
     1
  3
Standard
350
18
  0
DICTIONARY
  5
19
102
{ACAD_REACTORS
330
C
102
}
330
C
100
AcDbDictionary
281
     1
  0
ACDBDICTIONARYWDFLT
  5
E
102
{ACAD_REACTORS
330
C
102
}
330
C
100
AcDbDictionary
281
     1
  3
Normal
350
F
100
AcDbDictionaryWithDefault
340
F
  0
DICTIONARY
  5
2A
102
{ACAD_REACTORS
330
C
102
}
330
C
100
AcDbDictionary
281
     1
  3
2dWireframe
350
2F
  3
3D Hidden
350
31
  3
3dWireframe
350
30
  3
Basic
350
32
  3
Brighten
350
36
  3
ColorChange
350
3A
  3
Conceptual
350
34
  3
Dim
350
35
  3
Facepattern
350
39
  3
Flat
350
2B
  3
FlatWithEdges
350
2C
  3
Gouraud
350
2D
  3
GouraudWithEdges
350
2E
  3
Linepattern
350
38
  3
Realistic
350
33
  3
Thicken
350
37
  0
DICTIONARY
  5
245
102
{ACAD_REACTORS
330
C
102
}
330
C
100
AcDbDictionary
281
     1
  3
DIMASSOC
350
248
  3
HIDETEXT
350
249
  0
LAYOUT
  5
1E
102
{ACAD_REACTORS
330
1A
102
}
330
1A
100
AcDbPlotSettings
  1

  2
none_device
  4

  6

 40
0.0
 41
0.0
 42
0.0
 43
0.0
 44
0.0
 45
0.0
 46
0.0
 47
0.0
 48
0.0
 49
0.0
140
0.0
141
0.0
142
1.0
143
1.0
 70
   688
 72
     0
 73
     0
 74
     5
  7

 75
    16
147
1.0
148
0.0
149
0.0
100
AcDbLayout
  1
Layout1
 70
     1
 71
     1
 10
0.0
 20
0.0
 11
12.0
 21
9.0
 12
0.0
 22
0.0
 32
0.0
 14
1.00000000000000E+20
 24
1.00000000000000E+20
 34
1.00000000000000E+20
 15
-1.00000000000000E+20
 25
-1.00000000000000E+20
 35
-1.00000000000000E+20
146
0.0
 13
0.0
 23
0.0
 33
0.0
 16
1.0
 26
0.0
 36
0.0
 17
0.0
 27
1.0
 37
0.0
 76
     0
330
1B
  0
LAYOUT
  5
26
102
{ACAD_REACTORS
330
1A
102
}
330
1A
100
AcDbPlotSettings
  1

  2
none_device
  4

  6

 40
0.0
 41
0.0
 42
0.0
 43
0.0
 44
0.0
 45
0.0
 46
0.0
 47
0.0
 48
0.0
 49
0.0
140
0.0
141
0.0
142
1.0
143
1.0
 70
   688
 72
     0
 73
     0
 74
     5
  7

 75
    16
147
1.0
148
0.0
149
0.0
100
AcDbLayout
  1
Layout2
 70
     1
 71
     2
 10
0.0
 20
0.0
 11
0.0
 21
0.0
 12
0.0
 22
0.0
 32
0.0
 14
0.0
 24
0.0
 34
0.0
 15
0.0
 25
0.0
 35
0.0
146
0.0
 13
0.0
 23
0.0
 33
0.0
 16
1.0
 26
0.0
 36
0.0
 17
0.0
 27
1.0
 37
0.0
 76
     0
330
23
  0
LAYOUT
  5
22
102
{ACAD_REACTORS
330
1A
102
}
330
1A
100
AcDbPlotSettings
  1

  2
none_device
  4

  6

 40
0.0
 41
0.0
 42
0.0
 43
0.0
 44
0.0
 45
0.0
 46
0.0
 47
0.0
 48
0.0
 49
0.0
140
0.0
141
0.0
142
1.0
143
1.0
 70
  1712
 72
     0
 73
     0
 74
     0
  7

 75
     0
147
1.0
148
0.0
149
0.0
100
AcDbLayout
  1
Model
 70
     1
 71
     0
 10
0.0
 20
0.0
 11
12.0
 21
9.0
 12
0.0
 22
0.0
 32
0.0
 14
0.0
 24
0.0
 34
0.0
 15
210.0
 25
297.0
 35
0.0
146
0.0
 13
0.0
 23
0.0
 33
0.0
 16
1.0
 26
0.0
 36
0.0
 17
0.0
 27
1.0
 37
0.0
 76
     0
330
1F
331
29
  0
MATERIAL
  5
3D
102
{ACAD_REACTORS
330
3B
102
}
102
{ACAD_XDICTIONARY
360
26C
102
}
330
3B
100
AcDbMaterial
  1
ByBlock
  0
MATERIAL
  5
3C
102
{ACAD_REACTORS
330
3B
102
}
102
{ACAD_XDICTIONARY
360
26A
102
}
330
3B
100
AcDbMaterial
  1
ByLayer
  0
MATERIAL
  5
3E
102
{ACAD_REACTORS
330
3B
102
}
102
{ACAD_XDICTIONARY
360
26E
102
}
330
3B
100
AcDbMaterial
  1
Global
  0
MLINESTYLE
  5
18
102
{ACAD_REACTORS
330
17
102
}
330
17
100
AcDbMlineStyle
  2
Standard
 70
     0
  3

 62
   256
 51
90.0
 52
90.0
 71
     2
 49
0.5
 62
   256
  6
BYLAYER
 49
-0.5
 62
   256
  6
BYLAYER
  0
ACDBPLACEHOLDER
  5
F
102
{ACAD_REACTORS
330
E
102
}
330
E
  0
VISUALSTYLE
  5
2F
102
{ACAD_REACTORS
330
2A
102
}
102
{ACAD_XDICTIONARY
360
252
102
}
330
2A
100
AcDbVisualStyle
  2
2dWireframe
 70
     4
 71
     0
 72
     2
 73
     0
 90
        0
 40
-0.6
 41
-30.0
 62
     5
 63
     7
 74
     1
 91
        4
 64
     7
 65
   257
 75
     1
175
     1
 42
1.0
 92
        0
 66
   257
 43
1.0
 76
     1
 77
     6
 78
     2
 67
     7
 79
     5
170
     0
171
     0
290
     0
174
     0
 93
        1
 44
0.0
173
     0
291
     0
 45
0.0
1001
ACAD
1000
AcDbSavedByObjectVersion
1070
     0
  0
VISUALSTYLE
  5
31
102
{ACAD_REACTORS
330
2A
102
}
102
{ACAD_XDICTIONARY
360
256
102
}
330
2A
100
AcDbVisualStyle
  2
3D Hidden
 70
     6
 71
     1
 72
     2
 73
     2
 90
        0
 40
-0.6
 41
-30.0
 62
     5
 63
     7
 74
     2
 91
        2
 64
     7
 65
   257
 75
     2
175
     1
 42
40.0
 92
        0
 66
   257
 43
1.0
 76
     1
 77
     6
 78
     2
 67
     7
 79
     3
170
     0
171
     0
290
     0
174
     0
 93
        1
 44
0.0
173
     0
291
     0
 45
0.0
1001
ACAD
1000
AcDbSavedByObjectVersion
1070
     0
  0
VISUALSTYLE
  5
30
102
{ACAD_REACTORS
330
2A
102
}
102
{ACAD_XDICTIONARY
360
254
102
}
330
2A
100
AcDbVisualStyle
  2
3dWireframe
 70
     5
 71
     0
 72
     2
 73
     0
 90
        0
 40
-0.6
 41
-30.0
 62
     5
 63
     7
 74
     1
 91
        4
 64
     7
 65
   257
 75
     1
175
     1
 42
1.0
 92
        0
 66
   257
 43
1.0
 76
     1
 77
     6
 78
     2
 67
     7
 79
     5
170
     0
171
     0
290
     0
174
     0
 93
        1
 44
0.0
173
     0
291
     0
 45
0.0
1001
ACAD
1000
AcDbSavedByObjectVersion
1070
     0
  0
VISUALSTYLE
  5
32
102
{ACAD_REACTORS
330
2A
102
}
102
{ACAD_XDICTIONARY
360
258
102
}
330
2A
100
AcDbVisualStyle
  2
Basic
 70
     7
 71
     1
 72
     0
 73
     1
 90
        0
 40
-0.6
 41
-30.0
 62
     5
 63
     7
 74
     0
 91
        4
 64
     7
 65
   257
 75
     1
175
     1
 42
1.0
 92
        8
 66
     7
 43
1.0
 76
     1
 77
     6
 78
     2
 67
     7
 79
     5
170
     0
171
     0
290
     0
174
     0
 93
        1
 44
0.0
173
     0
291
     1
 45
0.0
1001
ACAD
1000
AcDbSavedByObjectVersion
1070
     0
  0
VISUALSTYLE
  5
36
102
{ACAD_REACTORS
330
2A
102
}
102
{ACAD_XDICTIONARY
360
260
102
}
330
2A
100
AcDbVisualStyle
  2
Brighten
 70
    12
 71
     2
 72
     2
 73
     0
 90
        0
 40
-0.6
 41
-30.0
 62
     5
 63
     7
 74
     1
 91
        4
 64
     7
 65
   257
 75
     1
175
     1
 42
1.0
 92
        8
 66
     7
 43
1.0
 76
     1
 77
     6
 78
     2
 67
     7
 79
     5
170
     0
171
     0
290
     0
174
     0
 93
        1
 44
50.0
173
     0
291
     1
 45
0.0
1001
ACAD
1000
AcDbSavedByObjectVersion
1070
     0
  0
VISUALSTYLE
  5
3A
102
{ACAD_REACTORS
330
2A
102
}
102
{ACAD_XDICTIONARY
360
268
102
}
330
2A
100
AcDbVisualStyle
  2
ColorChange
 70
    16
 71
     2
 72
     2
 73
     3
 90
        0
 40
-0.6
 41
-30.0
 62
     5
 63
     8
 74
     1
 91
        4
 64
     7
 65
   257
 75
     1
175
     1
 42
1.0
 92
        8
 66
     8
 43
1.0
 76
     1
 77
     6
 78
     2
 67
     7
 79
     5
170
     0
171
     0
290
     0
174
     0
 93
        1
 44
0.0
173
     0
291
     1
 45
0.0
1001
ACAD
1000
AcDbSavedByObjectVersion
1070
     0
  0
VISUALSTYLE
  5
34
102
{ACAD_REACTORS
330
2A
102
}
102
{ACAD_XDICTIONARY
360
25C
102
}
330
2A
100
AcDbVisualStyle
  2
Conceptual
 70
     9
 71
     3
 72
     2
 73
     0
 90
        0
 40
-0.6
 41
-30.0
 62
     5
 63
     7
 74
     2
 91
        2
 64
     7
 65
   257
 75
     1
175
     1
 42
40.0
 92
        8
 66
     7
 43
1.0
 76
     1
 77
     6
 78
     2
 67
     7
 79
     3
170
     0
171
     0
290
     0
174
     0
 93
        1
 44
0.0
173
     0
291
     0
 45
0.0
1001
ACAD
1000
AcDbSavedByObjectVersion
1070
     0
  0
VISUALSTYLE
  5
35
102
{ACAD_REACTORS
330
2A
102
}
102
{ACAD_XDICTIONARY
360
25E
102
}
330
2A
100
AcDbVisualStyle
  2
Dim
 70
    11
 71
     2
 72
     2
 73
     0
 90
        0
 40
-0.6
 41
-30.0
 62
     5
 63
     7
 74
     1
 91
        4
 64
     7
 65
   257
 75
     1
175
     1
 42
1.0
 92
        8
 66
     7
 43
1.0
 76
     1
 77
     6
 78
     2
 67
     7
 79
     5
170
     0
171
     0
290
     0
174
     0
 93
        1
 44
-50.0
173
     0
291
     1
 45
0.0
1001
ACAD
1000
AcDbSavedByObjectVersion
1070
     0
  0
VISUALSTYLE
  5
39
102
{ACAD_REACTORS
330
2A
102
}
102
{ACAD_XDICTIONARY
360
266
102
}
330
2A
100
AcDbVisualStyle
  2
Facepattern
 70
    15
 71
     2
 72
     2
 73
     0
 90
        0
 40
-0.6
 41
-30.0
 62
     5
 63
     7
 74
     1
 91
        4
 64
     7
 65
   257
 75
     1
175
     1
 42
1.0
 92
        8
 66
     7
 43
1.0
 76
     1
 77
     6
 78
     2
 67
     7
 79
     5
170
     0
171
     0
290
     0
174
     0
 93
        1
 44
0.0
173
     0
291
     1
 45
0.0
1001
ACAD
1000
AcDbSavedByObjectVersion
1070
     0
  0
VISUALSTYLE
  5
2B
102
{ACAD_REACTORS
330
2A
102
}
102
{ACAD_XDICTIONARY
360
24A
102
}
330
2A
100
AcDbVisualStyle
  2
Flat
 70
     0
 71
     2
 72
     1
 73
     1
 90
        2
 40
-0.6
 41
30.0
 62
     5
 63
     7
 74
     0
 91
        4
 64
     7
 65
   257
 75
     1
175
     1
 42
1.0
 92
        8
 66
     7
 43
1.0
 76
     1
 77
     6
 78
     2
 67
     7
 79
     5
170
     0
171
     0
290
     0
174
     0
 93
       13
 44
0.0
173
     0
291
     1
 45
0.0
1001
ACAD
1000
AcDbSavedByObjectVersion
1070
     0
  0
VISUALSTYLE
  5
2C
102
{ACAD_REACTORS
330
2A
102
}
102
{ACAD_XDICTIONARY
360
24C
102
}
330
2A
100
AcDbVisualStyle
  2
FlatWithEdges
 70
     1
 71
     2
 72
     1
 73
     1
 90
        2
 40
-0.6
 41
30.0
 62
     5
 63
     7
 74
     1
 91
        4
 64
     7
 65
   257
 75
     1
175
     1
 42
1.0
 92
        0
 66
   257
 43
1.0
 76
     1
 77
     6
 78
     2
 67
     7
 79
     5
170
     0
171
     0
290
     0
174
     0
 93
       13
 44
0.0
173
     0
291
     1
 45
0.0
1001
ACAD
1000
AcDbSavedByObjectVersion
1070
     0
  0
VISUALSTYLE
  5
2D
102
{ACAD_REACTORS
330
2A
102
}
102
{ACAD_XDICTIONARY
360
24E
102
}
330
2A
100
AcDbVisualStyle
  2
Gouraud
 70
     2
 71
     2
 72
     2
 73
     1
 90
        2
 40
-0.6
 41
30.0
 62
     5
 63
     7
 74
     0
 91
        4
 64
     7
 65
   257
 75
     1
175
     1
 42
1.0
 92
        0
 66
     7
 43
1.0
 76
     1
 77
     6
 78
     2
 67
     7
 79
     5
170
     0
171
     0
290
     0
174
     0
 93
       13
 44
0.0
173
     0
291
     1
 45
0.0
1001
ACAD
1000
AcDbSavedByObjectVersion
1070
     0
  0
VISUALSTYLE
  5
2E
102
{ACAD_REACTORS
330
2A
102
}
102
{ACAD_XDICTIONARY
360
250
102
}
330
2A
100
AcDbVisualStyle
  2
GouraudWithEdges
 70
     3
 71
     2
 72
     2
 73
     1
 90
        2
 40
-0.6
 41
30.0
 62
     5
 63
     7
 74
     1
 91
        4
 64
     7
 65
   257
 75
     1
175
     1
 42
1.0
 92
        0
 66
   257
 43
1.0
 76
     1
 77
     6
 78
     2
 67
     7
 79
     5
170
     0
171
     0
290
     0
174
     0
 93
       13
 44
0.0
173
     0
291
     1
 45
0.0
1001
ACAD
1000
AcDbSavedByObjectVersion
1070
     0
  0
VISUALSTYLE
  5
38
102
{ACAD_REACTORS
330
2A
102
}
102
{ACAD_XDICTIONARY
360
264
102
}
330
2A
100
AcDbVisualStyle
  2
Linepattern
 70
    14
 71
     2
 72
     2
 73
     0
 90
        0
 40
-0.6
 41
-30.0
 62
     5
 63
     7
 74
     1
 91
        4
 64
     7
 65
   257
 75
     7
175
     7
 42
1.0
 92
        8
 66
     7
 43
1.0
 76
     1
 77
     6
 78
     2
 67
     7
 79
     5
170
     0
171
     0
290
     0
174
     0
 93
        1
 44
0.0
173
     0
291
     1
 45
0.0
1001
ACAD
1000
AcDbSavedByObjectVersion
1070
     0
  0
VISUALSTYLE
  5
33
102
{ACAD_REACTORS
330
2A
102
}
102
{ACAD_XDICTIONARY
360
25A
102
}
330
2A
100
AcDbVisualStyle
  2
Realistic
 70
     8
 71
     2
 72
     2
 73
     0
 90
        0
 40
-0.6
 41
-30.0
 62
     5
 63
     7
 74
     1
 91
        0
 64
     7
 65
   257
 75
     1
175
     1
 42
1.0
 92
        8
 66
     8
 43
1.0
 76
     1
 77
     6
 78
     2
 67
     7
 79
     5
170
     0
171
     0
290
     0
174
     0
 93
       13
 44
0.0
173
     0
291
     0
 45
0.0
1001
ACAD
1000
AcDbSavedByObjectVersion
1070
     0
  0
VISUALSTYLE
  5
37
102
{ACAD_REACTORS
330
2A
102
}
102
{ACAD_XDICTIONARY
360
262
102
}
330
2A
100
AcDbVisualStyle
  2
Thicken
 70
    13
 71
     2
 72
     2
 73
     0
 90
        0
 40
-0.6
 41
-30.0
 62
     5
 63
     7
 74
     1
 91
        4
 64
     7
 65
   257
 75
     1
175
     1
 42
1.0
 92
       12
 66
     7
 43
1.0
 76
     1
 77
     6
 78
     2
 67
     7
 79
     5
170
     0
171
     0
290
     0
174
     0
 93
        1
 44
0.0
173
     0
291
     1
 45
0.0
1001
ACAD
1000
AcDbSavedByObjectVersion
1070
     0
  0
DICTIONARYVAR
  5
248
102
{ACAD_REACTORS
330
245
102
}
330
245
100
DictionaryVariables
280
     0
  1
2
  0
DICTIONARYVAR
  5
249
102
{ACAD_REACTORS
330
245
102
}
330
245
100
DictionaryVariables
280
     0
  1
1
  0
DICTIONARY
  5
26C
330
3D
100
AcDbDictionary
280
     1
281
     1
  3
ACAD_XREC_ROUNDTRIP
360
26D
  0
DICTIONARY
  5
26A
330
3C
100
AcDbDictionary
280
     1
281
     1
  3
ACAD_XREC_ROUNDTRIP
360
26B
  0
DICTIONARY
  5
26E
330
3E
100
AcDbDictionary
280
     1
281
     1
  3
ACAD_XREC_ROUNDTRIP
360
26F
  0
DICTIONARY
  5
252
330
2F
100
AcDbDictionary
280
     1
281
     1
  3
ACAD_XREC_ROUNDTRIP
360
253
  0
DICTIONARY
  5
256
330
31
100
AcDbDictionary
280
     1
281
     1
  3
ACAD_XREC_ROUNDTRIP
360
257
  0
DICTIONARY
  5
254
330
30
100
AcDbDictionary
280
     1
281
     1
  3
ACAD_XREC_ROUNDTRIP
360
255
  0
DICTIONARY
  5
258
330
32
100
AcDbDictionary
280
     1
281
     1
  3
ACAD_XREC_ROUNDTRIP
360
259
  0
DICTIONARY
  5
260
330
36
100
AcDbDictionary
280
     1
281
     1
  3
ACAD_XREC_ROUNDTRIP
360
261
  0
DICTIONARY
  5
268
330
3A
100
AcDbDictionary
280
     1
281
     1
  3
ACAD_XREC_ROUNDTRIP
360
269
  0
DICTIONARY
  5
25C
330
34
100
AcDbDictionary
280
     1
281
     1
  3
ACAD_XREC_ROUNDTRIP
360
25D
  0
DICTIONARY
  5
25E
330
35
100
AcDbDictionary
280
     1
281
     1
  3
ACAD_XREC_ROUNDTRIP
360
25F
  0
DICTIONARY
  5
266
330
39
100
AcDbDictionary
280
     1
281
     1
  3
ACAD_XREC_ROUNDTRIP
360
267
  0
DICTIONARY
  5
24A
330
2B
100
AcDbDictionary
280
     1
281
     1
  3
ACAD_XREC_ROUNDTRIP
360
24B
  0
DICTIONARY
  5
24C
330
2C
100
AcDbDictionary
280
     1
281
     1
  3
ACAD_XREC_ROUNDTRIP
360
24D
  0
DICTIONARY
  5
24E
330
2D
100
AcDbDictionary
280
     1
281
     1
  3
ACAD_XREC_ROUNDTRIP
360
24F
  0
DICTIONARY
  5
250
330
2E
100
AcDbDictionary
280
     1
281
     1
  3
ACAD_XREC_ROUNDTRIP
360
251
  0
DICTIONARY
  5
264
330
38
100
AcDbDictionary
280
     1
281
     1
  3
ACAD_XREC_ROUNDTRIP
360
265
  0
DICTIONARY
  5
25A
330
33
100
AcDbDictionary
280
     1
281
     1
  3
ACAD_XREC_ROUNDTRIP
360
25B
  0
DICTIONARY
  5
262
330
37
100
AcDbDictionary
280
     1
281
     1
  3
ACAD_XREC_ROUNDTRIP
360
263
  0
XRECORD
  5
26D
102
{ACAD_REACTORS
330
26C
102
}
330
26C
100
AcDbXrecord
280
     1
102
MATERIAL
148
0.0
149
0.0
149
0.0
 93
        0
 94
      127
282
     0
 72
     1
 77
     1
171
     1
175
     1
179
     1
273
     0
  0
XRECORD
  5
26B
102
{ACAD_REACTORS
330
26A
102
}
330
26A
100
AcDbXrecord
280
     1
102
MATERIAL
148
0.0
149
0.0
149
0.0
 93
        0
 94
      127
282
     0
 72
     1
 77
     1
171
     1
175
     1
179
     1
273
     0
  0
XRECORD
  5
26F
102
{ACAD_REACTORS
330
26E
102
}
330
26E
100
AcDbXrecord
280
     1
102
MATERIAL
148
0.0
149
0.0
149
0.0
 93
        0
 94
      127
282
     0
 72
     1
 77
     1
171
     1
175
     1
179
     1
273
     0
  0
XRECORD
  5
253
102
{ACAD_REACTORS
330
252
102
}
330
252
100
AcDbXrecord
280
     1
102
RTVSPropertyOp0
 70
     1
102
RTVSPropertyOp1
 70
     1
102
RTVSPropertyOp2
 70
     1
102
RTVSPropertyOp3
 70
     1
102
RTVSPropertyOp4
 70
     1
102
RTVSPropertyOp5
 70
     1
102
RTVSPropertyOp6
 70
     1
102
RTVSPropertyOp7
 70
     1
102
RTVSPropertyOp8
 70
     1
102
RTVSPropertyOp9
 70
     1
102
RTVSPropertyOp10
 70
     1
102
RTVSPropertyOp11
 70
     1
102
RTVSPropertyOp12
 70
     1
102
RTVSPropertyOp13
 70
     1
102
RTVSPropertyOp14
 70
     1
102
RTVSPropertyOp15
 70
     1
102
RTVSPropertyOp16
 70
     1
102
RTVSPropertyOp17
 70
     1
102
RTVSPropertyOp18
 70
     1
102
RTVSPropertyOp19
 70
     1
102
RTVSPropertyOp20
 70
     1
102
RTVSPropertyOp21
 70
     1
102
RTVSPropertyOp22
 70
     1
102
RTVSPropertyOp23
 70
     1
102
RTVSPropertyOp24
 70
     1
102
RTVSPropertyOp25
 70
     1
102
RTVSPropertyOp26
 70
     1
102
RTVSPropertyOp27
 70
     1
102
RTVSPropertyOp28
 70
     1
102
RTVSPropertyOp29
 70
     1
102
RTVSPropertyOp30
 70
     1
102
RTVSPropertyOp31
 70
     1
102
RTVSPropertyOp32
 70
     1
  0
XRECORD
  5
257
102
{ACAD_REACTORS
330
256
102
}
330
256
100
AcDbXrecord
280
     1
102
RTVSPropertyOp0
 70
     1
102
RTVSPropertyOp1
 70
     1
102
RTVSPropertyOp2
 70
     1
102
RTVSPropertyOp3
 70
     1
102
RTVSPropertyOp4
 70
     1
102
RTVSPropertyOp5
 70
     1
102
RTVSPropertyOp6
 70
     1
102
RTVSPropertyOp7
 70
     1
102
RTVSPropertyOp8
 70
     1
102
RTVSPropertyOp9
 70
     1
102
RTVSPropertyOp10
 70
     1
102
RTVSPropertyOp11
 70
     1
102
RTVSPropertyOp12
 70
     1
102
RTVSPropertyOp13
 70
     1
102
RTVSPropertyOp14
 70
     1
102
RTVSPropertyOp15
 70
     1
102
RTVSPropertyOp16
 70
     1
102
RTVSPropertyOp17
 70
     1
102
RTVSPropertyOp18
 70
     1
102
RTVSPropertyOp19
 70
     1
102
RTVSPropertyOp20
 70
     1
102
RTVSPropertyOp21
 70
     1
102
RTVSPropertyOp22
 70
     1
102
RTVSPropertyOp23
 70
     1
102
RTVSPropertyOp24
 70
     1
102
RTVSPropertyOp25
 70
     1
102
RTVSPropertyOp26
 70
     1
102
RTVSPropertyOp27
 70
     1
102
RTVSPropertyOp28
 70
     1
102
RTVSPropertyOp29
 70
     1
102
RTVSPropertyOp30
 70
     1
102
RTVSPropertyOp31
 70
     1
102
RTVSPropertyOp32
 70
     1
  0
XRECORD
  5
255
102
{ACAD_REACTORS
330
254
102
}
330
254
100
AcDbXrecord
280
     1
102
RTVSPropertyOp0
 70
     1
102
RTVSPropertyOp1
 70
     1
102
RTVSPropertyOp2
 70
     1
102
RTVSPropertyOp3
 70
     1
102
RTVSPropertyOp4
 70
     1
102
RTVSPropertyOp5
 70
     1
102
RTVSPropertyOp6
 70
     1
102
RTVSPropertyOp7
 70
     1
102
RTVSPropertyOp8
 70
     1
102
RTVSPropertyOp9
 70
     1
102
RTVSPropertyOp10
 70
     1
102
RTVSPropertyOp11
 70
     1
102
RTVSPropertyOp12
 70
     1
102
RTVSPropertyOp13
 70
     1
102
RTVSPropertyOp14
 70
     1
102
RTVSPropertyOp15
 70
     1
102
RTVSPropertyOp16
 70
     1
102
RTVSPropertyOp17
 70
     1
102
RTVSPropertyOp18
 70
     1
102
RTVSPropertyOp19
 70
     1
102
RTVSPropertyOp20
 70
     1
102
RTVSPropertyOp21
 70
     1
102
RTVSPropertyOp22
 70
     1
102
RTVSPropertyOp23
 70
     1
102
RTVSPropertyOp24
 70
     1
102
RTVSPropertyOp25
 70
     1
102
RTVSPropertyOp26
 70
     1
102
RTVSPropertyOp27
 70
     1
102
RTVSPropertyOp28
 70
     1
102
RTVSPropertyOp29
 70
     1
102
RTVSPropertyOp30
 70
     1
102
RTVSPropertyOp31
 70
     1
102
RTVSPropertyOp32
 70
     1
  0
XRECORD
  5
259
102
{ACAD_REACTORS
330
258
102
}
330
258
100
AcDbXrecord
280
     1
102
RTVSPropertyOp0
 70
     1
102
RTVSPropertyOp1
 70
     1
102
RTVSPropertyOp2
 70
     1
102
RTVSPropertyOp3
 70
     1
102
RTVSPropertyOp4
 70
     1
102
RTVSPropertyOp5
 70
     1
102
RTVSPropertyOp6
 70
     1
102
RTVSPropertyOp7
 70
     1
102
RTVSPropertyOp8
 70
     1
102
RTVSPropertyOp9
 70
     1
102
RTVSPropertyOp10
 70
     1
102
RTVSPropertyOp11
 70
     1
102
RTVSPropertyOp12
 70
     1
102
RTVSPropertyOp13
 70
     1
102
RTVSPropertyOp14
 70
     1
102
RTVSPropertyOp15
 70
     1
102
RTVSPropertyOp16
 70
     1
102
RTVSPropertyOp17
 70
     1
102
RTVSPropertyOp18
 70
     1
102
RTVSPropertyOp19
 70
     1
102
RTVSPropertyOp20
 70
     1
102
RTVSPropertyOp21
 70
     1
102
RTVSPropertyOp22
 70
     1
102
RTVSPropertyOp23
 70
     1
102
RTVSPropertyOp24
 70
     1
102
RTVSPropertyOp25
 70
     1
102
RTVSPropertyOp26
 70
     1
102
RTVSPropertyOp27
 70
     1
102
RTVSPropertyOp28
 70
     1
102
RTVSPropertyOp29
 70
     1
102
RTVSPropertyOp30
 70
     1
102
RTVSPropertyOp31
 70
     1
102
RTVSPropertyOp32
 70
     1
  0
XRECORD
  5
261
102
{ACAD_REACTORS
330
260
102
}
330
260
100
AcDbXrecord
280
     1
102
RTVSPropertyOp0
 70
     1
102
RTVSPropertyOp1
 70
     1
102
RTVSPropertyOp2
 70
     1
102
RTVSPropertyOp3
 70
     1
102
RTVSPropertyOp4
 70
     1
102
RTVSPropertyOp5
 70
     1
102
RTVSPropertyOp6
 70
     1
102
RTVSPropertyOp7
 70
     1
102
RTVSPropertyOp8
 70
     1
102
RTVSPropertyOp9
 70
     1
102
RTVSPropertyOp10
 70
     1
102
RTVSPropertyOp11
 70
     1
102
RTVSPropertyOp12
 70
     1
102
RTVSPropertyOp13
 70
     1
102
RTVSPropertyOp14
 70
     1
102
RTVSPropertyOp15
 70
     1
102
RTVSPropertyOp16
 70
     1
102
RTVSPropertyOp17
 70
     1
102
RTVSPropertyOp18
 70
     1
102
RTVSPropertyOp19
 70
     1
102
RTVSPropertyOp20
 70
     1
102
RTVSPropertyOp21
 70
     1
102
RTVSPropertyOp22
 70
     1
102
RTVSPropertyOp23
 70
     1
102
RTVSPropertyOp24
 70
     1
102
RTVSPropertyOp25
 70
     1
102
RTVSPropertyOp26
 70
     1
102
RTVSPropertyOp27
 70
     1
102
RTVSPropertyOp28
 70
     1
102
RTVSPropertyOp29
 70
     1
102
RTVSPropertyOp30
 70
     1
102
RTVSPropertyOp31
 70
     1
102
RTVSPropertyOp32
 70
     1
  0
XRECORD
  5
269
102
{ACAD_REACTORS
330
268
102
}
330
268
100
AcDbXrecord
280
     1
102
RTVSPropertyOp0
 70
     1
102
RTVSPropertyOp1
 70
     1
102
RTVSPropertyOp2
 70
     1
102
RTVSPropertyOp3
 70
     1
102
RTVSPropertyOp4
 70
     1
102
RTVSPropertyOp5
 70
     1
102
RTVSPropertyOp6
 70
     1
102
RTVSPropertyOp7
 70
     1
102
RTVSPropertyOp8
 70
     1
102
RTVSPropertyOp9
 70
     1
102
RTVSPropertyOp10
 70
     1
102
RTVSPropertyOp11
 70
     1
102
RTVSPropertyOp12
 70
     1
102
RTVSPropertyOp13
 70
     1
102
RTVSPropertyOp14
 70
     1
102
RTVSPropertyOp15
 70
     1
102
RTVSPropertyOp16
 70
     1
102
RTVSPropertyOp17
 70
     1
102
RTVSPropertyOp18
 70
     1
102
RTVSPropertyOp19
 70
     1
102
RTVSPropertyOp20
 70
     1
102
RTVSPropertyOp21
 70
     1
102
RTVSPropertyOp22
 70
     1
102
RTVSPropertyOp23
 70
     1
102
RTVSPropertyOp24
 70
     1
102
RTVSPropertyOp25
 70
     1
102
RTVSPropertyOp26
 70
     1
102
RTVSPropertyOp27
 70
     1
102
RTVSPropertyOp28
 70
     1
102
RTVSPropertyOp29
 70
     1
102
RTVSPropertyOp30
 70
     1
102
RTVSPropertyOp31
 70
     1
102
RTVSPropertyOp32
 70
     1
  0
XRECORD
  5
25D
102
{ACAD_REACTORS
330
25C
102
}
330
25C
100
AcDbXrecord
280
     1
102
RTVSPropertyOp0
 70
     1
102
RTVSPropertyOp1
 70
     1
102
RTVSPropertyOp2
 70
     1
102
RTVSPropertyOp3
 70
     1
102
RTVSPropertyOp4
 70
     1
102
RTVSPropertyOp5
 70
     1
102
RTVSPropertyOp6
 70
     1
102
RTVSPropertyOp7
 70
     1
102
RTVSPropertyOp8
 70
     1
102
RTVSPropertyOp9
 70
     1
102
RTVSPropertyOp10
 70
     1
102
RTVSPropertyOp11
 70
     1
102
RTVSPropertyOp12
 70
     1
102
RTVSPropertyOp13
 70
     1
102
RTVSPropertyOp14
 70
     1
102
RTVSPropertyOp15
 70
     1
102
RTVSPropertyOp16
 70
     1
102
RTVSPropertyOp17
 70
     1
102
RTVSPropertyOp18
 70
     1
102
RTVSPropertyOp19
 70
     1
102
RTVSPropertyOp20
 70
     1
102
RTVSPropertyOp21
 70
     1
102
RTVSPropertyOp22
 70
     1
102
RTVSPropertyOp23
 70
     1
102
RTVSPropertyOp24
 70
     1
102
RTVSPropertyOp25
 70
     1
102
RTVSPropertyOp26
 70
     1
102
RTVSPropertyOp27
 70
     1
102
RTVSPropertyOp28
 70
     1
102
RTVSPropertyOp29
 70
     1
102
RTVSPropertyOp30
 70
     1
102
RTVSPropertyOp31
 70
     1
102
RTVSPropertyOp32
 70
     1
  0
XRECORD
  5
25F
102
{ACAD_REACTORS
330
25E
102
}
330
25E
100
AcDbXrecord
280
     1
102
RTVSPropertyOp0
 70
     1
102
RTVSPropertyOp1
 70
     1
102
RTVSPropertyOp2
 70
     1
102
RTVSPropertyOp3
 70
     1
102
RTVSPropertyOp4
 70
     1
102
RTVSPropertyOp5
 70
     1
102
RTVSPropertyOp6
 70
     1
102
RTVSPropertyOp7
 70
     1
102
RTVSPropertyOp8
 70
     1
102
RTVSPropertyOp9
 70
     1
102
RTVSPropertyOp10
 70
     1
102
RTVSPropertyOp11
 70
     1
102
RTVSPropertyOp12
 70
     1
102
RTVSPropertyOp13
 70
     1
102
RTVSPropertyOp14
 70
     1
102
RTVSPropertyOp15
 70
     1
102
RTVSPropertyOp16
 70
     1
102
RTVSPropertyOp17
 70
     1
102
RTVSPropertyOp18
 70
     1
102
RTVSPropertyOp19
 70
     1
102
RTVSPropertyOp20
 70
     1
102
RTVSPropertyOp21
 70
     1
102
RTVSPropertyOp22
 70
     1
102
RTVSPropertyOp23
 70
     1
102
RTVSPropertyOp24
 70
     1
102
RTVSPropertyOp25
 70
     1
102
RTVSPropertyOp26
 70
     1
102
RTVSPropertyOp27
 70
     1
102
RTVSPropertyOp28
 70
     1
102
RTVSPropertyOp29
 70
     1
102
RTVSPropertyOp30
 70
     1
102
RTVSPropertyOp31
 70
     1
102
RTVSPropertyOp32
 70
     1
  0
XRECORD
  5
267
102
{ACAD_REACTORS
330
266
102
}
330
266
100
AcDbXrecord
280
     1
102
RTVSPropertyOp0
 70
     1
102
RTVSPropertyOp1
 70
     1
102
RTVSPropertyOp2
 70
     1
102
RTVSPropertyOp3
 70
     1
102
RTVSPropertyOp4
 70
     1
102
RTVSPropertyOp5
 70
     1
102
RTVSPropertyOp6
 70
     1
102
RTVSPropertyOp7
 70
     1
102
RTVSPropertyOp8
 70
     1
102
RTVSPropertyOp9
 70
     1
102
RTVSPropertyOp10
 70
     1
102
RTVSPropertyOp11
 70
     1
102
RTVSPropertyOp12
 70
     1
102
RTVSPropertyOp13
 70
     1
102
RTVSPropertyOp14
 70
     1
102
RTVSPropertyOp15
 70
     1
102
RTVSPropertyOp16
 70
     1
102
RTVSPropertyOp17
 70
     1
102
RTVSPropertyOp18
 70
     1
102
RTVSPropertyOp19
 70
     1
102
RTVSPropertyOp20
 70
     1
102
RTVSPropertyOp21
 70
     1
102
RTVSPropertyOp22
 70
     1
102
RTVSPropertyOp23
 70
     1
102
RTVSPropertyOp24
 70
     1
102
RTVSPropertyOp25
 70
     1
102
RTVSPropertyOp26
 70
     1
102
RTVSPropertyOp27
 70
     1
102
RTVSPropertyOp28
 70
     1
102
RTVSPropertyOp29
 70
     1
102
RTVSPropertyOp30
 70
     1
102
RTVSPropertyOp31
 70
     1
102
RTVSPropertyOp32
 70
     1
  0
XRECORD
  5
24B
102
{ACAD_REACTORS
330
24A
102
}
330
24A
100
AcDbXrecord
280
     1
102
RTVSPropertyOp0
 70
     1
102
RTVSPropertyOp1
 70
     1
102
RTVSPropertyOp2
 70
     1
102
RTVSPropertyOp3
 70
     1
102
RTVSPropertyOp4
 70
     1
102
RTVSPropertyOp5
 70
     1
102
RTVSPropertyOp6
 70
     1
102
RTVSPropertyOp7
 70
     1
102
RTVSPropertyOp8
 70
     1
102
RTVSPropertyOp9
 70
     1
102
RTVSPropertyOp10
 70
     1
102
RTVSPropertyOp11
 70
     1
102
RTVSPropertyOp12
 70
     1
102
RTVSPropertyOp13
 70
     1
102
RTVSPropertyOp14
 70
     1
102
RTVSPropertyOp15
 70
     1
102
RTVSPropertyOp16
 70
     1
102
RTVSPropertyOp17
 70
     1
102
RTVSPropertyOp18
 70
     1
102
RTVSPropertyOp19
 70
     1
102
RTVSPropertyOp20
 70
     1
102
RTVSPropertyOp21
 70
     1
102
RTVSPropertyOp22
 70
     1
102
RTVSPropertyOp23
 70
     1
102
RTVSPropertyOp24
 70
     1
102
RTVSPropertyOp25
 70
     1
102
RTVSPropertyOp26
 70
     1
102
RTVSPropertyOp27
 70
     1
102
RTVSPropertyOp28
 70
     1
102
RTVSPropertyOp29
 70
     1
102
RTVSPropertyOp30
 70
     1
102
RTVSPropertyOp31
 70
     1
102
RTVSPropertyOp32
 70
     1
  0
XRECORD
  5
24D
102
{ACAD_REACTORS
330
24C
102
}
330
24C
100
AcDbXrecord
280
     1
102
RTVSPropertyOp0
 70
     1
102
RTVSPropertyOp1
 70
     1
102
RTVSPropertyOp2
 70
     1
102
RTVSPropertyOp3
 70
     1
102
RTVSPropertyOp4
 70
     1
102
RTVSPropertyOp5
 70
     1
102
RTVSPropertyOp6
 70
     1
102
RTVSPropertyOp7
 70
     1
102
RTVSPropertyOp8
 70
     1
102
RTVSPropertyOp9
 70
     1
102
RTVSPropertyOp10
 70
     1
102
RTVSPropertyOp11
 70
     1
102
RTVSPropertyOp12
 70
     1
102
RTVSPropertyOp13
 70
     1
102
RTVSPropertyOp14
 70
     1
102
RTVSPropertyOp15
 70
     1
102
RTVSPropertyOp16
 70
     1
102
RTVSPropertyOp17
 70
     1
102
RTVSPropertyOp18
 70
     1
102
RTVSPropertyOp19
 70
     1
102
RTVSPropertyOp20
 70
     1
102
RTVSPropertyOp21
 70
     1
102
RTVSPropertyOp22
 70
     1
102
RTVSPropertyOp23
 70
     1
102
RTVSPropertyOp24
 70
     1
102
RTVSPropertyOp25
 70
     1
102
RTVSPropertyOp26
 70
     1
102
RTVSPropertyOp27
 70
     1
102
RTVSPropertyOp28
 70
     1
102
RTVSPropertyOp29
 70
     1
102
RTVSPropertyOp30
 70
     1
102
RTVSPropertyOp31
 70
     1
102
RTVSPropertyOp32
 70
     1
  0
XRECORD
  5
24F
102
{ACAD_REACTORS
330
24E
102
}
330
24E
100
AcDbXrecord
280
     1
102
RTVSPropertyOp0
 70
     1
102
RTVSPropertyOp1
 70
     1
102
RTVSPropertyOp2
 70
     1
102
RTVSPropertyOp3
 70
     1
102
RTVSPropertyOp4
 70
     1
102
RTVSPropertyOp5
 70
     1
102
RTVSPropertyOp6
 70
     1
102
RTVSPropertyOp7
 70
     1
102
RTVSPropertyOp8
 70
     1
102
RTVSPropertyOp9
 70
     1
102
RTVSPropertyOp10
 70
     1
102
RTVSPropertyOp11
 70
     1
102
RTVSPropertyOp12
 70
     1
102
RTVSPropertyOp13
 70
     1
102
RTVSPropertyOp14
 70
     1
102
RTVSPropertyOp15
 70
     1
102
RTVSPropertyOp16
 70
     1
102
RTVSPropertyOp17
 70
     1
102
RTVSPropertyOp18
 70
     1
102
RTVSPropertyOp19
 70
     1
102
RTVSPropertyOp20
 70
     1
102
RTVSPropertyOp21
 70
     1
102
RTVSPropertyOp22
 70
     1
102
RTVSPropertyOp23
 70
     1
102
RTVSPropertyOp24
 70
     1
102
RTVSPropertyOp25
 70
     1
102
RTVSPropertyOp26
 70
     1
102
RTVSPropertyOp27
 70
     1
102
RTVSPropertyOp28
 70
     1
102
RTVSPropertyOp29
 70
     1
102
RTVSPropertyOp30
 70
     1
102
RTVSPropertyOp31
 70
     1
102
RTVSPropertyOp32
 70
     1
  0
XRECORD
  5
251
102
{ACAD_REACTORS
330
250
102
}
330
250
100
AcDbXrecord
280
     1
102
RTVSPropertyOp0
 70
     1
102
RTVSPropertyOp1
 70
     1
102
RTVSPropertyOp2
 70
     1
102
RTVSPropertyOp3
 70
     1
102
RTVSPropertyOp4
 70
     1
102
RTVSPropertyOp5
 70
     1
102
RTVSPropertyOp6
 70
     1
102
RTVSPropertyOp7
 70
     1
102
RTVSPropertyOp8
 70
     1
102
RTVSPropertyOp9
 70
     1
102
RTVSPropertyOp10
 70
     1
102
RTVSPropertyOp11
 70
     1
102
RTVSPropertyOp12
 70
     1
102
RTVSPropertyOp13
 70
     1
102
RTVSPropertyOp14
 70
     1
102
RTVSPropertyOp15
 70
     1
102
RTVSPropertyOp16
 70
     1
102
RTVSPropertyOp17
 70
     1
102
RTVSPropertyOp18
 70
     1
102
RTVSPropertyOp19
 70
     1
102
RTVSPropertyOp20
 70
     1
102
RTVSPropertyOp21
 70
     1
102
RTVSPropertyOp22
 70
     1
102
RTVSPropertyOp23
 70
     1
102
RTVSPropertyOp24
 70
     1
102
RTVSPropertyOp25
 70
     1
102
RTVSPropertyOp26
 70
     1
102
RTVSPropertyOp27
 70
     1
102
RTVSPropertyOp28
 70
     1
102
RTVSPropertyOp29
 70
     1
102
RTVSPropertyOp30
 70
     1
102
RTVSPropertyOp31
 70
     1
102
RTVSPropertyOp32
 70
     1
  0
XRECORD
  5
265
102
{ACAD_REACTORS
330
264
102
}
330
264
100
AcDbXrecord
280
     1
102
RTVSPropertyOp0
 70
     1
102
RTVSPropertyOp1
 70
     1
102
RTVSPropertyOp2
 70
     1
102
RTVSPropertyOp3
 70
     1
102
RTVSPropertyOp4
 70
     1
102
RTVSPropertyOp5
 70
     1
102
RTVSPropertyOp6
 70
     1
102
RTVSPropertyOp7
 70
     1
102
RTVSPropertyOp8
 70
     1
102
RTVSPropertyOp9
 70
     1
102
RTVSPropertyOp10
 70
     1
102
RTVSPropertyOp11
 70
     1
102
RTVSPropertyOp12
 70
     1
102
RTVSPropertyOp13
 70
     1
102
RTVSPropertyOp14
 70
     1
102
RTVSPropertyOp15
 70
     1
102
RTVSPropertyOp16
 70
     1
102
RTVSPropertyOp17
 70
     1
102
RTVSPropertyOp18
 70
     1
102
RTVSPropertyOp19
 70
     1
102
RTVSPropertyOp20
 70
     1
102
RTVSPropertyOp21
 70
     1
102
RTVSPropertyOp22
 70
     1
102
RTVSPropertyOp23
 70
     1
102
RTVSPropertyOp24
 70
     1
102
RTVSPropertyOp25
 70
     1
102
RTVSPropertyOp26
 70
     1
102
RTVSPropertyOp27
 70
     1
102
RTVSPropertyOp28
 70
     1
102
RTVSPropertyOp29
 70
     1
102
RTVSPropertyOp30
 70
     1
102
RTVSPropertyOp31
 70
     1
102
RTVSPropertyOp32
 70
     1
  0
XRECORD
  5
25B
102
{ACAD_REACTORS
330
25A
102
}
330
25A
100
AcDbXrecord
280
     1
102
RTVSPropertyOp0
 70
     1
102
RTVSPropertyOp1
 70
     1
102
RTVSPropertyOp2
 70
     1
102
RTVSPropertyOp3
 70
     1
102
RTVSPropertyOp4
 70
     1
102
RTVSPropertyOp5
 70
     1
102
RTVSPropertyOp6
 70
     1
102
RTVSPropertyOp7
 70
     1
102
RTVSPropertyOp8
 70
     1
102
RTVSPropertyOp9
 70
     1
102
RTVSPropertyOp10
 70
     1
102
RTVSPropertyOp11
 70
     1
102
RTVSPropertyOp12
 70
     1
102
RTVSPropertyOp13
 70
     1
102
RTVSPropertyOp14
 70
     1
102
RTVSPropertyOp15
 70
     1
102
RTVSPropertyOp16
 70
     1
102
RTVSPropertyOp17
 70
     1
102
RTVSPropertyOp18
 70
     1
102
RTVSPropertyOp19
 70
     1
102
RTVSPropertyOp20
 70
     1
102
RTVSPropertyOp21
 70
     1
102
RTVSPropertyOp22
 70
     1
102
RTVSPropertyOp23
 70
     1
102
RTVSPropertyOp24
 70
     1
102
RTVSPropertyOp25
 70
     1
102
RTVSPropertyOp26
 70
     1
102
RTVSPropertyOp27
 70
     1
102
RTVSPropertyOp28
 70
     1
102
RTVSPropertyOp29
 70
     1
102
RTVSPropertyOp30
 70
     1
102
RTVSPropertyOp31
 70
     1
102
RTVSPropertyOp32
 70
     1
  0
XRECORD
  5
263
102
{ACAD_REACTORS
330
262
102
}
330
262
100
AcDbXrecord
280
     1
102
RTVSPropertyOp0
 70
     1
102
RTVSPropertyOp1
 70
     1
102
RTVSPropertyOp2
 70
     1
102
RTVSPropertyOp3
 70
     1
102
RTVSPropertyOp4
 70
     1
102
RTVSPropertyOp5
 70
     1
102
RTVSPropertyOp6
 70
     1
102
RTVSPropertyOp7
 70
     1
102
RTVSPropertyOp8
 70
     1
102
RTVSPropertyOp9
 70
     1
102
RTVSPropertyOp10
 70
     1
102
RTVSPropertyOp11
 70
     1
102
RTVSPropertyOp12
 70
     1
102
RTVSPropertyOp13
 70
     1
102
RTVSPropertyOp14
 70
     1
102
RTVSPropertyOp15
 70
     1
102
RTVSPropertyOp16
 70
     1
102
RTVSPropertyOp17
 70
     1
102
RTVSPropertyOp18
 70
     1
102
RTVSPropertyOp19
 70
     1
102
RTVSPropertyOp20
 70
     1
102
RTVSPropertyOp21
 70
     1
102
RTVSPropertyOp22
 70
     1
102
RTVSPropertyOp23
 70
     1
102
RTVSPropertyOp24
 70
     1
102
RTVSPropertyOp25
 70
     1
102
RTVSPropertyOp26
 70
     1
102
RTVSPropertyOp27
 70
     1
102
RTVSPropertyOp28
 70
     1
102
RTVSPropertyOp29
 70
     1
102
RTVSPropertyOp30
 70
     1
102
RTVSPropertyOp31
 70
     1
102
RTVSPropertyOp32
 70
     1
  0
ENDSEC
  0
EOF
