  0
SECTION
  2
HEADER
  9
$ACADVER
  1
AC1015
  9
$ACADMAINTVER
 70
     6
  9
$DWGCODEPAGE
  3
DOS932
  9
$INSBASE
 10
0.0
 20
0.0
 30
0.0
  9
$EXTMIN
 10
0.0
 20
0.0
 30
0.0
  9
$EXTMAX
 10
210.0
 20
297.0
 30
0.0
  9
$LIMMIN
 10
0.0
 20
0.0
  9
$LIMMAX
 10
12.0
 20
9.0
  9
$ORTHOMODE
 70
     0
  9
$REGENMODE
 70
     1
  9
$FILLMODE
 70
     1
  9
$QTEXTMODE
 70
     0
  9
$MIRRTEXT
 70
     1
  9
$LTSCALE
 40
1.0
  9
$ATTMODE
 70
     1
  9
$TEXTSIZE
 40
0.2
  9
$TRACEWID
 40
0.05
  9
$TEXTSTYLE
  7
Standard
  9
$CLAYER
  8
0
  9
$CELTYPE
  6
ByLayer
  9
$CECOLOR
 62
   256
  9
$CELTSCALE
 40
1.0
  9
$DISPSILH
 70
     0
  9
$DIMSCALE
 40
1.0
  9
$DIMASZ
 40
0.18
  9
$DIMEXO
 40
0.0625
  9
$DIMDLI
 40
0.38
  9
$DIMRND
 40
0.0
  9
$DIMDLE
 40
0.0
  9
$DIMEXE
 40
0.18
  9
$DIMTP
 40
0.0
  9
$DIMTM
 40
0.0
  9
$DIMTXT
 40
0.18
  9
$DIMCEN
 40
0.09
  9
$DIMTSZ
 40
0.0
  9
$DIMTOL
 70
     0
  9
$DIMLIM
 70
     0
  9
$DIMTIH
 70
     1
  9
$DIMTOH
 70
     1
  9
$DIMSE1
 70
     0
  9
$DIMSE2
 70
     0
  9
$DIMTAD
 70
     0
  9
$DIMZIN
 70
     0
  9
$DIMBLK
  1

  9
$DIMASO
 70
     1
  9
$DIMSHO
 70
     1
  9
$DIMPOST
  1

  9
$DIMAPOST
  1

  9
$DIMALT
 70
     0
  9
$DIMALTD
 70
     2
  9
$DIMALTF
 40
25.4
  9
$DIMLFAC
 40
1.0
  9
$DIMTOFL
 70
     0
  9
$DIMTVP
 40
0.0
  9
$DIMTIX
 70
     0
  9
$DIMSOXD
 70
     0
  9
$DIMSAH
 70
     0
  9
$DIMBLK1
  1

  9
$DIMBLK2
  1

  9
$DIMSTYLE
  2
Standard
  9
$DIMCLRD
 70
     0
  9
$DIMCLRE
 70
     0
  9
$DIMCLRT
 70
     0
  9
$DIMTFAC
 40
1.0
  9
$DIMGAP
 40
0.09
  9
$DIMJUST
 70
     0
  9
$DIMSD1
 70
     0
  9
$DIMSD2
 70
     0
  9
$DIMTOLJ
 70
     1
  9
$DIMTZIN
 70
     0
  9
$DIMALTZ
 70
     0
  9
$DIMALTTZ
 70
     0
  9
$DIMUPT
 70
     0
  9
$DIMDEC
 70
     4
  9
$DIMTDEC
 70
     4
  9
$DIMALTU
 70
     2
  9
$DIMALTTD
 70
     2
  9
$DIMTXSTY
  7
Standard
  9
$DIMAUNIT
 70
     0
  9
$DIMADEC
 70
     0
  9
$DIMALTRND
 40
0.0
  9
$DIMAZIN
 70
     0
  9
$DIMDSEP
 70
    46
  9
$DIMATFIT
 70
     3
  9
$DIMFRAC
 70
     0
  9
$DIMLDRBLK
  1

  9
$DIMLUNIT
 70
     2
  9
$DIMLWD
 70
    -2
  9
$DIMLWE
 70
    -2
  9
$DIMTMOVE
 70
     0
  9
$LUNITS
 70
     2
  9
$LUPREC
 70
     4
  9
$SKETCHINC
 40
0.1
  9
$FILLETRAD
 40
0.5
  9
$AUNITS
 70
     0
  9
$AUPREC
 70
     0
  9
$MENU
  1
.
  9
$ELEVATION
 40
0.0
  9
$PELEVATION
 40
0.0
  9
$THICKNESS
 40
0.0
  9
$LIMCHECK
 70
     0
  9
$CHAMFERA
 40
0.5
  9
$CHAMFERB
 40
0.5
  9
$CHAMFERC
 40
1.0
  9
$CHAMFERD
 40
0.0
  9
$SKPOLY
 70
     0
  9
$TDCREATE
 40
2456135.685167824
  9
$TDUCREATE
 40
2456135.310167824
  9
$TDUPDATE
 40
2456135.685167836
  9
$TDUUPDATE
 40
2456135.310167836
  9
$TDINDWG
 40
0.0000000116
  9
$TDUSRTIMER
 40
0.0000000116
  9
$USRTIMER
 70
     1
  9
$ANGBASE
 50
0.0
  9
$ANGDIR
 70
     0
  9
$PDMODE
 70
     0
  9
$PDSIZE
 40
0.0
  9
$PLINEWID
 40
0.0
  9
$SPLFRAME
 70
     0
  9
$SPLINETYPE
 70
     6
  9
$SPLINESEGS
 70
     8
  9
$HANDSEED
  5
1FC
  9
$SURFTAB1
 70
     6
  9
$SURFTAB2
 70
     6
  9
$SURFTYPE
 70
     6
  9
$SURFU
 70
     6
  9
$SURFV
 70
     6
  9
$UCSBASE
  2

  9
$UCSNAME
  2

  9
$UCSORG
 10
0.0
 20
0.0
 30
0.0
  9
$UCSXDIR
 10
1.0
 20
0.0
 30
0.0
  9
$UCSYDIR
 10
0.0
 20
1.0
 30
0.0
  9
$UCSORTHOREF
  2

  9
$UCSORTHOVIEW
 70
     0
  9
$UCSORGTOP
 10
0.0
 20
0.0
 30
0.0
  9
$UCSORGBOTTOM
 10
0.0
 20
0.0
 30
0.0
  9
$UCSORGLEFT
 10
0.0
 20
0.0
 30
0.0
  9
$UCSORGRIGHT
 10
0.0
 20
0.0
 30
0.0
  9
$UCSORGFRONT
 10
0.0
 20
0.0
 30
0.0
  9
$UCSORGBACK
 10
0.0
 20
0.0
 30
0.0
  9
$PUCSBASE
  2

  9
$PUCSNAME
  2

  9
$PUCSORG
 10
0.0
 20
0.0
 30
0.0
  9
$PUCSXDIR
 10
1.0
 20
0.0
 30
0.0
  9
$PUCSYDIR
 10
0.0
 20
1.0
 30
0.0
  9
$PUCSORTHOREF
  2

  9
$PUCSORTHOVIEW
 70
     0
  9
$PUCSORGTOP
 10
0.0
 20
0.0
 30
0.0
  9
$PUCSORGBOTTOM
 10
0.0
 20
0.0
 30
0.0
  9
$PUCSORGLEFT
 10
0.0
 20
0.0
 30
0.0
  9
$PUCSORGRIGHT
 10
0.0
 20
0.0
 30
0.0
  9
$PUCSORGFRONT
 10
0.0
 20
0.0
 30
0.0
  9
$PUCSORGBACK
 10
0.0
 20
0.0
 30
0.0
  9
$USERI1
 70
     0
  9
$USERI2
 70
     0
  9
$USERI3
 70
     0
  9
$USERI4
 70
     0
  9
$USERI5
 70
     0
  9
$USERR1
 40
13.2
  9
$USERR2
 40
0.0
  9
$USERR3
 40
0.0
  9
$USERR4
 40
0.0
  9
$USERR5
 40
0.0
  9
$WORLDVIEW
 70
     1
  9
$SHADEDGE
 70
     3
  9
$SHADEDIF
 70
    70
  9
$TILEMODE
 70
     1
  9
$MAXACTVP
 70
    64
  9
$PINSBASE
 10
0.0
 20
0.0
 30
0.0
  9
$PLIMCHECK
 70
     0
  9
$PEXTMIN
 10
1.00000000000000E+20
 20
1.00000000000000E+20
 30
1.00000000000000E+20
  9
$PEXTMAX
 10
-1.00000000000000E+20
 20
-1.00000000000000E+20
 30
-1.00000000000000E+20
  9
$PLIMMIN
 10
0.0
 20
0.0
  9
$PLIMMAX
 10
12.0
 20
9.0
  9
$UNITMODE
 70
     0
  9
$VISRETAIN
 70
     1
  9
$PLINEGEN
 70
     0
  9
$PSLTSCALE
 70
     1
  9
$TREEDEPTH
 70
  3020
  9
$CMLSTYLE
  2
Standard
  9
$CMLJUST
 70
     0
  9
$CMLSCALE
 40
1.0
  9
$PROXYGRAPHICS
 70
     1
  9
$MEASUREMENT
 70
     1
  9
$CELWEIGHT
370
    -1
  9
$ENDCAPS
280
     0
  9
$JOINSTYLE
280
     0
  9
$LWDISPLAY
290
     0
  9
$INSUNITS
 70
     1
  9
$HYPERLINKBASE
  1

  9
$STYLESHEET
  1

  9
$XEDIT
290
     1
  9
$CEPSNTYPE
380
     0
  9
$PSTYLEMODE
290
     0
  9
$FINGERPRINTGUID
  2
{FAEB1C30-E019-11D5-929B-00C0DF256EC4}
  9
$VERSIONGUID
  2
{FAEB1C32-E019-11D5-929B-00C0DF256EC4}
  9
$EXTNAMES
290
     1
  9
$PSVPSCALE
 40
0.0
  9
$OLESTARTUP
290
     0
  0
ENDSEC
  0
SECTION
  2
CLASSES
  0
CLASS
  1
ACDBDICTIONARYWDFLT
  2
AcDbDictionaryWithDefault
  3
ObjectDBX Classes
 90
        0
280
     0
281
     0
  0
CLASS
  1
TABLESTYLE
  2
AcDbTableStyle
  3
ObjectDBX Classes
 90
     2047
280
     0
281
     0
  0
CLASS
  1
DICTIONARYVAR
  2
AcDbDictionaryVar
  3
ObjectDBX Classes
 90
        0
280
     0
281
     0
  0
CLASS
  1

  2
exOdDbCircle
  3

 90
        0
280
     0
281
     1
  0
CLASS
  1

  2
exOdDbSpline
  3

 90
        0
280
     0
281
     1
  0
CLASS
  1
ACDBPLACEHOLDER
  2
AcDbPlaceHolder
  3
ObjectDBX Classes
 90
        0
280
     0
281
     0
  0
CLASS
  1
LAYOUT
  2
AcDbLayout
  3
ObjectDBX Classes
 90
        0
280
     0
281
     0
  0
ENDSEC
  0
SECTION
  2
TABLES
  0
TABLE
  2
VPORT
  5
8
330
0
100
AcDbSymbolTable
 70
     2
  0
VPORT
  5
29
330
8
100
AcDbSymbolTableRecord
100
AcDbViewportTableRecord
  2
*Active
 70
     0
 10
0.0
 20
0.0
 11
1.0
 21
1.0
 12
105.0
 22
148.5
 13
0.0
 23
0.0
 14
0.5
 24
0.5
 15
0.5
 25
0.5
 16
0.0
 26
0.0
 36
1.0
 17
0.0
 27
0.0
 37
0.0
 40
326.7000000000001
 41
1.60267857142857
 42
50.0
 43
0.0
 44
0.0
 50
0.0
 51
0.0
 71
     0
 72
   100
 73
     1
 74
     3
 75
     0
 76
     0
 77
     0
 78
     0
281
     0
 65
     1
110
0.0
120
0.0
130
0.0
111
1.0
121
0.0
131
0.0
112
0.0
122
1.0
132
0.0
 79
     0
146
0.0
  0
ENDTAB
  0
TABLE
  2
LTYPE
  5
5
330
0
100
AcDbSymbolTable
 70
     8
  0
LTYPE
  5
14
330
5
100
AcDbSymbolTableRecord
100
AcDbLinetypeTableRecord
  2
ByBlock
 70
     0
  3

 72
    65
 73
     0
 40
0.0
  0
LTYPE
  5
15
330
5
100
AcDbSymbolTableRecord
100
AcDbLinetypeTableRecord
  2
ByLayer
 70
     0
  3

 72
    65
 73
     0
 40
0.0
  0
LTYPE
  5
16
330
5
100
AcDbSymbolTableRecord
100
AcDbLinetypeTableRecord
  2
Continuous
 70
     0
  3
Solid line
 72
    65
 73
     0
 40
0.0
  0
LTYPE
  5
2E
330
5
100
AcDbSymbolTableRecord
100
AcDbLinetypeTableRecord
  2
DASHED
 70
     0
  3
Dashed
 72
    65
 73
     2
 40
15.0
 49
7.0
 74
     0
 49
-8.0
 74
     0
  0
LTYPE
  5
2F
330
5
100
AcDbSymbolTableRecord
100
AcDbLinetypeTableRecord
  2
DOTTED
 70
     0
  3
Dotted
 72
    65
 73
     2
 40
1.0
 49
0.0
 74
     0
 49
-1.0
 74
     0
  0
LTYPE
  5
30
330
5
100
AcDbSymbolTableRecord
100
AcDbLinetypeTableRecord
  2
DOT_CENTER
 70
     0
  3
Dot_Center
 72
    65
 73
     4
 40
14.0
 49
12.0
 74
     0
 49
-1.0
 74
     0
 49
0.0
 74
     0
 49
-1.0
 74
     0
  0
LTYPE
  5
31
330
5
100
AcDbSymbolTableRecord
100
AcDbLinetypeTableRecord
  2
LONG_DASHED
 70
     0
  3
Long_Dashed
 72
    65
 73
     2
 40
15.0
 49
10.0
 74
     0
 49
-5.0
 74
     0
  0
LTYPE
  5
32
330
5
100
AcDbSymbolTableRecord
100
AcDbLinetypeTableRecord
  2
DASH_CENTER
 70
     0
  3
Dash_Center
 72
    65
 73
     4
 40
14.0
 49
11.0
 74
     0
 49
-1.0
 74
     0
 49
1.0
 74
     0
 49
-1.0
 74
     0
  0
LTYPE
  5
33
330
5
100
AcDbSymbolTableRecord
100
AcDbLinetypeTableRecord
  2
PHANTOM
 70
     0
  3
Phantom
 72
    65
 73
     6
 40
13.0
 49
10.0
 74
     0
 49
-1.0
 74
     0
 49
0.0
 74
     0
 49
-1.0
 74
     0
 49
0.0
 74
     0
 49
-1.0
 74
     0
  0
LTYPE
  5
34
330
5
100
AcDbSymbolTableRecord
100
AcDbLinetypeTableRecord
  2
CENTER_DASH_DASH
 70
     0
  3
Center_Dash_Dash
 72
    65
 73
     6
 40
14.0
 49
9.0
 74
     0
 49
-1.0
 74
     0
 49
1.0
 74
     0
 49
-1.0
 74
     0
 49
1.0
 74
     0
 49
-1.0
 74
     0
  0
ENDTAB
  0
TABLE
  2
LAYER
  5
2
330
0
100
AcDbSymbolTable
 70
     2
  0
LAYER
  5
10
330
2
100
AcDbSymbolTableRecord
100
AcDbLayerTableRecord
  2
0
 70
     0
 62
     7
  6
Continuous
370
    -3
390
F
  0
LAYER
  5
35
330
2
100
AcDbSymbolTableRecord
100
AcDbLayerTableRecord
  2
1
 70
     0
 62
     7
  6
Continuous
370
    -3
390
F
  0
ENDTAB
  0
TABLE
  2
STYLE
  5
3
330
0
100
AcDbSymbolTable
 70
     3
  0
STYLE
  5
11
330
3
100
AcDbSymbolTableRecord
100
AcDbTextStyleTableRecord
  2
Standard
 70
     0
 40
0.0
 41
1.0
 50
0.0
 71
     0
 42
0.2
  3
txt
  4

  0
STYLE
  5
1A4
330
3
100
AcDbSymbolTableRecord
100
AcDbTextStyleTableRecord
  2
CONVERTER_1
 70
     0
 40
0.0
 41
0.89
 50
0.0
 71
     0
 42
0.2
  3
msmincho.ttc
  4

1001
ACAD
1000
MS Mincho
1071
    32785
  0
STYLE
  5
1C8
330
3
100
AcDbSymbolTableRecord
100
AcDbTextStyleTableRecord
  2
CONVERTER_2
 70
     0
 40
0.0
 41
0.9
 50
0.0
 71
     0
 42
0.2
  3
txt.shx
  4

  0
ENDTAB
  0
TABLE
  2
VIEW
  5
6
330
0
100
AcDbSymbolTable
 70
     0
  0
ENDTAB
  0
TABLE
  2
UCS
  5
7
330
0
100
AcDbSymbolTable
 70
     0
  0
ENDTAB
  0
TABLE
  2
APPID
  5
9
330
0
100
AcDbSymbolTable
 70
     1
  0
APPID
  5
12
330
9
100
AcDbSymbolTableRecord
100
AcDbRegAppTableRecord
  2
ACAD
 70
     0
  0
ENDTAB
  0
TABLE
  2
DIMSTYLE
  5
A
330
0
100
AcDbSymbolTable
 70
     5
100
AcDbDimStyleTable
  0
DIMSTYLE
105
27
330
A
100
AcDbSymbolTableRecord
100
AcDbDimStyleTableRecord
  2
Standard
 70
     0
340
11
  0
DIMSTYLE
105
1D9
102
{ACAD_REACTORS
330
1DA
102
}
330
A
100
AcDbSymbolTableRecord
100
AcDbDimStyleTableRecord
  2
ME10_DIM_0
 70
     0
 41
3.5
 42
0.0
 44
1.0
 73
     0
 74
     0
 77
     1
 78
     8
140
3.5
147
0.625
172
     1
173
     1
176
     2
177
     2
178
     7
271
     2
340
1A4
  0
DIMSTYLE
105
1E4
102
{ACAD_REACTORS
330
1E5
102
}
330
A
100
AcDbSymbolTableRecord
100
AcDbDimStyleTableRecord
  2
ME10_DIM_1
 70
     0
 41
3.5
 42
0.0
 44
1.0
 73
     0
 74
     0
 77
     1
 78
     8
140
3.5
147
0.625
172
     1
173
     1
176
     2
177
     2
178
     7
271
     2
340
1C8
  0
DIMSTYLE
105
1EF
102
{ACAD_REACTORS
330
1F0
102
}
330
A
100
AcDbSymbolTableRecord
100
AcDbDimStyleTableRecord
  2
ME10_DIM_2
 70
     0
 41
3.5
 42
0.0
 44
1.0
 73
     0
 74
     0
 77
     1
 78
     8
140
3.5
147
0.625
172
     1
173
     1
176
     2
177
     2
178
     7
271
     2
340
1C8
  0
DIMSTYLE
105
1FA
102
{ACAD_REACTORS
330
1FB
102
}
330
A
100
AcDbSymbolTableRecord
100
AcDbDimStyleTableRecord
  2
ME10_DIM_3
 70
     0
 41
3.5
 42
0.0
 44
1.0
 73
     0
 74
     0
 77
     1
 78
     8
140
3.5
147
0.625
172
     1
173
     1
176
     2
177
     2
178
     7
271
     2
340
1C8
  0
ENDTAB
  0
TABLE
  2
BLOCK_RECORD
  5
1
330
0
100
AcDbSymbolTable
 70
    11
  0
BLOCK_RECORD
  5
1F
330
1
100
AcDbSymbolTableRecord
100
AcDbBlockTableRecord
  2
*Model_Space
340
22
  0
BLOCK_RECORD
  5
1B
330
1
100
AcDbSymbolTableRecord
100
AcDbBlockTableRecord
  2
*Paper_Space
340
1E
  0
BLOCK_RECORD
  5
23
330
1
100
AcDbSymbolTableRecord
100
AcDbBlockTableRecord
  2
*Paper_Space0
340
26
  0
BLOCK_RECORD
  5
36
330
1
100
AcDbSymbolTableRecord
100
AcDbBlockTableRecord
  2
36-45
340
0
102
{BLKREFS
331
48
102
}
  0
BLOCK_RECORD
  5
39
330
1
100
AcDbSymbolTableRecord
100
AcDbBlockTableRecord
  2
V261-13
340
0
102
{BLKREFS
331
49
102
}
  0
BLOCK_RECORD
  5
3C
330
1
100
AcDbSymbolTableRecord
100
AcDbBlockTableRecord
  2
35-22
340
0
102
{BLKREFS
331
4A
102
}
  0
BLOCK_RECORD
  5
3F
330
1
100
AcDbSymbolTableRecord
100
AcDbBlockTableRecord
  2
32-26-M11-314
340
0
102
{BLKREFS
331
4B
102
}
  0
BLOCK_RECORD
  5
42
330
1
100
AcDbSymbolTableRecord
100
AcDbBlockTableRecord
  2
37-1-13
340
0
102
{BLKREFS
331
4C
102
}
  0
BLOCK_RECORD
  5
45
330
1
100
AcDbSymbolTableRecord
100
AcDbBlockTableRecord
  2
_J__A4
340
0
102
{BLKREFS
331
4D
102
}
  0
BLOCK_RECORD
  5
1D0
330
1
100
AcDbSymbolTableRecord
100
AcDbBlockTableRecord
  2
*D07
340
0
  0
BLOCK_RECORD
  5
1DB
330
1
100
AcDbSymbolTableRecord
100
AcDbBlockTableRecord
  2
*D18
340
0
  0
BLOCK_RECORD
  5
1E6
330
1
100
AcDbSymbolTableRecord
100
AcDbBlockTableRecord
  2
*D29
340
0
  0
BLOCK_RECORD
  5
1F1
330
1
100
AcDbSymbolTableRecord
100
AcDbBlockTableRecord
  2
*D310
340
0
  0
ENDTAB
  0
ENDSEC
  0
SECTION
  2
BLOCKS
  0
BLOCK
  5
20
330
1F
100
AcDbEntity
  8
0
100
AcDbBlockBegin
  2
*Model_Space
 70
     0
 71
     0
 10
0.0
 20
0.0
 30
0.0
  3
*Model_Space
  1

  0
ENDBLK
  5
21
330
1F
100
AcDbEntity
  8
0
100
AcDbBlockEnd
  0
BLOCK
  5
1C
330
1B
100
AcDbEntity
 67
     1
  8
0
100
AcDbBlockBegin
  2
*Paper_Space
 70
     0
 71
     0
 10
0.0
 20
0.0
 30
0.0
  3
*Paper_Space
  1

  0
ENDBLK
  5
1D
330
1B
100
AcDbEntity
 67
     1
  8
0
100
AcDbBlockEnd
  0
BLOCK
  5
24
330
23
100
AcDbEntity
  8
0
100
AcDbBlockBegin
  2
*Paper_Space0
 70
     0
 71
     0
 10
0.0
 20
0.0
 30
0.0
  3
*Paper_Space0
  1

  0
ENDBLK
  5
25
330
23
100
AcDbEntity
  8
0
100
AcDbBlockEnd
  0
BLOCK
  5
37
330
36
100
AcDbEntity
  8
0
100
AcDbBlockBegin
  2
36-45
 70
     0
 71
     0
 10
393.7657322428409
 20
161.7382297906939
 30
0.0
  3
36-45
  1

  0
LINE
  5
4E
330
36
100
AcDbEntity
  8
0
  6
Continuous
 62
     7
100
AcDbLine
 10
56.43604245302319
 20
201.122432572007
 30
0.0
 11
65.7639575469766
 21
201.122432572007
 31
0.0
  0
LINE
  5
4F
330
36
100
AcDbEntity
  8
0
  6
Continuous
 62
     7
100
AcDbLine
 10
56.43604245302319
 20
199.322432572007
 30
0.0
 11
65.7639575469766
 21
199.322432572007
 31
0.0
  0
LINE
  5
50
330
36
100
AcDbEntity
  8
0
  6
Continuous
 62
     7
100
AcDbLine
 10
56.34999999999991
 20
130.7845039384401
 30
0.0
 11
65.84999999999991
 21
130.7845039384401
 31
0.0
  0
LINE
  5
51
330
36
100
AcDbEntity
  8
1
  6
Continuous
 62
     7
100
AcDbLine
 10
65.84999999999991
 20
129.2141952266249
 30
0.0
 11
65.84999999999991
 21
130.7845039384401
 31
0.0
  0
LINE
  5
52
330
36
100
AcDbEntity
  8
1
  6
Continuous
 62
     7
100
AcDbLine
 10
56.34999999999991
 20
130.7845039384401
 30
0.0
 11
56.34999999999991
 21
129.2141952266249
 31
0.0
  0
LINE
  5
53
330
36
100
AcDbEntity
  8
1
  6
Continuous
 62
     7
100
AcDbLine
 10
57.34999999999991
 20
131.7845039384401
 30
0.0
 11
56.34999999999991
 21
130.7845039384401
 31
0.0
  0
LINE
  5
54
330
36
100
AcDbEntity
  8
1
  6
Continuous
 62
     7
100
AcDbLine
 10
57.34999999999991
 20
131.7845039384401
 30
0.0
 11
64.84999999999991
 21
131.7845039384401
 31
0.0
  0
LINE
  5
55
330
36
100
AcDbEntity
  8
1
  6
Continuous
 62
     7
100
AcDbLine
 10
65.84999999999991
 20
130.7845039384401
 30
0.0
 11
64.84999999999991
 21
131.7845039384401
 31
0.0
  0
LINE
  5
56
330
36
100
AcDbEntity
  8
1
  6
Continuous
 62
     7
100
AcDbLine
 10
143.9999999999999
 20
130.7845039384401
 30
0.0
 11
143.9999999999999
 21
131.7845039384401
 31
0.0
  0
LINE
  5
57
330
36
100
AcDbEntity
  8
0
  6
Continuous
 62
     7
100
AcDbLine
 10
147.8499999999999
 20
130.7845039384401
 30
0.0
 11
143.9999999999999
 21
130.7845039384401
 31
0.0
  0
LINE
  5
58
330
36
100
AcDbEntity
  8
1
  6
Continuous
 62
     7
100
AcDbLine
 10
142.1999999999999
 20
130.7845039384401
 30
0.0
 11
142.1999999999999
 21
129.2141952266249
 31
0.0
  0
LINE
  5
59
330
36
100
AcDbEntity
  8
0
  6
Continuous
 62
     7
100
AcDbLine
 10
138.3499999999999
 20
130.7845039384401
 30
0.0
 11
142.1999999999999
 21
130.7845039384401
 31
0.0
  0
LINE
  5
5A
330
36
100
AcDbEntity
  8
1
  6
Continuous
 62
     7
100
AcDbLine
 10
147.8499999999999
 20
129.2141952266249
 30
0.0
 11
147.8499999999999
 21
130.7845039384401
 31
0.0
  0
LINE
  5
5B
330
36
100
AcDbEntity
  8
1
  6
Continuous
 62
     7
100
AcDbLine
 10
138.3499999999999
 20
130.7845039384401
 30
0.0
 11
138.3499999999999
 21
129.2141952266249
 31
0.0
  0
LINE
  5
5C
330
36
100
AcDbEntity
  8
1
  6
Continuous
 62
     7
100
AcDbLine
 10
139.3499999999999
 20
131.7845039384401
 30
0.0
 11
138.3499999999999
 21
130.7845039384401
 31
0.0
  0
LINE
  5
5D
330
36
100
AcDbEntity
  8
1
  6
Continuous
 62
     7
100
AcDbLine
 10
142.1999999999999
 20
131.7845039384401
 30
0.0
 11
142.1999999999999
 21
130.7845039384401
 31
0.0
  0
LINE
  5
5E
330
36
100
AcDbEntity
  8
1
  6
Continuous
 62
     7
100
AcDbLine
 10
139.3499999999999
 20
131.7845039384401
 30
0.0
 11
142.1999999999999
 21
131.7845039384401
 31
0.0
  0
LINE
  5
5F
330
36
100
AcDbEntity
  8
1
  6
Continuous
 62
     7
100
AcDbLine
 10
147.8499999999999
 20
130.7845039384401
 30
0.0
 11
146.8499999999999
 21
131.7845039384401
 31
0.0
  0
LINE
  5
60
330
36
100
AcDbEntity
  8
1
  6
Continuous
 62
     7
100
AcDbLine
 10
143.9999999999999
 20
129.2141952266249
 30
0.0
 11
143.9999999999999
 21
130.7845039384401
 31
0.0
  0
LINE
  5
61
330
36
100
AcDbEntity
  8
1
  6
Continuous
 62
     7
100
AcDbLine
 10
143.9999999999999
 20
131.7845039384401
 30
0.0
 11
146.8499999999999
 21
131.7845039384401
 31
0.0
  0
ARC
  5
62
330
36
100
AcDbEntity
  8
0
  6
Continuous
 62
     7
100
AcDbCircle
 10
61.09999999999999
 20
200.2224325720071
 30
0.0
 40
3.750000000000122
100
AcDbArc
 50
-166.1134596373696
 51
-13.88654036263098
  0
ARC
  5
63
330
36
100
AcDbEntity
  8
0
  6
Continuous
 62
     7
100
AcDbCircle
 10
61.09999999999999
 20
200.2224325720071
 30
0.0
 40
3.75
100
AcDbArc
 50
90.00000000000119
 51
166.1134596373734
  0
ARC
  5
64
330
36
100
AcDbEntity
  8
0
  6
Continuous
 62
     7
100
AcDbCircle
 10
61.09999999999999
 20
200.2224325720071
 30
0.0
 40
3.749999999999998
100
AcDbArc
 50
13.8865403626273
 51
90.00000000000119
  0
ARC
  5
65
330
36
100
AcDbEntity
  8
0
  6
Continuous
 62
     7
100
AcDbCircle
 10
61.09999999999999
 20
200.2224325720071
 30
0.0
 40
4.750000000000032
100
AcDbArc
 50
-10.92207061219009
 51
10.9220706121874
  0
ARC
  5
66
330
36
100
AcDbEntity
  8
0
  6
Continuous
 62
     7
100
AcDbCircle
 10
61.09999999999999
 20
200.2224325720071
 30
0.0
 40
4.749999999999989
100
AcDbArc
 50
10.9220706121874
 51
169.077929387813
  0
ARC
  5
67
330
36
100
AcDbEntity
  8
0
  6
Continuous
 62
     7
100
AcDbCircle
 10
61.09999999999999
 20
200.2224325720071
 30
0.0
 40
4.750000000000171
100
AcDbArc
 50
169.077929387813
 51
-169.0779293878103
  0
ARC
  5
68
330
36
100
AcDbEntity
  8
0
  6
Continuous
 62
     7
100
AcDbCircle
 10
61.09999999999999
 20
200.2224325720071
 30
0.0
 40
4.750000000000213
100
AcDbArc
 50
-169.0779293878103
 51
-10.92207061219009
  0
ENDBLK
  5
38
330
36
100
AcDbEntity
  8
0
100
AcDbBlockEnd
  0
BLOCK
  5
3A
330
39
100
AcDbEntity
  8
0
100
AcDbBlockBegin
  2
V261-13
 70
     0
 71
     0
 10
48.59999999999991
 20
77.23675596914808
 30
0.0
  3
V261-13
  1

  0
LINE
  5
69
330
39
100
AcDbEntity
  8
1
  6
Continuous
 62
     7
100
AcDbLine
 10
73.1683179024806
 20
208.2601998617873
 30
0.0
 11
73.59999999999971
 21
208.222432572007
 31
0.0
  0
LINE
  5
6A
330
39
100
AcDbEntity
  8
1
  6
Continuous
 62
     7
100
AcDbLine
 10
48.59999999999971
 20
207.5709018003566
 30
0.0
 11
48.59999999999971
 21
208.2224325720071
 31
0.0
  0
LINE
  5
6B
330
39
100
AcDbEntity
  8
1
  6
Continuous
 62
     7
100
AcDbLine
 10
73.59999999999971
 20
208.222432572007
 30
0.0
 11
73.59999999999971
 21
207.5709018003567
 31
0.0
  0
LINE
  5
6C
330
39
100
AcDbEntity
  8
1
  6
Continuous
 62
     7
100
AcDbLine
 10
48.59999999999971
 20
208.2224325720071
 30
0.0
 11
49.03168209751871
 21
208.260199861787
 31
0.0
  0
LINE
  5
6D
330
39
100
AcDbEntity
  8
1
  6
Continuous
 62
     7
100
AcDbLine
 10
50.09999999999991
 20
223.2224325720069
 30
0.0
 11
50.09999999999971
 21
212.9555982995323
 31
0.0
  0
LINE
  5
6E
330
39
100
AcDbEntity
  8
1
  6
Continuous
 62
     7
100
AcDbLine
 10
72.09999999999971
 20
212.9555982995322
 30
0.0
 11
72.09999999999991
 21
223.2224325720068
 31
0.0
  0
LINE
  5
6F
330
39
100
AcDbEntity
  8
1
  6
Continuous
 62
     7
100
AcDbLine
 10
73.59999999999991
 20
192.8739633436575
 30
0.0
 11
73.59999999999991
 21
192.2224325720069
 31
0.0
  0
LINE
  5
70
330
39
100
AcDbEntity
  8
1
  6
Continuous
 62
     7
100
AcDbLine
 10
49.03168209751891
 20
192.1846652822269
 30
0.0
 11
48.59999999999991
 21
192.2224325720069
 31
0.0
  0
LINE
  5
71
330
39
100
AcDbEntity
  8
0
  6
Continuous
 62
     2
100
AcDbLine
 10
70.41549999999981
 20
183.2224325720069
 30
0.0
 11
71.5774999999997
 21
184.7224325720069
 31
0.0
  0
LINE
  5
72
330
39
100
AcDbEntity
  8
1
  6
Continuous
 62
     2
100
AcDbLine
 10
70.41549999999981
 20
175.2224325720069
 30
0.0
 11
70.41549999999981
 21
183.2224325720069
 31
0.0
  0
LINE
  5
73
330
39
100
AcDbEntity
  8
1
  6
Continuous
 62
     7
100
AcDbLine
 10
149.5999999999999
 20
78.33036426322217
 30
0.0
 11
136.5999999999999
 21
78.33036426322217
 31
0.0
  0
LINE
  5
74
330
39
100
AcDbEntity
  8
1
  6
Continuous
 62
     7
100
AcDbLine
 10
135.0999999999999
 20
79.83036426322217
 30
0.0
 11
135.0999999999999
 21
105.147151312603
 31
0.0
  0
LINE
  5
75
330
39
100
AcDbEntity
  8
1
  6
Continuous
 62
     7
100
AcDbLine
 10
151.0999999999999
 20
105.147151312603
 30
0.0
 11
151.0999999999999
 21
79.83036426322217
 31
0.0
  0
LINE
  5
76
330
39
100
AcDbEntity
  8
1
  6
Continuous
 62
     7
100
AcDbLine
 10
149.5999999999999
 20
106.647151312603
 30
0.0
 11
136.5999999999999
 21
106.647151312603
 31
0.0
  0
LINE
  5
77
330
39
100
AcDbEntity
  8
1
  6
Continuous
 62
     7
100
AcDbLine
 10
155.0999999999999
 20
115.2141952266249
 30
0.0
 11
155.0999999999999
 21
112.3763466318865
 31
0.0
  0
LINE
  5
78
330
39
100
AcDbEntity
  8
0
  6
Continuous
 62
     7
100
AcDbLine
 10
131.0999999999999
 20
112.3763466318865
 30
0.0
 11
155.0999999999999
 21
112.3763466318865
 31
0.0
  0
LINE
  5
79
330
39
100
AcDbEntity
  8
0
  6
Continuous
 62
     7
100
AcDbLine
 10
127.5999999999999
 20
100.26200393844
 30
0.0
 11
127.5999999999999
 21
79.30700393844018
 31
0.0
  0
LINE
  5
7A
330
39
100
AcDbEntity
  8
1
  6
Continuous
 62
     7
100
AcDbLine
 10
155.0999999999999
 20
115.2141952266249
 30
0.0
 11
155.0999999999999
 21
112.3763466318865
 31
0.0
  0
LINE
  5
7B
330
39
100
AcDbEntity
  8
1
  6
Continuous
 62
     2
100
AcDbLine
 10
131.913
 20
115.2141952266249
 30
0.0
 11
131.913
 21
113.78450393844
 31
0.0
  0
LINE
  5
7C
330
39
100
AcDbEntity
  8
1
  6
Continuous
 62
     7
100
AcDbLine
 10
166.0999999999999
 20
78.78453348486187
 30
0.0
 11
166.1000295464221
 21
78.78453348486187
 31
0.0
  0
LINE
  5
7D
330
39
100
AcDbEntity
  8
0
  6
Continuous
 62
     7
100
AcDbLine
 10
166.0999999999999
 20
100.78450393844
 30
0.0
 11
166.0999999999999
 21
78.78453348486187
 31
0.0
  0
LINE
  5
7E
330
39
100
AcDbEntity
  8
0
  6
Continuous
 62
     7
100
AcDbLine
 10
126.0999999999999
 20
99.10000393843978
 30
0.0
 11
126.0999999999999
 21
80.46900393844007
 31
0.0
  0
LINE
  5
7F
330
39
100
AcDbEntity
  8
0
  6
Continuous
 62
     7
100
AcDbLine
 10
119.2619999999999
 20
99.10000393844007
 30
0.0
 11
119.2619999999999
 21
80.46900393843997
 31
0.0
  0
LINE
  5
80
330
39
100
AcDbEntity
  8
0
  6
Continuous
 62
     7
100
AcDbLine
 10
131.913
 20
113.78450393844
 30
0.0
 11
154.287
 21
113.78450393844
 31
0.0
  0
LINE
  5
81
330
39
100
AcDbEntity
  8
1
  6
Continuous
 62
     7
100
AcDbLine
 10
71.5774999999997
 20
176.3844325720069
 30
0.0
 11
51.78444090715601
 21
176.3844325720069
 31
0.0
  0
LINE
  5
82
330
39
100
AcDbEntity
  8
1
  6
Continuous
 62
     7
100
AcDbLine
 10
143.0999999999999
 20
77.23675596914808
 30
0.0
 11
151.7370255195331
 21
77.23675596914808
 31
0.0
  0
LINE
  5
83
330
39
100
AcDbEntity
  8
1
  6
Continuous
 62
     7
100
AcDbLine
 10
134.4209947517561
 20
77.23675596914808
 30
0.0
 11
143.0999999999999
 21
77.23675596914808
 31
0.0
  0
LINE
  5
84
330
39
100
AcDbEntity
  8
1
  6
Continuous
 62
     7
100
AcDbLine
 10
128.2293247233829
 20
78.55700393844018
 30
0.0
 11
129.871141921439
 21
78.55700393844018
 31
0.0
  0
LINE
  5
85
330
39
100
AcDbEntity
  8
1
  6
Continuous
 62
     7
100
AcDbLine
 10
72.3274999999997
 20
188.4599607335709
 30
0.0
 11
72.32749999999959
 21
185.3517572953898
 31
0.0
  0
LINE
  5
86
330
39
100
AcDbEntity
  8
1
  6
Continuous
 62
     7
100
AcDbLine
 10
49.87250000000009
 20
185.3517572953899
 30
0.0
 11
49.8725
 21
188.459960733571
 31
0.0
  0
LINE
  5
87
330
39
100
AcDbEntity
  8
1
  6
Continuous
 62
     7
100
AcDbLine
 10
48.59999999999991
 20
78.33036426322217
 30
0.0
 11
61.09999999999991
 21
77.23675596914808
 31
0.0
  0
LINE
  5
88
330
39
100
AcDbEntity
  8
1
  6
Continuous
 62
     7
100
AcDbLine
 10
61.09999999999991
 20
77.23675596914808
 30
0.0
 11
73.59999999999991
 21
78.33036426322217
 31
0.0
  0
LINE
  5
89
330
39
100
AcDbEntity
  8
1
  6
Continuous
 62
     7
100
AcDbLine
 10
156.6274858791501
 20
78.78453348486187
 30
0.0
 11
166.0999999999999
 21
78.78453348486187
 31
0.0
  0
LINE
  5
8A
330
39
100
AcDbEntity
  8
1
  6
Continuous
 62
     2
100
AcDbLine
 10
119.2619999999999
 20
99.10000393844007
 30
0.0
 11
118.0999999999999
 21
99.10000393844007
 31
0.0
  0
LINE
  5
8B
330
39
100
AcDbEntity
  8
1
  6
Continuous
 62
     2
100
AcDbLine
 10
126.0999999999999
 20
99.10000393843978
 30
0.0
 11
119.2619999999999
 21
99.10000393844007
 31
0.0
  0
LINE
  5
8C
330
39
100
AcDbEntity
  8
1
  6
Continuous
 62
     2
100
AcDbLine
 10
127.5999999999999
 20
100.26200393844
 30
0.0
 11
126.0999999999999
 21
99.10000393843978
 31
0.0
  0
LINE
  5
8D
330
39
100
AcDbEntity
  8
1
  6
Continuous
 62
     7
100
AcDbLine
 10
119.2619999999999
 20
100.26200393844
 30
0.0
 11
118.0999999999999
 21
99.10000393844007
 31
0.0
  0
LINE
  5
8E
330
39
100
AcDbEntity
  8
1
  6
Continuous
 62
     7
100
AcDbLine
 10
119.2619999999999
 20
99.10000393844007
 30
0.0
 11
119.2619999999999
 21
100.26200393844
 31
0.0
  0
LINE
  5
8F
330
39
100
AcDbEntity
  8
1
  6
Continuous
 62
     7
100
AcDbLine
 10
126.0999999999999
 20
100.2620039384399
 30
0.0
 11
126.0999999999999
 21
99.10000393843978
 31
0.0
  0
LINE
  5
90
330
39
100
AcDbEntity
  8
1
  6
Continuous
 62
     2
100
AcDbLine
 10
126.0999999999999
 20
80.46900393844007
 30
0.0
 11
127.5999999999999
 21
79.30700393844018
 31
0.0
  0
LINE
  5
91
330
39
100
AcDbEntity
  8
1
  6
Continuous
 62
     2
100
AcDbLine
 10
118.0999999999999
 20
80.46900393843997
 30
0.0
 11
119.2619999999999
 21
80.46900393843997
 31
0.0
  0
LINE
  5
92
330
39
100
AcDbEntity
  8
1
  6
Continuous
 62
     2
100
AcDbLine
 10
119.2619999999999
 20
80.46900393843997
 30
0.0
 11
126.0999999999999
 21
80.46900393844007
 31
0.0
  0
LINE
  5
93
330
39
100
AcDbEntity
  8
1
  6
Continuous
 62
     7
100
AcDbLine
 10
119.2619999999999
 20
79.30700393844018
 30
0.0
 11
119.2619999999999
 21
80.46900393843997
 31
0.0
  0
LINE
  5
94
330
39
100
AcDbEntity
  8
1
  6
Continuous
 62
     7
100
AcDbLine
 10
126.0999999999999
 20
80.46900393844007
 30
0.0
 11
126.0999999999999
 21
79.30700393844018
 31
0.0
  0
LINE
  5
95
330
39
100
AcDbEntity
  8
1
  6
Continuous
 62
     2
100
AcDbLine
 10
131.913
 20
113.78450393844
 30
0.0
 11
131.0999999999999
 21
112.3763466318865
 31
0.0
  0
LINE
  5
96
330
39
100
AcDbEntity
  8
1
  6
Continuous
 62
     2
100
AcDbLine
 10
155.0999999999999
 20
112.3763466318865
 30
0.0
 11
154.287
 21
113.78450393844
 31
0.0
  0
LINE
  5
97
330
39
100
AcDbEntity
  8
1
  6
Continuous
 62
     2
100
AcDbLine
 10
154.287
 20
113.78450393844
 30
0.0
 11
154.287
 21
115.2141952266249
 31
0.0
  0
LINE
  5
98
330
39
100
AcDbEntity
  8
1
  6
Continuous
 62
     7
100
AcDbLine
 10
155.0999999999999
 20
113.78450393844
 30
0.0
 11
154.287
 21
113.78450393844
 31
0.0
  0
LINE
  5
99
330
39
100
AcDbEntity
  8
1
  6
Continuous
 62
     7
100
AcDbLine
 10
131.913
 20
113.78450393844
 30
0.0
 11
131.0999999999999
 21
113.78450393844
 31
0.0
  0
LINE
  5
9A
330
39
100
AcDbEntity
  8
1
  6
Continuous
 62
     7
100
AcDbLine
 10
73.09999999999991
 20
112.3763466318865
 30
0.0
 11
49.09999999999991
 21
112.3763466318865
 31
0.0
  0
LINE
  5
9B
330
39
100
AcDbEntity
  8
1
  6
Continuous
 62
     7
100
AcDbLine
 10
50.62249999999989
 20
184.7224325720069
 30
0.0
 11
71.5774999999997
 21
184.7224325720069
 31
0.0
  0
LINE
  5
9C
330
39
100
AcDbEntity
  8
1
  6
Continuous
 62
     7
100
AcDbLine
 10
73.59999999999991
 20
106.78450393844
 30
0.0
 11
73.59999999999991
 21
111.5103212281026
 31
0.0
  0
LINE
  5
9D
330
39
100
AcDbEntity
  8
1
  6
Continuous
 62
     7
100
AcDbLine
 10
48.59999999999991
 20
106.78450393844
 30
0.0
 11
48.59999999999991
 21
106.6908956443659
 31
0.0
  0
LINE
  5
9E
330
39
100
AcDbEntity
  8
1
  6
Continuous
 62
     7
100
AcDbLine
 10
48.59999999999991
 20
106.6908956443659
 30
0.0
 11
51.72999999999999
 21
106.964735161202
 31
0.0
  0
LINE
  5
9F
330
39
100
AcDbEntity
  8
1
  6
PHANTOM
 62
     4
100
AcDbLine
 10
61.09999999999991
 20
77.23675596914808
 30
0.0
 11
61.59999999999991
 21
77.23675596914808
 31
0.0
  0
LINE
  5
A0
330
39
100
AcDbEntity
  8
1
  6
Continuous
 62
     7
100
AcDbLine
 10
73.59999999999991
 20
78.33036426322217
 30
0.0
 11
73.59999999999991
 21
89.78450393843997
 31
0.0
  0
LINE
  5
A1
330
39
100
AcDbEntity
  8
1
  6
Continuous
 62
     7
100
AcDbLine
 10
48.59999999999991
 20
89.78450393843997
 30
0.0
 11
48.59999999999991
 21
78.33036426322217
 31
0.0
  0
LINE
  5
A2
330
39
100
AcDbEntity
  8
1
  6
Continuous
 62
     7
100
AcDbLine
 10
48.59999999999991
 20
111.5103212281026
 30
0.0
 11
48.59999999999991
 21
106.78450393844
 31
0.0
  0
LINE
  5
A3
330
39
100
AcDbEntity
  8
1
  6
Continuous
 62
     7
100
AcDbLine
 10
73.59999999999991
 20
89.78450393843997
 30
0.0
 11
73.59999999999991
 21
106.6908956443659
 31
0.0
  0
LINE
  5
A4
330
39
100
AcDbEntity
  8
0
  6
Continuous
 62
     7
100
AcDbLine
 10
48.59999999999991
 20
111.5103212281026
 30
0.0
 11
49.09999999999991
 21
112.3763466318865
 31
0.0
  0
LINE
  5
A5
330
39
100
AcDbEntity
  8
0
  6
Continuous
 62
     2
100
AcDbLine
 10
49.09999999999991
 20
112.3763466318865
 30
0.0
 11
49.91000000000011
 21
113.78450393844
 31
0.0
  0
LINE
  5
A6
330
39
100
AcDbEntity
  8
0
  6
Continuous
 62
     7
100
AcDbLine
 10
73.09999999999991
 20
112.3763466318865
 30
0.0
 11
73.59999999999991
 21
111.5103212281026
 31
0.0
  0
LINE
  5
A7
330
39
100
AcDbEntity
  8
0
  6
Continuous
 62
     2
100
AcDbLine
 10
72.28999999999999
 20
113.78450393844
 30
0.0
 11
73.09999999999991
 21
112.3763466318865
 31
0.0
  0
LINE
  5
A8
330
39
100
AcDbEntity
  8
0
  6
Continuous
 62
     7
100
AcDbLine
 10
73.09999999999991
 20
113.78450393844
 30
0.0
 11
49.09999999999991
 21
113.78450393844
 31
0.0
  0
LINE
  5
A9
330
39
100
AcDbEntity
  8
0
  6
Continuous
 62
     7
100
AcDbLine
 10
73.09999999999991
 20
115.214195226625
 30
0.0
 11
73.09999999999991
 21
112.3763466318865
 31
0.0
  0
LINE
  5
AA
330
39
100
AcDbEntity
  8
0
  6
Continuous
 62
     2
100
AcDbLine
 10
72.28999999999999
 20
115.214195226625
 30
0.0
 11
72.28999999999999
 21
113.78450393844
 31
0.0
  0
LINE
  5
AB
330
39
100
AcDbEntity
  8
0
  6
Continuous
 62
     2
100
AcDbLine
 10
49.91000000000011
 20
113.78450393844
 30
0.0
 11
49.91000000000011
 21
115.214195226625
 31
0.0
  0
LINE
  5
AC
330
39
100
AcDbEntity
  8
0
  6
Continuous
 62
     7
100
AcDbLine
 10
49.09999999999991
 20
112.3763466318865
 30
0.0
 11
49.09999999999991
 21
115.214195226625
 31
0.0
  0
LINE
  5
AD
330
39
100
AcDbEntity
  8
1
  6
Continuous
 62
     7
100
AcDbLine
 10
50.09999999999991
 20
223.2224325720069
 30
0.0
 11
50.59999999999991
 21
223.7224325720069
 31
0.0
  0
LINE
  5
AE
330
39
100
AcDbEntity
  8
1
  6
Continuous
 62
     7
100
AcDbLine
 10
50.59999999999991
 20
223.7224325720069
 30
0.0
 11
61.09999999999991
 21
223.7224325720068
 31
0.0
  0
LINE
  5
AF
330
39
100
AcDbEntity
  8
1
  6
Continuous
 62
     7
100
AcDbLine
 10
50.09999999999991
 20
223.2224325720069
 30
0.0
 11
61.09999999999991
 21
223.2224325720068
 31
0.0
  0
LINE
  5
B0
330
39
100
AcDbEntity
  8
1
  6
Continuous
 62
     7
100
AcDbLine
 10
61.09999999999991
 20
223.2224325720068
 30
0.0
 11
72.09999999999991
 21
223.2224325720068
 31
0.0
  0
LINE
  5
B1
330
39
100
AcDbEntity
  8
1
  6
Continuous
 62
     7
100
AcDbLine
 10
61.09999999999991
 20
223.7224325720068
 30
0.0
 11
71.59999999999971
 21
223.7224325720068
 31
0.0
  0
LINE
  5
B2
330
39
100
AcDbEntity
  8
1
  6
Continuous
 62
     7
100
AcDbLine
 10
71.59999999999971
 20
223.7224325720068
 30
0.0
 11
72.09999999999991
 21
223.2224325720068
 31
0.0
  0
LINE
  5
B3
330
39
100
AcDbEntity
  8
1
  6
Continuous
 62
     7
100
AcDbLine
 10
49.87250000000009
 20
185.3517572953899
 30
0.0
 11
50.62249999999989
 21
184.7224325720069
 31
0.0
  0
LINE
  5
B4
330
39
100
AcDbEntity
  8
1
  6
Continuous
 62
     7
100
AcDbLine
 10
50.62249999999989
 20
184.7224325720069
 30
0.0
 11
50.62249999999989
 21
176.3844325720069
 31
0.0
  0
LINE
  5
B5
330
39
100
AcDbEntity
  8
1
  6
Continuous
 62
     7
100
AcDbLine
 10
51.78444090715601
 20
183.2224325720069
 30
0.0
 11
71.57749999999939
 21
183.2224325720072
 31
0.0
  0
LINE
  5
B6
330
39
100
AcDbEntity
  8
1
  6
Continuous
 62
     7
100
AcDbLine
 10
50.62249999999989
 20
176.3844325720069
 30
0.0
 11
50.62244090715609
 21
176.3844325720069
 31
0.0
  0
LINE
  5
B7
330
39
100
AcDbEntity
  8
1
  6
Continuous
 62
     2
100
AcDbLine
 10
51.78444090715601
 20
176.3844325720069
 30
0.0
 11
51.78444090715601
 21
175.2224325720069
 31
0.0
  0
LINE
  5
B8
330
39
100
AcDbEntity
  8
1
  6
Continuous
 62
     7
100
AcDbLine
 10
51.78444090715601
 20
175.2224325720069
 30
0.0
 11
70.41549999999981
 21
175.2224325720069
 31
0.0
  0
LINE
  5
B9
330
39
100
AcDbEntity
  8
1
  6
Continuous
 62
     7
100
AcDbLine
 10
50.62244090715629
 20
183.2224325720069
 30
0.0
 11
51.78444090715601
 21
183.2224325720069
 31
0.0
  0
LINE
  5
BA
330
39
100
AcDbEntity
  8
1
  6
Continuous
 62
     7
100
AcDbLine
 10
51.78444090715601
 20
176.3844325720069
 30
0.0
 11
50.62249999999989
 21
176.3844325720069
 31
0.0
  0
LINE
  5
BB
330
39
100
AcDbEntity
  8
1
  6
Continuous
 62
     7
100
AcDbLine
 10
50.62244090715609
 20
176.3844325720069
 30
0.0
 11
51.78444090715601
 21
175.2224325720069
 31
0.0
  0
LINE
  5
BC
330
39
100
AcDbEntity
  8
1
  6
Continuous
 62
     2
100
AcDbLine
 10
51.78444090715601
 20
183.2224325720069
 30
0.0
 11
51.78444090715601
 21
176.3844325720069
 31
0.0
  0
LINE
  5
BD
330
39
100
AcDbEntity
  8
1
  6
Continuous
 62
     7
100
AcDbLine
 10
71.5774999999997
 20
176.3844325720069
 30
0.0
 11
71.5774999999997
 21
184.7224325720069
 31
0.0
  0
LINE
  5
BE
330
39
100
AcDbEntity
  8
1
  6
Continuous
 62
     7
100
AcDbLine
 10
70.41549999999981
 20
175.2224325720069
 30
0.0
 11
71.5774999999997
 21
176.3844325720069
 31
0.0
  0
LINE
  5
BF
330
39
100
AcDbEntity
  8
0
  6
Continuous
 62
     2
100
AcDbLine
 10
50.62249999999989
 20
184.7224325720069
 30
0.0
 11
51.78444090715601
 21
183.2224325720069
 31
0.0
  0
LINE
  5
C0
330
39
100
AcDbEntity
  8
1
  6
Continuous
 62
     7
100
AcDbLine
 10
71.5774999999997
 20
184.7224325720069
 30
0.0
 11
72.32749999999959
 21
185.3517572953898
 31
0.0
  0
LINE
  5
C1
330
39
100
AcDbEntity
  8
1
  6
Continuous
 62
     7
100
AcDbLine
 10
127.5999999999999
 20
79.30700393844018
 30
0.0
 11
128.2293247233829
 21
78.55700393844018
 31
0.0
  0
LINE
  5
C2
330
39
100
AcDbEntity
  8
1
  6
Continuous
 62
     7
100
AcDbLine
 10
128.2985106672641
 20
101.0944565356172
 30
0.0
 11
127.5999999999999
 21
100.26200393844
 31
0.0
  0
LINE
  5
C3
330
39
100
AcDbEntity
  8
0
  6
Continuous
 62
     7
100
AcDbLine
 10
130.5999999999999
 20
111.5103212281026
 30
0.0
 11
130.5999999999999
 21
104.01200393844
 31
0.0
  0
LINE
  5
C4
330
39
100
AcDbEntity
  8
1
  6
Continuous
 62
     7
100
AcDbLine
 10
127.5999999999999
 20
100.26200393844
 30
0.0
 11
119.2619999999999
 21
100.26200393844
 31
0.0
  0
LINE
  5
C5
330
39
100
AcDbEntity
  8
1
  6
Continuous
 62
     7
100
AcDbLine
 10
119.2619999999999
 20
100.26200393844
 30
0.0
 11
119.2619999999999
 21
100.2620630312838
 31
0.0
  0
LINE
  5
C6
330
39
100
AcDbEntity
  8
1
  6
Continuous
 62
     7
100
AcDbLine
 10
118.0999999999999
 20
99.10006303128378
 30
0.0
 11
118.0999999999999
 21
96.28450393843997
 31
0.0
  0
LINE
  5
C7
330
39
100
AcDbEntity
  8
1
  6
Continuous
 62
     7
100
AcDbLine
 10
119.2619999999999
 20
100.2620630312838
 30
0.0
 11
118.0999999999999
 21
99.10006303128378
 31
0.0
  0
LINE
  5
C8
330
39
100
AcDbEntity
  8
1
  6
Continuous
 62
     7
100
AcDbLine
 10
119.2619999999999
 20
79.30700393844018
 30
0.0
 11
127.5999999999999
 21
79.30700393844018
 31
0.0
  0
LINE
  5
C9
330
39
100
AcDbEntity
  8
1
  6
Continuous
 62
     7
100
AcDbLine
 10
118.0999999999999
 20
80.46900393843997
 30
0.0
 11
119.2619999999999
 21
79.30700393844018
 31
0.0
  0
LINE
  5
CA
330
39
100
AcDbEntity
  8
1
  6
Continuous
 62
     7
100
AcDbLine
 10
166.5999999999999
 20
82.18450393843997
 30
0.0
 11
166.5999999999999
 21
100.28450393844
 31
0.0
  0
LINE
  5
CB
330
39
100
AcDbEntity
  8
1
  6
Continuous
 62
     7
100
AcDbLine
 10
166.5999999999999
 20
79.28450393843997
 30
0.0
 11
166.5999999999999
 21
82.18450393843997
 31
0.0
  0
LINE
  5
CC
330
39
100
AcDbEntity
  8
1
  6
Continuous
 62
     7
100
AcDbLine
 10
131.0999999999999
 20
112.3763466318865
 30
0.0
 11
131.0999999999999
 21
115.2141952266249
 31
0.0
  0
LINE
  5
CD
330
39
100
AcDbEntity
  8
1
  6
Continuous
 62
     7
100
AcDbLine
 10
166.5999999999999
 20
79.28450393843997
 30
0.0
 11
166.1000295464221
 21
78.78453348486187
 31
0.0
  0
LINE
  5
CE
330
39
100
AcDbEntity
  8
0
  6
Continuous
 62
     7
100
AcDbLine
 10
131.0999999999999
 20
112.3763466318865
 30
0.0
 11
130.5999999999999
 21
111.5103212281026
 31
0.0
  0
LINE
  5
CF
330
39
100
AcDbEntity
  8
0
  6
Continuous
 62
     7
100
AcDbLine
 10
155.5999999999999
 20
111.5103212281027
 30
0.0
 11
155.0999999999999
 21
112.3763466318865
 31
0.0
  0
LINE
  5
D0
330
39
100
AcDbEntity
  8
0
  6
Continuous
 62
     7
100
AcDbLine
 10
155.5999999999999
 20
105.78450393844
 30
0.0
 11
155.5999999999999
 21
111.5103212281027
 31
0.0
  0
LINE
  5
D1
330
39
100
AcDbEntity
  8
1
  6
Continuous
 62
     7
100
AcDbLine
 10
166.0999999999999
 20
100.78450393844
 30
0.0
 11
160.5999999999999
 21
100.78450393844
 31
0.0
  0
LINE
  5
D2
330
39
100
AcDbEntity
  8
1
  6
Continuous
 62
     7
100
AcDbLine
 10
166.0999999999999
 20
100.78450393844
 30
0.0
 11
166.5999999999999
 21
100.28450393844
 31
0.0
  0
LINE
  5
D3
330
39
100
AcDbEntity
  8
1
  6
Continuous
 62
     7
100
AcDbLine
 10
118.0999999999999
 20
96.28450393843997
 30
0.0
 11
118.0999999999999
 21
83.28450393843997
 31
0.0
  0
LINE
  5
D4
330
39
100
AcDbEntity
  8
1
  6
Continuous
 62
     7
100
AcDbLine
 10
118.0999999999999
 20
83.28450393843997
 30
0.0
 11
118.0999999999999
 21
80.46900393843997
 31
0.0
  0
LINE
  5
D5
330
39
100
AcDbEntity
  8
1
  6
Continuous
 62
     7
100
AcDbLine
 10
73.59999999999991
 20
106.6908956443659
 30
0.0
 11
73.59999999999991
 21
106.78450393844
 31
0.0
  0
LINE
  5
D6
330
39
100
AcDbEntity
  8
1
  6
Continuous
 62
     7
100
AcDbLine
 10
48.59999999999991
 20
106.6908956443659
 30
0.0
 11
48.59999999999991
 21
89.78450393843997
 31
0.0
  0
LINE
  5
D7
330
39
100
AcDbEntity
  8
1
  6
Continuous
 62
     7
100
AcDbLine
 10
67.76540928975811
 20
87.78450393843997
 30
0.0
 11
54.43459071024111
 21
87.78450393843997
 31
0.0
  0
LINE
  5
D8
330
39
100
AcDbEntity
  8
1
  6
Continuous
 62
     7
100
AcDbLine
 10
70.47
 20
106.964735161202
 30
0.0
 11
73.59999999999991
 21
106.6908956443659
 31
0.0
  0
LINE
  5
D9
330
39
100
AcDbEntity
  8
1
  6
Continuous
 62
     7
100
AcDbLine
 10
48.59999999999991
 20
192.2224325720069
 30
0.0
 11
48.59999999999991
 21
192.8739633436575
 31
0.0
  0
LINE
  5
DA
330
39
100
AcDbEntity
  8
1
  6
Continuous
 62
     7
100
AcDbLine
 10
73.59999999999991
 20
192.2224325720069
 30
0.0
 11
73.16831790248071
 21
192.1846652822269
 31
0.0
  0
ARC
  5
DB
330
39
100
AcDbEntity
  8
1
  6
Continuous
 62
     7
100
AcDbCircle
 10
44.9111592851169
 20
211.5977035507912
 30
0.0
 40
4.999999999999929
100
AcDbArc
 50
-42.45835895726744
 51
-13.15024972174039
  0
ARC
  5
DC
330
39
100
AcDbEntity
  8
1
  6
PHANTOM
 62
     7
100
AcDbCircle
 10
93.59999999999971
 20
200.222432572007
 30
0.0
 40
45.00000000000009
100
AcDbArc
 50
166.5878556970966
 51
166.8497502782569
  0
ARC
  5
DD
330
39
100
AcDbEntity
  8
1
  6
Continuous
 62
     7
100
AcDbCircle
 10
77.2888407148825
 20
211.5977035507911
 30
0.0
 40
4.999999999999954
100
AcDbArc
 50
-166.8497502782609
 51
-137.5416410427324
  0
ARC
  5
DE
330
39
100
AcDbEntity
  8
1
  6
Continuous
 62
     7
100
AcDbCircle
 10
28.5999999999997
 20
200.2224325720071
 30
0.0
 40
44.99999999999999
100
AcDbArc
 50
13.15024972174301
 51
13.41214430290323
  0
ARC
  5
DF
330
39
100
AcDbEntity
  8
1
  6
Continuous
 62
     7
100
AcDbCircle
 10
61.09999999999991
 20
89.78450393843997
 30
0.0
 40
11.0
100
AcDbArc
 50
0.0
 51
37.93527332582869
  0
ARC
  5
E0
330
39
100
AcDbEntity
  8
1
  6
Continuous
 62
     7
100
AcDbCircle
 10
129.871141921439
 20
71.55700393844018
 30
0.0
 40
7.000000000000044
100
AcDbArc
 50
57.63731450456063
 51
90.0
  0
ARC
  5
E1
330
39
100
AcDbEntity
  8
1
  6
Continuous
 62
     7
100
AcDbCircle
 10
156.6274858791501
 20
71.78453348486187
 30
0.0
 40
7.0
100
AcDbArc
 50
90.0
 51
125.1240259374055
  0
ARC
  5
E2
330
39
100
AcDbEntity
  8
1
  6
Continuous
 62
     7
100
AcDbCircle
 10
77.3480720959281
 20
188.9130586789989
 30
0.0
 40
4.999999999999849
100
AcDbArc
 50
138.5569887238893
 51
174.8007474115053
  0
ARC
  5
E3
330
39
100
AcDbEntity
  8
1
  6
Continuous
 62
     7
100
AcDbCircle
 10
44.85192790407149
 20
188.913058678999
 30
0.0
 40
5.000000000000418
100
AcDbArc
 50
5.19925258849443
 51
41.44301127610821
  0
ARC
  5
E4
330
39
100
AcDbEntity
  8
1
  6
Continuous
 62
     7
100
AcDbCircle
 10
61.09999999999991
 20
89.78450393843997
 30
0.0
 40
12.5
100
AcDbArc
 50
180.0
 51
0.0
  0
ARC
  5
E5
330
39
100
AcDbEntity
  8
1
  6
Continuous
 62
     7
100
AcDbCircle
 10
61.09999999999991
 20
89.78450393843997
 30
0.0
 40
6.959000000000208
100
AcDbArc
 50
-163.2977810241657
 51
-16.70221897583573
  0
ARC
  5
E6
330
39
100
AcDbEntity
  8
1
  6
Continuous
 62
     7
100
AcDbCircle
 10
61.09999999999991
 20
89.78450393843997
 30
0.0
 40
6.958999999999636
100
AcDbArc
 50
-16.70221897583573
 51
0.0
  0
ARC
  5
E7
330
39
100
AcDbEntity
  8
1
  6
Continuous
 62
     7
100
AcDbCircle
 10
61.09999999999991
 20
89.78450393843997
 30
0.0
 40
6.959000000000088
100
AcDbArc
 50
0.0
 51
-163.2977810241657
  0
ARC
  5
E8
330
39
100
AcDbEntity
  8
1
  6
Continuous
 62
     7
100
AcDbCircle
 10
61.09999999999991
 20
89.78450393843997
 30
0.0
 40
6.959000000000208
100
AcDbArc
 50
-163.2977810241657
 51
-16.70221897583573
  0
ARC
  5
E9
330
39
100
AcDbEntity
  8
1
  6
Continuous
 62
     7
100
AcDbCircle
 10
61.09999999999991
 20
89.78450393843997
 30
0.0
 40
6.958999999999636
100
AcDbArc
 50
-16.70221897583573
 51
0.0
  0
ARC
  5
EA
330
39
100
AcDbEntity
  8
1
  6
Continuous
 62
     7
100
AcDbCircle
 10
61.09999999999991
 20
89.78450393843997
 30
0.0
 40
6.959000000000088
100
AcDbArc
 50
0.0
 51
-163.2977810241657
  0
CIRCLE
  5
EB
330
39
100
AcDbEntity
  8
1
  6
Continuous
 62
     7
100
AcDbCircle
 10
61.09999999999991
 20
89.78450393843997
 30
0.0
 40
7.5
  0
CIRCLE
  5
EC
330
39
100
AcDbEntity
  8
1
  6
Continuous
 62
     2
100
AcDbCircle
 10
61.09999999999991
 20
89.78450393843997
 30
0.0
 40
7.5
  0
CIRCLE
  5
ED
330
39
100
AcDbEntity
  8
1
  6
Continuous
 62
     7
100
AcDbCircle
 10
61.09999999999991
 20
89.78450393843997
 30
0.0
 40
7.600000000000193
  0
CIRCLE
  5
EE
330
39
100
AcDbEntity
  8
1
  6
Continuous
 62
     7
100
AcDbCircle
 10
61.09999999999991
 20
89.78450393843997
 30
0.0
 40
7.600000000000193
  0
CIRCLE
  5
EF
330
39
100
AcDbEntity
  8
1
  6
Continuous
 62
     7
100
AcDbCircle
 10
61.09999999999991
 20
89.78450393843997
 30
0.0
 40
9.031327548732179
  0
CIRCLE
  5
F0
330
39
100
AcDbEntity
  8
1
  6
Continuous
 62
     7
100
AcDbCircle
 10
61.09999999999991
 20
89.78450393843997
 30
0.0
 40
10.5
  0
CIRCLE
  5
F1
330
39
100
AcDbEntity
  8
1
  6
Continuous
 62
     7
100
AcDbCircle
 10
61.09999999999991
 20
89.78450393843997
 30
0.0
 40
11.0
  0
ARC
  5
F2
330
39
100
AcDbEntity
  8
1
  6
Continuous
 62
     7
100
AcDbCircle
 10
40.1000295464215
 20
212.9799073012102
 30
0.0
 40
9.999999999999908
100
AcDbArc
 50
-13.41214430290185
 51
-0.13928045720663
  0
ARC
  5
F3
330
39
100
AcDbEntity
  8
1
  6
Continuous
 62
     7
100
AcDbCircle
 10
82.0999704535779
 20
212.9799073012102
 30
0.0
 40
9.999999999999965
100
AcDbArc
 50
-179.8607195427927
 51
-166.5878556970982
  0
ARC
  5
F4
330
39
100
AcDbEntity
  8
0
  6
Continuous
 62
     7
100
AcDbCircle
 10
149.5999999999999
 20
105.147151312603
 30
0.0
 40
1.5
100
AcDbArc
 50
0.0
 51
90.0
  0
ARC
  5
F5
330
39
100
AcDbEntity
  8
0
  6
Continuous
 62
     7
100
AcDbCircle
 10
149.5999999999999
 20
79.83036426322217
 30
0.0
 40
1.5
100
AcDbArc
 50
-90.0
 51
0.0
  0
ARC
  5
F6
330
39
100
AcDbEntity
  8
0
  6
Continuous
 62
     7
100
AcDbCircle
 10
136.5999999999999
 20
79.83036426322217
 30
0.0
 40
1.5
100
AcDbArc
 50
180.0
 51
-90.0
  0
ARC
  5
F7
330
39
100
AcDbEntity
  8
0
  6
Continuous
 62
     7
100
AcDbCircle
 10
136.5999999999999
 20
105.147151312603
 30
0.0
 40
1.5
100
AcDbArc
 50
90.0
 51
180.0
  0
ARC
  5
F8
330
39
100
AcDbEntity
  8
1
  6
Continuous
 62
     7
100
AcDbCircle
 10
134.4209947517561
 20
78.73675596914808
 30
0.0
 40
1.499999999999881
100
AcDbArc
 50
-122.3626854954378
 51
-90.0
  0
ARC
  5
F9
330
39
100
AcDbEntity
  8
1
  6
Continuous
 62
     7
100
AcDbCircle
 10
151.7370255195331
 20
78.73675596914808
 30
0.0
 40
1.5
100
AcDbArc
 50
-90.0
 51
-54.87597406260152
  0
ARC
  5
FA
330
39
100
AcDbEntity
  8
1
  6
Continuous
 62
     7
100
AcDbCircle
 10
82.3274999999997
 20
188.4599607335709
 30
0.0
 40
9.999999999999902
100
AcDbArc
 50
174.8007474115051
 51
180.0
  0
ARC
  5
FB
330
39
100
AcDbEntity
  8
1
  6
Continuous
 62
     7
100
AcDbCircle
 10
82.3274999999997
 20
188.4599607335709
 30
0.0
 40
9.999999999999902
100
AcDbArc
 50
174.8007474115051
 51
180.0
  0
ARC
  5
FC
330
39
100
AcDbEntity
  8
1
  6
Continuous
 62
     7
100
AcDbCircle
 10
82.3274999999997
 20
188.4599607335709
 30
0.0
 40
9.999999999999902
100
AcDbArc
 50
174.8007474115051
 51
180.0
  0
ARC
  5
FD
330
39
100
AcDbEntity
  8
1
  6
Continuous
 62
     7
100
AcDbCircle
 10
39.8725
 20
188.459960733571
 30
0.0
 40
10.0
100
AcDbArc
 50
0.0
 51
5.19925258849481
  0
ARC
  5
FE
330
39
100
AcDbEntity
  8
1
  6
Continuous
 62
     7
100
AcDbCircle
 10
160.5999999999999
 20
105.78450393844
 30
0.0
 40
5.0
100
AcDbArc
 50
180.0
 51
-90.0
  0
ARC
  5
FF
330
39
100
AcDbEntity
  8
1
  6
Continuous
 62
     7
100
AcDbCircle
 10
127.5999999999999
 20
104.01200393844
 30
0.0
 40
3.0
100
AcDbArc
 50
-76.53585098560504
 51
0.0
  0
ENDBLK
  5
3B
330
39
100
AcDbEntity
  8
0
100
AcDbBlockEnd
  0
BLOCK
  5
3D
330
3C
100
AcDbEntity
  8
0
100
AcDbBlockBegin
  2
35-22
 70
     0
 71
     0
 10
83.62836335014151
 20
124.9999839569739
 30
0.0
  3
35-22
  1

  0
LINE
  5
100
330
3C
100
AcDbEntity
  8
1
  6
Continuous
 62
     7
100
AcDbLine
 10
167.5999999999999
 20
81.18450393843997
 30
0.0
 11
166.5999999999999
 21
81.18450393843997
 31
0.0
  0
LINE
  5
101
330
3C
100
AcDbEntity
  8
1
  6
Continuous
 62
     7
100
AcDbLine
 10
166.5999999999999
 20
98.38450393843996
 30
0.0
 11
167.5999999999999
 21
98.38450393843996
 31
0.0
  0
LINE
  5
102
330
3C
100
AcDbEntity
  8
1
  6
Continuous
 62
     7
100
AcDbLine
 10
52.49999999999989
 20
223.7224325720071
 30
0.0
 11
52.49999999999989
 21
224.7224325720071
 31
0.0
  0
LINE
  5
103
330
3C
100
AcDbEntity
  8
1
  6
Continuous
 62
     7
100
AcDbLine
 10
69.6999999999999
 20
224.7224325720071
 30
0.0
 11
69.6999999999999
 21
223.7224325720071
 31
0.0
  0
ENDBLK
  5
3E
330
3C
100
AcDbEntity
  8
0
100
AcDbBlockEnd
  0
BLOCK
  5
40
330
3F
100
AcDbEntity
  8
0
100
AcDbBlockBegin
  2
32-26-M11-314
 70
     0
 71
     0
 10
4.50000000000001
 20
290.5
 30
0.0
  3
32-26-M11-314
  1

  0
LINE
  5
104
330
3F
100
AcDbEntity
  8
1
  6
Continuous
 62
     7
100
AcDbLine
 10
167.5999999999999
 20
81.18450393843997
 30
0.0
 11
167.5999999999999
 21
78.42426091679558
 31
0.0
  0
LINE
  5
105
330
3F
100
AcDbEntity
  8
1
  6
Continuous
 62
     7
100
AcDbLine
 10
179.9121488653216
 20
77.78450393843997
 30
0.0
 11
168.7878511346783
 21
77.78450393843997
 31
0.0
  0
LINE
  5
106
330
3F
100
AcDbEntity
  8
1
  6
Continuous
 62
     7
100
AcDbLine
 10
167.5999999999999
 20
101.1447469600845
 30
0.0
 11
167.5999999999999
 21
81.18450393843997
 31
0.0
  0
LINE
  5
107
330
3F
100
AcDbEntity
  8
1
  6
Continuous
 62
     7
100
AcDbLine
 10
181.0999999999999
 20
79.43450393843997
 30
0.0
 11
181.0999999999999
 21
78.42426091679558
 31
0.0
  0
LINE
  5
108
330
3F
100
AcDbEntity
  8
1
  6
Continuous
 62
     7
100
AcDbLine
 10
168.7878511346783
 20
101.78450393844
 30
0.0
 11
179.9121488653217
 21
101.78450393844
 31
0.0
  0
LINE
  5
109
330
3F
100
AcDbEntity
  8
1
  6
Continuous
 62
     7
100
AcDbLine
 10
181.0999999999999
 20
101.1447469600845
 30
0.0
 11
181.0999999999999
 21
79.43450393843997
 31
0.0
  0
LINE
  5
10A
330
3F
100
AcDbEntity
  8
1
  6
Continuous
 62
     7
100
AcDbLine
 10
73.59999999999991
 20
92.13386884382898
 30
0.0
 11
74.30133047719369
 21
90.91912882443288
 31
0.0
  0
LINE
  5
10B
330
3F
100
AcDbEntity
  8
1
  6
Continuous
 62
     7
100
AcDbLine
 10
48.59999999999991
 20
87.43513903305097
 30
0.0
 11
47.8986695228061
 21
88.64987905244718
 31
0.0
  0
LINE
  5
10C
330
3F
100
AcDbEntity
  8
1
  6
Continuous
 62
     7
100
AcDbLine
 10
49.7397569783555
 20
224.722432572007
 30
0.0
 11
72.46024302164449
 21
224.7224325720069
 31
0.0
  0
LINE
  5
10D
330
3F
100
AcDbEntity
  8
1
  6
Continuous
 62
     7
100
AcDbLine
 10
49.7397569783555
 20
238.222432572007
 30
0.0
 11
72.46024302164449
 21
238.2224325720069
 31
0.0
  0
LINE
  5
10E
330
3F
100
AcDbEntity
  8
1
  6
Continuous
 62
     7
100
AcDbLine
 10
47.8986695228061
 20
90.91912882443288
 30
0.0
 11
48.59999999999991
 21
92.13386884382898
 31
0.0
  0
LINE
  5
10F
330
3F
100
AcDbEntity
  8
1
  6
Continuous
 62
     7
100
AcDbLine
 10
74.30133047719369
 20
88.64987905244718
 30
0.0
 11
73.59999999999991
 21
87.43513903305097
 31
0.0
  0
ARC
  5
110
330
3F
100
AcDbEntity
  8
1
  6
Continuous
 62
     7
100
AcDbCircle
 10
174.3499999999999
 20
89.53450393843997
 30
0.0
 40
12.99999999999998
100
AcDbArc
 50
-64.66832498328724
 51
-58.71933284795134
  0
ARC
  5
111
330
3F
100
AcDbEntity
  8
1
  6
Continuous
 62
     7
100
AcDbCircle
 10
174.3499999999999
 20
89.53450393843997
 30
0.0
 40
12.99999999999992
100
AcDbArc
 50
-121.2806671520487
 51
-115.3316750167124
  0
ARC
  5
112
330
3F
100
AcDbEntity
  8
1
  6
Continuous
 62
     7
100
AcDbCircle
 10
174.3499999999999
 20
90.03450393843997
 30
0.0
 40
13.00000000000004
100
AcDbArc
 50
58.71933284795167
 51
64.66832498328684
  0
ARC
  5
113
330
3F
100
AcDbEntity
  8
1
  6
Continuous
 62
     7
100
AcDbCircle
 10
174.3499999999999
 20
90.03450393843997
 30
0.0
 40
12.99999999999996
100
AcDbArc
 50
115.3316750167124
 51
121.2806671520483
  0
ARC
  5
114
330
3F
100
AcDbEntity
  8
1
  6
Continuous
 62
     7
100
AcDbCircle
 10
60.84999999999999
 20
231.4724325720069
 30
0.0
 40
13.00000000000004
100
AcDbArc
 50
148.7193328479513
 51
-148.7193328479519
  0
ARC
  5
115
330
3F
100
AcDbEntity
  8
1
  6
Continuous
 62
     7
100
AcDbCircle
 10
61.11554631095191
 20
231.2011069121289
 30
0.0
 40
6.332098487497178
100
AcDbArc
 50
90.14067041142376
 51
128.1048327060222
  0
ARC
  5
116
330
3F
100
AcDbEntity
  8
1
  6
Continuous
 62
     7
100
AcDbCircle
 10
61.15093391822211
 20
231.6727402899307
 30
0.0
 40
6.23880879817247
100
AcDbArc
 50
-178.1601039686563
 51
-90.46777054110852
  0
ARC
  5
117
330
3F
100
AcDbEntity
  8
1
  6
Continuous
 62
     7
100
AcDbCircle
 10
60.9029780258756
 20
231.4721582085156
 30
0.0
 40
5.987636470587948
100
AcDbArc
 50
128.104832706023
 51
179.9973746118043
  0
ARC
  5
118
330
3F
100
AcDbEntity
  8
1
  6
Continuous
 62
     7
100
AcDbCircle
 10
61.34999999999999
 20
231.4724325720069
 30
0.0
 40
13.00000000000001
100
AcDbArc
 50
-31.28066715204842
 51
31.28066715204842
  0
ARC
  5
119
330
3F
100
AcDbEntity
  8
1
  6
Continuous
 62
     7
100
AcDbCircle
 10
61.08445368904799
 20
231.2011069121289
 30
0.0
 40
6.332098487497276
100
AcDbArc
 50
51.89516729397707
 51
89.85932958857561
  0
ARC
  5
11A
330
3F
100
AcDbEntity
  8
1
  6
Continuous
 62
     7
100
AcDbCircle
 10
61.04906608177799
 20
231.6727402899307
 30
0.0
 40
6.238808798172343
100
AcDbArc
 50
-89.53222945889257
 51
-1.83989603134369
  0
ARC
  5
11B
330
3F
100
AcDbEntity
  8
1
  6
Continuous
 62
     7
100
AcDbCircle
 10
61.29702197412431
 20
231.4721582085156
 30
0.0
 40
5.987636470588088
100
AcDbArc
 50
0.00262538819575
 51
51.89516729397625
  0
ARC
  5
11C
330
3F
100
AcDbEntity
  8
1
  6
Continuous
 62
     7
100
AcDbCircle
 10
61.09999999999991
 20
89.78450393843997
 30
0.0
 40
13.25000000000002
100
AcDbArc
 50
175.0876278415114
 51
-175.0876278415119
  0
ARC
  5
11D
330
3F
100
AcDbEntity
  8
1
  6
Continuous
 62
     7
100
AcDbCircle
 10
61.09999999999991
 20
89.78450393843997
 30
0.0
 40
13.24999999999998
100
AcDbArc
 50
-4.91237215848812
 51
4.91237215848861
  0
SPLINE
  5
11E
330
3F
100
AcDbEntity
  8
1
  6
Continuous
 62
     7
100
AcDbSpline
210
0.0
220
0.0
230
1.0
 70
    11
 71
     3
 72
    79
 73
    75
 74
    73
 42
0.0000000001
 43
0.0000000001
 44
0.00000001
 40
0.0
 40
0.0
 40
0.0
 40
0.0
 40
0.2732520596959583
 40
0.5466869743746636
 40
0.8413986807838765
 40
1.136327588787031
 40
1.467767925674727
 40
1.799287330784609
 40
2.174576154088361
 40
2.54990746099988
 40
2.969561235580319
 40
3.389237629160157
 40
3.849011454340492
 40
4.308799503993496
 40
4.801169042998311
 40
5.293547118901753
 40
5.808782067216443
 40
6.324021649886057
 40
6.851020326127225
 40
7.378020465970081
 40
7.90502060581291
 40
8.432019282054077
 40
8.947258864723692
 40
9.462493813038382
 40
9.954871888941851
 40
10.44724142794664
 40
10.90702947759967
 40
11.36680330278006
 40
11.78647969635988
 40
12.20613347094028
 40
12.58146477785178
 40
12.95675360115555
 40
13.28827300626549
 40
13.61971334315319
 40
13.91464225115637
 40
14.2093539575656
 40
14.4827888722443
 40
14.75604093194027
 40
15.02929299163618
 40
15.30272790631482
 40
15.59743961272406
 40
15.89236852072723
 40
16.22380885761491
 40
16.55532826272481
 40
16.93061708602858
 40
17.30594839294013
 40
17.72560216752054
 40
18.14527856110037
 40
18.6050523862807
 40
19.06484043593379
 40
19.55720997493853
 40
20.04958805084202
 40
20.56482299915671
 40
21.08006258182633
 40
21.60706125806747
 40
22.13406139791033
 40
22.66106153775316
 40
23.18806021399436
 40
23.70329979666395
 40
24.21853474497867
 40
24.71091282088213
 40
25.2032823598869
 40
25.66307040954001
 40
26.12284423472043
 40
26.5425206283002
 40
26.96217440288054
 40
27.33750570979208
 40
27.71279453309586
 40
28.0443139382057
 40
28.37575427509338
 40
28.67068318309654
 40
28.96539488950575
 40
29.2388298041844
 40
29.5120818638803
 40
29.5120818638803
 40
29.5120818638803
 40
29.5120818638803
 10
71.0079695830818
 20
225.410254745516
 30
0.0
 10
71.09914853203851
 20
225.4149865344311
 30
0.0
 10
71.28156744513751
 20
225.4244532786826
 30
0.0
 10
71.55418726068506
 20
225.4980430495939
 30
0.0
 10
71.81844117031027
 20
225.6139988957151
 30
0.0
 10
72.07942810688122
 20
225.7775516828129
 30
0.0
 10
72.32688023439081
 20
225.9806139277717
 30
0.0
 10
72.56814940603704
 20
226.2295630596332
 30
0.0
 10
72.79286612330823
 20
226.5124506028351
 30
0.0
 10
73.00773029214145
 20
226.8385227856021
 30
0.0
 10
73.20392787725909
 20
227.1931510389744
 30
0.0
 10
73.38634042168367
 20
227.586221190815
 30
0.0
 10
73.54844913685182
 20
228.0024743966516
 30
0.0
 10
73.69317529889602
 20
228.4505610077285
 30
0.0
 10
73.81632258500299
 20
228.9162987176088
 30
0.0
 10
73.91917910358347
 20
229.405801658779
 30
0.0
 10
73.99953212718435
 20
229.9072179470812
 30
0.0
 10
74.05757294473492
 20
230.4233011311533
 30
0.0
 10
74.09254653064046
 20
230.9453885422021
 30
0.0
 10
74.10417494350487
 20
231.472432572008
 30
0.0
 10
74.09254653064046
 20
231.9994766018072
 30
0.0
 10
74.05757294473492
 20
232.5215640128758
 30
0.0
 10
73.99953212718434
 20
233.0376471968773
 30
0.0
 10
73.91917910358347
 20
233.5390634854379
 30
0.0
 10
73.81632258500301
 20
234.0285664256843
 30
0.0
 10
73.69317529889602
 20
234.4943041389036
 30
0.0
 10
73.54844913685179
 20
234.9423907383061
 30
0.0
 10
73.38634042168374
 20
235.3586439858253
 30
0.0
 10
73.20392787725903
 20
235.7517139950205
 30
0.0
 10
73.00773029214145
 20
236.1063427518681
 30
0.0
 10
72.79286612330823
 20
236.4324132441066
 30
0.0
 10
72.56814940603701
 20
236.7153067033544
 30
0.0
 10
72.32688023439087
 20
236.9642361977932
 30
0.0
 10
72.0794281068812
 20
237.1673671118416
 30
0.0
 10
71.81844117031028
 20
237.330690414362
 30
0.0
 10
71.55418726068508
 20
237.4474602810296
 30
0.0
 10
71.28156744513751
 20
237.5182206885211
 30
0.0
 10
71.00796958308183
 20
237.5428025124845
 30
0.0
 10
70.73437172102615
 20
237.5182206885212
 30
0.0
 10
70.46175190547865
 20
237.4474602810296
 30
0.0
 10
70.19749799585341
 20
237.3306904143619
 30
0.0
 10
69.93651105928252
 20
237.1673671118416
 30
0.0
 10
69.68905893177289
 20
236.9642361977932
 30
0.0
 10
69.4477897601268
 20
236.7153067033543
 30
0.0
 10
69.22307304285556
 20
236.4324132441065
 30
0.0
 10
69.00820887402227
 20
236.1063427518681
 30
0.0
 10
68.81201128890463
 20
235.7517139950205
 30
0.0
 10
68.62959874448001
 20
235.3586439858252
 30
0.0
 10
68.46749002931183
 20
234.9423907383062
 30
0.0
 10
68.32276386726767
 20
234.4943041389037
 30
0.0
 10
68.19961658116071
 20
234.0285664256844
 30
0.0
 10
68.09676006258032
 20
233.5390634854378
 30
0.0
 10
68.01640703897942
 20
233.0376471968773
 30
0.0
 10
67.95836622142882
 20
232.5215640128759
 30
0.0
 10
67.92339263552321
 20
231.9994766018073
 30
0.0
 10
67.9117642226588
 20
231.472432572008
 30
0.0
 10
67.92339263552323
 20
230.9453885422022
 30
0.0
 10
67.95836622142879
 20
230.4233011311532
 30
0.0
 10
68.01640703897944
 20
229.9072179470812
 30
0.0
 10
68.0967600625803
 20
229.405801658779
 30
0.0
 10
68.19961658116077
 20
228.9162987176088
 30
0.0
 10
68.32276386726765
 20
228.4505610077285
 30
0.0
 10
68.46749002931185
 20
228.0024743966514
 30
0.0
 10
68.62959874447998
 20
227.5862211908149
 30
0.0
 10
68.81201128890461
 20
227.1931510389743
 30
0.0
 10
69.0082088740223
 20
226.838522785602
 30
0.0
 10
69.22307304285553
 20
226.5124506028351
 30
0.0
 10
69.44778976012675
 20
226.2295630596332
 30
0.0
 10
69.68905893177292
 20
225.9806139277717
 30
0.0
 10
69.93651105928252
 20
225.7775516828129
 30
0.0
 10
70.19749799585343
 20
225.613998895715
 30
0.0
 10
70.46175190547865
 20
225.4980430495939
 30
0.0
 10
70.73437172102615
 20
225.4244532786825
 30
0.0
 10
70.91679063412511
 20
225.414986534431
 30
0.0
 10
71.0079695830818
 20
225.410254745516
 30
0.0
 11
71.0079695830818
 21
225.410254745516
 31
0.0
 11
71.28018530986206
 21
225.4340304941179
 31
0.0
 11
71.54494691674441
 21
225.5023528483398
 31
0.0
 11
71.81501199342219
 21
225.620335237931
 31
0.0
 11
72.06560846584731
 21
225.7758488025613
 31
0.0
 11
72.32255990779174
 21
225.9852017423518
 31
0.0
 11
72.55413419268871
 21
226.2224325720069
 31
0.0
 11
72.78834319922166
 21
226.5156694082938
 31
0.0
 11
72.99568049026371
 21
226.8285349348244
 31
0.0
 11
73.19949481824824
 21
227.1953714245958
 31
0.0
 11
73.3768311977546
 21
227.5757397774221
 31
0.0
 11
73.54418464167523
 21
228.0039742869246
 31
0.0
 11
73.68600524378539
 21
228.4413436587613
 31
0.0
 11
73.81221587055744
 21
228.9172623919812
 31
0.0
 11
73.91380853141729
 21
229.3990456429248
 31
0.0
 11
73.99553914062281
 21
229.9077569161277
 31
0.0
 11
74.05331937302921
 21
230.4197464397438
 31
0.0
 11
74.08861196404425
 21
230.9455620326843
 31
0.0
 11
74.1002988022951
 21
231.4724325720069
 31
0.0
 11
74.08861196404425
 21
231.9993031113295
 31
0.0
 11
74.05331937302921
 21
232.52511870427
 31
0.0
 11
73.99553914062281
 21
233.0371082278861
 31
0.0
 11
73.91380853141729
 21
233.545819501089
 31
0.0
 11
73.81221587055744
 21
234.0276027520326
 31
0.0
 11
73.68600524378539
 21
234.5035214852525
 31
0.0
 11
73.54418464167523
 21
234.9408908570892
 31
0.0
 11
73.3768311977546
 21
235.3691253665918
 31
0.0
 11
73.19949481824821
 21
235.749493719418
 31
0.0
 11
72.99568049026371
 21
236.1163302091894
 31
0.0
 11
72.78834319922166
 21
236.42919573572
 31
0.0
 11
72.55413419268871
 21
236.7224325720069
 31
0.0
 11
72.32255990779176
 21
236.9596634016621
 31
0.0
 11
72.06560846584731
 21
237.1690163414526
 31
0.0
 11
71.8150119934222
 21
237.3245299060829
 31
0.0
 11
71.54494691674441
 21
237.4425122956742
 31
0.0
 11
71.28018530986208
 21
237.5108346498961
 31
0.0
 11
71.0079695830818
 21
237.534610398498
 31
0.0
 11
70.73575385630159
 21
237.5108346498961
 31
0.0
 11
70.47099224941931
 21
237.4425122956742
 31
0.0
 11
70.20092717274152
 21
237.3245299060829
 31
0.0
 11
69.95033070031641
 21
237.1690163414526
 31
0.0
 11
69.69337925837201
 21
236.9596634016621
 31
0.0
 11
69.4618049734751
 21
236.7224325720069
 31
0.0
 11
69.22759596694212
 21
236.42919573572
 31
0.0
 11
69.02025867590001
 21
236.1163302091894
 31
0.0
 11
68.81644434791548
 21
235.749493719418
 31
0.0
 11
68.63910796840909
 21
235.3691253665918
 31
0.0
 11
68.47175452448845
 21
234.9408908570893
 31
0.0
 11
68.3299339223783
 21
234.5035214852525
 31
0.0
 11
68.2037232956063
 21
234.0276027520327
 31
0.0
 11
68.10213063474649
 21
233.545819501089
 31
0.0
 11
68.02040002554095
 21
233.0371082278861
 31
0.0
 11
67.96261979313451
 21
232.52511870427
 31
0.0
 11
67.92732720211946
 21
231.9993031113295
 31
0.0
 11
67.91564036386859
 21
231.4724325720069
 31
0.0
 11
67.92732720211946
 21
230.9455620326843
 31
0.0
 11
67.96261979313451
 21
230.4197464397438
 31
0.0
 11
68.02040002554095
 21
229.9077569161277
 31
0.0
 11
68.10213063474649
 21
229.3990456429248
 31
0.0
 11
68.20372329560631
 21
228.9172623919812
 31
0.0
 11
68.3299339223783
 21
228.4413436587613
 31
0.0
 11
68.47175452448845
 21
228.0039742869245
 31
0.0
 11
68.63910796840909
 21
227.5757397774219
 31
0.0
 11
68.81644434791548
 21
227.1953714245957
 31
0.0
 11
69.02025867590001
 21
226.8285349348244
 31
0.0
 11
69.2275959669421
 21
226.5156694082938
 31
0.0
 11
69.4618049734751
 21
226.2224325720069
 31
0.0
 11
69.69337925837201
 21
225.9852017423518
 31
0.0
 11
69.95033070031641
 21
225.7758488025613
 31
0.0
 11
70.20092717274152
 21
225.620335237931
 31
0.0
 11
70.47099224941931
 21
225.5023528483398
 31
0.0
 11
70.7357538563016
 21
225.4340304941179
 31
0.0
 11
71.0079695830818
 21
225.410254745516
 31
0.0
  0
SPLINE
  5
11F
330
3F
100
AcDbEntity
  8
1
  6
Continuous
 62
     7
100
AcDbSpline
210
0.0
220
0.0
230
1.0
 70
    11
 71
     3
 72
    79
 73
    75
 74
    73
 42
0.0000000001
 43
0.0000000001
 44
0.00000001
 40
0.0
 40
0.0
 40
0.0
 40
0.0
 40
0.2732520596959491
 40
0.5466869743746617
 40
0.8413986807838828
 40
1.13632758878702
 40
1.467767925674602
 40
1.799287330784455
 40
2.174576154088322
 40
2.549907460999833
 40
2.969561235580226
 40
3.389237629160113
 40
3.849011454340535
 40
4.30879950399357
 40
4.801169042998268
 40
5.293547118901664
 40
5.808782067216376
 40
6.324021649886118
 40
6.851020326127252
 40
7.378020465970106
 40
7.905020605812904
 40
8.432019282054009
 40
8.947258864723722
 40
9.462493813038465
 40
9.954871888941851
 40
10.44724142794659
 40
10.90702947759968
 40
11.36680330278009
 40
11.78647969635989
 40
12.20613347094029
 40
12.58146477785185
 40
12.95675360115574
 40
13.28827300626556
 40
13.61971334315317
 40
13.91464225115634
 40
14.20935395756558
 40
14.48278887224427
 40
14.75604093194022
 40
15.02929299163614
 40
15.3027279063148
 40
15.59743961272404
 40
15.89236852072721
 40
16.22380885761483
 40
16.55532826272464
 40
16.93061708602849
 40
17.30594839294002
 40
17.72560216752042
 40
18.14527856110023
 40
18.60505238628059
 40
19.06484043593372
 40
19.55720997493846
 40
20.04958805084189
 40
20.5648229991566
 40
21.0800625818263
 40
21.60706125806745
 40
22.13406139791022
 40
22.66106153775308
 40
23.18806021399422
 40
23.70329979666386
 40
24.21853474497864
 40
24.71091282088204
 40
25.2032823598868
 40
25.66307040953996
 40
26.1228442347204
 40
26.54252062830016
 40
26.96217440288051
 40
27.33750570979202
 40
27.71279453309582
 40
28.04431393820567
 40
28.37575427509326
 40
28.6706831830964
 40
28.96539488950561
 40
29.23882980418428
 40
29.51208186388021
 40
29.51208186388021
 40
29.51208186388021
 40
29.51208186388021
 10
51.19203041691819
 20
225.410254745516
 30
0.0
 10
51.1008514679615
 20
225.4149865344311
 30
0.0
 10
50.91843255486248
 20
225.4244532786826
 30
0.0
 10
50.64581273931496
 20
225.4980430495941
 30
0.0
 10
50.38155882968973
 20
225.6139988957151
 30
0.0
 10
50.12057189311884
 20
225.777551682813
 30
0.0
 10
49.87311976560923
 20
225.9806139277717
 30
0.0
 10
49.6318505939632
 20
226.2295630596334
 30
0.0
 10
49.40713387669187
 20
226.5124506028351
 30
0.0
 10
49.19226970785844
 20
226.8385227856022
 30
0.0
 10
48.99607212274078
 20
227.1931510389743
 30
0.0
 10
48.81365957831623
 20
227.586221190815
 30
0.0
 10
48.6515508631481
 20
228.0024743966517
 30
0.0
 10
48.50682470110383
 20
228.4505610077287
 30
0.0
 10
48.383677414997
 20
228.9162987176087
 30
0.0
 10
48.2808208964167
 20
229.4058016587792
 30
0.0
 10
48.20046787281561
 20
229.9072179470811
 30
0.0
 10
48.14242705526486
 20
230.4233011311533
 30
0.0
 10
48.10745346935944
 20
230.9453885422022
 30
0.0
 10
48.09582505649513
 20
231.4724325720081
 30
0.0
 10
48.10745346935945
 20
231.9994766018074
 30
0.0
 10
48.14242705526488
 20
232.5215640128759
 30
0.0
 10
48.20046787281559
 20
233.0376471968773
 30
0.0
 10
48.28082089641665
 20
233.5390634854379
 30
0.0
 10
48.38367741499711
 20
234.0285664256844
 30
0.0
 10
48.50682470110396
 20
234.4943041389037
 30
0.0
 10
48.65155086314814
 20
234.9423907383062
 30
0.0
 10
48.81365957831621
 20
235.3586439858254
 30
0.0
 10
48.9960721227408
 20
235.7517139950205
 30
0.0
 10
49.19226970785844
 20
236.1063427518683
 30
0.0
 10
49.40713387669188
 20
236.4324132441066
 30
0.0
 10
49.63185059396315
 20
236.7153067033544
 30
0.0
 10
49.87311976560928
 20
236.9642361977931
 30
0.0
 10
50.12057189311883
 20
237.1673671118417
 30
0.0
 10
50.38155882968975
 20
237.330690414362
 30
0.0
 10
50.64581273931495
 20
237.4474602810296
 30
0.0
 10
50.91843255486249
 20
237.5182206885212
 30
0.0
 10
51.19203041691817
 20
237.5428025124844
 30
0.0
 10
51.46562827897385
 20
237.5182206885211
 30
0.0
 10
51.73824809452137
 20
237.4474602810296
 30
0.0
 10
52.0025020041466
 20
237.330690414362
 30
0.0
 10
52.26348894071748
 20
237.1673671118417
 30
0.0
 10
52.51094106822704
 20
236.9642361977932
 30
0.0
 10
52.75221023987317
 20
236.7153067033545
 30
0.0
 10
52.97692695714437
 20
236.4324132441065
 30
0.0
 10
53.19179112597777
 20
236.1063427518683
 30
0.0
 10
53.38798871109538
 20
235.7517139950206
 30
0.0
 10
53.57040125552003
 20
235.3586439858254
 30
0.0
 10
53.73250997068804
 20
234.9423907383062
 30
0.0
 10
53.87723613273222
 20
234.4943041389037
 30
0.0
 10
54.00038341883924
 20
234.0285664256843
 30
0.0
 10
54.10323993741979
 20
233.539063485438
 30
0.0
 10
54.18359296102064
 20
233.0376471968773
 30
0.0
 10
54.24163377857119
 20
232.5215640128759
 30
0.0
 10
54.27660736447682
 20
231.9994766018072
 30
0.0
 10
54.28823577734133
 20
231.4724325720081
 30
0.0
 10
54.27660736447683
 20
230.9453885422022
 30
0.0
 10
54.24163377857119
 20
230.4233011311533
 30
0.0
 10
54.18359296102064
 20
229.9072179470812
 30
0.0
 10
54.10323993741981
 20
229.4058016587791
 30
0.0
 10
54.00038341883922
 20
228.9162987176089
 30
0.0
 10
53.87723613273222
 20
228.4505610077287
 30
0.0
 10
53.73250997068804
 20
228.0024743966514
 30
0.0
 10
53.57040125552005
 20
227.5862211908149
 30
0.0
 10
53.38798871109539
 20
227.1931510389743
 30
0.0
 10
53.19179112597774
 20
226.838522785602
 30
0.0
 10
52.97692695714438
 20
226.5124506028352
 30
0.0
 10
52.75221023987312
 20
226.2295630596333
 30
0.0
 10
52.51094106822706
 20
225.9806139277717
 30
0.0
 10
52.26348894071748
 20
225.7775516828129
 30
0.0
 10
52.00250200414657
 20
225.6139988957151
 30
0.0
 10
51.73824809452137
 20
225.498043049594
 30
0.0
 10
51.46562827897387
 20
225.4244532786827
 30
0.0
 10
51.28320936587489
 20
225.4149865344311
 30
0.0
 10
51.19203041691819
 20
225.410254745516
 30
0.0
 11
51.19203041691819
 21
225.410254745516
 31
0.0
 11
50.91981469013795
 21
225.4340304941179
 31
0.0
 11
50.65505308325561
 21
225.5023528483399
 31
0.0
 11
50.38498800657781
 21
225.6203352379311
 31
0.0
 11
50.13439153415271
 21
225.7758488025614
 31
0.0
 11
49.87744009220837
 21
225.9852017423518
 31
0.0
 11
49.64586580731151
 21
226.222432572007
 31
0.0
 11
49.41165680077841
 21
226.515669408294
 31
0.0
 11
49.2043195097362
 21
226.8285349348244
 31
0.0
 11
49.00050518175166
 21
227.1953714245958
 31
0.0
 11
48.82316880224531
 21
227.5757397774221
 31
0.0
 11
48.65581535832466
 21
228.0039742869247
 31
0.0
 11
48.51399475621449
 21
228.4413436587614
 31
0.0
 11
48.38778412944257
 21
228.9172623919812
 31
0.0
 11
48.28619146858281
 21
229.3990456429248
 31
0.0
 11
48.20446085937715
 21
229.9077569161277
 31
0.0
 11
48.14668062697061
 21
230.4197464397439
 31
0.0
 11
48.11138803595566
 21
230.9455620326844
 31
0.0
 11
48.09970119770489
 21
231.472432572007
 31
0.0
 11
48.11138803595567
 21
231.9993031113295
 31
0.0
 11
48.14668062697061
 21
232.52511870427
 31
0.0
 11
48.20446085937713
 21
233.0371082278862
 31
0.0
 11
48.28619146858281
 21
233.5458195010891
 31
0.0
 11
48.38778412944265
 21
234.0276027520327
 31
0.0
 11
48.5139947562146
 21
234.5035214852525
 31
0.0
 11
48.65581535832471
 21
234.9408908570893
 31
0.0
 11
48.82316880224531
 21
235.3691253665919
 31
0.0
 11
49.00050518175166
 21
235.7494937194181
 31
0.0
 11
49.2043195097362
 21
236.1163302091895
 31
0.0
 11
49.41165680077841
 21
236.42919573572
 31
0.0
 11
49.64586580731151
 21
236.722432572007
 31
0.0
 11
49.87744009220838
 21
236.9596634016621
 31
0.0
 11
50.13439153415271
 21
237.1690163414526
 31
0.0
 11
50.38498800657781
 21
237.3245299060829
 31
0.0
 11
50.65505308325561
 21
237.4425122956742
 31
0.0
 11
50.91981469013794
 21
237.5108346498961
 31
0.0
 11
51.19203041691819
 21
237.534610398498
 31
0.0
 11
51.46424614369841
 21
237.5108346498961
 31
0.0
 11
51.72900775058071
 21
237.4425122956742
 31
0.0
 11
51.99907282725852
 21
237.3245299060829
 31
0.0
 11
52.2496692996836
 21
237.1690163414526
 31
0.0
 11
52.50662074162795
 21
236.9596634016621
 31
0.0
 11
52.73819502652481
 21
236.722432572007
 31
0.0
 11
52.97240403305785
 21
236.42919573572
 31
0.0
 11
53.17974132410001
 21
236.1163302091895
 31
0.0
 11
53.38355565208455
 21
235.7494937194181
 31
0.0
 11
53.5608920315909
 21
235.3691253665919
 31
0.0
 11
53.72824547551147
 21
234.9408908570893
 31
0.0
 11
53.8700660776216
 21
234.5035214852525
 31
0.0
 11
53.99627670439369
 21
234.0276027520327
 31
0.0
 11
54.09786936525359
 21
233.5458195010891
 31
0.0
 11
54.17959997445911
 21
233.0371082278862
 31
0.0
 11
54.23738020686551
 21
232.52511870427
 31
0.0
 11
54.2726727978806
 21
231.9993031113295
 31
0.0
 11
54.28435963613151
 21
231.472432572007
 31
0.0
 11
54.2726727978806
 21
230.9455620326844
 31
0.0
 11
54.23738020686551
 21
230.4197464397439
 31
0.0
 11
54.17959997445911
 21
229.9077569161278
 31
0.0
 11
54.09786936525359
 21
229.3990456429248
 31
0.0
 11
53.99627670439368
 21
228.9172623919812
 31
0.0
 11
53.8700660776216
 21
228.4413436587614
 31
0.0
 11
53.72824547551149
 21
228.0039742869246
 31
0.0
 11
53.5608920315909
 21
227.5757397774219
 31
0.0
 11
53.38355565208455
 21
227.1953714245957
 31
0.0
 11
53.17974132410001
 21
226.8285349348244
 31
0.0
 11
52.97240403305784
 21
226.5156694082939
 31
0.0
 11
52.73819502652481
 21
226.222432572007
 31
0.0
 11
52.50662074162795
 21
225.9852017423518
 31
0.0
 11
52.2496692996836
 21
225.7758488025614
 31
0.0
 11
51.99907282725851
 21
225.6203352379311
 31
0.0
 11
51.72900775058071
 21
225.5023528483399
 31
0.0
 11
51.46424614369842
 21
225.4340304941179
 31
0.0
 11
51.19203041691819
 21
225.410254745516
 31
0.0
  0
SPLINE
  5
120
330
3F
100
AcDbEntity
  8
1
  6
Continuous
 62
     7
100
AcDbSpline
210
0.0
220
0.0
230
1.0
 70
    11
 71
     3
 72
    79
 73
    75
 74
    73
 42
0.0000000001
 43
0.0000000001
 44
0.00000001
 40
0.0
 40
0.0
 40
0.0
 40
0.0
 40
0.4678744007739483
 40
0.9357531927872709
 40
1.407485930135223
 40
1.879230484328312
 40
2.358135841895932
 40
2.837057239131019
 40
3.325463367261232
 40
3.813886402176234
 40
4.312879557180151
 40
4.811888069867785
 40
5.321250498094458
 40
5.830625406988135
 40
6.348936658710645
 40
6.86725694934213
 40
7.392112797561125
 40
7.916974076742566
 40
8.445280254639895
 40
8.973588240303828
 40
9.501896225967789
 40
10.03020240386523
 40
10.55506368304662
 40
11.07991953126553
 40
11.59823982189704
 40
12.11655107361963
 40
12.62592598251329
 40
13.13528841074
 40
13.63429692342761
 40
14.13329007843153
 40
14.62171311334648
 40
15.11011924147668
 40
15.58904063871178
 40
16.06794599627938
 40
16.53969055047248
 40
17.01142328782044
 40
17.47930207983374
 40
17.94717648060771
 40
18.41505088138171
 40
18.88292967339509
 40
19.35466241074305
 40
19.82640696493613
 40
20.30531232250379
 40
20.78423371973891
 40
21.27263984786911
 40
21.76106288278399
 40
22.2600560377879
 40
22.75906455047551
 40
23.26842697870226
 40
23.77780188759595
 40
24.2961131393185
 40
24.81443342994997
 40
25.3392892781689
 40
25.86415055735026
 40
26.39245673524772
 40
26.92076472091168
 40
27.44907270657565
 40
27.97737888447296
 40
28.50224016365438
 40
29.02709601187339
 40
29.54541630250484
 40
30.06372755422731
 40
30.573102463121
 40
31.08246489134772
 40
31.58147340403536
 40
32.08046655903926
 40
32.56888959395419
 40
33.05729572208441
 40
33.53621711931954
 40
34.01512247688719
 40
34.48686703108027
 40
34.95859976842822
 40
35.42647856044159
 40
35.89435296121561
 40
35.89435296121561
 40
35.89435296121561
 40
35.89435296121561
 10
180.412177826491
 20
83.78450393843997
 30
0.0
 10
180.4076980078885
 20
83.6284839773702
 30
0.0
 10
180.3987383286382
 20
83.31644259090388
 30
0.0
 10
180.3268384613713
 20
82.85165846870147
 30
0.0
 10
180.2126048648734
 20
82.39468785252836
 30
0.0
 10
180.0526763795923
 20
81.94750666820332
 30
0.0
 10
179.8498165472909
 20
81.51554131503895
 30
0.0
 10
179.6045178333354
 20
81.09973093687725
 30
0.0
 10
179.3199908792915
 20
80.70580565460757
 30
0.0
 10
178.9967608459566
 20
80.33410143256285
 30
0.0
 10
178.6393496208866
 20
79.9900217728442
 30
0.0
 10
178.248164895306
 20
79.67372601750043
 30
0.0
 10
177.8287234402037
 20
79.38977260657916
 30
0.0
 10
177.3816075413831
 20
79.13842908414821
 30
0.0
 10
176.912792050035
 20
78.9230946091579
 30
0.0
 10
176.4234158675989
 20
78.74422797648339
 30
0.0
 10
175.9193395896394
 20
78.60398375086376
 30
0.0
 10
175.4025981389115
 20
78.50289921521677
 30
0.0
 10
174.8784379002782
 20
78.44200216027889
 30
0.0
 10
174.3499999999993
 20
78.42164783380176
 30
0.0
 10
173.8215620997236
 20
78.44200216027886
 30
0.0
 10
173.2974018610817
 20
78.50289921521677
 30
0.0
 10
172.7806604103845
 20
78.60398375086376
 30
0.0
 10
172.2765841323108
 20
78.74422797648343
 30
0.0
 10
171.7872079502965
 20
78.92309460915789
 30
0.0
 10
171.3183924573868
 20
79.13842908414821
 30
0.0
 10
170.8712765642979
 20
79.38977260657912
 30
0.0
 10
170.4518350880277
 20
79.67372601750041
 30
0.0
 10
170.0606504399074
 20
79.99002177284424
 30
0.0
 10
169.7032389290403
 20
80.3341014325628
 30
0.0
 10
169.3800099406816
 20
80.70580565460762
 30
0.0
 10
169.0954791295345
 20
81.09973093687722
 30
0.0
 10
168.8501945430874
 20
81.51554131503899
 30
0.0
 10
168.6472824665696
 20
81.9475066682033
 30
0.0
 10
168.487546174625
 20
82.39468785252835
 30
0.0
 10
168.3725995293063
 20
82.85165846870147
 30
0.0
 10
168.3033401201276
 20
83.31644259090385
 30
0.0
 10
168.2800632366102
 20
83.78450393843997
 30
0.0
 10
168.3033401201276
 20
84.2525652859761
 30
0.0
 10
168.3725995293062
 20
84.71734940817856
 30
0.0
 10
168.4875461746251
 20
85.17432002435166
 30
0.0
 10
168.6472824665696
 20
85.62150120867678
 30
0.0
 10
168.8501945430874
 20
86.05346656184113
 30
0.0
 10
169.0954791295345
 20
86.46927694000291
 30
0.0
 10
169.3800099406817
 20
86.86320222227248
 30
0.0
 10
169.7032389290403
 20
87.23490644431722
 30
0.0
 10
170.0606504399073
 20
87.57898610403585
 30
0.0
 10
170.4518350880277
 20
87.89528185937961
 30
0.0
 10
170.8712765642979
 20
88.17923527030099
 30
0.0
 10
171.3183924573867
 20
88.43057879273195
 30
0.0
 10
171.7872079502967
 20
88.64591326772218
 30
0.0
 10
172.2765841323108
 20
88.82477990039651
 30
0.0
 10
172.7806604103846
 20
88.9650241260161
 30
0.0
 10
173.2974018610817
 20
89.06610866166315
 30
0.0
 10
173.8215620997236
 20
89.1270057166012
 30
0.0
 10
174.3499999999994
 20
89.14736004307839
 30
0.0
 10
174.8784379002782
 20
89.12700571660119
 30
0.0
 10
175.4025981389114
 20
89.06610866166311
 30
0.0
 10
175.9193395896396
 20
88.96502412601615
 30
0.0
 10
176.4234158675988
 20
88.82477990039652
 30
0.0
 10
176.912792050035
 20
88.64591326772218
 30
0.0
 10
177.3816075413832
 20
88.43057879273192
 30
0.0
 10
177.8287234402036
 20
88.17923527030098
 30
0.0
 10
178.248164895306
 20
87.89528185937958
 30
0.0
 10
178.6393496208865
 20
87.57898610403584
 30
0.0
 10
178.9967608459565
 20
87.23490644431718
 30
0.0
 10
179.3199908792916
 20
86.86320222227252
 30
0.0
 10
179.6045178333353
 20
86.46927694000291
 30
0.0
 10
179.8498165472909
 20
86.05346656184112
 30
0.0
 10
180.0526763795923
 20
85.62150120867679
 30
0.0
 10
180.2126048648733
 20
85.17432002435164
 30
0.0
 10
180.3268384613713
 20
84.71734940817859
 30
0.0
 10
180.3987383286382
 20
84.25256528597612
 30
0.0
 10
180.4076980078885
 20
83.94052389950977
 30
0.0
 10
180.412177826491
 20
83.78450393843997
 30
0.0
 11
180.412177826491
 21
83.78450393843997
 31
0.0
 11
180.3890279015412
 21
83.31720260538559
 31
0.0
 11
180.320079723667
 21
82.85443191402358
 31
0.0
 11
180.2051765619711
 21
82.39690700878008
 31
0.0
 11
180.0465837694455
 21
81.95261965742988
 31
0.0
 11
179.8431837920669
 21
81.5190544481368
 31
0.0
 11
179.5999999999999
 21
81.10646827773657
 31
0.0
 11
179.3142392584917
 21
80.71038578051177
 31
0.0
 11
178.9938976371824
 21
80.34168765644208
 31
0.0
 11
178.6345966152247
 21
79.99542627488054
 31
0.0
 11
178.2466927945848
 21
79.68151526572717
 31
0.0
 11
177.8250253134122
 21
79.39577654134673
 31
0.0
 11
177.3810889132454
 21
79.14601010962028
 31
0.0
 11
176.9101615448427
 21
78.929506143487
 31
0.0
 11
176.4233869290821
 21
78.75144324131067
 31
0.0
 11
175.9177689589475
 21
78.61064505351456
 31
0.0
 11
175.4026861322629
 21
78.50980337543187
 31
0.0
 11
174.8779159525379
 21
78.4487814443262
 31
0.0
 11
174.3499999999999
 21
78.42843261703287
 31
0.0
 11
173.8220840474619
 21
78.44878144432619
 31
0.0
 11
173.2973138677368
 21
78.50980337543187
 31
0.0
 11
172.7822310410522
 21
78.61064505351457
 31
0.0
 11
172.2766130709177
 21
78.75144324131067
 31
0.0
 11
171.7898384551571
 21
78.929506143487
 31
0.0
 11
171.3189110867543
 21
79.14601010962028
 31
0.0
 11
170.8749746865875
 21
79.39577654134671
 31
0.0
 11
170.4533072054149
 21
79.68151526572717
 31
0.0
 11
170.065403384775
 21
79.99542627488054
 31
0.0
 11
169.7061023628173
 21
80.34168765644208
 31
0.0
 11
169.3857607415081
 21
80.71038578051177
 31
0.0
 11
169.0999999999999
 21
81.10646827773657
 31
0.0
 11
168.8568162079329
 21
81.51905444813681
 31
0.0
 11
168.6534162305543
 21
81.95261965742988
 31
0.0
 11
168.4948234380287
 21
82.39690700878008
 31
0.0
 11
168.3799202763328
 21
82.85443191402358
 31
0.0
 11
168.3109720984586
 21
83.31720260538558
 31
0.0
 11
168.2878221735088
 21
83.78450393843997
 31
0.0
 11
168.3109720984586
 21
84.25180527149441
 31
0.0
 11
168.3799202763328
 21
84.71457596285647
 31
0.0
 11
168.4948234380288
 21
85.17210086809997
 31
0.0
 11
168.6534162305543
 21
85.61638821945017
 31
0.0
 11
168.8568162079329
 21
86.04995342874329
 31
0.0
 11
169.0999999999999
 21
86.46253959914357
 31
0.0
 11
169.3857607415081
 21
86.85862209636834
 31
0.0
 11
169.7061023628173
 21
87.22732022043797
 31
0.0
 11
170.065403384775
 21
87.57358160199949
 31
0.0
 11
170.4533072054149
 21
87.88749261115287
 31
0.0
 11
170.8749746865875
 21
88.17323133553339
 31
0.0
 11
171.3189110867543
 21
88.42299776725987
 31
0.0
 11
171.7898384551571
 21
88.63950173339306
 31
0.0
 11
172.2766130709177
 21
88.81756463556927
 31
0.0
 11
172.7822310410522
 21
88.95836282336533
 31
0.0
 11
173.2973138677368
 21
89.05920450144807
 31
0.0
 11
173.8220840474619
 21
89.12022643255386
 31
0.0
 11
174.3499999999999
 21
89.14057525984727
 31
0.0
 11
174.8779159525379
 21
89.12022643255385
 31
0.0
 11
175.4026861322629
 21
89.05920450144807
 31
0.0
 11
175.9177689589475
 21
88.95836282336533
 31
0.0
 11
176.4233869290821
 21
88.81756463556927
 31
0.0
 11
176.9101615448427
 21
88.63950173339305
 31
0.0
 11
177.3810889132454
 21
88.42299776725987
 31
0.0
 11
177.8250253134122
 21
88.17323133553339
 31
0.0
 11
178.2466927945848
 21
87.88749261115287
 31
0.0
 11
178.6345966152247
 21
87.57358160199948
 31
0.0
 11
178.9938976371824
 21
87.22732022043797
 31
0.0
 11
179.3142392584917
 21
86.85862209636835
 31
0.0
 11
179.5999999999999
 21
86.46253959914357
 31
0.0
 11
179.8431837920669
 21
86.04995342874328
 31
0.0
 11
180.0465837694455
 21
85.61638821945017
 31
0.0
 11
180.2051765619711
 21
85.17210086809997
 31
0.0
 11
180.320079723667
 21
84.71457596285647
 31
0.0
 11
180.3890279015412
 21
84.25180527149442
 31
0.0
 11
180.412177826491
 21
83.78450393843997
 31
0.0
  0
SPLINE
  5
121
330
3F
100
AcDbEntity
  8
1
  6
Continuous
 62
     7
100
AcDbSpline
210
0.0
220
0.0
230
1.0
 70
    11
 71
     3
 72
    79
 73
    75
 74
    73
 42
0.0000000001
 43
0.0000000001
 44
0.00000001
 40
0.0
 40
0.0
 40
0.0
 40
0.0
 40
0.4678744007739625
 40
0.9357531927872851
 40
1.407485930135237
 40
1.879230484328326
 40
2.35813584189596
 40
2.837057239131113
 40
3.325463367261371
 40
3.813886402176336
 40
4.312879557180242
 40
4.811888069867885
 40
5.321250498094599
 40
5.830625406988254
 40
6.348936658710747
 40
6.867256949342207
 40
7.392112797561198
 40
7.916974076742642
 40
8.445280254639972
 40
8.973588240303904
 40
9.501896225967865
 40
10.03020240386531
 40
10.5550636830467
 40
11.07991953126561
 40
11.5982398218971
 40
12.11655107361966
 40
12.62592598251332
 40
13.13528841074005
 40
13.63429692342766
 40
14.13329007843158
 40
14.62171311334653
 40
15.11011924147674
 40
15.58904063871187
 40
16.06794599627952
 40
16.53969055047261
 40
17.01142328782057
 40
17.47930207983389
 40
17.94717648060785
 40
18.41505088138186
 40
18.88292967339522
 40
19.35466241074319
 40
19.82640696493627
 40
20.30531232250391
 40
20.78423371973905
 40
21.27263984786918
 40
21.76106288278405
 40
22.26005603778798
 40
22.75906455047564
 40
23.26842697870239
 40
23.77780188759607
 40
24.29611313931862
 40
24.81443342995009
 40
25.33928927816903
 40
25.86415055735039
 40
26.39245673524783
 40
26.92076472091179
 40
27.44907270657576
 40
27.97737888447306
 40
28.50224016365448
 40
29.02709601187349
 40
29.54541630250494
 40
30.06372755422741
 40
30.5731024631211
 40
31.08246489134782
 40
31.58147340403551
 40
32.08046655903944
 40
32.56888959395435
 40
33.0572957220845
 40
33.53621711931965
 40
34.01512247688729
 40
34.48686703108039
 40
34.95859976842834
 40
35.42647856044169
 40
35.89435296121571
 40
35.89435296121571
 40
35.89435296121571
 40
35.89435296121571
 10
180.412177826491
 20
95.78450393843997
 30
0.0
 10
180.4076980078885
 20
95.94052389950977
 30
0.0
 10
180.3987383286381
 20
96.25256528597608
 30
0.0
 10
180.3268384613713
 20
96.71734940817846
 30
0.0
 10
180.2126048648734
 20
97.17432002435159
 30
0.0
 10
180.0526763795922
 20
97.62150120867666
 30
0.0
 10
179.849816547291
 20
98.05346656184105
 30
0.0
 10
179.6045178333354
 20
98.46927694000283
 30
0.0
 10
179.3199908792915
 20
98.86320222227241
 30
0.0
 10
178.9967608459566
 20
99.23490644431725
 30
0.0
 10
178.6393496208866
 20
99.57898610403584
 30
0.0
 10
178.248164895306
 20
99.89528185937959
 30
0.0
 10
177.8287234402037
 20
100.179235270301
 30
0.0
 10
177.3816075413831
 20
100.4305787927318
 30
0.0
 10
176.9127920500351
 20
100.6459132677222
 30
0.0
 10
176.4234158675988
 20
100.8247799003966
 30
0.0
 10
175.9193395896395
 20
100.9650241260162
 30
0.0
 10
175.4025981389114
 20
101.0661086616632
 30
0.0
 10
174.8784379002781
 20
101.1270057166011
 30
0.0
 10
174.3499999999994
 20
101.1473600430782
 30
0.0
 10
173.8215620997236
 20
101.1270057166011
 30
0.0
 10
173.2974018610817
 20
101.0661086616632
 30
0.0
 10
172.7806604103845
 20
100.9650241260162
 30
0.0
 10
172.2765841323108
 20
100.8247799003966
 30
0.0
 10
171.7872079502966
 20
100.6459132677221
 30
0.0
 10
171.3183924573868
 20
100.4305787927319
 30
0.0
 10
170.871276564298
 20
100.179235270301
 30
0.0
 10
170.4518350880277
 20
99.89528185937962
 30
0.0
 10
170.0606504399073
 20
99.57898610403586
 30
0.0
 10
169.7032389290403
 20
99.23490644431723
 30
0.0
 10
169.3800099406817
 20
98.86320222227243
 30
0.0
 10
169.0954791295345
 20
98.4692769400028
 30
0.0
 10
168.8501945430874
 20
98.05346656184103
 30
0.0
 10
168.6472824665697
 20
97.62150120867666
 30
0.0
 10
168.487546174625
 20
97.17432002435157
 30
0.0
 10
168.3725995293063
 20
96.71734940817852
 30
0.0
 10
168.3033401201276
 20
96.25256528597606
 30
0.0
 10
168.2800632366102
 20
95.78450393843994
 30
0.0
 10
168.3033401201276
 20
95.31644259090385
 30
0.0
 10
168.3725995293063
 20
94.85165846870137
 30
0.0
 10
168.4875461746251
 20
94.39468785252832
 30
0.0
 10
168.6472824665696
 20
93.94750666820316
 30
0.0
 10
168.8501945430874
 20
93.51554131503886
 30
0.0
 10
169.0954791295345
 20
93.09973093687705
 30
0.0
 10
169.3800099406817
 20
92.70580565460753
 30
0.0
 10
169.7032389290404
 20
92.33410143256283
 30
0.0
 10
170.0606504399073
 20
91.99002177284415
 30
0.0
 10
170.4518350880277
 20
91.6737260175003
 30
0.0
 10
170.871276564298
 20
91.38977260657899
 30
0.0
 10
171.3183924573867
 20
91.13842908414793
 30
0.0
 10
171.7872079502966
 20
90.9230946091578
 30
0.0
 10
172.2765841323108
 20
90.74422797648342
 30
0.0
 10
172.7806604103845
 20
90.60398375086379
 30
0.0
 10
173.2974018610818
 20
90.50289921521679
 30
0.0
 10
173.8215620997235
 20
90.4420021602788
 30
0.0
 10
174.3499999999995
 20
90.4216478338018
 30
0.0
 10
174.8784379002781
 20
90.44200216027883
 30
0.0
 10
175.4025981389115
 20
90.50289921521679
 30
0.0
 10
175.9193395896395
 20
90.6039837508638
 30
0.0
 10
176.4234158675988
 20
90.7442279764834
 30
0.0
 10
176.912792050035
 20
90.92309460915777
 30
0.0
 10
177.3816075413832
 20
91.138429084148
 30
0.0
 10
177.8287234402036
 20
91.38977260657894
 30
0.0
 10
178.2481648953061
 20
91.67372601750034
 30
0.0
 10
178.6393496208865
 20
91.99002177284417
 30
0.0
 10
178.9967608459565
 20
92.33410143256285
 30
0.0
 10
179.3199908792915
 20
92.70580565460749
 30
0.0
 10
179.6045178333354
 20
93.09973093687708
 30
0.0
 10
179.849816547291
 20
93.51554131503877
 30
0.0
 10
180.0526763795922
 20
93.9475066682032
 30
0.0
 10
180.2126048648735
 20
94.39468785252828
 30
0.0
 10
180.3268384613713
 20
94.85165846870136
 30
0.0
 10
180.3987383286381
 20
95.31644259090385
 30
0.0
 10
180.4076980078885
 20
95.62848397737017
 30
0.0
 10
180.412177826491
 20
95.78450393843997
 30
0.0
 11
180.412177826491
 21
95.78450393843997
 31
0.0
 11
180.3890279015412
 21
96.25180527149436
 31
0.0
 11
180.320079723667
 21
96.71457596285637
 31
0.0
 11
180.2051765619711
 21
97.17210086809988
 31
0.0
 11
180.0465837694455
 21
97.61638821945007
 31
0.0
 11
179.843183792067
 21
98.04995342874319
 31
0.0
 11
179.5999999999999
 21
98.46253959914347
 31
0.0
 11
179.3142392584917
 21
98.85862209636828
 31
0.0
 11
178.9938976371824
 21
99.22732022043797
 31
0.0
 11
178.6345966152247
 21
99.57358160199949
 31
0.0
 11
178.2466927945848
 21
99.88749261115288
 31
0.0
 11
177.8250253134122
 21
100.1732313355334
 31
0.0
 11
177.3810889132454
 21
100.4229977672598
 31
0.0
 11
176.9101615448427
 21
100.639501733393
 31
0.0
 11
176.4233869290821
 21
100.8175646355693
 31
0.0
 11
175.9177689589475
 21
100.9583628233654
 31
0.0
 11
175.4026861322629
 21
101.0592045014481
 31
0.0
 11
174.8779159525379
 21
101.1202264325538
 31
0.0
 11
174.3499999999999
 21
101.1405752598471
 31
0.0
 11
173.8220840474619
 21
101.1202264325538
 31
0.0
 11
173.2973138677368
 21
101.0592045014481
 31
0.0
 11
172.7822310410522
 21
100.9583628233654
 31
0.0
 11
172.2766130709177
 21
100.8175646355693
 31
0.0
 11
171.7898384551571
 21
100.639501733393
 31
0.0
 11
171.3189110867543
 21
100.4229977672598
 31
0.0
 11
170.8749746865875
 21
100.1732313355334
 31
0.0
 11
170.4533072054149
 21
99.88749261115288
 31
0.0
 11
170.065403384775
 21
99.57358160199951
 31
0.0
 11
169.7061023628173
 21
99.22732022043797
 31
0.0
 11
169.3857607415081
 21
98.85862209636828
 31
0.0
 11
169.0999999999999
 21
98.46253959914347
 31
0.0
 11
168.8568162079329
 21
98.04995342874318
 31
0.0
 11
168.6534162305543
 21
97.61638821945007
 31
0.0
 11
168.4948234380287
 21
97.17210086809988
 31
0.0
 11
168.3799202763328
 21
96.71457596285637
 31
0.0
 11
168.3109720984586
 21
96.25180527149436
 31
0.0
 11
168.2878221735088
 21
95.78450393843997
 31
0.0
 11
168.3109720984586
 21
95.31720260538553
 31
0.0
 11
168.3799202763328
 21
94.85443191402348
 31
0.0
 11
168.4948234380288
 21
94.39690700877998
 31
0.0
 11
168.6534162305543
 21
93.95261965742978
 31
0.0
 11
168.8568162079329
 21
93.51905444813667
 31
0.0
 11
169.0999999999999
 21
93.10646827773638
 31
0.0
 11
169.3857607415081
 21
92.71038578051169
 31
0.0
 11
169.7061023628173
 21
92.34168765644208
 31
0.0
 11
170.065403384775
 21
91.99542627488052
 31
0.0
 11
170.4533072054149
 21
91.68151526572707
 31
0.0
 11
170.8749746865875
 21
91.39577654134654
 31
0.0
 11
171.3189110867543
 21
91.14601010962007
 31
0.0
 11
171.7898384551571
 21
90.92950614348689
 31
0.0
 11
172.2766130709177
 21
90.75144324131067
 31
0.0
 11
172.7822310410522
 21
90.61064505351459
 31
0.0
 11
173.2973138677368
 21
90.50980337543187
 31
0.0
 11
173.8220840474619
 21
90.44878144432617
 31
0.0
 11
174.3499999999999
 21
90.42843261703287
 31
0.0
 11
174.8779159525379
 21
90.44878144432619
 31
0.0
 11
175.4026861322629
 21
90.50980337543187
 31
0.0
 11
175.9177689589475
 21
90.61064505351459
 31
0.0
 11
176.4233869290821
 21
90.75144324131067
 31
0.0
 11
176.9101615448427
 21
90.92950614348689
 31
0.0
 11
177.3810889132454
 21
91.14601010962007
 31
0.0
 11
177.8250253134122
 21
91.39577654134655
 31
0.0
 11
178.2466927945848
 21
91.68151526572707
 31
0.0
 11
178.6345966152247
 21
91.99542627488053
 31
0.0
 11
178.9938976371824
 21
92.34168765644208
 31
0.0
 11
179.3142392584917
 21
92.71038578051167
 31
0.0
 11
179.5999999999999
 21
93.10646827773638
 31
0.0
 11
179.843183792067
 21
93.51905444813664
 31
0.0
 11
180.0465837694455
 21
93.95261965742978
 31
0.0
 11
180.2051765619711
 21
94.39690700877998
 31
0.0
 11
180.320079723667
 21
94.85443191402348
 31
0.0
 11
180.3890279015412
 21
95.31720260538552
 31
0.0
 11
180.412177826491
 21
95.78450393843997
 31
0.0
  0
ENDBLK
  5
41
330
3F
100
AcDbEntity
  8
0
100
AcDbBlockEnd
  0
BLOCK
  5
43
330
42
100
AcDbEntity
  8
0
100
AcDbBlockBegin
  2
37-1-13
 70
     0
 71
     0
 10
301.9645020260699
 20
41.77888236912999
 30
0.0
  3
37-1-13
  1

  0
LINE
  5
122
330
42
100
AcDbEntity
  8
1
  6
Continuous
 62
     7
100
AcDbLine
 10
48.09999999999991
 20
122.2849094408963
 30
0.0
 11
48.09999999999991
 21
115.2141952266249
 31
0.0
  0
LINE
  5
123
330
42
100
AcDbEntity
  8
1
  6
Continuous
 62
     7
100
AcDbLine
 10
49.96959528353099
 20
122.2849094408963
 30
0.0
 11
48.52061342640499
 21
122.2849094408963
 31
0.0
  0
LINE
  5
124
330
42
100
AcDbEntity
  8
1
  6
Continuous
 62
     7
100
AcDbLine
 10
67.09999999999991
 20
129.2141952266249
 30
0.0
 11
55.09999999999991
 21
129.2141952266249
 31
0.0
  0
LINE
  5
125
330
42
100
AcDbEntity
  8
1
  6
Continuous
 62
     7
100
AcDbLine
 10
73.67938657359471
 20
122.2849094408963
 30
0.0
 11
49.96959528353099
 21
122.2849094408963
 31
0.0
  0
LINE
  5
126
330
42
100
AcDbEntity
  8
1
  6
Continuous
 62
     7
100
AcDbLine
 10
61.09999999999991
 20
115.2141952266249
 30
0.0
 11
48.09999999999991
 21
115.2141952266249
 31
0.0
  0
LINE
  5
127
330
42
100
AcDbEntity
  8
1
  6
Continuous
 62
     7
100
AcDbLine
 10
74.09999999999991
 20
115.2141952266249
 30
0.0
 11
61.09999999999991
 21
115.2141952266249
 31
0.0
  0
LINE
  5
128
330
42
100
AcDbEntity
  8
1
  6
Continuous
 62
     7
100
AcDbLine
 10
74.09999999999991
 20
122.2849094408963
 30
0.0
 11
74.09999999999991
 21
115.2141952266249
 31
0.0
  0
LINE
  5
129
330
42
100
AcDbEntity
  8
1
  6
Continuous
 62
     7
100
AcDbLine
 10
143.7221257303308
 20
115.2141952266249
 30
0.0
 11
130.0292857857285
 21
115.2141952266249
 31
0.0
  0
LINE
  5
12A
330
42
100
AcDbEntity
  8
1
  6
Continuous
 62
     7
100
AcDbLine
 10
156.1707142142714
 20
115.2141952266249
 30
0.0
 11
142.4778742696686
 21
115.2141952266249
 31
0.0
  0
LINE
  5
12B
330
42
100
AcDbEntity
  8
1
  6
Continuous
 62
     7
100
AcDbLine
 10
130.6
 20
122.7141952266249
 30
0.0
 11
143.0999999999999
 21
122.7141952266249
 31
0.0
  0
LINE
  5
12C
330
42
100
AcDbEntity
  8
1
  6
Continuous
 62
     7
100
AcDbLine
 10
143.0999999999999
 20
122.7141952266249
 30
0.0
 11
155.5999999999998
 21
122.7141952266249
 31
0.0
  0
LINE
  5
12D
330
42
100
AcDbEntity
  8
1
  6
Continuous
 62
     7
100
AcDbLine
 10
149.0999999999999
 20
129.2141952266249
 30
0.0
 11
143.0999999999999
 21
129.2141952266249
 31
0.0
  0
LINE
  5
12E
330
42
100
AcDbEntity
  8
1
  6
Continuous
 62
     7
100
AcDbLine
 10
143.0999999999999
 20
129.2141952266249
 30
0.0
 11
137.0999999999999
 21
129.2141952266249
 31
0.0
  0
LINE
  5
12F
330
42
100
AcDbEntity
  8
1
  6
Continuous
 62
     7
100
AcDbLine
 10
67.59999999999991
 20
188.9641023228094
 30
0.0
 11
62.03785113467811
 21
185.7527941781431
 31
0.0
  0
LINE
  5
130
330
42
100
AcDbEntity
  8
1
  6
Continuous
 62
     7
100
AcDbLine
 10
74.09999999999991
 20
200.2224325720071
 30
0.0
 11
74.09999999999991
 21
193.7998162826745
 31
0.0
  0
LINE
  5
131
330
42
100
AcDbEntity
  8
1
  6
Continuous
 62
     7
100
AcDbLine
 10
67.59999999999991
 20
211.4807628212048
 30
0.0
 11
73.1621488653216
 21
208.2694546765385
 31
0.0
  0
LINE
  5
132
330
42
100
AcDbEntity
  8
1
  6
Continuous
 62
     7
100
AcDbLine
 10
54.59999999999991
 20
211.4807628212049
 30
0.0
 11
60.1621488653216
 21
214.6920709658712
 31
0.0
  0
LINE
  5
133
330
42
100
AcDbEntity
  8
1
  6
Continuous
 62
     7
100
AcDbLine
 10
48.09999999999991
 20
200.2224325720071
 30
0.0
 11
48.09999999999991
 21
206.6450488613396
 31
0.0
  0
LINE
  5
134
330
42
100
AcDbEntity
  8
1
  6
Continuous
 62
     7
100
AcDbLine
 10
54.59999999999991
 20
188.9641023228094
 30
0.0
 11
49.03785113467811
 21
192.1754104674756
 31
0.0
  0
LINE
  5
135
330
42
100
AcDbEntity
  8
1
  6
Continuous
 62
     7
100
AcDbLine
 10
73.1621488653216
 20
192.1754104674756
 30
0.0
 11
67.59999999999991
 21
188.9641023228094
 31
0.0
  0
LINE
  5
136
330
42
100
AcDbEntity
  8
1
  6
Continuous
 62
     7
100
AcDbLine
 10
74.09999999999991
 20
206.6450488613396
 30
0.0
 11
74.09999999999991
 21
200.2224325720071
 31
0.0
  0
LINE
  5
137
330
42
100
AcDbEntity
  8
1
  6
Continuous
 62
     7
100
AcDbLine
 10
62.03785113467811
 20
214.6920709658712
 30
0.0
 11
67.59999999999991
 21
211.4807628212048
 31
0.0
  0
LINE
  5
138
330
42
100
AcDbEntity
  8
1
  6
Continuous
 62
     7
100
AcDbLine
 10
49.03785113467811
 20
208.2694546765385
 30
0.0
 11
54.59999999999991
 21
211.4807628212049
 31
0.0
  0
LINE
  5
139
330
42
100
AcDbEntity
  8
1
  6
Continuous
 62
     7
100
AcDbLine
 10
48.09999999999991
 20
193.7998162826744
 30
0.0
 11
48.09999999999991
 21
200.2224325720071
 31
0.0
  0
LINE
  5
13A
330
42
100
AcDbEntity
  8
1
  6
Continuous
 62
     7
100
AcDbLine
 10
60.1621488653216
 20
185.7527941781431
 30
0.0
 11
54.59999999999991
 21
188.9641023228094
 31
0.0
  0
ARC
  5
13B
330
42
100
AcDbEntity
  8
1
  6
Continuous
 62
     7
100
AcDbCircle
 10
51.59999999999991
 20
118.7141952266249
 30
0.0
 40
5.000000000000033
100
AcDbArc
 50
126.8698976458426
 51
134.4270040008059
  0
ARC
  5
13C
330
42
100
AcDbEntity
  8
1
  6
Continuous
 62
     7
100
AcDbCircle
 10
35.193544794885
 20
142.6206504317399
 30
0.0
 40
24.00000000000003
100
AcDbArc
 50
-56.04080749990236
 51
-33.95919250009769
  0
ARC
  5
13D
330
42
100
AcDbEntity
  8
1
  6
Continuous
 62
     7
100
AcDbCircle
 10
70.59999999999991
 20
118.7141952266249
 30
0.0
 40
4.999999999999986
100
AcDbArc
 50
45.57299599919413
 51
53.13010235415771
  0
ARC
  5
13E
330
42
100
AcDbEntity
  8
1
  6
Continuous
 62
     7
100
AcDbCircle
 10
87.0064552051148
 20
142.6206504317399
 30
0.0
 40
24.00000000000003
100
AcDbArc
 50
-146.0408074999023
 51
-123.9591925000977
  0
ARC
  5
13F
330
42
100
AcDbEntity
  8
1
  6
Continuous
 62
     7
100
AcDbCircle
 10
133.5999999999999
 20
118.7141952266249
 30
0.0
 40
4.999999999999949
100
AcDbArc
 50
126.8698976458433
 51
-135.5729959991943
  0
ARC
  5
140
330
42
100
AcDbEntity
  8
1
  6
Continuous
 62
     7
100
AcDbCircle
 10
152.5999999999999
 20
118.7141952266249
 30
0.0
 40
5.000000000000057
100
AcDbArc
 50
-44.42700400080507
 51
53.13010235415703
  0
ARC
  5
141
330
42
100
AcDbEntity
  8
1
  6
Continuous
 62
     7
100
AcDbCircle
 10
169.0064552051148
 20
142.6206504317395
 30
0.0
 40
23.99999999999981
100
AcDbArc
 50
-146.0408074999031
 51
-123.9591925000981
  0
ARC
  5
142
330
42
100
AcDbEntity
  8
1
  6
Continuous
 62
     7
100
AcDbCircle
 10
117.193544794885
 20
142.6206504317398
 30
0.0
 40
24.00000000000002
100
AcDbArc
 50
-56.04080749990232
 51
-33.95919250009746
  0
ARC
  5
143
330
42
100
AcDbEntity
  8
1
  6
Continuous
 62
     7
100
AcDbCircle
 10
61.09999999999991
 20
200.2224325720071
 30
0.0
 40
14.50000000000011
100
AcDbArc
 50
86.29155527472962
 51
90.0
  0
ARC
  5
144
330
42
100
AcDbEntity
  8
1
  6
Continuous
 62
     7
100
AcDbCircle
 10
61.09999999999991
 20
200.2224325720071
 30
0.0
 40
14.50000000000004
100
AcDbArc
 50
-93.70844472527085
 51
-90.0
  0
ARC
  5
145
330
42
100
AcDbEntity
  8
1
  6
Continuous
 62
     7
100
AcDbCircle
 10
61.09999999999991
 20
200.2224325720071
 30
0.0
 40
14.5
100
AcDbArc
 50
-90.0
 51
-86.2915552747296
  0
ARC
  5
146
330
42
100
AcDbEntity
  8
1
  6
Continuous
 62
     7
100
AcDbCircle
 10
61.09999999999991
 20
200.2224325720071
 30
0.0
 40
13.00000000000001
100
AcDbArc
 50
-120.0
 51
-60.00000000000002
  0
ARC
  5
147
330
42
100
AcDbEntity
  8
1
  6
Continuous
 62
     7
100
AcDbCircle
 10
61.09999999999991
 20
200.2224325720071
 30
0.0
 40
14.50000000000001
100
AcDbArc
 50
-33.70844472527109
 51
-26.29155527472953
  0
ARC
  5
148
330
42
100
AcDbEntity
  8
1
  6
Continuous
 62
     7
100
AcDbCircle
 10
61.09999999999991
 20
200.2224325720071
 30
0.0
 40
13.00000000000001
100
AcDbArc
 50
-60.00000000000002
 51
0.0
  0
ARC
  5
149
330
42
100
AcDbEntity
  8
1
  6
Continuous
 62
     7
100
AcDbCircle
 10
61.09999999999991
 20
200.2224325720071
 30
0.0
 40
14.49999999999997
100
AcDbArc
 50
26.29155527472912
 51
33.70844472527063
  0
ARC
  5
14A
330
42
100
AcDbEntity
  8
1
  6
Continuous
 62
     7
100
AcDbCircle
 10
61.09999999999991
 20
200.2224325720071
 30
0.0
 40
13.0
100
AcDbArc
 50
0.0
 51
59.99999999999996
  0
ARC
  5
14B
330
42
100
AcDbEntity
  8
1
  6
Continuous
 62
     7
100
AcDbCircle
 10
61.09999999999991
 20
200.2224325720071
 30
0.0
 40
14.5
100
AcDbArc
 50
90.0
 51
93.70844472527084
  0
ARC
  5
14C
330
42
100
AcDbEntity
  8
1
  6
Continuous
 62
     7
100
AcDbCircle
 10
61.09999999999991
 20
200.2224325720071
 30
0.0
 40
12.99999999999998
100
AcDbArc
 50
59.99999999999996
 51
119.9999999999998
  0
ARC
  5
14D
330
42
100
AcDbEntity
  8
1
  6
Continuous
 62
     7
100
AcDbCircle
 10
61.09999999999991
 20
200.2224325720071
 30
0.0
 40
14.50000000000002
100
AcDbArc
 50
146.2915552747296
 51
153.7084447252709
  0
ARC
  5
14E
330
42
100
AcDbEntity
  8
1
  6
Continuous
 62
     7
100
AcDbCircle
 10
61.09999999999991
 20
200.2224325720071
 30
0.0
 40
13.0
100
AcDbArc
 50
180.0
 51
-120.0
  0
ARC
  5
14F
330
42
100
AcDbEntity
  8
1
  6
Continuous
 62
     7
100
AcDbCircle
 10
61.09999999999991
 20
200.2224325720071
 30
0.0
 40
13.00000000000008
100
AcDbArc
 50
119.9999999999998
 51
180.0
  0
ARC
  5
150
330
42
100
AcDbEntity
  8
1
  6
Continuous
 62
     7
100
AcDbCircle
 10
61.09999999999991
 20
200.2224325720071
 30
0.0
 40
14.50000000000006
100
AcDbArc
 50
-153.7084447252702
 51
-146.2915552747292
  0
CIRCLE
  5
151
330
42
100
AcDbEntity
  8
1
  6
Continuous
 62
     7
100
AcDbCircle
 10
61.09999999999991
 20
200.2224325720071
 30
0.0
 40
5.0
  0
CIRCLE
  5
152
330
42
100
AcDbEntity
  8
1
  6
Continuous
 62
     7
100
AcDbCircle
 10
61.09999999999991
 20
200.2224325720071
 30
0.0
 40
6.0
  0
SPLINE
  5
153
330
42
100
AcDbEntity
  8
1
  6
Continuous
 62
     7
100
AcDbSpline
210
0.0
220
0.0
230
1.0
 70
    11
 71
     3
 72
    79
 73
    75
 74
    73
 42
0.0000000001
 43
0.0000000001
 44
0.00000001
 40
0.0
 40
0.0
 40
0.0
 40
0.0
 40
0.2803981145479556
 40
0.5607977859033216
 40
0.8427454841468138
 40
1.124697473048537
 40
1.409536451638157
 40
1.694381500885887
 40
1.983071310125203
 40
2.271767843422896
 40
2.564776142200921
 40
2.857790854546565
 40
3.155055698552812
 40
3.452325978930765
 40
3.753284827389685
 40
4.054247742882798
 40
4.357919806975687
 40
4.661594368328919
 40
4.966700748943433
 40
5.271807969839296
 40
5.576915190735358
 40
5.882021571350055
 40
6.1856961327031
 40
6.489368196795901
 40
6.790331112288938
 40
7.091289960747844
 40
7.388560241125894
 40
7.685825085132285
 40
7.978839797477853
 40
8.271848096255818
 40
8.560544629553585
 40
8.849234438793006
 40
9.134079488040722
 40
9.418918466630307
 40
9.700870455532002
 40
9.982818153775437
 40
10.2632178251308
 40
10.54361593967876
 40
10.82401405422666
 40
11.10441372558205
 40
11.38636142382548
 40
11.66831341272718
 40
11.95315239131676
 40
12.2379974405645
 40
12.5266872498039
 40
12.81538378310169
 40
13.10839208187963
 40
13.40140679422514
 40
13.69867163823152
 40
13.99594191860964
 40
14.29690076706855
 40
14.59786368256157
 40
14.90153574665437
 40
15.20521030800742
 40
15.51031668862209
 40
15.81542390951818
 40
16.12053113041405
 40
16.42563751102856
 40
16.72931207238176
 40
17.03298413647469
 40
17.33394705196779
 40
17.63490590042671
 40
17.93217618080467
 40
18.22944102481097
 40
18.52245573715658
 40
18.81546403593456
 40
19.10416056923224
 40
19.39285037847158
 40
19.67769542771937
 40
19.96253440630894
 40
20.24448639521067
 40
20.52643409345416
 40
20.80683376480955
 40
21.08723187935745
 40
21.08723187935745
 40
21.08723187935745
 40
21.08723187935745
 10
154.3583302491976
 20
122.2141952266249
 30
0.0
 10
154.4518307922511
 20
122.2116138407357
 30
0.0
 10
154.6388323974856
 20
122.2064510546251
 30
0.0
 10
154.9173168107257
 20
122.1649787045762
 30
0.0
 10
155.1912590071279
 20
122.0990785441834
 30
0.0
 10
155.4591871724633
 20
122.0068464349494
 30
0.0
 10
155.7182329600236
 20
121.8897642455903
 30
0.0
 10
155.9673922541764
 20
121.748287964011
 30
0.0
 10
156.2037022743543
 20
121.5840056180181
 30
0.0
 10
156.4264772682724
 20
121.3975454698017
 30
0.0
 10
156.6329333005704
 20
121.1911209948644
 30
0.0
 10
156.8225460442108
 20
120.9654033004278
 30
0.0
 10
156.9929452201364
 20
120.7231125020791
 30
0.0
 10
157.1436580277443
 20
120.4650550092392
 30
0.0
 10
157.2728811642698
 20
120.1942278057573
 30
0.0
 10
157.3801608374542
 20
119.9117109522605
 30
0.0
 10
157.4643153410095
 20
119.6205229816674
 30
0.0
 10
157.5249586148406
 20
119.3221442087526
 30
0.0
 10
157.5614923771119
 20
119.0193832368724
 30
0.0
 10
157.5737114078486
 20
118.7141952266246
 30
0.0
 10
157.5614923771119
 20
118.4090072163782
 30
0.0
 10
157.5249586148407
 20
118.1062462444933
 30
0.0
 10
157.4643153410095
 20
117.8078674715955
 30
0.0
 10
157.3801608374542
 20
117.5166795009398
 30
0.0
 10
157.2728811642699
 20
117.2341626476748
 30
0.0
 10
157.1436580277443
 20
116.9633354433333
 30
0.0
 10
156.9929452201364
 20
116.705277953664
 30
0.0
 10
156.8225460442109
 20
116.4629871435684
 30
0.0
 10
156.6329333005704
 20
116.2372694923705
 30
0.0
 10
156.4264772682724
 20
116.030844857344
 30
0.0
 10
156.2037022743543
 20
115.8443852981667
 30
0.0
 10
155.9673922541765
 20
115.6801007704556
 30
0.0
 10
155.7182329600236
 20
115.5386325273857
 30
0.0
 10
155.4591871724633
 20
115.4215205237841
 30
0.0
 10
155.1912590071279
 20
115.3293986053113
 30
0.0
 10
154.9173168107256
 20
115.2630888397437
 30
0.0
 10
154.6388323974856
 20
115.223137174648
 30
0.0
 10
154.3583302491976
 20
115.2097242650251
 30
0.0
 10
154.0778281009097
 20
115.223137174648
 30
0.0
 10
153.7993436876697
 20
115.2630888397437
 30
0.0
 10
153.5254014912673
 20
115.3293986053113
 30
0.0
 10
153.2574733259319
 20
115.4215205237841
 30
0.0
 10
152.9984275383716
 20
115.5386325273857
 30
0.0
 10
152.7492682442187
 20
115.6801007704556
 30
0.0
 10
152.5129582240409
 20
115.8443852981667
 30
0.0
 10
152.2901832301229
 20
116.030844857344
 30
0.0
 10
152.0837271978248
 20
116.2372694923705
 30
0.0
 10
151.8941144541845
 20
116.4629871435684
 30
0.0
 10
151.7237152782589
 20
116.7052779536641
 30
0.0
 10
151.5730024706509
 20
116.9633354433332
 30
0.0
 10
151.4437793341254
 20
117.2341626476749
 30
0.0
 10
151.336499660941
 20
117.5166795009398
 30
0.0
 10
151.2523451573858
 20
117.8078674715955
 30
0.0
 10
151.1917018835545
 20
118.1062462444933
 30
0.0
 10
151.1551681212833
 20
118.4090072163782
 30
0.0
 10
151.1429490905466
 20
118.7141952266246
 30
0.0
 10
151.1551681212833
 20
119.0193832368724
 30
0.0
 10
151.1917018835545
 20
119.3221442087526
 30
0.0
 10
151.2523451573857
 20
119.6205229816674
 30
0.0
 10
151.336499660941
 20
119.9117109522605
 30
0.0
 10
151.4437793341254
 20
120.1942278057573
 30
0.0
 10
151.5730024706509
 20
120.4650550092392
 30
0.0
 10
151.7237152782589
 20
120.7231125020791
 30
0.0
 10
151.8941144541845
 20
120.9654033004278
 30
0.0
 10
152.0837271978249
 20
121.1911209948645
 30
0.0
 10
152.2901832301228
 20
121.3975454698017
 30
0.0
 10
152.5129582240408
 20
121.584005618018
 30
0.0
 10
152.7492682442189
 20
121.7482879640111
 30
0.0
 10
152.9984275383716
 20
121.8897642455902
 30
0.0
 10
153.2574733259319
 20
122.0068464349494
 30
0.0
 10
153.5254014912673
 20
122.0990785441834
 30
0.0
 10
153.7993436876696
 20
122.1649787045762
 30
0.0
 10
154.0778281009097
 20
122.2064510546251
 30
0.0
 10
154.2648297061441
 20
122.2116138407357
 30
0.0
 10
154.3583302491976
 20
122.2141952266249
 30
0.0
 11
154.3583302491976
 21
122.2141952266249
 31
0.0
 11
154.6384102480673
 21
122.2008424413268
 31
0.0
 11
154.9159680564459
 21
122.1610223621677
 31
0.0
 11
155.1900194608248
 21
122.0947627794437
 31
0.0
 11
155.4566623210992
 21
122.0031193993755
 31
0.0
 11
155.7162507456352
 21
121.8858713990903
 31
0.0
 11
155.9639843215307
 21
121.7452841398703
 31
0.0
 11
156.2010848061397
 21
121.5805869445183
 31
0.0
 11
156.4225193354746
 21
121.3953507775413
 31
0.0
 11
156.6298027247843
 21
121.188257900626
 31
0.0
 11
156.8183350085619
 21
120.9639518605276
 31
0.0
 11
156.9894235551355
 21
120.7208570298269
 31
0.0
 11
157.1394046818584
 21
120.4641952266249
 31
0.0
 11
157.2690814617328
 21
120.1926070066537
 31
0.0
 11
157.3759728158102
 21
119.9112657282646
 31
0.0
 11
157.4603388771404
 21
119.6195482447192
 31
0.0
 11
157.5208514073762
 21
119.321963848459
 31
0.0
 11
157.5574303559392
 21
119.0190581139248
 31
0.0
 11
157.5696383938639
 21
118.7141952266249
 31
0.0
 11
157.5574303559392
 21
118.4093323393248
 31
0.0
 11
157.5208514073762
 21
118.1064266047904
 31
0.0
 11
157.4603388771405
 21
117.8088422085304
 31
0.0
 11
157.3759728158102
 21
117.5171247249851
 31
0.0
 11
157.2690814617328
 21
117.2357834465961
 31
0.0
 11
157.1394046818584
 21
116.9641952266249
 31
0.0
 11
156.9894235551355
 21
116.7075334234228
 31
0.0
 11
156.8183350085619
 21
116.4644385927219
 31
0.0
 11
156.6298027247843
 21
116.2401325526236
 31
0.0
 11
156.4225193354746
 21
116.0330396757084
 31
0.0
 11
156.2010848061397
 21
115.8478035087313
 31
0.0
 11
155.9639843215307
 21
115.6831063133791
 31
0.0
 11
155.7162507456352
 21
115.5425190541591
 31
0.0
 11
155.4566623210992
 21
115.425271053874
 31
0.0
 11
155.1900194608248
 21
115.333627673806
 31
0.0
 11
154.9159680564459
 21
115.2673680910821
 31
0.0
 11
154.6384102480673
 21
115.227548011923
 31
0.0
 11
154.3583302491976
 21
115.2141952266249
 31
0.0
 11
154.078250250328
 21
115.227548011923
 31
0.0
 11
153.8006924419493
 21
115.2673680910821
 31
0.0
 11
153.5266410375704
 21
115.333627673806
 31
0.0
 11
153.259998177296
 21
115.425271053874
 31
0.0
 11
153.00040975276
 21
115.5425190541591
 31
0.0
 11
152.7526761768645
 21
115.6831063133791
 31
0.0
 11
152.5155756922555
 21
115.8478035087313
 31
0.0
 11
152.2941411629206
 21
116.0330396757084
 31
0.0
 11
152.0868577736109
 21
116.2401325526237
 31
0.0
 11
151.8983254898334
 21
116.4644385927219
 31
0.0
 11
151.7272369432598
 21
116.7075334234228
 31
0.0
 11
151.5772558165368
 21
116.9641952266249
 31
0.0
 11
151.4475790366624
 21
117.2357834465961
 31
0.0
 11
151.340687682585
 21
117.5171247249851
 31
0.0
 11
151.2563216212548
 21
117.8088422085304
 31
0.0
 11
151.195809091019
 21
118.1064266047904
 31
0.0
 11
151.159230142456
 21
118.4093323393248
 31
0.0
 11
151.1470221045313
 21
118.7141952266249
 31
0.0
 11
151.159230142456
 21
119.0190581139248
 31
0.0
 11
151.195809091019
 21
119.321963848459
 31
0.0
 11
151.2563216212547
 21
119.6195482447192
 31
0.0
 11
151.340687682585
 21
119.9112657282646
 31
0.0
 11
151.4475790366624
 21
120.1926070066537
 31
0.0
 11
151.5772558165368
 21
120.4641952266249
 31
0.0
 11
151.7272369432598
 21
120.7208570298269
 31
0.0
 11
151.8983254898334
 21
120.9639518605276
 31
0.0
 11
152.0868577736109
 21
121.188257900626
 31
0.0
 11
152.2941411629206
 21
121.3953507775413
 31
0.0
 11
152.5155756922555
 21
121.5805869445183
 31
0.0
 11
152.7526761768645
 21
121.7452841398703
 31
0.0
 11
153.0004097527601
 21
121.8858713990903
 31
0.0
 11
153.259998177296
 21
122.0031193993755
 31
0.0
 11
153.5266410375704
 21
122.0947627794437
 31
0.0
 11
153.8006924419493
 21
122.1610223621677
 31
0.0
 11
154.078250250328
 21
122.2008424413268
 31
0.0
 11
154.3583302491976
 21
122.2141952266249
 31
0.0
  0
SPLINE
  5
154
330
42
100
AcDbEntity
  8
1
  6
Continuous
 62
     7
100
AcDbSpline
210
0.0
220
0.0
230
1.0
 70
    11
 71
     3
 72
    79
 73
    75
 74
    73
 42
0.0000000001
 43
0.0000000001
 44
0.00000001
 40
0.0
 40
0.0
 40
0.0
 40
0.0
 40
0.2803981145479272
 40
0.5607977859033214
 40
0.8427454841467859
 40
1.124697473048536
 40
1.409536451638104
 40
1.694381500885908
 40
1.983071310125201
 40
2.271767843422829
 40
2.564776142200834
 40
2.857790854546496
 40
3.155055698552697
 40
3.452325978930742
 40
3.753284827389649
 40
4.054247742882742
 40
4.357919806975666
 40
4.66159436832888
 40
4.966700748943391
 40
5.271807969839252
 40
5.576915190735313
 40
5.882021571350006
 40
6.185696132703063
 40
6.489368196795872
 40
6.790331112288909
 40
7.091289960747778
 40
7.388560241125856
 40
7.685825085132264
 40
7.978839797477833
 40
8.271848096255797
 40
8.560544629553519
 40
8.849234438792893
 40
9.13407948804068
 40
9.41891846663022
 40
9.700870455531915
 40
9.98281815377535
 40
10.26321782513077
 40
10.54361593967867
 40
10.82401405422657
 40
11.10441372558196
 40
11.38636142382545
 40
11.6683134127272
 40
11.95315239131676
 40
12.2379974405645
 40
12.5266872498039
 40
12.81538378310162
 40
13.1083920818796
 40
13.40140679422516
 40
13.69867163823154
 40
13.9959419186096
 40
14.29690076706849
 40
14.59786368256153
 40
14.90153574665432
 40
15.20521030800737
 40
15.51031668862207
 40
15.81542390951813
 40
16.12053113041399
 40
16.42563751102851
 40
16.72931207238171
 40
17.03298413647463
 40
17.33394705196773
 40
17.63490590042665
 40
17.93217618080462
 40
18.22944102481085
 40
18.5224557371565
 40
18.81546403593452
 40
19.10416056923215
 40
19.39285037847146
 40
19.67769542771921
 40
19.96253440630881
 40
20.24448639521062
 40
20.52643409345414
 40
20.80683376480953
 40
21.08723187935743
 40
21.08723187935743
 40
21.08723187935743
 40
21.08723187935743
 10
131.8416697508021
 20
122.2141952266249
 30
0.0
 10
131.7481692077486
 20
122.2116138407357
 30
0.0
 10
131.5611676025141
 20
122.2064510546251
 30
0.0
 10
131.2826831892741
 20
122.1649787045762
 30
0.0
 10
131.0087409928718
 20
122.0990785441834
 30
0.0
 10
130.7408128275364
 20
122.0068464349494
 30
0.0
 10
130.4817670399761
 20
121.8897642455902
 30
0.0
 10
130.2326077458233
 20
121.748287964011
 30
0.0
 10
129.9962977256454
 20
121.5840056180181
 30
0.0
 10
129.7735227317274
 20
121.3975454698017
 30
0.0
 10
129.5670666994294
 20
121.1911209948644
 30
0.0
 10
129.377453955789
 20
120.9654033004279
 30
0.0
 10
129.2070547798633
 20
120.7231125020792
 30
0.0
 10
129.0563419722554
 20
120.4650550092392
 30
0.0
 10
128.9271188357299
 20
120.1942278057573
 30
0.0
 10
128.8198391625455
 20
119.9117109522605
 30
0.0
 10
128.7356846589904
 20
119.6205229816674
 30
0.0
 10
128.675041385159
 20
119.3221442087526
 30
0.0
 10
128.6385076228879
 20
119.0193832368724
 30
0.0
 10
128.6262885921513
 20
118.7141952266246
 30
0.0
 10
128.6385076228879
 20
118.4090072163781
 30
0.0
 10
128.675041385159
 20
118.1062462444933
 30
0.0
 10
128.7356846589903
 20
117.8078674715954
 30
0.0
 10
128.8198391625456
 20
117.5166795009398
 30
0.0
 10
128.92711883573
 20
117.2341626476749
 30
0.0
 10
129.0563419722554
 20
116.9633354433332
 30
0.0
 10
129.2070547798633
 20
116.705277953664
 30
0.0
 10
129.377453955789
 20
116.4629871435684
 30
0.0
 10
129.5670666994294
 20
116.2372694923705
 30
0.0
 10
129.7735227317275
 20
116.030844857344
 30
0.0
 10
129.9962977256455
 20
115.8443852981668
 30
0.0
 10
130.2326077458232
 20
115.6801007704555
 30
0.0
 10
130.4817670399761
 20
115.5386325273857
 30
0.0
 10
130.7408128275364
 20
115.4215205237842
 30
0.0
 10
131.0087409928718
 20
115.3293986053113
 30
0.0
 10
131.2826831892741
 20
115.2630888397437
 30
0.0
 10
131.5611676025142
 20
115.223137174648
 30
0.0
 10
131.8416697508021
 20
115.2097242650251
 30
0.0
 10
132.12217189909
 20
115.2231371746479
 30
0.0
 10
132.4006563123301
 20
115.2630888397437
 30
0.0
 10
132.6745985087324
 20
115.3293986053113
 30
0.0
 10
132.9425266740679
 20
115.4215205237842
 30
0.0
 10
133.2015724616282
 20
115.5386325273856
 30
0.0
 10
133.4507317557811
 20
115.6801007704556
 30
0.0
 10
133.6870417759589
 20
115.8443852981667
 30
0.0
 10
133.9098167698768
 20
116.030844857344
 30
0.0
 10
134.1162728021749
 20
116.2372694923705
 30
0.0
 10
134.3058855458154
 20
116.4629871435684
 30
0.0
 10
134.476284721741
 20
116.7052779536641
 30
0.0
 10
134.6269975293488
 20
116.9633354433332
 30
0.0
 10
134.7562206658743
 20
117.2341626476749
 30
0.0
 10
134.8635003390588
 20
117.5166795009398
 30
0.0
 10
134.9476548426139
 20
117.8078674715955
 30
0.0
 10
135.0082981164452
 20
118.1062462444933
 30
0.0
 10
135.0448318787163
 20
118.4090072163782
 30
0.0
 10
135.057050909453
 20
118.7141952266246
 30
0.0
 10
135.0448318787164
 20
119.0193832368725
 30
0.0
 10
135.0082981164451
 20
119.3221442087526
 30
0.0
 10
134.9476548426139
 20
119.6205229816674
 30
0.0
 10
134.8635003390587
 20
119.9117109522605
 30
0.0
 10
134.7562206658744
 20
120.1942278057573
 30
0.0
 10
134.6269975293488
 20
120.4650550092392
 30
0.0
 10
134.4762847217409
 20
120.7231125020791
 30
0.0
 10
134.3058855458153
 20
120.9654033004278
 30
0.0
 10
134.1162728021749
 20
121.1911209948644
 30
0.0
 10
133.9098167698769
 20
121.3975454698017
 30
0.0
 10
133.6870417759589
 20
121.5840056180181
 30
0.0
 10
133.450731755781
 20
121.748287964011
 30
0.0
 10
133.2015724616282
 20
121.8897642455903
 30
0.0
 10
132.9425266740679
 20
122.0068464349494
 30
0.0
 10
132.6745985087325
 20
122.0990785441835
 30
0.0
 10
132.4006563123301
 20
122.1649787045762
 30
0.0
 10
132.12217189909
 20
122.2064510546251
 30
0.0
 10
131.9351702938556
 20
122.2116138407357
 30
0.0
 10
131.8416697508021
 20
122.2141952266249
 30
0.0
 11
131.8416697508021
 21
122.2141952266249
 31
0.0
 11
131.5615897519325
 21
122.2008424413268
 31
0.0
 11
131.2840319435538
 21
122.1610223621677
 31
0.0
 11
131.0099805391749
 21
122.0947627794437
 31
0.0
 11
130.7433376789005
 21
122.0031193993755
 31
0.0
 11
130.4837492543645
 21
121.8858713990903
 31
0.0
 11
130.236015678469
 21
121.7452841398703
 31
0.0
 11
129.99891519386
 21
121.5805869445183
 31
0.0
 11
129.7774806645252
 21
121.3953507775413
 31
0.0
 11
129.5701972752155
 21
121.188257900626
 31
0.0
 11
129.3816649914379
 21
120.9639518605276
 31
0.0
 11
129.2105764448643
 21
120.720857029827
 31
0.0
 11
129.0605953181413
 21
120.4641952266249
 31
0.0
 11
128.9309185382669
 21
120.1926070066537
 31
0.0
 11
128.8240271841896
 21
119.9112657282646
 31
0.0
 11
128.7396611228593
 21
119.6195482447192
 31
0.0
 11
128.6791485926235
 21
119.321963848459
 31
0.0
 11
128.6425696440606
 21
119.0190581139248
 31
0.0
 11
128.6303616061359
 21
118.7141952266249
 31
0.0
 11
128.6425696440606
 21
118.4093323393248
 31
0.0
 11
128.6791485926235
 21
118.1064266047904
 31
0.0
 11
128.7396611228593
 21
117.8088422085304
 31
0.0
 11
128.8240271841896
 21
117.5171247249851
 31
0.0
 11
128.930918538267
 21
117.2357834465961
 31
0.0
 11
129.0605953181413
 21
116.9641952266249
 31
0.0
 11
129.2105764448643
 21
116.7075334234228
 31
0.0
 11
129.3816649914379
 21
116.4644385927219
 31
0.0
 11
129.5701972752155
 21
116.2401325526236
 31
0.0
 11
129.7774806645252
 21
116.0330396757084
 31
0.0
 11
129.99891519386
 21
115.8478035087313
 31
0.0
 11
130.236015678469
 21
115.6831063133791
 31
0.0
 11
130.4837492543645
 21
115.5425190541591
 31
0.0
 11
130.7433376789005
 21
115.425271053874
 31
0.0
 11
131.0099805391749
 21
115.333627673806
 31
0.0
 11
131.2840319435538
 21
115.2673680910821
 31
0.0
 11
131.5615897519325
 21
115.227548011923
 31
0.0
 11
131.8416697508021
 21
115.2141952266249
 31
0.0
 11
132.1217497496717
 21
115.227548011923
 31
0.0
 11
132.3993075580504
 21
115.2673680910821
 31
0.0
 11
132.6733589624293
 21
115.333627673806
 31
0.0
 11
132.9400018227038
 21
115.425271053874
 31
0.0
 11
133.1995902472398
 21
115.5425190541591
 31
0.0
 11
133.4473238231353
 21
115.6831063133791
 31
0.0
 11
133.6844243077443
 21
115.8478035087313
 31
0.0
 11
133.9058588370791
 21
116.0330396757084
 31
0.0
 11
134.1131422263889
 21
116.2401325526236
 31
0.0
 11
134.3016745101664
 21
116.4644385927219
 31
0.0
 11
134.47276305674
 21
116.7075334234228
 31
0.0
 11
134.6227441834629
 21
116.9641952266249
 31
0.0
 11
134.7524209633373
 21
117.2357834465961
 31
0.0
 11
134.8593123174147
 21
117.5171247249851
 31
0.0
 11
134.9436783787449
 21
117.8088422085304
 31
0.0
 11
135.0041909089807
 21
118.1064266047904
 31
0.0
 11
135.0407698575437
 21
118.4093323393248
 31
0.0
 11
135.0529778954684
 21
118.7141952266249
 31
0.0
 11
135.0407698575437
 21
119.0190581139248
 31
0.0
 11
135.0041909089807
 21
119.321963848459
 31
0.0
 11
134.9436783787449
 21
119.6195482447192
 31
0.0
 11
134.8593123174147
 21
119.9112657282646
 31
0.0
 11
134.7524209633373
 21
120.1926070066537
 31
0.0
 11
134.6227441834629
 21
120.4641952266249
 31
0.0
 11
134.47276305674
 21
120.7208570298269
 31
0.0
 11
134.3016745101664
 21
120.9639518605276
 31
0.0
 11
134.1131422263889
 21
121.188257900626
 31
0.0
 11
133.9058588370791
 21
121.3953507775413
 31
0.0
 11
133.6844243077443
 21
121.5805869445183
 31
0.0
 11
133.4473238231353
 21
121.7452841398703
 31
0.0
 11
133.1995902472398
 21
121.8858713990903
 31
0.0
 11
132.9400018227038
 21
122.0031193993755
 31
0.0
 11
132.6733589624293
 21
122.0947627794437
 31
0.0
 11
132.3993075580504
 21
122.1610223621677
 31
0.0
 11
132.1217497496717
 21
122.2008424413268
 31
0.0
 11
131.8416697508021
 21
122.2141952266249
 31
0.0
  0
SPLINE
  5
155
330
42
100
AcDbEntity
  8
1
  6
Continuous
 62
     7
100
AcDbSpline
210
0.0
220
0.0
230
1.0
 70
     8
 71
     3
 72
    29
 73
    25
 74
    23
 42
0.0000000001
 43
0.0000000001
 44
0.00000001
 40
0.0
 40
0.0
 40
0.0
 40
0.0
 40
0.6069077131759089
 40
1.212222625822744
 40
1.842666707826769
 40
2.474631900595413
 40
3.102420172365406
 40
3.729333891456429
 40
4.271042939833156
 40
4.812985328221126
 40
5.340107980728468
 40
5.866248927280359
 40
6.26387483734348
 40
6.661485236222602
 40
7.280966497569136
 40
7.902596738528281
 40
8.549168915178971
 40
9.195896772489359
 40
9.72241597417929
 40
10.24911841725699
 40
11.07897537274026
 40
11.90732207846653
 40
12.67331709995045
 40
13.44191271185843
 40
13.44191271185843
 40
13.44191271185843
 40
13.44191271185843
 10
143.0999999999999
 20
122.2141952266249
 30
0.0
 10
142.8979401704424
 20
122.2043198531625
 30
0.0
 10
142.4943508077737
 20
122.1845950236875
 30
0.0
 10
141.8826452574351
 20
122.1208046696344
 30
0.0
 10
141.2732281955452
 20
121.9866213723171
 30
0.0
 10
140.6748220200397
 20
121.7861657516327
 30
0.0
 10
140.1002594881442
 20
121.5276046348147
 30
0.0
 10
139.5853616904726
 20
121.2186752450433
 30
0.0
 10
139.1363428164744
 20
120.8648583204686
 30
0.0
 10
138.7624012139833
 20
120.4768336523055
 30
0.0
 10
138.4554353125231
 20
120.0399032485427
 30
0.0
 10
138.2481266549893
 20
119.5996892814425
 30
0.0
 10
138.1322240667184
 20
119.1729801607578
 30
0.0
 10
138.081520861824
 20
118.7020647182557
 30
0.0
 10
138.141977185102
 20
118.1530901252116
 30
0.0
 10
138.3549244168488
 20
117.5553440589918
 30
0.0
 10
138.7021613541949
 20
117.0137418129931
 30
0.0
 10
139.1235190800275
 20
116.5731338448555
 30
0.0
 10
139.5709325702844
 20
116.2232599212187
 30
0.0
 10
140.1067689562072
 20
115.8943495382298
 30
0.0
 10
140.7716600061205
 20
115.5906109166024
 30
0.0
 10
141.5513210675945
 20
115.3658410512594
 30
0.0
 10
142.3337266859041
 20
115.26145424585
 30
0.0
 10
142.8442871552666
 20
115.2300317671011
 30
0.0
 10
143.0999999999999
 20
115.2142939027116
 30
0.0
 11
143.0999999999999
 21
122.2141952266249
 31
0.0
 11
142.4941139782417
 21
122.1789943608625
 31
0.0
 11
141.8926711587602
 21
122.1106373687783
 31
0.0
 11
141.2767799470191
 21
121.975960882954
 31
0.0
 11
140.6773184854704
 21
121.7758959910089
 31
0.0
 11
140.1056197121503
 21
121.5165147527585
 31
0.0
 11
139.5690544951373
 21
121.1922947979805
 31
0.0
 11
139.1446219563582
 21
120.8556856579995
 31
0.0
 11
138.7698729810777
 21
120.4641952266249
 31
0.0
 11
138.4683170951176
 21
120.0318500654062
 31
0.0
 11
138.2462967812838
 21
119.5548476797899
 31
0.0
 11
138.1425360641408
 21
119.1709986496602
 31
0.0
 11
138.10077796632
 21
118.775587103846
 31
0.0
 11
138.1653715779414
 21
118.1594826496362
 31
0.0
 11
138.3729897480928
 21
117.5735484793594
 31
0.0
 11
138.7183623489478
 21
117.0269468454454
 31
0.0
 11
139.1626364755507
 21
116.556970865365
 31
0.0
 11
139.5765068943253
 21
116.2314962177939
 31
0.0
 11
140.0245457415495
 21
115.9545907196144
 31
0.0
 11
140.7793064481871
 21
115.6096286314368
 31
0.0
 11
141.5754627585752
 21
115.3809511416903
 31
0.0
 11
142.3334718891748
 21
115.2706310126757
 31
0.0
 11
143.0999999999999
 21
115.2142939027116
 31
0.0
  0
SPLINE
  5
156
330
42
100
AcDbEntity
  8
1
  6
Continuous
 62
     7
100
AcDbSpline
210
0.0
220
0.0
230
1.0
 70
     8
 71
     3
 72
    29
 73
    25
 74
    23
 42
0.0000000001
 43
0.0000000001
 44
0.00000001
 40
0.0
 40
0.0
 40
0.0
 40
0.0
 40
0.6069077131758521
 40
1.212222625822631
 40
1.842666707826783
 40
2.474631900595417
 40
3.102420172365256
 40
3.729333891456229
 40
4.271042939833019
 40
4.812985328221068
 40
5.340107980728441
 40
5.866248927280308
 40
6.263874837343423
 40
6.661485236222539
 40
7.280966497569079
 40
7.902596738528205
 40
8.54916891517888
 40
9.195896772489288
 40
9.722415974179281
 40
10.24911841725708
 40
11.07897537274027
 40
11.90732207846643
 40
12.6733170999503
 40
13.44191271185822
 40
13.44191271185822
 40
13.44191271185822
 40
13.44191271185822
 10
143.0999999999999
 20
122.2141952266249
 30
0.0
 10
143.3020598295574
 20
122.2043198531626
 30
0.0
 10
143.7056491922261
 20
122.1845950236875
 30
0.0
 10
144.3173547425647
 20
122.1208046696343
 30
0.0
 10
144.9267718044547
 20
121.9866213723173
 30
0.0
 10
145.52517797996
 20
121.7861657516327
 30
0.0
 10
146.0997405118555
 20
121.5276046348147
 30
0.0
 10
146.614638309527
 20
121.2186752450433
 30
0.0
 10
147.0636571835252
 20
120.8648583204685
 30
0.0
 10
147.4375987860165
 20
120.4768336523056
 30
0.0
 10
147.7445646874767
 20
120.0399032485428
 30
0.0
 10
147.9518733450105
 20
119.5996892814425
 30
0.0
 10
148.0677759332813
 20
119.1729801607578
 30
0.0
 10
148.1184791381757
 20
118.7020647182557
 30
0.0
 10
148.0580228148977
 20
118.1530901252117
 30
0.0
 10
147.8450755831509
 20
117.5553440589917
 30
0.0
 10
147.4978386458047
 20
117.0137418129932
 30
0.0
 10
147.0764809199723
 20
116.5731338448555
 30
0.0
 10
146.6290674297151
 20
116.2232599212187
 30
0.0
 10
146.0932310437924
 20
115.8943495382298
 30
0.0
 10
145.4283399938791
 20
115.5906109166024
 30
0.0
 10
144.6486789324052
 20
115.3658410512594
 30
0.0
 10
143.8662733140957
 20
115.2614542458499
 30
0.0
 10
143.3557128447332
 20
115.2300317671011
 30
0.0
 10
143.0999999999999
 20
115.2142939027116
 30
0.0
 11
143.0999999999999
 21
122.2141952266249
 31
0.0
 11
143.7058860217581
 21
122.1789943608625
 31
0.0
 11
144.3073288412395
 21
122.1106373687783
 31
0.0
 11
144.9232200529807
 21
121.975960882954
 31
0.0
 11
145.5226815145294
 21
121.7758959910089
 31
0.0
 11
146.0943802878493
 21
121.5165147527585
 31
0.0
 11
146.6309455048623
 21
121.1922947979805
 31
0.0
 11
147.0553780436415
 21
120.8556856579995
 31
0.0
 11
147.4301270189221
 21
120.4641952266249
 31
0.0
 11
147.7316829048822
 21
120.0318500654062
 31
0.0
 11
147.953703218716
 21
119.5548476797899
 31
0.0
 11
148.057463935859
 21
119.1709986496602
 31
0.0
 11
148.0992220336797
 21
118.775587103846
 31
0.0
 11
148.0346284220582
 21
118.1594826496362
 31
0.0
 11
147.8270102519069
 21
117.5735484793594
 31
0.0
 11
147.4816376510519
 21
117.0269468454454
 31
0.0
 11
147.037363524449
 21
116.556970865365
 31
0.0
 11
146.6234931056743
 21
116.231496217794
 31
0.0
 11
146.17545425845
 21
115.9545907196144
 31
0.0
 11
145.4206935518125
 21
115.6096286314368
 31
0.0
 11
144.6245372414245
 21
115.3809511416903
 31
0.0
 11
143.866528110825
 21
115.2706310126756
 31
0.0
 11
143.0999999999999
 21
115.2142939027116
 31
0.0
  0
SPLINE
  5
157
330
42
100
AcDbEntity
  8
1
  6
Continuous
 62
     7
100
AcDbSpline
210
0.0
220
0.0
230
1.0
 70
    11
 71
     3
 72
    79
 73
    75
 74
    73
 42
0.0000000001
 43
0.0000000001
 44
0.00000001
 40
0.0
 40
0.0
 40
0.0
 40
0.0
 40
0.3105305927635491
 40
0.62110970508931
 40
0.9446853874345637
 40
1.268350833884852
 40
1.615177941516985
 40
1.962073591621482
 40
2.337982254486162
 40
2.713934414183007
 40
3.120408259025818
 40
3.526909442882783
 40
3.961816267817358
 40
4.396740384516076
 40
4.855202007200567
 40
5.313674298559636
 40
5.788867666243182
 40
6.264066854325044
 40
6.747928781316523
 40
7.231792560540559
 40
7.715656339764595
 40
8.199518266756074
 40
8.674717454837921
 40
9.149910822521482
 40
9.608383113880478
 40
10.06684473656493
 40
10.50176885326363
 40
10.9366756781982
 40
11.34317686205517
 40
11.749650706898
 40
12.12560286659489
 40
12.50151152945961
 40
12.84840717956411
 40
13.19523428719625
 40
13.51889973364655
 40
13.84247541599179
 40
14.15305452831752
 40
14.46358512108108
 40
14.7741157138447
 40
15.08469482617049
 40
15.4082705085158
 40
15.73193595496612
 40
16.07876306259818
 40
16.42565871270268
 40
16.80156737556738
 40
17.17751953526427
 40
17.58399338010709
 40
17.99049456396402
 40
18.4254013888986
 40
18.86032550559732
 40
19.31878712828178
 40
19.77725941964081
 40
20.25245278732437
 40
20.72765197540621
 40
21.21151390239769
 40
21.69537768162173
 40
22.17924146084577
 40
22.66310338783725
 40
23.13830257591912
 40
23.61349594360265
 40
24.07196823496173
 40
24.53042985764624
 40
24.96535397434499
 40
25.40026079927957
 40
25.8067619831365
 40
26.2132358279793
 40
26.58918798767617
 40
26.96509665054081
 40
27.31199230064529
 40
27.65881940827736
 40
27.98248485472766
 40
28.30606053707299
 40
28.6166396493988
 40
28.92717024216242
 40
28.92717024216242
 40
28.92717024216242
 40
28.92717024216242
 10
62.03785113467811
 20
118.7495523337607
 30
0.0
 10
62.04206718539714
 20
118.8531373680918
 30
0.0
 10
62.05049994558171
 20
119.0603236216344
 30
0.0
 10
62.11722787860737
 20
119.3695432182445
 30
0.0
 10
62.22293526014461
 20
119.6715483644657
 30
0.0
 10
62.37145812827411
 20
119.9687085532129
 30
0.0
 10
62.5579258636682
 20
120.2528552185771
 30
0.0
 10
62.78509691915788
 20
120.5284548037115
 30
0.0
 10
63.04553037721725
 20
120.7868199235618
 30
0.0
 10
63.34393648821468
 20
121.032587901019
 30
0.0
 10
63.67045020762657
 20
121.2580205535479
 30
0.0
 10
64.03067706588222
 20
121.4667662828476
 30
0.0
 10
64.41369027312373
 20
121.6528350770808
 30
0.0
 10
64.82464003087939
 20
121.8184840266967
 30
0.0
 10
65.25288933854353
 20
121.9596984473564
 30
0.0
 10
65.70202960054127
 20
122.0774445694296
 30
0.0
 10
66.16281627136237
 20
122.1695156516083
 30
0.0
 10
66.63651514016769
 20
122.2359772251284
 30
0.0
 10
67.11607395900521
 20
122.2760208785508
 30
0.0
 10
67.60000000000062
 20
122.2893537305754
 30
0.0
 10
68.08392604099174
 20
122.2760208785508
 30
0.0
 10
68.56348485984209
 20
122.2359772251283
 30
0.0
 10
69.03718372860115
 20
122.1695156516083
 30
0.0
 10
69.49797039959195
 20
122.0774445694296
 30
0.0
 10
69.94711066097774
 20
121.9596984473564
 30
0.0
 10
70.37535997086947
 20
121.8184840266967
 30
0.0
 10
70.78630972071949
 20
121.6528350770808
 30
0.0
 10
71.16932295649822
 20
121.4667662828476
 30
0.0
 10
71.52954971488911
 20
121.2580205535479
 30
0.0
 10
71.85606379239945
 20
121.032587901019
 30
0.0
 10
72.15446866255762
 20
120.7868199235618
 30
0.0
 10
72.41490655624706
 20
120.5284548037114
 30
0.0
 10
72.64206227399852
 20
120.2528552185771
 30
0.0
 10
72.82858500024014
 20
119.9687085532129
 30
0.0
 10
72.97691568911299
 20
119.6715483644658
 30
0.0
 10
73.08332004847948
 20
119.3695432182445
 30
0.0
 10
73.14754617422597
 20
119.0603236216344
 30
0.0
 10
73.16944964050626
 20
118.7495523337607
 30
0.0
 10
73.14754617422599
 20
118.438781045887
 30
0.0
 10
73.08332004847947
 20
118.1295614492768
 30
0.0
 10
72.97691568911303
 20
117.8275563030555
 30
0.0
 10
72.82858500024017
 20
117.5303961143084
 30
0.0
 10
72.64206227399852
 20
117.2462494489442
 30
0.0
 10
72.41490655624706
 20
116.9706498638098
 30
0.0
 10
72.15446866255759
 20
116.7122847439595
 30
0.0
 10
71.85606379239948
 20
116.4665167665023
 30
0.0
 10
71.5295497148891
 20
116.2410841139735
 30
0.0
 10
71.16932295649821
 20
116.0323383846739
 30
0.0
 10
70.78630972071946
 20
115.8462695904406
 30
0.0
 10
70.3753599708695
 20
115.6806206408246
 30
0.0
 10
69.94711066097771
 20
115.539406220165
 30
0.0
 10
69.49797039959198
 20
115.4216600980915
 30
0.0
 10
69.03718372860115
 20
115.3295890159129
 30
0.0
 10
68.56348485984211
 20
115.2631274423929
 30
0.0
 10
68.08392604099174
 20
115.2230837889704
 30
0.0
 10
67.60000000000062
 20
115.2097509369458
 30
0.0
 10
67.11607395900521
 20
115.2230837889703
 30
0.0
 10
66.63651514016767
 20
115.2631274423929
 30
0.0
 10
66.16281627136236
 20
115.3295890159129
 30
0.0
 10
65.70202960054127
 20
115.4216600980916
 30
0.0
 10
65.25288933854353
 20
115.5394062201649
 30
0.0
 10
64.82464003087939
 20
115.6806206408246
 30
0.0
 10
64.41369027312373
 20
115.8462695904407
 30
0.0
 10
64.03067706588224
 20
116.0323383846739
 30
0.0
 10
63.67045020762656
 20
116.2410841139735
 30
0.0
 10
63.34393648821465
 20
116.4665167665023
 30
0.0
 10
63.0455303772173
 20
116.7122847439596
 30
0.0
 10
62.78509691915784
 20
116.9706498638099
 30
0.0
 10
62.55792586366823
 20
117.2462494489442
 30
0.0
 10
62.3714581282741
 20
117.5303961143083
 30
0.0
 10
62.2229352601446
 20
117.8275563030555
 30
0.0
 10
62.11722787860737
 20
118.1295614492768
 30
0.0
 10
62.05049994558171
 20
118.4387810458869
 30
0.0
 10
62.04206718539714
 20
118.6459672994296
 30
0.0
 10
62.03785113467811
 20
118.7495523337607
 30
0.0
 11
62.03785113467811
 21
118.7495523337607
 31
0.0
 11
62.05935774689145
 21
119.0593372828354
 31
0.0
 11
62.12235267402301
 21
119.3634606528166
 31
0.0
 11
62.22924175630182
 21
119.6688717631168
 31
0.0
 11
62.37328975554431
 21
119.9587156782506
 31
0.0
 11
62.56295943957041
 21
120.2490851903381
 31
0.0
 11
62.78303778300051
 21
120.5172308873285
 31
0.0
 11
63.04938998253022
 21
120.7824926987948
 31
0.0
 11
63.33914676991961
 21
121.0220360780448
 31
0.0
 11
63.6732964123519
 21
121.2534772217589
 31
0.0
 11
64.02471962613899
 21
121.4577930001233
 31
0.0
 11
64.41570583395389
 21
121.6482496400002
 31
0.0
 11
64.81892556733899
 21
121.8112613999901
 31
0.0
 11
65.2542253440628
 21
121.9551403903212
 31
0.0
 11
65.69763304788381
 21
122.0717013191791
 31
0.0
 11
66.1635777519255
 21
122.1649979936425
 31
0.0
 11
66.63414298562461
 21
122.2311994225347
 31
0.0
 11
67.11632126378785
 21
122.2715289707523
 31
0.0
 11
67.59999999999991
 21
122.2849094408963
 31
0.0
 11
68.08367873621197
 21
122.2715289707523
 31
0.0
 11
68.56585701437521
 21
122.2311994225347
 31
0.0
 11
69.0364222480743
 21
122.1649979936425
 31
0.0
 11
69.50236695211601
 21
122.0717013191791
 31
0.0
 11
69.94577465593694
 21
121.9551403903212
 31
0.0
 11
70.38107443266071
 21
121.8112613999901
 31
0.0
 11
70.7842941660458
 21
121.6482496400002
 31
0.0
 11
71.17528037386069
 21
121.4577930001233
 31
0.0
 11
71.52670358764779
 21
121.2534772217589
 31
0.0
 11
71.8608532300801
 21
121.0220360780448
 31
0.0
 11
72.15061001746955
 21
120.7824926987948
 31
0.0
 11
72.41696221699931
 21
120.5172308873285
 31
0.0
 11
72.63704056042941
 21
120.2490851903381
 31
0.0
 11
72.82671024445551
 21
119.9587156782506
 31
0.0
 11
72.97075824369802
 21
119.6688717631168
 31
0.0
 11
73.07764732597681
 21
119.3634606528166
 31
0.0
 11
73.1406422531083
 21
119.0593372828354
 31
0.0
 11
73.1621488653216
 21
118.7495523337607
 31
0.0
 11
73.1406422531083
 21
118.439767384686
 31
0.0
 11
73.07764732597681
 21
118.1356440147047
 31
0.0
 11
72.97075824369803
 21
117.8302329044044
 31
0.0
 11
72.82671024445551
 21
117.5403889892706
 31
0.0
 11
72.63704056042943
 21
117.2500194771832
 31
0.0
 11
72.41696221699931
 21
116.9818737801928
 31
0.0
 11
72.15061001746955
 21
116.7166119687265
 31
0.0
 11
71.8608532300801
 21
116.4770685894765
 31
0.0
 11
71.52670358764777
 21
116.2456274457625
 31
0.0
 11
71.17528037386069
 21
116.0413116673981
 31
0.0
 11
70.78429416604578
 21
115.8508550275212
 31
0.0
 11
70.38107443266071
 21
115.6878432675312
 31
0.0
 11
69.94577465593694
 21
115.5439642772001
 31
0.0
 11
69.50236695211601
 21
115.4274033483421
 31
0.0
 11
69.0364222480743
 21
115.3341066738787
 31
0.0
 11
68.56585701437521
 21
115.2679052449865
 31
0.0
 11
68.08367873621197
 21
115.2275756967689
 31
0.0
 11
67.59999999999991
 21
115.2141952266249
 31
0.0
 11
67.11632126378785
 21
115.2275756967689
 31
0.0
 11
66.63414298562461
 21
115.2679052449865
 31
0.0
 11
66.16357775192549
 21
115.3341066738787
 31
0.0
 11
65.69763304788381
 21
115.4274033483421
 31
0.0
 11
65.25422534406282
 21
115.5439642772001
 31
0.0
 11
64.81892556733899
 21
115.6878432675312
 31
0.0
 11
64.41570583395391
 21
115.8508550275212
 31
0.0
 11
64.02471962613899
 21
116.0413116673981
 31
0.0
 11
63.6732964123519
 21
116.2456274457625
 31
0.0
 11
63.33914676991961
 21
116.4770685894765
 31
0.0
 11
63.04938998253022
 21
116.7166119687265
 31
0.0
 11
62.78303778300051
 21
116.9818737801928
 31
0.0
 11
62.56295943957041
 21
117.2500194771832
 31
0.0
 11
62.37328975554431
 21
117.5403889892706
 31
0.0
 11
62.22924175630181
 21
117.8302329044044
 31
0.0
 11
62.12235267402301
 21
118.1356440147047
 31
0.0
 11
62.05935774689145
 21
118.439767384686
 31
0.0
 11
62.03785113467811
 21
118.7495523337607
 31
0.0
  0
SPLINE
  5
158
330
42
100
AcDbEntity
  8
1
  6
Continuous
 62
     7
100
AcDbSpline
210
0.0
220
0.0
230
1.0
 70
    11
 71
     3
 72
    79
 73
    75
 74
    73
 42
0.0000000001
 43
0.0000000001
 44
0.00000001
 40
0.0
 40
0.0
 40
0.0
 40
0.0
 40
0.3105305927635491
 40
0.6211097050893085
 40
0.9446853874345647
 40
1.26835083388485
 40
1.615177941516959
 40
1.962073591621438
 40
2.337982254486144
 40
2.713934414183021
 40
3.120408259025844
 40
3.526909442882821
 40
3.961816267817396
 40
4.396740384516108
 40
4.855202007200599
 40
5.31367429855964
 40
5.788867666243194
 40
6.264066854325055
 40
6.747928781316534
 40
7.23179256054057
 40
7.715656339764606
 40
8.199518266756085
 40
8.674717454837904
 40
9.149910822521408
 40
9.608383113880445
 40
10.06684473656494
 40
10.50176885326365
 40
10.93667567819824
 40
11.3431768620552
 40
11.74965070689804
 40
12.12560286659492
 40
12.50151152945963
 40
12.8484071795641
 40
13.19523428719621
 40
13.51889973364652
 40
13.84247541599178
 40
14.15305452831747
 40
14.46358512108108
 40
14.77411571384474
 40
15.08469482617049
 40
15.40827050851582
 40
15.73193595496615
 40
16.0787630625982
 40
16.42565871270266
 40
16.80156737556734
 40
17.17751953526423
 40
17.58399338010704
 40
17.99049456396399
 40
18.42540138889858
 40
18.86032550559732
 40
19.31878712828182
 40
19.77725941964088
 40
20.25245278732438
 40
20.7276519754062
 40
21.21151390239768
 40
21.69537768162172
 40
22.17924146084575
 40
22.66310338783723
 40
23.1383025759191
 40
23.61349594360265
 40
24.07196823496171
 40
24.53042985764621
 40
24.96535397434494
 40
25.40026079927953
 40
25.80676198313648
 40
26.21323582797928
 40
26.58918798767612
 40
26.96509665054079
 40
27.31199230064528
 40
27.65881940827735
 40
27.98248485472765
 40
28.30606053707298
 40
28.61663964939878
 40
28.9271702421624
 40
28.9271702421624
 40
28.9271702421624
 40
28.9271702421624
 10
60.16214886532171
 20
118.7495523337607
 30
0.0
 10
60.15793281460267
 20
118.8531373680918
 30
0.0
 10
60.1495000544181
 20
119.0603236216344
 30
0.0
 10
60.08277212139245
 20
119.3695432182445
 30
0.0
 10
59.97706473985519
 20
119.6715483644658
 30
0.0
 10
59.82854187172571
 20
119.9687085532129
 30
0.0
 10
59.64207413633167
 20
120.2528552185771
 30
0.0
 10
59.41490308084204
 20
120.5284548037115
 30
0.0
 10
59.1544696227826
 20
120.7868199235618
 30
0.0
 10
58.85606351178515
 20
121.032587901019
 30
0.0
 10
58.52954979237325
 20
121.2580205535479
 30
0.0
 10
58.16932293411758
 20
121.4667662828476
 30
0.0
 10
57.78630972687606
 20
121.6528350770808
 30
0.0
 10
57.3753599691204
 20
121.8184840266967
 30
0.0
 10
56.94711066145628
 20
121.9596984473564
 30
0.0
 10
56.49797039945854
 20
122.0774445694296
 30
0.0
 10
56.03718372863745
 20
122.1695156516083
 30
0.0
 10
55.56348485983213
 20
122.2359772251283
 30
0.0
 10
55.08392604099464
 20
122.2760208785509
 30
0.0
 10
54.59999999999918
 20
122.2893537305754
 30
0.0
 10
54.11607395900809
 20
122.2760208785509
 30
0.0
 10
53.63651514015774
 20
122.2359772251283
 30
0.0
 10
53.1628162713987
 20
122.1695156516083
 30
0.0
 10
52.70202960040793
 20
122.0774445694296
 30
0.0
 10
52.25288933902211
 20
121.9596984473564
 30
0.0
 10
51.82464002913036
 20
121.8184840266967
 30
0.0
 10
51.4136902792803
 20
121.6528350770808
 30
0.0
 10
51.0306770435016
 20
121.4667662828476
 30
0.0
 10
50.67045028511068
 20
121.2580205535479
 30
0.0
 10
50.34393620760033
 20
121.0325879010191
 30
0.0
 10
50.04553133744219
 20
120.7868199235618
 30
0.0
 10
49.78509344375276
 20
120.5284548037115
 30
0.0
 10
49.55793772600136
 20
120.2528552185771
 30
0.0
 10
49.37141499975974
 20
119.9687085532129
 30
0.0
 10
49.22308431088693
 20
119.6715483644658
 30
0.0
 10
49.11667995152035
 20
119.3695432182445
 30
0.0
 10
49.05245382577382
 20
119.0603236216345
 30
0.0
 10
49.03055035949353
 20
118.7495523337607
 30
0.0
 10
49.0524538257738
 20
118.438781045887
 30
0.0
 10
49.11667995152038
 20
118.1295614492768
 30
0.0
 10
49.22308431088686
 20
117.8275563030555
 30
0.0
 10
49.37141499975973
 20
117.5303961143084
 30
0.0
 10
49.55793772600138
 20
117.2462494489442
 30
0.0
 10
49.78509344375275
 20
116.9706498638099
 30
0.0
 10
50.04553133744221
 20
116.7122847439595
 30
0.0
 10
50.3439362076003
 20
116.4665167665023
 30
0.0
 10
50.67045028511069
 20
116.2410841139735
 30
0.0
 10
51.0306770435016
 20
116.0323383846739
 30
0.0
 10
51.41369027928032
 20
115.8462695904406
 30
0.0
 10
51.82464002913034
 20
115.6806206408246
 30
0.0
 10
52.25288933902215
 20
115.5394062201649
 30
0.0
 10
52.7020296004079
 20
115.4216600980916
 30
0.0
 10
53.1628162713987
 20
115.3295890159129
 30
0.0
 10
53.63651514015773
 20
115.2631274423929
 30
0.0
 10
54.11607395900808
 20
115.2230837889704
 30
0.0
 10
54.59999999999918
 20
115.2097509369458
 30
0.0
 10
55.08392604099463
 20
115.2230837889704
 30
0.0
 10
55.56348485983212
 20
115.2631274423929
 30
0.0
 10
56.03718372863746
 20
115.3295890159129
 30
0.0
 10
56.49797039945857
 20
115.4216600980916
 30
0.0
 10
56.94711066145629
 20
115.5394062201649
 30
0.0
 10
57.3753599691204
 20
115.6806206408246
 30
0.0
 10
57.78630972687604
 20
115.8462695904406
 30
0.0
 10
58.16932293411757
 20
116.0323383846739
 30
0.0
 10
58.52954979237325
 20
116.2410841139735
 30
0.0
 10
58.85606351178517
 20
116.4665167665023
 30
0.0
 10
59.15446962278254
 20
116.7122847439596
 30
0.0
 10
59.41490308084197
 20
116.9706498638099
 30
0.0
 10
59.64207413633159
 20
117.2462494489442
 30
0.0
 10
59.82854187172575
 20
117.5303961143083
 30
0.0
 10
59.97706473985522
 20
117.8275563030555
 30
0.0
 10
60.08277212139244
 20
118.1295614492768
 30
0.0
 10
60.14950005441811
 20
118.4387810458869
 30
0.0
 10
60.15793281460267
 20
118.6459672994296
 30
0.0
 10
60.16214886532171
 20
118.7495523337607
 30
0.0
 11
60.16214886532171
 21
118.7495523337607
 31
0.0
 11
60.14064225310837
 21
119.0593372828354
 31
0.0
 11
60.07764732597681
 21
119.3634606528166
 31
0.0
 11
59.970758243698
 21
119.6688717631168
 31
0.0
 11
59.82671024445551
 21
119.9587156782506
 31
0.0
 11
59.63704056042946
 21
120.2490851903381
 31
0.0
 11
59.41696221699939
 21
120.5172308873285
 31
0.0
 11
59.15061001746965
 21
120.7824926987948
 31
0.0
 11
58.86085323008021
 21
121.0220360780448
 31
0.0
 11
58.5267035876479
 21
121.2534772217589
 31
0.0
 11
58.1752803738608
 21
121.4577930001233
 31
0.0
 11
57.7842941660459
 21
121.6482496400002
 31
0.0
 11
57.3810744326608
 21
121.8112613999901
 31
0.0
 11
56.94577465593699
 21
121.9551403903212
 31
0.0
 11
56.50236695211601
 21
122.0717013191791
 31
0.0
 11
56.03642224807432
 21
122.1649979936425
 31
0.0
 11
55.56585701437521
 21
122.2311994225347
 31
0.0
 11
55.08367873621197
 21
122.2715289707523
 31
0.0
 11
54.59999999999991
 21
122.2849094408963
 31
0.0
 11
54.11632126378785
 21
122.2715289707523
 31
0.0
 11
53.63414298562461
 21
122.2311994225347
 31
0.0
 11
53.16357775192554
 21
122.1649979936425
 31
0.0
 11
52.6976330478839
 21
122.0717013191791
 31
0.0
 11
52.25422534406292
 21
121.9551403903212
 31
0.0
 11
51.81892556733911
 21
121.8112613999901
 31
0.0
 11
51.41570583395401
 21
121.6482496400002
 31
0.0
 11
51.0247196261391
 21
121.4577930001233
 31
0.0
 11
50.673296412352
 21
121.2534772217589
 31
0.0
 11
50.33914676991969
 21
121.0220360780448
 31
0.0
 11
50.04938998253024
 21
120.7824926987948
 31
0.0
 11
49.78303778300051
 21
120.5172308873285
 31
0.0
 11
49.56295943957045
 21
120.2490851903381
 31
0.0
 11
49.37328975554439
 21
119.9587156782506
 31
0.0
 11
49.22924175630186
 21
119.6688717631168
 31
0.0
 11
49.12235267402301
 21
119.3634606528166
 31
0.0
 11
49.0593577468915
 21
119.0593372828354
 31
0.0
 11
49.03785113467819
 21
118.7495523337607
 31
0.0
 11
49.0593577468915
 21
118.4397673846859
 31
0.0
 11
49.12235267402301
 21
118.1356440147047
 31
0.0
 11
49.22924175630185
 21
117.8302329044044
 31
0.0
 11
49.37328975554439
 21
117.5403889892706
 31
0.0
 11
49.56295943957045
 21
117.2500194771832
 31
0.0
 11
49.78303778300051
 21
116.9818737801928
 31
0.0
 11
50.04938998253024
 21
116.7166119687265
 31
0.0
 11
50.33914676991969
 21
116.4770685894765
 31
0.0
 11
50.673296412352
 21
116.2456274457625
 31
0.0
 11
51.0247196261391
 21
116.0413116673981
 31
0.0
 11
51.41570583395401
 21
115.8508550275212
 31
0.0
 11
51.81892556733911
 21
115.6878432675312
 31
0.0
 11
52.25422534406292
 21
115.5439642772001
 31
0.0
 11
52.6976330478839
 21
115.4274033483421
 31
0.0
 11
53.16357775192554
 21
115.3341066738787
 31
0.0
 11
53.63414298562461
 21
115.2679052449865
 31
0.0
 11
54.11632126378785
 21
115.2275756967689
 31
0.0
 11
54.59999999999991
 21
115.2141952266249
 31
0.0
 11
55.08367873621197
 21
115.2275756967689
 31
0.0
 11
55.56585701437521
 21
115.2679052449865
 31
0.0
 11
56.03642224807432
 21
115.3341066738787
 31
0.0
 11
56.50236695211601
 21
115.4274033483421
 31
0.0
 11
56.94577465593699
 21
115.5439642772001
 31
0.0
 11
57.3810744326608
 21
115.6878432675312
 31
0.0
 11
57.78429416604588
 21
115.8508550275212
 31
0.0
 11
58.1752803738608
 21
116.0413116673981
 31
0.0
 11
58.52670358764792
 21
116.2456274457625
 31
0.0
 11
58.86085323008021
 21
116.4770685894765
 31
0.0
 11
59.15061001746959
 21
116.7166119687265
 31
0.0
 11
59.41696221699931
 21
116.9818737801928
 31
0.0
 11
59.63704056042941
 21
117.2500194771832
 31
0.0
 11
59.82671024445551
 21
117.5403889892706
 31
0.0
 11
59.97075824369802
 21
117.8302329044044
 31
0.0
 11
60.07764732597681
 21
118.1356440147047
 31
0.0
 11
60.14064225310837
 21
118.439767384686
 31
0.0
 11
60.16214886532171
 21
118.7495523337607
 31
0.0
  0
ENDBLK
  5
44
330
42
100
AcDbEntity
  8
0
100
AcDbBlockEnd
  0
BLOCK
  5
46
330
45
100
AcDbEntity
  8
0
100
AcDbBlockBegin
  2
_J__A4
 70
     0
 71
     0
 10
0.0
 20
0.0
 30
0.0
  3
_J__A4
  1

  0
POINT
  5
159
330
45
100
AcDbEntity
  8
1
 62
     4
100
AcDbPoint
 10
34.0
 20
34.0
 30
0.0
  0
POINT
  5
15A
330
45
100
AcDbEntity
  8
1
 62
     4
100
AcDbPoint
 10
57.0
 20
12.25
 30
0.0
  0
POINT
  5
15B
330
45
100
AcDbEntity
  8
1
 62
     4
100
AcDbPoint
 10
57.0
 20
20.75000000000001
 30
0.0
  0
POINT
  5
15C
330
45
100
AcDbEntity
  8
1
 62
     4
100
AcDbPoint
 10
57.0
 20
24.75000000000001
 30
0.0
  0
POINT
  5
15D
330
45
100
AcDbEntity
  8
1
 62
     4
100
AcDbPoint
 10
57.0
 20
16.25
 30
0.0
  0
POINT
  5
15E
330
45
100
AcDbEntity
  8
1
 62
     4
100
AcDbPoint
 10
157.5
 20
19.00000000000001
 30
0.0
  0
POINT
  5
15F
330
45
100
AcDbEntity
  8
1
 62
     4
100
AcDbPoint
 10
47.5
 20
282.0000000000003
 30
0.0
  0
POINT
  5
160
330
45
100
AcDbEntity
  8
1
 62
     4
100
AcDbPoint
 10
57.0
 20
22.75000000000001
 30
0.0
  0
POINT
  5
161
330
45
100
AcDbEntity
  8
1
 62
     4
100
AcDbPoint
 10
57.0
 20
14.25
 30
0.0
  0
POINT
  5
162
330
45
100
AcDbEntity
  8
1
 62
     4
100
AcDbPoint
 10
157.5
 20
12.5
 30
0.0
  0
POINT
  5
163
330
45
100
AcDbEntity
  8
1
 62
     4
100
AcDbPoint
 10
163.25
 20
12.5
 30
0.0
  0
POINT
  5
164
330
45
100
AcDbEntity
  8
1
 62
     4
100
AcDbPoint
 10
151.75
 20
12.5
 30
0.0
  0
POINT
  5
165
330
45
100
AcDbEntity
  8
1
 62
     4
100
AcDbPoint
 10
134.75
 20
12.5
 30
0.0
  0
POINT
  5
166
330
45
100
AcDbEntity
  8
1
 62
     4
100
AcDbPoint
 10
146.25
 20
12.5
 30
0.0
  0
POINT
  5
167
330
45
100
AcDbEntity
  8
1
 62
     4
100
AcDbPoint
 10
140.5
 20
12.5
 30
0.0
  0
POINT
  5
168
330
45
100
AcDbEntity
  8
1
 62
     4
100
AcDbPoint
 10
140.5
 20
19.00000000000001
 30
0.0
  0
POINT
  5
169
330
45
100
AcDbEntity
  8
1
 62
     4
100
AcDbPoint
 10
117.75
 20
12.5
 30
0.0
  0
POINT
  5
16A
330
45
100
AcDbEntity
  8
1
 62
     4
100
AcDbPoint
 10
129.25
 20
12.5
 30
0.0
  0
POINT
  5
16B
330
45
100
AcDbEntity
  8
1
 62
     4
100
AcDbPoint
 10
123.5
 20
12.5
 30
0.0
  0
POINT
  5
16C
330
45
100
AcDbEntity
  8
1
 62
     4
100
AcDbPoint
 10
123.5
 20
19.00000000000001
 30
0.0
  0
POINT
  5
16D
330
45
100
AcDbEntity
  8
1
 62
     4
100
AcDbPoint
 10
100.75
 20
12.5
 30
0.0
  0
POINT
  5
16E
330
45
100
AcDbEntity
  8
1
 62
     4
100
AcDbPoint
 10
112.25
 20
12.5
 30
0.0
  0
POINT
  5
16F
330
45
100
AcDbEntity
  8
1
 62
     4
100
AcDbPoint
 10
106.5
 20
12.5
 30
0.0
  0
POINT
  5
170
330
45
100
AcDbEntity
  8
1
 62
     4
100
AcDbPoint
 10
106.5
 20
19.00000000000001
 30
0.0
  0
POINT
  5
171
330
45
100
AcDbEntity
  8
1
 62
     4
100
AcDbPoint
 10
85.25
 20
17.0
 30
0.0
  0
POINT
  5
172
330
45
100
AcDbEntity
  8
1
 62
     4
100
AcDbPoint
 10
93.75
 20
17.0
 30
0.0
  0
LINE
  5
173
330
45
100
AcDbEntity
  8
1
  6
Continuous
 62
     2
100
AcDbLine
 10
81.0
 20
27.00000000000001
 30
0.0
 11
81.0
 21
10.0
 31
0.0
  0
LINE
  5
174
330
45
100
AcDbEntity
  8
1
  6
DOT_CENTER
 62
     2
100
AcDbLine
 10
187.0
 20
26.50000000000001
 30
0.0
 11
187.0
 21
20.50000000000001
 31
0.0
  0
LINE
  5
175
330
45
100
AcDbEntity
  8
1
  6
DOT_CENTER
 62
     2
100
AcDbLine
 10
184.0
 20
23.50000000000001
 30
0.0
 11
197.0
 21
23.50000000000001
 31
0.0
  0
LINE
  5
176
330
45
100
AcDbEntity
  8
1
  6
Continuous
 62
     7
100
AcDbLine
 10
196.0
 20
21.50000000000001
 30
0.0
 11
191.0
 21
22.30000000000002
 31
0.0
  0
LINE
  5
177
330
45
100
AcDbEntity
  8
1
  6
Continuous
 62
     7
100
AcDbLine
 10
196.0
 20
25.50000000000001
 30
0.0
 11
196.0
 21
21.50000000000001
 31
0.0
  0
LINE
  5
178
330
45
100
AcDbEntity
  8
1
  6
Continuous
 62
     7
100
AcDbLine
 10
191.0
 20
24.70000000000001
 30
0.0
 11
196.0
 21
25.50000000000001
 31
0.0
  0
LINE
  5
179
330
45
100
AcDbEntity
  8
1
  6
Continuous
 62
     7
100
AcDbLine
 10
191.0
 20
24.70000000000001
 30
0.0
 11
191.0
 21
22.30000000000002
 31
0.0
  0
LINE
  5
17A
330
45
100
AcDbEntity
  8
1
  6
Continuous
 62
     2
100
AcDbLine
 10
33.0
 20
27.0
 30
0.0
 11
33.0
 21
10.0
 31
0.0
  0
LINE
  5
17B
330
45
100
AcDbEntity
  8
1
  6
Continuous
 62
     2
100
AcDbLine
 10
25.0
 20
18.50000000000001
 30
0.0
 11
81.0
 21
18.50000000000001
 31
0.0
  0
LINE
  5
17C
330
45
100
AcDbEntity
  8
1
  6
Continuous
 62
     7
100
AcDbLine
 10
200.0
 20
287.0000000000003
 30
0.0
 11
105.0
 21
287.0000000000003
 31
0.0
  0
LINE
  5
17D
330
45
100
AcDbEntity
  8
1
  6
Continuous
 62
     7
100
AcDbLine
 10
200.0
 20
10.0
 30
0.0
 11
200.0
 21
148.5
 31
0.0
  0
LINE
  5
17E
330
45
100
AcDbEntity
  8
1
  6
Continuous
 62
     7
100
AcDbLine
 10
25.0
 20
10.0
 30
0.0
 11
105.0
 21
10.0
 31
0.0
  0
LINE
  5
17F
330
45
100
AcDbEntity
  8
1
  6
PHANTOM
 62
     4
100
AcDbLine
 10
0.0
 20
297.0
 30
0.0
 11
0.0
 21
0.0
 31
0.0
  0
LINE
  5
180
330
45
100
AcDbEntity
  8
1
  6
PHANTOM
 62
     4
100
AcDbLine
 10
210.0
 20
297.0
 30
0.0
 11
0.0
 21
297.0
 31
0.0
  0
LINE
  5
181
330
45
100
AcDbEntity
  8
1
  6
PHANTOM
 62
     4
100
AcDbLine
 10
210.0
 20
0.0
 30
0.0
 11
210.0
 21
297.0
 31
0.0
  0
LINE
  5
182
330
45
100
AcDbEntity
  8
1
  6
PHANTOM
 62
     4
100
AcDbLine
 10
0.0
 20
0.0
 30
0.0
 11
210.0
 21
0.0
 31
0.0
  0
LINE
  5
183
330
45
100
AcDbEntity
  8
1
  6
Continuous
 62
     7
100
AcDbLine
 10
25.0
 20
41.0
 30
0.0
 11
200.0
 21
41.0
 31
0.0
  0
LINE
  5
184
330
45
100
AcDbEntity
  8
1
  6
Continuous
 62
     7
100
AcDbLine
 10
200.0
 20
27.00000000000001
 30
0.0
 11
25.0
 21
27.00000000000001
 31
0.0
  0
LINE
  5
185
330
45
100
AcDbEntity
  8
1
  6
Continuous
 62
     2
100
AcDbLine
 10
33.0
 20
41.0
 30
0.0
 11
33.0
 21
27.0
 31
0.0
  0
LINE
  5
186
330
45
100
AcDbEntity
  8
1
  6
Continuous
 62
     2
100
AcDbLine
 10
55.0
 20
287.0000000000003
 30
0.0
 11
55.0
 21
277.0000000000003
 31
0.0
  0
LINE
  5
187
330
45
100
AcDbEntity
  8
1
  6
Continuous
 62
     2
100
AcDbLine
 10
40.0
 20
287.0000000000003
 30
0.0
 11
40.0
 21
277.0000000000003
 31
0.0
  0
LINE
  5
188
330
45
100
AcDbEntity
  8
1
  6
Continuous
 62
     7
100
AcDbLine
 10
25.0
 20
10.0
 30
0.0
 11
25.0
 21
148.5
 31
0.0
  0
LINE
  5
189
330
45
100
AcDbEntity
  8
1
  6
Continuous
 62
     2
100
AcDbLine
 10
55.0
 20
277.0000000000003
 30
0.0
 11
25.0
 21
277.0000000000003
 31
0.0
  0
LINE
  5
18A
330
45
100
AcDbEntity
  8
1
  6
Continuous
 62
     2
100
AcDbLine
 10
166.0
 20
27.00000000000001
 30
0.0
 11
166.0
 21
10.0
 31
0.0
  0
LINE
  5
18B
330
45
100
AcDbEntity
  8
1
  6
Continuous
 62
     2
100
AcDbLine
 10
132.0
 20
27.00000000000001
 30
0.0
 11
132.0
 21
9.99999999999999
 31
0.0
  0
LINE
  5
18C
330
45
100
AcDbEntity
  8
1
  6
Continuous
 62
     2
100
AcDbLine
 10
149.0
 20
27.00000000000001
 30
0.0
 11
149.0
 21
10.0
 31
0.0
  0
LINE
  5
18D
330
45
100
AcDbEntity
  8
1
  6
Continuous
 62
     2
100
AcDbLine
 10
115.0
 20
27.00000000000001
 30
0.0
 11
115.0
 21
9.99999999999999
 31
0.0
  0
LINE
  5
18E
330
45
100
AcDbEntity
  8
1
  6
Continuous
 62
     2
100
AcDbLine
 10
98.0
 20
27.00000000000001
 30
0.0
 11
98.0
 21
9.99999999999999
 31
0.0
  0
LINE
  5
18F
330
45
100
AcDbEntity
  8
1
  6
Continuous
 62
     2
100
AcDbLine
 10
166.0
 20
20.00000000000001
 30
0.0
 11
200.0
 21
20.00000000000001
 31
0.0
  0
LINE
  5
190
330
45
100
AcDbEntity
  8
1
  6
Continuous
 62
     2
100
AcDbLine
 10
105.0
 20
287.0000000000003
 30
0.0
 11
105.0
 21
292.0000000000003
 31
0.0
  0
LINE
  5
191
330
45
100
AcDbEntity
  8
1
  6
Continuous
 62
     7
100
AcDbLine
 10
105.0
 20
287.0000000000003
 30
0.0
 11
25.0
 21
287.0000000000003
 31
0.0
  0
LINE
  5
192
330
45
100
AcDbEntity
  8
1
  6
Continuous
 62
     2
100
AcDbLine
 10
25.0
 20
148.5
 30
0.0
 11
20.0
 21
148.5
 31
0.0
  0
LINE
  5
193
330
45
100
AcDbEntity
  8
1
  6
Continuous
 62
     7
100
AcDbLine
 10
25.0
 20
148.5
 30
0.0
 11
25.0
 21
287.0000000000003
 31
0.0
  0
LINE
  5
194
330
45
100
AcDbEntity
  8
1
  6
Continuous
 62
     2
100
AcDbLine
 10
200.0
 20
148.5
 30
0.0
 11
205.0
 21
148.5
 31
0.0
  0
LINE
  5
195
330
45
100
AcDbEntity
  8
1
  6
Continuous
 62
     7
100
AcDbLine
 10
200.0
 20
148.5
 30
0.0
 11
200.0
 21
287.0000000000003
 31
0.0
  0
LINE
  5
196
330
45
100
AcDbEntity
  8
1
  6
Continuous
 62
     2
100
AcDbLine
 10
105.0
 20
10.0
 30
0.0
 11
105.0
 21
5.0
 31
0.0
  0
LINE
  5
197
330
45
100
AcDbEntity
  8
1
  6
Continuous
 62
     7
100
AcDbLine
 10
105.0
 20
10.0
 30
0.0
 11
200.0
 21
10.0
 31
0.0
  0
CIRCLE
  5
198
330
45
100
AcDbEntity
  8
1
  6
DOT_CENTER
 62
     7
100
AcDbCircle
 10
89.5
 20
18.0
 30
0.0
 40
0.1000000000000227
  0
CIRCLE
  5
199
330
45
100
AcDbEntity
  8
1
  6
DOT_CENTER
 62
     7
100
AcDbCircle
 10
89.5
 20
16.0
 30
0.0
 40
0.1000000000000227
  0
CIRCLE
  5
19A
330
45
100
AcDbEntity
  8
1
  6
Continuous
 62
     7
100
AcDbCircle
 10
187.0
 20
23.50000000000001
 30
0.0
 40
2.0
  0
CIRCLE
  5
19B
330
45
100
AcDbEntity
  8
1
  6
Continuous
 62
     7
100
AcDbCircle
 10
187.0
 20
23.50000000000001
 30
0.0
 40
1.200000000000102
  0
CIRCLE
  5
19C
330
45
100
AcDbEntity
  8
1
  6
Continuous
 62
     7
100
AcDbCircle
 10
154.5
 20
12.5
 30
0.0
 40
0.3000000000000114
  0
CIRCLE
  5
19D
330
45
100
AcDbEntity
  8
1
  6
Continuous
 62
     7
100
AcDbCircle
 10
160.5
 20
12.5
 30
0.0
 40
0.3000000000000114
  0
CIRCLE
  5
19E
330
45
100
AcDbEntity
  8
1
  6
Continuous
 62
     7
100
AcDbCircle
 10
143.5
 20
12.5
 30
0.0
 40
0.3000000000000114
  0
CIRCLE
  5
19F
330
45
100
AcDbEntity
  8
1
  6
Continuous
 62
     7
100
AcDbCircle
 10
137.5
 20
12.5
 30
0.0
 40
0.3000000000000114
  0
CIRCLE
  5
1A0
330
45
100
AcDbEntity
  8
1
  6
Continuous
 62
     7
100
AcDbCircle
 10
126.5
 20
12.5
 30
0.0
 40
0.2999999999999972
  0
CIRCLE
  5
1A1
330
45
100
AcDbEntity
  8
1
  6
Continuous
 62
     7
100
AcDbCircle
 10
120.5
 20
12.5
 30
0.0
 40
0.2999999999999972
  0
CIRCLE
  5
1A2
330
45
100
AcDbEntity
  8
1
  6
Continuous
 62
     7
100
AcDbCircle
 10
109.5
 20
12.5
 30
0.0
 40
0.2999999999999972
  0
CIRCLE
  5
1A3
330
45
100
AcDbEntity
  8
1
  6
Continuous
 62
     7
100
AcDbCircle
 10
103.5
 20
12.5
 30
0.0
 40
0.2999999999999972
  0
MTEXT
  5
1A5
330
45
100
AcDbEntity
  8
1
 62
   250
100
AcDbMText
 10
25.0
 20
5.0
 30
0.0
 40
3.5
 41
0.0
 71
     4
 72
     1
  1
備考欄の文字列 原点位置=4
  7
CONVERTER_1
 73
     1
 44
0.7202881152461
  0
MTEXT
  5
1A6
330
45
100
AcDbEntity
  8
1
 62
     2
100
AcDbMText
 10
89.5
 20
24.00000000000001
 30
0.0
 40
3.5
 41
0.0
 71
     5
 72
     1
  1
尺度
  7
CONVERTER_1
 73
     1
 44
0.7202881152461
  0
MTEXT
  5
1A7
330
45
100
AcDbEntity
  8
1
 62
     2
100
AcDbMText
 10
135.5
 20
25.00000000000001
 30
0.0
 40
3.0
 41
0.0
 71
     5
 72
     1
  1
製図
  7
CONVERTER_1
 73
     1
 44
0.78031212484994
  0
MTEXT
  5
1A8
330
45
100
AcDbEntity
  8
1
 62
     2
100
AcDbMText
 10
152.5
 20
25.00000000000001
 30
0.0
 40
3.0
 41
0.0
 71
     5
 72
     1
  1
設計
  7
CONVERTER_1
 73
     1
 44
0.78031212484994
  0
MTEXT
  5
1A9
330
45
100
AcDbEntity
  8
1
 62
     2
100
AcDbMText
 10
118.5
 20
25.00000000000001
 30
0.0
 40
3.0
 41
0.0
 71
     5
 72
     1
  1
検図
  7
CONVERTER_1
 73
     1
 44
0.78031212484994
  0
MTEXT
  5
1AA
330
45
100
AcDbEntity
  8
1
 62
     2
100
AcDbMText
 10
175.0
 20
23.50000000000001
 30
0.0
 40
3.5
 41
0.0
 71
     5
 72
     1
  1
第三角法
  7
CONVERTER_1
 73
     1
 44
0.7202881152461
  0
MTEXT
  5
1AB
330
45
100
AcDbEntity
  8
1
 62
     2
100
AcDbMText
 10
101.5
 20
25.00000000000001
 30
0.0
 40
3.0
 41
0.0
 71
     5
 72
     1
  1
承認
  7
CONVERTER_1
 73
     1
 44
0.78031212484994
  0
MTEXT
  5
1AC
330
45
100
AcDbEntity
  8
1
 62
     2
100
AcDbMText
 10
29.0
 20
14.25
 30
0.0
 40
3.5
 41
0.0
 71
     5
 72
     1
  1
品番
  7
CONVERTER_1
 73
     1
 44
0.96038415366146
  0
MTEXT
  5
1AD
330
45
100
AcDbEntity
  8
1
 62
     2
100
AcDbMText
 10
29.0
 20
22.75
 30
0.0
 40
3.5
 41
0.0
 71
     5
 72
     1
  1
品名
  7
CONVERTER_1
 73
     1
 44
0.96038415366146
  0
MTEXT
  5
1AE
330
45
100
AcDbEntity
  8
1
 62
     2
100
AcDbMText
 10
29.0
 20
34.0
 30
0.0
 40
3.5
 41
0.0
 71
     5
 72
     1
  1
備考
  7
CONVERTER_1
 73
     1
 44
0.60024009603842
  0
MTEXT
  5
1AF
330
45
100
AcDbEntity
  8
1
 62
     2
100
AcDbMText
 10
32.5
 20
282.0000000000003
 30
0.0
 40
5.0
 41
0.0
 71
     5
 72
     1
  1
図番
  7
CONVERTER_1
 73
     1
 44
0.60024009603842
  0
MTEXT
  5
1B0
330
45
100
AcDbEntity
  8
1
 62
     7
100
AcDbMText
 10
171.5
 20
15.0
 30
0.0
 40
2.5
 41
0.0
 71
     5
 72
     1
  1
株式会社
  7
CONVERTER_1
 73
     1
 44
1.32052821128451
  0
MTEXT
  5
1B1
330
45
100
AcDbEntity
  8
1
 62
     7
100
AcDbMText
 10
188.5
 20
15.0
 30
0.0
 40
3.0
 41
0.0
 71
     5
 72
     1
  1
三栄水栓製作所
  7
CONVERTER_1
 73
     1
 44
1.32052821128451
  0
ENDBLK
  5
47
330
45
100
AcDbEntity
  8
0
100
AcDbBlockEnd
  0
BLOCK
  5
1D7
330
1D0
100
AcDbEntity
  8
0
100
AcDbBlockBegin
  2
*D07
 70
     1
 71
     0
 10
0.0
 20
0.0
 30
0.0
  3
*D07
  1

  0
LINE
  5
1D1
330
1D0
100
AcDbEntity
  8
1
  6
Continuous
 62
     2
100
AcDbLine
 10
108.0999999999999
 20
89.78450393843994
 30
0.0
 11
108.0999999999999
 21
131.7845039384401
 31
0.0
  0
LINE
  5
1D2
330
1D0
100
AcDbEntity
  8
1
  6
Continuous
 62
     2
100
AcDbLine
 10
115.0999999999999
 20
89.78450393843994
 30
0.0
 11
107.0999999999999
 21
89.78450393843994
 31
0.0
  0
LINE
  5
1D3
330
1D0
100
AcDbEntity
  8
1
  6
Continuous
 62
     2
100
AcDbLine
 10
139.3499999999999
 20
131.7845039384401
 30
0.0
 11
107.0999999999999
 21
131.7845039384401
 31
0.0
  0
SOLID
  5
1D4
330
1D0
100
AcDbEntity
  8
1
 62
     2
100
AcDbTrace
 10
107.639216258444
 20
93.28450393843994
 30
0.0
 11
108.5607837415558
 21
93.28450393843994
 31
0.0
 12
108.0999999999999
 22
89.78450393843994
 32
0.0
 13
108.0999999999999
 23
89.78450393843994
 33
0.0
  0
SOLID
  5
1D5
330
1D0
100
AcDbEntity
  8
1
 62
     2
100
AcDbTrace
 10
108.5607837415558
 20
128.2845039384401
 30
0.0
 11
107.639216258444
 21
128.2845039384401
 31
0.0
 12
108.0999999999999
 22
131.7845039384401
 32
0.0
 13
108.0999999999999
 23
131.7845039384401
 33
0.0
  0
MTEXT
  5
1D6
330
1D0
100
AcDbEntity
  8
1
 62
     7
100
AcDbMText
 10
107.0999999999999
 20
101.33450393844
 30
0.0
 40
3.5
 41
0.0
 71
     7
 72
     1
  1
42リフト5
  7
CONVERTER_1
 11
0.0
 21
1.0
 31
0.0
 73
     1
 44
0.60024009603842
  0
ENDBLK
  5
1D8
330
1D0
100
AcDbEntity
  8
0
100
AcDbBlockEnd
  0
BLOCK
  5
1E2
330
1DB
100
AcDbEntity
  8
0
100
AcDbBlockBegin
  2
*D18
 70
     1
 71
     0
 10
0.0
 20
0.0
 30
0.0
  3
*D18
  1

  0
LINE
  5
1DC
330
1DB
100
AcDbEntity
  8
0
  6
Continuous
 62
     2
100
AcDbLine
 10
191.0999999999999
 20
77.78450393843997
 30
0.0
 11
191.0999999999999
 21
101.78450393844
 31
0.0
  0
LINE
  5
1DD
330
1DB
100
AcDbEntity
  8
0
  6
Continuous
 62
     2
100
AcDbLine
 10
179.9121488653216
 20
77.78450393843997
 30
0.0
 11
192.0999999999999
 21
77.78450393843997
 31
0.0
  0
LINE
  5
1DE
330
1DB
100
AcDbEntity
  8
0
  6
Continuous
 62
     2
100
AcDbLine
 10
179.9121488653217
 20
101.78450393844
 30
0.0
 11
192.0999999999999
 21
101.78450393844
 31
0.0
  0
SOLID
  5
1DF
330
1DB
100
AcDbEntity
  8
0
 62
     2
100
AcDbTrace
 10
190.639216258444
 20
81.28450393843997
 30
0.0
 11
191.5607837415558
 21
81.28450393843997
 31
0.0
 12
191.0999999999999
 22
77.78450393843997
 32
0.0
 13
191.0999999999999
 23
77.78450393843997
 33
0.0
  0
SOLID
  5
1E0
330
1DB
100
AcDbEntity
  8
0
 62
     2
100
AcDbTrace
 10
191.5607837415558
 20
98.28450393843997
 30
0.0
 11
190.639216258444
 21
98.28450393843997
 31
0.0
 12
191.0999999999999
 22
101.78450393844
 32
0.0
 13
191.0999999999999
 23
101.78450393844
 33
0.0
  0
MTEXT
  5
1E1
330
1DB
100
AcDbEntity
  8
0
 62
     7
100
AcDbMText
 10
190.0999999999999
 20
87.34558947866957
 30
0.0
 40
3.5
 41
0.0
 71
     7
 72
     1
  1
24
  7
CONVERTER_2
 11
0.0
 21
1.0
 31
0.0
 73
     1
 44
0.60024009603842
  0
ENDBLK
  5
1E3
330
1DB
100
AcDbEntity
  8
0
100
AcDbBlockEnd
  0
BLOCK
  5
1ED
330
1E6
100
AcDbEntity
  8
0
100
AcDbBlockBegin
  2
*D29
 70
     1
 71
     0
 10
0.0
 20
0.0
 30
0.0
  3
*D29
  1

  0
LINE
  5
1E7
330
1E6
100
AcDbEntity
  8
0
  6
Continuous
 62
     2
100
AcDbLine
 10
118.0999999999999
 20
67.23675596914808
 30
0.0
 11
143.0999999999999
 21
67.23675596914808
 31
0.0
  0
LINE
  5
1E8
330
1E6
100
AcDbEntity
  8
0
  6
Continuous
 62
     2
100
AcDbLine
 10
143.0999999999999
 20
74.23675596914808
 30
0.0
 11
143.0999999999999
 21
66.23675596914808
 31
0.0
  0
LINE
  5
1E9
330
1E6
100
AcDbEntity
  8
0
  6
Continuous
 62
     2
100
AcDbLine
 10
118.0999999999999
 20
80.46900393843997
 30
0.0
 11
118.0999999999999
 21
66.23675596914808
 31
0.0
  0
SOLID
  5
1EA
330
1E6
100
AcDbEntity
  8
0
 62
     2
100
AcDbTrace
 10
121.5999999999999
 20
67.69753971070396
 30
0.0
 11
121.5999999999999
 21
66.77597222759219
 31
0.0
 12
118.0999999999999
 22
67.23675596914808
 32
0.0
 13
118.0999999999999
 23
67.23675596914808
 33
0.0
  0
SOLID
  5
1EB
330
1E6
100
AcDbEntity
  8
0
 62
     2
100
AcDbTrace
 10
139.5999999999999
 20
66.77597222759219
 30
0.0
 11
139.5999999999999
 21
67.69753971070396
 31
0.0
 12
143.0999999999999
 22
67.23675596914808
 32
0.0
 13
143.0999999999999
 23
67.23675596914808
 33
0.0
  0
MTEXT
  5
1EC
330
1E6
100
AcDbEntity
  8
0
 62
     7
100
AcDbMText
 10
127.9749999999999
 20
68.23675596914808
 30
0.0
 40
3.5
 41
0.0
 71
     7
 72
     1
  1
25
  7
CONVERTER_2
 11
0.9999999999970621
 21
2.424068405545307E-6
 31
0.0
 73
     1
 44
0.60024009603842
  0
ENDBLK
  5
1EE
330
1E6
100
AcDbEntity
  8
0
100
AcDbBlockEnd
  0
BLOCK
  5
1F8
330
1F1
100
AcDbEntity
  8
0
100
AcDbBlockBegin
  2
*D310
 70
     1
 71
     0
 10
0.0
 20
0.0
 30
0.0
  3
*D310
  1

  0
LINE
  5
1F2
330
1F1
100
AcDbEntity
  8
0
  6
Continuous
 62
     2
100
AcDbLine
 10
143.0999999999999
 20
67.23675596914808
 30
0.0
 11
181.0999999999999
 21
67.23675596914808
 31
0.0
  0
LINE
  5
1F3
330
1F1
100
AcDbEntity
  8
0
  6
Continuous
 62
     2
100
AcDbLine
 10
181.0999999999999
 20
78.42426091679558
 30
0.0
 11
181.0999999999999
 21
66.23675596914808
 31
0.0
  0
LINE
  5
1F4
330
1F1
100
AcDbEntity
  8
0
  6
Continuous
 62
     2
100
AcDbLine
 10
143.0999999999999
 20
74.23675596914808
 30
0.0
 11
143.0999999999999
 21
66.23675596914808
 31
0.0
  0
SOLID
  5
1F5
330
1F1
100
AcDbEntity
  8
0
 62
     2
100
AcDbTrace
 10
146.5999999999999
 20
67.69753971070396
 30
0.0
 11
146.5999999999999
 21
66.77597222759219
 31
0.0
 12
143.0999999999999
 22
67.23675596914808
 32
0.0
 13
143.0999999999999
 23
67.23675596914808
 33
0.0
  0
SOLID
  5
1F6
330
1F1
100
AcDbEntity
  8
0
 62
     2
100
AcDbTrace
 10
177.5999999999999
 20
66.77597222759219
 30
0.0
 11
177.5999999999999
 21
67.69753971070396
 31
0.0
 12
181.0999999999999
 22
67.23675596914808
 32
0.0
 13
181.0999999999999
 23
67.23675596914808
 33
0.0
  0
MTEXT
  5
1F7
330
1F1
100
AcDbEntity
  8
0
 62
     7
100
AcDbMText
 10
159.4749999999999
 20
68.23675596914808
 30
0.0
 40
3.5
 41
0.0
 71
     7
 72
     1
  1
38
  7
CONVERTER_2
 11
0.9999999999970621
 21
2.424068405545307E-6
 31
0.0
 73
     1
 44
0.60024009603842
  0
ENDBLK
  5
1F9
330
1F1
100
AcDbEntity
  8
0
100
AcDbBlockEnd
  0
ENDSEC
  0
SECTION
  2
ENTITIES
  0
INSERT
  5
48
330
1F
100
AcDbEntity
  8
1
100
AcDbBlockReference
  2
36-45
 10
393.7657322428409
 20
161.7382297906939
 30
0.0
  0
INSERT
  5
49
330
1F
100
AcDbEntity
  8
1
100
AcDbBlockReference
  2
V261-13
 10
48.59999999999991
 20
77.23675596914808
 30
0.0
  0
INSERT
  5
4A
330
1F
100
AcDbEntity
  8
1
100
AcDbBlockReference
  2
35-22
 10
83.62836335014151
 20
124.9999839569739
 30
0.0
  0
INSERT
  5
4B
330
1F
100
AcDbEntity
  8
1
100
AcDbBlockReference
  2
32-26-M11-314
 10
4.50000000000001
 20
290.5
 30
0.0
  0
INSERT
  5
4C
330
1F
100
AcDbEntity
  8
0
100
AcDbBlockReference
  2
37-1-13
 10
301.9645020260699
 20
41.77888236912999
 30
0.0
  0
INSERT
  5
4D
330
1F
100
AcDbEntity
  8
1
100
AcDbBlockReference
  2
_J__A4
 10
0.0
 20
0.0
 30
0.0
  0
LINE
  5
1B2
330
1F
100
AcDbEntity
  8
1
  6
DASH_CENTER
 62
     2
100
AcDbLine
 10
143.0999999999999
 20
89.78450393843997
 30
0.0
 11
115.0999999999999
 21
89.78450393843997
 31
0.0
  0
LINE
  5
1B3
330
1F
100
AcDbEntity
  8
1
  6
DASH_CENTER
 62
     2
100
AcDbLine
 10
45.59999999999991
 20
89.78450393843997
 30
0.0
 11
76.59999999999991
 21
89.78450393843997
 31
0.0
  0
LINE
  5
1B4
330
1F
100
AcDbEntity
  8
1
  6
DASH_CENTER
 62
     2
100
AcDbLine
 10
61.09999999999991
 20
134.7833771056857
 30
0.0
 11
61.09999999999991
 21
74.23675596914808
 31
0.0
  0
LINE
  5
1B5
330
1F
100
AcDbEntity
  8
1
  6
DASH_CENTER
 62
     2
100
AcDbLine
 10
184.0999999999999
 20
89.78450393843997
 30
0.0
 11
143.0999999999999
 21
89.78450393843997
 31
0.0
  0
LINE
  5
1B6
330
1F
100
AcDbEntity
  8
1
  6
DASH_CENTER
 62
     2
100
AcDbLine
 10
61.09999999999991
 20
212.7224325720071
 30
0.0
 11
61.09999999999991
 21
241.2224325720071
 31
0.0
  0
LINE
  5
1B7
330
1F
100
AcDbEntity
  8
1
  6
DASH_CENTER
 62
     2
100
AcDbLine
 10
77.09999999999991
 20
200.2224325720071
 30
0.0
 11
45.09999999999991
 21
200.2224325720071
 31
0.0
  0
LINE
  5
1B8
330
1F
100
AcDbEntity
  8
1
  6
DASH_CENTER
 62
     2
100
AcDbLine
 10
61.09999999999991
 20
171.7224325720071
 30
0.0
 11
61.09999999999991
 21
212.7224325720071
 31
0.0
  0
LINE
  5
1B9
330
1F
100
AcDbEntity
  8
1
  6
Continuous
 62
     7
100
AcDbLine
 10
170.5208998479215
 20
124.264236220608
 30
0.0
 11
167.1008998479216
 21
122.314236220608
 31
0.0
  0
LINE
  5
1BA
330
1F
100
AcDbEntity
  8
1
  6
Continuous
 62
     7
100
AcDbLine
 10
167.1008998479216
 20
122.314236220608
 30
0.0
 11
170.5208998479209
 21
120.364236220608
 31
0.0
  0
LINE
  5
1BB
330
1F
100
AcDbEntity
  8
1
  6
Continuous
 62
     7
100
AcDbLine
 10
170.5208998479209
 20
120.364236220608
 30
0.0
 11
170.5208998479215
 21
121.3242362206081
 31
0.0
  0
LINE
  5
1BC
330
1F
100
AcDbEntity
  8
1
  6
Continuous
 62
     7
100
AcDbLine
 10
170.5208998479215
 20
121.3242362206081
 30
0.0
 11
174.1208998479215
 21
121.3242362206081
 31
0.0
  0
LINE
  5
1BD
330
1F
100
AcDbEntity
  8
1
  6
Continuous
 62
     7
100
AcDbLine
 10
174.1208998479215
 20
121.3242362206081
 30
0.0
 11
174.1208998479215
 21
123.3042362206081
 31
0.0
  0
LINE
  5
1BE
330
1F
100
AcDbEntity
  8
1
  6
Continuous
 62
     7
100
AcDbLine
 10
174.1208998479215
 20
123.3042362206081
 30
0.0
 11
170.5208998479215
 21
123.3042362206081
 31
0.0
  0
LINE
  5
1BF
330
1F
100
AcDbEntity
  8
1
  6
Continuous
 62
     7
100
AcDbLine
 10
170.5208998479215
 20
123.3042362206081
 30
0.0
 11
170.5208998479215
 21
124.264236220608
 31
0.0
  0
LINE
  5
1C0
330
1F
100
AcDbEntity
  8
1
  6
DASH_CENTER
 62
     2
100
AcDbLine
 10
143.0999999999999
 20
74.23675596914808
 30
0.0
 11
143.0999999999999
 21
132.2141952266249
 31
0.0
  0
SOLID
  5
1C1
330
1F
100
AcDbEntity
  8
1
 62
     2
100
AcDbTrace
 10
122.0800504258381
 20
76.0455231544167
 30
0.0
 11
121.2819495741617
 21
76.50630689597259
 31
0.0
 12
123.4309999999999
 22
79.30700393844018
 32
0.0
 13
123.4309999999999
 23
79.30700393844018
 33
0.0
  0
LEADER
  5
1C2
330
1F
100
AcDbEntity
  8
1
  6
Continuous
 62
     2
100
AcDbLeader
  3
Standard
 71
     0
 76
     3
 10
123.4309999999999
 20
79.30700393844018
 30
0.0
 10
116.4622390857436
 20
67.23675596914808
 30
0.0
 10
99.6697644506573
 20
67.23675596914808
 30
0.0
  0
SOLID
  5
1C3
330
1F
100
AcDbEntity
  8
1
 62
     2
100
AcDbTrace
 10
182.4509495741617
 20
103.2339847224635
 30
0.0
 11
183.2490504258382
 21
102.7732009809076
 31
0.0
 12
181.0999999999999
 22
99.97250393843999
 32
0.0
 13
181.0999999999999
 23
99.97250393843999
 33
0.0
  0
LEADER
  5
1C4
330
1F
100
AcDbEntity
  8
1
  6
Continuous
 62
     2
100
AcDbLeader
  3
Standard
 71
     0
 76
     3
 10
181.0999999999999
 20
99.97250393843999
 30
0.0
 10
186.5567407544809
 20
109.4238561689327
 30
0.0
 10
171.856271419594
 20
109.4238561689327
 30
0.0
  0
CIRCLE
  5
1C5
102
{ACAD_REACTORS
330
1C6
102
}
330
1F
100
AcDbEntity
  8
1
 62
     2
100
AcDbCircle
 10
143.0999999999999
 20
89.78450393843997
 30
0.0
 40
0.9000000000000001
  0
HATCH
  5
1C6
330
1F
100
AcDbEntity
  8
1
 62
     2
100
AcDbHatch
 10
0.0
 20
0.0
 30
0.0
210
0.0
220
0.0
230
1.0
  2
SOLID
 70
     1
 71
     1
 91
        1
 92
        1
 93
        1
 72
     2
 10
143.0999999999999
 20
89.78450393843997
 40
0.9000000000000001
 50
0.0
 51
360.0
 73
     1
 97
        1
330
1C5
 75
     0
 76
     1
 98
        0
  0
LEADER
  5
1C7
330
1F
100
AcDbEntity
  8
1
  6
Continuous
 62
     2
100
AcDbLeader
  3
Standard
 71
     0
 76
     3
 10
143.0999999999999
 20
89.78450393843997
 30
0.0
 10
165.670954357095
 20
119.314236220608
 30
0.0
 10
175.501735900413
 20
119.314236220608
 30
0.0
  0
MTEXT
  5
1C9
330
1F
100
AcDbEntity
  8
1
 62
     7
100
AcDbMText
 10
93.75
 20
17.0
 30
0.0
 40
3.5
 41
0.0
 71
     5
 72
     1
  1
1
  7
CONVERTER_2
 73
     1
 44
0.7202881152461
  0
MTEXT
  5
1CA
330
1F
100
AcDbEntity
  8
1
 62
     7
100
AcDbMText
 10
85.25
 20
17.0
 30
0.0
 40
3.5
 41
0.0
 71
     5
 72
     1
  1
1
  7
CONVERTER_2
 73
     1
 44
0.7202881152461
  0
MTEXT
  5
1CB
330
1F
100
AcDbEntity
  8
1
 62
     7
100
AcDbMText
 10
34.0
 20
34.00000000000001
 30
0.0
 40
3.5
 41
0.0
 71
     4
 72
     1
  1
共用形
  7
CONVERTER_1
 73
     1
 44
0.7202881152461
  0
MTEXT
  5
1CC
330
1F
100
AcDbEntity
  8
1
 62
     7
100
AcDbMText
 10
179.2065060870375
 20
112.4238561689327
 30
0.0
 40
3.5
 41
0.0
 71
     5
 72
     1
  1
G1/2
  7
CONVERTER_2
 73
     1
 44
0.7202881152461
  0
MTEXT
  5
1CD
330
1F
100
AcDbEntity
  8
0
 62
     7
100
AcDbMText
 10
57.0
 20
14.25
 30
0.0
 40
3.5
 41
0.0
 71
     5
 72
     1
  1
V261D-13
  7
CONVERTER_2
 73
     1
 44
0.7202881152461
  0
MTEXT
  5
1CE
330
1F
100
AcDbEntity
  8
0
 62
     7
100
AcDbMText
 10
57.0
 20
22.75000000000001
 30
0.0
 40
3.5
 41
0.0
 71
     5
 72
     1
  1
D式ナット付化粧バルブ
  7
CONVERTER_1
 73
     1
 44
0.7202881152461
  0
MTEXT
  5
1CF
330
1F
100
AcDbEntity
  8
1
 62
     7
100
AcDbMText
 10
108.0660017682004
 20
70.23675596914808
 30
0.0
 40
3.5
 41
0.0
 71
     5
 72
     1
  1
G1/2
  7
CONVERTER_2
 73
     1
 44
0.7202881152461
  0
DIMENSION
  5
1DA
330
1F
100
AcDbEntity
  8
1
100
AcDbDimension
  2
*D07
 10
108.0999999999999
 20
89.78450393843994
 30
0.0
 11
105.3499999999999
 21
110.78450393844
 31
0.0
  1
42リフト5
 71
     5
 42
0.0
 53
90.0
  3
ME10_DIM_0
100
AcDbAlignedDimension
 13
139.3499999999999
 23
131.7845039384401
 33
0.0
 14
115.0999999999999
 24
89.78450393843997
 34
0.0
 50
90.0
100
AcDbRotatedDimension
  0
DIMENSION
  5
1E5
330
1F
100
AcDbEntity
  8
0
100
AcDbDimension
  2
*D18
 10
191.0999999999999
 20
77.78450393843997
 30
0.0
 11
188.3499999999999
 21
89.97058947866957
 31
0.0
  1
<>
 71
     5
 42
0.0
 53
90.0
  3
ME10_DIM_1
100
AcDbAlignedDimension
 13
179.9121488653217
 23
101.78450393844
 33
0.0
 14
179.9121488653216
 24
77.78450393843997
 34
0.0
 50
90.0
100
AcDbRotatedDimension
  0
DIMENSION
  5
1F0
330
1F
100
AcDbEntity
  8
0
100
AcDbDimension
  2
*D29
 10
118.0999999999999
 20
67.23675596914808
 30
0.0
 11
130.5999999999999
 21
69.98675596914808
 31
0.0
  1
<>
 71
     5
 42
0.0
 53
0.00013888888889
  3
ME10_DIM_2
100
AcDbAlignedDimension
 13
143.0999999999999
 23
74.23675596914808
 33
0.0
 14
118.0999999999999
 24
80.46900393843997
 34
0.0
100
AcDbRotatedDimension
  0
DIMENSION
  5
1FB
330
1F
100
AcDbEntity
  8
0
100
AcDbDimension
  2
*D310
 10
143.0999999999999
 20
67.23675596914808
 30
0.0
 11
162.0999999999999
 21
69.98675596914808
 31
0.0
  1
<>
 71
     5
 42
0.0
 53
0.00013888888889
  3
ME10_DIM_3
100
AcDbAlignedDimension
 13
181.0999999999999
 23
78.42426091679558
 33
0.0
 14
143.0999999999999
 24
74.23675596914808
 34
0.0
100
AcDbRotatedDimension
  0
ENDSEC
  0
SECTION
  2
OBJECTS
  0
DICTIONARY
  5
C
330
0
100
AcDbDictionary
281
     1
  3
ACAD_GROUP
350
D
  3
ACAD_LAYOUT
350
1A
  3
ACAD_MLINESTYLE
350
17
  3
ACAD_PLOTSETTINGS
350
19
  3
ACAD_PLOTSTYLENAME
350
E
  3
ACAD_TABLESTYLE
350
2A
  3
AcDbVariableDictionary
350
2C
  0
DICTIONARY
  5
D
102
{ACAD_REACTORS
330
C
102
}
330
C
100
AcDbDictionary
281
     1
  0
DICTIONARY
  5
1A
102
{ACAD_REACTORS
330
C
102
}
330
C
100
AcDbDictionary
281
     1
  3
Layout1
350
1E
  3
Layout2
350
26
  3
Model
350
22
  0
DICTIONARY
  5
17
102
{ACAD_REACTORS
330
C
102
}
330
C
100
AcDbDictionary
281
     1
  3
Standard
350
18
  0
DICTIONARY
  5
19
102
{ACAD_REACTORS
330
C
102
}
330
C
100
AcDbDictionary
281
     1
  0
ACDBDICTIONARYWDFLT
  5
E
102
{ACAD_REACTORS
330
C
102
}
330
C
100
AcDbDictionary
281
     1
  3
Normal
350
F
100
AcDbDictionaryWithDefault
340
F
  0
DICTIONARY
  5
2A
102
{ACAD_REACTORS
330
C
102
}
330
C
100
AcDbDictionary
281
     1
  3
Standard
350
2B
  0
DICTIONARY
  5
2C
102
{ACAD_REACTORS
330
C
102
}
330
C
100
AcDbDictionary
281
     1
  3
CTABLESTYLE
350
2D
  0
LAYOUT
  5
1E
102
{ACAD_REACTORS
330
1A
102
}
330
1A
100
AcDbPlotSettings
  1

  2

  4

  6

 40
0.0
 41
0.0
 42
0.0
 43
0.0
 44
0.0
 45
0.0
 46
0.0
 47
0.0
 48
0.0
 49
0.0
140
0.0
141
0.0
142
1.0
143
1.0
 70
   688
 72
     0
 73
     0
 74
     5
  7

 75
    16
147
1.0
148
0.0
149
0.0
100
AcDbLayout
  1
Layout1
 70
     1
 71
     1
 10
0.0
 20
0.0
 11
12.0
 21
9.0
 12
0.0
 22
0.0
 32
0.0
 14
1.00000000000000E+20
 24
1.00000000000000E+20
 34
1.00000000000000E+20
 15
-1.00000000000000E+20
 25
-1.00000000000000E+20
 35
-1.00000000000000E+20
146
0.0
 13
0.0
 23
0.0
 33
0.0
 16
1.0
 26
0.0
 36
0.0
 17
0.0
 27
1.0
 37
0.0
 76
     0
330
1B
  0
LAYOUT
  5
26
102
{ACAD_REACTORS
330
1A
102
}
330
1A
100
AcDbPlotSettings
  1

  2

  4

  6

 40
0.0
 41
0.0
 42
0.0
 43
0.0
 44
0.0
 45
0.0
 46
0.0
 47
0.0
 48
0.0
 49
0.0
140
0.0
141
0.0
142
1.0
143
1.0
 70
   688
 72
     0
 73
     0
 74
     5
  7

 75
    16
147
1.0
148
0.0
149
0.0
100
AcDbLayout
  1
Layout2
 70
     1
 71
     2
 10
0.0
 20
0.0
 11
0.0
 21
0.0
 12
0.0
 22
0.0
 32
0.0
 14
0.0
 24
0.0
 34
0.0
 15
0.0
 25
0.0
 35
0.0
146
0.0
 13
0.0
 23
0.0
 33
0.0
 16
1.0
 26
0.0
 36
0.0
 17
0.0
 27
1.0
 37
0.0
 76
     0
330
23
  0
LAYOUT
  5
22
102
{ACAD_REACTORS
330
1A
102
}
330
1A
100
AcDbPlotSettings
  1

  2

  4

  6

 40
0.0
 41
0.0
 42
0.0
 43
0.0
 44
0.0
 45
0.0
 46
0.0
 47
0.0
 48
0.0
 49
0.0
140
0.0
141
0.0
142
1.0
143
1.0
 70
  1712
 72
     0
 73
     0
 74
     0
  7

 75
     0
147
1.0
148
0.0
149
0.0
100
AcDbLayout
  1
Model
 70
     1
 71
     0
 10
0.0
 20
0.0
 11
0.0
 21
0.0
 12
0.0
 22
0.0
 32
0.0
 14
0.0
 24
0.0
 34
0.0
 15
210.0
 25
297.0
 35
0.0
146
0.0
 13
0.0
 23
0.0
 33
0.0
 16
1.0
 26
0.0
 36
0.0
 17
0.0
 27
1.0
 37
0.0
 76
     0
330
1F
  0
MLINESTYLE
  5
18
102
{ACAD_REACTORS
330
17
102
}
330
17
100
AcDbMlineStyle
  2
Standard
 70
     0
  3

 62
   256
 51
90.0
 52
90.0
 71
     2
 49
0.5
 62
   256
  6
BYLAYER
 49
-0.5
 62
   256
  6
BYLAYER
  0
ACDBPLACEHOLDER
  5
F
102
{ACAD_REACTORS
330
E
102
}
330
E
  0
TABLESTYLE
  5
2B
102
{ACAD_REACTORS
330
2A
102
}
330
2A
100
AcDbTableStyle
  3
Standard
 70
     0
 71
     0
 40
0.06
 41
0.06
280
     0
281
     0
  7
Standard
140
0.18
170
     2
 62
     0
 63
     7
283
     0
274
    -2
284
     1
 64
     0
275
    -2
285
     1
 65
     0
276
    -2
286
     1
 66
     0
277
    -2
287
     1
 67
     0
278
    -2
288
     1
 68
     0
279
    -2
289
     1
 69
     0
  7
Standard
140
0.25
170
     5
 62
     0
 63
     7
283
     0
274
    -2
284
     1
 64
     0
275
    -2
285
     1
 65
     0
276
    -2
286
     1
 66
     0
277
    -2
287
     1
 67
     0
278
    -2
288
     1
 68
     0
279
    -2
289
     1
 69
     0
  7
Standard
140
0.18
170
     5
 62
     0
 63
     7
283
     0
274
    -2
284
     1
 64
     0
275
    -2
285
     1
 65
     0
276
    -2
286
     1
 66
     0
277
    -2
287
     1
 67
     0
278
    -2
288
     1
 68
     0
279
    -2
289
     1
 69
     0
  0
DICTIONARYVAR
  5
2D
102
{ACAD_REACTORS
330
2C
102
}
330
2C
100
DictionaryVariables
280
     0
  1
Standard
  0
ENDSEC
  0
EOF
