  0
SECTION
  2
HEADER
  9
$ACADVER
  1
AC1015
  9
$ACADMAINTVER
 70
     6
  9
$DWGCODEPAGE
  3
ANSI_932
  9
$INSBASE
 10
0.0
 20
0.0
 30
0.0
  9
$EXTMIN
 10
0.0
 20
0.0
 30
0.0
  9
$EXTMAX
 10
210.0
 20
297.0
 30
0.0
  9
$LIMMIN
 10
0.0
 20
0.0
  9
$LIMMAX
 10
12.0
 20
9.0
  9
$ORTHOMODE
 70
     0
  9
$REGENMODE
 70
     1
  9
$FILLMODE
 70
     1
  9
$QTEXTMODE
 70
     0
  9
$MIRRTEXT
 70
     1
  9
$LTSCALE
 40
1.0
  9
$ATTMODE
 70
     1
  9
$TEXTSIZE
 40
0.2
  9
$TRACEWID
 40
0.05
  9
$TEXTSTYLE
  7
Standard
  9
$CLAYER
  8
0
  9
$CELTYPE
  6
ByLayer
  9
$CECOLOR
 62
   256
  9
$CELTSCALE
 40
1.0
  9
$DISPSILH
 70
     0
  9
$DIMSCALE
 40
1.0
  9
$DIMASZ
 40
0.18
  9
$DIMEXO
 40
0.0625
  9
$DIMDLI
 40
0.38
  9
$DIMRND
 40
0.0
  9
$DIMDLE
 40
0.0
  9
$DIMEXE
 40
0.18
  9
$DIMTP
 40
0.0
  9
$DIMTM
 40
0.0
  9
$DIMTXT
 40
0.18
  9
$DIMCEN
 40
0.09
  9
$DIMTSZ
 40
0.0
  9
$DIMTOL
 70
     0
  9
$DIMLIM
 70
     0
  9
$DIMTIH
 70
     1
  9
$DIMTOH
 70
     1
  9
$DIMSE1
 70
     0
  9
$DIMSE2
 70
     0
  9
$DIMTAD
 70
     0
  9
$DIMZIN
 70
     0
  9
$DIMBLK
  1

  9
$DIMASO
 70
     1
  9
$DIMSHO
 70
     1
  9
$DIMPOST
  1

  9
$DIMAPOST
  1

  9
$DIMALT
 70
     0
  9
$DIMALTD
 70
     2
  9
$DIMALTF
 40
25.4
  9
$DIMLFAC
 40
1.0
  9
$DIMTOFL
 70
     0
  9
$DIMTVP
 40
0.0
  9
$DIMTIX
 70
     0
  9
$DIMSOXD
 70
     0
  9
$DIMSAH
 70
     0
  9
$DIMBLK1
  1

  9
$DIMBLK2
  1

  9
$DIMSTYLE
  2
Standard
  9
$DIMCLRD
 70
     0
  9
$DIMCLRE
 70
     0
  9
$DIMCLRT
 70
     0
  9
$DIMTFAC
 40
1.0
  9
$DIMGAP
 40
0.09
  9
$DIMJUST
 70
     0
  9
$DIMSD1
 70
     0
  9
$DIMSD2
 70
     0
  9
$DIMTOLJ
 70
     1
  9
$DIMTZIN
 70
     0
  9
$DIMALTZ
 70
     0
  9
$DIMALTTZ
 70
     0
  9
$DIMUPT
 70
     0
  9
$DIMDEC
 70
     4
  9
$DIMTDEC
 70
     4
  9
$DIMALTU
 70
     2
  9
$DIMALTTD
 70
     2
  9
$DIMTXSTY
  7
Standard
  9
$DIMAUNIT
 70
     0
  9
$DIMADEC
 70
     0
  9
$DIMALTRND
 40
0.0
  9
$DIMAZIN
 70
     0
  9
$DIMDSEP
 70
    46
  9
$DIMATFIT
 70
     3
  9
$DIMFRAC
 70
     0
  9
$DIMLDRBLK
  1

  9
$DIMLUNIT
 70
     2
  9
$DIMLWD
 70
    -2
  9
$DIMLWE
 70
    -2
  9
$DIMTMOVE
 70
     0
  9
$LUNITS
 70
     2
  9
$LUPREC
 70
     4
  9
$SKETCHINC
 40
0.1
  9
$FILLETRAD
 40
0.5
  9
$AUNITS
 70
     0
  9
$AUPREC
 70
     0
  9
$MENU
  1
.
  9
$ELEVATION
 40
0.0
  9
$PELEVATION
 40
0.0
  9
$THICKNESS
 40
0.0
  9
$LIMCHECK
 70
     0
  9
$CHAMFERA
 40
0.5
  9
$CHAMFERB
 40
0.5
  9
$CHAMFERC
 40
1.0
  9
$CHAMFERD
 40
0.0
  9
$SKPOLY
 70
     0
  9
$TDCREATE
 40
2456673.471758102
  9
$TDUCREATE
 40
2456673.096758102
  9
$TDUPDATE
 40
2456673.471759178
  9
$TDUUPDATE
 40
2456673.096759178
  9
$TDINDWG
 40
0.0000000116
  9
$TDUSRTIMER
 40
0.0000000116
  9
$USRTIMER
 70
     1
  9
$ANGBASE
 50
0.0
  9
$ANGDIR
 70
     0
  9
$PDMODE
 70
     0
  9
$PDSIZE
 40
0.0
  9
$PLINEWID
 40
0.0
  9
$SPLFRAME
 70
     0
  9
$SPLINETYPE
 70
     6
  9
$SPLINESEGS
 70
     8
  9
$HANDSEED
  5
220
  9
$SURFTAB1
 70
     6
  9
$SURFTAB2
 70
     6
  9
$SURFTYPE
 70
     6
  9
$SURFU
 70
     6
  9
$SURFV
 70
     6
  9
$UCSBASE
  2

  9
$UCSNAME
  2

  9
$UCSORG
 10
0.0
 20
0.0
 30
0.0
  9
$UCSXDIR
 10
1.0
 20
0.0
 30
0.0
  9
$UCSYDIR
 10
0.0
 20
1.0
 30
0.0
  9
$UCSORTHOREF
  2

  9
$UCSORTHOVIEW
 70
     0
  9
$UCSORGTOP
 10
0.0
 20
0.0
 30
0.0
  9
$UCSORGBOTTOM
 10
0.0
 20
0.0
 30
0.0
  9
$UCSORGLEFT
 10
0.0
 20
0.0
 30
0.0
  9
$UCSORGRIGHT
 10
0.0
 20
0.0
 30
0.0
  9
$UCSORGFRONT
 10
0.0
 20
0.0
 30
0.0
  9
$UCSORGBACK
 10
0.0
 20
0.0
 30
0.0
  9
$PUCSBASE
  2

  9
$PUCSNAME
  2

  9
$PUCSORG
 10
0.0
 20
0.0
 30
0.0
  9
$PUCSXDIR
 10
1.0
 20
0.0
 30
0.0
  9
$PUCSYDIR
 10
0.0
 20
1.0
 30
0.0
  9
$PUCSORTHOREF
  2

  9
$PUCSORTHOVIEW
 70
     0
  9
$PUCSORGTOP
 10
0.0
 20
0.0
 30
0.0
  9
$PUCSORGBOTTOM
 10
0.0
 20
0.0
 30
0.0
  9
$PUCSORGLEFT
 10
0.0
 20
0.0
 30
0.0
  9
$PUCSORGRIGHT
 10
0.0
 20
0.0
 30
0.0
  9
$PUCSORGFRONT
 10
0.0
 20
0.0
 30
0.0
  9
$PUCSORGBACK
 10
0.0
 20
0.0
 30
0.0
  9
$USERI1
 70
     0
  9
$USERI2
 70
     0
  9
$USERI3
 70
     0
  9
$USERI4
 70
     0
  9
$USERI5
 70
     0
  9
$USERR1
 40
18.1
  9
$USERR2
 40
0.0
  9
$USERR3
 40
0.0
  9
$USERR4
 40
0.0
  9
$USERR5
 40
0.0
  9
$WORLDVIEW
 70
     1
  9
$SHADEDGE
 70
     3
  9
$SHADEDIF
 70
    70
  9
$TILEMODE
 70
     1
  9
$MAXACTVP
 70
    64
  9
$PINSBASE
 10
0.0
 20
0.0
 30
0.0
  9
$PLIMCHECK
 70
     0
  9
$PEXTMIN
 10
1.00000000000000E+20
 20
1.00000000000000E+20
 30
1.00000000000000E+20
  9
$PEXTMAX
 10
-1.00000000000000E+20
 20
-1.00000000000000E+20
 30
-1.00000000000000E+20
  9
$PLIMMIN
 10
0.0
 20
0.0
  9
$PLIMMAX
 10
12.0
 20
9.0
  9
$UNITMODE
 70
     0
  9
$VISRETAIN
 70
     1
  9
$PLINEGEN
 70
     0
  9
$PSLTSCALE
 70
     1
  9
$TREEDEPTH
 70
  3020
  9
$CMLSTYLE
  2
Standard
  9
$CMLJUST
 70
     0
  9
$CMLSCALE
 40
1.0
  9
$PROXYGRAPHICS
 70
     1
  9
$MEASUREMENT
 70
     1
  9
$CELWEIGHT
370
    -1
  9
$ENDCAPS
280
     0
  9
$JOINSTYLE
280
     0
  9
$LWDISPLAY
290
     0
  9
$INSUNITS
 70
     4
  9
$HYPERLINKBASE
  1

  9
$STYLESHEET
  1

  9
$XEDIT
290
     1
  9
$CEPSNTYPE
380
     0
  9
$PSTYLEMODE
290
     1
  9
$FINGERPRINTGUID
  2
{543C416C-D059-4920-A80A-356D81FD0D51}
  9
$VERSIONGUID
  2
{FAEB1C32-E019-11D5-929B-00C0DF256EC4}
  9
$EXTNAMES
290
     1
  9
$PSVPSCALE
 40
0.0
  9
$OLESTARTUP
290
     0
  0
ENDSEC
  0
SECTION
  2
CLASSES
  0
CLASS
  1
ACDBDICTIONARYWDFLT
  2
AcDbDictionaryWithDefault
  3
ObjectDBX Classes
 90
        0
280
     0
281
     0
  0
CLASS
  1
VISUALSTYLE
  2
AcDbVisualStyle
  3
ObjectDBX Classes
 90
     4095
280
     0
281
     0
  0
CLASS
  1
MATERIAL
  2
AcDbMaterial
  3
ObjectDBX Classes
 90
     1153
280
     0
281
     0
  0
CLASS
  1
DICTIONARYVAR
  2
AcDbDictionaryVar
  3
ObjectDBX Classes
 90
        0
280
     0
281
     0
  0
CLASS
  1
ACDBPLACEHOLDER
  2
AcDbPlaceHolder
  3
ObjectDBX Classes
 90
        0
280
     0
281
     0
  0
CLASS
  1
LAYOUT
  2
AcDbLayout
  3
ObjectDBX Classes
 90
        0
280
     0
281
     0
  0
ENDSEC
  0
SECTION
  2
TABLES
  0
TABLE
  2
VPORT
  5
8
330
0
100
AcDbSymbolTable
 70
     1
  0
VPORT
  5
29
330
8
100
AcDbSymbolTableRecord
100
AcDbViewportTableRecord
  2
*Active
 70
     0
 10
0.0
 20
0.0
 11
1.0
 21
1.0
 12
105.0
 22
148.5
 13
0.0
 23
0.0
 14
0.5
 24
0.5
 15
0.5
 25
0.5
 16
0.0
 26
0.0
 36
1.0
 17
0.0
 27
0.0
 37
0.0
 40
326.7
 41
1.60267857142857
 42
50.0
 43
0.0
 44
0.0
 50
0.0
 51
0.0
 71
     0
 72
   100
 73
     1
 74
     3
 75
     0
 76
     0
 77
     0
 78
     0
281
     0
 65
     1
110
0.0
120
0.0
130
0.0
111
1.0
121
0.0
131
0.0
112
0.0
122
1.0
132
0.0
 79
     0
146
0.0
  0
ENDTAB
  0
TABLE
  2
LTYPE
  5
5
330
0
100
AcDbSymbolTable
 70
     8
  0
LTYPE
  5
14
330
5
100
AcDbSymbolTableRecord
100
AcDbLinetypeTableRecord
  2
ByBlock
 70
     0
  3

 72
    65
 73
     0
 40
0.0
  0
LTYPE
  5
15
330
5
100
AcDbSymbolTableRecord
100
AcDbLinetypeTableRecord
  2
ByLayer
 70
     0
  3

 72
    65
 73
     0
 40
0.0
  0
LTYPE
  5
16
330
5
100
AcDbSymbolTableRecord
100
AcDbLinetypeTableRecord
  2
Continuous
 70
     0
  3
Solid line
 72
    65
 73
     0
 40
0.0
  0
LTYPE
  5
3F
330
5
100
AcDbSymbolTableRecord
100
AcDbLinetypeTableRecord
  2
DASHED
 70
     0
  3
Dashed
 72
    65
 73
     2
 40
15.0
 49
7.0
 74
     0
 49
-8.0
 74
     0
  0
LTYPE
  5
40
330
5
100
AcDbSymbolTableRecord
100
AcDbLinetypeTableRecord
  2
DOTTED
 70
     0
  3
Dotted
 72
    65
 73
     2
 40
1.0
 49
0.0
 74
     0
 49
-1.0
 74
     0
  0
LTYPE
  5
41
330
5
100
AcDbSymbolTableRecord
100
AcDbLinetypeTableRecord
  2
DOT_CENTER
 70
     0
  3
Dot_Center
 72
    65
 73
     4
 40
14.0
 49
12.0
 74
     0
 49
-1.0
 74
     0
 49
0.0
 74
     0
 49
-1.0
 74
     0
  0
LTYPE
  5
42
330
5
100
AcDbSymbolTableRecord
100
AcDbLinetypeTableRecord
  2
LONG_DASHED
 70
     0
  3
Long_Dashed
 72
    65
 73
     2
 40
15.0
 49
10.0
 74
     0
 49
-5.0
 74
     0
  0
LTYPE
  5
43
330
5
100
AcDbSymbolTableRecord
100
AcDbLinetypeTableRecord
  2
DASH_CENTER
 70
     0
  3
Dash_Center
 72
    65
 73
     4
 40
14.0
 49
11.0
 74
     0
 49
-1.0
 74
     0
 49
1.0
 74
     0
 49
-1.0
 74
     0
  0
LTYPE
  5
44
330
5
100
AcDbSymbolTableRecord
100
AcDbLinetypeTableRecord
  2
PHANTOM
 70
     0
  3
Phantom
 72
    65
 73
     6
 40
13.0
 49
10.0
 74
     0
 49
-1.0
 74
     0
 49
0.0
 74
     0
 49
-1.0
 74
     0
 49
0.0
 74
     0
 49
-1.0
 74
     0
  0
LTYPE
  5
45
330
5
100
AcDbSymbolTableRecord
100
AcDbLinetypeTableRecord
  2
CENTER_DASH_DASH
 70
     0
  3
Center_Dash_Dash
 72
    65
 73
     6
 40
14.0
 49
9.0
 74
     0
 49
-1.0
 74
     0
 49
1.0
 74
     0
 49
-1.0
 74
     0
 49
1.0
 74
     0
 49
-1.0
 74
     0
  0
ENDTAB
  0
TABLE
  2
LAYER
  5
2
330
0
100
AcDbSymbolTable
 70
     2
  0
LAYER
  5
10
330
2
100
AcDbSymbolTableRecord
100
AcDbLayerTableRecord
  2
0
 70
     0
 62
     7
  6
Continuous
370
    -3
390
F
  0
LAYER
  5
46
330
2
100
AcDbSymbolTableRecord
100
AcDbLayerTableRecord
  2
1
 70
     0
 62
     7
  6
Continuous
370
    -3
390
F
  0
ENDTAB
  0
TABLE
  2
STYLE
  5
3
330
0
100
AcDbSymbolTable
 70
     3
  0
STYLE
  5
11
330
3
100
AcDbSymbolTableRecord
100
AcDbTextStyleTableRecord
  2
Standard
 70
     0
 40
0.0
 41
1.0
 50
0.0
 71
     0
 42
0.2
  3
txt
  4

  0
STYLE
  5
BE
330
3
100
AcDbSymbolTableRecord
100
AcDbTextStyleTableRecord
  2
CONVERTER_11
 70
     0
 40
0.0
 41
0.89
 50
0.0
 71
     0
 42
0.2
  3
MS Mincho.ttf
  4

1001
ACAD
1000
MS Mincho
1071
    32785
  0
STYLE
  5
1C0
330
3
100
AcDbSymbolTableRecord
100
AcDbTextStyleTableRecord
  2
CONVERTER_12
 70
     0
 40
0.0
 41
0.9
 50
0.0
 71
     0
 42
0.2
  3
txt.shx
  4

  0
ENDTAB
  0
TABLE
  2
VIEW
  5
6
330
0
100
AcDbSymbolTable
 70
     0
  0
ENDTAB
  0
TABLE
  2
UCS
  5
7
330
0
100
AcDbSymbolTable
 70
     0
  0
ENDTAB
  0
TABLE
  2
APPID
  5
9
330
0
100
AcDbSymbolTable
 70
     1
  0
APPID
  5
12
330
9
100
AcDbSymbolTableRecord
100
AcDbRegAppTableRecord
  2
ACAD
 70
     0
  0
ENDTAB
  0
TABLE
  2
DIMSTYLE
  5
A
330
0
100
AcDbSymbolTable
 70
     5
100
AcDbDimStyleTable
  0
DIMSTYLE
105
27
330
A
100
AcDbSymbolTableRecord
100
AcDbDimStyleTableRecord
  2
Standard
 70
     0
178
     0
340
11
  0
DIMSTYLE
105
1D2
102
{ACAD_REACTORS
330
1D3
102
}
330
A
100
AcDbSymbolTableRecord
100
AcDbDimStyleTableRecord
  2
ME10_DIM_10
 70
     0
 41
3.5
 42
0.0
 44
1.0
 73
     0
 74
     0
 77
     1
 78
     8
140
3.5
147
1.0
172
     1
173
     1
174
     1
175
     1
176
     2
177
     2
271
     2
178
     7
271
     2
340
BE
  0
DIMSTYLE
105
1DD
102
{ACAD_REACTORS
330
1DE
102
}
330
A
100
AcDbSymbolTableRecord
100
AcDbDimStyleTableRecord
  2
ME10_DIM_11
 70
     0
 41
3.5
 42
0.0
 44
1.0
 73
     0
 74
     0
 77
     1
 78
     8
140
3.5
147
1.0
172
     1
173
     1
174
     1
175
     1
176
     2
177
     2
271
     2
178
     7
271
     2
340
1C0
  0
DIMSTYLE
105
1E8
102
{ACAD_REACTORS
330
1E9
102
}
330
A
100
AcDbSymbolTableRecord
100
AcDbDimStyleTableRecord
  2
ME10_DIM_12
 70
     0
 41
3.5
 42
0.0
 44
1.0
 73
     0
 74
     0
 77
     1
 78
     8
140
3.5
147
1.0
172
     1
173
     1
174
     1
175
     1
176
     2
177
     2
271
     2
178
     7
271
     2
340
1C0
  0
DIMSTYLE
105
1F3
102
{ACAD_REACTORS
330
1F4
102
}
330
A
100
AcDbSymbolTableRecord
100
AcDbDimStyleTableRecord
  2
ME10_DIM_13
 70
     0
 41
3.5
 42
0.0
 44
1.0
 73
     0
 74
     0
 77
     1
 78
     8
140
3.5
147
1.0
172
     1
173
     1
174
     1
175
     1
176
     2
177
     2
271
     2
178
     7
271
     2
340
1C0
  0
ENDTAB
  0
TABLE
  2
BLOCK_RECORD
  5
1
330
0
100
AcDbSymbolTable
 70
    16
  0
BLOCK_RECORD
  5
1F
330
1
100
AcDbSymbolTableRecord
100
AcDbBlockTableRecord
  2
*Model_Space
340
22
  0
BLOCK_RECORD
  5
1B
330
1
100
AcDbSymbolTableRecord
100
AcDbBlockTableRecord
  2
*Paper_Space
340
1E
  0
BLOCK_RECORD
  5
23
330
1
100
AcDbSymbolTableRecord
100
AcDbBlockTableRecord
  2
*Paper_Space0
340
26
  0
BLOCK_RECORD
  5
47
330
1
100
AcDbSymbolTableRecord
100
AcDbBlockTableRecord
  2
開示A4
340
0
102
{BLKREFS
331
6E
102
}
  0
BLOCK_RECORD
  5
4A
330
1
100
AcDbSymbolTableRecord
100
AcDbBlockTableRecord
  2
V26-0
340
0
102
{BLKREFS
331
6F
102
}
  0
BLOCK_RECORD
  5
4D
330
1
100
AcDbSymbolTableRecord
100
AcDbBlockTableRecord
  2
36-54-M11K
340
0
102
{BLKREFS
331
60
102
}
  0
BLOCK_RECORD
  5
50
330
1
100
AcDbSymbolTableRecord
100
AcDbBlockTableRecord
  2
91-1K
340
0
102
{BLKREFS
331
61
102
}
  0
BLOCK_RECORD
  5
53
330
1
100
AcDbSymbolTableRecord
100
AcDbBlockTableRecord
  2
37-1-13
340
0
102
{BLKREFS
331
62
102
}
  0
BLOCK_RECORD
  5
56
330
1
100
AcDbSymbolTableRecord
100
AcDbBlockTableRecord
  2
42-15
340
0
102
{BLKREFS
331
63
102
}
  0
BLOCK_RECORD
  5
59
330
1
100
AcDbSymbolTableRecord
100
AcDbBlockTableRecord
  2
36-54A
340
0
102
{BLKREFS
331
64
102
}
  0
BLOCK_RECORD
  5
5C
330
1
100
AcDbSymbolTableRecord
100
AcDbBlockTableRecord
  2
21-1C
340
0
102
{BLKREFS
331
65
102
}
  0
BLOCK_RECORD
  5
5F
330
1
100
AcDbSymbolTableRecord
100
AcDbBlockTableRecord
  2
R10AK-13Z
340
0
102
{BLKREFS
331
70
102
}
  0
BLOCK_RECORD
  5
68
330
1
100
AcDbSymbolTableRecord
100
AcDbBlockTableRecord
  2
35-22
340
0
102
{BLKREFS
331
71
102
}
  0
BLOCK_RECORD
  5
6B
330
1
100
AcDbSymbolTableRecord
100
AcDbBlockTableRecord
  2
32-26
340
0
102
{BLKREFS
331
72
102
}
  0
BLOCK_RECORD
  5
1C9
330
1
100
AcDbSymbolTableRecord
100
AcDbBlockTableRecord
  2
*D12
340
0
  0
BLOCK_RECORD
  5
1D4
330
1
100
AcDbSymbolTableRecord
100
AcDbBlockTableRecord
  2
*D13
340
0
  0
BLOCK_RECORD
  5
1DF
330
1
100
AcDbSymbolTableRecord
100
AcDbBlockTableRecord
  2
*D14
340
0
  0
BLOCK_RECORD
  5
1EA
330
1
100
AcDbSymbolTableRecord
100
AcDbBlockTableRecord
  2
*D15
340
0
  0
ENDTAB
  0
ENDSEC
  0
SECTION
  2
BLOCKS
  0
BLOCK
  5
20
330
1F
100
AcDbEntity
  8
0
100
AcDbBlockBegin
  2
*Model_Space
 70
     0
 10
0.0
 20
0.0
 30
0.0
  3
*Model_Space
  1

  0
ENDBLK
  5
21
330
1F
100
AcDbEntity
  8
0
100
AcDbBlockEnd
  0
BLOCK
  5
1C
330
1B
100
AcDbEntity
 67
     1
  8
0
100
AcDbBlockBegin
  2
*Paper_Space
 70
     0
 10
0.0
 20
0.0
 30
0.0
  3
*Paper_Space
  1

  0
ENDBLK
  5
1D
330
1B
100
AcDbEntity
 67
     1
  8
0
100
AcDbBlockEnd
  0
BLOCK
  5
24
330
23
100
AcDbEntity
  8
0
100
AcDbBlockBegin
  2
*Paper_Space0
 70
     0
 10
0.0
 20
0.0
 30
0.0
  3
*Paper_Space0
  1

  0
ENDBLK
  5
25
330
23
100
AcDbEntity
  8
0
100
AcDbBlockEnd
  0
BLOCK
  5
48
330
47
100
AcDbEntity
  8
0
100
AcDbBlockBegin
  2
開示A4
 70
     0
 10
0.0
 20
0.0
 30
0.0
  3
開示A4
  1

  0
POINT
  5
73
330
47
100
AcDbEntity
  8
1
 62
     4
100
AcDbPoint
 10
93.75
 20
17.0
 30
0.0
  0
POINT
  5
74
330
47
100
AcDbEntity
  8
1
 62
     4
100
AcDbPoint
 10
85.25
 20
17.0
 30
0.0
  0
POINT
  5
75
330
47
100
AcDbEntity
  8
1
 62
     4
100
AcDbPoint
 10
106.5
 20
19.00000000000001
 30
0.0
  0
POINT
  5
76
330
47
100
AcDbEntity
  8
1
 62
     4
100
AcDbPoint
 10
106.5
 20
12.5
 30
0.0
  0
POINT
  5
77
330
47
100
AcDbEntity
  8
1
 62
     4
100
AcDbPoint
 10
112.25
 20
12.5
 30
0.0
  0
POINT
  5
78
330
47
100
AcDbEntity
  8
1
 62
     4
100
AcDbPoint
 10
100.75
 20
12.5
 30
0.0
  0
POINT
  5
79
330
47
100
AcDbEntity
  8
1
 62
     4
100
AcDbPoint
 10
123.5
 20
19.00000000000001
 30
0.0
  0
POINT
  5
7A
330
47
100
AcDbEntity
  8
1
 62
     4
100
AcDbPoint
 10
123.5
 20
12.5
 30
0.0
  0
POINT
  5
7B
330
47
100
AcDbEntity
  8
1
 62
     4
100
AcDbPoint
 10
129.25
 20
12.5
 30
0.0
  0
POINT
  5
7C
330
47
100
AcDbEntity
  8
1
 62
     4
100
AcDbPoint
 10
117.75
 20
12.5
 30
0.0
  0
POINT
  5
7D
330
47
100
AcDbEntity
  8
1
 62
     4
100
AcDbPoint
 10
140.5
 20
19.00000000000001
 30
0.0
  0
POINT
  5
7E
330
47
100
AcDbEntity
  8
1
 62
     4
100
AcDbPoint
 10
140.5
 20
12.5
 30
0.0
  0
POINT
  5
7F
330
47
100
AcDbEntity
  8
1
 62
     4
100
AcDbPoint
 10
146.25
 20
12.5
 30
0.0
  0
POINT
  5
80
330
47
100
AcDbEntity
  8
1
 62
     4
100
AcDbPoint
 10
134.75
 20
12.5
 30
0.0
  0
POINT
  5
81
330
47
100
AcDbEntity
  8
1
 62
     4
100
AcDbPoint
 10
151.75
 20
12.5
 30
0.0
  0
POINT
  5
82
330
47
100
AcDbEntity
  8
1
 62
     4
100
AcDbPoint
 10
163.25
 20
12.5
 30
0.0
  0
POINT
  5
83
330
47
100
AcDbEntity
  8
1
 62
     4
100
AcDbPoint
 10
157.5
 20
12.5
 30
0.0
  0
POINT
  5
84
330
47
100
AcDbEntity
  8
1
 62
     4
100
AcDbPoint
 10
57.0
 20
14.25
 30
0.0
  0
POINT
  5
85
330
47
100
AcDbEntity
  8
1
 62
     4
100
AcDbPoint
 10
57.0
 20
22.75000000000001
 30
0.0
  0
POINT
  5
86
330
47
100
AcDbEntity
  8
1
 62
     4
100
AcDbPoint
 10
47.5
 20
282.0000000000003
 30
0.0
  0
POINT
  5
87
330
47
100
AcDbEntity
  8
1
 62
     4
100
AcDbPoint
 10
157.5
 20
19.00000000000001
 30
0.0
  0
POINT
  5
88
330
47
100
AcDbEntity
  8
1
 62
     4
100
AcDbPoint
 10
57.0
 20
16.25
 30
0.0
  0
POINT
  5
89
330
47
100
AcDbEntity
  8
1
 62
     4
100
AcDbPoint
 10
57.0
 20
24.75000000000001
 30
0.0
  0
POINT
  5
8A
330
47
100
AcDbEntity
  8
1
 62
     4
100
AcDbPoint
 10
57.0
 20
20.75000000000001
 30
0.0
  0
POINT
  5
8B
330
47
100
AcDbEntity
  8
1
 62
     4
100
AcDbPoint
 10
57.0
 20
12.25
 30
0.0
  0
POINT
  5
8C
330
47
100
AcDbEntity
  8
1
 62
     4
100
AcDbPoint
 10
34.0
 20
34.00000000000001
 30
0.0
  0
LINE
  5
8D
330
47
100
AcDbEntity
  8
1
  6
Continuous
 62
     7
100
AcDbLine
 10
105.0
 20
10.0
 30
0.0
 11
200.0
 21
10.0
 31
0.0
  0
LINE
  5
8E
330
47
100
AcDbEntity
  8
1
  6
Continuous
 62
     2
100
AcDbLine
 10
105.0
 20
10.0
 30
0.0
 11
105.0
 21
5.0
 31
0.0
  0
LINE
  5
8F
330
47
100
AcDbEntity
  8
1
  6
Continuous
 62
     7
100
AcDbLine
 10
200.0
 20
148.5
 30
0.0
 11
200.0
 21
287.0000000000003
 31
0.0
  0
LINE
  5
90
330
47
100
AcDbEntity
  8
1
  6
Continuous
 62
     2
100
AcDbLine
 10
200.0
 20
148.5
 30
0.0
 11
205.0
 21
148.5
 31
0.0
  0
LINE
  5
91
330
47
100
AcDbEntity
  8
1
  6
Continuous
 62
     7
100
AcDbLine
 10
25.0
 20
148.5
 30
0.0
 11
25.0
 21
287.0000000000003
 31
0.0
  0
LINE
  5
92
330
47
100
AcDbEntity
  8
1
  6
Continuous
 62
     2
100
AcDbLine
 10
25.0
 20
148.5
 30
0.0
 11
20.0
 21
148.5
 31
0.0
  0
LINE
  5
93
330
47
100
AcDbEntity
  8
1
  6
Continuous
 62
     7
100
AcDbLine
 10
105.0
 20
287.0000000000003
 30
0.0
 11
25.0
 21
287.0000000000003
 31
0.0
  0
LINE
  5
94
330
47
100
AcDbEntity
  8
1
  6
Continuous
 62
     2
100
AcDbLine
 10
105.0
 20
287.0000000000003
 30
0.0
 11
105.0
 21
292.0000000000003
 31
0.0
  0
LINE
  5
95
330
47
100
AcDbEntity
  8
1
  6
Continuous
 62
     2
100
AcDbLine
 10
166.0
 20
20.00000000000001
 30
0.0
 11
200.0
 21
20.00000000000001
 31
0.0
  0
LINE
  5
96
330
47
100
AcDbEntity
  8
1
  6
Continuous
 62
     2
100
AcDbLine
 10
98.0
 20
27.00000000000001
 30
0.0
 11
98.0
 21
9.99999999999999
 31
0.0
  0
LINE
  5
97
330
47
100
AcDbEntity
  8
1
  6
Continuous
 62
     2
100
AcDbLine
 10
115.0
 20
27.00000000000001
 30
0.0
 11
115.0
 21
9.99999999999999
 31
0.0
  0
LINE
  5
98
330
47
100
AcDbEntity
  8
1
  6
Continuous
 62
     2
100
AcDbLine
 10
149.0
 20
27.00000000000001
 30
0.0
 11
149.0
 21
10.0
 31
0.0
  0
LINE
  5
99
330
47
100
AcDbEntity
  8
1
  6
Continuous
 62
     2
100
AcDbLine
 10
132.0
 20
27.00000000000001
 30
0.0
 11
132.0
 21
9.99999999999999
 31
0.0
  0
LINE
  5
9A
330
47
100
AcDbEntity
  8
1
  6
Continuous
 62
     2
100
AcDbLine
 10
166.0
 20
27.00000000000001
 30
0.0
 11
166.0
 21
10.0
 31
0.0
  0
LINE
  5
9B
330
47
100
AcDbEntity
  8
1
  6
Continuous
 62
     2
100
AcDbLine
 10
55.0
 20
277.0000000000003
 30
0.0
 11
25.0
 21
277.0000000000003
 31
0.0
  0
LINE
  5
9C
330
47
100
AcDbEntity
  8
1
  6
Continuous
 62
     7
100
AcDbLine
 10
25.0
 20
10.0
 30
0.0
 11
25.0
 21
148.5
 31
0.0
  0
LINE
  5
9D
330
47
100
AcDbEntity
  8
1
  6
Continuous
 62
     2
100
AcDbLine
 10
40.0
 20
287.0000000000003
 30
0.0
 11
40.0
 21
277.0000000000003
 31
0.0
  0
LINE
  5
9E
330
47
100
AcDbEntity
  8
1
  6
Continuous
 62
     2
100
AcDbLine
 10
55.0
 20
287.0000000000003
 30
0.0
 11
55.0
 21
277.0000000000003
 31
0.0
  0
LINE
  5
9F
330
47
100
AcDbEntity
  8
1
  6
Continuous
 62
     2
100
AcDbLine
 10
33.0
 20
41.00000000000001
 30
0.0
 11
33.0
 21
27.0
 31
0.0
  0
LINE
  5
A0
330
47
100
AcDbEntity
  8
1
  6
Continuous
 62
     7
100
AcDbLine
 10
200.0
 20
27.00000000000001
 30
0.0
 11
25.0
 21
27.00000000000001
 31
0.0
  0
LINE
  5
A1
330
47
100
AcDbEntity
  8
1
  6
Continuous
 62
     7
100
AcDbLine
 10
25.0
 20
41.0
 30
0.0
 11
200.0
 21
41.0
 31
0.0
  0
LINE
  5
A2
330
47
100
AcDbEntity
  8
1
  6
PHANTOM
 62
     4
100
AcDbLine
 10
0.0
 20
0.0
 30
0.0
 11
210.0
 21
0.0
 31
0.0
  0
LINE
  5
A3
330
47
100
AcDbEntity
  8
1
  6
PHANTOM
 62
     4
100
AcDbLine
 10
210.0
 20
0.0
 30
0.0
 11
210.0
 21
297.0
 31
0.0
  0
LINE
  5
A4
330
47
100
AcDbEntity
  8
1
  6
PHANTOM
 62
     4
100
AcDbLine
 10
210.0
 20
297.0
 30
0.0
 11
0.0
 21
297.0
 31
0.0
  0
LINE
  5
A5
330
47
100
AcDbEntity
  8
1
  6
PHANTOM
 62
     4
100
AcDbLine
 10
0.0
 20
297.0
 30
0.0
 11
0.0
 21
0.0
 31
0.0
  0
LINE
  5
A6
330
47
100
AcDbEntity
  8
1
  6
Continuous
 62
     7
100
AcDbLine
 10
25.0
 20
10.0
 30
0.0
 11
105.0
 21
10.0
 31
0.0
  0
LINE
  5
A7
330
47
100
AcDbEntity
  8
1
  6
Continuous
 62
     7
100
AcDbLine
 10
200.0
 20
10.0
 30
0.0
 11
200.0
 21
148.5
 31
0.0
  0
LINE
  5
A8
330
47
100
AcDbEntity
  8
1
  6
Continuous
 62
     7
100
AcDbLine
 10
200.0
 20
287.0000000000003
 30
0.0
 11
105.0
 21
287.0000000000003
 31
0.0
  0
LINE
  5
A9
330
47
100
AcDbEntity
  8
1
  6
Continuous
 62
     2
100
AcDbLine
 10
25.0
 20
18.50000000000001
 30
0.0
 11
81.0
 21
18.50000000000001
 31
0.0
  0
LINE
  5
AA
330
47
100
AcDbEntity
  8
1
  6
Continuous
 62
     2
100
AcDbLine
 10
33.0
 20
27.0
 30
0.0
 11
33.0
 21
10.0
 31
0.0
  0
LINE
  5
AB
330
47
100
AcDbEntity
  8
1
  6
Continuous
 62
     7
100
AcDbLine
 10
191.0
 20
24.70000000000001
 30
0.0
 11
191.0
 21
22.30000000000001
 31
0.0
  0
LINE
  5
AC
330
47
100
AcDbEntity
  8
1
  6
Continuous
 62
     7
100
AcDbLine
 10
191.0
 20
24.70000000000001
 30
0.0
 11
196.0
 21
25.50000000000001
 31
0.0
  0
LINE
  5
AD
330
47
100
AcDbEntity
  8
1
  6
Continuous
 62
     7
100
AcDbLine
 10
196.0
 20
25.50000000000001
 30
0.0
 11
196.0
 21
21.50000000000001
 31
0.0
  0
LINE
  5
AE
330
47
100
AcDbEntity
  8
1
  6
Continuous
 62
     7
100
AcDbLine
 10
196.0
 20
21.50000000000001
 30
0.0
 11
191.0
 21
22.30000000000001
 31
0.0
  0
LINE
  5
AF
330
47
100
AcDbEntity
  8
1
  6
DOT_CENTER
 62
     2
100
AcDbLine
 10
184.0
 20
23.50000000000001
 30
0.0
 11
197.0
 21
23.50000000000001
 31
0.0
  0
LINE
  5
B0
330
47
100
AcDbEntity
  8
1
  6
DOT_CENTER
 62
     2
100
AcDbLine
 10
187.0
 20
26.50000000000001
 30
0.0
 11
187.0
 21
20.50000000000001
 31
0.0
  0
LINE
  5
B1
330
47
100
AcDbEntity
  8
1
  6
Continuous
 62
     2
100
AcDbLine
 10
81.0
 20
27.00000000000001
 30
0.0
 11
81.0
 21
10.0
 31
0.0
  0
CIRCLE
  5
B2
330
47
100
AcDbEntity
  8
1
  6
Continuous
 62
     7
100
AcDbCircle
 10
103.5
 20
12.5
 30
0.0
 40
0.2999999999999972
  0
CIRCLE
  5
B3
330
47
100
AcDbEntity
  8
1
  6
Continuous
 62
     7
100
AcDbCircle
 10
109.5
 20
12.5
 30
0.0
 40
0.2999999999999972
  0
CIRCLE
  5
B4
330
47
100
AcDbEntity
  8
1
  6
Continuous
 62
     7
100
AcDbCircle
 10
120.5
 20
12.5
 30
0.0
 40
0.2999999999999972
  0
CIRCLE
  5
B5
330
47
100
AcDbEntity
  8
1
  6
Continuous
 62
     7
100
AcDbCircle
 10
126.5
 20
12.5
 30
0.0
 40
0.2999999999999972
  0
CIRCLE
  5
B6
330
47
100
AcDbEntity
  8
1
  6
Continuous
 62
     7
100
AcDbCircle
 10
137.5
 20
12.5
 30
0.0
 40
0.3000000000000114
  0
CIRCLE
  5
B7
330
47
100
AcDbEntity
  8
1
  6
Continuous
 62
     7
100
AcDbCircle
 10
143.5
 20
12.5
 30
0.0
 40
0.3000000000000114
  0
CIRCLE
  5
B8
330
47
100
AcDbEntity
  8
1
  6
Continuous
 62
     7
100
AcDbCircle
 10
160.5
 20
12.5
 30
0.0
 40
0.3000000000000114
  0
CIRCLE
  5
B9
330
47
100
AcDbEntity
  8
1
  6
Continuous
 62
     7
100
AcDbCircle
 10
154.5
 20
12.5
 30
0.0
 40
0.3000000000000114
  0
CIRCLE
  5
BA
330
47
100
AcDbEntity
  8
1
  6
Continuous
 62
     7
100
AcDbCircle
 10
187.0
 20
23.50000000000001
 30
0.0
 40
1.200000000000102
  0
CIRCLE
  5
BB
330
47
100
AcDbEntity
  8
1
  6
Continuous
 62
     7
100
AcDbCircle
 10
187.0
 20
23.50000000000001
 30
0.0
 40
2.0
  0
CIRCLE
  5
BC
330
47
100
AcDbEntity
  8
1
  6
DOT_CENTER
 62
     7
100
AcDbCircle
 10
89.5
 20
16.0
 30
0.0
 40
0.1000000000000227
  0
CIRCLE
  5
BD
330
47
100
AcDbEntity
  8
1
  6
DOT_CENTER
 62
     7
100
AcDbCircle
 10
89.5
 20
18.0
 30
0.0
 40
0.1000000000000227
  0
MTEXT
  5
BF
330
47
100
AcDbEntity
  8
1
 62
     7
100
AcDbMText
 10
188.5
 20
15.0
 30
0.0
 40
3.0
 41
0.0
 71
     5
 72
     1
  1
三栄水栓製作所
  7
CONVERTER_11
 73
     1
 44
1.0
  0
MTEXT
  5
C0
330
47
100
AcDbEntity
  8
1
 62
     7
100
AcDbMText
 10
171.5
 20
15.0
 30
0.0
 40
2.5
 41
0.0
 71
     5
 72
     1
  1
株式会社
  7
CONVERTER_11
 73
     1
 44
1.0
  0
MTEXT
  5
C1
330
47
100
AcDbEntity
  8
1
 62
     2
100
AcDbMText
 10
32.5
 20
282.0000000000003
 30
0.0
 40
5.0
 41
0.0
 71
     5
 72
     1
  1
図番
  7
CONVERTER_11
 73
     1
 44
0.45454545454545
  0
MTEXT
  5
C2
330
47
100
AcDbEntity
  8
1
 62
     2
100
AcDbMText
 10
29.0
 20
34.00000000000001
 30
0.0
 40
3.5
 41
0.0
 71
     5
 72
     1
  1
備考
  7
CONVERTER_11
 73
     1
 44
0.45454545454545
  0
MTEXT
  5
C3
330
47
100
AcDbEntity
  8
1
 62
     2
100
AcDbMText
 10
29.0
 20
22.75
 30
0.0
 40
3.5
 41
0.0
 71
     5
 72
     1
  1
品名
  7
CONVERTER_11
 73
     1
 44
0.72727272727273
  0
MTEXT
  5
C4
330
47
100
AcDbEntity
  8
1
 62
     2
100
AcDbMText
 10
29.0
 20
14.25
 30
0.0
 40
3.5
 41
0.0
 71
     5
 72
     1
  1
品番
  7
CONVERTER_11
 73
     1
 44
0.72727272727273
  0
MTEXT
  5
C5
330
47
100
AcDbEntity
  8
1
 62
     2
100
AcDbMText
 10
101.5
 20
25.00000000000001
 30
0.0
 40
3.0
 41
0.0
 71
     5
 72
     1
  1
承認
  7
CONVERTER_11
 73
     1
 44
0.59090909090909
  0
MTEXT
  5
C6
330
47
100
AcDbEntity
  8
1
 62
     2
100
AcDbMText
 10
175.0
 20
23.50000000000001
 30
0.0
 40
3.5
 41
0.0
 71
     5
 72
     1
  1
第三角法
  7
CONVERTER_11
 73
     1
 44
0.54545454545455
  0
MTEXT
  5
C7
330
47
100
AcDbEntity
  8
1
 62
     2
100
AcDbMText
 10
118.5
 20
25.00000000000001
 30
0.0
 40
3.0
 41
0.0
 71
     5
 72
     1
  1
検図
  7
CONVERTER_11
 73
     1
 44
0.59090909090909
  0
MTEXT
  5
C8
330
47
100
AcDbEntity
  8
1
 62
     2
100
AcDbMText
 10
152.5
 20
25.00000000000001
 30
0.0
 40
3.0
 41
0.0
 71
     5
 72
     1
  1
設計
  7
CONVERTER_11
 73
     1
 44
0.59090909090909
  0
MTEXT
  5
C9
330
47
100
AcDbEntity
  8
1
 62
     2
100
AcDbMText
 10
135.5
 20
25.00000000000001
 30
0.0
 40
3.0
 41
0.0
 71
     5
 72
     1
  1
製図
  7
CONVERTER_11
 73
     1
 44
0.59090909090909
  0
MTEXT
  5
CA
330
47
100
AcDbEntity
  8
1
 62
     2
100
AcDbMText
 10
89.5
 20
24.00000000000001
 30
0.0
 40
3.5
 41
0.0
 71
     5
 72
     1
  1
尺度
  7
CONVERTER_11
 73
     1
 44
0.54545454545455
  0
MTEXT
  5
CB
330
47
100
AcDbEntity
  8
1
 62
   250
100
AcDbMText
 10
25.0
 20
5.0
 30
0.0
 40
3.5
 41
0.0
 71
     4
 72
     1
  1
備考欄の文字列 原点位置=4
  7
CONVERTER_11
 73
     1
 44
0.54545454545455
  0
ENDBLK
  5
49
330
47
100
AcDbEntity
  8
0
100
AcDbBlockEnd
  0
BLOCK
  5
4B
330
4A
100
AcDbEntity
  8
0
100
AcDbBlockBegin
  2
V26-0
 70
     0
 10
109.521385661977
 20
76.91195469378013
 30
0.0
  3
V26-0
  1

  0
LINE
  5
CC
330
4A
100
AcDbEntity
  8
1
  6
Continuous
 62
     7
100
AcDbLine
 10
57.2047608716215
 20
168.887373625955
 30
0.0
 11
51.20588566197696
 21
168.887373625955
 31
0.0
  0
LINE
  5
CD
330
4A
100
AcDbEntity
  8
1
  6
Continuous
 62
     7
100
AcDbLine
 10
55.90947109208298
 20
170.049373625955
 30
0.0
 11
50.04388566197696
 21
170.049373625955
 31
0.0
  0
LINE
  5
CE
330
4A
100
AcDbEntity
  8
1
  6
Continuous
 62
     7
100
AcDbLine
 10
50.04388566197696
 20
177.887373625955
 30
0.0
 11
53.23793180979196
 21
177.887373625955
 31
0.0
  0
LINE
  5
CF
330
4A
100
AcDbEntity
  8
1
  6
Continuous
 62
     2
100
AcDbLine
 10
128.334385661977
 20
113.9119546937802
 30
0.0
 11
127.521385661977
 21
112.5037973872267
 31
0.0
  0
LINE
  5
D0
330
4A
100
AcDbEntity
  8
1
  6
Continuous
 62
     2
100
AcDbLine
 10
128.334385661977
 20
115.3416459819651
 30
0.0
 11
128.334385661977
 21
113.9119546937802
 31
0.0
  0
LINE
  5
D1
330
4A
100
AcDbEntity
  8
1
  6
Continuous
 62
     2
100
AcDbLine
 10
151.521385661977
 20
112.5037973872267
 30
0.0
 11
150.708385661977
 21
113.9119546937802
 31
0.0
  0
LINE
  5
D2
330
4A
100
AcDbEntity
  8
1
  6
Continuous
 62
     2
100
AcDbLine
 10
150.708385661977
 20
113.9119546937802
 30
0.0
 11
150.708385661977
 21
115.3416459819651
 31
0.0
  0
LINE
  5
D3
330
4A
100
AcDbEntity
  8
1
  6
Continuous
 62
     7
100
AcDbLine
 10
151.521385661977
 20
113.9119546937802
 30
0.0
 11
127.521385661977
 21
113.9119546937802
 31
0.0
  0
LINE
  5
D4
330
4A
100
AcDbEntity
  8
1
  6
Continuous
 62
     7
100
AcDbLine
 10
50.52138566197695
 20
228.887373625955
 30
0.0
 11
70.52138566197695
 21
228.887373625955
 31
0.0
  0
LINE
  5
D5
330
4A
100
AcDbEntity
  8
1
  6
Continuous
 62
     7
100
AcDbLine
 10
69.83688566197696
 20
168.887373625955
 30
0.0
 11
63.83801045233223
 21
168.887373625955
 31
0.0
  0
LINE
  5
D6
330
4A
100
AcDbEntity
  8
1
  6
Continuous
 62
     7
100
AcDbLine
 10
50.04388566197696
 20
170.049373625955
 30
0.0
 11
51.20588566197696
 21
168.887373625955
 31
0.0
  0
LINE
  5
D7
330
4A
100
AcDbEntity
  8
1
  6
Continuous
 62
     7
100
AcDbLine
 10
70.99888566197694
 20
170.049373625955
 30
0.0
 11
65.1333002318708
 21
170.049373625955
 31
0.0
  0
LINE
  5
D8
330
4A
100
AcDbEntity
  8
1
  6
Continuous
 62
     7
100
AcDbLine
 10
50.04388566197696
 20
170.049373625955
 30
0.0
 11
50.04388566197704
 21
179.5997611829904
 31
0.0
  0
LINE
  5
D9
330
4A
100
AcDbEntity
  8
1
  6
Continuous
 62
     7
100
AcDbLine
 10
50.02138566197695
 20
228.387373625955
 30
0.0
 11
50.02138566197706
 21
218.0902379956265
 31
0.0
  0
LINE
  5
DA
330
4A
100
AcDbEntity
  8
1
  6
Continuous
 62
     2
100
AcDbLine
 10
51.20588566197696
 20
177.887373625955
 30
0.0
 11
51.20588566197696
 21
168.887373625955
 31
0.0
  0
LINE
  5
DB
330
4A
100
AcDbEntity
  8
1
  6
Continuous
 62
     2
100
AcDbLine
 10
50.04274383445616
 20
179.9019943676296
 30
0.0
 11
51.20588566197696
 21
177.887373625955
 31
0.0
  0
LINE
  5
DC
330
4A
100
AcDbEntity
  8
1
  6
Continuous
 62
     7
100
AcDbLine
 10
69.83688566197696
 20
168.887373625955
 30
0.0
 11
70.99888566197694
 21
170.049373625955
 31
0.0
  0
LINE
  5
DD
330
4A
100
AcDbEntity
  8
1
  6
Continuous
 62
     7
100
AcDbLine
 10
70.99888566197694
 20
177.887373625955
 30
0.0
 11
67.80483951416196
 21
177.887373625955
 31
0.0
  0
LINE
  5
DE
330
4A
100
AcDbEntity
  8
1
  6
Continuous
 62
     7
100
AcDbLine
 10
70.99888566197694
 20
179.5997611829904
 30
0.0
 11
70.99888566197694
 21
170.049373625955
 31
0.0
  0
LINE
  5
DF
330
4A
100
AcDbEntity
  8
1
  6
Continuous
 62
     7
100
AcDbLine
 10
71.02138566197695
 20
218.0902379956265
 30
0.0
 11
71.02138566197695
 21
228.387373625955
 31
0.0
  0
LINE
  5
E0
330
4A
100
AcDbEntity
  8
1
  6
Continuous
 62
     2
100
AcDbLine
 10
69.83688566197696
 20
168.887373625955
 30
0.0
 11
69.83688566197696
 21
177.887373625955
 31
0.0
  0
LINE
  5
E1
330
4A
100
AcDbEntity
  8
1
  6
Continuous
 62
     2
100
AcDbLine
 10
69.83688566197696
 20
177.887373625955
 30
0.0
 11
71.00002748949777
 21
179.9019943676296
 31
0.0
  0
LINE
  5
E2
330
4A
100
AcDbEntity
  8
1
  6
Continuous
 62
     7
100
AcDbLine
 10
109.521385661977
 20
80.59645469378017
 30
0.0
 11
110.683385661977
 21
79.43445469378017
 31
0.0
  0
LINE
  5
E3
330
4A
100
AcDbEntity
  8
1
  6
Continuous
 62
     7
100
AcDbLine
 10
110.683385661977
 20
100.3894546937802
 30
0.0
 11
120.534028700372
 21
100.3894546937802
 31
0.0
  0
LINE
  5
E4
330
4A
100
AcDbEntity
  8
1
  6
Continuous
 62
     7
100
AcDbLine
 10
110.683385661977
 20
100.3894546937802
 30
0.0
 11
109.521385661977
 21
99.22745469378017
 31
0.0
  0
LINE
  5
E5
330
4A
100
AcDbEntity
  8
1
  6
Continuous
 62
     7
100
AcDbLine
 10
110.683385661977
 20
100.3894546937802
 30
0.0
 11
110.683385661977
 21
80.59645469378017
 31
0.0
  0
LINE
  5
E6
330
4A
100
AcDbEntity
  8
1
  6
Continuous
 62
     7
100
AcDbLine
 10
118.521385661977
 20
80.59645469378017
 30
0.0
 11
118.521385661977
 21
100.3894546937802
 31
0.0
  0
LINE
  5
E7
330
4A
100
AcDbEntity
  8
1
  6
Continuous
 62
     7
100
AcDbLine
 10
120.2337732190124
 20
79.4344546937802
 30
0.0
 11
110.683385661977
 21
79.43445469378017
 31
0.0
  0
LINE
  5
E8
330
4A
100
AcDbEntity
  8
1
  6
Continuous
 62
     7
100
AcDbLine
 10
121.521385661977
 20
100.3894546937802
 30
0.0
 11
120.534028700372
 21
100.3894546937802
 31
0.0
  0
LINE
  5
E9
330
4A
100
AcDbEntity
  8
1
  6
Continuous
 62
     7
100
AcDbLine
 10
151.521385661977
 20
106.4119546937802
 30
0.0
 11
151.521385661977
 21
115.3129798577541
 31
0.0
  0
LINE
  5
EA
330
4A
100
AcDbEntity
  8
1
  6
Continuous
 62
     7
100
AcDbLine
 10
109.521385661977
 20
96.41195469378017
 30
0.0
 11
109.521385661977
 21
99.22745469378017
 31
0.0
  0
LINE
  5
EB
330
4A
100
AcDbEntity
  8
1
  6
Continuous
 62
     7
100
AcDbLine
 10
169.021385661977
 20
100.4119546937802
 30
0.0
 11
157.521385661977
 21
100.4119546937802
 31
0.0
  0
LINE
  5
EC
330
4A
100
AcDbEntity
  8
1
  6
Continuous
 62
     7
100
AcDbLine
 10
169.521385661977
 20
79.91195469378017
 30
0.0
 11
169.521385661977
 21
99.91195469378017
 31
0.0
  0
LINE
  5
ED
330
4A
100
AcDbEntity
  8
1
  6
Continuous
 62
     7
100
AcDbLine
 10
158.7242500316485
 20
79.41195469378019
 30
0.0
 11
169.021385661977
 21
79.41195469378017
 31
0.0
  0
LINE
  5
EE
330
4A
100
AcDbEntity
  8
1
  6
Continuous
 62
     2
100
AcDbLine
 10
118.521385661977
 20
99.22745469378017
 30
0.0
 11
109.521385661977
 21
99.22745469378017
 31
0.0
  0
LINE
  5
EF
330
4A
100
AcDbEntity
  8
1
  6
Continuous
 62
     2
100
AcDbLine
 10
120.534028700372
 20
100.3894546937802
 30
0.0
 11
118.521385661977
 21
99.22745469378017
 31
0.0
  0
LINE
  5
F0
330
4A
100
AcDbEntity
  8
1
  6
Continuous
 62
     7
100
AcDbLine
 10
110.683385661977
 20
79.43445469378017
 30
0.0
 11
110.683385661977
 21
80.59645469378017
 31
0.0
  0
LINE
  5
F1
330
4A
100
AcDbEntity
  8
1
  6
Continuous
 62
     2
100
AcDbLine
 10
109.521385661977
 20
80.59645469378017
 30
0.0
 11
118.521385661977
 21
80.59645469378017
 31
0.0
  0
LINE
  5
F2
330
4A
100
AcDbEntity
  8
1
  6
Continuous
 62
     7
100
AcDbLine
 10
118.521385661977
 20
80.59645469378017
 30
0.0
 11
118.521385661977
 21
79.43445469378017
 31
0.0
  0
LINE
  5
F3
330
4A
100
AcDbEntity
  8
1
  6
Continuous
 62
     2
100
AcDbLine
 10
118.521385661977
 20
80.59645469378017
 30
0.0
 11
120.5360064036516
 21
79.43331286625934
 31
0.0
  0
LINE
  5
F4
330
4A
100
AcDbEntity
  8
1
  6
Continuous
 62
     7
100
AcDbLine
 10
109.521385661977
 20
80.59645469378017
 30
0.0
 11
109.521385661977
 21
96.41195469378017
 31
0.0
  0
LINE
  5
F5
330
4A
100
AcDbEntity
  8
1
  6
Continuous
 62
     7
100
AcDbLine
 10
127.521385661977
 20
115.3416459819651
 30
0.0
 11
127.521385661977
 21
106.3894546937802
 31
0.0
  0
LINE
  5
F6
330
4A
100
AcDbEntity
  8
1
  6
Continuous
 62
     7
100
AcDbLine
 10
54.52138566197692
 20
90.91195469378017
 30
0.0
 11
66.94400195130953
 21
90.91195469378017
 31
0.0
  0
LINE
  5
F7
330
4A
100
AcDbEntity
  8
1
  6
Continuous
 62
     7
100
AcDbLine
 10
65.77138566197692
 20
91.91195469378017
 30
0.0
 11
55.27138566197692
 21
91.91195469378017
 31
0.0
  0
LINE
  5
F8
330
4A
100
AcDbEntity
  8
1
  6
Continuous
 62
     7
100
AcDbLine
 10
54.09876937264443
 20
90.91195469378017
 30
0.0
 11
54.52138566197692
 21
90.91195469378017
 31
0.0
  0
LINE
  5
F9
330
4A
100
AcDbEntity
  8
1
  6
Continuous
 62
     7
100
AcDbLine
 10
66.52138566197692
 20
91.16195469378017
 30
0.0
 11
66.52138566197692
 21
90.91195469378017
 31
0.0
  0
LINE
  5
FA
330
4A
100
AcDbEntity
  8
1
  6
Continuous
 62
     7
100
AcDbLine
 10
54.52138566197692
 20
90.91195469378017
 30
0.0
 11
54.52138566197692
 21
91.16195469378017
 31
0.0
  0
LINE
  5
FB
330
4A
100
AcDbEntity
  8
1
  6
Continuous
 62
     7
100
AcDbLine
 10
72.52138566197698
 20
113.9119546937802
 30
0.0
 11
48.52138566197698
 21
113.9119546937802
 31
0.0
  0
LINE
  5
FC
330
4A
100
AcDbEntity
  8
1
  6
Continuous
 62
     7
100
AcDbLine
 10
72.52138566197698
 20
115.4119546937802
 30
0.0
 11
72.52138566197698
 21
112.5037973872267
 31
0.0
  0
LINE
  5
FD
330
4A
100
AcDbEntity
  8
1
  6
Continuous
 62
     2
100
AcDbLine
 10
49.33438566197697
 20
115.4119546937802
 30
0.0
 11
49.33438566197697
 21
113.9119546937802
 31
0.0
  0
LINE
  5
FE
330
4A
100
AcDbEntity
  8
1
  6
Continuous
 62
     7
100
AcDbLine
 10
48.52138566197698
 20
112.5037973872267
 30
0.0
 11
48.52138566197698
 21
115.4119546937802
 31
0.0
  0
LINE
  5
FF
330
4A
100
AcDbEntity
  8
1
  6
Continuous
 62
     7
100
AcDbLine
 10
48.52138566197698
 20
112.5037973872267
 30
0.0
 11
48.52138566197698
 21
106.3894546937802
 31
0.0
  0
LINE
  5
100
330
4A
100
AcDbEntity
  8
1
  6
Continuous
 62
     7
100
AcDbLine
 10
72.52138566197698
 20
106.4119546937802
 30
0.0
 11
72.52138566197698
 21
112.5037973872267
 31
0.0
  0
LINE
  5
101
330
4A
100
AcDbEntity
  8
1
  6
Continuous
 62
     2
100
AcDbLine
 10
71.70838566197693
 20
113.9119546937802
 30
0.0
 11
71.70838566197693
 21
115.4119546937802
 31
0.0
  0
LINE
  5
102
330
4A
100
AcDbEntity
  8
1
  6
Continuous
 62
     2
100
AcDbLine
 10
72.52138566197698
 20
112.5037973872267
 30
0.0
 11
71.70838566197693
 21
113.9119546937802
 31
0.0
  0
LINE
  5
103
330
4A
100
AcDbEntity
  8
1
  6
Continuous
 62
     2
100
AcDbLine
 10
49.33438566197697
 20
113.9119546937802
 30
0.0
 11
48.52138566197698
 21
112.5037973872267
 31
0.0
  0
LINE
  5
104
330
4A
100
AcDbEntity
  8
1
  6
Continuous
 62
     7
100
AcDbLine
 10
47.54701027587521
 20
90.72778760591162
 30
0.0
 11
48.50955891710089
 21
106.0354164266426
 31
0.0
  0
LINE
  5
105
330
4A
100
AcDbEntity
  8
1
  6
Continuous
 62
     7
100
AcDbLine
 10
72.53321240685307
 20
106.0354164266426
 30
0.0
 11
73.49576104807875
 21
90.72778760591162
 31
0.0
  0
ARC
  5
106
330
4A
100
AcDbEntity
  8
1
  6
Continuous
 62
     7
100
AcDbCircle
 10
38.52138566197715
 20
198.887373625955
 30
0.0
 40
34.99999999999998
100
AcDbArc
 50
345.0979027634438
 51
346.7088227569666
  0
ARC
  5
107
330
4A
100
AcDbEntity
  8
1
  6
Continuous
 62
     7
100
AcDbCircle
 10
82.52138566197695
 20
198.887373625955
 30
0.0
 40
34.99999999999987
100
AcDbArc
 50
193.2911772430338
 51
194.9020972365564
  0
ARC
  5
108
330
4A
100
AcDbEntity
  8
1
  6
Continuous
 62
     7
100
AcDbCircle
 10
121.521385661977
 20
106.3894546937802
 30
0.0
 40
6.0
100
AcDbArc
 50
270.0
 51
0.0
  0
ARC
  5
109
330
4A
100
AcDbEntity
  8
1
  6
Continuous
 62
     7
100
AcDbCircle
 10
157.521385661977
 20
106.4119546937802
 30
0.0
 40
6.0
100
AcDbArc
 50
180.0
 51
270.0
  0
ARC
  5
10A
330
4A
100
AcDbEntity
  8
1
  6
Continuous
 62
     7
100
AcDbCircle
 10
139.521385661977
 20
111.9119546937802
 30
0.0
 40
35.00000000000004
100
AcDbArc
 50
255.0979027634437
 51
284.8351115819757
  0
ARC
  5
10B
330
4A
100
AcDbEntity
  8
1
  6
Continuous
 62
     7
100
AcDbCircle
 10
123.4367845424409
 20
85.6352769671985
 30
0.0
 40
16.99999999999994
100
AcDbArc
 50
51.60597220067029
 51
78.97242887486986
  0
ARC
  5
10C
330
4A
100
AcDbEntity
  8
1
  6
Continuous
 62
     7
100
AcDbCircle
 10
155.6062417057448
 20
85.6352769671985
 30
0.0
 40
17.00000000000001
100
AcDbArc
 50
101.0275711251298
 51
128.3940277993296
  0
ARC
  5
10D
330
4A
100
AcDbEntity
  8
1
  6
Continuous
 62
     7
100
AcDbCircle
 10
65.77138566197692
 20
91.16195469378017
 30
0.0
 40
0.75
100
AcDbArc
 50
0.0
 51
90.0
  0
ARC
  5
10E
330
4A
100
AcDbEntity
  8
1
  6
Continuous
 62
     7
100
AcDbCircle
 10
55.27138566197692
 20
91.16195469378017
 30
0.0
 40
0.75
100
AcDbArc
 50
90.0
 51
180.0
  0
ARC
  5
10F
330
4A
100
AcDbEntity
  8
1
  6
Continuous
 62
     7
100
AcDbCircle
 10
42.52138566197269
 20
106.4119546937802
 30
0.0
 40
6.000000000004307
100
AcDbArc
 50
356.4019600393589
 51
0.0
  0
ARC
  5
110
330
4A
100
AcDbEntity
  8
1
  6
Continuous
 62
     7
100
AcDbCircle
 10
78.52138566198107
 20
106.4119546937802
 30
0.0
 40
6.000000000004093
100
AcDbArc
 50
180.0
 51
183.5980399606412
  0
ARC
  5
111
330
4A
100
AcDbEntity
  8
1
  6
Continuous
 62
     7
100
AcDbCircle
 10
60.52138566197698
 20
89.91195469378017
 30
0.0
 40
13.00000000000001
100
AcDbArc
 50
176.4019600393565
 51
3.59803996064356
  0
CIRCLE
  5
112
330
4A
100
AcDbEntity
  8
1
  6
Continuous
 62
     7
100
AcDbCircle
 10
60.52138566197698
 20
89.91195469378017
 30
0.0
 40
6.499999999999988
  0
CIRCLE
  5
113
330
4A
100
AcDbEntity
  8
1
  6
Continuous
 62
     7
100
AcDbCircle
 10
60.52138566197698
 20
89.91195469378017
 30
0.0
 40
10.5
  0
CIRCLE
  5
114
330
4A
100
AcDbEntity
  8
1
  6
Continuous
 62
     2
100
AcDbCircle
 10
60.52138566197698
 20
89.91195469378017
 30
0.0
 40
9.315499999999986
  0
ARC
  5
115
330
4A
100
AcDbEntity
  8
1
  6
Continuous
 62
     7
100
AcDbCircle
 10
111.021385661977
 20
218.0902379956272
 30
0.0
 40
40.00000000000006
100
AcDbArc
 50
180.000000000001
 51
184.9325508828287
  0
ARC
  5
116
330
4A
100
AcDbEntity
  8
1
  6
Continuous
 62
     7
100
AcDbCircle
 10
10.04388566197704
 20
179.5997611829904
 30
0.0
 40
40.0
100
AcDbArc
 50
0.0
 51
0.43292126706862
  0
ARC
  5
117
330
4A
100
AcDbEntity
  8
1
  6
Continuous
 62
     7
100
AcDbCircle
 10
10.04388566197704
 20
179.5997611829904
 30
0.0
 40
39.99999999999996
100
AcDbArc
 50
0.43292126706862
 51
14.9020972365563
  0
ARC
  5
118
330
4A
100
AcDbEntity
  8
1
  6
Continuous
 62
     7
100
AcDbCircle
 10
10.02138566197695
 20
218.0902379956263
 30
0.0
 40
40.00000000000011
100
AcDbArc
 50
355.0674491171725
 51
0.00000000000028
  0
ARC
  5
119
330
4A
100
AcDbEntity
  8
1
  6
Continuous
 62
     7
100
AcDbCircle
 10
50.52138566197695
 20
228.387373625955
 30
0.0
 40
0.5
100
AcDbArc
 50
90.0
 51
180.0
  0
ARC
  5
11A
330
4A
100
AcDbEntity
  8
1
  6
Continuous
 62
     7
100
AcDbCircle
 10
110.9988856619769
 20
179.5997611829904
 30
0.0
 40
39.99999999999997
100
AcDbArc
 50
179.5670787329314
 51
180.0
  0
ARC
  5
11B
330
4A
100
AcDbEntity
  8
1
  6
Continuous
 62
     7
100
AcDbCircle
 10
110.9988856619769
 20
179.5997611829904
 30
0.0
 40
39.9999999999998
100
AcDbArc
 50
165.0979027634436
 51
179.5670787329314
  0
ARC
  5
11C
330
4A
100
AcDbEntity
  8
1
  6
Continuous
 62
     7
100
AcDbCircle
 10
70.52138566197695
 20
228.387373625955
 30
0.0
 40
0.5
100
AcDbArc
 50
0.0
 51
90.0
  0
ARC
  5
11D
330
4A
100
AcDbEntity
  8
1
  6
Continuous
 62
     7
100
AcDbCircle
 10
120.2337732190124
 20
39.4344546937802
 30
0.0
 40
39.99999999999999
100
AcDbArc
 50
89.56707873293142
 51
90.0
  0
ARC
  5
11E
330
4A
100
AcDbEntity
  8
1
  6
Continuous
 62
     7
100
AcDbCircle
 10
158.7242500316485
 20
39.41195469378018
 30
0.0
 40
40.00000000000001
100
AcDbArc
 50
90.0
 51
104.8351115819757
  0
ARC
  5
11F
330
4A
100
AcDbEntity
  8
1
  6
Continuous
 62
     7
100
AcDbCircle
 10
169.021385661977
 20
79.91195469378017
 30
0.0
 40
0.5
100
AcDbArc
 50
270.0
 51
0.0
  0
ARC
  5
120
330
4A
100
AcDbEntity
  8
1
  6
Continuous
 62
     7
100
AcDbCircle
 10
169.021385661977
 20
99.91195469378017
 30
0.0
 40
0.5
100
AcDbArc
 50
0.0
 51
90.0
  0
ARC
  5
121
330
4A
100
AcDbEntity
  8
1
  6
Continuous
 62
     7
100
AcDbCircle
 10
120.2337732190124
 20
39.4344546937802
 30
0.0
 40
39.99999999999999
100
AcDbArc
 50
75.09790276344368
 51
89.56707873293142
  0
ENDBLK
  5
4C
330
4A
100
AcDbEntity
  8
0
100
AcDbBlockEnd
  0
BLOCK
  5
4E
330
4D
100
AcDbEntity
  8
0
100
AcDbBlockBegin
  2
36-54-M11K
 70
     0
 10
364.2021548927461
 20
99.41195469378025
 30
0.0
  3
36-54-M11K
  1

  0
LINE
  5
122
330
4D
100
AcDbEntity
  8
1
  6
Continuous
 62
     7
100
AcDbLine
 10
55.04416008692527
 20
93.41195469378012
 30
0.0
 11
65.99861123702868
 21
93.41195469378012
 31
0.0
  0
ENDBLK
  5
4F
330
4D
100
AcDbEntity
  8
0
100
AcDbBlockEnd
  0
BLOCK
  5
51
330
50
100
AcDbEntity
  8
0
100
AcDbBlockBegin
  2
91-1K
 70
     0
 10
373.7021548927463
 20
94.91195469378019
 30
0.0
  3
91-1K
  1

  0
LINE
  5
123
330
50
100
AcDbEntity
  8
1
  6
Continuous
 62
     7
100
AcDbLine
 10
54.3367272235505
 20
91.91195469378017
 30
0.0
 11
66.7060441004034
 21
91.91195469378017
 31
0.0
  0
ENDBLK
  5
52
330
50
100
AcDbEntity
  8
0
100
AcDbBlockEnd
  0
BLOCK
  5
54
330
53
100
AcDbEntity
  8
0
100
AcDbBlockBegin
  2
37-1-13
 70
     0
 10
332.8898984074202
 20
87.99799558692995
 30
0.0
  3
37-1-13
  1

  0
LINE
  5
124
330
53
100
AcDbEntity
  8
1
  6
Continuous
 62
     7
100
AcDbLine
 10
58.54575482625546
 20
212.7578496300621
 30
0.0
 11
59.58353452729875
 21
213.357012019819
 31
0.0
  0
LINE
  5
125
330
53
100
AcDbEntity
  8
1
  6
Continuous
 62
     7
100
AcDbLine
 10
73.52138566197706
 20
193.6630821161361
 30
0.0
 11
73.52138566197706
 21
192.4647573366224
 31
0.0
  0
LINE
  5
126
330
53
100
AcDbEntity
  8
1
  6
Continuous
 62
     7
100
AcDbLine
 10
49.49701649769838
 20
190.2411891316667
 30
0.0
 11
48.45923679665526
 21
190.8403515214235
 31
0.0
  0
LINE
  5
127
330
53
100
AcDbEntity
  8
1
  6
Continuous
 62
     7
100
AcDbLine
 10
47.52138566197698
 20
122.4826689080517
 30
0.0
 11
47.52138566197698
 21
115.4119546937802
 31
0.0
  0
LINE
  5
128
330
53
100
AcDbEntity
  8
1
  6
Continuous
 62
     7
100
AcDbLine
 10
66.52138566197698
 20
129.4119546937802
 30
0.0
 11
54.52138566197698
 21
129.4119546937802
 31
0.0
  0
LINE
  5
129
330
53
100
AcDbEntity
  8
1
  6
Continuous
 62
     7
100
AcDbLine
 10
60.52138566197698
 20
115.4119546937802
 30
0.0
 11
47.52138566197698
 21
115.4119546937802
 31
0.0
  0
LINE
  5
12A
330
53
100
AcDbEntity
  8
1
  6
Continuous
 62
     7
100
AcDbLine
 10
73.52138566197698
 20
115.4119546937802
 30
0.0
 11
60.52138566197698
 21
115.4119546937802
 31
0.0
  0
LINE
  5
12B
330
53
100
AcDbEntity
  8
1
  6
Continuous
 62
     7
100
AcDbLine
 10
73.52138566197698
 20
122.4826689080516
 30
0.0
 11
73.52138566197698
 21
115.4119546937802
 31
0.0
  0
LINE
  5
12C
330
53
100
AcDbEntity
  8
1
  6
Continuous
 62
     7
100
AcDbLine
 10
72.58353452729875
 20
190.8403515214235
 30
0.0
 11
71.54575482625553
 21
190.2411891316667
 31
0.0
  0
LINE
  5
12D
330
53
100
AcDbEntity
  8
1
  6
Continuous
 62
     7
100
AcDbLine
 10
61.45923679665526
 20
213.357012019819
 30
0.0
 11
62.49701649769851
 21
212.7578496300621
 31
0.0
  0
LINE
  5
12E
330
53
100
AcDbEntity
  8
1
  6
Continuous
 62
     7
100
AcDbLine
 10
47.52138566197706
 20
192.4647573366224
 30
0.0
 11
47.52138566197706
 21
193.6630821161359
 31
0.0
  0
LINE
  5
12F
330
53
100
AcDbEntity
  8
1
  6
Continuous
 62
     7
100
AcDbLine
 10
152.5920998762485
 20
115.3416459819651
 30
0.0
 11
126.4506714477056
 21
115.3416459819651
 31
0.0
  0
LINE
  5
130
330
53
100
AcDbEntity
  8
1
  6
Continuous
 62
     7
100
AcDbLine
 10
139.521385661977
 20
129.3416459819651
 30
0.0
 11
133.521385661977
 21
129.3416459819651
 31
0.0
  0
LINE
  5
131
330
53
100
AcDbEntity
  8
1
  6
Continuous
 62
     7
100
AcDbLine
 10
145.5213856619771
 20
129.3416459819651
 30
0.0
 11
139.521385661977
 21
129.3416459819651
 31
0.0
  0
ARC
  5
132
330
53
100
AcDbEntity
  8
1
  6
Continuous
 62
     7
100
AcDbCircle
 10
60.52138566197698
 20
198.8873736259549
 30
0.0
 40
14.50000000000011
100
AcDbArc
 50
89.99999999999969
 51
93.7084447252705
  0
ARC
  5
133
330
53
100
AcDbEntity
  8
1
  6
Continuous
 62
     7
100
AcDbCircle
 10
60.52138566197698
 20
198.8873736259549
 30
0.0
 40
14.50000000000012
100
AcDbArc
 50
86.29155527472928
 51
89.99999999999969
  0
ARC
  5
134
330
53
100
AcDbEntity
  8
1
  6
Continuous
 62
     7
100
AcDbCircle
 10
51.02138566197698
 20
118.9119546937802
 30
0.0
 40
5.00000000000002
100
AcDbArc
 50
126.8698976458424
 51
134.4270040008051
  0
ARC
  5
135
330
53
100
AcDbEntity
  8
1
  6
Continuous
 62
     7
100
AcDbCircle
 10
34.61493045686208
 20
142.8184098988951
 30
0.0
 40
23.99999999999995
100
AcDbArc
 50
303.9591925000978
 51
326.0408074999025
  0
ARC
  5
136
330
53
100
AcDbEntity
  8
1
  6
Continuous
 62
     7
100
AcDbCircle
 10
70.02138566197698
 20
118.9119546937802
 30
0.0
 40
4.999999999999975
100
AcDbArc
 50
45.57299599919402
 51
53.13010235415771
  0
ARC
  5
137
330
53
100
AcDbEntity
  8
1
  6
Continuous
 62
     7
100
AcDbCircle
 10
86.4278408670919
 20
142.8184098988951
 30
0.0
 40
24.0
100
AcDbArc
 50
213.9591925000975
 51
236.0408074999021
  0
ARC
  5
138
330
53
100
AcDbEntity
  8
1
  6
Continuous
 62
     7
100
AcDbCircle
 10
60.52138566197698
 20
198.8873736259549
 30
0.0
 40
14.50000000000001
100
AcDbArc
 50
326.2915552747295
 51
333.708444725271
  0
ARC
  5
139
330
53
100
AcDbEntity
  8
1
  6
Continuous
 62
     7
100
AcDbCircle
 10
60.52138566197698
 20
198.8873736259549
 30
0.0
 40
14.4999999999999
100
AcDbArc
 50
206.2915552747293
 51
213.7084447252707
  0
ARC
  5
13A
330
53
100
AcDbEntity
  8
1
  6
Continuous
 62
     7
100
AcDbCircle
 10
113.6149304568621
 20
142.74810118708
 30
0.0
 40
23.99999999999995
100
AcDbArc
 50
303.9591925000979
 51
326.0408074999025
  0
ARC
  5
13B
330
53
100
AcDbEntity
  8
1
  6
Continuous
 62
     7
100
AcDbCircle
 10
130.021385661977
 20
118.8416459819651
 30
0.0
 40
5.00000000000002
100
AcDbArc
 50
126.8698976458424
 51
224.4270040008059
  0
ARC
  5
13C
330
53
100
AcDbEntity
  8
1
  6
Continuous
 62
     7
100
AcDbCircle
 10
165.4278408670919
 20
142.74810118708
 30
0.0
 40
23.9999999999999
100
AcDbArc
 50
213.9591925000976
 51
236.0408074999022
  0
ARC
  5
13D
330
53
100
AcDbEntity
  8
1
  6
Continuous
 62
     7
100
AcDbCircle
 10
149.0213856619771
 20
118.8416459819651
 30
0.0
 40
4.999999999999996
100
AcDbArc
 50
315.5729959991942
 51
53.1301023541585
  0
SPLINE
  5
13E
330
53
100
AcDbEntity
  8
1
  6
Continuous
 62
     7
100
AcDbSpline
210
0.0
220
0.0
230
1.0
 70
     8
 71
     3
 72
    29
 73
    25
 74
    23
 42
0.000000001
 43
0.0000000001
 44
0.00000001
 40
0.0
 40
0.0
 40
0.0
 40
0.0
 40
0.6069077071335209
 40
1.212222618922161
 40
1.842666699981089
 40
2.474631891987859
 40
3.102420163135141
 40
3.729333881624648
 40
4.271042929453309
 40
4.812985317241504
 40
5.340107969104196
 40
5.86624891494882
 40
6.26387482444045
 40
6.661485222726812
 40
7.280966483141232
 40
7.902596723210342
 40
8.549168899022892
 40
9.19589675558505
 40
9.722415956712075
 40
10.24911839923925
 40
11.0789753537709
 40
11.90732205839668
 40
12.67331707894462
 40
13.44191268485684
 40
13.44191268485684
 40
13.44191268485684
 40
13.44191268485684
 10
139.521385661977
 20
122.3416459819651
 30
0.0
 10
139.7234454895228
 20
122.3317706086011
 30
0.0
 10
140.1270348491999
 20
122.3120457673884
 30
0.0
 10
140.7387403972838
 20
122.2482554191672
 30
0.0
 10
141.3481574584259
 20
122.1140721214265
 30
0.0
 10
141.9465636334041
 20
121.9136165019
 30
0.0
 10
142.521126164878
 20
121.6550553856698
 30
0.0
 10
143.0360239622466
 20
121.3461259965654
 30
0.0
 10
143.4850428360025
 20
120.992309072621
 30
0.0
 10
143.8589844383004
 20
120.6042844051041
 30
0.0
 10
144.1659503396072
 20
120.167354002029
 30
0.0
 10
144.3732589970466
 20
119.7271400355927
 30
0.0
 10
144.4891615852669
 20
119.3004309155402
 30
0.0
 10
144.5398647901445
 20
118.829515473738
 30
0.0
 10
144.4794084669034
 20
118.2805408814972
 30
0.0
 10
144.2664612352741
 20
117.6827948161753
 30
0.0
 10
143.9192242981217
 20
117.1411925710348
 30
0.0
 10
143.4978665725416
 20
116.7005846036448
 30
0.0
 10
143.0504530825613
 20
116.3507106806752
 30
0.0
 10
142.5146166970162
 20
116.0218002983337
 30
0.0
 10
141.8497256476303
 20
115.7180616779318
 30
0.0
 10
141.0700645869936
 20
115.4932918122156
 30
0.0
 10
140.2876589708893
 20
115.3889050128248
 30
0.0
 10
139.7770985047155
 20
115.3574825223188
 30
0.0
 10
139.521385661977
 20
115.3417446580521
 30
0.0
 11
139.521385661977
 21
122.3416459819651
 31
0.0
 11
140.1272716837352
 21
122.3064451162028
 31
0.0
 11
140.7287145032167
 21
122.2380881241186
 31
0.0
 11
141.3446057149579
 21
122.1034116382942
 31
0.0
 11
141.9440671765065
 21
121.9033467463491
 31
0.0
 11
142.5157659498266
 21
121.6439655080988
 31
0.0
 11
143.0523311668397
 21
121.3197455533208
 31
0.0
 11
143.4767637056188
 21
120.9831364133398
 31
0.0
 11
143.8515126808993
 21
120.5916459819651
 31
0.0
 11
144.1530685668592
 21
120.1593008207466
 31
0.0
 11
144.375088880693
 21
119.6822984351304
 31
0.0
 11
144.478849597836
 21
119.2984494050007
 31
0.0
 11
144.5206076956568
 21
118.9030378591864
 31
0.0
 11
144.4560140840354
 21
118.2869334049765
 31
0.0
 11
144.2483959138841
 21
117.7009992346997
 31
0.0
 11
143.9030233130291
 21
117.1543976007857
 31
0.0
 11
143.4587491864262
 21
116.6844216207053
 31
0.0
 11
143.0448787676516
 21
116.3589469731341
 31
0.0
 11
142.5968399204274
 21
116.0820414749545
 31
0.0
 11
141.8420792137899
 21
115.7370793867771
 31
0.0
 11
141.0459229034017
 21
115.5084018970308
 31
0.0
 11
140.2879137728021
 21
115.3980817680162
 31
0.0
 11
139.521385661977
 21
115.3417446580521
 31
0.0
  0
SPLINE
  5
13F
330
53
100
AcDbEntity
  8
1
  6
Continuous
 62
     7
100
AcDbSpline
210
0.0
220
0.0
230
1.0
 70
    11
 71
     3
 72
    79
 73
    75
 74
    73
 42
0.000000001
 43
0.0000000001
 44
0.00000001
 40
0.0
 40
0.0
 40
0.0
 40
0.0
 40
0.2803981055170138
 40
0.5607977780793566
 40
0.8427454767814762
 40
1.124697465942873
 40
1.409536444711936
 40
1.694381494092171
 40
1.983071303433791
 40
2.271767836809099
 40
2.564776135645424
 40
2.857790848031692
 40
3.155055692063396
 40
3.452325972452614
 40
3.753284820909527
 40
4.054247736388366
 40
4.357919800455302
 40
4.661594361771504
 40
4.966700742338112
 40
5.271807963175688
 40
5.57691518400293
 40
5.882021564538499
 40
6.185696125802681
 40
6.489368189796097
 40
6.79033110517988
 40
7.091289953518764
 40
7.38856023376754
 40
7.68582507763377
 40
7.978839789830533
 40
8.271848088449227
 40
8.560544621579831
 40
8.849234430642555
 40
9.134079479707347
 40
9.418918458106312
 40
9.700870446812857
 40
9.982818144856147
 40
10.26321781600885
 40
10.5436159303524
 40
10.82401404469597
 40
11.10441371584876
 40
11.38636141389199
 40
11.66831340259856
 40
11.9531523809975
 40
12.23799743006234
 40
12.5266872391251
 40
12.81538377225568
 40
13.10839207087428
 40
13.40140678307105
 40
13.69867162693732
 40
13.99594190718612
 40
14.29690075552496
 40
14.59786367090874
 40
14.90153573490214
 40
15.20521029616634
 40
15.51031667670192
 40
15.81542389752915
 40
16.12053111836671
 40
16.42563749893333
 40
16.72931206024953
 40
17.03298412431646
 40
17.33394703979527
 40
17.63490588825217
 40
17.93217616864135
 40
18.22944101267316
 40
18.52245572505939
 40
18.81546402389567
 40
19.10416055727099
 40
19.3928503666126
 40
19.67769541599289
 40
19.96253439476192
 40
20.24448638392332
 40
20.52643408262541
 40
20.80683375518784
 40
21.08723186070488
 40
21.08723186070488
 40
21.08723186070488
 40
21.08723186070488
 10
150.7797159111748
 20
122.3416459819651
 30
0.0
 10
150.8732164512169
 20
122.339064596159
 30
0.0
 10
151.060218054019
 20
122.3339018154544
 30
0.0
 10
151.3387024652121
 20
122.292429466891
 30
0.0
 10
151.6126446623647
 20
122.2265293070493
 30
0.0
 10
151.8805728281335
 20
122.1342971980921
 30
0.0
 10
152.1396186160041
 20
122.0172150089631
 30
0.0
 10
152.3887779104209
 20
121.875738727564
 30
0.0
 10
152.6250879308351
 20
121.7114563817278
 30
0.0
 10
152.8478629249728
 20
121.524996233649
 30
0.0
 10
153.0543189574788
 20
121.3185717588361
 30
0.0
 10
153.2439317013189
 20
121.0928540645126
 30
0.0
 10
153.4143308774374
 20
120.8505632662676
 30
0.0
 10
153.5650436852331
 20
120.5925057735237
 30
0.0
 10
153.6942668219423
 20
120.3216785701311
 30
0.0
 10
153.8015464953074
 20
120.0391617167179
 30
0.0
 10
153.8857009990408
 20
119.7479737462028
 30
0.0
 10
153.9463442730485
 20
119.4495949733616
 30
0.0
 10
153.9828780354952
 20
119.1468340015506
 30
0.0
 10
153.9950970664067
 20
118.841645991368
 30
0.0
 10
153.9828780358453
 20
118.5364579811833
 30
0.0
 10
153.9463442737495
 20
118.2336970093567
 30
0.0
 10
153.8857010000952
 20
117.9353182365139
 30
0.0
 10
153.8015464967181
 20
117.6441302659099
 30
0.0
 10
153.6942668237136
 20
117.3616134126938
 30
0.0
 10
153.5650436873699
 20
117.0907862083978
 30
0.0
 10
153.4143308799465
 20
116.8327287187712
 30
0.0
 10
153.2439317042075
 20
116.5904379087148
 30
0.0
 10
153.0543189607564
 20
116.3647202575529
 30
0.0
 10
152.8478629286496
 20
116.158295622559
 30
0.0
 10
152.6250879349258
 20
115.971836063411
 30
0.0
 10
152.388777914944
 20
115.8075515357252
 30
0.0
 10
152.1396186209897
 20
115.666083292677
 30
0.0
 10
151.8805728336292
 20
115.5489712890932
 30
0.0
 10
151.6126446684954
 20
115.4568493706343
 30
0.0
 10
151.3387024722956
 20
115.3905396050767
 30
0.0
 10
151.060218059259
 20
115.3505879399869
 30
0.0
 10
150.7797159111748
 20
115.3371750303659
 30
0.0
 10
150.4992137630906
 20
115.3505879399869
 30
0.0
 10
150.2207293500539
 20
115.3905396050766
 30
0.0
 10
149.9467871538542
 20
115.4568493706344
 30
0.0
 10
149.6788589887203
 20
115.5489712890932
 30
0.0
 10
149.4198132013599
 20
115.666083292677
 30
0.0
 10
149.1706539074055
 20
115.8075515357252
 30
0.0
 10
148.9343438874237
 20
115.9718360634109
 30
0.0
 10
148.7115688936999
 20
116.1582956225589
 30
0.0
 10
148.5051128615933
 20
116.364720257553
 30
0.0
 10
148.3155001181422
 20
116.5904379087148
 30
0.0
 10
148.145100942403
 20
116.8327287187712
 30
0.0
 10
147.9943881349795
 20
117.0907862083978
 30
0.0
 10
147.865164998636
 20
117.3616134126938
 30
0.0
 10
147.7578853256315
 20
117.6441302659099
 30
0.0
 10
147.6737308222546
 20
117.935318236514
 30
0.0
 10
147.6130875486
 20
118.2336970093567
 30
0.0
 10
147.5765537865044
 20
118.5364579811834
 30
0.0
 10
147.5643347559429
 20
118.841645991368
 30
0.0
 10
147.5765537868545
 20
119.1468340015505
 30
0.0
 10
147.6130875493012
 20
119.4495949733616
 30
0.0
 10
147.6737308233089
 20
119.7479737462028
 30
0.0
 10
147.7578853270422
 20
120.0391617167179
 30
0.0
 10
147.8651650004072
 20
120.321678570131
 30
0.0
 10
147.9943881371164
 20
120.5925057735238
 30
0.0
 10
148.1451009449122
 20
120.8505632662676
 30
0.0
 10
148.3155001210307
 20
121.0928540645126
 30
0.0
 10
148.5051128648707
 20
121.3185717588361
 30
0.0
 10
148.7115688973767
 20
121.5249962336491
 30
0.0
 10
148.9343438915143
 20
121.7114563817278
 30
0.0
 10
149.1706539119286
 20
121.875738727564
 30
0.0
 10
149.4198132063455
 20
122.0172150089631
 30
0.0
 10
149.678858994216
 20
122.1342971980921
 30
0.0
 10
149.9467871599849
 20
122.2265293070493
 30
0.0
 10
150.2207293571374
 20
122.292429466891
 30
0.0
 10
150.4992137683306
 20
122.3339018154544
 30
0.0
 10
150.6862153711327
 20
122.3390645961591
 30
0.0
 10
150.7797159111748
 20
122.3416459819651
 30
0.0
 11
150.7797159111748
 21
122.3416459819651
 31
0.0
 11
151.0597959100444
 21
122.328293196667
 31
0.0
 11
151.337353718423
 21
122.2884731175078
 31
0.0
 11
151.6114051228019
 21
122.2222135347839
 31
0.0
 11
151.8780479830764
 21
122.1305701547158
 31
0.0
 11
152.1376364076124
 21
122.0133221544306
 31
0.0
 11
152.3853699835079
 21
121.8727348952106
 31
0.0
 11
152.6224704681169
 21
121.7080376998586
 31
0.0
 11
152.8439049974517
 21
121.5228015328815
 31
0.0
 11
153.0511883867615
 21
121.3157086559663
 31
0.0
 11
153.2397206705391
 21
121.091402615868
 31
0.0
 11
153.4108092171126
 21
120.8483077851673
 31
0.0
 11
153.5607903438356
 21
120.5916459819651
 31
0.0
 11
153.69046712371
 21
120.320057761994
 31
0.0
 11
153.7973584777874
 21
120.0387164836049
 31
0.0
 11
153.8817245391177
 21
119.7469990000595
 31
0.0
 11
153.9422370693534
 21
119.4494146037993
 31
0.0
 11
153.9788160179164
 21
119.1465088692651
 31
0.0
 11
153.9910240558411
 21
118.8416459819651
 31
0.0
 11
153.9788160179164
 21
118.5367830946651
 31
0.0
 11
153.9422370693534
 21
118.2338773601308
 31
0.0
 11
153.8817245391177
 21
117.9362929638706
 31
0.0
 11
153.7973584777874
 21
117.6445754803252
 31
0.0
 11
153.69046712371
 21
117.3632342019362
 31
0.0
 11
153.5607903438356
 21
117.0916459819651
 31
0.0
 11
153.4108092171127
 21
116.834984178763
 31
0.0
 11
153.2397206705391
 21
116.5918893480622
 31
0.0
 11
153.0511883867615
 21
116.3675833079639
 31
0.0
 11
152.8439049974517
 21
116.1604904310487
 31
0.0
 11
152.6224704681168
 21
115.9752542640717
 31
0.0
 11
152.3853699835079
 21
115.8105570687196
 31
0.0
 11
152.1376364076124
 21
115.6699698094996
 31
0.0
 11
151.8780479830764
 21
115.5527218092144
 31
0.0
 11
151.611405122802
 21
115.4610784291463
 31
0.0
 11
151.337353718423
 21
115.3948188464224
 31
0.0
 11
151.0597959100444
 21
115.3549987672633
 31
0.0
 11
150.7797159111748
 21
115.3416459819651
 31
0.0
 11
150.4996359123052
 21
115.3549987672633
 31
0.0
 11
150.2220781039265
 21
115.3948188464224
 31
0.0
 11
149.9480266995476
 21
115.4610784291463
 31
0.0
 11
149.6813838392731
 21
115.5527218092144
 31
0.0
 11
149.4217954147371
 21
115.6699698094996
 31
0.0
 11
149.1740618388416
 21
115.8105570687196
 31
0.0
 11
148.9369613542326
 21
115.9752542640717
 31
0.0
 11
148.7155268248978
 21
116.1604904310487
 31
0.0
 11
148.5082434355881
 21
116.3675833079639
 31
0.0
 11
148.3197111518105
 21
116.5918893480622
 31
0.0
 11
148.1486226052369
 21
116.834984178763
 31
0.0
 11
147.9986414785139
 21
117.0916459819651
 31
0.0
 11
147.8689646986396
 21
117.3632342019362
 31
0.0
 11
147.7620733445622
 21
117.6445754803252
 31
0.0
 11
147.677707283232
 21
117.9362929638706
 31
0.0
 11
147.6171947529962
 21
118.2338773601308
 31
0.0
 11
147.5806158044332
 21
118.5367830946651
 31
0.0
 11
147.5684077665085
 21
118.8416459819651
 31
0.0
 11
147.5806158044332
 21
119.1465088692651
 31
0.0
 11
147.6171947529962
 21
119.4494146037993
 31
0.0
 11
147.677707283232
 21
119.7469990000595
 31
0.0
 11
147.7620733445622
 21
120.0387164836049
 31
0.0
 11
147.8689646986395
 21
120.3200577619939
 31
0.0
 11
147.9986414785139
 21
120.5916459819651
 31
0.0
 11
148.1486226052369
 21
120.8483077851672
 31
0.0
 11
148.3197111518105
 21
121.091402615868
 31
0.0
 11
148.5082434355881
 21
121.3157086559663
 31
0.0
 11
148.7155268248978
 21
121.5228015328815
 31
0.0
 11
148.9369613542326
 21
121.7080376998586
 31
0.0
 11
149.1740618388416
 21
121.8727348952106
 31
0.0
 11
149.4217954147371
 21
122.0133221544307
 31
0.0
 11
149.6813838392731
 21
122.1305701547158
 31
0.0
 11
149.9480266995476
 21
122.2222135347839
 31
0.0
 11
150.2220781039265
 21
122.2884731175078
 31
0.0
 11
150.4996359123052
 21
122.328293196667
 31
0.0
 11
150.7797159111748
 21
122.3416459819651
 31
0.0
  0
SPLINE
  5
140
330
53
100
AcDbEntity
  8
1
  6
Continuous
 62
     7
100
AcDbSpline
210
0.0
220
0.0
230
1.0
 70
     8
 71
     3
 72
    29
 73
    25
 74
    23
 42
0.000000001
 43
0.0000000001
 44
0.00000001
 40
0.0
 40
0.0
 40
0.0
 40
0.0
 40
0.6069077071335209
 40
1.212222618922161
 40
1.842666699981034
 40
2.474631891987858
 40
3.102420163135088
 40
3.729333881624571
 40
4.271042929453188
 40
4.812985317241422
 40
5.340107969104179
 40
5.866248914948804
 40
6.263874824440418
 40
6.661485222726775
 40
7.280966483141186
 40
7.902596723210296
 40
8.549168899022861
 40
9.195896755585059
 40
9.722415956712107
 40
10.24911839923928
 40
11.07897535377093
 40
11.90732205839669
 40
12.67331707894463
 40
13.44191268485676
 40
13.44191268485676
 40
13.44191268485676
 40
13.44191268485676
 10
139.521385661977
 20
122.3416459819651
 30
0.0
 10
139.3193258344313
 20
122.3317706086011
 30
0.0
 10
138.9157364747541
 20
122.3120457673884
 30
0.0
 10
138.3040309266702
 20
122.2482554191672
 30
0.0
 10
137.6946138655281
 20
122.1140721214266
 30
0.0
 10
137.0962076905499
 20
121.9136165019001
 30
0.0
 10
136.5216451590761
 20
121.6550553856698
 30
0.0
 10
136.0067473617075
 20
121.3461259965654
 30
0.0
 10
135.5577284879516
 20
120.992309072621
 30
0.0
 10
135.1837868856537
 20
120.6042844051041
 30
0.0
 10
134.8768209843468
 20
120.167354002029
 30
0.0
 10
134.6695123269074
 20
119.7271400355927
 30
0.0
 10
134.5536097386872
 20
119.3004309155401
 30
0.0
 10
134.5029065338097
 20
118.8295154737381
 30
0.0
 10
134.5633628570506
 20
118.2805408814972
 30
0.0
 10
134.7763100886799
 20
117.6827948161753
 30
0.0
 10
135.1235470258323
 20
117.1411925710348
 30
0.0
 10
135.5449047514126
 20
116.7005846036448
 30
0.0
 10
135.9923182413928
 20
116.3507106806752
 30
0.0
 10
136.5281546269379
 20
116.0218002983338
 30
0.0
 10
137.1930456763238
 20
115.7180616779318
 30
0.0
 10
137.9727067369605
 20
115.4932918122155
 30
0.0
 10
138.7551123530647
 20
115.3889050128248
 30
0.0
 10
139.2656728192386
 20
115.3574825223188
 30
0.0
 10
139.521385661977
 20
115.3417446580521
 30
0.0
 11
139.521385661977
 21
122.3416459819651
 31
0.0
 11
138.9154996402188
 21
122.3064451162028
 31
0.0
 11
138.3140568207373
 21
122.2380881241186
 31
0.0
 11
137.6981656089962
 21
122.1034116382942
 31
0.0
 11
137.0987041474475
 21
121.9033467463491
 31
0.0
 11
136.5270053741274
 21
121.6439655080988
 31
0.0
 11
135.9904401571144
 21
121.3197455533208
 31
0.0
 11
135.5660076183353
 21
120.9831364133398
 31
0.0
 11
135.1912586430548
 21
120.5916459819651
 31
0.0
 11
134.8897027570947
 21
120.1593008207466
 31
0.0
 11
134.667682443261
 21
119.6822984351304
 31
0.0
 11
134.563921726118
 21
119.2984494050007
 31
0.0
 11
134.5221636282973
 21
118.9030378591864
 31
0.0
 11
134.5867572399186
 21
118.2869334049765
 31
0.0
 11
134.7943754100699
 21
117.7009992346997
 31
0.0
 11
135.1397480109249
 21
117.1543976007857
 31
0.0
 11
135.5840221375279
 21
116.6844216207053
 31
0.0
 11
135.9978925563026
 21
116.3589469731341
 31
0.0
 11
136.4459314035267
 21
116.0820414749545
 31
0.0
 11
137.2006921101643
 21
115.7370793867771
 31
0.0
 11
137.9968484205524
 21
115.5084018970308
 31
0.0
 11
138.754857551152
 21
115.3980817680162
 31
0.0
 11
139.521385661977
 21
115.3417446580521
 31
0.0
  0
SPLINE
  5
141
330
53
100
AcDbEntity
  8
1
  6
Continuous
 62
     7
100
AcDbSpline
210
0.0
220
0.0
230
1.0
 70
    11
 71
     3
 72
    79
 73
    75
 74
    73
 42
0.000000001
 43
0.0000000001
 44
0.00000001
 40
0.0
 40
0.0
 40
0.0
 40
0.0
 40
0.2803981055170422
 40
0.5607977780794553
 40
0.8427454767815333
 40
1.124697465942876
 40
1.409536444711887
 40
1.694381494092172
 40
1.983071303433745
 40
2.271767836809097
 40
2.564776135645412
 40
2.85779084803169
 40
3.15505569206345
 40
3.452325972452661
 40
3.753284820909537
 40
4.05424773638837
 40
4.357919800455295
 40
4.661594361771506
 40
4.966700742338112
 40
5.27180796317569
 40
5.576915184002976
 40
5.882021564538499
 40
6.185696125802685
 40
6.489368189796097
 40
6.79033110517986
 40
7.091289953518727
 40
7.388560233767516
 40
7.685825077633772
 40
7.978839789830571
 40
8.271848088449223
 40
8.560544621579867
 40
8.849234430642555
 40
9.134079479707397
 40
9.418918458106322
 40
9.700870446812855
 40
9.982818144856061
 40
10.26321781600887
 40
10.54361593035241
 40
10.82401404469595
 40
11.10441371584877
 40
11.386361413892
 40
11.66831340259858
 40
11.95315238099757
 40
12.23799743006236
 40
12.52668723912511
 40
12.81538377225563
 40
13.10839207087427
 40
13.40140678307106
 40
13.69867162693732
 40
13.99594190718613
 40
14.29690075552496
 40
14.59786367090875
 40
14.90153573490216
 40
15.20521029616635
 40
15.51031667670193
 40
15.81542389752916
 40
16.12053111836672
 40
16.42563749893334
 40
16.72931206024954
 40
17.03298412431648
 40
17.33394703979528
 40
17.63490588825218
 40
17.93217616864139
 40
18.22944101267317
 40
18.52245572505942
 40
18.81546402389574
 40
19.10416055727106
 40
19.3928503666126
 40
19.67769541599284
 40
19.96253439476192
 40
20.24448638392332
 40
20.52643408262541
 40
20.80683375518778
 40
21.08723186070488
 40
21.08723186070488
 40
21.08723186070488
 40
21.08723186070488
 10
128.2630554127793
 20
122.3416459819651
 30
0.0
 10
128.1695548727372
 20
122.339064596159
 30
0.0
 10
127.9825532699351
 20
122.3339018154545
 30
0.0
 10
127.7040688587419
 20
122.2924294668909
 30
0.0
 10
127.4301266615894
 20
122.2265293070493
 30
0.0
 10
127.1621984958206
 20
122.1342971980921
 30
0.0
 10
126.90315270795
 20
122.0172150089631
 30
0.0
 10
126.6539934135332
 20
121.8757387275641
 30
0.0
 10
126.417683393119
 20
121.7114563817277
 30
0.0
 10
126.1949083989813
 20
121.5249962336491
 30
0.0
 10
125.9884523664753
 20
121.318571758836
 30
0.0
 10
125.7988396226352
 20
121.0928540645126
 30
0.0
 10
125.6284404465167
 20
120.8505632662676
 30
0.0
 10
125.4777276387209
 20
120.5925057735237
 30
0.0
 10
125.3485045020118
 20
120.3216785701311
 30
0.0
 10
125.2412248286467
 20
120.0391617167179
 30
0.0
 10
125.1570703249134
 20
119.7479737462029
 30
0.0
 10
125.0964270509056
 20
119.4495949733616
 30
0.0
 10
125.059893288459
 20
119.1468340015506
 30
0.0
 10
125.0476742575474
 20
118.841645991368
 30
0.0
 10
125.0598932881089
 20
118.5364579811833
 30
0.0
 10
125.0964270502046
 20
118.2336970093568
 30
0.0
 10
125.1570703238589
 20
117.9353182365139
 30
0.0
 10
125.2412248272361
 20
117.6441302659099
 30
0.0
 10
125.3485045002404
 20
117.3616134126938
 30
0.0
 10
125.4777276365841
 20
117.0907862083978
 30
0.0
 10
125.6284404440075
 20
116.8327287187712
 30
0.0
 10
125.7988396197466
 20
116.5904379087148
 30
0.0
 10
125.9884523631978
 20
116.364720257553
 30
0.0
 10
126.1949083953045
 20
116.1582956225589
 30
0.0
 10
126.4176833890283
 20
115.9718360634109
 30
0.0
 10
126.6539934090101
 20
115.8075515357252
 30
0.0
 10
126.9031527029644
 20
115.666083292677
 30
0.0
 10
127.1621984903249
 20
115.5489712890932
 30
0.0
 10
127.4301266554587
 20
115.4568493706343
 30
0.0
 10
127.7040688516585
 20
115.3905396050767
 30
0.0
 10
127.9825532646951
 20
115.3505879399868
 30
0.0
 10
128.2630554127792
 20
115.3371750303659
 30
0.0
 10
128.5435575608636
 20
115.3505879399869
 30
0.0
 10
128.8220419739001
 20
115.3905396050767
 30
0.0
 10
129.0959841701
 20
115.4568493706343
 30
0.0
 10
129.3639123352337
 20
115.5489712890932
 30
0.0
 10
129.6229581225943
 20
115.666083292677
 30
0.0
 10
129.8721174165486
 20
115.8075515357252
 30
0.0
 10
130.1084274365304
 20
115.9718360634109
 30
0.0
 10
130.3312024302541
 20
116.158295622559
 30
0.0
 10
130.5376584623608
 20
116.3647202575529
 30
0.0
 10
130.7272712058119
 20
116.5904379087148
 30
0.0
 10
130.8976703815511
 20
116.8327287187712
 30
0.0
 10
131.0483831889746
 20
117.0907862083978
 30
0.0
 10
131.1776063253181
 20
117.3616134126938
 30
0.0
 10
131.2848859983225
 20
117.64413026591
 30
0.0
 10
131.3690405016997
 20
117.9353182365139
 30
0.0
 10
131.429683775354
 20
118.2336970093567
 30
0.0
 10
131.4662175374497
 20
118.5364579811834
 30
0.0
 10
131.4784365680112
 20
118.841645991368
 30
0.0
 10
131.4662175370996
 20
119.1468340015506
 30
0.0
 10
131.4296837746529
 20
119.4495949733615
 30
0.0
 10
131.3690405006453
 20
119.7479737462029
 30
0.0
 10
131.2848859969119
 20
120.0391617167178
 30
0.0
 10
131.1776063235469
 20
120.3216785701311
 30
0.0
 10
131.0483831868377
 20
120.5925057735237
 30
0.0
 10
130.897670379042
 20
120.8505632662677
 30
0.0
 10
130.7272712029234
 20
121.0928540645126
 30
0.0
 10
130.5376584590833
 20
121.318571758836
 30
0.0
 10
130.3312024265773
 20
121.524996233649
 30
0.0
 10
130.1084274324397
 20
121.7114563817279
 30
0.0
 10
129.8721174120255
 20
121.875738727564
 30
0.0
 10
129.6229581176087
 20
122.0172150089632
 30
0.0
 10
129.3639123297381
 20
122.134297198092
 30
0.0
 10
129.0959841639693
 20
122.2265293070493
 30
0.0
 10
128.8220419668167
 20
122.292429466891
 30
0.0
 10
128.5435575556236
 20
122.3339018154544
 30
0.0
 10
128.3565559528214
 20
122.339064596159
 30
0.0
 10
128.2630554127793
 20
122.3416459819651
 30
0.0
 11
128.2630554127793
 21
122.3416459819651
 31
0.0
 11
127.9829754139097
 21
122.328293196667
 31
0.0
 11
127.705417605531
 21
122.2884731175078
 31
0.0
 11
127.4313662011521
 21
122.2222135347839
 31
0.0
 11
127.1647233408777
 21
122.1305701547158
 31
0.0
 11
126.9051349163417
 21
122.0133221544306
 31
0.0
 11
126.6574013404462
 21
121.8727348952106
 31
0.0
 11
126.4203008558373
 21
121.7080376998586
 31
0.0
 11
126.1988663265024
 21
121.5228015328815
 31
0.0
 11
125.9915829371926
 21
121.3157086559663
 31
0.0
 11
125.803050653415
 21
121.091402615868
 31
0.0
 11
125.6319621068413
 21
120.8483077851673
 31
0.0
 11
125.4819809801184
 21
120.5916459819651
 31
0.0
 11
125.3523042002441
 21
120.320057761994
 31
0.0
 11
125.2454128461667
 21
120.0387164836049
 31
0.0
 11
125.1610467848364
 21
119.7469990000595
 31
0.0
 11
125.1005342546007
 21
119.4494146037993
 31
0.0
 11
125.0639553060377
 21
119.1465088692651
 31
0.0
 11
125.051747268113
 21
118.8416459819651
 31
0.0
 11
125.0639553060377
 21
118.5367830946651
 31
0.0
 11
125.1005342546007
 21
118.2338773601308
 31
0.0
 11
125.1610467848365
 21
117.9362929638706
 31
0.0
 11
125.2454128461667
 21
117.6445754803252
 31
0.0
 11
125.352304200244
 21
117.3632342019362
 31
0.0
 11
125.4819809801184
 21
117.0916459819651
 31
0.0
 11
125.6319621068414
 21
116.834984178763
 31
0.0
 11
125.803050653415
 21
116.5918893480622
 31
0.0
 11
125.9915829371926
 21
116.3675833079639
 31
0.0
 11
126.1988663265024
 21
116.1604904310487
 31
0.0
 11
126.4203008558373
 21
115.9752542640717
 31
0.0
 11
126.6574013404462
 21
115.8105570687196
 31
0.0
 11
126.9051349163417
 21
115.6699698094996
 31
0.0
 11
127.1647233408777
 21
115.5527218092144
 31
0.0
 11
127.4313662011521
 21
115.4610784291463
 31
0.0
 11
127.705417605531
 21
115.3948188464224
 31
0.0
 11
127.9829754139097
 21
115.3549987672632
 31
0.0
 11
128.2630554127793
 21
115.3416459819651
 31
0.0
 11
128.5431354116489
 21
115.3549987672633
 31
0.0
 11
128.8206932200276
 21
115.3948188464224
 31
0.0
 11
129.0947446244065
 21
115.4610784291463
 31
0.0
 11
129.361387484681
 21
115.5527218092144
 31
0.0
 11
129.620975909217
 21
115.6699698094996
 31
0.0
 11
129.8687094851125
 21
115.8105570687196
 31
0.0
 11
130.1058099697214
 21
115.9752542640717
 31
0.0
 11
130.3272444990562
 21
116.1604904310487
 31
0.0
 11
130.534527888366
 21
116.3675833079639
 31
0.0
 11
130.7230601721436
 21
116.5918893480622
 31
0.0
 11
130.8941487187172
 21
116.834984178763
 31
0.0
 11
131.0441298454402
 21
117.0916459819651
 31
0.0
 11
131.1738066253145
 21
117.3632342019362
 31
0.0
 11
131.2806979793919
 21
117.6445754803252
 31
0.0
 11
131.3650640407222
 21
117.9362929638706
 31
0.0
 11
131.4255765709579
 21
118.2338773601308
 31
0.0
 11
131.4621555195209
 21
118.5367830946651
 31
0.0
 11
131.4743635574456
 21
118.8416459819651
 31
0.0
 11
131.4621555195209
 21
119.1465088692651
 31
0.0
 11
131.4255765709579
 21
119.4494146037993
 31
0.0
 11
131.3650640407222
 21
119.7469990000595
 31
0.0
 11
131.2806979793919
 21
120.0387164836049
 31
0.0
 11
131.1738066253146
 21
120.3200577619939
 31
0.0
 11
131.0441298454402
 21
120.5916459819651
 31
0.0
 11
130.8941487187172
 21
120.8483077851672
 31
0.0
 11
130.7230601721436
 21
121.091402615868
 31
0.0
 11
130.534527888366
 21
121.3157086559663
 31
0.0
 11
130.3272444990562
 21
121.5228015328815
 31
0.0
 11
130.1058099697214
 21
121.7080376998586
 31
0.0
 11
129.8687094851125
 21
121.8727348952106
 31
0.0
 11
129.620975909217
 21
122.0133221544307
 31
0.0
 11
129.361387484681
 21
122.1305701547158
 31
0.0
 11
129.0947446244065
 21
122.2222135347839
 31
0.0
 11
128.8206932200276
 21
122.2884731175078
 31
0.0
 11
128.543135411649
 21
122.328293196667
 31
0.0
 11
128.2630554127793
 21
122.3416459819651
 31
0.0
  0
SPLINE
  5
142
330
53
100
AcDbEntity
  8
1
  6
Continuous
 62
     7
100
AcDbSpline
210
0.0
220
0.0
230
1.0
 70
    11
 71
     3
 72
    79
 73
    75
 74
    73
 42
0.000000001
 43
0.0000000001
 44
0.00000001
 40
0.0
 40
0.0
 40
0.0
 40
0.0
 40
0.3105305852301649
 40
0.6211096995129561
 40
0.9446853825176306
 40
1.268350829332658
 40
1.615177937220657
 40
1.962073587500764
 40
2.337982250496538
 40
2.713934410283022
 40
3.120408255190442
 40
3.526909439089262
 40
3.961816264051692
 40
4.396740380766782
 40
4.85520200346057
 40
5.313674294823916
 40
5.788867662508722
 40
6.264066850590027
 40
6.74792877757974
 40
7.231792556800919
 40
7.715656336020795
 40
8.19951826300623
 40
8.674717451079415
 40
9.149910818750499
 40
9.60838311009265
 40
10.06684473275379
 40
10.5017688494227
 40
10.93667567431789
 40
11.34317685812721
 40
11.74965070290954
 40
12.12560286253668
 40
12.50151152531597
 40
12.84840717532584
 40
13.19523428284669
 40
13.51889972917791
 40
13.84247541139053
 40
14.15305452357898
 40
14.46358511620001
 40
14.77411570882094
 40
15.08469482100937
 40
15.40827050322202
 40
15.73193594955321
 40
16.07876305707407
 40
16.42565870708394
 40
16.80156736986325
 40
17.17751952949044
 40
17.58399337427276
 40
17.99049455808208
 40
18.42540138297724
 40
18.86032549964614
 40
19.31878712230727
 40
19.77725941364943
 40
20.25245278132053
 40
20.72765196939372
 40
21.21151389637915
 40
21.69537767559902
 40
22.17924145482021
 40
22.66310338180991
 40
23.13830256989119
 40
23.61349593757602
 40
24.07196822893938
 40
24.53042985163317
 40
24.96535396834825
 40
25.40026079331065
 40
25.80676197720949
 40
26.21323582211689
 40
26.58918798190341
 40
26.9650966448992
 40
27.31199229517931
 40
27.65881940306733
 40
27.98248484988234
 40
28.30606053288703
 40
28.6166396471698
 40
28.92717023239987
 40
28.92717023239987
 40
28.92717023239987
 40
28.92717023239987
 10
61.45923679665519
 20
118.9473118009159
 30
0.0
 10
61.46345284727192
 20
119.050896832734
 30
0.0
 10
61.47188559871127
 20
119.2580830849106
 30
0.0
 10
61.53861353185643
 20
119.5673026803379
 30
0.0
 10
61.64432091271522
 20
119.8693078276706
 30
0.0
 10
61.79284378081413
 20
120.1664680169896
 30
0.0
 10
61.97931151605714
 20
120.4506146827476
 30
0.0
 10
62.20648257147391
 20
120.7262142681971
 30
0.0
 10
62.46691602947132
 20
120.9845793882968
 30
0.0
 10
62.76532214042511
 20
121.2303473659596
 30
0.0
 10
63.09183585980523
 20
121.4557800186512
 30
0.0
 10
63.45206271803715
 20
121.6645257480828
 30
0.0
 10
63.83507592526168
 20
121.8505945424182
 30
0.0
 10
64.2460256830046
 20
122.0162434921146
 30
0.0
 10
64.67427499065961
 20
122.157457912835
 30
0.0
 10
65.12341525265047
 20
122.2752040349552
 30
0.0
 10
65.58420192346642
 20
122.3672751171691
 30
0.0
 10
66.05790079226747
 20
122.4337366907177
 30
0.0
 10
66.53745961110135
 20
122.4737803441638
 30
0.0
 10
67.02138565209323
 20
122.4871131962106
 30
0.0
 10
67.50531169308059
 20
122.4737803442086
 30
0.0
 10
67.9848705119267
 20
122.4337366908118
 30
0.0
 10
68.45856938068076
 20
122.367275117322
 30
0.0
 10
68.9193560516658
 20
122.2752040351799
 30
0.0
 10
69.36849631304484
 20
122.1574579131507
 30
0.0
 10
69.79674562292904
 20
122.0162434925431
 30
0.0
 10
70.20769537277046
 20
121.8505945429889
 30
0.0
 10
70.59070860854004
 20
121.6645257488264
 30
0.0
 10
70.9509353669211
 20
121.4557800196083
 30
0.0
 10
71.27744944442168
 20
121.2303473671701
 30
0.0
 10
71.57585431456994
 20
120.9845793898142
 30
0.0
 10
71.83629220825037
 20
120.7262142700734
 30
0.0
 10
72.06344792599353
 20
120.4506146850581
 30
0.0
 10
72.2499706522284
 20
120.1664680198191
 30
0.0
 10
72.398301341096
 20
119.8693078312046
 30
0.0
 10
72.50470570045889
 20
119.5673026851193
 30
0.0
 10
72.56893182620351
 20
119.258083088649
 30
0.0
 10
72.59083529248309
 20
118.9473118009159
 30
0.0
 10
72.56893182620344
 20
118.636540513183
 30
0.0
 10
72.50470570045891
 20
118.3273209167126
 30
0.0
 10
72.39830134109599
 20
118.0253157706274
 30
0.0
 10
72.24997065222837
 20
117.7281555820128
 30
0.0
 10
72.06344792599354
 20
117.4440089167737
 30
0.0
 10
71.83629220825034
 20
117.1684093317586
 30
0.0
 10
71.57585431456994
 20
116.9100442120176
 30
0.0
 10
71.2774494444217
 20
116.6642762346618
 30
0.0
 10
70.9509353669211
 20
116.4388435822235
 30
0.0
 10
70.59070860854004
 20
116.2300978530054
 30
0.0
 10
70.20769537277044
 20
116.044029058843
 30
0.0
 10
69.79674562292908
 20
115.8783801092888
 30
0.0
 10
69.36849631304479
 20
115.7371656886813
 30
0.0
 10
68.9193560516658
 20
115.619419566652
 30
0.0
 10
68.45856938068076
 20
115.5273484845099
 30
0.0
 10
67.9848705119267
 20
115.46088691102
 30
0.0
 10
67.5053116930806
 20
115.4208432576232
 30
0.0
 10
67.02138565209324
 20
115.4075104056213
 30
0.0
 10
66.53745961110135
 20
115.420843257668
 30
0.0
 10
66.05790079226747
 20
115.4608869111141
 30
0.0
 10
65.58420192346642
 20
115.5273484846627
 30
0.0
 10
65.12341525265052
 20
115.6194195668768
 30
0.0
 10
64.67427499065965
 20
115.7371656889969
 30
0.0
 10
64.2460256830046
 20
115.8783801097173
 30
0.0
 10
63.83507592526167
 20
116.0440290594137
 30
0.0
 10
63.45206271803711
 20
116.230097853749
 30
0.0
 10
63.09183585980524
 20
116.4388435831806
 30
0.0
 10
62.7653221404251
 20
116.6642762358722
 30
0.0
 10
62.46691602947134
 20
116.9100442135351
 30
0.0
 10
62.20648257147394
 20
117.1684093336348
 30
0.0
 10
61.97931151605714
 20
117.4440089190843
 30
0.0
 10
61.7928437808141
 20
117.7281555848423
 30
0.0
 10
61.64432091271524
 20
118.0253157741613
 30
0.0
 10
61.5386135318564
 20
118.327320921494
 30
0.0
 10
61.47188559871131
 20
118.6365405169213
 30
0.0
 10
61.46345284727193
 20
118.8437267690978
 30
0.0
 10
61.45923679665519
 20
118.9473118009159
 30
0.0
 11
61.45923679665519
 21
118.9473118009159
 31
0.0
 11
61.48074340886849
 21
119.2570967499907
 31
0.0
 11
61.54373833600002
 21
119.5612201199719
 31
0.0
 11
61.65062741827885
 21
119.8666312302721
 31
0.0
 11
61.79467541752138
 21
120.1564751454059
 31
0.0
 11
61.98434510154745
 21
120.4468446574934
 31
0.0
 11
62.20442344497751
 21
120.7149903544838
 31
0.0
 11
62.47077564450724
 21
120.9802521659501
 31
0.0
 11
62.76053243189668
 21
121.2197955452
 31
0.0
 11
63.094682074329
 21
121.451236688914
 31
0.0
 11
63.44610528811607
 21
121.6555524672784
 31
0.0
 11
63.83709149593098
 21
121.8460091071554
 31
0.0
 11
64.24031122931606
 21
122.0090208671454
 31
0.0
 11
64.67561100603989
 21
122.1528998574765
 31
0.0
 11
65.11901870986088
 21
122.2694607863344
 31
0.0
 11
65.58496341390254
 21
122.3627574607977
 31
0.0
 11
66.05552864760163
 21
122.42895888969
 31
0.0
 11
66.5377069257649
 21
122.4692884379076
 31
0.0
 11
67.02138566197695
 21
122.4826689080517
 31
0.0
 11
67.505064398189
 21
122.4692884379076
 31
0.0
 11
67.98724267635225
 21
122.42895888969
 31
0.0
 11
68.45780791005132
 21
122.3627574607978
 31
0.0
 11
68.92375261409299
 21
122.2694607863344
 31
0.0
 11
69.367160317914
 21
122.1528998574765
 31
0.0
 11
69.80246009463782
 21
122.0090208671454
 31
0.0
 11
70.20567982802291
 21
121.8460091071554
 31
0.0
 11
70.59666603583781
 21
121.6555524672784
 31
0.0
 11
70.94808924962489
 21
121.451236688914
 31
0.0
 11
71.2822388920572
 21
121.2197955452
 31
0.0
 11
71.57199567944664
 21
120.9802521659501
 31
0.0
 11
71.83834787897638
 21
120.7149903544838
 31
0.0
 11
72.05842622240647
 21
120.4468446574934
 31
0.0
 11
72.24809590643252
 21
120.1564751454059
 31
0.0
 11
72.39214390567504
 21
119.8666312302721
 31
0.0
 11
72.49903298795385
 21
119.5612201199719
 31
0.0
 11
72.5620279150854
 21
119.2570967499907
 31
0.0
 11
72.5835345272987
 21
118.9473118009159
 31
0.0
 11
72.56202791508537
 21
118.6375268518412
 31
0.0
 11
72.49903298795385
 21
118.33340348186
 31
0.0
 11
72.39214390567503
 21
118.0279923715598
 31
0.0
 11
72.24809590643252
 21
117.738148456426
 31
0.0
 11
72.05842622240647
 21
117.4477789443385
 31
0.0
 11
71.83834787897638
 21
117.1796332473481
 31
0.0
 11
71.57199567944664
 21
116.9143714358818
 31
0.0
 11
71.2822388920572
 21
116.6748280566318
 31
0.0
 11
70.9480892496249
 21
116.4433869129178
 31
0.0
 11
70.59666603583781
 21
116.2390711345534
 31
0.0
 11
70.20567982802292
 21
116.0486144946765
 31
0.0
 11
69.80246009463782
 21
115.8856027346865
 31
0.0
 11
69.367160317914
 21
115.7417237443554
 31
0.0
 11
68.92375261409299
 21
115.6251628154975
 31
0.0
 11
68.45780791005132
 21
115.5318661410341
 31
0.0
 11
67.98724267635225
 21
115.4656647121418
 31
0.0
 11
67.505064398189
 21
115.4253351639242
 31
0.0
 11
67.02138566197695
 21
115.4119546937802
 31
0.0
 11
66.53770692576488
 21
115.4253351639242
 31
0.0
 11
66.05552864760163
 21
115.4656647121418
 31
0.0
 11
65.58496341390257
 21
115.5318661410341
 31
0.0
 11
65.11901870986091
 21
115.6251628154975
 31
0.0
 11
64.6756110060399
 21
115.7417237443554
 31
0.0
 11
64.24031122931606
 21
115.8856027346865
 31
0.0
 11
63.83709149593098
 21
116.0486144946765
 31
0.0
 11
63.44610528811607
 21
116.2390711345534
 31
0.0
 11
63.09468207432899
 21
116.4433869129178
 31
0.0
 11
62.76053243189668
 21
116.6748280566318
 31
0.0
 11
62.47077564450725
 21
116.9143714358818
 31
0.0
 11
62.20442344497752
 21
117.1796332473481
 31
0.0
 11
61.98434510154745
 21
117.4477789443385
 31
0.0
 11
61.79467541752138
 21
117.738148456426
 31
0.0
 11
61.65062741827886
 21
118.0279923715598
 31
0.0
 11
61.54373833600002
 21
118.33340348186
 31
0.0
 11
61.48074340886851
 21
118.6375268518412
 31
0.0
 11
61.45923679665519
 21
118.9473118009159
 31
0.0
  0
SPLINE
  5
143
330
53
100
AcDbEntity
  8
1
  6
Continuous
 62
     7
100
AcDbSpline
210
0.0
220
0.0
230
1.0
 70
    11
 71
     3
 72
    79
 73
    75
 74
    73
 42
0.000000001
 43
0.0000000001
 44
0.00000001
 40
0.0
 40
0.0
 40
0.0
 40
0.0
 40
0.3105305852301668
 40
0.6211096995129668
 40
0.9446853825176342
 40
1.268350829332642
 40
1.615177937220623
 40
1.962073587500739
 40
2.337982250496523
 40
2.713934410283017
 40
3.120408255190425
 40
3.526909439089245
 40
3.961816264051689
 40
4.396740380766792
 40
4.855202003460565
 40
5.313674294823898
 40
5.788867662508776
 40
6.264066850590077
 40
6.747928777579776
 40
7.231792556800954
 40
7.715656336020817
 40
8.199518263006244
 40
8.674717451079436
 40
9.149910818750485
 40
9.60838311009263
 40
10.06684473275375
 40
10.50176884942267
 40
10.93667567431787
 40
11.34317685812719
 40
11.74965070290952
 40
12.12560286253667
 40
12.50151152531596
 40
12.84840717532581
 40
13.19523428284665
 40
13.51889972917789
 40
13.84247541139053
 40
14.15305452357897
 40
14.46358511619999
 40
14.77411570882092
 40
15.08469482100935
 40
15.40827050322201
 40
15.73193594955322
 40
16.07876305707406
 40
16.42565870708392
 40
16.80156736986323
 40
17.17751952949043
 40
17.58399337427275
 40
17.99049455808209
 40
18.42540138297726
 40
18.86032549964616
 40
19.31878712230728
 40
19.77725941364942
 40
20.2524527813205
 40
20.72765196939369
 40
21.2115138963791
 40
21.69537767559897
 40
22.17924145482015
 40
22.66310338180984
 40
23.13830256989117
 40
23.61349593757604
 40
24.07196822893937
 40
24.53042985163314
 40
24.96535396834823
 40
25.40026079331064
 40
25.80676197720948
 40
26.21323582211687
 40
26.58918798190337
 40
26.96509664489914
 40
27.31199229517928
 40
27.65881940306731
 40
27.9824848498823
 40
28.30606053288698
 40
28.61663964716977
 40
28.92717023239983
 40
28.92717023239983
 40
28.92717023239983
 40
28.92717023239983
 10
59.58353452729878
 20
118.9473118009159
 30
0.0
 10
59.57931847668202
 20
119.050896832734
 30
0.0
 10
59.57088572524268
 20
119.2580830849106
 30
0.0
 10
59.50415779209747
 20
119.5673026803379
 30
0.0
 10
59.39845041123869
 20
119.8693078276706
 30
0.0
 10
59.24992754313986
 20
120.1664680169896
 30
0.0
 10
59.06345980789685
 20
120.4506146827476
 30
0.0
 10
58.83628875248009
 20
120.7262142681971
 30
0.0
 10
58.57585529448264
 20
120.9845793882968
 30
0.0
 10
58.27744918352884
 20
121.2303473659596
 30
0.0
 10
57.95093546414874
 20
121.4557800186512
 30
0.0
 10
57.59070860591682
 20
121.6645257480828
 30
0.0
 10
57.20769539869229
 20
121.8505945424182
 30
0.0
 10
56.79674564094936
 20
122.0162434921146
 30
0.0
 10
56.36849633329433
 20
122.157457912835
 30
0.0
 10
55.91935607130347
 20
122.2752040349552
 30
0.0
 10
55.45856940048754
 20
122.3672751171692
 30
0.0
 10
54.98487053168643
 20
122.4337366907176
 30
0.0
 10
54.50531171285257
 20
122.4737803441639
 30
0.0
 10
54.02138567186067
 20
122.4871131962107
 30
0.0
 10
53.53745963087333
 20
122.4737803442086
 30
0.0
 10
53.05790081202725
 20
122.4337366908118
 30
0.0
 10
52.58420194327319
 20
122.367275117322
 30
0.0
 10
52.12341527228814
 20
122.2752040351799
 30
0.0
 10
51.67427501090918
 20
122.1574579131506
 30
0.0
 10
51.24602570102492
 20
122.0162434925431
 30
0.0
 10
50.83507595118354
 20
121.8505945429889
 30
0.0
 10
50.45206271541397
 20
121.6645257488264
 30
0.0
 10
50.09183595703286
 20
121.4557800196083
 30
0.0
 10
49.76532187953232
 20
121.23034736717
 30
0.0
 10
49.46691700938401
 20
120.9845793898143
 30
0.0
 10
49.20647911570359
 20
120.7262142700733
 30
0.0
 10
48.97932339796048
 20
120.4506146850581
 30
0.0
 10
48.79280067172563
 20
120.1664680198191
 30
0.0
 10
48.64446998285798
 20
119.8693078312045
 30
0.0
 10
48.53806562349501
 20
119.5673026851193
 30
0.0
 10
48.47383949775048
 20
119.2580830886489
 30
0.0
 10
48.45193603147091
 20
118.947311800916
 30
0.0
 10
48.47383949775048
 20
118.636540513183
 30
0.0
 10
48.53806562349503
 20
118.3273209167126
 30
0.0
 10
48.64446998285796
 20
118.0253157706273
 30
0.0
 10
48.79280067172563
 20
117.7281555820128
 30
0.0
 10
48.97932339796048
 20
117.4440089167738
 30
0.0
 10
49.20647911570358
 20
117.1684093317586
 30
0.0
 10
49.46691700938403
 20
116.9100442120176
 30
0.0
 10
49.76532187953229
 20
116.6642762346617
 30
0.0
 10
50.09183595703288
 20
116.4388435822235
 30
0.0
 10
50.45206271541394
 20
116.2300978530054
 30
0.0
 10
50.83507595118355
 20
116.044029058843
 30
0.0
 10
51.24602570102493
 20
115.8783801092888
 30
0.0
 10
51.67427501090918
 20
115.7371656886814
 30
0.0
 10
52.12341527228816
 20
115.619419566652
 30
0.0
 10
52.58420194327321
 20
115.5273484845099
 30
0.0
 10
53.05790081202721
 20
115.46088691102
 30
0.0
 10
53.53745963087334
 20
115.4208432576232
 30
0.0
 10
54.02138567186067
 20
115.4075104056213
 30
0.0
 10
54.50531171285257
 20
115.420843257668
 30
0.0
 10
54.98487053168643
 20
115.4608869111141
 30
0.0
 10
55.45856940048753
 20
115.5273484846627
 30
0.0
 10
55.9193560713035
 20
115.6194195668768
 30
0.0
 10
56.36849633329431
 20
115.7371656889969
 30
0.0
 10
56.79674564094935
 20
115.8783801097173
 30
0.0
 10
57.20769539869227
 20
116.0440290594137
 30
0.0
 10
57.59070860591686
 20
116.230097853749
 30
0.0
 10
57.95093546414873
 20
116.4388435831806
 30
0.0
 10
58.27744918352883
 20
116.6642762358721
 30
0.0
 10
58.57585529448259
 20
116.9100442135351
 30
0.0
 10
58.83628875247998
 20
117.1684093336348
 30
0.0
 10
59.06345980789681
 20
117.4440089190843
 30
0.0
 10
59.24992754313986
 20
117.7281555848423
 30
0.0
 10
59.39845041123871
 20
118.0253157741613
 30
0.0
 10
59.50415779209747
 20
118.3273209214941
 30
0.0
 10
59.57088572524266
 20
118.6365405169213
 30
0.0
 10
59.579318476682
 20
118.8437267690978
 30
0.0
 10
59.58353452729878
 20
118.9473118009159
 30
0.0
 11
59.58353452729878
 21
118.9473118009159
 31
0.0
 11
59.56202791508545
 21
119.2570967499907
 31
0.0
 11
59.49903298795388
 21
119.5612201199719
 31
0.0
 11
59.39214390567507
 21
119.8666312302721
 31
0.0
 11
59.24809590643258
 21
120.1564751454059
 31
0.0
 11
59.05842622240655
 21
120.4468446574934
 31
0.0
 11
58.83834787897648
 21
120.7149903544838
 31
0.0
 11
58.57199567944673
 21
120.9802521659501
 31
0.0
 11
58.28223889205728
 21
121.2197955452
 31
0.0
 11
57.94808924962497
 21
121.451236688914
 31
0.0
 11
57.5966660358379
 21
121.6555524672784
 31
0.0
 11
57.20567982802298
 21
121.8460091071554
 31
0.0
 11
56.80246009463788
 21
122.0090208671454
 31
0.0
 11
56.36716031791407
 21
122.1528998574765
 31
0.0
 11
55.92375261409308
 21
122.2694607863344
 31
0.0
 11
55.45780791005137
 21
122.3627574607978
 31
0.0
 11
54.98724267635228
 21
122.42895888969
 31
0.0
 11
54.50506439818903
 21
122.4692884379076
 31
0.0
 11
54.02138566197698
 21
122.4826689080517
 31
0.0
 11
53.53770692576494
 21
122.4692884379076
 31
0.0
 11
53.05552864760168
 21
122.42895888969
 31
0.0
 11
52.58496341390262
 21
122.3627574607978
 31
0.0
 11
52.11901870986098
 21
122.2694607863344
 31
0.0
 11
51.67561100603999
 21
122.1528998574765
 31
0.0
 11
51.24031122931618
 21
122.0090208671454
 31
0.0
 11
50.83709149593108
 21
121.8460091071554
 31
0.0
 11
50.44610528811617
 21
121.6555524672784
 31
0.0
 11
50.0946820743291
 21
121.451236688914
 31
0.0
 11
49.76053243189678
 21
121.2197955452
 31
0.0
 11
49.47077564450732
 21
120.9802521659501
 31
0.0
 11
49.20442344497758
 21
120.7149903544838
 31
0.0
 11
48.98434510154753
 21
120.4468446574934
 31
0.0
 11
48.79467541752148
 21
120.1564751454059
 31
0.0
 11
48.65062741827894
 21
119.8666312302721
 31
0.0
 11
48.54373833600008
 21
119.5612201199719
 31
0.0
 11
48.48074340886857
 21
119.2570967499907
 31
0.0
 11
48.45923679665528
 21
118.9473118009159
 31
0.0
 11
48.48074340886858
 21
118.6375268518412
 31
0.0
 11
48.54373833600008
 21
118.33340348186
 31
0.0
 11
48.65062741827893
 21
118.0279923715598
 31
0.0
 11
48.79467541752148
 21
117.738148456426
 31
0.0
 11
48.98434510154753
 21
117.4477789443386
 31
0.0
 11
49.20442344497758
 21
117.1796332473481
 31
0.0
 11
49.47077564450732
 21
116.9143714358818
 31
0.0
 11
49.76053243189678
 21
116.6748280566318
 31
0.0
 11
50.09468207432909
 21
116.4433869129178
 31
0.0
 11
50.44610528811617
 21
116.2390711345534
 31
0.0
 11
50.83709149593108
 21
116.0486144946765
 31
0.0
 11
51.24031122931618
 21
115.8856027346865
 31
0.0
 11
51.67561100603999
 21
115.7417237443554
 31
0.0
 11
52.11901870986098
 21
115.6251628154975
 31
0.0
 11
52.58496341390263
 21
115.5318661410341
 31
0.0
 11
53.05552864760168
 21
115.4656647121418
 31
0.0
 11
53.53770692576492
 21
115.4253351639242
 31
0.0
 11
54.02138566197698
 21
115.4119546937802
 31
0.0
 11
54.50506439818903
 21
115.4253351639242
 31
0.0
 11
54.98724267635228
 21
115.4656647121418
 31
0.0
 11
55.45780791005138
 21
115.5318661410341
 31
0.0
 11
55.92375261409308
 21
115.6251628154975
 31
0.0
 11
56.36716031791406
 21
115.7417237443554
 31
0.0
 11
56.80246009463788
 21
115.8856027346865
 31
0.0
 11
57.20567982802298
 21
116.0486144946765
 31
0.0
 11
57.5966660358379
 21
116.2390711345534
 31
0.0
 11
57.94808924962499
 21
116.4433869129178
 31
0.0
 11
58.28223889205728
 21
116.6748280566318
 31
0.0
 11
58.57199567944667
 21
116.9143714358818
 31
0.0
 11
58.83834787897638
 21
117.1796332473481
 31
0.0
 11
59.0584262224065
 21
117.4477789443385
 31
0.0
 11
59.24809590643258
 21
117.738148456426
 31
0.0
 11
59.39214390567507
 21
118.0279923715598
 31
0.0
 11
59.49903298795388
 21
118.33340348186
 31
0.0
 11
59.56202791508544
 21
118.6375268518412
 31
0.0
 11
59.58353452729878
 21
118.9473118009159
 31
0.0
  0
ENDBLK
  5
55
330
53
100
AcDbEntity
  8
0
100
AcDbBlockEnd
  0
BLOCK
  5
57
330
56
100
AcDbEntity
  8
0
100
AcDbBlockBegin
  2
42-15
 70
     0
 10
454.1003931845314
 20
434.2830739804692
 30
0.0
  3
42-15
  1

  0
LINE
  5
144
330
56
100
AcDbEntity
  8
1
  6
Continuous
 62
     7
100
AcDbLine
 10
146.521385661977
 20
146.2119546937802
 30
0.0
 11
132.521385661977
 21
146.2119546937802
 31
0.0
  0
LINE
  5
145
330
56
100
AcDbEntity
  8
1
  6
Continuous
 62
     2
100
AcDbLine
 10
138.521385661977
 20
145.4542927959515
 30
0.0
 11
138.521385661977
 21
144.3890537053409
 31
0.0
  0
LINE
  5
146
330
56
100
AcDbEntity
  8
1
  6
Continuous
 62
     2
100
AcDbLine
 10
137.521385661977
 20
145.6976080056842
 30
0.0
 11
137.521385661977
 21
144.129517481626
 31
0.0
  0
LINE
  5
147
330
56
100
AcDbEntity
  8
1
  6
Continuous
 62
     2
100
AcDbLine
 10
136.521385661977
 20
145.9084811874524
 30
0.0
 11
136.521385661977
 21
143.7726551740179
 31
0.0
  0
LINE
  5
148
330
56
100
AcDbEntity
  8
1
  6
Continuous
 62
     2
100
AcDbLine
 10
135.521385661977
 20
146.0220282853279
 30
0.0
 11
135.521385661977
 21
143.5780030062317
 31
0.0
  0
LINE
  5
149
330
56
100
AcDbEntity
  8
1
  6
Continuous
 62
     2
100
AcDbLine
 10
134.521385661977
 20
146.2119546937802
 30
0.0
 11
134.521385661977
 21
143.4119546937802
 31
0.0
  0
LINE
  5
14A
330
56
100
AcDbEntity
  8
1
  6
Continuous
 62
     2
100
AcDbLine
 10
133.521385661977
 20
146.2119546937802
 30
0.0
 11
133.521385661977
 21
143.4119546937802
 31
0.0
  0
LINE
  5
14B
330
56
100
AcDbEntity
  8
1
  6
Continuous
 62
     7
100
AcDbLine
 10
132.521385661977
 20
146.2119546937802
 30
0.0
 11
133.5213856619769
 21
146.4812768928034
 31
0.0
  0
LINE
  5
14C
330
56
100
AcDbEntity
  8
1
  6
Continuous
 62
     7
100
AcDbLine
 10
132.521385661977
 20
143.4119546937802
 30
0.0
 11
132.521385661977
 21
146.2119546937802
 31
0.0
  0
LINE
  5
14D
330
56
100
AcDbEntity
  8
1
  6
Continuous
 62
     2
100
AcDbLine
 10
133.021385661977
 20
146.2119546937802
 30
0.0
 11
133.021385661977
 21
143.4119546937802
 31
0.0
  0
LINE
  5
14E
330
56
100
AcDbEntity
  8
1
  6
Continuous
 62
     2
100
AcDbLine
 10
134.021385661977
 20
146.2119546937802
 30
0.0
 11
134.021385661977
 21
143.4119546937802
 31
0.0
  0
LINE
  5
14F
330
56
100
AcDbEntity
  8
1
  6
Continuous
 62
     7
100
AcDbLine
 10
132.521385661977
 20
143.4119546937802
 30
0.0
 11
146.521385661977
 21
143.4119546937802
 31
0.0
  0
LINE
  5
150
330
56
100
AcDbEntity
  8
1
  6
Continuous
 62
     2
100
AcDbLine
 10
135.021385661977
 20
146.0675424587578
 30
0.0
 11
135.021385661977
 21
143.5175420199677
 31
0.0
  0
LINE
  5
151
330
56
100
AcDbEntity
  8
1
  6
Continuous
 62
     2
100
AcDbLine
 10
136.021385661977
 20
145.9361730110451
 30
0.0
 11
136.021385661977
 21
143.6664273940422
 31
0.0
  0
LINE
  5
152
330
56
100
AcDbEntity
  8
1
  6
Continuous
 62
     2
100
AcDbLine
 10
137.021385661977
 20
145.7434978210662
 30
0.0
 11
137.021385661977
 21
144.0255038844575
 31
0.0
  0
LINE
  5
153
330
56
100
AcDbEntity
  8
1
  6
Continuous
 62
     2
100
AcDbLine
 10
138.021385661977
 20
145.4982748520018
 30
0.0
 11
138.021385661977
 21
144.3495485221495
 31
0.0
  0
LINE
  5
154
330
56
100
AcDbEntity
  8
1
  6
Continuous
 62
     7
100
AcDbLine
 10
146.521385661977
 20
146.2119546937802
 30
0.0
 11
146.521385661977
 21
143.4119546937802
 31
0.0
  0
LINE
  5
155
330
56
100
AcDbEntity
  8
1
  6
Continuous
 62
     7
100
AcDbLine
 10
146.521385661977
 20
146.2119546937802
 30
0.0
 11
145.271385661977
 21
146.541720413984
 31
0.0
  0
LINE
  5
156
330
56
100
AcDbEntity
  8
1
  6
Continuous
 62
     7
100
AcDbLine
 10
67.52138566197698
 20
146.2119546937802
 30
0.0
 11
53.52138566197698
 21
146.2119546937802
 31
0.0
  0
LINE
  5
157
330
56
100
AcDbEntity
  8
1
  6
Continuous
 62
     2
100
AcDbLine
 10
59.52138566197698
 20
145.4542927959515
 30
0.0
 11
59.52138566197698
 21
144.3890537053409
 31
0.0
  0
LINE
  5
158
330
56
100
AcDbEntity
  8
1
  6
Continuous
 62
     2
100
AcDbLine
 10
58.52138566197698
 20
145.6976080056842
 30
0.0
 11
58.52138566197698
 21
144.129517481626
 31
0.0
  0
LINE
  5
159
330
56
100
AcDbEntity
  8
1
  6
Continuous
 62
     2
100
AcDbLine
 10
57.52138566197698
 20
145.9084811874524
 30
0.0
 11
57.52138566197698
 21
143.7726551740179
 31
0.0
  0
LINE
  5
15A
330
56
100
AcDbEntity
  8
1
  6
Continuous
 62
     2
100
AcDbLine
 10
56.52138566197698
 20
146.0220282853279
 30
0.0
 11
56.52138566197698
 21
143.5780030062317
 31
0.0
  0
LINE
  5
15B
330
56
100
AcDbEntity
  8
1
  6
Continuous
 62
     2
100
AcDbLine
 10
55.52138566197698
 20
146.2119546937802
 30
0.0
 11
55.52138566197698
 21
143.4119546937802
 31
0.0
  0
LINE
  5
15C
330
56
100
AcDbEntity
  8
1
  6
Continuous
 62
     2
100
AcDbLine
 10
54.52138566197698
 20
146.2119546937802
 30
0.0
 11
54.52138566197698
 21
143.4119546937802
 31
0.0
  0
LINE
  5
15D
330
56
100
AcDbEntity
  8
1
  6
Continuous
 62
     7
100
AcDbLine
 10
53.52138566197698
 20
146.2119546937802
 30
0.0
 11
54.52138566197687
 21
146.4812768928034
 31
0.0
  0
LINE
  5
15E
330
56
100
AcDbEntity
  8
1
  6
Continuous
 62
     7
100
AcDbLine
 10
53.52138566197698
 20
143.4119546937802
 30
0.0
 11
53.52138566197698
 21
146.2119546937802
 31
0.0
  0
LINE
  5
15F
330
56
100
AcDbEntity
  8
1
  6
Continuous
 62
     2
100
AcDbLine
 10
54.02138566197698
 20
146.2119546937802
 30
0.0
 11
54.02138566197698
 21
143.4119546937802
 31
0.0
  0
LINE
  5
160
330
56
100
AcDbEntity
  8
1
  6
Continuous
 62
     2
100
AcDbLine
 10
55.02138566197698
 20
146.2119546937802
 30
0.0
 11
55.02138566197698
 21
143.4119546937802
 31
0.0
  0
LINE
  5
161
330
56
100
AcDbEntity
  8
1
  6
Continuous
 62
     7
100
AcDbLine
 10
53.52138566197698
 20
143.4119546937802
 30
0.0
 11
67.52138566197698
 21
143.4119546937802
 31
0.0
  0
LINE
  5
162
330
56
100
AcDbEntity
  8
1
  6
Continuous
 62
     2
100
AcDbLine
 10
56.02138566197698
 20
146.0675424587578
 30
0.0
 11
56.02138566197698
 21
143.5175420199677
 31
0.0
  0
LINE
  5
163
330
56
100
AcDbEntity
  8
1
  6
Continuous
 62
     2
100
AcDbLine
 10
57.02138566197698
 20
145.9361730110451
 30
0.0
 11
57.02138566197698
 21
143.6664273940422
 31
0.0
  0
LINE
  5
164
330
56
100
AcDbEntity
  8
1
  6
Continuous
 62
     2
100
AcDbLine
 10
58.02138566197698
 20
145.7434978210662
 30
0.0
 11
58.02138566197698
 21
144.0255038844575
 31
0.0
  0
LINE
  5
165
330
56
100
AcDbEntity
  8
1
  6
Continuous
 62
     2
100
AcDbLine
 10
59.02138566197698
 20
145.4982748520018
 30
0.0
 11
59.02138566197698
 21
144.3495485221495
 31
0.0
  0
LINE
  5
166
330
56
100
AcDbEntity
  8
1
  6
Continuous
 62
     7
100
AcDbLine
 10
67.52138566197698
 20
146.2119546937802
 30
0.0
 11
67.52138566197698
 21
143.4119546937802
 31
0.0
  0
LINE
  5
167
330
56
100
AcDbEntity
  8
1
  6
Continuous
 62
     7
100
AcDbLine
 10
67.52138566197698
 20
146.2119546937802
 30
0.0
 11
66.27138566197698
 21
146.541720413984
 31
0.0
  0
ARC
  5
168
330
56
100
AcDbEntity
  8
1
  6
Continuous
 62
     7
100
AcDbCircle
 10
139.521385661977
 20
122.2119546937801
 30
0.0
 40
25.0000000000001
100
AcDbArc
 50
90.0
 51
103.297071747209
  0
ARC
  5
169
330
56
100
AcDbEntity
  8
1
  6
Continuous
 62
     7
100
AcDbCircle
 10
139.521385661977
 20
122.2119546937801
 30
0.0
 40
25.00000000000017
100
AcDbArc
 50
103.297071747209
 51
103.8865403626292
  0
ARC
  5
16A
330
56
100
AcDbEntity
  8
1
  6
Continuous
 62
     7
100
AcDbCircle
 10
139.521385661977
 20
122.2119546937801
 30
0.0
 40
25.00000000000017
100
AcDbArc
 50
76.70292825279104
 51
90.0
  0
ARC
  5
16B
330
56
100
AcDbEntity
  8
1
  6
Continuous
 62
     7
100
AcDbCircle
 10
60.52138566197698
 20
122.2119546937801
 30
0.0
 40
25.0000000000001
100
AcDbArc
 50
90.0
 51
103.297071747209
  0
ARC
  5
16C
330
56
100
AcDbEntity
  8
1
  6
Continuous
 62
     7
100
AcDbCircle
 10
60.52138566197698
 20
122.2119546937801
 30
0.0
 40
25.00000000000017
100
AcDbArc
 50
103.297071747209
 51
103.8865403626292
  0
ARC
  5
16D
330
56
100
AcDbEntity
  8
1
  6
Continuous
 62
     7
100
AcDbCircle
 10
60.52138566197698
 20
122.2119546937801
 30
0.0
 40
25.00000000000017
100
AcDbArc
 50
76.70292825279104
 51
90.0
  0
CIRCLE
  5
16E
330
56
100
AcDbEntity
  8
1
  6
Continuous
 62
     7
100
AcDbCircle
 10
60.52138566197704
 20
198.887373625955
 30
0.0
 40
6.999999999999879
  0
ENDBLK
  5
58
330
56
100
AcDbEntity
  8
0
100
AcDbBlockEnd
  0
BLOCK
  5
5A
330
59
100
AcDbEntity
  8
0
100
AcDbBlockBegin
  2
36-54A
 70
     0
 10
72.45350685941585
 20
86.09819213030013
 30
0.0
  3
36-54A
  1

  0
LINE
  5
16F
330
59
100
AcDbEntity
  8
1
  6
Continuous
 62
     7
100
AcDbLine
 10
65.27138566197698
 20
132.4119546937802
 30
0.0
 11
65.27138566197698
 21
129.4119546937802
 31
0.0
  0
LINE
  5
170
330
59
100
AcDbEntity
  8
1
  6
Continuous
 62
     7
100
AcDbLine
 10
55.77138566197698
 20
129.4119546937802
 30
0.0
 11
55.77138566197698
 21
132.4119546937802
 31
0.0
  0
LINE
  5
171
330
59
100
AcDbEntity
  8
1
  6
Continuous
 62
     7
100
AcDbLine
 10
144.271385661977
 20
132.4119546937802
 30
0.0
 11
144.271385661977
 21
129.3416459819651
 31
0.0
  0
LINE
  5
172
330
59
100
AcDbEntity
  8
1
  6
Continuous
 62
     7
100
AcDbLine
 10
134.771385661977
 20
129.3416459819651
 30
0.0
 11
134.771385661977
 21
132.4119546937802
 31
0.0
  0
ENDBLK
  5
5B
330
59
100
AcDbEntity
  8
0
100
AcDbBlockEnd
  0
BLOCK
  5
5D
330
5C
100
AcDbEntity
  8
0
100
AcDbBlockBegin
  2
21-1C
 70
     0
 10
645.7045622872012
 20
104.2064304804839
 30
0.0
  3
21-1C
  1

  0
LINE
  5
173
330
5C
100
AcDbEntity
  8
1
  6
Continuous
 62
     7
100
AcDbLine
 10
66.31694061971126
 20
172.3344593553399
 30
0.0
 11
69.96834983118185
 21
185.9617040517726
 31
0.0
  0
LINE
  5
174
330
5C
100
AcDbEntity
  8
1
  6
Continuous
 62
     7
100
AcDbLine
 10
86.4146614437072
 20
207.1447329388357
 30
0.0
 11
76.43882595874487
 21
197.1688974538733
 31
0.0
  0
LINE
  5
175
330
5C
100
AcDbEntity
  8
1
  6
Continuous
 62
     7
100
AcDbLine
 10
81.37961138859322
 20
217.3867052581865
 30
0.0
 11
66.99186178953994
 21
213.5315193722189
 31
0.0
  0
LINE
  5
176
330
5C
100
AcDbEntity
  8
1
  6
Continuous
 62
     7
100
AcDbLine
 10
40.42366483798116
 20
217.1829285836893
 30
0.0
 11
54.05090953441396
 21
213.5315193722189
 31
0.0
  0
LINE
  5
177
330
5C
100
AcDbEntity
  8
1
  6
Continuous
 62
     7
100
AcDbLine
 10
34.62810988024665
 20
207.1447329388357
 30
0.0
 11
44.60394536520903
 21
197.1688974538733
 31
0.0
  0
LINE
  5
178
330
5C
100
AcDbEntity
  8
1
  6
Continuous
 62
     7
100
AcDbLine
 10
54.72583070424255
 20
172.3344593553399
 30
0.0
 11
51.07442149277205
 21
185.9617040517727
 31
0.0
  0
LINE
  5
179
330
5C
100
AcDbEntity
  8
0
  6
Continuous
 62
     7
100
AcDbLine
 10
54.72583070424258
 20
132.4119546937802
 30
0.0
 11
66.31694061971137
 21
132.4119546937802
 31
0.0
  0
LINE
  5
17A
330
5C
100
AcDbEntity
  8
0
  6
Continuous
 62
     7
100
AcDbLine
 10
66.31694061971137
 20
132.4119546937802
 30
0.0
 11
88.1720207565879
 21
132.4119546937802
 31
0.0
  0
LINE
  5
17B
330
5C
100
AcDbEntity
  8
0
  6
Continuous
 62
     7
100
AcDbLine
 10
32.87075056736597
 20
132.4119546937802
 30
0.0
 11
54.72583070424258
 21
132.4119546937802
 31
0.0
  0
LINE
  5
17C
330
5C
100
AcDbEntity
  8
1
  6
Continuous
 62
     7
100
AcDbLine
 10
109.0965698655875
 20
132.4119546937802
 30
0.0
 11
157.4461599499027
 21
132.4119546937802
 31
0.0
  0
LINE
  5
17D
330
5C
100
AcDbEntity
  8
1
  6
Continuous
 62
     7
100
AcDbLine
 10
157.3240715163282
 20
137.3710312995238
 30
0.0
 11
157.9412890103358
 21
132.9815766264928
 31
0.0
  0
LINE
  5
17E
330
5C
100
AcDbEntity
  8
1
  6
Continuous
 62
     7
100
AcDbLine
 10
109.0533439302091
 20
136.1970344491309
 30
0.0
 11
108.6014358312167
 21
132.9815412442602
 31
0.0
  0
ARC
  5
17F
330
5C
100
AcDbEntity
  8
1
  6
Continuous
 62
     7
100
AcDbCircle
 10
60.52138566197695
 20
173.887373625955
 30
0.0
 40
6.0
100
AcDbArc
 50
269.9999999999993
 51
344.9999999999999
  0
ARC
  5
180
330
5C
100
AcDbEntity
  8
1
  6
Continuous
 62
     7
100
AcDbCircle
 10
82.17202075658787
 20
211.387373625955
 30
0.0
 40
6.000000000000059
100
AcDbArc
 50
315.0000000000001
 51
97.52424107894065
  0
ARC
  5
181
330
5C
100
AcDbEntity
  8
1
  6
Continuous
 62
     7
100
AcDbCircle
 10
38.87075056736597
 20
211.387373625955
 30
0.0
 40
5.999999999999894
100
AcDbArc
 50
74.99999999999909
 51
225.0
  0
ARC
  5
182
330
5C
100
AcDbEntity
  8
1
  6
Continuous
 62
     7
100
AcDbCircle
 10
60.52138566197695
 20
173.887373625955
 30
0.0
 40
5.999999999999988
100
AcDbArc
 50
194.9999999999998
 51
269.9999999999993
  0
ARC
  5
183
330
5C
100
AcDbEntity
  8
1
  6
Continuous
 62
     7
100
AcDbCircle
 10
139.8855813272237
 20
68.50013368508098
 30
0.0
 40
75.0
100
AcDbArc
 50
80.40850751733488
 51
87.22136103403737
  0
ARC
  5
184
330
5C
100
AcDbEntity
  8
1
  6
Continuous
 62
     7
100
AcDbCircle
 10
139.521385661977
 20
-6.58804530621983
 30
0.0
 40
150.0533238552216
100
AcDbArc
 50
91.52752544221293
 51
99.80290179376779
  0
SPLINE
  5
185
330
5C
100
AcDbEntity
  8
0
  6
Continuous
 62
     7
100
AcDbSpline
210
0.0
220
0.0
230
1.0
 70
     8
 71
     3
 72
    27
 73
    23
 74
    21
 42
0.000000001
 43
0.0000000001
 44
0.00000001
 40
0.0
 40
0.0
 40
0.0
 40
0.0
 40
4.618703476093671
 40
9.23116890402696
 40
14.16779432066428
 40
19.11374070271292
 40
19.52821633187681
 40
19.94144217534836
 40
20.35867862566401
 40
20.77691959977453
 40
21.19949484179298
 40
21.62164873037811
 40
22.04927937800885
 40
22.47707342564173
 40
23.01006104395797
 40
23.54331037797869
 40
23.88091938438412
 40
24.2179578669304
 40
24.65811334484684
 40
25.09931765306989
 40
27.47512395611199
 40
29.84763482454804
 40
29.84763482454804
 40
29.84763482454804
 40
29.84763482454804
 10
56.52138566197698
 20
143.4119546937802
 30
0.0
 10
54.98265469257742
 20
143.3614075274675
 30
0.0
 10
51.90727097308252
 20
143.2603814595093
 30
0.0
 10
47.19298157195576
 20
142.9412128130279
 30
0.0
 10
42.40395481000968
 20
142.2674511784712
 30
0.0
 10
39.04295665756945
 20
141.5584449350638
 30
0.0
 10
37.1741250687405
 20
141.0986848269113
 30
0.0
 10
36.77725783895993
 20
140.9752872473931
 30
0.0
 10
36.39598768397853
 20
140.805996916932
 30
0.0
 10
36.03101616306641
 20
140.598406176985
 30
0.0
 10
35.68352393053881
 20
140.3598522801729
 30
0.0
 10
35.35560361540795
 20
140.0900085159611
 30
0.0
 10
35.05186154816172
 20
139.7907034478697
 30
0.0
 10
34.75161795454559
 20
139.4377613425451
 30
0.0
 10
34.46674724682849
 20
139.028121721787
 30
0.0
 10
34.23962989595789
 20
138.6180795319131
 30
0.0
 10
34.07281878259764
 20
138.2513666409554
 30
0.0
 10
33.94302768311554
 20
137.9027353135867
 30
0.0
 10
33.83711327423504
 20
137.5101182206741
 30
0.0
 10
33.61254619380051
 20
136.4478613968386
 30
0.0
 10
33.28487986700699
 20
134.7491537634123
 30
0.0
 10
33.00872977837776
 20
133.1906605084199
 30
0.0
 10
32.87075056736597
 20
132.4119546937802
 30
0.0
 11
56.52138566197698
 21
143.4119546937802
 31
0.0
 11
51.90612928732622
 21
143.2335441834538
 31
0.0
 11
47.30609405441459
 21
142.8951462047466
 31
0.0
 11
42.41686556591228
 21
142.212712807724
 31
0.0
 11
37.57628386528506
 21
141.1972550418279
 31
0.0
 11
37.17473716203978
 21
141.0945404248209
 31
0.0
 11
36.7813022649425
 21
140.9681894069259
 31
0.0
 11
36.39946669751754
 21
140.7999994690437
 31
0.0
 11
36.0353878320409
 21
140.5941546429521
 31
0.0
 11
35.68708894446338
 21
140.3548687880081
 31
0.0
 11
35.36120479917327
 21
140.0865156069393
 31
0.0
 11
35.05649625414515
 21
139.7864811527938
 31
0.0
 11
34.77923787663997
 21
139.4606966541189
 31
0.0
 11
34.47449434108238
 21
139.0234242227591
 31
0.0
 11
34.21571139178354
 21
138.5571772519826
 31
0.0
 11
34.0764019714232
 21
138.2496504617102
 31
0.0
 11
33.95934422250264
 21
137.9335928368398
 31
0.0
 11
33.84115753795933
 21
137.5096013835791
 31
0.0
 11
33.74632954469325
 21
137.0787082491174
 31
0.0
 11
33.29059464931083
 21
134.7470218861137
 31
0.0
 11
32.87075056736597
 21
132.4119546937802
 31
0.0
  0
SPLINE
  5
186
330
5C
100
AcDbEntity
  8
0
  6
Continuous
 62
     7
100
AcDbSpline
210
0.0
220
0.0
230
1.0
 70
     8
 71
     3
 72
    27
 73
    23
 74
    21
 42
0.000000001
 43
0.0000000001
 44
0.00000001
 40
0.0
 40
0.0
 40
0.0
 40
0.0
 40
4.618703476093643
 40
9.231168904026903
 40
14.16779432066424
 40
19.11374070271292
 40
19.5282163318768
 40
19.94144217534836
 40
20.35867862566401
 40
20.77691959977452
 40
21.199494841793
 40
21.62164873037811
 40
22.04927937800881
 40
22.47707342564175
 40
23.01006104395799
 40
23.54331037797869
 40
23.88091938438413
 40
24.21795786693041
 40
24.65811334484684
 40
25.0993176530699
 40
27.47512395611199
 40
29.84763482454803
 40
29.84763482454803
 40
29.84763482454803
 40
29.84763482454803
 10
64.52138566197698
 20
143.4119546937802
 30
0.0
 10
66.06011663137654
 20
143.3614075274675
 30
0.0
 10
69.1355003508714
 20
143.2603814595092
 30
0.0
 10
73.84978975199817
 20
142.9412128130279
 30
0.0
 10
78.63881651394425
 20
142.2674511784713
 30
0.0
 10
81.99981466638451
 20
141.5584449350637
 30
0.0
 10
83.86864625521345
 20
141.0986848269113
 30
0.0
 10
84.26551348499403
 20
140.9752872473931
 30
0.0
 10
84.64678363997538
 20
140.805996916932
 30
0.0
 10
85.01175516088757
 20
140.5984061769849
 30
0.0
 10
85.35924739341516
 20
140.359852280173
 30
0.0
 10
85.68716770854597
 20
140.090008515961
 30
0.0
 10
85.99090977579233
 20
139.7907034478698
 30
0.0
 10
86.29115336940832
 20
139.4377613425451
 30
0.0
 10
86.57602407712552
 20
139.028121721787
 30
0.0
 10
86.803141427996
 20
138.6180795319131
 30
0.0
 10
86.96995254135634
 20
138.2513666409554
 30
0.0
 10
87.0997436408384
 20
137.9027353135866
 30
0.0
 10
87.20565804971893
 20
137.5101182206741
 30
0.0
 10
87.43022513015345
 20
136.4478613968385
 30
0.0
 10
87.75789145694691
 20
134.7491537634123
 30
0.0
 10
88.03404154557613
 20
133.1906605084199
 30
0.0
 10
88.1720207565879
 20
132.4119546937802
 30
0.0
 11
64.52138566197698
 21
143.4119546937802
 31
0.0
 11
69.1366420366277
 21
143.2335441834538
 31
0.0
 11
73.73667726953931
 21
142.8951462047466
 31
0.0
 11
78.62590575804164
 21
142.212712807724
 31
0.0
 11
83.4664874586689
 21
141.1972550418279
 31
0.0
 11
83.86803416191418
 21
141.0945404248209
 31
0.0
 11
84.26146905901146
 21
140.9681894069259
 31
0.0
 11
84.64330462643642
 21
140.7999994690437
 31
0.0
 11
85.00738349191306
 21
140.5941546429521
 31
0.0
 11
85.35568237949059
 21
140.3548687880081
 31
0.0
 11
85.68156652478069
 21
140.0865156069393
 31
0.0
 11
85.98627506980883
 21
139.7864811527939
 31
0.0
 11
86.263533447314
 21
139.4606966541189
 31
0.0
 11
86.5682769828716
 21
139.0234242227591
 31
0.0
 11
86.8270599321704
 21
138.5571772519826
 31
0.0
 11
86.96636935253075
 21
138.2496504617102
 31
0.0
 11
87.0834271014513
 21
137.9335928368398
 31
0.0
 11
87.20161378599462
 21
137.5096013835791
 31
0.0
 11
87.2964417792607
 21
137.0787082491174
 31
0.0
 11
87.7521766746431
 21
134.7470218861137
 31
0.0
 11
88.1720207565879
 21
132.4119546937802
 31
0.0
  0
ARC
  5
187
330
5C
100
AcDbEntity
  8
1
  6
Continuous
 62
     7
100
AcDbCircle
 10
94.1164954884086
 20
179.4912279242096
 30
0.0
 40
25.00000000000005
100
AcDbArc
 50
135.0
 51
165.0
  0
ARC
  5
188
330
5C
100
AcDbEntity
  8
1
  6
Continuous
 62
     7
100
AcDbCircle
 10
60.52138566197687
 20
237.6796650294456
 30
0.0
 40
24.99999999999997
100
AcDbArc
 50
255.0000000000002
 51
285.0000000000001
  0
ARC
  5
189
330
5C
100
AcDbEntity
  8
1
  6
Continuous
 62
     7
100
AcDbCircle
 10
26.92627583554537
 20
179.4912279242096
 30
0.0
 40
25.0
100
AcDbArc
 50
15.0000000000002
 51
45.0000000000001
  0
ARC
  5
18A
330
5C
100
AcDbEntity
  8
1
  6
Continuous
 62
     7
100
AcDbCircle
 10
157.4461599499027
 20
132.9119546937802
 30
0.0
 40
0.5
100
AcDbArc
 50
270.0
 51
8.00409437169984
  0
ARC
  5
18B
330
5C
100
AcDbEntity
  8
1
  6
Continuous
 62
     7
100
AcDbCircle
 10
109.0965698655875
 20
132.9119546937802
 30
0.0
 40
0.5000000000000043
100
AcDbArc
 50
172.0000000000026
 51
270.0
  0
ARC
  5
18C
330
5C
100
AcDbEntity
  8
1
  6
Continuous
 62
     7
100
AcDbCircle
 10
151.382522791131
 20
136.5355681069724
 30
0.0
 40
6.000000000000035
100
AcDbArc
 50
8.00409437170095
 51
80.4085075173346
  0
ARC
  5
18D
330
5C
100
AcDbEntity
  8
1
  6
Continuous
 62
     7
100
AcDbCircle
 10
114.9949523426585
 20
135.3619958433705
 30
0.0
 40
6.000000000000019
100
AcDbArc
 50
99.8029017937678
 51
171.9999999999997
  0
ENDBLK
  5
5E
330
5C
100
AcDbEntity
  8
0
100
AcDbBlockEnd
  0
BLOCK
  5
66
330
5F
100
AcDbEntity
  8
0
100
AcDbBlockBegin
  2
R10AK-13Z
 70
     0
 10
32.87075056736592
 20
91.91195469378017
 30
0.0
  3
R10AK-13Z
  1

  0
INSERT
  5
60
330
5F
100
AcDbEntity
  8
1
100
AcDbBlockReference
  2
36-54-M11K
 10
364.2021548927461
 20
99.41195469378025
 30
0.0
  0
INSERT
  5
61
330
5F
100
AcDbEntity
  8
0
100
AcDbBlockReference
  2
91-1K
 10
373.7021548927463
 20
94.91195469378019
 30
0.0
  0
INSERT
  5
62
330
5F
100
AcDbEntity
  8
1
100
AcDbBlockReference
  2
37-1-13
 10
332.8898984074202
 20
87.99799558692995
 30
0.0
  0
INSERT
  5
63
330
5F
100
AcDbEntity
  8
0
100
AcDbBlockReference
  2
42-15
 10
454.1003931845314
 20
434.2830739804692
 30
0.0
  0
INSERT
  5
64
330
5F
100
AcDbEntity
  8
1
100
AcDbBlockReference
  2
36-54A
 10
72.45350685941585
 20
86.09819213030013
 30
0.0
  0
INSERT
  5
65
330
5F
100
AcDbEntity
  8
0
100
AcDbBlockReference
  2
21-1C
 10
645.7045622872012
 20
104.2064304804839
 30
0.0
  0
ENDBLK
  5
67
330
5F
100
AcDbEntity
  8
0
100
AcDbBlockEnd
  0
BLOCK
  5
69
330
68
100
AcDbEntity
  8
0
100
AcDbBlockBegin
  2
35-22
 70
     0
 10
-160.7057855282787
 20
140.5846706392713
 30
0.0
  3
35-22
  1

  0
LINE
  5
18E
330
68
100
AcDbEntity
  8
1
  6
Continuous
 62
     7
100
AcDbLine
 10
169.521385661977
 20
98.51195469378017
 30
0.0
 11
170.521385661977
 21
98.51195469378017
 31
0.0
  0
LINE
  5
18F
330
68
100
AcDbEntity
  8
1
  6
Continuous
 62
     7
100
AcDbLine
 10
69.12138566197694
 20
229.887373625955
 30
0.0
 11
69.12138566197694
 21
228.887373625955
 31
0.0
  0
LINE
  5
190
330
68
100
AcDbEntity
  8
1
  6
Continuous
 62
     7
100
AcDbLine
 10
51.92138566197696
 20
228.887373625955
 30
0.0
 11
51.92138566197696
 21
229.887373625955
 31
0.0
  0
LINE
  5
191
330
68
100
AcDbEntity
  8
1
  6
Continuous
 62
     7
100
AcDbLine
 10
170.521385661977
 20
81.31195469378018
 30
0.0
 11
169.521385661977
 21
81.31195469378018
 31
0.0
  0
ENDBLK
  5
6A
330
68
100
AcDbEntity
  8
0
100
AcDbBlockEnd
  0
BLOCK
  5
6C
330
6B
100
AcDbEntity
  8
0
100
AcDbBlockBegin
  2
32-26
 70
     0
 10
282.327938313813
 20
126.6912435183802
 30
0.0
  3
32-26
  1

  0
LINE
  5
192
330
6B
100
AcDbEntity
  8
1
  6
Continuous
 62
     7
100
AcDbLine
 10
72.13162868362144
 20
243.387373625955
 30
0.0
 11
48.91114264033246
 21
243.387373625955
 31
0.0
  0
LINE
  5
193
330
6B
100
AcDbEntity
  8
1
  6
Continuous
 62
     7
100
AcDbLine
 10
48.91114264033246
 20
229.887373625955
 30
0.0
 11
72.13162868362144
 21
229.887373625955
 31
0.0
  0
LINE
  5
194
330
6B
100
AcDbEntity
  8
1
  6
Continuous
 62
     7
100
AcDbLine
 10
72.52138566197695
 20
230.5751957994639
 30
0.0
 11
72.52138566197695
 21
242.6995514524461
 31
0.0
  0
LINE
  5
195
330
6B
100
AcDbEntity
  8
1
  6
Continuous
 62
     7
100
AcDbLine
 10
48.52138566197695
 20
230.5751957994639
 30
0.0
 11
48.52138566197695
 21
242.6995514524461
 31
0.0
  0
LINE
  5
196
330
6B
100
AcDbEntity
  8
1
  6
Continuous
 62
     7
100
AcDbLine
 10
170.521385661977
 20
101.2721977154245
 30
0.0
 11
170.521385661977
 21
78.55171167213568
 31
0.0
  0
LINE
  5
197
330
6B
100
AcDbEntity
  8
1
  6
Continuous
 62
     7
100
AcDbLine
 10
184.021385661977
 20
101.2721977154245
 30
0.0
 11
184.021385661977
 21
78.55171167213568
 31
0.0
  0
ARC
  5
198
330
6B
100
AcDbEntity
  8
1
  6
Continuous
 62
     7
100
AcDbCircle
 10
60.02138566197695
 20
236.637373625955
 30
0.0
 40
13.00000000000002
100
AcDbArc
 50
207.7957724960281
 51
211.2806671520485
  0
ARC
  5
199
330
6B
100
AcDbEntity
  8
1
  6
Continuous
 62
     7
100
AcDbCircle
 10
61.02138566197695
 20
236.637373625955
 30
0.0
 40
13.0
100
AcDbArc
 50
27.79577249602801
 51
31.28066715204843
  0
ARC
  5
19A
330
6B
100
AcDbEntity
  8
1
  6
Continuous
 62
     7
100
AcDbCircle
 10
61.02138566197695
 20
236.637373625955
 30
0.0
 40
13.00000000000001
100
AcDbArc
 50
328.7193328479515
 51
332.2042275039719
  0
ARC
  5
19B
330
6B
100
AcDbEntity
  8
1
  6
Continuous
 62
     7
100
AcDbCircle
 10
60.02138566197695
 20
236.637373625955
 30
0.0
 40
13.00000000000001
100
AcDbArc
 50
148.7193328479516
 51
152.204227503972
  0
ARC
  5
19C
330
6B
100
AcDbEntity
  8
1
  6
Continuous
 62
     7
100
AcDbCircle
 10
177.271385661977
 20
90.16195469378003
 30
0.0
 40
12.99999999999998
100
AcDbArc
 50
58.71933284795151
 51
121.2806671520485
  0
ARC
  5
19D
330
6B
100
AcDbEntity
  8
1
  6
Continuous
 62
     7
100
AcDbCircle
 10
177.000060002099
 20
89.89640838282808
 30
0.0
 40
6.332098487497206
100
AcDbArc
 50
0.14067041142498
 51
38.10483270602296
  0
ARC
  5
19E
330
6B
100
AcDbEntity
  8
1
  6
Continuous
 62
     7
100
AcDbCircle
 10
177.4716933799008
 20
89.861020775558
 30
0.0
 40
6.238808798172386
100
AcDbArc
 50
91.83989603134395
 51
179.5322294588913
  0
ARC
  5
19F
330
6B
100
AcDbEntity
  8
1
  6
Continuous
 62
     7
100
AcDbCircle
 10
177.2711112984856
 20
90.10897666790446
 30
0.0
 40
5.987636470587903
100
AcDbArc
 50
38.10483270602291
 51
89.99737461180345
  0
ARC
  5
1A0
330
6B
100
AcDbEntity
  8
1
  6
Continuous
 62
     7
100
AcDbCircle
 10
177.271385661977
 20
89.66195469378015
 30
0.0
 40
12.99999999999998
100
AcDbArc
 50
238.7193328479515
 51
301.2806671520485
  0
ARC
  5
1A1
330
6B
100
AcDbEntity
  8
1
  6
Continuous
 62
     7
100
AcDbCircle
 10
177.000060002099
 20
89.9275010047321
 30
0.0
 40
6.332098487497134
100
AcDbArc
 50
321.895167293977
 51
359.859329588576
  0
ARC
  5
1A2
330
6B
100
AcDbEntity
  8
1
  6
Continuous
 62
     7
100
AcDbCircle
 10
177.4716933799008
 20
89.96288861200217
 30
0.0
 40
6.238808798172458
100
AcDbArc
 50
180.4677705411077
 51
268.160103968656
  0
ARC
  5
1A3
330
6B
100
AcDbEntity
  8
1
  6
Continuous
 62
     7
100
AcDbCircle
 10
177.2711112984856
 20
89.71493271965572
 30
0.0
 40
5.987636470587953
100
AcDbArc
 50
270.0026253881966
 51
321.8951672939771
  0
SPLINE
  5
1A4
330
6B
100
AcDbEntity
  8
1
  6
Continuous
 62
     7
100
AcDbSpline
210
0.0
220
0.0
230
1.0
 70
    11
 71
     3
 72
    79
 73
    75
 74
    73
 42
0.000000001
 43
0.0000000001
 44
0.00000001
 40
0.0
 40
0.0
 40
0.0
 40
0.0
 40
0.2732520535846606
 40
0.5466869703593797
 40
0.8413986774771068
 40
1.136327585877753
 40
1.467767923047289
 40
1.799287328340489
 40
2.17457615177509
 40
2.549907458766624
 40
2.969561233397435
 40
3.389237627002498
 40
3.849011452192972
 40
4.308799501845982
 40
4.801169040845161
 40
5.293547116741337
 40
5.80878206504924
 40
6.324021647714487
 40
6.851020323954291
 40
7.378020463799109
 40
7.905020603646955
 40
8.432019279895545
 40
8.947258862573962
 40
9.462493810897639
 40
9.954871886808522
 40
10.44724142581802
 40
10.90702947547142
 40
11.36680330064599
 40
11.78647969421287
 40
12.20613346877016
 40
12.58146477564964
 40
12.95675359890683
 40
13.28827300396003
 40
13.61971334077293
 40
13.91464224869202
 40
14.20935395499984
 40
14.48278886957088
 40
14.75604092915157
 40
15.02929298873228
 40
15.30272790330334
 40
15.59743960961114
 40
15.89236851753026
 40
16.22380885434313
 40
16.55532825939637
 40
16.93061708265355
 40
17.305948389533
 40
17.72560216409027
 40
18.14527855765718
 40
18.60505238283174
 40
19.06484043248514
 40
19.55720997149462
 40
20.04958804740554
 40
20.56482299572922
 40
21.08006257840763
 40
21.60706125465619
 40
22.13406139450407
 40
22.66106153434891
 40
23.18806021058868
 40
23.70329979325394
 40
24.21853474156184
 40
24.71091281745802
 40
25.20328235645719
 40
25.6630704061102
 40
26.12284423130067
 40
26.54252062490577
 40
26.96217439953654
 40
27.33750570652801
 40
27.71279452996264
 40
28.04431393525591
 40
28.37575427242543
 40
28.6706831808261
 40
28.96539488794385
 40
29.23882980471855
 40
29.51208185830318
 40
29.51208185830318
 40
29.51208185830318
 40
29.51208185830318
 10
171.2092078354859
 20
80.00398511069828
 30
0.0
 10
171.2139396242951
 20
79.9128061637808
 30
0.0
 10
171.2234063577042
 20
79.73038725118668
 30
0.0
 10
171.2969961303995
 20
79.45776743644689
 30
0.0
 10
171.4129519756246
 20
79.19351352561675
 30
0.0
 10
171.5765047629041
 20
78.93252658845603
 30
0.0
 10
171.7795670077529
 20
78.68507446053816
 30
0.0
 10
172.0285161396129
 20
78.44380528858002
 30
0.0
 10
172.3114036828008
 20
78.21908857108427
 30
0.0
 10
172.6374758655658
 20
78.00422440208455
 30
0.0
 10
172.9921041189386
 20
77.80802681685894
 30
0.0
 10
173.3851742707808
 20
77.62561427236776
 30
0.0
 10
173.8014274766198
 20
77.46350555717163
 30
0.0
 10
174.2495140876991
 20
77.31877939512792
 30
0.0
 10
174.7152517975816
 20
77.19563210904543
 30
0.0
 10
175.2047547387542
 20
77.09277559050695
 30
0.0
 10
175.7061710270589
 20
77.01242256696038
 30
0.0
 10
176.2222542111339
 20
76.95438174947198
 30
0.0
 10
176.744341622186
 20
76.91940816363226
 30
0.0
 10
177.2713856519952
 20
76.90777975083368
 30
0.0
 10
177.7984296817977
 20
76.91940816376085
 30
0.0
 10
178.3205170928697
 20
76.95438174972297
 30
0.0
 10
178.8366002768738
 20
77.01242256732225
 30
0.0
 10
179.3380165654366
 20
77.0927755909613
 30
0.0
 10
179.8275195056844
 20
77.19563210956872
 30
0.0
 10
180.2932572189042
 20
77.31877939568949
 30
0.0
 10
180.7413438183059
 20
77.46350555773454
 30
0.0
 10
181.1575970658233
 20
77.6256142728895
 30
0.0
 10
181.5506670750155
 20
77.8080268172867
 30
0.0
 10
181.9052958318596
 20
78.00422440236333
 30
0.0
 10
182.2313663240934
 20
78.21908857114138
 30
0.0
 10
182.5142597833366
 20
78.44380528834529
 30
0.0
 10
182.7631892777708
 20
78.6850744599105
 30
0.0
 10
182.9663201918156
 20
78.93252658732975
 30
0.0
 10
183.1296434943332
 20
79.1935135237999
 30
0.0
 10
183.2464133609996
 20
79.457767433319
 30
0.0
 10
183.317173768491
 20
79.73038724875522
 30
0.0
 10
183.3417555924545
 20
80.0039851106983
 30
0.0
 10
183.317173768491
 20
80.27758297264137
 30
0.0
 10
183.2464133609996
 20
80.55020278807761
 30
0.0
 10
183.1296434943333
 20
80.81445669759674
 30
0.0
 10
182.9663201918156
 20
81.07544363406681
 30
0.0
 10
182.7631892777708
 20
81.32289576148614
 30
0.0
 10
182.5142597833366
 20
81.5641649330513
 30
0.0
 10
182.2313663240933
 20
81.78888165025518
 30
0.0
 10
181.9052958318596
 20
82.00374581903324
 30
0.0
 10
181.5506670750156
 20
82.19994340410987
 30
0.0
 10
181.1575970658233
 20
82.38235594850705
 30
0.0
 10
180.7413438183059
 20
82.54446466366201
 30
0.0
 10
180.2932572189043
 20
82.68919082570704
 30
0.0
 10
179.8275195056844
 20
82.8123381118279
 30
0.0
 10
179.3380165654367
 20
82.91519463043528
 30
0.0
 10
178.8366002768738
 20
82.9955476540744
 30
0.0
 10
178.3205170928696
 20
83.05358847167365
 30
0.0
 10
177.7984296817978
 20
83.08856205763574
 30
0.0
 10
177.2713856519952
 20
83.10019047056286
 30
0.0
 10
176.744341622186
 20
83.08856205776432
 30
0.0
 10
176.222254211134
 20
83.05358847192467
 30
0.0
 10
175.7061710270589
 20
82.9955476544362
 30
0.0
 10
175.2047547387542
 20
82.91519463088959
 30
0.0
 10
174.7152517975817
 20
82.81233811235109
 30
0.0
 10
174.249514087699
 20
82.68919082626863
 30
0.0
 10
173.8014274766198
 20
82.5444646642249
 30
0.0
 10
173.3851742707808
 20
82.38235594902883
 30
0.0
 10
172.9921041189386
 20
82.1999434045376
 30
0.0
 10
172.6374758655658
 20
82.00374581931203
 30
0.0
 10
172.3114036828009
 20
81.78888165031229
 30
0.0
 10
172.0285161396129
 20
81.56416493281657
 30
0.0
 10
171.7795670077528
 20
81.32289576085849
 30
0.0
 10
171.5765047629042
 20
81.07544363294053
 30
0.0
 10
171.4129519756246
 20
80.81445669577977
 30
0.0
 10
171.2969961303994
 20
80.55020278494965
 30
0.0
 10
171.2234063577042
 20
80.27758297020985
 30
0.0
 10
171.2139396242951
 20
80.09516405761575
 30
0.0
 10
171.2092078354859
 20
80.00398511069828
 30
0.0
 11
171.2092078354859
 21
80.00398511069828
 31
0.0
 11
171.2329835840878
 21
79.73176938391802
 31
0.0
 11
171.3013059383099
 21
79.46700777703568
 31
0.0
 11
171.4192883279011
 21
79.1969427003579
 31
0.0
 11
171.5748018925313
 21
78.94634622793284
 31
0.0
 11
171.7841548323218
 21
78.68939478598853
 31
0.0
 11
172.021385661977
 21
78.45782050109169
 31
0.0
 11
172.3146224982639
 21
78.2236114945586
 31
0.0
 11
172.6274880247944
 21
78.01627420351637
 31
0.0
 11
172.9943245145658
 21
77.81245987553184
 31
0.0
 11
173.374692867392
 21
77.63512349602551
 31
0.0
 11
173.8029273768946
 21
77.46777005210485
 31
0.0
 11
174.2402967487314
 21
77.32594944999468
 31
0.0
 11
174.7162154819512
 21
77.19973882322272
 31
0.0
 11
175.1979987328948
 21
77.09814616236295
 31
0.0
 11
175.7067100060977
 21
77.01641555315739
 31
0.0
 11
176.2186995297139
 21
76.95863532075093
 31
0.0
 11
176.7445151226544
 21
76.92334272973588
 31
0.0
 11
177.271385661977
 21
76.91165589148504
 31
0.0
 11
177.7982562012995
 21
76.9233427297359
 31
0.0
 11
178.32407179424
 21
76.95863532075093
 31
0.0
 11
178.8360613178561
 21
77.01641555315739
 31
0.0
 11
179.3447725910591
 21
77.09814616236295
 31
0.0
 11
179.8265558420027
 21
77.19973882322273
 31
0.0
 11
180.3024745752225
 21
77.32594944999468
 31
0.0
 11
180.7398439470593
 21
77.46777005210485
 31
0.0
 11
181.1680784565619
 21
77.63512349602551
 31
0.0
 11
181.5484468093881
 21
77.81245987553186
 31
0.0
 11
181.9152832991595
 21
78.01627420351637
 31
0.0
 11
182.2281488256901
 21
78.22361149455858
 31
0.0
 11
182.521385661977
 21
78.45782050109169
 31
0.0
 11
182.7586164916322
 21
78.68939478598853
 31
0.0
 11
182.9679694314226
 21
78.94634622793284
 31
0.0
 11
183.1234829960529
 21
79.19694270035792
 31
0.0
 11
183.2414653856441
 21
79.46700777703573
 31
0.0
 11
183.3097877398661
 21
79.73176938391805
 31
0.0
 11
183.333563488468
 21
80.00398511069828
 31
0.0
 11
183.3097877398661
 21
80.27620083747854
 31
0.0
 11
183.2414653856441
 21
80.54096244436089
 31
0.0
 11
183.1234829960529
 21
80.81102752103868
 31
0.0
 11
182.9679694314226
 21
81.06162399346378
 31
0.0
 11
182.7586164916322
 21
81.31857543540809
 31
0.0
 11
182.521385661977
 21
81.55014972030493
 31
0.0
 11
182.2281488256901
 21
81.784358726838
 31
0.0
 11
181.9152832991595
 21
81.99169601788019
 31
0.0
 11
181.5484468093882
 21
82.1955103458647
 31
0.0
 11
181.1680784565619
 21
82.37284672537105
 31
0.0
 11
180.7398439470593
 21
82.5402001692917
 31
0.0
 11
180.3024745752225
 21
82.68202077140187
 31
0.0
 11
179.8265558420027
 21
82.80823139817385
 31
0.0
 11
179.3447725910591
 21
82.90982405903365
 31
0.0
 11
178.8360613178561
 21
82.99155466823923
 31
0.0
 11
178.32407179424
 21
83.04933490064569
 31
0.0
 11
177.7982562012996
 21
83.08462749166068
 31
0.0
 11
177.271385661977
 21
83.09631432991152
 31
0.0
 11
176.7445151226544
 21
83.08462749166071
 31
0.0
 11
176.2186995297139
 21
83.04933490064569
 31
0.0
 11
175.7067100060977
 21
82.99155466823919
 31
0.0
 11
175.1979987328948
 21
82.9098240590336
 31
0.0
 11
174.7162154819512
 21
82.80823139817382
 31
0.0
 11
174.2402967487314
 21
82.68202077140187
 31
0.0
 11
173.8029273768946
 21
82.5402001692917
 31
0.0
 11
173.374692867392
 21
82.37284672537105
 31
0.0
 11
172.9943245145657
 21
82.1955103458647
 31
0.0
 11
172.6274880247944
 21
81.99169601788019
 31
0.0
 11
172.314622498264
 21
81.784358726838
 31
0.0
 11
172.021385661977
 21
81.55014972030493
 31
0.0
 11
171.7841548323217
 21
81.31857543540808
 31
0.0
 11
171.5748018925313
 21
81.06162399346373
 31
0.0
 11
171.4192883279011
 21
80.81102752103864
 31
0.0
 11
171.3013059383099
 21
80.54096244436083
 31
0.0
 11
171.2329835840878
 21
80.27620083747851
 31
0.0
 11
171.2092078354859
 21
80.00398511069828
 31
0.0
  0
SPLINE
  5
1A5
330
6B
100
AcDbEntity
  8
1
  6
Continuous
 62
     7
100
AcDbSpline
210
0.0
220
0.0
230
1.0
 70
    11
 71
     3
 72
    79
 73
    75
 74
    73
 42
0.000000001
 43
0.0000000001
 44
0.00000001
 40
0.0
 40
0.0
 40
0.0
 40
0.0
 40
0.273252053584649
 40
0.5466869703594022
 40
0.8413986774771293
 40
1.136327585877823
 40
1.467767923047324
 40
1.799287328340535
 40
2.174576151775118
 40
2.54990745876666
 40
2.969561233397471
 40
3.389237627002552
 40
3.84901145219301
 40
4.30879950184602
 40
4.801169040845185
 40
5.293547116741366
 40
5.808782065049302
 40
6.324021647714527
 40
6.851020323954329
 40
7.378020463799148
 40
7.905020603646994
 40
8.432019279895584
 40
8.947258862574007
 40
9.462493810897689
 40
9.954871886808567
 40
10.44724142581807
 40
10.90702947547146
 40
11.36680330064601
 40
11.78647969421292
 40
12.20613346877021
 40
12.58146477564967
 40
12.95675359890687
 40
13.28827300396009
 40
13.61971334077294
 40
13.91464224869205
 40
14.20935395499986
 40
14.48278886957095
 40
14.75604092915166
 40
15.02929298873237
 40
15.30272790330343
 40
15.59743960961124
 40
15.89236851753036
 40
16.2238088543432
 40
16.55532825939643
 40
16.93061708265365
 40
17.30594838953308
 40
17.72560216409034
 40
18.14527855765725
 40
18.60505238283181
 40
19.06484043248521
 40
19.55720997149469
 40
20.0495880474056
 40
20.56482299572928
 40
21.0800625784077
 40
21.60706125465626
 40
22.13406139450413
 40
22.66106153434898
 40
23.18806021058875
 40
23.703299793254
 40
24.21853474156191
 40
24.71091281745809
 40
25.20328235645726
 40
25.66307040611027
 40
26.12284423130074
 40
26.54252062490583
 40
26.96217439953661
 40
27.33750570652809
 40
27.71279452996272
 40
28.044313935256
 40
28.3757542724255
 40
28.67068318082618
 40
28.96539488794393
 40
29.23882980471861
 40
29.5120818583032
 40
29.5120818583032
 40
29.5120818583032
 40
29.5120818583032
 10
171.2092078354859
 20
99.81992427686187
 30
0.0
 10
171.2139396242952
 20
99.91110322377935
 30
0.0
 10
171.2234063577043
 20
100.0935221363735
 30
0.0
 10
171.2969961303994
 20
100.3661419511133
 30
0.0
 10
171.4129519756247
 20
100.6303958619434
 30
0.0
 10
171.5765047629041
 20
100.8913827991042
 30
0.0
 10
171.7795670077529
 20
101.1388349270221
 30
0.0
 10
172.0285161396129
 20
101.3801040989802
 30
0.0
 10
172.3114036828008
 20
101.6048208164759
 30
0.0
 10
172.6374758655658
 20
101.8196849854756
 30
0.0
 10
172.9921041189386
 20
102.0158825707013
 30
0.0
 10
173.3851742707808
 20
102.1982951151925
 30
0.0
 10
173.8014274766198
 20
102.3604038303885
 30
0.0
 10
174.2495140876991
 20
102.5051299924323
 30
0.0
 10
174.7152517975816
 20
102.6282772785146
 30
0.0
 10
175.2047547387543
 20
102.7311337970532
 30
0.0
 10
175.706171027059
 20
102.8114868205998
 30
0.0
 10
176.2222542111339
 20
102.8695276380883
 30
0.0
 10
176.744341622186
 20
102.9045012239279
 30
0.0
 10
177.2713856519952
 20
102.9161296367266
 30
0.0
 10
177.7984296817978
 20
102.9045012237994
 30
0.0
 10
178.3205170928696
 20
102.8695276378373
 30
0.0
 10
178.8366002768739
 20
102.811486820238
 30
0.0
 10
179.3380165654366
 20
102.7311337965988
 30
0.0
 10
179.8275195056844
 20
102.6282772779915
 30
0.0
 10
180.2932572189043
 20
102.5051299918707
 30
0.0
 10
180.7413438183059
 20
102.3604038298256
 30
0.0
 10
181.1575970658234
 20
102.1982951146707
 30
0.0
 10
181.5506670750155
 20
102.0158825702735
 30
0.0
 10
181.9052958318596
 20
101.8196849851968
 30
0.0
 10
182.2313663240934
 20
101.6048208164189
 30
0.0
 10
182.5142597833366
 20
101.3801040992148
 30
0.0
 10
182.7631892777709
 20
101.1388349276498
 30
0.0
 10
182.9663201918157
 20
100.8913828002304
 30
0.0
 10
183.1296434943332
 20
100.6303958637603
 30
0.0
 10
183.2464133609996
 20
100.3661419542412
 30
0.0
 10
183.3171737684909
 20
100.093522138805
 30
0.0
 10
183.3417555924545
 20
99.81992427686188
 30
0.0
 10
183.317173768491
 20
99.54632641491877
 30
0.0
 10
183.2464133609996
 20
99.27370659948257
 30
0.0
 10
183.1296434943334
 20
99.00945268996341
 30
0.0
 10
182.9663201918157
 20
98.74846575349338
 30
0.0
 10
182.7631892777708
 20
98.501013626074
 30
0.0
 10
182.5142597833366
 20
98.2597444545089
 30
0.0
 10
182.2313663240934
 20
98.03502773730501
 30
0.0
 10
181.9052958318595
 20
97.82016356852695
 30
0.0
 10
181.5506670750157
 20
97.6239659834503
 30
0.0
 10
181.1575970658233
 20
97.44155343905311
 30
0.0
 10
180.7413438183059
 20
97.2794447238982
 30
0.0
 10
180.2932572189042
 20
97.13471856185313
 30
0.0
 10
179.8275195056844
 20
97.0115712757323
 30
0.0
 10
179.3380165654367
 20
96.9087147571249
 30
0.0
 10
178.8366002768739
 20
96.8283617334858
 30
0.0
 10
178.3205170928696
 20
96.77032091588649
 30
0.0
 10
177.7984296817978
 20
96.7353473299245
 30
0.0
 10
177.2713856519952
 20
96.72371891699729
 30
0.0
 10
176.744341622186
 20
96.73534732979587
 30
0.0
 10
176.2222542111339
 20
96.77032091563552
 30
0.0
 10
175.7061710270589
 20
96.82836173312396
 30
0.0
 10
175.2047547387543
 20
96.9087147566706
 30
0.0
 10
174.7152517975817
 20
97.0115712752091
 30
0.0
 10
174.249514087699
 20
97.13471856129154
 30
0.0
 10
173.8014274766198
 20
97.27944472333523
 30
0.0
 10
173.3851742707808
 20
97.4415534385314
 30
0.0
 10
172.9921041189386
 20
97.62396598302257
 30
0.0
 10
172.6374758655659
 20
97.82016356824816
 30
0.0
 10
172.3114036828009
 20
98.0350277372479
 30
0.0
 10
172.0285161396129
 20
98.25974445474363
 30
0.0
 10
171.7795670077528
 20
98.5010136267017
 30
0.0
 10
171.5765047629041
 20
98.74846575461969
 30
0.0
 10
171.4129519756247
 20
99.00945269178044
 30
0.0
 10
171.2969961303994
 20
99.27370660261053
 30
0.0
 10
171.2234063577042
 20
99.54632641735031
 30
0.0
 10
171.2139396242952
 20
99.72874532994442
 30
0.0
 10
171.2092078354859
 20
99.81992427686187
 30
0.0
 11
171.2092078354859
 21
99.81992427686187
 31
0.0
 11
171.2329835840879
 21
100.0921400036421
 31
0.0
 11
171.3013059383099
 21
100.3569016105245
 31
0.0
 11
171.4192883279011
 21
100.6269666872023
 31
0.0
 11
171.5748018925313
 21
100.8775631596274
 31
0.0
 11
171.7841548323217
 21
101.1345146015717
 31
0.0
 11
172.021385661977
 21
101.3660888864685
 31
0.0
 11
172.3146224982639
 21
101.6002978930016
 31
0.0
 11
172.6274880247944
 21
101.8076351840438
 31
0.0
 11
172.9943245145658
 21
102.0114495120283
 31
0.0
 11
173.374692867392
 21
102.1887858915347
 31
0.0
 11
173.8029273768946
 21
102.3561393354553
 31
0.0
 11
174.2402967487314
 21
102.4979599375655
 31
0.0
 11
174.7162154819512
 21
102.6241705643374
 31
0.0
 11
175.1979987328948
 21
102.7257632251972
 31
0.0
 11
175.7067100060978
 21
102.8074938344028
 31
0.0
 11
176.2186995297139
 21
102.8652740668093
 31
0.0
 11
176.7445151226544
 21
102.9005666578243
 31
0.0
 11
177.271385661977
 21
102.9122534960752
 31
0.0
 11
177.7982562012995
 21
102.9005666578243
 31
0.0
 11
178.32407179424
 21
102.8652740668093
 31
0.0
 11
178.8360613178561
 21
102.8074938344028
 31
0.0
 11
179.3447725910591
 21
102.7257632251972
 31
0.0
 11
179.8265558420027
 21
102.6241705643374
 31
0.0
 11
180.3024745752225
 21
102.4979599375655
 31
0.0
 11
180.7398439470593
 21
102.3561393354553
 31
0.0
 11
181.1680784565619
 21
102.1887858915347
 31
0.0
 11
181.5484468093881
 21
102.0114495120283
 31
0.0
 11
181.9152832991595
 21
101.8076351840438
 31
0.0
 11
182.2281488256901
 21
101.6002978930016
 31
0.0
 11
182.521385661977
 21
101.3660888864685
 31
0.0
 11
182.7586164916322
 21
101.1345146015717
 31
0.0
 11
182.9679694314226
 21
100.8775631596274
 31
0.0
 11
183.1234829960529
 21
100.6269666872023
 31
0.0
 11
183.2414653856441
 21
100.3569016105245
 31
0.0
 11
183.3097877398661
 21
100.0921400036421
 31
0.0
 11
183.333563488468
 21
99.81992427686187
 31
0.0
 11
183.3097877398661
 21
99.54770855008161
 31
0.0
 11
183.2414653856441
 21
99.28294694319928
 31
0.0
 11
183.1234829960529
 21
99.01288186652147
 31
0.0
 11
182.9679694314226
 21
98.76228539409637
 31
0.0
 11
182.7586164916322
 21
98.50533395215209
 31
0.0
 11
182.521385661977
 21
98.27375966725528
 31
0.0
 11
182.22814882569
 21
98.03955066072218
 31
0.0
 11
181.9152832991595
 21
97.83221336967999
 31
0.0
 11
181.5484468093882
 21
97.62839904169547
 31
0.0
 11
181.1680784565619
 21
97.45106266218913
 31
0.0
 11
180.7398439470593
 21
97.2837092182685
 31
0.0
 11
180.3024745752225
 21
97.14188861615831
 31
0.0
 11
179.8265558420027
 21
97.01567798938633
 31
0.0
 11
179.3447725910591
 21
96.91408532852653
 31
0.0
 11
178.8360613178561
 21
96.83235471932095
 31
0.0
 11
178.32407179424
 21
96.77457448691449
 31
0.0
 11
177.7982562012996
 21
96.7392818958995
 31
0.0
 11
177.271385661977
 21
96.72759505764866
 31
0.0
 11
176.7445151226544
 21
96.73928189589948
 31
0.0
 11
176.2186995297139
 21
96.77457448691449
 31
0.0
 11
175.7067100060977
 21
96.83235471932097
 31
0.0
 11
175.1979987328948
 21
96.91408532852658
 31
0.0
 11
174.7162154819512
 21
97.01567798938636
 31
0.0
 11
174.2402967487314
 21
97.14188861615831
 31
0.0
 11
173.8029273768946
 21
97.28370921826848
 31
0.0
 11
173.374692867392
 21
97.45106266218913
 31
0.0
 11
172.9943245145657
 21
97.62839904169547
 31
0.0
 11
172.6274880247944
 21
97.83221336967999
 31
0.0
 11
172.314622498264
 21
98.0395506607222
 31
0.0
 11
172.021385661977
 21
98.27375966725528
 31
0.0
 11
171.7841548323217
 21
98.50533395215213
 31
0.0
 11
171.5748018925313
 21
98.76228539409647
 31
0.0
 11
171.4192883279011
 21
99.01288186652157
 31
0.0
 11
171.3013059383099
 21
99.28294694319938
 31
0.0
 11
171.2329835840879
 21
99.54770855008168
 31
0.0
 11
171.2092078354859
 21
99.81992427686187
 31
0.0
  0
SPLINE
  5
1A6
330
6B
100
AcDbEntity
  8
1
  6
Continuous
 62
     7
100
AcDbSpline
210
0.0
220
0.0
230
1.0
 70
    11
 71
     3
 72
    79
 73
    75
 74
    73
 42
0.000000001
 43
0.0000000001
 44
0.00000001
 40
0.0
 40
0.0
 40
0.0
 40
0.0
 40
0.4678743918470885
 40
0.9357531851523776
 40
1.407485922984347
 40
1.879230477450233
 40
2.35813583520661
 40
2.837057232580183
 40
3.3254633608171
 40
3.813886395812548
 40
4.312879550877179
 40
4.811888063607401
 40
5.321250491861618
 40
5.830625400768897
 40
6.348936652492597
 40
6.86725694311395
 40
7.392112791312136
 40
7.916974070462906
 40
8.445280248319868
 40
8.973588233934167
 40
9.501896219539285
 40
10.03020239736854
 40
10.55506367647267
 40
11.07991952460448
 40
11.59823981513977
 40
12.11655106675553
 40
12.62592597553355
 40
13.13528840363337
 40
13.63429691618541
 40
14.13329007104234
 40
14.62171310580232
 40
15.11011923376682
 40
15.58904063082962
 40
16.06794598821595
 40
16.53969054222282
 40
17.01142327937859
 40
17.47930207119713
 40
17.94717647177418
 40
18.41505087235128
 40
18.88292966416985
 40
19.35466240132561
 40
19.82640695533249
 40
20.30531231271883
 40
20.78423370978161
 40
21.27263983774609
 40
21.76106287250603
 40
22.26005602736299
 40
22.75906453991505
 40
23.26842696801494
 40
23.77780187679289
 40
24.29611312840863
 40
24.8144334189439
 40
25.33928926707573
 40
25.86415054617984
 40
26.39245672400911
 40
26.92076470961423
 40
27.44907269522855
 40
27.9773788730855
 40
28.50224015223628
 40
29.02709600043445
 40
29.54541629105578
 40
30.06372754277946
 40
30.5731024516867
 40
31.08246487994096
 40
31.58147339267123
 40
32.08046654773587
 40
32.56888958273126
 40
33.05729571096816
 40
33.53621710834173
 40
34.01512246609811
 40
34.486867020564
 40
34.95859975839596
 40
35.42647855170129
 40
35.89435294354843
 40
35.89435294354843
 40
35.89435294354843
 40
35.89435294354843
 10
66.52138566197695
 20
242.6995514524461
 30
0.0
 10
66.67740562006993
 20
242.695071633929
 30
0.0
 10
66.9894470041873
 20
242.6861119603811
 30
0.0
 10
67.45423112443102
 20
242.6142120945218
 30
0.0
 10
67.91120174139745
 20
242.4999784985806
 30
0.0
 10
68.35838292617544
 20
242.3400500135604
 30
0.0
 10
68.79034827966197
 20
242.1371901814826
 30
0.0
 10
69.2061586580964
 20
241.8918914676987
 30
0.0
 10
69.60008394060746
 20
241.6073645138031
 30
0.0
 10
69.97178816287443
 20
241.2841344805965
 30
0.0
 10
70.3158678228006
 20
240.9267232556407
 30
0.0
 10
70.63216357834129
 20
240.5355385301627
 30
0.0
 10
70.91611698945032
 20
240.1160970751532
 30
0.0
 10
71.16746051206214
 20
239.668981176418
 30
0.0
 10
71.38279498722693
 20
239.2001656851479
 30
0.0
 10
71.56166162007148
 20
238.7107895027843
 30
0.0
 10
71.70190584585714
 20
238.2067132248923
 30
0.0
 10
71.80299038166766
 20
237.6899717742273
 30
0.0
 10
71.86388743676699
 20
237.1658115356531
 30
0.0
 10
71.88424176340453
 20
236.6373736354303
 30
0.0
 10
71.86388743708757
 20
236.108935735207
 30
0.0
 10
71.8029903823102
 20
235.5847754966151
 30
0.0
 10
71.70190584682493
 20
235.0680340459652
 30
0.0
 10
71.56166162136846
 20
234.5639577679362
 30
0.0
 10
71.38279498885963
 20
234.0745815859645
 30
0.0
 10
71.16746051403709
 20
233.6057660930945
 30
0.0
 10
70.91611699177719
 20
233.1586502000432
 30
0.0
 10
70.6321635810294
 20
232.7392087238076
 30
0.0
 10
70.31586782586302
 20
232.3480240757193
 30
0.0
 10
69.9717881663243
 20
231.9906125648815
 30
0.0
 10
69.60008394446325
 20
231.667383576549
 30
0.0
 10
69.20615866237966
 20
231.382852765425
 30
0.0
 10
68.79034828440713
 20
231.1375681789975
 30
0.0
 10
68.35838293143377
 20
230.9346561024961
 30
0.0
 10
67.91120174730209
 20
230.7749198105642
 30
0.0
 10
67.45423113132355
 20
230.6599731652547
 30
0.0
 10
66.98944700931689
 20
230.5907137560815
 30
0.0
 10
66.52138566197692
 20
230.5674368725659
 30
0.0
 10
66.05332431463697
 20
230.5907137560815
 30
0.0
 10
65.58854019263026
 20
230.6599731652546
 30
0.0
 10
65.13156957665173
 20
230.7749198105643
 30
0.0
 10
64.68438839252005
 20
230.9346561024961
 30
0.0
 10
64.2524230395467
 20
231.1375681789976
 30
0.0
 10
63.83661266157418
 20
231.382852765425
 30
0.0
 10
63.44268737949061
 20
231.6673835765491
 30
0.0
 10
63.07098315762958
 20
231.9906125648815
 30
0.0
 10
62.72690349809085
 20
232.3480240757193
 30
0.0
 10
62.41060774292437
 20
232.7392087238076
 30
0.0
 10
62.12665433217664
 20
233.1586502000432
 30
0.0
 10
61.87531080991673
 20
233.6057660930945
 30
0.0
 10
61.65997633509424
 20
234.0745815859645
 30
0.0
 10
61.48110970258547
 20
234.5639577679363
 30
0.0
 10
61.34086547712903
 20
235.0680340459652
 30
0.0
 10
61.23978094164374
 20
235.5847754966151
 30
0.0
 10
61.17888388686625
 20
236.1089357352071
 30
0.0
 10
61.15852956054928
 20
236.6373736354302
 30
0.0
 10
61.17888388718684
 20
237.1658115356531
 30
0.0
 10
61.23978094228633
 20
237.6899717742274
 30
0.0
 10
61.3408654780968
 20
238.2067132248923
 30
0.0
 10
61.48110970388247
 20
238.7107895027844
 30
0.0
 10
61.65997633672691
 20
239.2001656851479
 30
0.0
 10
61.8753108118917
 20
239.668981176418
 30
0.0
 10
62.12665433450349
 20
240.1160970751532
 30
0.0
 10
62.41060774561252
 20
240.5355385301627
 30
0.0
 10
62.72690350115325
 20
240.9267232556406
 30
0.0
 10
63.07098316107944
 20
241.2841344805965
 30
0.0
 10
63.44268738334645
 20
241.6073645138031
 30
0.0
 10
63.8366126658574
 20
241.8918914676987
 30
0.0
 10
64.25242304429185
 20
242.1371901814826
 30
0.0
 10
64.68438839777838
 20
242.3400500135604
 30
0.0
 10
65.13156958255638
 20
242.4999784985806
 30
0.0
 10
65.58854019952282
 20
242.6142120945218
 30
0.0
 10
66.05332431976655
 20
242.6861119603811
 30
0.0
 10
66.36536570388395
 20
242.6950716339291
 30
0.0
 10
66.52138566197695
 20
242.6995514524461
 30
0.0
 11
66.52138566197695
 21
242.6995514524461
 31
0.0
 11
66.98868699503134
 21
242.6764015274963
 31
0.0
 11
67.45145768639335
 21
242.6074533496221
 31
0.0
 11
67.90898259163687
 21
242.4925501879262
 31
0.0
 11
68.35326994298705
 21
242.3339573954006
 31
0.0
 11
68.78683515228016
 21
242.130557418022
 31
0.0
 11
69.19942132268045
 21
241.887373625955
 31
0.0
 11
69.59550381990522
 21
241.6016128844469
 31
0.0
 11
69.96420194397484
 21
241.2812712631376
 31
0.0
 11
70.31046332553636
 21
240.9219702411798
 31
0.0
 11
70.62437433468975
 21
240.5340664205399
 31
0.0
 11
70.91011305907026
 21
240.1123989393673
 31
0.0
 11
71.15987949079675
 21
239.6684625392005
 31
0.0
 11
71.37638345692999
 21
239.1975351707978
 31
0.0
 11
71.55444635910627
 21
238.7107605550372
 31
0.0
 11
71.69524454690236
 21
238.2051425849027
 31
0.0
 11
71.79608622498506
 21
237.690059758218
 31
0.0
 11
71.85710815609073
 21
237.165289578493
 31
0.0
 11
71.87745698338406
 21
236.637373625955
 31
0.0
 11
71.85710815609073
 21
236.109457673417
 31
0.0
 11
71.79608622498506
 21
235.5846874936919
 31
0.0
 11
71.69524454690236
 21
235.0696046670073
 31
0.0
 11
71.55444635910627
 21
234.5639866968728
 31
0.0
 11
71.37638345692999
 21
234.0772120811122
 31
0.0
 11
71.15987949079675
 21
233.6062847127095
 31
0.0
 11
70.91011305907026
 21
233.1623483125426
 31
0.0
 11
70.62437433468975
 21
232.74068083137
 31
0.0
 11
70.31046332553638
 21
232.3527770107301
 31
0.0
 11
69.96420194397484
 21
231.9934759887724
 31
0.0
 11
69.5955038199052
 21
231.6731343674632
 31
0.0
 11
69.19942132268045
 21
231.387373625955
 31
0.0
 11
68.78683515228016
 21
231.144189833888
 31
0.0
 11
68.35326994298705
 21
230.9407898565094
 31
0.0
 11
67.90898259163687
 21
230.7821970639838
 31
0.0
 11
67.45145768639335
 21
230.6672939022879
 31
0.0
 11
66.98868699503134
 21
230.5983457244137
 31
0.0
 11
66.52138566197695
 21
230.5751957994639
 31
0.0
 11
66.0540843289225
 21
230.5983457244137
 31
0.0
 11
65.59131363756046
 21
230.6672939022879
 31
0.0
 11
65.13378873231696
 21
230.7821970639839
 31
0.0
 11
64.68950138096676
 21
230.9407898565094
 31
0.0
 11
64.25593617167365
 21
231.144189833888
 31
0.0
 11
63.84335000127337
 21
231.387373625955
 31
0.0
 11
63.44726750404865
 21
231.6731343674632
 31
0.0
 11
63.07856937997906
 21
231.9934759887724
 31
0.0
 11
62.73230799841749
 21
232.3527770107301
 31
0.0
 11
62.41839698926407
 21
232.74068083137
 31
0.0
 11
62.13265826488353
 21
233.1623483125427
 31
0.0
 11
61.88289183315706
 21
233.6062847127095
 31
0.0
 11
61.66638786702388
 21
234.0772120811122
 31
0.0
 11
61.48832496484766
 21
234.5639866968728
 31
0.0
 11
61.3475267770516
 21
235.0696046670073
 31
0.0
 11
61.24668509896887
 21
235.5846874936919
 31
0.0
 11
61.18566316786311
 21
236.109457673417
 31
0.0
 11
61.16531434056975
 21
236.637373625955
 31
0.0
 11
61.18566316786313
 21
237.165289578493
 31
0.0
 11
61.24668509896887
 21
237.690059758218
 31
0.0
 11
61.3475267770516
 21
238.2051425849027
 31
0.0
 11
61.48832496484766
 21
238.7107605550372
 31
0.0
 11
61.66638786702389
 21
239.1975351707978
 31
0.0
 11
61.88289183315706
 21
239.6684625392005
 31
0.0
 11
62.13265826488354
 21
240.1123989393673
 31
0.0
 11
62.41839698926407
 21
240.5340664205399
 31
0.0
 11
62.7323079984175
 21
240.9219702411798
 31
0.0
 11
63.07856937997906
 21
241.2812712631376
 31
0.0
 11
63.44726750404865
 21
241.6016128844468
 31
0.0
 11
63.84335000127337
 21
241.887373625955
 31
0.0
 11
64.25593617167365
 21
242.130557418022
 31
0.0
 11
64.68950138096676
 21
242.3339573954006
 31
0.0
 11
65.13378873231696
 21
242.4925501879262
 31
0.0
 11
65.59131363756046
 21
242.6074533496221
 31
0.0
 11
66.05408432892251
 21
242.6764015274963
 31
0.0
 11
66.52138566197695
 21
242.6995514524461
 31
0.0
  0
SPLINE
  5
1A7
330
6B
100
AcDbEntity
  8
1
  6
Continuous
 62
     7
100
AcDbSpline
210
0.0
220
0.0
230
1.0
 70
    11
 71
     3
 72
    79
 73
    75
 74
    73
 42
0.000000001
 43
0.0000000001
 44
0.00000001
 40
0.0
 40
0.0
 40
0.0
 40
0.0
 40
0.4678743918470814
 40
0.9357531851523705
 40
1.407485922984326
 40
1.879230477450232
 40
2.358135835206615
 40
2.837057232580183
 40
3.325463360817094
 40
3.813886395812547
 40
4.312879550877178
 40
4.811888063607396
 40
5.321250491861616
 40
5.830625400768888
 40
6.348936652492591
 40
6.867256943113937
 40
7.392112791312117
 40
7.916974070462891
 40
8.445280248319856
 40
8.973588233934155
 40
9.501896219539272
 40
10.03020239736853
 40
10.55506367647266
 40
11.07991952460447
 40
11.5982398151397
 40
12.11655106675551
 40
12.62592597553353
 40
13.13528840363335
 40
13.63429691618539
 40
14.13329007104232
 40
14.62171310580229
 40
15.11011923376681
 40
15.5890406308296
 40
16.06794598821593
 40
16.53969054222282
 40
17.01142327937858
 40
17.4793020711971
 40
17.94717647177416
 40
18.41505087235127
 40
18.88292966416985
 40
19.35466240132562
 40
19.8264069553325
 40
20.30531231271884
 40
20.78423370978161
 40
21.27263983774608
 40
21.76106287250601
 40
22.26005602736298
 40
22.75906453991506
 40
23.26842696801494
 40
23.7778018767929
 40
24.29611312840864
 40
24.81443341894391
 40
25.33928926707574
 40
25.86415054617985
 40
26.39245672400911
 40
26.92076470961423
 40
27.44907269522856
 40
27.9773788730855
 40
28.50224015223628
 40
29.02709600043445
 40
29.54541629105578
 40
30.06372754277946
 40
30.57310245168671
 40
31.08246487994096
 40
31.58147339267123
 40
32.08046654773589
 40
32.56888958273129
 40
33.05729571096816
 40
33.53621710834173
 40
34.0151224660981
 40
34.48686702056399
 40
34.95859975839596
 40
35.42647855170131
 40
35.89435294354845
 40
35.89435294354845
 40
35.89435294354845
 40
35.89435294354845
 10
54.52138566197695
 20
242.6995514524461
 30
0.0
 10
54.36536570388398
 20
242.6950716339291
 30
0.0
 10
54.0533243197666
 20
242.6861119603811
 30
0.0
 10
53.58854019952292
 20
242.6142120945218
 30
0.0
 10
53.13156958255644
 20
242.4999784985806
 30
0.0
 10
52.68438839777849
 20
242.3400500135605
 30
0.0
 10
52.25242304429192
 20
242.1371901814825
 30
0.0
 10
51.83661266585749
 20
241.8918914676987
 30
0.0
 10
51.44268738334643
 20
241.6073645138031
 30
0.0
 10
51.07098316107946
 20
241.2841344805965
 30
0.0
 10
50.72690350115333
 20
240.9267232556406
 30
0.0
 10
50.41060774561262
 20
240.5355385301627
 30
0.0
 10
50.12665433450357
 20
240.1160970751532
 30
0.0
 10
49.87531081189181
 20
239.668981176418
 30
0.0
 10
49.65997633672696
 20
239.200165685148
 30
0.0
 10
49.48110970388245
 20
238.7107895027843
 30
0.0
 10
49.3408654780968
 20
238.2067132248923
 30
0.0
 10
49.2397809422863
 20
237.6899717742273
 30
0.0
 10
49.17888388718691
 20
237.165811535653
 30
0.0
 10
49.1585295605494
 20
236.6373736354303
 30
0.0
 10
49.17888388686632
 20
236.108935735207
 30
0.0
 10
49.23978094164372
 20
235.5847754966151
 30
0.0
 10
49.34086547712901
 20
235.0680340459653
 30
0.0
 10
49.48110970258547
 20
234.5639577679363
 30
0.0
 10
49.65997633509431
 20
234.0745815859645
 30
0.0
 10
49.8753108099168
 20
233.6057660930945
 30
0.0
 10
50.12665433217671
 20
233.1586502000432
 30
0.0
 10
50.41060774292448
 20
232.7392087238077
 30
0.0
 10
50.7269034980909
 20
232.3480240757194
 30
0.0
 10
51.07098315762958
 20
231.9906125648815
 30
0.0
 10
51.44268737949062
 20
231.667383576549
 30
0.0
 10
51.83661266157427
 20
231.382852765425
 30
0.0
 10
52.25242303954675
 20
231.1375681789974
 30
0.0
 10
52.68438839252016
 20
230.9346561024961
 30
0.0
 10
53.13156957665181
 20
230.7749198105642
 30
0.0
 10
53.58854019263036
 20
230.6599731652547
 30
0.0
 10
54.05332431463702
 20
230.5907137560815
 30
0.0
 10
54.52138566197699
 20
230.567436872566
 30
0.0
 10
54.98944700931693
 20
230.5907137560815
 30
0.0
 10
55.45423113132365
 20
230.6599731652547
 30
0.0
 10
55.91120174730219
 20
230.7749198105642
 30
0.0
 10
56.35838293143389
 20
230.9346561024961
 30
0.0
 10
56.79034828440725
 20
231.1375681789975
 30
0.0
 10
57.20615866237974
 20
231.3828527654249
 30
0.0
 10
57.60008394446331
 20
231.6673835765491
 30
0.0
 10
57.97178816632434
 20
231.9906125648816
 30
0.0
 10
58.31586782586306
 20
232.3480240757194
 30
0.0
 10
58.63216358102954
 20
232.7392087238076
 30
0.0
 10
58.91611699177731
 20
233.1586502000432
 30
0.0
 10
59.1674605140372
 20
233.6057660930945
 30
0.0
 10
59.38279498885969
 20
234.0745815859645
 30
0.0
 10
59.56166162136846
 20
234.5639577679362
 30
0.0
 10
59.7019058468249
 20
235.0680340459653
 30
0.0
 10
59.80299038231018
 20
235.5847754966151
 30
0.0
 10
59.8638874370877
 20
236.1089357352071
 30
0.0
 10
59.88424176340463
 20
236.6373736354302
 30
0.0
 10
59.86388743676704
 20
237.1658115356532
 30
0.0
 10
59.80299038166763
 20
237.6899717742273
 30
0.0
 10
59.70190584585712
 20
238.2067132248923
 30
0.0
 10
59.56166162007149
 20
238.7107895027844
 30
0.0
 10
59.382794987227
 20
239.2001656851479
 30
0.0
 10
59.16746051206225
 20
239.668981176418
 30
0.0
 10
58.91611698945042
 20
240.1160970751532
 30
0.0
 10
58.63216357834143
 20
240.5355385301628
 30
0.0
 10
58.31586782280063
 20
240.9267232556405
 30
0.0
 10
57.97178816287445
 20
241.2841344805965
 30
0.0
 10
57.6000839406075
 20
241.6073645138031
 30
0.0
 10
57.20615865809653
 20
241.8918914676987
 30
0.0
 10
56.79034827966208
 20
242.1371901814826
 30
0.0
 10
56.35838292617554
 20
242.3400500135604
 30
0.0
 10
55.91120174139757
 20
242.4999784985806
 30
0.0
 10
55.45423112443109
 20
242.6142120945217
 30
0.0
 10
54.98944700418736
 20
242.6861119603811
 30
0.0
 10
54.67740562006995
 20
242.6950716339291
 30
0.0
 10
54.52138566197695
 20
242.6995514524461
 30
0.0
 11
54.52138566197695
 21
242.6995514524461
 31
0.0
 11
54.05408432892256
 21
242.6764015274963
 31
0.0
 11
53.59131363756055
 21
242.6074533496221
 31
0.0
 11
53.13378873231705
 21
242.4925501879262
 31
0.0
 11
52.68950138096685
 21
242.3339573954006
 31
0.0
 11
52.25593617167373
 21
242.130557418022
 31
0.0
 11
51.84335000127345
 21
241.887373625955
 31
0.0
 11
51.44726750404868
 21
241.6016128844469
 31
0.0
 11
51.07856937997906
 21
241.2812712631376
 31
0.0
 11
50.73230799841754
 21
240.9219702411798
 31
0.0
 11
50.41839698926415
 21
240.5340664205399
 31
0.0
 11
50.13265826488364
 21
240.1123989393673
 31
0.0
 11
49.88289183315715
 21
239.6684625392005
 31
0.0
 11
49.66638786702392
 21
239.1975351707978
 31
0.0
 11
49.48832496484766
 21
238.7107605550372
 31
0.0
 11
49.34752677705158
 21
238.2051425849027
 31
0.0
 11
49.24668509896887
 21
237.690059758218
 31
0.0
 11
49.18566316786319
 21
237.165289578493
 31
0.0
 11
49.16531434056986
 21
236.637373625955
 31
0.0
 11
49.18566316786318
 21
236.109457673417
 31
0.0
 11
49.24668509896887
 21
235.5846874936919
 31
0.0
 11
49.34752677705158
 21
235.0696046670073
 31
0.0
 11
49.48832496484766
 21
234.5639866968728
 31
0.0
 11
49.66638786702394
 21
234.0772120811123
 31
0.0
 11
49.88289183315715
 21
233.6062847127095
 31
0.0
 11
50.13265826488364
 21
233.1623483125426
 31
0.0
 11
50.41839698926415
 21
232.74068083137
 31
0.0
 11
50.73230799841754
 21
232.3527770107301
 31
0.0
 11
51.07856937997906
 21
231.9934759887724
 31
0.0
 11
51.44726750404869
 21
231.6731343674632
 31
0.0
 11
51.84335000127345
 21
231.387373625955
 31
0.0
 11
52.25593617167374
 21
231.144189833888
 31
0.0
 11
52.68950138096685
 21
230.9407898565094
 31
0.0
 11
53.13378873231705
 21
230.7821970639838
 31
0.0
 11
53.59131363756055
 21
230.6672939022879
 31
0.0
 11
54.05408432892256
 21
230.5983457244137
 31
0.0
 11
54.52138566197695
 21
230.5751957994639
 31
0.0
 11
54.9886869950314
 21
230.5983457244137
 31
0.0
 11
55.45145768639347
 21
230.6672939022879
 31
0.0
 11
55.90898259163697
 21
230.7821970639839
 31
0.0
 11
56.35326994298717
 21
230.9407898565094
 31
0.0
 11
56.78683515228028
 21
231.144189833888
 31
0.0
 11
57.19942132268056
 21
231.387373625955
 31
0.0
 11
57.59550381990525
 21
231.6731343674632
 31
0.0
 11
57.96420194397484
 21
231.9934759887724
 31
0.0
 11
58.31046332553642
 21
232.3527770107301
 31
0.0
 11
58.62437433468986
 21
232.74068083137
 31
0.0
 11
58.91011305907039
 21
233.1623483125427
 31
0.0
 11
59.15987949079687
 21
233.6062847127095
 31
0.0
 11
59.37638345693005
 21
234.0772120811122
 31
0.0
 11
59.55444635910627
 21
234.5639866968728
 31
0.0
 11
59.69524454690234
 21
235.0696046670073
 31
0.0
 11
59.79608622498506
 21
235.5846874936919
 31
0.0
 11
59.8571081560908
 21
236.109457673417
 31
0.0
 11
59.87745698338415
 21
236.637373625955
 31
0.0
 11
59.85710815609079
 21
237.165289578493
 31
0.0
 11
59.79608622498506
 21
237.690059758218
 31
0.0
 11
59.69524454690234
 21
238.2051425849027
 31
0.0
 11
59.55444635910627
 21
238.7107605550372
 31
0.0
 11
59.37638345693005
 21
239.1975351707978
 31
0.0
 11
59.15987949079687
 21
239.6684625392005
 31
0.0
 11
58.91011305907038
 21
240.1123989393673
 31
0.0
 11
58.62437433468986
 21
240.5340664205399
 31
0.0
 11
58.31046332553642
 21
240.9219702411798
 31
0.0
 11
57.96420194397484
 21
241.2812712631376
 31
0.0
 11
57.59550381990526
 21
241.6016128844468
 31
0.0
 11
57.19942132268056
 21
241.887373625955
 31
0.0
 11
56.78683515228028
 21
242.130557418022
 31
0.0
 11
56.35326994298717
 21
242.3339573954006
 31
0.0
 11
55.90898259163697
 21
242.4925501879262
 31
0.0
 11
55.45145768639347
 21
242.6074533496221
 31
0.0
 11
54.9886869950314
 21
242.6764015274963
 31
0.0
 11
54.52138566197695
 21
242.6995514524461
 31
0.0
  0
ENDBLK
  5
6D
330
6B
100
AcDbEntity
  8
0
100
AcDbBlockEnd
  0
BLOCK
  5
1D0
330
1C9
100
AcDbEntity
  8
0
100
AcDbBlockBegin
  2
*D12
 70
     1
 10
0.0
 20
0.0
 30
0.0
  3
*D12
  1

  0
LINE
  5
1CA
330
1C9
100
AcDbEntity
  8
1
  6
Continuous
 62
     2
100
AcDbLine
 10
98.521385661977
 20
89.9119546937802
 30
0.0
 11
98.521385661977
 21
147.2119546937802
 31
0.0
  0
LINE
  5
1CB
330
1C9
100
AcDbEntity
  8
1
  6
Continuous
 62
     2
100
AcDbLine
 10
139.521385661977
 20
147.2119546937802
 30
0.0
 11
97.521385661977
 21
147.2119546937802
 31
0.0
  0
LINE
  5
1CC
330
1C9
100
AcDbEntity
  8
1
  6
Continuous
 62
     2
100
AcDbLine
 10
107.4038415070354
 20
89.9119546937802
 30
0.0
 11
97.521385661977
 21
89.9119546937802
 31
0.0
  0
SOLID
  5
1CD
330
1C9
100
AcDbEntity
  8
1
 62
     2
100
AcDbTrace
 10
98.06060192042112
 20
93.4119546937802
 30
0.0
 11
98.9821694035329
 21
93.4119546937802
 31
0.0
 12
98.521385661977
 22
89.9119546937802
 32
0.0
 13
98.521385661977
 23
89.9119546937802
 33
0.0
  0
SOLID
  5
1CE
330
1C9
100
AcDbEntity
  8
1
 62
     2
100
AcDbTrace
 10
98.9821694035329
 20
143.7119546937802
 30
0.0
 11
98.06060192042112
 21
143.7119546937802
 31
0.0
 12
98.521385661977
 22
147.2119546937802
 32
0.0
 13
98.521385661977
 23
147.2119546937802
 33
0.0
  0
MTEXT
  5
1CF
330
1C9
100
AcDbEntity
  8
1
 62
     7
100
AcDbMText
 10
97.521385661977
 20
108.05921736347
 30
0.0
 40
3.5
 41
0.0
 71
     7
 72
     1
  1
58リフト5
  7
CONVERTER_11
 11
0.0
 21
1.0
 31
0.0
 73
     1
 44
0.45454545454545
  0
ENDBLK
  5
1D1
330
1C9
100
AcDbEntity
  8
0
100
AcDbBlockEnd
  0
BLOCK
  5
1DB
330
1D4
100
AcDbEntity
  8
0
100
AcDbBlockBegin
  2
*D13
 70
     1
 10
0.0
 20
0.0
 30
0.0
  3
*D13
  1

  0
LINE
  5
1D5
330
1D4
100
AcDbEntity
  8
1
  6
Continuous
 62
     2
100
AcDbLine
 10
109.521385661977
 20
66.91195469378019
 30
0.0
 11
139.521385661977
 21
66.91195469378019
 31
0.0
  0
LINE
  5
1D6
330
1D4
100
AcDbEntity
  8
1
  6
Continuous
 62
     2
100
AcDbLine
 10
139.521385661977
 20
73.91195469378017
 30
0.0
 11
139.521385661977
 21
65.91195469378019
 31
0.0
  0
LINE
  5
1D7
330
1D4
100
AcDbEntity
  8
1
  6
Continuous
 62
     2
100
AcDbLine
 10
109.521385661977
 20
80.59645469378017
 30
0.0
 11
109.521385661977
 21
65.91195469378019
 31
0.0
  0
SOLID
  5
1D8
330
1D4
100
AcDbEntity
  8
1
 62
     2
100
AcDbTrace
 10
113.021385661977
 20
67.37273843533607
 30
0.0
 11
113.021385661977
 21
66.4511709522243
 31
0.0
 12
109.521385661977
 22
66.91195469378019
 32
0.0
 13
109.521385661977
 23
66.91195469378019
 33
0.0
  0
SOLID
  5
1D9
330
1D4
100
AcDbEntity
  8
1
 62
     2
100
AcDbTrace
 10
136.021385661977
 20
66.4511709522243
 30
0.0
 11
136.021385661977
 21
67.37273843533607
 31
0.0
 12
139.521385661977
 22
66.91195469378019
 32
0.0
 13
139.521385661977
 23
66.91195469378019
 33
0.0
  0
MTEXT
  5
1DA
330
1D4
100
AcDbEntity
  8
1
 62
     7
100
AcDbMText
 10
121.896385661977
 20
67.91195469378019
 30
0.0
 40
3.5
 41
0.0
 71
     7
 72
     1
  1
30
  7
CONVERTER_12
 11
0.9999999999970619
 21
2.424068405545306E-6
 31
0.0
 73
     1
 44
0.60024009603842
  0
ENDBLK
  5
1DC
330
1D4
100
AcDbEntity
  8
0
100
AcDbBlockEnd
  0
BLOCK
  5
1E6
330
1DF
100
AcDbEntity
  8
0
100
AcDbBlockBegin
  2
*D14
 70
     1
 10
0.0
 20
0.0
 30
0.0
  3
*D14
  1

  0
LINE
  5
1E0
330
1DF
100
AcDbEntity
  8
1
  6
Continuous
 62
     2
100
AcDbLine
 10
139.521385661977
 20
66.91195469378019
 30
0.0
 11
184.021385661977
 21
66.91195469378019
 31
0.0
  0
LINE
  5
1E1
330
1DF
100
AcDbEntity
  8
1
  6
Continuous
 62
     2
100
AcDbLine
 10
184.021385661977
 20
78.55171167213568
 30
0.0
 11
184.021385661977
 21
65.91195469378019
 31
0.0
  0
LINE
  5
1E2
330
1DF
100
AcDbEntity
  8
1
  6
Continuous
 62
     2
100
AcDbLine
 10
139.521385661977
 20
73.91195469378017
 30
0.0
 11
139.521385661977
 21
65.91195469378019
 31
0.0
  0
SOLID
  5
1E3
330
1DF
100
AcDbEntity
  8
1
 62
     2
100
AcDbTrace
 10
143.021385661977
 20
67.37273843533607
 30
0.0
 11
143.021385661977
 21
66.4511709522243
 31
0.0
 12
139.521385661977
 22
66.91195469378019
 32
0.0
 13
139.521385661977
 23
66.91195469378019
 33
0.0
  0
SOLID
  5
1E4
330
1DF
100
AcDbEntity
  8
1
 62
     2
100
AcDbTrace
 10
180.521385661977
 20
66.4511709522243
 30
0.0
 11
180.521385661977
 21
67.37273843533607
 31
0.0
 12
184.021385661977
 22
66.91195469378019
 32
0.0
 13
184.021385661977
 23
66.91195469378019
 33
0.0
  0
MTEXT
  5
1E5
330
1DF
100
AcDbEntity
  8
1
 62
     7
100
AcDbMText
 10
159.146385661977
 20
67.91195469378019
 30
0.0
 40
3.5
 41
0.0
 71
     7
 72
     1
  1
45
  7
CONVERTER_12
 11
0.9999999999970619
 21
2.424068405545306E-6
 31
0.0
 73
     1
 44
0.60024009603842
  0
ENDBLK
  5
1E7
330
1DF
100
AcDbEntity
  8
0
100
AcDbBlockEnd
  0
BLOCK
  5
1F1
330
1EA
100
AcDbEntity
  8
0
100
AcDbBlockBegin
  2
*D15
 70
     1
 10
0.0
 20
0.0
 30
0.0
  3
*D15
  1

  0
LINE
  5
1EB
330
1EA
100
AcDbEntity
  8
1
  6
Continuous
 62
     2
100
AcDbLine
 10
48.52138566197695
 20
253.387373625955
 30
0.0
 11
72.52138566197695
 21
253.387373625955
 31
0.0
  0
LINE
  5
1EC
330
1EA
100
AcDbEntity
  8
1
  6
Continuous
 62
     2
100
AcDbLine
 10
72.52138566197695
 20
242.6995514524461
 30
0.0
 11
72.52138566197695
 21
254.387373625955
 31
0.0
  0
LINE
  5
1ED
330
1EA
100
AcDbEntity
  8
1
  6
Continuous
 62
     2
100
AcDbLine
 10
48.52138566197695
 20
242.6995514524461
 30
0.0
 11
48.52138566197695
 21
254.387373625955
 31
0.0
  0
SOLID
  5
1EE
330
1EA
100
AcDbEntity
  8
1
 62
     2
100
AcDbTrace
 10
52.02138566197695
 20
253.8481573675109
 30
0.0
 11
52.02138566197695
 21
252.9265898843991
 31
0.0
 12
48.52138566197695
 22
253.387373625955
 32
0.0
 13
48.52138566197695
 23
253.387373625955
 33
0.0
  0
SOLID
  5
1EF
330
1EA
100
AcDbEntity
  8
1
 62
     2
100
AcDbTrace
 10
69.02138566197695
 20
252.9265898843991
 30
0.0
 11
69.02138566197695
 21
253.8481573675109
 31
0.0
 12
72.52138566197695
 22
253.387373625955
 32
0.0
 13
72.52138566197695
 23
253.387373625955
 33
0.0
  0
MTEXT
  5
1F0
330
1EA
100
AcDbEntity
  8
1
 62
     7
100
AcDbMText
 10
57.89638566197698
 20
254.387373625955
 30
0.0
 40
3.5
 41
0.0
 71
     7
 72
     1
  1
24
  7
CONVERTER_12
 11
0.9999999999970619
 21
2.424068405545306E-6
 31
0.0
 73
     1
 44
0.60024009603842
  0
ENDBLK
  5
1F2
330
1EA
100
AcDbEntity
  8
0
100
AcDbBlockEnd
  0
ENDSEC
  0
SECTION
  2
ENTITIES
  0
INSERT
  5
6E
330
1F
100
AcDbEntity
  8
1
100
AcDbBlockReference
  2
開示A4
 10
0.0
 20
0.0
 30
0.0
  0
INSERT
  5
6F
330
1F
100
AcDbEntity
  8
1
100
AcDbBlockReference
  2
V26-0
 10
109.521385661977
 20
76.91195469378013
 30
0.0
  0
INSERT
  5
70
330
1F
100
AcDbEntity
  8
1
100
AcDbBlockReference
  2
R10AK-13Z
 10
32.87075056736592
 20
91.91195469378017
 30
0.0
  0
INSERT
  5
71
330
1F
100
AcDbEntity
  8
1
100
AcDbBlockReference
  2
35-22
 10
-160.7057855282787
 20
140.5846706392713
 30
0.0
  0
INSERT
  5
72
330
1F
100
AcDbEntity
  8
1
100
AcDbBlockReference
  2
32-26
 10
282.327938313813
 20
126.6912435183802
 30
0.0
  0
LINE
  5
1A8
330
1F
100
AcDbEntity
  8
1
  6
Continuous
 62
     7
100
AcDbLine
 10
167.8874971278389
 20
127.1234231120778
 30
0.0
 11
163.519879837086
 21
128.7131058005783
 31
0.0
  0
LINE
  5
1A9
330
1F
100
AcDbEntity
  8
1
  6
Continuous
 62
     7
100
AcDbLine
 10
163.519879837086
 20
128.7131058005783
 30
0.0
 11
167.8874971278389
 21
130.3027884890788
 31
0.0
  0
LINE
  5
1AA
330
1F
100
AcDbEntity
  8
1
  6
Continuous
 62
     7
100
AcDbLine
 10
170.9855519692879
 20
129.6731058005784
 30
0.0
 11
170.9855519692879
 21
127.7531058005783
 31
0.0
  0
LINE
  5
1AB
330
1F
100
AcDbEntity
  8
1
  6
Continuous
 62
     7
100
AcDbLine
 10
170.9855519692879
 20
127.7531058005783
 30
0.0
 11
167.8874971278389
 21
127.7531058005783
 31
0.0
  0
LINE
  5
1AC
330
1F
100
AcDbEntity
  8
1
  6
Continuous
 62
     7
100
AcDbLine
 10
167.8874971278389
 20
127.7531058005783
 30
0.0
 11
167.8874971278389
 21
127.1234231120778
 31
0.0
  0
LINE
  5
1AD
330
1F
100
AcDbEntity
  8
1
  6
Continuous
 62
     7
100
AcDbLine
 10
167.8874971278389
 20
130.3027884890788
 30
0.0
 11
167.8874971278389
 21
129.6731058005784
 31
0.0
  0
LINE
  5
1AE
330
1F
100
AcDbEntity
  8
1
  6
Continuous
 62
     7
100
AcDbLine
 10
167.8874971278389
 20
129.6731058005784
 30
0.0
 11
170.9855519692879
 21
129.6731058005784
 31
0.0
  0
LINE
  5
1AF
330
1F
100
AcDbEntity
  8
1
  6
DASH_CENTER
 62
     2
100
AcDbLine
 10
44.52138566197698
 20
89.91195469378017
 30
0.0
 11
76.52138566197698
 21
89.91195469378017
 31
0.0
  0
LINE
  5
1B0
330
1F
100
AcDbEntity
  8
1
  6
DASH_CENTER
 62
     2
100
AcDbLine
 10
60.52138566197698
 20
166.4454647818256
 30
0.0
 11
60.52138566197698
 21
246.387373625955
 31
0.0
  0
LINE
  5
1B1
330
1F
100
AcDbEntity
  8
1
  6
DASH_CENTER
 62
     2
100
AcDbLine
 10
107.4038415070354
 20
89.91195469378017
 30
0.0
 11
139.521385661977
 21
89.91195469378017
 31
0.0
  0
LINE
  5
1B2
330
1F
100
AcDbEntity
  8
1
  6
DASH_CENTER
 62
     2
100
AcDbLine
 10
139.521385661977
 20
150.4119546937802
 30
0.0
 11
139.521385661977
 21
89.91195469378017
 31
0.0
  0
LINE
  5
1B3
330
1F
100
AcDbEntity
  8
1
  6
DASH_CENTER
 62
     2
100
AcDbLine
 10
60.52138566197698
 20
150.4119546937802
 30
0.0
 11
60.52138566197698
 21
73.91195469378013
 31
0.0
  0
LINE
  5
1B4
330
1F
100
AcDbEntity
  8
1
  6
DASH_CENTER
 62
     2
100
AcDbLine
 10
139.521385661977
 20
89.91195469378017
 30
0.0
 11
186.8787970778067
 21
89.91195469378017
 31
0.0
  0
LINE
  5
1B5
330
1F
100
AcDbEntity
  8
1
  6
DASH_CENTER
 62
     2
100
AcDbLine
 10
139.521385661977
 20
89.91195469378017
 30
0.0
 11
139.521385661977
 21
73.91195469378017
 31
0.0
  0
LINE
  5
1B6
330
1F
100
AcDbEntity
  8
1
  6
DASH_CENTER
 62
     2
100
AcDbLine
 10
38.52138566197715
 20
198.887373625955
 30
0.0
 11
82.52138566197715
 21
198.887373625955
 31
0.0
  0
LINE
  5
1B7
330
1F
100
AcDbEntity
  8
1
  6
DASH_CENTER
 62
     2
100
AcDbLine
 10
29.86399790480598
 20
216.5874247002086
 30
0.0
 11
79.66741679138306
 21
187.8334073994796
 31
0.0
  0
LINE
  5
1B8
330
1F
100
AcDbEntity
  8
1
  6
DASH_CENTER
 62
     2
100
AcDbLine
 10
91.2346572490827
 20
216.6196892444647
 30
0.0
 11
42.01002905005748
 21
188.1998369029981
 31
0.0
  0
SOLID
  5
1B9
330
1F
100
AcDbEntity
  8
1
 62
     2
100
AcDbTrace
 10
185.3723352361388
 20
101.0372260786229
 30
0.0
 11
186.1704360878153
 21
100.576442337067
 31
0.0
 12
184.021385661977
 22
97.77574529459937
 32
0.0
 13
184.021385661977
 23
97.77574529459937
 33
0.0
  0
LEADER
  5
1BA
330
1F
100
AcDbEntity
  8
1
  6
Continuous
 62
     2
100
AcDbLeader
  3
Standard
 71
     0
 76
     3
 10
184.021385661977
 20
97.77574529459937
 30
0.0
 10
194.8953393832855
 20
116.6099856190583
 30
0.0
 10
179.508029541746
 20
116.6099856190583
 30
0.0
  0
SOLID
  5
1BB
330
1F
100
AcDbEntity
  8
1
 62
     2
100
AcDbTrace
 10
114.2587465248161
 20
76.1729739097567
 30
0.0
 11
113.4606456731397
 21
76.63375765131259
 31
0.0
 12
115.6096960989779
 22
79.43445469378018
 32
0.0
 13
115.6096960989779
 23
79.43445469378018
 33
0.0
  0
LEADER
  5
1BC
330
1F
100
AcDbEntity
  8
1
  6
Continuous
 62
     2
100
AcDbLeader
  3
Standard
 71
     0
 76
     3
 10
115.6096960989779
 20
79.43445469378018
 30
0.0
 10
104.5563850875689
 20
60.28955843015925
 30
0.0
 10
86.7147431906991
 20
60.28955843015925
 30
0.0
  0
CIRCLE
  5
1BD
102
{ACAD_REACTORS
330
1BE
102
}
330
1F
100
AcDbEntity
  8
1
 62
     2
100
AcDbCircle
 10
139.521385661977
 20
89.91195469378017
 30
0.0
 40
0.875
  0
HATCH
  5
1BE
330
1F
100
AcDbEntity
  8
1
 62
     2
100
AcDbHatch
 10
0.0
 20
0.0
 30
0.0
210
0.0
220
0.0
230
1.0
  2
SOLID
 70
     1
 71
     1
 91
        1
 92
        1
 93
        1
 72
     2
 10
139.521385661977
 20
89.91195469378017
 40
0.875
 50
0.0
 51
360.0
 73
     1
 97
        1
330
1BD
 75
     0
 76
     1
 98
        0
  0
LEADER
  5
1BF
330
1F
100
AcDbEntity
  8
1
  6
Continuous
 62
     2
100
AcDbLeader
  3
Standard
 71
     0
 76
     3
 10
139.521385661977
 20
89.91195469378017
 30
0.0
 10
160.1911898907854
 20
125.7131058005783
 30
0.0
 10
174.743619182365
 20
125.7131058005783
 30
0.0
  0
MTEXT
  5
1C1
330
1F
100
AcDbEntity
  8
0
 62
     7
100
AcDbMText
 10
57.0
 20
14.25
 30
0.0
 40
3.5
 41
0.0
 71
     5
 72
     1
  1
V26A-13
  7
CONVERTER_12
 73
     1
 44
0.7202881152461
  0
MTEXT
  5
1C2
330
1F
100
AcDbEntity
  8
0
 62
     7
100
AcDbMText
 10
57.0
 20
22.75000000000001
 30
0.0
 40
3.5
 41
0.0
 71
     5
 72
     1
  1
ナット付化粧バルブ
  7
CONVERTER_11
 73
     1
 44
1.0
  0
MTEXT
  5
1C3
330
1F
100
AcDbEntity
  8
1
 62
     7
100
AcDbMText
 10
95.635564139134
 20
63.28955843015925
 30
0.0
 40
3.5
 41
0.0
 71
     5
 72
     1
  1
PJ1/2
  7
CONVERTER_12
 73
     1
 44
1.32052821128451
  0
MTEXT
  5
1C4
330
1F
100
AcDbEntity
  8
1
 62
     7
100
AcDbMText
 10
187.2016844625157
 20
119.6099856190583
 30
0.0
 40
3.5
 41
0.0
 71
     5
 72
     1
  1
G1/2
  7
CONVERTER_12
 73
     1
 44
0.90036014405762
  0
MTEXT
  5
1C5
330
1F
100
AcDbEntity
  8
0
 62
     7
100
AcDbMText
 10
34.0
 20
37.5
 30
0.0
 40
3.5
 41
0.0
 71
     4
 72
     1
  1
JIS
  7
CONVERTER_12
 73
     1
 44
1.32052821128451
  0
MTEXT
  5
1C6
330
1F
100
AcDbEntity
  8
1
 62
     7
100
AcDbMText
 10
85.25
 20
17.0
 30
0.0
 40
3.5
 41
0.0
 71
     5
 72
     1
  1
1
  7
CONVERTER_12
 73
     1
 44
0.7202881152461
  0
MTEXT
  5
1C7
330
1F
100
AcDbEntity
  8
1
 62
     7
100
AcDbMText
 10
93.75
 20
17.0
 30
0.0
 40
3.5
 41
0.0
 71
     5
 72
     1
  1
1
  7
CONVERTER_12
 73
     1
 44
0.7202881152461
  0
MTEXT
  5
1C8
330
1F
100
AcDbEntity
  8
0
 62
     7
100
AcDbMText
 10
34.0
 20
30.50000000000001
 30
0.0
 40
3.5
 41
0.0
 71
     4
 72
     1
  1
共用形
  7
CONVERTER_11
 73
     1
 44
1.0
  0
DIMENSION
  5
1D3
330
1F
100
AcDbEntity
  8
1
100
AcDbDimension
  2
*D12
 10
98.521385661977
 20
89.9119546937802
 30
0.0
 11
95.771385661977
 21
117.50921736347
 31
0.0
 70
    32
  1
58リフト5
 71
     5
 42
-1.0
 53
90.0
  3
ME10_DIM_10
100
AcDbAlignedDimension
 13
139.521385661977
 23
147.2119546937802
 33
0.0
 14
107.4038415070354
 24
89.91195469378017
 34
0.0
 50
90.0
100
AcDbRotatedDimension
  0
DIMENSION
  5
1DE
330
1F
100
AcDbEntity
  8
1
100
AcDbDimension
  2
*D13
 10
109.521385661977
 20
66.91195469378019
 30
0.0
 11
124.521385661977
 21
69.66195469378019
 31
0.0
 70
    32
  1
<>
 71
     5
 42
-1.0
 53
0.00013888888889
  3
ME10_DIM_11
100
AcDbAlignedDimension
 13
139.521385661977
 23
73.91195469378017
 33
0.0
 14
109.521385661977
 24
80.59645469378017
 34
0.0
100
AcDbRotatedDimension
  0
DIMENSION
  5
1E9
330
1F
100
AcDbEntity
  8
1
100
AcDbDimension
  2
*D14
 10
139.521385661977
 20
66.91195469378019
 30
0.0
 11
161.771385661977
 21
69.66195469378019
 31
0.0
 70
    32
  1
45
 71
     5
 42
-1.0
 53
0.00013888888889
  3
ME10_DIM_12
100
AcDbAlignedDimension
 13
184.021385661977
 23
78.55171167213568
 33
0.0
 14
139.521385661977
 24
73.91195469378017
 34
0.0
100
AcDbRotatedDimension
  0
DIMENSION
  5
1F4
330
1F
100
AcDbEntity
  8
1
100
AcDbDimension
  2
*D15
 10
48.52138566197695
 20
253.387373625955
 30
0.0
 11
60.52138566197698
 21
256.137373625955
 31
0.0
 70
    33
  1
<>
 71
     5
 42
-1.0
 53
0.00013888888889
  3
ME10_DIM_13
100
AcDbAlignedDimension
 13
72.52138566197695
 23
242.6995514524461
 33
0.0
 14
48.52138566197695
 24
242.6995514524461
 34
0.0
  0
ENDSEC
  0
SECTION
  2
OBJECTS
  0
DICTIONARY
  5
C
330
0
100
AcDbDictionary
281
     1
  3
ACAD_GROUP
350
D
  3
ACAD_LAYOUT
350
1A
  3
ACAD_MATERIAL
350
3B
  3
ACAD_MLEADERSTYLE
350
1F7
  3
ACAD_MLINESTYLE
350
17
  3
ACAD_PLOTSETTINGS
350
19
  3
ACAD_PLOTSTYLENAME
350
E
  3
ACAD_VISUALSTYLE
350
2A
  3
AcDbVariableDictionary
350
1F5
  0
DICTIONARY
  5
D
102
{ACAD_REACTORS
330
C
102
}
330
C
100
AcDbDictionary
281
     1
  0
DICTIONARY
  5
1A
102
{ACAD_REACTORS
330
C
102
}
330
C
100
AcDbDictionary
281
     1
  3
Layout1
350
1E
  3
Layout2
350
26
  3
Model
350
22
  0
DICTIONARY
  5
3B
102
{ACAD_REACTORS
330
C
102
}
330
C
100
AcDbDictionary
281
     1
  3
ByBlock
350
3D
  3
ByLayer
350
3C
  3
Global
350
3E
  0
DICTIONARY
  5
1F7
102
{ACAD_REACTORS
330
C
102
}
330
C
100
AcDbDictionary
281
     1
  0
DICTIONARY
  5
17
102
{ACAD_REACTORS
330
C
102
}
330
C
100
AcDbDictionary
281
     1
  3
Standard
350
18
  0
DICTIONARY
  5
19
102
{ACAD_REACTORS
330
C
102
}
330
C
100
AcDbDictionary
281
     1
  0
ACDBDICTIONARYWDFLT
  5
E
102
{ACAD_REACTORS
330
C
102
}
330
C
100
AcDbDictionary
281
     1
  3
Normal
350
F
100
AcDbDictionaryWithDefault
340
F
  0
DICTIONARY
  5
2A
102
{ACAD_REACTORS
330
C
102
}
330
C
100
AcDbDictionary
281
     1
  3
2dWireframe
350
2F
  3
3D Hidden
350
31
  3
3dWireframe
350
30
  3
Basic
350
32
  3
Brighten
350
36
  3
ColorChange
350
3A
  3
Conceptual
350
34
  3
Dim
350
35
  3
Facepattern
350
39
  3
Flat
350
2B
  3
FlatWithEdges
350
2C
  3
Gouraud
350
2D
  3
GouraudWithEdges
350
2E
  3
Linepattern
350
38
  3
Realistic
350
33
  3
Thicken
350
37
  0
DICTIONARY
  5
1F5
102
{ACAD_REACTORS
330
C
102
}
330
C
100
AcDbDictionary
281
     1
  3
DIMASSOC
350
1F8
  3
HIDETEXT
350
1F9
  0
LAYOUT
  5
1E
102
{ACAD_REACTORS
330
1A
102
}
330
1A
100
AcDbPlotSettings
  1

  2
none_device
  4

  6

 40
0.0
 41
0.0
 42
0.0
 43
0.0
 44
0.0
 45
0.0
 46
0.0
 47
0.0
 48
0.0
 49
0.0
140
0.0
141
0.0
142
1.0
143
1.0
 70
   688
 72
     0
 73
     0
 74
     5
  7

 75
    16
147
1.0
148
0.0
149
0.0
100
AcDbLayout
  1
Layout1
 70
     1
 71
     1
 10
0.0
 20
0.0
 11
12.0
 21
9.0
 12
0.0
 22
0.0
 32
0.0
 14
1.00000000000000E+20
 24
1.00000000000000E+20
 34
1.00000000000000E+20
 15
-1.00000000000000E+20
 25
-1.00000000000000E+20
 35
-1.00000000000000E+20
146
0.0
 13
0.0
 23
0.0
 33
0.0
 16
1.0
 26
0.0
 36
0.0
 17
0.0
 27
1.0
 37
0.0
 76
     0
330
1B
  0
LAYOUT
  5
26
102
{ACAD_REACTORS
330
1A
102
}
330
1A
100
AcDbPlotSettings
  1

  2
none_device
  4

  6

 40
0.0
 41
0.0
 42
0.0
 43
0.0
 44
0.0
 45
0.0
 46
0.0
 47
0.0
 48
0.0
 49
0.0
140
0.0
141
0.0
142
1.0
143
1.0
 70
   688
 72
     0
 73
     0
 74
     5
  7

 75
    16
147
1.0
148
0.0
149
0.0
100
AcDbLayout
  1
Layout2
 70
     1
 71
     2
 10
0.0
 20
0.0
 11
0.0
 21
0.0
 12
0.0
 22
0.0
 32
0.0
 14
0.0
 24
0.0
 34
0.0
 15
0.0
 25
0.0
 35
0.0
146
0.0
 13
0.0
 23
0.0
 33
0.0
 16
1.0
 26
0.0
 36
0.0
 17
0.0
 27
1.0
 37
0.0
 76
     0
330
23
  0
LAYOUT
  5
22
102
{ACAD_REACTORS
330
1A
102
}
330
1A
100
AcDbPlotSettings
  1

  2
none_device
  4

  6

 40
0.0
 41
0.0
 42
0.0
 43
0.0
 44
0.0
 45
0.0
 46
0.0
 47
0.0
 48
0.0
 49
0.0
140
0.0
141
0.0
142
1.0
143
1.0
 70
  1712
 72
     0
 73
     0
 74
     0
  7

 75
     0
147
1.0
148
0.0
149
0.0
100
AcDbLayout
  1
Model
 70
     1
 71
     0
 10
0.0
 20
0.0
 11
12.0
 21
9.0
 12
0.0
 22
0.0
 32
0.0
 14
0.0
 24
0.0
 34
0.0
 15
210.0
 25
297.0
 35
0.0
146
0.0
 13
0.0
 23
0.0
 33
0.0
 16
1.0
 26
0.0
 36
0.0
 17
0.0
 27
1.0
 37
0.0
 76
     0
330
1F
331
29
  0
MATERIAL
  5
3D
102
{ACAD_REACTORS
330
3B
102
}
102
{ACAD_XDICTIONARY
360
21C
102
}
330
3B
100
AcDbMaterial
  1
ByBlock
  0
MATERIAL
  5
3C
102
{ACAD_REACTORS
330
3B
102
}
102
{ACAD_XDICTIONARY
360
21A
102
}
330
3B
100
AcDbMaterial
  1
ByLayer
  0
MATERIAL
  5
3E
102
{ACAD_REACTORS
330
3B
102
}
102
{ACAD_XDICTIONARY
360
21E
102
}
330
3B
100
AcDbMaterial
  1
Global
  0
MLINESTYLE
  5
18
102
{ACAD_REACTORS
330
17
102
}
330
17
100
AcDbMlineStyle
  2
Standard
 70
     0
  3

 62
   256
 51
90.0
 52
90.0
 71
     2
 49
0.5
 62
   256
  6
BYLAYER
 49
-0.5
 62
   256
  6
BYLAYER
  0
ACDBPLACEHOLDER
  5
F
102
{ACAD_REACTORS
330
E
102
}
330
E
  0
VISUALSTYLE
  5
2F
102
{ACAD_REACTORS
330
2A
102
}
102
{ACAD_XDICTIONARY
360
202
102
}
330
2A
100
AcDbVisualStyle
  2
2dWireframe
 70
     4
 71
     0
 72
     2
 73
     0
 90
        0
 40
-0.6
 41
-30.0
 62
     5
 63
     7
 74
     1
 91
        4
 64
     7
 65
   257
 75
     1
175
     1
 42
1.0
 92
        0
 66
   257
 43
1.0
 76
     1
 77
     6
 78
     2
 67
     7
 79
     5
170
     0
171
     0
290
     0
174
     0
 93
        1
 44
0.0
173
     0
291
     0
 45
0.0
1001
ACAD
1000
AcDbSavedByObjectVersion
1070
     0
  0
VISUALSTYLE
  5
31
102
{ACAD_REACTORS
330
2A
102
}
102
{ACAD_XDICTIONARY
360
206
102
}
330
2A
100
AcDbVisualStyle
  2
3D Hidden
 70
     6
 71
     1
 72
     2
 73
     2
 90
        0
 40
-0.6
 41
-30.0
 62
     5
 63
     7
 74
     2
 91
        2
 64
     7
 65
   257
 75
     2
175
     1
 42
40.0
 92
        0
 66
   257
 43
1.0
 76
     1
 77
     6
 78
     2
 67
     7
 79
     3
170
     0
171
     0
290
     0
174
     0
 93
        1
 44
0.0
173
     0
291
     0
 45
0.0
1001
ACAD
1000
AcDbSavedByObjectVersion
1070
     0
  0
VISUALSTYLE
  5
30
102
{ACAD_REACTORS
330
2A
102
}
102
{ACAD_XDICTIONARY
360
204
102
}
330
2A
100
AcDbVisualStyle
  2
3dWireframe
 70
     5
 71
     0
 72
     2
 73
     0
 90
        0
 40
-0.6
 41
-30.0
 62
     5
 63
     7
 74
     1
 91
        4
 64
     7
 65
   257
 75
     1
175
     1
 42
1.0
 92
        0
 66
   257
 43
1.0
 76
     1
 77
     6
 78
     2
 67
     7
 79
     5
170
     0
171
     0
290
     0
174
     0
 93
        1
 44
0.0
173
     0
291
     0
 45
0.0
1001
ACAD
1000
AcDbSavedByObjectVersion
1070
     0
  0
VISUALSTYLE
  5
32
102
{ACAD_REACTORS
330
2A
102
}
102
{ACAD_XDICTIONARY
360
208
102
}
330
2A
100
AcDbVisualStyle
  2
Basic
 70
     7
 71
     1
 72
     0
 73
     1
 90
        0
 40
-0.6
 41
-30.0
 62
     5
 63
     7
 74
     0
 91
        4
 64
     7
 65
   257
 75
     1
175
     1
 42
1.0
 92
        8
 66
     7
 43
1.0
 76
     1
 77
     6
 78
     2
 67
     7
 79
     5
170
     0
171
     0
290
     0
174
     0
 93
        1
 44
0.0
173
     0
291
     1
 45
0.0
1001
ACAD
1000
AcDbSavedByObjectVersion
1070
     0
  0
VISUALSTYLE
  5
36
102
{ACAD_REACTORS
330
2A
102
}
102
{ACAD_XDICTIONARY
360
210
102
}
330
2A
100
AcDbVisualStyle
  2
Brighten
 70
    12
 71
     2
 72
     2
 73
     0
 90
        0
 40
-0.6
 41
-30.0
 62
     5
 63
     7
 74
     1
 91
        4
 64
     7
 65
   257
 75
     1
175
     1
 42
1.0
 92
        8
 66
     7
 43
1.0
 76
     1
 77
     6
 78
     2
 67
     7
 79
     5
170
     0
171
     0
290
     0
174
     0
 93
        1
 44
50.0
173
     0
291
     1
 45
0.0
1001
ACAD
1000
AcDbSavedByObjectVersion
1070
     0
  0
VISUALSTYLE
  5
3A
102
{ACAD_REACTORS
330
2A
102
}
102
{ACAD_XDICTIONARY
360
218
102
}
330
2A
100
AcDbVisualStyle
  2
ColorChange
 70
    16
 71
     2
 72
     2
 73
     3
 90
        0
 40
-0.6
 41
-30.0
 62
     5
 63
     8
 74
     1
 91
        4
 64
     7
 65
   257
 75
     1
175
     1
 42
1.0
 92
        8
 66
     8
 43
1.0
 76
     1
 77
     6
 78
     2
 67
     7
 79
     5
170
     0
171
     0
290
     0
174
     0
 93
        1
 44
0.0
173
     0
291
     1
 45
0.0
1001
ACAD
1000
AcDbSavedByObjectVersion
1070
     0
  0
VISUALSTYLE
  5
34
102
{ACAD_REACTORS
330
2A
102
}
102
{ACAD_XDICTIONARY
360
20C
102
}
330
2A
100
AcDbVisualStyle
  2
Conceptual
 70
     9
 71
     3
 72
     2
 73
     0
 90
        0
 40
-0.6
 41
-30.0
 62
     5
 63
     7
 74
     2
 91
        2
 64
     7
 65
   257
 75
     1
175
     1
 42
40.0
 92
        8
 66
     7
 43
1.0
 76
     1
 77
     6
 78
     2
 67
     7
 79
     3
170
     0
171
     0
290
     0
174
     0
 93
        1
 44
0.0
173
     0
291
     0
 45
0.0
1001
ACAD
1000
AcDbSavedByObjectVersion
1070
     0
  0
VISUALSTYLE
  5
35
102
{ACAD_REACTORS
330
2A
102
}
102
{ACAD_XDICTIONARY
360
20E
102
}
330
2A
100
AcDbVisualStyle
  2
Dim
 70
    11
 71
     2
 72
     2
 73
     0
 90
        0
 40
-0.6
 41
-30.0
 62
     5
 63
     7
 74
     1
 91
        4
 64
     7
 65
   257
 75
     1
175
     1
 42
1.0
 92
        8
 66
     7
 43
1.0
 76
     1
 77
     6
 78
     2
 67
     7
 79
     5
170
     0
171
     0
290
     0
174
     0
 93
        1
 44
-50.0
173
     0
291
     1
 45
0.0
1001
ACAD
1000
AcDbSavedByObjectVersion
1070
     0
  0
VISUALSTYLE
  5
39
102
{ACAD_REACTORS
330
2A
102
}
102
{ACAD_XDICTIONARY
360
216
102
}
330
2A
100
AcDbVisualStyle
  2
Facepattern
 70
    15
 71
     2
 72
     2
 73
     0
 90
        0
 40
-0.6
 41
-30.0
 62
     5
 63
     7
 74
     1
 91
        4
 64
     7
 65
   257
 75
     1
175
     1
 42
1.0
 92
        8
 66
     7
 43
1.0
 76
     1
 77
     6
 78
     2
 67
     7
 79
     5
170
     0
171
     0
290
     0
174
     0
 93
        1
 44
0.0
173
     0
291
     1
 45
0.0
1001
ACAD
1000
AcDbSavedByObjectVersion
1070
     0
  0
VISUALSTYLE
  5
2B
102
{ACAD_REACTORS
330
2A
102
}
102
{ACAD_XDICTIONARY
360
1FA
102
}
330
2A
100
AcDbVisualStyle
  2
Flat
 70
     0
 71
     2
 72
     1
 73
     1
 90
        2
 40
-0.6
 41
30.0
 62
     5
 63
     7
 74
     0
 91
        4
 64
     7
 65
   257
 75
     1
175
     1
 42
1.0
 92
        8
 66
     7
 43
1.0
 76
     1
 77
     6
 78
     2
 67
     7
 79
     5
170
     0
171
     0
290
     0
174
     0
 93
       13
 44
0.0
173
     0
291
     1
 45
0.0
1001
ACAD
1000
AcDbSavedByObjectVersion
1070
     0
  0
VISUALSTYLE
  5
2C
102
{ACAD_REACTORS
330
2A
102
}
102
{ACAD_XDICTIONARY
360
1FC
102
}
330
2A
100
AcDbVisualStyle
  2
FlatWithEdges
 70
     1
 71
     2
 72
     1
 73
     1
 90
        2
 40
-0.6
 41
30.0
 62
     5
 63
     7
 74
     1
 91
        4
 64
     7
 65
   257
 75
     1
175
     1
 42
1.0
 92
        0
 66
   257
 43
1.0
 76
     1
 77
     6
 78
     2
 67
     7
 79
     5
170
     0
171
     0
290
     0
174
     0
 93
       13
 44
0.0
173
     0
291
     1
 45
0.0
1001
ACAD
1000
AcDbSavedByObjectVersion
1070
     0
  0
VISUALSTYLE
  5
2D
102
{ACAD_REACTORS
330
2A
102
}
102
{ACAD_XDICTIONARY
360
1FE
102
}
330
2A
100
AcDbVisualStyle
  2
Gouraud
 70
     2
 71
     2
 72
     2
 73
     1
 90
        2
 40
-0.6
 41
30.0
 62
     5
 63
     7
 74
     0
 91
        4
 64
     7
 65
   257
 75
     1
175
     1
 42
1.0
 92
        0
 66
     7
 43
1.0
 76
     1
 77
     6
 78
     2
 67
     7
 79
     5
170
     0
171
     0
290
     0
174
     0
 93
       13
 44
0.0
173
     0
291
     1
 45
0.0
1001
ACAD
1000
AcDbSavedByObjectVersion
1070
     0
  0
VISUALSTYLE
  5
2E
102
{ACAD_REACTORS
330
2A
102
}
102
{ACAD_XDICTIONARY
360
200
102
}
330
2A
100
AcDbVisualStyle
  2
GouraudWithEdges
 70
     3
 71
     2
 72
     2
 73
     1
 90
        2
 40
-0.6
 41
30.0
 62
     5
 63
     7
 74
     1
 91
        4
 64
     7
 65
   257
 75
     1
175
     1
 42
1.0
 92
        0
 66
   257
 43
1.0
 76
     1
 77
     6
 78
     2
 67
     7
 79
     5
170
     0
171
     0
290
     0
174
     0
 93
       13
 44
0.0
173
     0
291
     1
 45
0.0
1001
ACAD
1000
AcDbSavedByObjectVersion
1070
     0
  0
VISUALSTYLE
  5
38
102
{ACAD_REACTORS
330
2A
102
}
102
{ACAD_XDICTIONARY
360
214
102
}
330
2A
100
AcDbVisualStyle
  2
Linepattern
 70
    14
 71
     2
 72
     2
 73
     0
 90
        0
 40
-0.6
 41
-30.0
 62
     5
 63
     7
 74
     1
 91
        4
 64
     7
 65
   257
 75
     7
175
     7
 42
1.0
 92
        8
 66
     7
 43
1.0
 76
     1
 77
     6
 78
     2
 67
     7
 79
     5
170
     0
171
     0
290
     0
174
     0
 93
        1
 44
0.0
173
     0
291
     1
 45
0.0
1001
ACAD
1000
AcDbSavedByObjectVersion
1070
     0
  0
VISUALSTYLE
  5
33
102
{ACAD_REACTORS
330
2A
102
}
102
{ACAD_XDICTIONARY
360
20A
102
}
330
2A
100
AcDbVisualStyle
  2
Realistic
 70
     8
 71
     2
 72
     2
 73
     0
 90
        0
 40
-0.6
 41
-30.0
 62
     5
 63
     7
 74
     1
 91
        0
 64
     7
 65
   257
 75
     1
175
     1
 42
1.0
 92
        8
 66
     8
 43
1.0
 76
     1
 77
     6
 78
     2
 67
     7
 79
     5
170
     0
171
     0
290
     0
174
     0
 93
       13
 44
0.0
173
     0
291
     0
 45
0.0
1001
ACAD
1000
AcDbSavedByObjectVersion
1070
     0
  0
VISUALSTYLE
  5
37
102
{ACAD_REACTORS
330
2A
102
}
102
{ACAD_XDICTIONARY
360
212
102
}
330
2A
100
AcDbVisualStyle
  2
Thicken
 70
    13
 71
     2
 72
     2
 73
     0
 90
        0
 40
-0.6
 41
-30.0
 62
     5
 63
     7
 74
     1
 91
        4
 64
     7
 65
   257
 75
     1
175
     1
 42
1.0
 92
       12
 66
     7
 43
1.0
 76
     1
 77
     6
 78
     2
 67
     7
 79
     5
170
     0
171
     0
290
     0
174
     0
 93
        1
 44
0.0
173
     0
291
     1
 45
0.0
1001
ACAD
1000
AcDbSavedByObjectVersion
1070
     0
  0
DICTIONARYVAR
  5
1F8
102
{ACAD_REACTORS
330
1F5
102
}
330
1F5
100
DictionaryVariables
280
     0
  1
2
  0
DICTIONARYVAR
  5
1F9
102
{ACAD_REACTORS
330
1F5
102
}
330
1F5
100
DictionaryVariables
280
     0
  1
1
  0
DICTIONARY
  5
21C
330
3D
100
AcDbDictionary
280
     1
281
     1
  3
ACAD_XREC_ROUNDTRIP
360
21D
  0
DICTIONARY
  5
21A
330
3C
100
AcDbDictionary
280
     1
281
     1
  3
ACAD_XREC_ROUNDTRIP
360
21B
  0
DICTIONARY
  5
21E
330
3E
100
AcDbDictionary
280
     1
281
     1
  3
ACAD_XREC_ROUNDTRIP
360
21F
  0
DICTIONARY
  5
202
330
2F
100
AcDbDictionary
280
     1
281
     1
  3
ACAD_XREC_ROUNDTRIP
360
203
  0
DICTIONARY
  5
206
330
31
100
AcDbDictionary
280
     1
281
     1
  3
ACAD_XREC_ROUNDTRIP
360
207
  0
DICTIONARY
  5
204
330
30
100
AcDbDictionary
280
     1
281
     1
  3
ACAD_XREC_ROUNDTRIP
360
205
  0
DICTIONARY
  5
208
330
32
100
AcDbDictionary
280
     1
281
     1
  3
ACAD_XREC_ROUNDTRIP
360
209
  0
DICTIONARY
  5
210
330
36
100
AcDbDictionary
280
     1
281
     1
  3
ACAD_XREC_ROUNDTRIP
360
211
  0
DICTIONARY
  5
218
330
3A
100
AcDbDictionary
280
     1
281
     1
  3
ACAD_XREC_ROUNDTRIP
360
219
  0
DICTIONARY
  5
20C
330
34
100
AcDbDictionary
280
     1
281
     1
  3
ACAD_XREC_ROUNDTRIP
360
20D
  0
DICTIONARY
  5
20E
330
35
100
AcDbDictionary
280
     1
281
     1
  3
ACAD_XREC_ROUNDTRIP
360
20F
  0
DICTIONARY
  5
216
330
39
100
AcDbDictionary
280
     1
281
     1
  3
ACAD_XREC_ROUNDTRIP
360
217
  0
DICTIONARY
  5
1FA
330
2B
100
AcDbDictionary
280
     1
281
     1
  3
ACAD_XREC_ROUNDTRIP
360
1FB
  0
DICTIONARY
  5
1FC
330
2C
100
AcDbDictionary
280
     1
281
     1
  3
ACAD_XREC_ROUNDTRIP
360
1FD
  0
DICTIONARY
  5
1FE
330
2D
100
AcDbDictionary
280
     1
281
     1
  3
ACAD_XREC_ROUNDTRIP
360
1FF
  0
DICTIONARY
  5
200
330
2E
100
AcDbDictionary
280
     1
281
     1
  3
ACAD_XREC_ROUNDTRIP
360
201
  0
DICTIONARY
  5
214
330
38
100
AcDbDictionary
280
     1
281
     1
  3
ACAD_XREC_ROUNDTRIP
360
215
  0
DICTIONARY
  5
20A
330
33
100
AcDbDictionary
280
     1
281
     1
  3
ACAD_XREC_ROUNDTRIP
360
20B
  0
DICTIONARY
  5
212
330
37
100
AcDbDictionary
280
     1
281
     1
  3
ACAD_XREC_ROUNDTRIP
360
213
  0
XRECORD
  5
21D
102
{ACAD_REACTORS
330
21C
102
}
330
21C
100
AcDbXrecord
280
     1
102
MATERIAL
148
0.0
149
0.0
149
0.0
 93
        0
 94
      127
282
     0
 72
     1
 77
     1
171
     1
175
     1
179
     1
273
     0
  0
XRECORD
  5
21B
102
{ACAD_REACTORS
330
21A
102
}
330
21A
100
AcDbXrecord
280
     1
102
MATERIAL
148
0.0
149
0.0
149
0.0
 93
        0
 94
      127
282
     0
 72
     1
 77
     1
171
     1
175
     1
179
     1
273
     0
  0
XRECORD
  5
21F
102
{ACAD_REACTORS
330
21E
102
}
330
21E
100
AcDbXrecord
280
     1
102
MATERIAL
148
0.0
149
0.0
149
0.0
 93
        0
 94
      127
282
     0
 72
     1
 77
     1
171
     1
175
     1
179
     1
273
     0
  0
XRECORD
  5
203
102
{ACAD_REACTORS
330
202
102
}
330
202
100
AcDbXrecord
280
     1
102
RTVSPropertyOp0
 70
     1
102
RTVSPropertyOp1
 70
     1
102
RTVSPropertyOp2
 70
     1
102
RTVSPropertyOp3
 70
     1
102
RTVSPropertyOp4
 70
     1
102
RTVSPropertyOp5
 70
     1
102
RTVSPropertyOp6
 70
     1
102
RTVSPropertyOp7
 70
     1
102
RTVSPropertyOp8
 70
     1
102
RTVSPropertyOp9
 70
     1
102
RTVSPropertyOp10
 70
     1
102
RTVSPropertyOp11
 70
     1
102
RTVSPropertyOp12
 70
     1
102
RTVSPropertyOp13
 70
     1
102
RTVSPropertyOp14
 70
     1
102
RTVSPropertyOp15
 70
     1
102
RTVSPropertyOp16
 70
     1
102
RTVSPropertyOp17
 70
     1
102
RTVSPropertyOp18
 70
     1
102
RTVSPropertyOp19
 70
     1
102
RTVSPropertyOp20
 70
     1
102
RTVSPropertyOp21
 70
     1
102
RTVSPropertyOp22
 70
     1
102
RTVSPropertyOp23
 70
     1
102
RTVSPropertyOp24
 70
     1
102
RTVSPropertyOp25
 70
     1
102
RTVSPropertyOp26
 70
     1
102
RTVSPropertyOp27
 70
     1
102
RTVSPropertyOp28
 70
     1
102
RTVSPropertyOp29
 70
     1
102
RTVSPropertyOp30
 70
     1
102
RTVSPropertyOp31
 70
     1
102
RTVSPropertyOp32
 70
     1
  0
XRECORD
  5
207
102
{ACAD_REACTORS
330
206
102
}
330
206
100
AcDbXrecord
280
     1
102
RTVSPropertyOp0
 70
     1
102
RTVSPropertyOp1
 70
     1
102
RTVSPropertyOp2
 70
     1
102
RTVSPropertyOp3
 70
     1
102
RTVSPropertyOp4
 70
     1
102
RTVSPropertyOp5
 70
     1
102
RTVSPropertyOp6
 70
     1
102
RTVSPropertyOp7
 70
     1
102
RTVSPropertyOp8
 70
     1
102
RTVSPropertyOp9
 70
     1
102
RTVSPropertyOp10
 70
     1
102
RTVSPropertyOp11
 70
     1
102
RTVSPropertyOp12
 70
     1
102
RTVSPropertyOp13
 70
     1
102
RTVSPropertyOp14
 70
     1
102
RTVSPropertyOp15
 70
     1
102
RTVSPropertyOp16
 70
     1
102
RTVSPropertyOp17
 70
     1
102
RTVSPropertyOp18
 70
     1
102
RTVSPropertyOp19
 70
     1
102
RTVSPropertyOp20
 70
     1
102
RTVSPropertyOp21
 70
     1
102
RTVSPropertyOp22
 70
     1
102
RTVSPropertyOp23
 70
     1
102
RTVSPropertyOp24
 70
     1
102
RTVSPropertyOp25
 70
     1
102
RTVSPropertyOp26
 70
     1
102
RTVSPropertyOp27
 70
     1
102
RTVSPropertyOp28
 70
     1
102
RTVSPropertyOp29
 70
     1
102
RTVSPropertyOp30
 70
     1
102
RTVSPropertyOp31
 70
     1
102
RTVSPropertyOp32
 70
     1
  0
XRECORD
  5
205
102
{ACAD_REACTORS
330
204
102
}
330
204
100
AcDbXrecord
280
     1
102
RTVSPropertyOp0
 70
     1
102
RTVSPropertyOp1
 70
     1
102
RTVSPropertyOp2
 70
     1
102
RTVSPropertyOp3
 70
     1
102
RTVSPropertyOp4
 70
     1
102
RTVSPropertyOp5
 70
     1
102
RTVSPropertyOp6
 70
     1
102
RTVSPropertyOp7
 70
     1
102
RTVSPropertyOp8
 70
     1
102
RTVSPropertyOp9
 70
     1
102
RTVSPropertyOp10
 70
     1
102
RTVSPropertyOp11
 70
     1
102
RTVSPropertyOp12
 70
     1
102
RTVSPropertyOp13
 70
     1
102
RTVSPropertyOp14
 70
     1
102
RTVSPropertyOp15
 70
     1
102
RTVSPropertyOp16
 70
     1
102
RTVSPropertyOp17
 70
     1
102
RTVSPropertyOp18
 70
     1
102
RTVSPropertyOp19
 70
     1
102
RTVSPropertyOp20
 70
     1
102
RTVSPropertyOp21
 70
     1
102
RTVSPropertyOp22
 70
     1
102
RTVSPropertyOp23
 70
     1
102
RTVSPropertyOp24
 70
     1
102
RTVSPropertyOp25
 70
     1
102
RTVSPropertyOp26
 70
     1
102
RTVSPropertyOp27
 70
     1
102
RTVSPropertyOp28
 70
     1
102
RTVSPropertyOp29
 70
     1
102
RTVSPropertyOp30
 70
     1
102
RTVSPropertyOp31
 70
     1
102
RTVSPropertyOp32
 70
     1
  0
XRECORD
  5
209
102
{ACAD_REACTORS
330
208
102
}
330
208
100
AcDbXrecord
280
     1
102
RTVSPropertyOp0
 70
     1
102
RTVSPropertyOp1
 70
     1
102
RTVSPropertyOp2
 70
     1
102
RTVSPropertyOp3
 70
     1
102
RTVSPropertyOp4
 70
     1
102
RTVSPropertyOp5
 70
     1
102
RTVSPropertyOp6
 70
     1
102
RTVSPropertyOp7
 70
     1
102
RTVSPropertyOp8
 70
     1
102
RTVSPropertyOp9
 70
     1
102
RTVSPropertyOp10
 70
     1
102
RTVSPropertyOp11
 70
     1
102
RTVSPropertyOp12
 70
     1
102
RTVSPropertyOp13
 70
     1
102
RTVSPropertyOp14
 70
     1
102
RTVSPropertyOp15
 70
     1
102
RTVSPropertyOp16
 70
     1
102
RTVSPropertyOp17
 70
     1
102
RTVSPropertyOp18
 70
     1
102
RTVSPropertyOp19
 70
     1
102
RTVSPropertyOp20
 70
     1
102
RTVSPropertyOp21
 70
     1
102
RTVSPropertyOp22
 70
     1
102
RTVSPropertyOp23
 70
     1
102
RTVSPropertyOp24
 70
     1
102
RTVSPropertyOp25
 70
     1
102
RTVSPropertyOp26
 70
     1
102
RTVSPropertyOp27
 70
     1
102
RTVSPropertyOp28
 70
     1
102
RTVSPropertyOp29
 70
     1
102
RTVSPropertyOp30
 70
     1
102
RTVSPropertyOp31
 70
     1
102
RTVSPropertyOp32
 70
     1
  0
XRECORD
  5
211
102
{ACAD_REACTORS
330
210
102
}
330
210
100
AcDbXrecord
280
     1
102
RTVSPropertyOp0
 70
     1
102
RTVSPropertyOp1
 70
     1
102
RTVSPropertyOp2
 70
     1
102
RTVSPropertyOp3
 70
     1
102
RTVSPropertyOp4
 70
     1
102
RTVSPropertyOp5
 70
     1
102
RTVSPropertyOp6
 70
     1
102
RTVSPropertyOp7
 70
     1
102
RTVSPropertyOp8
 70
     1
102
RTVSPropertyOp9
 70
     1
102
RTVSPropertyOp10
 70
     1
102
RTVSPropertyOp11
 70
     1
102
RTVSPropertyOp12
 70
     1
102
RTVSPropertyOp13
 70
     1
102
RTVSPropertyOp14
 70
     1
102
RTVSPropertyOp15
 70
     1
102
RTVSPropertyOp16
 70
     1
102
RTVSPropertyOp17
 70
     1
102
RTVSPropertyOp18
 70
     1
102
RTVSPropertyOp19
 70
     1
102
RTVSPropertyOp20
 70
     1
102
RTVSPropertyOp21
 70
     1
102
RTVSPropertyOp22
 70
     1
102
RTVSPropertyOp23
 70
     1
102
RTVSPropertyOp24
 70
     1
102
RTVSPropertyOp25
 70
     1
102
RTVSPropertyOp26
 70
     1
102
RTVSPropertyOp27
 70
     1
102
RTVSPropertyOp28
 70
     1
102
RTVSPropertyOp29
 70
     1
102
RTVSPropertyOp30
 70
     1
102
RTVSPropertyOp31
 70
     1
102
RTVSPropertyOp32
 70
     1
  0
XRECORD
  5
219
102
{ACAD_REACTORS
330
218
102
}
330
218
100
AcDbXrecord
280
     1
102
RTVSPropertyOp0
 70
     1
102
RTVSPropertyOp1
 70
     1
102
RTVSPropertyOp2
 70
     1
102
RTVSPropertyOp3
 70
     1
102
RTVSPropertyOp4
 70
     1
102
RTVSPropertyOp5
 70
     1
102
RTVSPropertyOp6
 70
     1
102
RTVSPropertyOp7
 70
     1
102
RTVSPropertyOp8
 70
     1
102
RTVSPropertyOp9
 70
     1
102
RTVSPropertyOp10
 70
     1
102
RTVSPropertyOp11
 70
     1
102
RTVSPropertyOp12
 70
     1
102
RTVSPropertyOp13
 70
     1
102
RTVSPropertyOp14
 70
     1
102
RTVSPropertyOp15
 70
     1
102
RTVSPropertyOp16
 70
     1
102
RTVSPropertyOp17
 70
     1
102
RTVSPropertyOp18
 70
     1
102
RTVSPropertyOp19
 70
     1
102
RTVSPropertyOp20
 70
     1
102
RTVSPropertyOp21
 70
     1
102
RTVSPropertyOp22
 70
     1
102
RTVSPropertyOp23
 70
     1
102
RTVSPropertyOp24
 70
     1
102
RTVSPropertyOp25
 70
     1
102
RTVSPropertyOp26
 70
     1
102
RTVSPropertyOp27
 70
     1
102
RTVSPropertyOp28
 70
     1
102
RTVSPropertyOp29
 70
     1
102
RTVSPropertyOp30
 70
     1
102
RTVSPropertyOp31
 70
     1
102
RTVSPropertyOp32
 70
     1
  0
XRECORD
  5
20D
102
{ACAD_REACTORS
330
20C
102
}
330
20C
100
AcDbXrecord
280
     1
102
RTVSPropertyOp0
 70
     1
102
RTVSPropertyOp1
 70
     1
102
RTVSPropertyOp2
 70
     1
102
RTVSPropertyOp3
 70
     1
102
RTVSPropertyOp4
 70
     1
102
RTVSPropertyOp5
 70
     1
102
RTVSPropertyOp6
 70
     1
102
RTVSPropertyOp7
 70
     1
102
RTVSPropertyOp8
 70
     1
102
RTVSPropertyOp9
 70
     1
102
RTVSPropertyOp10
 70
     1
102
RTVSPropertyOp11
 70
     1
102
RTVSPropertyOp12
 70
     1
102
RTVSPropertyOp13
 70
     1
102
RTVSPropertyOp14
 70
     1
102
RTVSPropertyOp15
 70
     1
102
RTVSPropertyOp16
 70
     1
102
RTVSPropertyOp17
 70
     1
102
RTVSPropertyOp18
 70
     1
102
RTVSPropertyOp19
 70
     1
102
RTVSPropertyOp20
 70
     1
102
RTVSPropertyOp21
 70
     1
102
RTVSPropertyOp22
 70
     1
102
RTVSPropertyOp23
 70
     1
102
RTVSPropertyOp24
 70
     1
102
RTVSPropertyOp25
 70
     1
102
RTVSPropertyOp26
 70
     1
102
RTVSPropertyOp27
 70
     1
102
RTVSPropertyOp28
 70
     1
102
RTVSPropertyOp29
 70
     1
102
RTVSPropertyOp30
 70
     1
102
RTVSPropertyOp31
 70
     1
102
RTVSPropertyOp32
 70
     1
  0
XRECORD
  5
20F
102
{ACAD_REACTORS
330
20E
102
}
330
20E
100
AcDbXrecord
280
     1
102
RTVSPropertyOp0
 70
     1
102
RTVSPropertyOp1
 70
     1
102
RTVSPropertyOp2
 70
     1
102
RTVSPropertyOp3
 70
     1
102
RTVSPropertyOp4
 70
     1
102
RTVSPropertyOp5
 70
     1
102
RTVSPropertyOp6
 70
     1
102
RTVSPropertyOp7
 70
     1
102
RTVSPropertyOp8
 70
     1
102
RTVSPropertyOp9
 70
     1
102
RTVSPropertyOp10
 70
     1
102
RTVSPropertyOp11
 70
     1
102
RTVSPropertyOp12
 70
     1
102
RTVSPropertyOp13
 70
     1
102
RTVSPropertyOp14
 70
     1
102
RTVSPropertyOp15
 70
     1
102
RTVSPropertyOp16
 70
     1
102
RTVSPropertyOp17
 70
     1
102
RTVSPropertyOp18
 70
     1
102
RTVSPropertyOp19
 70
     1
102
RTVSPropertyOp20
 70
     1
102
RTVSPropertyOp21
 70
     1
102
RTVSPropertyOp22
 70
     1
102
RTVSPropertyOp23
 70
     1
102
RTVSPropertyOp24
 70
     1
102
RTVSPropertyOp25
 70
     1
102
RTVSPropertyOp26
 70
     1
102
RTVSPropertyOp27
 70
     1
102
RTVSPropertyOp28
 70
     1
102
RTVSPropertyOp29
 70
     1
102
RTVSPropertyOp30
 70
     1
102
RTVSPropertyOp31
 70
     1
102
RTVSPropertyOp32
 70
     1
  0
XRECORD
  5
217
102
{ACAD_REACTORS
330
216
102
}
330
216
100
AcDbXrecord
280
     1
102
RTVSPropertyOp0
 70
     1
102
RTVSPropertyOp1
 70
     1
102
RTVSPropertyOp2
 70
     1
102
RTVSPropertyOp3
 70
     1
102
RTVSPropertyOp4
 70
     1
102
RTVSPropertyOp5
 70
     1
102
RTVSPropertyOp6
 70
     1
102
RTVSPropertyOp7
 70
     1
102
RTVSPropertyOp8
 70
     1
102
RTVSPropertyOp9
 70
     1
102
RTVSPropertyOp10
 70
     1
102
RTVSPropertyOp11
 70
     1
102
RTVSPropertyOp12
 70
     1
102
RTVSPropertyOp13
 70
     1
102
RTVSPropertyOp14
 70
     1
102
RTVSPropertyOp15
 70
     1
102
RTVSPropertyOp16
 70
     1
102
RTVSPropertyOp17
 70
     1
102
RTVSPropertyOp18
 70
     1
102
RTVSPropertyOp19
 70
     1
102
RTVSPropertyOp20
 70
     1
102
RTVSPropertyOp21
 70
     1
102
RTVSPropertyOp22
 70
     1
102
RTVSPropertyOp23
 70
     1
102
RTVSPropertyOp24
 70
     1
102
RTVSPropertyOp25
 70
     1
102
RTVSPropertyOp26
 70
     1
102
RTVSPropertyOp27
 70
     1
102
RTVSPropertyOp28
 70
     1
102
RTVSPropertyOp29
 70
     1
102
RTVSPropertyOp30
 70
     1
102
RTVSPropertyOp31
 70
     1
102
RTVSPropertyOp32
 70
     1
  0
XRECORD
  5
1FB
102
{ACAD_REACTORS
330
1FA
102
}
330
1FA
100
AcDbXrecord
280
     1
102
RTVSPropertyOp0
 70
     1
102
RTVSPropertyOp1
 70
     1
102
RTVSPropertyOp2
 70
     1
102
RTVSPropertyOp3
 70
     1
102
RTVSPropertyOp4
 70
     1
102
RTVSPropertyOp5
 70
     1
102
RTVSPropertyOp6
 70
     1
102
RTVSPropertyOp7
 70
     1
102
RTVSPropertyOp8
 70
     1
102
RTVSPropertyOp9
 70
     1
102
RTVSPropertyOp10
 70
     1
102
RTVSPropertyOp11
 70
     1
102
RTVSPropertyOp12
 70
     1
102
RTVSPropertyOp13
 70
     1
102
RTVSPropertyOp14
 70
     1
102
RTVSPropertyOp15
 70
     1
102
RTVSPropertyOp16
 70
     1
102
RTVSPropertyOp17
 70
     1
102
RTVSPropertyOp18
 70
     1
102
RTVSPropertyOp19
 70
     1
102
RTVSPropertyOp20
 70
     1
102
RTVSPropertyOp21
 70
     1
102
RTVSPropertyOp22
 70
     1
102
RTVSPropertyOp23
 70
     1
102
RTVSPropertyOp24
 70
     1
102
RTVSPropertyOp25
 70
     1
102
RTVSPropertyOp26
 70
     1
102
RTVSPropertyOp27
 70
     1
102
RTVSPropertyOp28
 70
     1
102
RTVSPropertyOp29
 70
     1
102
RTVSPropertyOp30
 70
     1
102
RTVSPropertyOp31
 70
     1
102
RTVSPropertyOp32
 70
     1
  0
XRECORD
  5
1FD
102
{ACAD_REACTORS
330
1FC
102
}
330
1FC
100
AcDbXrecord
280
     1
102
RTVSPropertyOp0
 70
     1
102
RTVSPropertyOp1
 70
     1
102
RTVSPropertyOp2
 70
     1
102
RTVSPropertyOp3
 70
     1
102
RTVSPropertyOp4
 70
     1
102
RTVSPropertyOp5
 70
     1
102
RTVSPropertyOp6
 70
     1
102
RTVSPropertyOp7
 70
     1
102
RTVSPropertyOp8
 70
     1
102
RTVSPropertyOp9
 70
     1
102
RTVSPropertyOp10
 70
     1
102
RTVSPropertyOp11
 70
     1
102
RTVSPropertyOp12
 70
     1
102
RTVSPropertyOp13
 70
     1
102
RTVSPropertyOp14
 70
     1
102
RTVSPropertyOp15
 70
     1
102
RTVSPropertyOp16
 70
     1
102
RTVSPropertyOp17
 70
     1
102
RTVSPropertyOp18
 70
     1
102
RTVSPropertyOp19
 70
     1
102
RTVSPropertyOp20
 70
     1
102
RTVSPropertyOp21
 70
     1
102
RTVSPropertyOp22
 70
     1
102
RTVSPropertyOp23
 70
     1
102
RTVSPropertyOp24
 70
     1
102
RTVSPropertyOp25
 70
     1
102
RTVSPropertyOp26
 70
     1
102
RTVSPropertyOp27
 70
     1
102
RTVSPropertyOp28
 70
     1
102
RTVSPropertyOp29
 70
     1
102
RTVSPropertyOp30
 70
     1
102
RTVSPropertyOp31
 70
     1
102
RTVSPropertyOp32
 70
     1
  0
XRECORD
  5
1FF
102
{ACAD_REACTORS
330
1FE
102
}
330
1FE
100
AcDbXrecord
280
     1
102
RTVSPropertyOp0
 70
     1
102
RTVSPropertyOp1
 70
     1
102
RTVSPropertyOp2
 70
     1
102
RTVSPropertyOp3
 70
     1
102
RTVSPropertyOp4
 70
     1
102
RTVSPropertyOp5
 70
     1
102
RTVSPropertyOp6
 70
     1
102
RTVSPropertyOp7
 70
     1
102
RTVSPropertyOp8
 70
     1
102
RTVSPropertyOp9
 70
     1
102
RTVSPropertyOp10
 70
     1
102
RTVSPropertyOp11
 70
     1
102
RTVSPropertyOp12
 70
     1
102
RTVSPropertyOp13
 70
     1
102
RTVSPropertyOp14
 70
     1
102
RTVSPropertyOp15
 70
     1
102
RTVSPropertyOp16
 70
     1
102
RTVSPropertyOp17
 70
     1
102
RTVSPropertyOp18
 70
     1
102
RTVSPropertyOp19
 70
     1
102
RTVSPropertyOp20
 70
     1
102
RTVSPropertyOp21
 70
     1
102
RTVSPropertyOp22
 70
     1
102
RTVSPropertyOp23
 70
     1
102
RTVSPropertyOp24
 70
     1
102
RTVSPropertyOp25
 70
     1
102
RTVSPropertyOp26
 70
     1
102
RTVSPropertyOp27
 70
     1
102
RTVSPropertyOp28
 70
     1
102
RTVSPropertyOp29
 70
     1
102
RTVSPropertyOp30
 70
     1
102
RTVSPropertyOp31
 70
     1
102
RTVSPropertyOp32
 70
     1
  0
XRECORD
  5
201
102
{ACAD_REACTORS
330
200
102
}
330
200
100
AcDbXrecord
280
     1
102
RTVSPropertyOp0
 70
     1
102
RTVSPropertyOp1
 70
     1
102
RTVSPropertyOp2
 70
     1
102
RTVSPropertyOp3
 70
     1
102
RTVSPropertyOp4
 70
     1
102
RTVSPropertyOp5
 70
     1
102
RTVSPropertyOp6
 70
     1
102
RTVSPropertyOp7
 70
     1
102
RTVSPropertyOp8
 70
     1
102
RTVSPropertyOp9
 70
     1
102
RTVSPropertyOp10
 70
     1
102
RTVSPropertyOp11
 70
     1
102
RTVSPropertyOp12
 70
     1
102
RTVSPropertyOp13
 70
     1
102
RTVSPropertyOp14
 70
     1
102
RTVSPropertyOp15
 70
     1
102
RTVSPropertyOp16
 70
     1
102
RTVSPropertyOp17
 70
     1
102
RTVSPropertyOp18
 70
     1
102
RTVSPropertyOp19
 70
     1
102
RTVSPropertyOp20
 70
     1
102
RTVSPropertyOp21
 70
     1
102
RTVSPropertyOp22
 70
     1
102
RTVSPropertyOp23
 70
     1
102
RTVSPropertyOp24
 70
     1
102
RTVSPropertyOp25
 70
     1
102
RTVSPropertyOp26
 70
     1
102
RTVSPropertyOp27
 70
     1
102
RTVSPropertyOp28
 70
     1
102
RTVSPropertyOp29
 70
     1
102
RTVSPropertyOp30
 70
     1
102
RTVSPropertyOp31
 70
     1
102
RTVSPropertyOp32
 70
     1
  0
XRECORD
  5
215
102
{ACAD_REACTORS
330
214
102
}
330
214
100
AcDbXrecord
280
     1
102
RTVSPropertyOp0
 70
     1
102
RTVSPropertyOp1
 70
     1
102
RTVSPropertyOp2
 70
     1
102
RTVSPropertyOp3
 70
     1
102
RTVSPropertyOp4
 70
     1
102
RTVSPropertyOp5
 70
     1
102
RTVSPropertyOp6
 70
     1
102
RTVSPropertyOp7
 70
     1
102
RTVSPropertyOp8
 70
     1
102
RTVSPropertyOp9
 70
     1
102
RTVSPropertyOp10
 70
     1
102
RTVSPropertyOp11
 70
     1
102
RTVSPropertyOp12
 70
     1
102
RTVSPropertyOp13
 70
     1
102
RTVSPropertyOp14
 70
     1
102
RTVSPropertyOp15
 70
     1
102
RTVSPropertyOp16
 70
     1
102
RTVSPropertyOp17
 70
     1
102
RTVSPropertyOp18
 70
     1
102
RTVSPropertyOp19
 70
     1
102
RTVSPropertyOp20
 70
     1
102
RTVSPropertyOp21
 70
     1
102
RTVSPropertyOp22
 70
     1
102
RTVSPropertyOp23
 70
     1
102
RTVSPropertyOp24
 70
     1
102
RTVSPropertyOp25
 70
     1
102
RTVSPropertyOp26
 70
     1
102
RTVSPropertyOp27
 70
     1
102
RTVSPropertyOp28
 70
     1
102
RTVSPropertyOp29
 70
     1
102
RTVSPropertyOp30
 70
     1
102
RTVSPropertyOp31
 70
     1
102
RTVSPropertyOp32
 70
     1
  0
XRECORD
  5
20B
102
{ACAD_REACTORS
330
20A
102
}
330
20A
100
AcDbXrecord
280
     1
102
RTVSPropertyOp0
 70
     1
102
RTVSPropertyOp1
 70
     1
102
RTVSPropertyOp2
 70
     1
102
RTVSPropertyOp3
 70
     1
102
RTVSPropertyOp4
 70
     1
102
RTVSPropertyOp5
 70
     1
102
RTVSPropertyOp6
 70
     1
102
RTVSPropertyOp7
 70
     1
102
RTVSPropertyOp8
 70
     1
102
RTVSPropertyOp9
 70
     1
102
RTVSPropertyOp10
 70
     1
102
RTVSPropertyOp11
 70
     1
102
RTVSPropertyOp12
 70
     1
102
RTVSPropertyOp13
 70
     1
102
RTVSPropertyOp14
 70
     1
102
RTVSPropertyOp15
 70
     1
102
RTVSPropertyOp16
 70
     1
102
RTVSPropertyOp17
 70
     1
102
RTVSPropertyOp18
 70
     1
102
RTVSPropertyOp19
 70
     1
102
RTVSPropertyOp20
 70
     1
102
RTVSPropertyOp21
 70
     1
102
RTVSPropertyOp22
 70
     1
102
RTVSPropertyOp23
 70
     1
102
RTVSPropertyOp24
 70
     1
102
RTVSPropertyOp25
 70
     1
102
RTVSPropertyOp26
 70
     1
102
RTVSPropertyOp27
 70
     1
102
RTVSPropertyOp28
 70
     1
102
RTVSPropertyOp29
 70
     1
102
RTVSPropertyOp30
 70
     1
102
RTVSPropertyOp31
 70
     1
102
RTVSPropertyOp32
 70
     1
  0
XRECORD
  5
213
102
{ACAD_REACTORS
330
212
102
}
330
212
100
AcDbXrecord
280
     1
102
RTVSPropertyOp0
 70
     1
102
RTVSPropertyOp1
 70
     1
102
RTVSPropertyOp2
 70
     1
102
RTVSPropertyOp3
 70
     1
102
RTVSPropertyOp4
 70
     1
102
RTVSPropertyOp5
 70
     1
102
RTVSPropertyOp6
 70
     1
102
RTVSPropertyOp7
 70
     1
102
RTVSPropertyOp8
 70
     1
102
RTVSPropertyOp9
 70
     1
102
RTVSPropertyOp10
 70
     1
102
RTVSPropertyOp11
 70
     1
102
RTVSPropertyOp12
 70
     1
102
RTVSPropertyOp13
 70
     1
102
RTVSPropertyOp14
 70
     1
102
RTVSPropertyOp15
 70
     1
102
RTVSPropertyOp16
 70
     1
102
RTVSPropertyOp17
 70
     1
102
RTVSPropertyOp18
 70
     1
102
RTVSPropertyOp19
 70
     1
102
RTVSPropertyOp20
 70
     1
102
RTVSPropertyOp21
 70
     1
102
RTVSPropertyOp22
 70
     1
102
RTVSPropertyOp23
 70
     1
102
RTVSPropertyOp24
 70
     1
102
RTVSPropertyOp25
 70
     1
102
RTVSPropertyOp26
 70
     1
102
RTVSPropertyOp27
 70
     1
102
RTVSPropertyOp28
 70
     1
102
RTVSPropertyOp29
 70
     1
102
RTVSPropertyOp30
 70
     1
102
RTVSPropertyOp31
 70
     1
102
RTVSPropertyOp32
 70
     1
  0
ENDSEC
  0
EOF
