  0
SECTION
  2
HEADER
  9
$ACADVER
  1
AC1015
  9
$ACADMAINTVER
 70
     6
  9
$DWGCODEPAGE
  3
DOS932
  9
$INSBASE
 10
0.0
 20
0.0
 30
0.0
  9
$EXTMIN
 10
0.0
 20
0.0
 30
0.0
  9
$EXTMAX
 10
210.0
 20
297.0
 30
0.0
  9
$LIMMIN
 10
0.0
 20
0.0
  9
$LIMMAX
 10
12.0
 20
9.0
  9
$ORTHOMODE
 70
     0
  9
$REGENMODE
 70
     1
  9
$FILLMODE
 70
     1
  9
$QTEXTMODE
 70
     0
  9
$MIRRTEXT
 70
     1
  9
$LTSCALE
 40
1.0
  9
$ATTMODE
 70
     1
  9
$TEXTSIZE
 40
0.2
  9
$TRACEWID
 40
0.05
  9
$TEXTSTYLE
  7
Standard
  9
$CLAYER
  8
0
  9
$CELTYPE
  6
ByLayer
  9
$CECOLOR
 62
   256
  9
$CELTSCALE
 40
1.0
  9
$DISPSILH
 70
     0
  9
$DIMSCALE
 40
1.0
  9
$DIMASZ
 40
0.18
  9
$DIMEXO
 40
0.0625
  9
$DIMDLI
 40
0.38
  9
$DIMRND
 40
0.0
  9
$DIMDLE
 40
0.0
  9
$DIMEXE
 40
0.18
  9
$DIMTP
 40
0.0
  9
$DIMTM
 40
0.0
  9
$DIMTXT
 40
0.18
  9
$DIMCEN
 40
0.09
  9
$DIMTSZ
 40
0.0
  9
$DIMTOL
 70
     0
  9
$DIMLIM
 70
     0
  9
$DIMTIH
 70
     1
  9
$DIMTOH
 70
     1
  9
$DIMSE1
 70
     0
  9
$DIMSE2
 70
     0
  9
$DIMTAD
 70
     0
  9
$DIMZIN
 70
     0
  9
$DIMBLK
  1

  9
$DIMASO
 70
     1
  9
$DIMSHO
 70
     1
  9
$DIMPOST
  1

  9
$DIMAPOST
  1

  9
$DIMALT
 70
     0
  9
$DIMALTD
 70
     2
  9
$DIMALTF
 40
25.4
  9
$DIMLFAC
 40
1.0
  9
$DIMTOFL
 70
     0
  9
$DIMTVP
 40
0.0
  9
$DIMTIX
 70
     0
  9
$DIMSOXD
 70
     0
  9
$DIMSAH
 70
     0
  9
$DIMBLK1
  1

  9
$DIMBLK2
  1

  9
$DIMSTYLE
  2
Standard
  9
$DIMCLRD
 70
     0
  9
$DIMCLRE
 70
     0
  9
$DIMCLRT
 70
     0
  9
$DIMTFAC
 40
1.0
  9
$DIMGAP
 40
0.09
  9
$DIMJUST
 70
     0
  9
$DIMSD1
 70
     0
  9
$DIMSD2
 70
     0
  9
$DIMTOLJ
 70
     1
  9
$DIMTZIN
 70
     0
  9
$DIMALTZ
 70
     0
  9
$DIMALTTZ
 70
     0
  9
$DIMUPT
 70
     0
  9
$DIMDEC
 70
     4
  9
$DIMTDEC
 70
     4
  9
$DIMALTU
 70
     2
  9
$DIMALTTD
 70
     2
  9
$DIMTXSTY
  7
Standard
  9
$DIMAUNIT
 70
     0
  9
$DIMADEC
 70
     0
  9
$DIMALTRND
 40
0.0
  9
$DIMAZIN
 70
     0
  9
$DIMDSEP
 70
    46
  9
$DIMATFIT
 70
     3
  9
$DIMFRAC
 70
     0
  9
$DIMLDRBLK
  1

  9
$DIMLUNIT
 70
     2
  9
$DIMLWD
 70
    -2
  9
$DIMLWE
 70
    -2
  9
$DIMTMOVE
 70
     0
  9
$LUNITS
 70
     2
  9
$LUPREC
 70
     4
  9
$SKETCHINC
 40
0.1
  9
$FILLETRAD
 40
0.5
  9
$AUNITS
 70
     0
  9
$AUPREC
 70
     0
  9
$MENU
  1
.
  9
$ELEVATION
 40
0.0
  9
$PELEVATION
 40
0.0
  9
$THICKNESS
 40
0.0
  9
$LIMCHECK
 70
     0
  9
$CHAMFERA
 40
0.5
  9
$CHAMFERB
 40
0.5
  9
$CHAMFERC
 40
1.0
  9
$CHAMFERD
 40
0.0
  9
$SKPOLY
 70
     0
  9
$TDCREATE
 40
2456135.686663773
  9
$TDUCREATE
 40
2456135.311663773
  9
$TDUPDATE
 40
2456135.686663785
  9
$TDUUPDATE
 40
2456135.311663785
  9
$TDINDWG
 40
0.0000000116
  9
$TDUSRTIMER
 40
0.0000000116
  9
$USRTIMER
 70
     1
  9
$ANGBASE
 50
0.0
  9
$ANGDIR
 70
     0
  9
$PDMODE
 70
     0
  9
$PDSIZE
 40
0.0
  9
$PLINEWID
 40
0.0
  9
$SPLFRAME
 70
     0
  9
$SPLINETYPE
 70
     6
  9
$SPLINESEGS
 70
     8
  9
$HANDSEED
  5
1AC
  9
$SURFTAB1
 70
     6
  9
$SURFTAB2
 70
     6
  9
$SURFTYPE
 70
     6
  9
$SURFU
 70
     6
  9
$SURFV
 70
     6
  9
$UCSBASE
  2

  9
$UCSNAME
  2

  9
$UCSORG
 10
0.0
 20
0.0
 30
0.0
  9
$UCSXDIR
 10
1.0
 20
0.0
 30
0.0
  9
$UCSYDIR
 10
0.0
 20
1.0
 30
0.0
  9
$UCSORTHOREF
  2

  9
$UCSORTHOVIEW
 70
     0
  9
$UCSORGTOP
 10
0.0
 20
0.0
 30
0.0
  9
$UCSORGBOTTOM
 10
0.0
 20
0.0
 30
0.0
  9
$UCSORGLEFT
 10
0.0
 20
0.0
 30
0.0
  9
$UCSORGRIGHT
 10
0.0
 20
0.0
 30
0.0
  9
$UCSORGFRONT
 10
0.0
 20
0.0
 30
0.0
  9
$UCSORGBACK
 10
0.0
 20
0.0
 30
0.0
  9
$PUCSBASE
  2

  9
$PUCSNAME
  2

  9
$PUCSORG
 10
0.0
 20
0.0
 30
0.0
  9
$PUCSXDIR
 10
1.0
 20
0.0
 30
0.0
  9
$PUCSYDIR
 10
0.0
 20
1.0
 30
0.0
  9
$PUCSORTHOREF
  2

  9
$PUCSORTHOVIEW
 70
     0
  9
$PUCSORGTOP
 10
0.0
 20
0.0
 30
0.0
  9
$PUCSORGBOTTOM
 10
0.0
 20
0.0
 30
0.0
  9
$PUCSORGLEFT
 10
0.0
 20
0.0
 30
0.0
  9
$PUCSORGRIGHT
 10
0.0
 20
0.0
 30
0.0
  9
$PUCSORGFRONT
 10
0.0
 20
0.0
 30
0.0
  9
$PUCSORGBACK
 10
0.0
 20
0.0
 30
0.0
  9
$USERI1
 70
     0
  9
$USERI2
 70
     0
  9
$USERI3
 70
     0
  9
$USERI4
 70
     0
  9
$USERI5
 70
     0
  9
$USERR1
 40
13.2
  9
$USERR2
 40
0.0
  9
$USERR3
 40
0.0
  9
$USERR4
 40
0.0
  9
$USERR5
 40
0.0
  9
$WORLDVIEW
 70
     1
  9
$SHADEDGE
 70
     3
  9
$SHADEDIF
 70
    70
  9
$TILEMODE
 70
     1
  9
$MAXACTVP
 70
    64
  9
$PINSBASE
 10
0.0
 20
0.0
 30
0.0
  9
$PLIMCHECK
 70
     0
  9
$PEXTMIN
 10
1.00000000000000E+20
 20
1.00000000000000E+20
 30
1.00000000000000E+20
  9
$PEXTMAX
 10
-1.00000000000000E+20
 20
-1.00000000000000E+20
 30
-1.00000000000000E+20
  9
$PLIMMIN
 10
0.0
 20
0.0
  9
$PLIMMAX
 10
12.0
 20
9.0
  9
$UNITMODE
 70
     0
  9
$VISRETAIN
 70
     1
  9
$PLINEGEN
 70
     0
  9
$PSLTSCALE
 70
     1
  9
$TREEDEPTH
 70
  3020
  9
$CMLSTYLE
  2
Standard
  9
$CMLJUST
 70
     0
  9
$CMLSCALE
 40
1.0
  9
$PROXYGRAPHICS
 70
     1
  9
$MEASUREMENT
 70
     1
  9
$CELWEIGHT
370
    -1
  9
$ENDCAPS
280
     0
  9
$JOINSTYLE
280
     0
  9
$LWDISPLAY
290
     0
  9
$INSUNITS
 70
     1
  9
$HYPERLINKBASE
  1

  9
$STYLESHEET
  1

  9
$XEDIT
290
     1
  9
$CEPSNTYPE
380
     0
  9
$PSTYLEMODE
290
     0
  9
$FINGERPRINTGUID
  2
{FAEB1C30-E019-11D5-929B-00C0DF256EC4}
  9
$VERSIONGUID
  2
{FAEB1C32-E019-11D5-929B-00C0DF256EC4}
  9
$EXTNAMES
290
     1
  9
$PSVPSCALE
 40
0.0
  9
$OLESTARTUP
290
     0
  0
ENDSEC
  0
SECTION
  2
CLASSES
  0
CLASS
  1
ACDBDICTIONARYWDFLT
  2
AcDbDictionaryWithDefault
  3
ObjectDBX Classes
 90
        0
280
     0
281
     0
  0
CLASS
  1
TABLESTYLE
  2
AcDbTableStyle
  3
ObjectDBX Classes
 90
     2047
280
     0
281
     0
  0
CLASS
  1
DICTIONARYVAR
  2
AcDbDictionaryVar
  3
ObjectDBX Classes
 90
        0
280
     0
281
     0
  0
CLASS
  1

  2
exOdDbCircle
  3

 90
        0
280
     0
281
     1
  0
CLASS
  1

  2
exOdDbSpline
  3

 90
        0
280
     0
281
     1
  0
CLASS
  1
ACDBPLACEHOLDER
  2
AcDbPlaceHolder
  3
ObjectDBX Classes
 90
        0
280
     0
281
     0
  0
CLASS
  1
LAYOUT
  2
AcDbLayout
  3
ObjectDBX Classes
 90
        0
280
     0
281
     0
  0
ENDSEC
  0
SECTION
  2
TABLES
  0
TABLE
  2
VPORT
  5
8
330
0
100
AcDbSymbolTable
 70
     2
  0
VPORT
  5
29
330
8
100
AcDbSymbolTableRecord
100
AcDbViewportTableRecord
  2
*Active
 70
     0
 10
0.0
 20
0.0
 11
1.0
 21
1.0
 12
105.0
 22
148.5
 13
0.0
 23
0.0
 14
0.5
 24
0.5
 15
0.5
 25
0.5
 16
0.0
 26
0.0
 36
1.0
 17
0.0
 27
0.0
 37
0.0
 40
326.7000000000001
 41
1.60267857142857
 42
50.0
 43
0.0
 44
0.0
 50
0.0
 51
0.0
 71
     0
 72
   100
 73
     1
 74
     3
 75
     0
 76
     0
 77
     0
 78
     0
281
     0
 65
     1
110
0.0
120
0.0
130
0.0
111
1.0
121
0.0
131
0.0
112
0.0
122
1.0
132
0.0
 79
     0
146
0.0
  0
ENDTAB
  0
TABLE
  2
LTYPE
  5
5
330
0
100
AcDbSymbolTable
 70
     8
  0
LTYPE
  5
14
330
5
100
AcDbSymbolTableRecord
100
AcDbLinetypeTableRecord
  2
ByBlock
 70
     0
  3

 72
    65
 73
     0
 40
0.0
  0
LTYPE
  5
15
330
5
100
AcDbSymbolTableRecord
100
AcDbLinetypeTableRecord
  2
ByLayer
 70
     0
  3

 72
    65
 73
     0
 40
0.0
  0
LTYPE
  5
16
330
5
100
AcDbSymbolTableRecord
100
AcDbLinetypeTableRecord
  2
Continuous
 70
     0
  3
Solid line
 72
    65
 73
     0
 40
0.0
  0
LTYPE
  5
2E
330
5
100
AcDbSymbolTableRecord
100
AcDbLinetypeTableRecord
  2
DASHED
 70
     0
  3
Dashed
 72
    65
 73
     2
 40
15.0
 49
7.0
 74
     0
 49
-8.0
 74
     0
  0
LTYPE
  5
2F
330
5
100
AcDbSymbolTableRecord
100
AcDbLinetypeTableRecord
  2
DOTTED
 70
     0
  3
Dotted
 72
    65
 73
     2
 40
1.0
 49
0.0
 74
     0
 49
-1.0
 74
     0
  0
LTYPE
  5
30
330
5
100
AcDbSymbolTableRecord
100
AcDbLinetypeTableRecord
  2
DOT_CENTER
 70
     0
  3
Dot_Center
 72
    65
 73
     4
 40
14.0
 49
12.0
 74
     0
 49
-1.0
 74
     0
 49
0.0
 74
     0
 49
-1.0
 74
     0
  0
LTYPE
  5
31
330
5
100
AcDbSymbolTableRecord
100
AcDbLinetypeTableRecord
  2
LONG_DASHED
 70
     0
  3
Long_Dashed
 72
    65
 73
     2
 40
15.0
 49
10.0
 74
     0
 49
-5.0
 74
     0
  0
LTYPE
  5
32
330
5
100
AcDbSymbolTableRecord
100
AcDbLinetypeTableRecord
  2
DASH_CENTER
 70
     0
  3
Dash_Center
 72
    65
 73
     4
 40
14.0
 49
11.0
 74
     0
 49
-1.0
 74
     0
 49
1.0
 74
     0
 49
-1.0
 74
     0
  0
LTYPE
  5
33
330
5
100
AcDbSymbolTableRecord
100
AcDbLinetypeTableRecord
  2
PHANTOM
 70
     0
  3
Phantom
 72
    65
 73
     6
 40
13.0
 49
10.0
 74
     0
 49
-1.0
 74
     0
 49
0.0
 74
     0
 49
-1.0
 74
     0
 49
0.0
 74
     0
 49
-1.0
 74
     0
  0
LTYPE
  5
34
330
5
100
AcDbSymbolTableRecord
100
AcDbLinetypeTableRecord
  2
CENTER_DASH_DASH
 70
     0
  3
Center_Dash_Dash
 72
    65
 73
     6
 40
14.0
 49
9.0
 74
     0
 49
-1.0
 74
     0
 49
1.0
 74
     0
 49
-1.0
 74
     0
 49
1.0
 74
     0
 49
-1.0
 74
     0
  0
ENDTAB
  0
TABLE
  2
LAYER
  5
2
330
0
100
AcDbSymbolTable
 70
     2
  0
LAYER
  5
10
330
2
100
AcDbSymbolTableRecord
100
AcDbLayerTableRecord
  2
0
 70
     0
 62
     7
  6
Continuous
370
    -3
390
F
  0
LAYER
  5
35
330
2
100
AcDbSymbolTableRecord
100
AcDbLayerTableRecord
  2
1
 70
     0
 62
     7
  6
Continuous
370
    -3
390
F
  0
ENDTAB
  0
TABLE
  2
STYLE
  5
3
330
0
100
AcDbSymbolTable
 70
     3
  0
STYLE
  5
11
330
3
100
AcDbSymbolTableRecord
100
AcDbTextStyleTableRecord
  2
Standard
 70
     0
 40
0.0
 41
1.0
 50
0.0
 71
     0
 42
0.2
  3
txt
  4

  0
STYLE
  5
154
330
3
100
AcDbSymbolTableRecord
100
AcDbTextStyleTableRecord
  2
CONVERTER_1
 70
     0
 40
0.0
 41
0.89
 50
0.0
 71
     0
 42
0.2
  3
msmincho.ttc
  4

1001
ACAD
1000
MS Mincho
1071
    32785
  0
STYLE
  5
177
330
3
100
AcDbSymbolTableRecord
100
AcDbTextStyleTableRecord
  2
CONVERTER_2
 70
     0
 40
0.0
 41
0.9
 50
0.0
 71
     0
 42
0.2
  3
txt.shx
  4

  0
ENDTAB
  0
TABLE
  2
VIEW
  5
6
330
0
100
AcDbSymbolTable
 70
     0
  0
ENDTAB
  0
TABLE
  2
UCS
  5
7
330
0
100
AcDbSymbolTable
 70
     0
  0
ENDTAB
  0
TABLE
  2
APPID
  5
9
330
0
100
AcDbSymbolTable
 70
     1
  0
APPID
  5
12
330
9
100
AcDbSymbolTableRecord
100
AcDbRegAppTableRecord
  2
ACAD
 70
     0
  0
ENDTAB
  0
TABLE
  2
DIMSTYLE
  5
A
330
0
100
AcDbSymbolTable
 70
     5
100
AcDbDimStyleTable
  0
DIMSTYLE
105
27
330
A
100
AcDbSymbolTableRecord
100
AcDbDimStyleTableRecord
  2
Standard
 70
     0
340
11
  0
DIMSTYLE
105
189
102
{ACAD_REACTORS
330
18A
102
}
330
A
100
AcDbSymbolTableRecord
100
AcDbDimStyleTableRecord
  2
ME10_DIM_0
 70
     0
 41
3.5
 42
0.0
 44
1.0
 73
     0
 74
     0
 77
     1
 78
     8
140
3.5
147
0.625
172
     1
173
     1
176
     2
177
     2
178
     7
271
     2
340
177
  0
DIMSTYLE
105
194
102
{ACAD_REACTORS
330
195
102
}
330
A
100
AcDbSymbolTableRecord
100
AcDbDimStyleTableRecord
  2
ME10_DIM_1
 70
     0
 41
3.5
 42
0.0
 44
1.0
 73
     0
 74
     0
 77
     1
 78
     8
140
3.5
147
0.625
172
     1
173
     1
176
     2
177
     2
178
     7
271
     2
340
177
  0
DIMSTYLE
105
19F
102
{ACAD_REACTORS
330
1A0
102
}
330
A
100
AcDbSymbolTableRecord
100
AcDbDimStyleTableRecord
  2
ME10_DIM_2
 70
     0
 41
3.5
 42
0.0
 44
1.0
 73
     0
 74
     0
 77
     1
 78
     8
140
3.5
147
0.625
172
     1
173
     1
176
     2
177
     2
178
     7
271
     2
340
154
  0
DIMSTYLE
105
1AA
102
{ACAD_REACTORS
330
1AB
102
}
330
A
100
AcDbSymbolTableRecord
100
AcDbDimStyleTableRecord
  2
ME10_DIM_3
 70
     0
 41
3.5
 42
0.0
 44
1.0
 73
     0
 74
     0
 77
     1
 78
     8
140
3.5
147
0.625
172
     1
173
     1
176
     2
177
     2
178
     7
271
     2
340
177
  0
ENDTAB
  0
TABLE
  2
BLOCK_RECORD
  5
1
330
0
100
AcDbSymbolTable
 70
    11
  0
BLOCK_RECORD
  5
1F
330
1
100
AcDbSymbolTableRecord
100
AcDbBlockTableRecord
  2
*Model_Space
340
22
  0
BLOCK_RECORD
  5
1B
330
1
100
AcDbSymbolTableRecord
100
AcDbBlockTableRecord
  2
*Paper_Space
340
1E
  0
BLOCK_RECORD
  5
23
330
1
100
AcDbSymbolTableRecord
100
AcDbBlockTableRecord
  2
*Paper_Space0
340
26
  0
BLOCK_RECORD
  5
36
330
1
100
AcDbSymbolTableRecord
100
AcDbBlockTableRecord
  2
V26-0
340
0
102
{BLKREFS
331
48
102
}
  0
BLOCK_RECORD
  5
39
330
1
100
AcDbSymbolTableRecord
100
AcDbBlockTableRecord
  2
37-1-13
340
0
102
{BLKREFS
331
49
102
}
  0
BLOCK_RECORD
  5
3C
330
1
100
AcDbSymbolTableRecord
100
AcDbBlockTableRecord
  2
36-45
340
0
102
{BLKREFS
331
4A
102
}
  0
BLOCK_RECORD
  5
3F
330
1
100
AcDbSymbolTableRecord
100
AcDbBlockTableRecord
  2
35-22
340
0
102
{BLKREFS
331
4B
102
}
  0
BLOCK_RECORD
  5
42
330
1
100
AcDbSymbolTableRecord
100
AcDbBlockTableRecord
  2
32-26
340
0
102
{BLKREFS
331
4C
102
}
  0
BLOCK_RECORD
  5
45
330
1
100
AcDbSymbolTableRecord
100
AcDbBlockTableRecord
  2
_J__A4
340
0
102
{BLKREFS
331
4D
102
}
  0
BLOCK_RECORD
  5
180
330
1
100
AcDbSymbolTableRecord
100
AcDbBlockTableRecord
  2
*D07
340
0
  0
BLOCK_RECORD
  5
18B
330
1
100
AcDbSymbolTableRecord
100
AcDbBlockTableRecord
  2
*D18
340
0
  0
BLOCK_RECORD
  5
196
330
1
100
AcDbSymbolTableRecord
100
AcDbBlockTableRecord
  2
*D29
340
0
  0
BLOCK_RECORD
  5
1A1
330
1
100
AcDbSymbolTableRecord
100
AcDbBlockTableRecord
  2
*D310
340
0
  0
ENDTAB
  0
ENDSEC
  0
SECTION
  2
BLOCKS
  0
BLOCK
  5
20
330
1F
100
AcDbEntity
  8
0
100
AcDbBlockBegin
  2
*Model_Space
 70
     0
 71
     0
 10
0.0
 20
0.0
 30
0.0
  3
*Model_Space
  1

  0
ENDBLK
  5
21
330
1F
100
AcDbEntity
  8
0
100
AcDbBlockEnd
  0
BLOCK
  5
1C
330
1B
100
AcDbEntity
 67
     1
  8
0
100
AcDbBlockBegin
  2
*Paper_Space
 70
     0
 71
     0
 10
0.0
 20
0.0
 30
0.0
  3
*Paper_Space
  1

  0
ENDBLK
  5
1D
330
1B
100
AcDbEntity
 67
     1
  8
0
100
AcDbBlockEnd
  0
BLOCK
  5
24
330
23
100
AcDbEntity
  8
0
100
AcDbBlockBegin
  2
*Paper_Space0
 70
     0
 71
     0
 10
0.0
 20
0.0
 30
0.0
  3
*Paper_Space0
  1

  0
ENDBLK
  5
25
330
23
100
AcDbEntity
  8
0
100
AcDbBlockEnd
  0
BLOCK
  5
37
330
36
100
AcDbEntity
  8
0
100
AcDbBlockBegin
  2
V26-0
 70
     0
 71
     0
 10
105.021385661977
 20
77.91195469378016
 30
0.0
  3
V26-0
  1

  0
LINE
  5
4E
330
36
100
AcDbEntity
  8
1
  6
Continuous
 62
     2
100
AcDbLine
 10
123.834385661977
 20
114.9119546937802
 30
0.0
 11
123.021385661977
 21
113.5037973872267
 31
0.0
  0
LINE
  5
4F
330
36
100
AcDbEntity
  8
1
  6
Continuous
 62
     2
100
AcDbLine
 10
123.834385661977
 20
116.3416459819651
 30
0.0
 11
123.834385661977
 21
114.9119546937802
 31
0.0
  0
LINE
  5
50
330
36
100
AcDbEntity
  8
1
  6
Continuous
 62
     2
100
AcDbLine
 10
147.021385661977
 20
113.5037973872267
 30
0.0
 11
146.208385661977
 21
114.9119546937802
 31
0.0
  0
LINE
  5
51
330
36
100
AcDbEntity
  8
1
  6
Continuous
 62
     2
100
AcDbLine
 10
146.208385661977
 20
114.9119546937802
 30
0.0
 11
146.208385661977
 21
116.3416459819651
 31
0.0
  0
LINE
  5
52
330
36
100
AcDbEntity
  8
1
  6
Continuous
 62
     7
100
AcDbLine
 10
147.021385661977
 20
114.9119546937802
 30
0.0
 11
123.021385661977
 21
114.9119546937802
 31
0.0
  0
LINE
  5
53
330
36
100
AcDbEntity
  8
1
  6
Continuous
 62
     7
100
AcDbLine
 10
68.02138566197698
 20
114.9119546937802
 30
0.0
 11
44.02138566197698
 21
114.9119546937802
 31
0.0
  0
LINE
  5
54
330
36
100
AcDbEntity
  8
1
  6
Continuous
 62
     7
100
AcDbLine
 10
68.02138566197698
 20
116.4119546937802
 30
0.0
 11
68.02138566197698
 21
113.5037973872267
 31
0.0
  0
LINE
  5
55
330
36
100
AcDbEntity
  8
1
  6
Continuous
 62
     2
100
AcDbLine
 10
44.83438566197698
 20
116.4119546937802
 30
0.0
 11
44.83438566197698
 21
114.9119546937802
 31
0.0
  0
LINE
  5
56
330
36
100
AcDbEntity
  8
1
  6
Continuous
 62
     7
100
AcDbLine
 10
44.02138566197698
 20
113.5037973872267
 30
0.0
 11
44.02138566197698
 21
116.4119546937802
 31
0.0
  0
LINE
  5
57
330
36
100
AcDbEntity
  8
1
  6
Continuous
 62
     7
100
AcDbLine
 10
44.02138566197698
 20
113.5037973872267
 30
0.0
 11
44.02138566197698
 21
107.3894546937802
 31
0.0
  0
LINE
  5
58
330
36
100
AcDbEntity
  8
1
  6
Continuous
 62
     7
100
AcDbLine
 10
68.02138566197698
 20
107.4119546937802
 30
0.0
 11
68.02138566197698
 21
113.5037973872267
 31
0.0
  0
LINE
  5
59
330
36
100
AcDbEntity
  8
1
  6
Continuous
 62
     2
100
AcDbLine
 10
67.20838566197698
 20
114.9119546937802
 30
0.0
 11
67.20838566197698
 21
116.4119546937802
 31
0.0
  0
LINE
  5
5A
330
36
100
AcDbEntity
  8
1
  6
Continuous
 62
     2
100
AcDbLine
 10
68.02138566197698
 20
113.5037973872267
 30
0.0
 11
67.20838566197698
 21
114.9119546937802
 31
0.0
  0
LINE
  5
5B
330
36
100
AcDbEntity
  8
1
  6
Continuous
 62
     2
100
AcDbLine
 10
44.83438566197698
 20
114.9119546937802
 30
0.0
 11
44.02138566197698
 21
113.5037973872267
 31
0.0
  0
LINE
  5
5C
330
36
100
AcDbEntity
  8
1
  6
Continuous
 62
     7
100
AcDbLine
 10
46.02138566197695
 20
229.887373625955
 30
0.0
 11
66.02138566197695
 21
229.887373625955
 31
0.0
  0
LINE
  5
5D
330
36
100
AcDbEntity
  8
1
  6
Continuous
 62
     7
100
AcDbLine
 10
65.33688566197696
 20
169.887373625955
 30
0.0
 11
46.70588566197696
 21
169.887373625955
 31
0.0
  0
LINE
  5
5E
330
36
100
AcDbEntity
  8
1
  6
Continuous
 62
     7
100
AcDbLine
 10
45.54388566197696
 20
171.049373625955
 30
0.0
 11
46.70588566197696
 21
169.887373625955
 31
0.0
  0
LINE
  5
5F
330
36
100
AcDbEntity
  8
1
  6
Continuous
 62
     7
100
AcDbLine
 10
66.49888566197694
 20
171.049373625955
 30
0.0
 11
45.54388566197696
 21
171.049373625955
 31
0.0
  0
LINE
  5
60
330
36
100
AcDbEntity
  8
1
  6
Continuous
 62
     7
100
AcDbLine
 10
45.54388566197696
 20
178.887373625955
 30
0.0
 11
63.30483951416196
 21
178.887373625955
 31
0.0
  0
LINE
  5
61
330
36
100
AcDbEntity
  8
1
  6
Continuous
 62
     7
100
AcDbLine
 10
45.54388566197696
 20
171.049373625955
 30
0.0
 11
45.54388566197704
 21
180.5997611829904
 31
0.0
  0
LINE
  5
62
330
36
100
AcDbEntity
  8
1
  6
Continuous
 62
     7
100
AcDbLine
 10
45.52138566197695
 20
229.387373625955
 30
0.0
 11
45.52138566197706
 21
219.0902379956265
 31
0.0
  0
LINE
  5
63
330
36
100
AcDbEntity
  8
1
  6
Continuous
 62
     2
100
AcDbLine
 10
46.70588566197696
 20
178.887373625955
 30
0.0
 11
46.70588566197696
 21
169.887373625955
 31
0.0
  0
LINE
  5
64
330
36
100
AcDbEntity
  8
1
  6
Continuous
 62
     2
100
AcDbLine
 10
45.54274383445616
 20
180.9019943676296
 30
0.0
 11
46.70588566197696
 21
178.887373625955
 31
0.0
  0
LINE
  5
65
330
36
100
AcDbEntity
  8
1
  6
Continuous
 62
     7
100
AcDbLine
 10
65.33688566197696
 20
169.887373625955
 30
0.0
 11
66.49888566197694
 21
171.049373625955
 31
0.0
  0
LINE
  5
66
330
36
100
AcDbEntity
  8
1
  6
Continuous
 62
     7
100
AcDbLine
 10
66.49888566197694
 20
178.887373625955
 30
0.0
 11
63.30483951416196
 21
178.887373625955
 31
0.0
  0
LINE
  5
67
330
36
100
AcDbEntity
  8
1
  6
Continuous
 62
     7
100
AcDbLine
 10
66.49888566197694
 20
180.5997611829904
 30
0.0
 11
66.49888566197694
 21
171.049373625955
 31
0.0
  0
LINE
  5
68
330
36
100
AcDbEntity
  8
1
  6
Continuous
 62
     7
100
AcDbLine
 10
66.52138566197695
 20
219.0902379956265
 30
0.0
 11
66.52138566197695
 21
229.387373625955
 31
0.0
  0
LINE
  5
69
330
36
100
AcDbEntity
  8
1
  6
Continuous
 62
     2
100
AcDbLine
 10
65.33688566197696
 20
169.887373625955
 30
0.0
 11
65.33688566197696
 21
178.887373625955
 31
0.0
  0
LINE
  5
6A
330
36
100
AcDbEntity
  8
1
  6
Continuous
 62
     2
100
AcDbLine
 10
65.33688566197696
 20
178.887373625955
 30
0.0
 11
66.50002748949777
 21
180.9019943676296
 31
0.0
  0
LINE
  5
6B
330
36
100
AcDbEntity
  8
1
  6
Continuous
 62
     7
100
AcDbLine
 10
105.021385661977
 20
81.5964546937802
 30
0.0
 11
106.183385661977
 21
80.4344546937802
 31
0.0
  0
LINE
  5
6C
330
36
100
AcDbEntity
  8
1
  6
Continuous
 62
     7
100
AcDbLine
 10
106.183385661977
 20
101.3894546937802
 30
0.0
 11
116.034028700372
 21
101.3894546937802
 31
0.0
  0
LINE
  5
6D
330
36
100
AcDbEntity
  8
1
  6
Continuous
 62
     7
100
AcDbLine
 10
106.183385661977
 20
101.3894546937802
 30
0.0
 11
105.021385661977
 21
100.2274546937802
 31
0.0
  0
LINE
  5
6E
330
36
100
AcDbEntity
  8
1
  6
Continuous
 62
     7
100
AcDbLine
 10
106.183385661977
 20
101.3894546937802
 30
0.0
 11
106.183385661977
 21
81.5964546937802
 31
0.0
  0
LINE
  5
6F
330
36
100
AcDbEntity
  8
1
  6
Continuous
 62
     7
100
AcDbLine
 10
114.021385661977
 20
81.5964546937802
 30
0.0
 11
114.021385661977
 21
101.3894546937802
 31
0.0
  0
LINE
  5
70
330
36
100
AcDbEntity
  8
1
  6
Continuous
 62
     7
100
AcDbLine
 10
115.7337732190124
 20
80.43445469378023
 30
0.0
 11
106.183385661977
 21
80.4344546937802
 31
0.0
  0
LINE
  5
71
330
36
100
AcDbEntity
  8
1
  6
Continuous
 62
     7
100
AcDbLine
 10
117.021385661977
 20
101.3894546937802
 30
0.0
 11
116.034028700372
 21
101.3894546937802
 31
0.0
  0
LINE
  5
72
330
36
100
AcDbEntity
  8
1
  6
Continuous
 62
     7
100
AcDbLine
 10
147.021385661977
 20
107.4119546937802
 30
0.0
 11
147.021385661977
 21
116.3129798577541
 31
0.0
  0
LINE
  5
73
330
36
100
AcDbEntity
  8
1
  6
Continuous
 62
     7
100
AcDbLine
 10
105.021385661977
 20
97.4119546937802
 30
0.0
 11
105.021385661977
 21
100.2274546937802
 31
0.0
  0
LINE
  5
74
330
36
100
AcDbEntity
  8
1
  6
Continuous
 62
     7
100
AcDbLine
 10
164.521385661977
 20
101.4119546937802
 30
0.0
 11
153.021385661977
 21
101.4119546937802
 31
0.0
  0
LINE
  5
75
330
36
100
AcDbEntity
  8
1
  6
Continuous
 62
     7
100
AcDbLine
 10
165.021385661977
 20
80.9119546937802
 30
0.0
 11
165.021385661977
 21
100.9119546937802
 31
0.0
  0
LINE
  5
76
330
36
100
AcDbEntity
  8
1
  6
Continuous
 62
     7
100
AcDbLine
 10
154.2242500316485
 20
80.41195469378022
 30
0.0
 11
164.521385661977
 21
80.4119546937802
 31
0.0
  0
LINE
  5
77
330
36
100
AcDbEntity
  8
1
  6
Continuous
 62
     2
100
AcDbLine
 10
114.021385661977
 20
100.2274546937802
 30
0.0
 11
105.021385661977
 21
100.2274546937802
 31
0.0
  0
LINE
  5
78
330
36
100
AcDbEntity
  8
1
  6
Continuous
 62
     2
100
AcDbLine
 10
116.034028700372
 20
101.3894546937802
 30
0.0
 11
114.021385661977
 21
100.2274546937802
 31
0.0
  0
LINE
  5
79
330
36
100
AcDbEntity
  8
1
  6
Continuous
 62
     7
100
AcDbLine
 10
43.04701027587518
 20
91.7277876059116
 30
0.0
 11
44.00955891710088
 21
107.0354164266426
 31
0.0
  0
LINE
  5
7A
330
36
100
AcDbEntity
  8
1
  6
Continuous
 62
     7
100
AcDbLine
 10
68.03321240685308
 20
107.0354164266426
 30
0.0
 11
68.99576104807878
 21
91.7277876059116
 31
0.0
  0
LINE
  5
7B
330
36
100
AcDbEntity
  8
1
  6
Continuous
 62
     7
100
AcDbLine
 10
49.59876937264441
 20
91.9119546937802
 30
0.0
 11
62.44400195130956
 21
91.9119546937802
 31
0.0
  0
LINE
  5
7C
330
36
100
AcDbEntity
  8
1
  6
Continuous
 62
     7
100
AcDbLine
 10
106.183385661977
 20
80.4344546937802
 30
0.0
 11
106.183385661977
 21
81.5964546937802
 31
0.0
  0
LINE
  5
7D
330
36
100
AcDbEntity
  8
1
  6
Continuous
 62
     2
100
AcDbLine
 10
105.021385661977
 20
81.5964546937802
 30
0.0
 11
114.021385661977
 21
81.5964546937802
 31
0.0
  0
LINE
  5
7E
330
36
100
AcDbEntity
  8
1
  6
Continuous
 62
     7
100
AcDbLine
 10
114.021385661977
 20
81.5964546937802
 30
0.0
 11
114.021385661977
 21
80.4344546937802
 31
0.0
  0
LINE
  5
7F
330
36
100
AcDbEntity
  8
1
  6
Continuous
 62
     2
100
AcDbLine
 10
114.021385661977
 20
81.5964546937802
 30
0.0
 11
116.0360064036516
 21
80.43331286625937
 31
0.0
  0
LINE
  5
80
330
36
100
AcDbEntity
  8
1
  6
Continuous
 62
     7
100
AcDbLine
 10
105.021385661977
 20
81.5964546937802
 30
0.0
 11
105.021385661977
 21
97.4119546937802
 31
0.0
  0
LINE
  5
81
330
36
100
AcDbEntity
  8
1
  6
Continuous
 62
     7
100
AcDbLine
 10
123.021385661977
 20
116.3416459819651
 30
0.0
 11
123.021385661977
 21
107.3894546937802
 31
0.0
  0
ARC
  5
82
330
36
100
AcDbEntity
  8
1
  6
Continuous
 62
     7
100
AcDbCircle
 10
34.02138566197715
 20
199.887373625955
 30
0.0
 40
34.99999999999998
100
AcDbArc
 50
-14.9020972365563
 51
-13.29117724303345
  0
ARC
  5
83
330
36
100
AcDbEntity
  8
1
  6
Continuous
 62
     7
100
AcDbCircle
 10
78.02138566197695
 20
199.887373625955
 30
0.0
 40
34.99999999999987
100
AcDbArc
 50
165.1648884180243
 51
166.7088227569667
  0
ARC
  5
84
330
36
100
AcDbEntity
  8
1
  6
Continuous
 62
     7
100
AcDbCircle
 10
56.02138566197698
 20
90.9119546937802
 30
0.0
 40
6.5
100
AcDbArc
 50
-90.0
 51
8.84988309842901
  0
ARC
  5
85
330
36
100
AcDbEntity
  8
1
  6
Continuous
 62
     7
100
AcDbCircle
 10
56.02138566197698
 20
90.9119546937802
 30
0.0
 40
6.500000000000002
100
AcDbArc
 50
171.150116901571
 51
-90.0
  0
ARC
  5
86
330
36
100
AcDbEntity
  8
1
  6
Continuous
 62
     7
100
AcDbCircle
 10
56.02138566197698
 20
90.9119546937802
 30
0.0
 40
6.500000000000016
100
AcDbArc
 50
8.84988309842901
 51
171.150116901571
  0
ARC
  5
87
330
36
100
AcDbEntity
  8
1
  6
Continuous
 62
     7
100
AcDbCircle
 10
38.02138566197277
 20
107.4119546937802
 30
0.0
 40
6.000000000004214
100
AcDbArc
 50
-3.59803996064119
 51
0.0
  0
ARC
  5
88
330
36
100
AcDbEntity
  8
1
  6
Continuous
 62
     7
100
AcDbCircle
 10
74.02138566198113
 20
107.4119546937802
 30
0.0
 40
6.00000000000415
100
AcDbArc
 50
180.0
 51
-176.4019600393588
  0
ARC
  5
89
330
36
100
AcDbEntity
  8
1
  6
Continuous
 62
     7
100
AcDbCircle
 10
34.02138566197715
 20
199.887373625955
 30
0.0
 40
34.99999999999996
100
AcDbArc
 50
13.29117724303306
 51
14.83511158197576
  0
ARC
  5
8A
330
36
100
AcDbEntity
  8
1
  6
Continuous
 62
     7
100
AcDbCircle
 10
78.02138566197695
 20
199.887373625955
 30
0.0
 40
34.99999999999987
100
AcDbArc
 50
-166.7088227569662
 51
-165.0979027634437
  0
ARC
  5
8B
330
36
100
AcDbEntity
  8
1
  6
Continuous
 62
     7
100
AcDbCircle
 10
117.021385661977
 20
107.3894546937802
 30
0.0
 40
6.0
100
AcDbArc
 50
-90.0
 51
0.0
  0
ARC
  5
8C
330
36
100
AcDbEntity
  8
1
  6
Continuous
 62
     7
100
AcDbCircle
 10
153.021385661977
 20
107.4119546937802
 30
0.0
 40
6.0
100
AcDbArc
 50
180.0
 51
-90.0
  0
ARC
  5
8D
330
36
100
AcDbEntity
  8
1
  6
Continuous
 62
     7
100
AcDbCircle
 10
135.021385661977
 20
112.9119546937802
 30
0.0
 40
35.00000000000001
100
AcDbArc
 50
-104.9020972365563
 51
-75.16488841802429
  0
ARC
  5
8E
330
36
100
AcDbEntity
  8
1
  6
Continuous
 62
     7
100
AcDbCircle
 10
56.02138566197698
 20
90.9119546937802
 30
0.0
 40
13.00000000000004
100
AcDbArc
 50
176.4019600393567
 51
3.59803996064336
  0
ARC
  5
8F
330
36
100
AcDbEntity
  8
1
  6
Continuous
 62
     7
100
AcDbCircle
 10
118.9367845424409
 20
86.63527696719852
 30
0.0
 40
16.99999999999994
100
AcDbArc
 50
51.60597220067028
 51
78.97242887486985
  0
ARC
  5
90
330
36
100
AcDbEntity
  8
1
  6
Continuous
 62
     7
100
AcDbCircle
 10
151.1062417057448
 20
86.63527696719852
 30
0.0
 40
16.99999999999998
100
AcDbArc
 50
101.0275711251298
 51
128.3940277993297
  0
CIRCLE
  5
91
330
36
100
AcDbEntity
  8
1
  6
Continuous
 62
     7
100
AcDbCircle
 10
56.02138566197698
 20
90.9119546937802
 30
0.0
 40
10.50000000000001
  0
CIRCLE
  5
92
330
36
100
AcDbEntity
  8
1
  6
Continuous
 62
     2
100
AcDbCircle
 10
56.02138566197698
 20
90.9119546937802
 30
0.0
 40
9.3155
  0
ARC
  5
93
330
36
100
AcDbEntity
  8
1
  6
Continuous
 62
     7
100
AcDbCircle
 10
106.521385661977
 20
219.0902379956272
 30
0.0
 40
40.00000000000006
100
AcDbArc
 50
-179.999999999999
 51
-165.1648884180233
  0
ARC
  5
94
330
36
100
AcDbEntity
  8
1
  6
Continuous
 62
     7
100
AcDbCircle
 10
5.54388566197704
 20
180.5997611829904
 30
0.0
 40
40.0
100
AcDbArc
 50
0.0
 51
0.43292126706862
  0
ARC
  5
95
330
36
100
AcDbEntity
  8
1
  6
Continuous
 62
     7
100
AcDbCircle
 10
5.54388566197704
 20
180.5997611829904
 30
0.0
 40
39.99999999999996
100
AcDbArc
 50
0.43292126706862
 51
14.90209723655631
  0
ARC
  5
96
330
36
100
AcDbEntity
  8
1
  6
Continuous
 62
     7
100
AcDbCircle
 10
5.52138566197695
 20
219.0902379956263
 30
0.0
 40
40.00000000000007
100
AcDbArc
 50
-14.83511158197539
 51
0.00000000000028
  0
ARC
  5
97
330
36
100
AcDbEntity
  8
1
  6
Continuous
 62
     7
100
AcDbCircle
 10
46.02138566197695
 20
229.387373625955
 30
0.0
 40
0.5
100
AcDbArc
 50
90.0
 51
180.0
  0
ARC
  5
98
330
36
100
AcDbEntity
  8
1
  6
Continuous
 62
     7
100
AcDbCircle
 10
106.4988856619769
 20
180.5997611829904
 30
0.0
 40
39.99999999999997
100
AcDbArc
 50
179.5670787329314
 51
180.0
  0
ARC
  5
99
330
36
100
AcDbEntity
  8
1
  6
Continuous
 62
     7
100
AcDbCircle
 10
106.4988856619769
 20
180.5997611829904
 30
0.0
 40
39.9999999999998
100
AcDbArc
 50
165.0979027634436
 51
179.5670787329314
  0
ARC
  5
9A
330
36
100
AcDbEntity
  8
1
  6
Continuous
 62
     7
100
AcDbCircle
 10
66.02138566197695
 20
229.387373625955
 30
0.0
 40
0.5
100
AcDbArc
 50
0.0
 51
90.0
  0
ARC
  5
9B
330
36
100
AcDbEntity
  8
1
  6
Continuous
 62
     7
100
AcDbCircle
 10
115.7337732190124
 20
40.43445469378023
 30
0.0
 40
39.99999999999998
100
AcDbArc
 50
89.56707873293142
 51
90.0
  0
ARC
  5
9C
330
36
100
AcDbEntity
  8
1
  6
Continuous
 62
     7
100
AcDbCircle
 10
154.2242500316485
 20
40.41195469378021
 30
0.0
 40
40.00000000000001
100
AcDbArc
 50
90.0
 51
104.8351115819757
  0
ARC
  5
9D
330
36
100
AcDbEntity
  8
1
  6
Continuous
 62
     7
100
AcDbCircle
 10
164.521385661977
 20
80.9119546937802
 30
0.0
 40
0.5
100
AcDbArc
 50
-90.0
 51
0.0
  0
ARC
  5
9E
330
36
100
AcDbEntity
  8
1
  6
Continuous
 62
     7
100
AcDbCircle
 10
164.521385661977
 20
100.9119546937802
 30
0.0
 40
0.5
100
AcDbArc
 50
0.0
 51
90.0
  0
ARC
  5
9F
330
36
100
AcDbEntity
  8
1
  6
Continuous
 62
     7
100
AcDbCircle
 10
115.7337732190124
 20
40.43445469378023
 30
0.0
 40
39.99999999999999
100
AcDbArc
 50
75.09790276344369
 51
89.56707873293142
  0
ENDBLK
  5
38
330
36
100
AcDbEntity
  8
0
100
AcDbBlockEnd
  0
BLOCK
  5
3A
330
39
100
AcDbEntity
  8
0
100
AcDbBlockBegin
  2
37-1-13
 70
     0
 71
     0
 10
328.3898984074202
 20
88.99799558692997
 30
0.0
  3
37-1-13
  1

  0
LINE
  5
A0
330
39
100
AcDbEntity
  8
1
  6
Continuous
 62
     7
100
AcDbLine
 10
43.02138566197698
 20
123.4826689080517
 30
0.0
 11
43.02138566197698
 21
116.4119546937802
 31
0.0
  0
LINE
  5
A1
330
39
100
AcDbEntity
  8
1
  6
Continuous
 62
     7
100
AcDbLine
 10
44.89098094550809
 20
123.4826689080517
 30
0.0
 11
43.44199908838208
 21
123.4826689080517
 31
0.0
  0
LINE
  5
A2
330
39
100
AcDbEntity
  8
1
  6
Continuous
 62
     7
100
AcDbLine
 10
62.02138566197698
 20
130.4119546937802
 30
0.0
 11
50.02138566197698
 21
130.4119546937802
 31
0.0
  0
LINE
  5
A3
330
39
100
AcDbEntity
  8
1
  6
Continuous
 62
     7
100
AcDbLine
 10
68.60077223557181
 20
123.4826689080517
 30
0.0
 11
67.15179037844581
 21
123.4826689080517
 31
0.0
  0
LINE
  5
A4
330
39
100
AcDbEntity
  8
1
  6
Continuous
 62
     7
100
AcDbLine
 10
53.80779237397798
 20
123.4826689080517
 30
0.0
 11
58.26619808821302
 21
123.4826689080517
 31
0.0
  0
LINE
  5
A5
330
39
100
AcDbEntity
  8
1
  6
Continuous
 62
     7
100
AcDbLine
 10
56.02138566197698
 20
116.4119546937802
 30
0.0
 11
43.02138566197698
 21
116.4119546937802
 31
0.0
  0
LINE
  5
A6
330
39
100
AcDbEntity
  8
1
  6
Continuous
 62
     7
100
AcDbLine
 10
69.02138566197698
 20
116.4119546937802
 30
0.0
 11
56.02138566197698
 21
116.4119546937802
 31
0.0
  0
LINE
  5
A7
330
39
100
AcDbEntity
  8
1
  6
Continuous
 62
     7
100
AcDbLine
 10
69.02138566197698
 20
123.4826689080516
 30
0.0
 11
69.02138566197698
 21
116.4119546937802
 31
0.0
  0
LINE
  5
A8
330
39
100
AcDbEntity
  8
1
  6
Continuous
 62
     7
100
AcDbLine
 10
62.52138566197706
 20
188.6290433767573
 30
0.0
 11
56.95923679665526
 21
185.417735232091
 31
0.0
  0
LINE
  5
A9
330
39
100
AcDbEntity
  8
1
  6
Continuous
 62
     7
100
AcDbLine
 10
69.02138566197706
 20
199.887373625955
 30
0.0
 11
69.02138566197706
 21
193.4647573366224
 31
0.0
  0
LINE
  5
AA
330
39
100
AcDbEntity
  8
1
  6
Continuous
 62
     7
100
AcDbLine
 10
62.52138566197706
 20
211.1457038751527
 30
0.0
 11
68.08353452729875
 21
207.9343957304864
 31
0.0
  0
LINE
  5
AB
330
39
100
AcDbEntity
  8
1
  6
Continuous
 62
     7
100
AcDbLine
 10
49.52138566197706
 20
211.1457038751527
 30
0.0
 11
55.08353452729875
 21
214.357012019819
 31
0.0
  0
LINE
  5
AC
330
39
100
AcDbEntity
  8
1
  6
Continuous
 62
     7
100
AcDbLine
 10
43.02138566197706
 20
199.887373625955
 30
0.0
 11
43.02138566197706
 21
206.3099899152875
 31
0.0
  0
LINE
  5
AD
330
39
100
AcDbEntity
  8
1
  6
Continuous
 62
     7
100
AcDbLine
 10
49.52138566197706
 20
188.6290433767573
 30
0.0
 11
43.95923679665526
 21
191.8403515214235
 31
0.0
  0
LINE
  5
AE
330
39
100
AcDbEntity
  8
1
  6
Continuous
 62
     7
100
AcDbLine
 10
68.08353452729875
 20
191.8403515214235
 30
0.0
 11
62.52138566197706
 21
188.6290433767573
 31
0.0
  0
LINE
  5
AF
330
39
100
AcDbEntity
  8
1
  6
Continuous
 62
     7
100
AcDbLine
 10
69.02138566197706
 20
206.3099899152875
 30
0.0
 11
69.02138566197706
 21
199.887373625955
 31
0.0
  0
LINE
  5
B0
330
39
100
AcDbEntity
  8
1
  6
Continuous
 62
     7
100
AcDbLine
 10
56.95923679665526
 20
214.357012019819
 30
0.0
 11
62.52138566197706
 21
211.1457038751527
 31
0.0
  0
LINE
  5
B1
330
39
100
AcDbEntity
  8
1
  6
Continuous
 62
     7
100
AcDbLine
 10
43.95923679665526
 20
207.9343957304864
 30
0.0
 11
49.52138566197706
 21
211.1457038751527
 31
0.0
  0
LINE
  5
B2
330
39
100
AcDbEntity
  8
1
  6
Continuous
 62
     7
100
AcDbLine
 10
43.02138566197706
 20
193.4647573366224
 30
0.0
 11
43.02138566197706
 21
199.887373625955
 31
0.0
  0
LINE
  5
B3
330
39
100
AcDbEntity
  8
1
  6
Continuous
 62
     7
100
AcDbLine
 10
55.08353452729875
 20
185.417735232091
 30
0.0
 11
49.52138566197706
 21
188.6290433767573
 31
0.0
  0
LINE
  5
B4
330
39
100
AcDbEntity
  8
1
  6
Continuous
 62
     7
100
AcDbLine
 10
122.5213856619771
 20
123.8416459819652
 30
0.0
 11
135.021385661977
 21
123.8416459819651
 31
0.0
  0
LINE
  5
B5
330
39
100
AcDbEntity
  8
1
  6
Continuous
 62
     7
100
AcDbLine
 10
148.0920998762485
 20
116.3416459819651
 30
0.0
 11
121.9506714477056
 21
116.3416459819651
 31
0.0
  0
LINE
  5
B6
330
39
100
AcDbEntity
  8
1
  6
Continuous
 62
     7
100
AcDbLine
 10
135.021385661977
 20
130.3416459819651
 30
0.0
 11
129.021385661977
 21
130.3416459819651
 31
0.0
  0
LINE
  5
B7
330
39
100
AcDbEntity
  8
1
  6
Continuous
 62
     7
100
AcDbLine
 10
135.021385661977
 20
123.8416459819651
 30
0.0
 11
147.5213856619769
 21
123.8416459819652
 31
0.0
  0
LINE
  5
B8
330
39
100
AcDbEntity
  8
1
  6
Continuous
 62
     7
100
AcDbLine
 10
141.0213856619771
 20
130.3416459819651
 30
0.0
 11
135.021385661977
 21
130.3416459819651
 31
0.0
  0
ARC
  5
B9
330
39
100
AcDbEntity
  8
1
  6
Continuous
 62
     7
100
AcDbCircle
 10
46.52138566197698
 20
119.9119546937802
 30
0.0
 40
5.00000000000002
100
AcDbArc
 50
126.8698976458424
 51
134.4270040008051
  0
ARC
  5
BA
330
39
100
AcDbEntity
  8
1
  6
Continuous
 62
     7
100
AcDbCircle
 10
30.11493045686208
 20
143.8184098988951
 30
0.0
 40
23.99999999999995
100
AcDbArc
 50
-56.0408074999022
 51
-33.95919250009753
  0
ARC
  5
BB
330
39
100
AcDbEntity
  8
1
  6
Continuous
 62
     7
100
AcDbCircle
 10
65.52138566197698
 20
119.9119546937802
 30
0.0
 40
4.999999999999975
100
AcDbArc
 50
45.57299599919402
 51
53.13010235415771
  0
ARC
  5
BC
330
39
100
AcDbEntity
  8
1
  6
Continuous
 62
     7
100
AcDbCircle
 10
81.92784086709189
 20
143.8184098988951
 30
0.0
 40
23.99999999999999
100
AcDbArc
 50
-146.0408074999025
 51
-123.9591925000979
  0
ARC
  5
BD
330
39
100
AcDbEntity
  8
1
  6
Continuous
 62
     7
100
AcDbCircle
 10
56.02138566197698
 20
199.8873736259549
 30
0.0
 40
14.50000000000012
100
AcDbArc
 50
86.29155527472928
 51
89.99999999999969
  0
ARC
  5
BE
330
39
100
AcDbEntity
  8
1
  6
Continuous
 62
     7
100
AcDbCircle
 10
56.02138566197698
 20
199.8873736259549
 30
0.0
 40
14.49999999999992
100
AcDbArc
 50
-93.70844472527055
 51
-89.99999999999969
  0
ARC
  5
BF
330
39
100
AcDbEntity
  8
1
  6
Continuous
 62
     7
100
AcDbCircle
 10
56.02138566197698
 20
199.8873736259549
 30
0.0
 40
14.49999999999989
100
AcDbArc
 50
-89.99999999999969
 51
-86.29155527472923
  0
ARC
  5
C0
330
39
100
AcDbEntity
  8
1
  6
Continuous
 62
     7
100
AcDbCircle
 10
56.02138566197698
 20
199.8873736259549
 30
0.0
 40
12.99999999999987
100
AcDbArc
 50
-119.9999999999999
 51
-59.99999999999947
  0
ARC
  5
C1
330
39
100
AcDbEntity
  8
1
  6
Continuous
 62
     7
100
AcDbCircle
 10
56.02138566197698
 20
199.8873736259549
 30
0.0
 40
14.50000000000001
100
AcDbArc
 50
-33.70844472527054
 51
-26.29155527472897
  0
ARC
  5
C2
330
39
100
AcDbEntity
  8
1
  6
Continuous
 62
     7
100
AcDbCircle
 10
56.02138566197698
 20
199.8873736259549
 30
0.0
 40
12.99999999999995
100
AcDbArc
 50
-59.99999999999947
 51
0.0000000000005
  0
ARC
  5
C3
330
39
100
AcDbEntity
  8
1
  6
Continuous
 62
     7
100
AcDbCircle
 10
56.02138566197698
 20
199.8873736259549
 30
0.0
 40
14.5000000000001
100
AcDbArc
 50
26.29155527472938
 51
33.70844472527082
  0
ARC
  5
C4
330
39
100
AcDbEntity
  8
1
  6
Continuous
 62
     7
100
AcDbCircle
 10
56.02138566197698
 20
199.8873736259549
 30
0.0
 40
13.00000000000009
100
AcDbArc
 50
0.0000000000005
 51
59.99999999999992
  0
ARC
  5
C5
330
39
100
AcDbEntity
  8
1
  6
Continuous
 62
     7
100
AcDbCircle
 10
56.02138566197698
 20
199.8873736259549
 30
0.0
 40
14.50000000000011
100
AcDbArc
 50
89.99999999999969
 51
93.7084447252705
  0
ARC
  5
C6
330
39
100
AcDbEntity
  8
1
  6
Continuous
 62
     7
100
AcDbCircle
 10
56.02138566197698
 20
199.8873736259549
 30
0.0
 40
13.00000000000012
100
AcDbArc
 50
59.99999999999992
 51
119.9999999999995
  0
ARC
  5
C7
330
39
100
AcDbEntity
  8
1
  6
Continuous
 62
     7
100
AcDbCircle
 10
56.02138566197698
 20
199.8873736259549
 30
0.0
 40
14.50000000000002
100
AcDbArc
 50
146.2915552747291
 51
153.7084447252703
  0
ARC
  5
C8
330
39
100
AcDbEntity
  8
1
  6
Continuous
 62
     7
100
AcDbCircle
 10
56.02138566197698
 20
199.8873736259549
 30
0.0
 40
12.99999999999992
100
AcDbArc
 50
179.9999999999995
 51
-119.9999999999999
  0
ARC
  5
C9
330
39
100
AcDbEntity
  8
1
  6
Continuous
 62
     7
100
AcDbCircle
 10
56.02138566197698
 20
199.8873736259549
 30
0.0
 40
13.00000000000004
100
AcDbArc
 50
119.9999999999995
 51
179.9999999999995
  0
ARC
  5
CA
330
39
100
AcDbEntity
  8
1
  6
Continuous
 62
     7
100
AcDbCircle
 10
56.02138566197698
 20
199.8873736259549
 30
0.0
 40
14.4999999999999
100
AcDbArc
 50
-153.7084447252707
 51
-146.2915552747294
  0
ARC
  5
CB
330
39
100
AcDbEntity
  8
1
  6
Continuous
 62
     7
100
AcDbCircle
 10
109.1149304568621
 20
143.74810118708
 30
0.0
 40
23.99999999999995
100
AcDbArc
 50
-56.04080749990219
 51
-33.95919250009752
  0
ARC
  5
CC
330
39
100
AcDbEntity
  8
1
  6
Continuous
 62
     7
100
AcDbCircle
 10
125.521385661977
 20
119.8416459819651
 30
0.0
 40
5.00000000000002
100
AcDbArc
 50
126.8698976458424
 51
-135.5729959991941
  0
ARC
  5
CD
330
39
100
AcDbEntity
  8
1
  6
Continuous
 62
     7
100
AcDbCircle
 10
160.9278408670919
 20
143.74810118708
 30
0.0
 40
23.9999999999999
100
AcDbArc
 50
-146.0408074999024
 51
-123.9591925000978
  0
ARC
  5
CE
330
39
100
AcDbEntity
  8
1
  6
Continuous
 62
     7
100
AcDbCircle
 10
144.5213856619771
 20
119.8416459819651
 30
0.0
 40
4.999999999999996
100
AcDbArc
 50
-44.42700400080575
 51
53.13010235415849
  0
CIRCLE
  5
CF
330
39
100
AcDbEntity
  8
1
  6
Continuous
 62
     7
100
AcDbCircle
 10
56.02138566197698
 20
199.8873736259549
 30
0.0
 40
5.000000000000114
  0
CIRCLE
  5
D0
330
39
100
AcDbEntity
  8
1
  6
Continuous
 62
     7
100
AcDbCircle
 10
56.02138566197698
 20
199.8873736259549
 30
0.0
 40
6.000000000000114
  0
SPLINE
  5
D1
330
39
100
AcDbEntity
  8
1
  6
Continuous
 62
     7
100
AcDbSpline
210
0.0
220
0.0
230
1.0
 70
     8
 71
     3
 72
    29
 73
    25
 74
    23
 42
0.0000000001
 43
0.0000000001
 44
0.00000001
 40
0.0
 40
0.0
 40
0.0
 40
0.0
 40
0.6069077131759348
 40
1.212222625822735
 40
1.842666707826797
 40
2.474631900595432
 40
3.10242017236546
 40
3.729333891456477
 40
4.27104293983323
 40
4.812985328221243
 40
5.340107980728414
 40
5.866248927280115
 40
6.26387483734332
 40
6.661485236222465
 40
7.280966497569066
 40
7.902596738528223
 40
8.549168915178885
 40
9.195896772489324
 40
9.722415974179299
 40
10.24911841725704
 40
11.07897537274018
 40
11.90732207846645
 40
12.67331709995037
 40
13.44191271185835
 40
13.44191271185835
 40
13.44191271185835
 40
13.44191271185835
 10
135.021385661977
 20
123.3416459819651
 30
0.0
 10
135.2234454915345
 20
123.3317706085028
 30
0.0
 10
135.6270348542033
 20
123.3120457790277
 30
0.0
 10
136.2387404045419
 20
123.2482554249748
 30
0.0
 10
136.8481574664318
 20
123.1140721276574
 30
0.0
 10
137.4465636419371
 20
122.9136165069729
 30
0.0
 10
138.0211261738328
 20
122.6550553901549
 30
0.0
 10
138.5360239715044
 20
122.3461260003836
 30
0.0
 10
138.9850428455026
 20
121.9923090758088
 30
0.0
 10
139.3589844479936
 20
121.6042844076458
 30
0.0
 10
139.6659503494537
 20
121.1673540038831
 30
0.0
 10
139.8732590069876
 20
120.7271400367829
 30
0.0
 10
139.9891615952584
 20
120.3004309160982
 30
0.0
 10
140.0398648001528
 20
119.8295154735961
 30
0.0
 10
139.9794084768749
 20
119.280540880552
 30
0.0
 10
139.7664612451281
 20
118.682794814332
 30
0.0
 10
139.419224307782
 20
118.1411925683334
 30
0.0
 10
138.9978665819494
 20
117.7005846001958
 30
0.0
 10
138.5504530916924
 20
117.3507106765589
 30
0.0
 10
138.0146167057699
 20
117.0218002935698
 30
0.0
 10
137.3497256558565
 20
116.7180616719426
 30
0.0
 10
136.5700645943824
 20
116.4932918065999
 30
0.0
 10
135.7876589760729
 20
116.3889050011905
 30
0.0
 10
135.2770985067103
 20
116.3574825224416
 30
0.0
 10
135.021385661977
 20
116.3417446580521
 30
0.0
 11
135.021385661977
 21
123.3416459819651
 31
0.0
 11
135.6272716837352
 21
123.3064451162028
 31
0.0
 11
136.2287145032167
 21
123.2380881241186
 31
0.0
 11
136.8446057149578
 21
123.1034116382942
 31
0.0
 11
137.4440671765065
 21
122.9033467463491
 31
0.0
 11
138.0157659498266
 21
122.6439655080988
 31
0.0
 11
138.5523311668397
 21
122.3197455533208
 31
0.0
 11
138.9767637056188
 21
121.9831364133398
 31
0.0
 11
139.3515126808993
 21
121.5916459819651
 31
0.0
 11
139.6530685668593
 21
121.1593008207466
 31
0.0
 11
139.875088880693
 21
120.6822984351304
 31
0.0
 11
139.9788495978361
 21
120.2984494050007
 31
0.0
 11
140.0206076956568
 21
119.9030378591864
 31
0.0
 11
139.9560140840354
 21
119.2869334049765
 31
0.0
 11
139.7483959138841
 21
118.7009992346997
 31
0.0
 11
139.4030233130291
 21
118.1543976007857
 31
0.0
 11
138.9587491864262
 21
117.6844216207053
 31
0.0
 11
138.5448787676516
 21
117.3589469731341
 31
0.0
 11
138.0968399204274
 21
117.0820414749545
 31
0.0
 11
137.3420792137899
 21
116.7370793867771
 31
0.0
 11
136.5459229034017
 21
116.5084018970308
 31
0.0
 11
135.7879137728021
 21
116.3980817680162
 31
0.0
 11
135.021385661977
 21
116.3417446580521
 31
0.0
  0
SPLINE
  5
D2
330
39
100
AcDbEntity
  8
1
  6
Continuous
 62
     7
100
AcDbSpline
210
0.0
220
0.0
230
1.0
 70
    11
 71
     3
 72
    79
 73
    75
 74
    73
 42
0.0000000001
 43
0.0000000001
 44
0.00000001
 40
0.0
 40
0.0
 40
0.0
 40
0.0
 40
0.2803981145478732
 40
0.5607977859032172
 40
0.8427454841467236
 40
1.124697473048486
 40
1.409536451638076
 40
1.694381500885835
 40
1.983071310125168
 40
2.271767843422814
 40
2.564776142200809
 40
2.857790854546414
 40
3.155055698552691
 40
3.452325978930781
 40
3.753284827389662
 40
4.054247742882722
 40
4.357919806975667
 40
4.661594368328859
 40
4.966700748943377
 40
5.271807969839324
 40
5.576915190735286
 40
5.882021571349888
 40
6.185696132703086
 40
6.489368196796024
 40
6.790331112289017
 40
7.091289960747872
 40
7.388560241125899
 40
7.685825085132239
 40
7.978839797477825
 40
8.271848096255839
 40
8.560544629553471
 40
8.849234438792813
 40
9.134079488040557
 40
9.41891846663016
 40
9.700870455531895
 40
9.98281815377543
 40
10.26321782513074
 40
10.54361593967864
 40
10.82401405422657
 40
11.10441372558197
 40
11.38636142382545
 40
11.66831341272721
 40
11.95315239131679
 40
12.23799744056458
 40
12.52668724980393
 40
12.81538378310156
 40
13.10839208187948
 40
13.40140679422508
 40
13.69867163823145
 40
13.99594191860951
 40
14.29690076706831
 40
14.59786368256131
 40
14.90153574665423
 40
15.20521030800744
 40
15.51031668862205
 40
15.815423909518
 40
16.12053113041393
 40
16.42563751102846
 40
16.72931207238168
 40
17.03298413647459
 40
17.33394705196762
 40
17.63490590042649
 40
17.93217618080456
 40
18.22944102481092
 40
18.52245573715648
 40
18.81546403593444
 40
19.1041605692321
 40
19.39285037847142
 40
19.67769542771924
 40
19.96253440630879
 40
20.24448639521056
 40
20.52643409345404
 40
20.80683376480947
 40
21.08723187935737
 40
21.08723187935737
 40
21.08723187935737
 40
21.08723187935737
 10
146.2797159111748
 20
123.3416459819651
 30
0.0
 10
146.3732164542283
 20
123.3390645960759
 30
0.0
 10
146.5602180594627
 20
123.3339018099653
 30
0.0
 10
146.8387024727027
 20
123.2924294599163
 30
0.0
 10
147.1126446691051
 20
123.2265292995236
 30
0.0
 10
147.3805728344404
 20
123.1342971902896
 30
0.0
 10
147.6396186220009
 20
123.0172150009307
 30
0.0
 10
147.8887779161536
 20
122.8757387193514
 30
0.0
 10
148.1250879363315
 20
122.7114563733583
 30
0.0
 10
148.3478629302494
 20
122.5249962251419
 30
0.0
 10
148.5543189625475
 20
122.3185717502048
 30
0.0
 10
148.7439317061881
 20
122.0928540557682
 30
0.0
 10
148.9143308821136
 20
121.8505632574194
 30
0.0
 10
149.0650436897215
 20
121.5925057645794
 30
0.0
 10
149.194266826247
 20
121.3216785610975
 30
0.0
 10
149.3015464994315
 20
121.0391617076008
 30
0.0
 10
149.3857010029867
 20
120.7479737370077
 30
0.0
 10
149.4463442768179
 20
120.4495949640929
 30
0.0
 10
149.4828780390891
 20
120.1468339922127
 30
0.0
 10
149.4950970698258
 20
119.8416459819649
 30
0.0
 10
149.4828780390891
 20
119.5364579717185
 30
0.0
 10
149.4463442768179
 20
119.2336969998337
 30
0.0
 10
149.3857010029867
 20
118.9353182269357
 30
0.0
 10
149.3015464994315
 20
118.64413025628
 30
0.0
 10
149.194266826247
 20
118.361613403015
 30
0.0
 10
149.0650436897215
 20
118.0907861986734
 30
0.0
 10
148.9143308821136
 20
117.8327287090043
 30
0.0
 10
148.7439317061881
 20
117.5904378989087
 30
0.0
 10
148.5543189625476
 20
117.3647202477108
 30
0.0
 10
148.3478629302495
 20
117.1582956126843
 30
0.0
 10
148.1250879363314
 20
116.9718360535072
 30
0.0
 10
147.8887779161537
 20
116.8075515257961
 30
0.0
 10
147.6396186220008
 20
116.6660832827262
 30
0.0
 10
147.3805728344406
 20
116.5489712791246
 30
0.0
 10
147.112644669105
 20
116.4568493606517
 30
0.0
 10
146.8387024727027
 20
116.390539595084
 30
0.0
 10
146.5602180594628
 20
116.3505879299883
 30
0.0
 10
146.2797159111748
 20
116.3371750203652
 30
0.0
 10
145.9992137628868
 20
116.3505879299882
 30
0.0
 10
145.7207293496468
 20
116.390539595084
 30
0.0
 10
145.4467871532445
 20
116.4568493606517
 30
0.0
 10
145.178858987909
 20
116.5489712791245
 30
0.0
 10
144.9198132003487
 20
116.6660832827262
 30
0.0
 10
144.6706539061959
 20
116.8075515257961
 30
0.0
 10
144.4343438860181
 20
116.9718360535072
 30
0.0
 10
144.2115688921001
 20
117.1582956126842
 30
0.0
 10
144.005112859802
 20
117.3647202477108
 30
0.0
 10
143.8155001161616
 20
117.5904378989087
 30
0.0
 10
143.6451009402359
 20
117.8327287090043
 30
0.0
 10
143.494388132628
 20
118.0907861986734
 30
0.0
 10
143.3651649961026
 20
118.361613403015
 30
0.0
 10
143.2578853229182
 20
118.64413025628
 30
0.0
 10
143.173730819363
 20
118.9353182269357
 30
0.0
 10
143.1130875455317
 20
119.2336969998336
 30
0.0
 10
143.0765537832606
 20
119.5364579717185
 30
0.0
 10
143.0643347525238
 20
119.8416459819649
 30
0.0
 10
143.0765537832606
 20
120.1468339922127
 30
0.0
 10
143.1130875455318
 20
120.4495949640929
 30
0.0
 10
143.173730819363
 20
120.7479737370076
 30
0.0
 10
143.2578853229181
 20
121.0391617076008
 30
0.0
 10
143.3651649961026
 20
121.3216785610975
 30
0.0
 10
143.4943881326281
 20
121.5925057645795
 30
0.0
 10
143.6451009402359
 20
121.8505632574195
 30
0.0
 10
143.8155001161616
 20
122.0928540557682
 30
0.0
 10
144.005112859802
 20
122.3185717502048
 30
0.0
 10
144.2115688921
 20
122.5249962251419
 30
0.0
 10
144.434343886018
 20
122.7114563733584
 30
0.0
 10
144.6706539061959
 20
122.8757387193513
 30
0.0
 10
144.9198132003487
 20
123.0172150009307
 30
0.0
 10
145.1788589879091
 20
123.1342971902897
 30
0.0
 10
145.4467871532444
 20
123.2265292995236
 30
0.0
 10
145.7207293496468
 20
123.2924294599163
 30
0.0
 10
145.9992137628869
 20
123.3339018099652
 30
0.0
 10
146.1862153681213
 20
123.3390645960759
 30
0.0
 10
146.2797159111748
 20
123.3416459819651
 30
0.0
 11
146.2797159111748
 21
123.3416459819651
 31
0.0
 11
146.5597959100444
 21
123.328293196667
 31
0.0
 11
146.837353718423
 21
123.2884731175078
 31
0.0
 11
147.1114051228019
 21
123.2222135347839
 31
0.0
 11
147.3780479830764
 21
123.1305701547158
 31
0.0
 11
147.6376364076124
 21
123.0133221544306
 31
0.0
 11
147.8853699835079
 21
122.8727348952106
 31
0.0
 11
148.1224704681169
 21
122.7080376998586
 31
0.0
 11
148.3439049974517
 21
122.5228015328815
 31
0.0
 11
148.5511883867615
 21
122.3157086559663
 31
0.0
 11
148.7397206705391
 21
122.091402615868
 31
0.0
 11
148.9108092171126
 21
121.8483077851673
 31
0.0
 11
149.0607903438356
 21
121.5916459819651
 31
0.0
 11
149.19046712371
 21
121.320057761994
 31
0.0
 11
149.2973584777874
 21
121.0387164836049
 31
0.0
 11
149.3817245391177
 21
120.7469990000595
 31
0.0
 11
149.4422370693534
 21
120.4494146037993
 31
0.0
 11
149.4788160179164
 21
120.1465088692651
 31
0.0
 11
149.4910240558411
 21
119.8416459819651
 31
0.0
 11
149.4788160179164
 21
119.5367830946651
 31
0.0
 11
149.4422370693534
 21
119.2338773601308
 31
0.0
 11
149.3817245391177
 21
118.9362929638706
 31
0.0
 11
149.2973584777874
 21
118.6445754803252
 31
0.0
 11
149.19046712371
 21
118.3632342019362
 31
0.0
 11
149.0607903438356
 21
118.0916459819651
 31
0.0
 11
148.9108092171127
 21
117.834984178763
 31
0.0
 11
148.7397206705391
 21
117.5918893480622
 31
0.0
 11
148.5511883867615
 21
117.3675833079639
 31
0.0
 11
148.3439049974517
 21
117.1604904310487
 31
0.0
 11
148.1224704681169
 21
116.9752542640717
 31
0.0
 11
147.8853699835079
 21
116.8105570687196
 31
0.0
 11
147.6376364076124
 21
116.6699698094996
 31
0.0
 11
147.3780479830764
 21
116.5527218092144
 31
0.0
 11
147.111405122802
 21
116.4610784291463
 31
0.0
 11
146.837353718423
 21
116.3948188464224
 31
0.0
 11
146.5597959100444
 21
116.3549987672633
 31
0.0
 11
146.2797159111748
 21
116.3416459819651
 31
0.0
 11
145.9996359123052
 21
116.3549987672632
 31
0.0
 11
145.7220781039265
 21
116.3948188464224
 31
0.0
 11
145.4480266995476
 21
116.4610784291463
 31
0.0
 11
145.1813838392731
 21
116.5527218092144
 31
0.0
 11
144.9217954147371
 21
116.6699698094996
 31
0.0
 11
144.6740618388416
 21
116.8105570687196
 31
0.0
 11
144.4369613542326
 21
116.9752542640717
 31
0.0
 11
144.2155268248978
 21
117.1604904310487
 31
0.0
 11
144.0082434355881
 21
117.3675833079639
 31
0.0
 11
143.8197111518105
 21
117.5918893480622
 31
0.0
 11
143.6486226052369
 21
117.834984178763
 31
0.0
 11
143.4986414785139
 21
118.0916459819651
 31
0.0
 11
143.3689646986396
 21
118.3632342019362
 31
0.0
 11
143.2620733445622
 21
118.6445754803252
 31
0.0
 11
143.177707283232
 21
118.9362929638706
 31
0.0
 11
143.1171947529962
 21
119.2338773601308
 31
0.0
 11
143.0806158044332
 21
119.5367830946651
 31
0.0
 11
143.0684077665085
 21
119.8416459819651
 31
0.0
 11
143.0806158044333
 21
120.1465088692651
 31
0.0
 11
143.1171947529962
 21
120.4494146037993
 31
0.0
 11
143.177707283232
 21
120.7469990000595
 31
0.0
 11
143.2620733445622
 21
121.0387164836049
 31
0.0
 11
143.3689646986395
 21
121.3200577619939
 31
0.0
 11
143.4986414785139
 21
121.5916459819651
 31
0.0
 11
143.6486226052369
 21
121.8483077851672
 31
0.0
 11
143.8197111518105
 21
122.091402615868
 31
0.0
 11
144.0082434355881
 21
122.3157086559663
 31
0.0
 11
144.2155268248978
 21
122.5228015328815
 31
0.0
 11
144.4369613542326
 21
122.7080376998586
 31
0.0
 11
144.6740618388416
 21
122.8727348952106
 31
0.0
 11
144.9217954147371
 21
123.0133221544307
 31
0.0
 11
145.1813838392731
 21
123.1305701547158
 31
0.0
 11
145.4480266995476
 21
123.2222135347839
 31
0.0
 11
145.7220781039265
 21
123.2884731175078
 31
0.0
 11
145.9996359123052
 21
123.328293196667
 31
0.0
 11
146.2797159111748
 21
123.3416459819651
 31
0.0
  0
SPLINE
  5
D3
330
39
100
AcDbEntity
  8
1
  6
Continuous
 62
     7
100
AcDbSpline
210
0.0
220
0.0
230
1.0
 70
     8
 71
     3
 72
    29
 73
    25
 74
    23
 42
0.0000000001
 43
0.0000000001
 44
0.00000001
 40
0.0
 40
0.0
 40
0.0
 40
0.0
 40
0.6069077131759348
 40
1.212222625822735
 40
1.84266670782677
 40
2.474631900595431
 40
3.102420172365407
 40
3.7293338914564
 40
4.27104293983311
 40
4.812985328221161
 40
5.340107980728381
 40
5.866248927280093
 40
6.263874837343269
 40
6.661485236222413
 40
7.280966497569006
 40
7.902596738528163
 40
8.549168915178818
 40
9.195896772489316
 40
9.722415974179313
 40
10.24911841725706
 40
11.07897537274019
 40
11.90732207846643
 40
12.67331709995035
 40
13.44191271185825
 40
13.44191271185825
 40
13.44191271185825
 40
13.44191271185825
 10
135.021385661977
 20
123.3416459819651
 30
0.0
 10
134.8193258324195
 20
123.3317706085028
 30
0.0
 10
134.4157364697508
 20
123.3120457790277
 30
0.0
 10
133.8040309194122
 20
123.2482554249748
 30
0.0
 10
133.1946138575223
 20
123.1140721276574
 30
0.0
 10
132.5962076820169
 20
122.9136165069729
 30
0.0
 10
132.0216451501213
 20
122.6550553901549
 30
0.0
 10
131.5067473524497
 20
122.3461260003837
 30
0.0
 10
131.0577284784516
 20
121.9923090758088
 30
0.0
 10
130.6837868759605
 20
121.6042844076458
 30
0.0
 10
130.3768209745003
 20
121.1673540038831
 30
0.0
 10
130.1695123169664
 20
120.727140036783
 30
0.0
 10
130.0536097286957
 20
120.3004309160982
 30
0.0
 10
130.0029065238014
 20
119.8295154735961
 30
0.0
 10
130.0633628470791
 20
119.280540880552
 30
0.0
 10
130.2763100788258
 20
118.682794814332
 30
0.0
 10
130.6235470161721
 20
118.1411925683335
 30
0.0
 10
131.0449047420047
 20
117.7005846001958
 30
0.0
 10
131.4923182322617
 20
117.3507106765589
 30
0.0
 10
132.0281546181843
 20
117.0218002935698
 30
0.0
 10
132.6930456680977
 20
116.7180616719427
 30
0.0
 10
133.4727067295717
 20
116.4932918065999
 30
0.0
 10
134.2551123478812
 20
116.3889050011905
 30
0.0
 10
134.7656728172437
 20
116.3574825224416
 30
0.0
 10
135.021385661977
 20
116.3417446580521
 30
0.0
 11
135.021385661977
 21
123.3416459819651
 31
0.0
 11
134.4154996402188
 21
123.3064451162028
 31
0.0
 11
133.8140568207373
 21
123.2380881241186
 31
0.0
 11
133.1981656089962
 21
123.1034116382942
 31
0.0
 11
132.5987041474475
 21
122.9033467463491
 31
0.0
 11
132.0270053741274
 21
122.6439655080988
 31
0.0
 11
131.4904401571144
 21
122.3197455533208
 31
0.0
 11
131.0660076183353
 21
121.9831364133398
 31
0.0
 11
130.6912586430548
 21
121.5916459819651
 31
0.0
 11
130.3897027570947
 21
121.1593008207466
 31
0.0
 11
130.167682443261
 21
120.6822984351304
 31
0.0
 11
130.063921726118
 21
120.2984494050007
 31
0.0
 11
130.0221636282973
 21
119.9030378591864
 31
0.0
 11
130.0867572399186
 21
119.2869334049765
 31
0.0
 11
130.2943754100699
 21
118.7009992346997
 31
0.0
 11
130.6397480109249
 21
118.1543976007857
 31
0.0
 11
131.0840221375279
 21
117.6844216207053
 31
0.0
 11
131.4978925563026
 21
117.3589469731341
 31
0.0
 11
131.9459314035267
 21
117.0820414749545
 31
0.0
 11
132.7006921101643
 21
116.7370793867771
 31
0.0
 11
133.4968484205524
 21
116.5084018970308
 31
0.0
 11
134.254857551152
 21
116.3980817680162
 31
0.0
 11
135.021385661977
 21
116.3417446580521
 31
0.0
  0
SPLINE
  5
D4
330
39
100
AcDbEntity
  8
1
  6
Continuous
 62
     7
100
AcDbSpline
210
0.0
220
0.0
230
1.0
 70
    11
 71
     3
 72
    79
 73
    75
 74
    73
 42
0.0000000001
 43
0.0000000001
 44
0.00000001
 40
0.0
 40
0.0
 40
0.0
 40
0.0
 40
0.2803981145479015
 40
0.5607977859033159
 40
0.842745484146767
 40
1.124697473048475
 40
1.40953645163804
 40
1.694381500885835
 40
1.983071310125122
 40
2.271767843422822
 40
2.564776142200807
 40
2.857790854546412
 40
3.155055698552755
 40
3.452325978930838
 40
3.753284827389682
 40
4.054247742882732
 40
4.357919806975643
 40
4.661594368328869
 40
4.966700748943385
 40
5.271807969839333
 40
5.576915190735338
 40
5.882021571349896
 40
6.1856961327031
 40
6.48936819679603
 40
6.790331112289008
 40
7.091289960747833
 40
7.388560241125889
 40
7.685825085132254
 40
7.978839797477859
 40
8.271848096255843
 40
8.560544629553545
 40
8.849234438792829
 40
9.13407948804061
 40
9.418918466630187
 40
9.700870455531907
 40
9.982818153775344
 40
10.26321782513076
 40
10.54361593967866
 40
10.82401405422659
 40
11.10441372558197
 40
11.38636142382548
 40
11.66831341272724
 40
11.95315239131685
 40
12.2379974405646
 40
12.52668724980389
 40
12.8153837831015
 40
13.10839208187948
 40
13.4014067942251
 40
13.69867163823149
 40
13.99594191860951
 40
14.29690076706832
 40
14.59786368256132
 40
14.90153574665426
 40
15.20521030800746
 40
15.51031668862207
 40
15.81542390951802
 40
16.12053113041395
 40
16.42563751102848
 40
16.7293120723817
 40
17.03298413647461
 40
17.33394705196765
 40
17.63490590042651
 40
17.93217618080458
 40
18.22944102481093
 40
18.52245573715655
 40
18.81546403593452
 40
19.10416056923218
 40
19.39285037847143
 40
19.67769542771919
 40
19.96253440630879
 40
20.24448639521055
 40
20.52643409345406
 40
20.80683376480945
 40
21.08723187935738
 40
21.08723187935738
 40
21.08723187935738
 40
21.08723187935738
 10
123.7630554127793
 20
123.3416459819651
 30
0.0
 10
123.6695548697258
 20
123.3390645960759
 30
0.0
 10
123.4825532644914
 20
123.3339018099653
 30
0.0
 10
123.2040688512513
 20
123.2924294599163
 30
0.0
 10
122.930126654849
 20
123.2265292995236
 30
0.0
 10
122.6621984895136
 20
123.1342971902897
 30
0.0
 10
122.4031527019533
 20
123.0172150009306
 30
0.0
 10
122.1539934078005
 20
122.8757387193514
 30
0.0
 10
121.9176833876227
 20
122.7114563733583
 30
0.0
 10
121.6949083937046
 20
122.5249962251419
 30
0.0
 10
121.4884523614066
 20
122.3185717502048
 30
0.0
 10
121.2988396177661
 20
122.0928540557682
 30
0.0
 10
121.1284404418403
 20
121.8505632574195
 30
0.0
 10
120.9777276342325
 20
121.5925057645794
 30
0.0
 10
120.8485044977071
 20
121.3216785610975
 30
0.0
 10
120.7412248245226
 20
121.0391617076008
 30
0.0
 10
120.6570703209674
 20
120.7479737370077
 30
0.0
 10
120.5964270471363
 20
120.4495949640929
 30
0.0
 10
120.559893284865
 20
120.1468339922127
 30
0.0
 10
120.5476742541284
 20
119.8416459819648
 30
0.0
 10
120.559893284865
 20
119.5364579717184
 30
0.0
 10
120.5964270471363
 20
119.2336969998337
 30
0.0
 10
120.6570703209675
 20
118.9353182269357
 30
0.0
 10
120.7412248245226
 20
118.6441302562799
 30
0.0
 10
120.8485044977071
 20
118.361613403015
 30
0.0
 10
120.9777276342325
 20
118.0907861986734
 30
0.0
 10
121.1284404418405
 20
117.8327287090043
 30
0.0
 10
121.298839617766
 20
117.5904378989086
 30
0.0
 10
121.4884523614066
 20
117.3647202477108
 30
0.0
 10
121.6949083937047
 20
117.1582956126843
 30
0.0
 10
121.9176833876227
 20
116.9718360535072
 30
0.0
 10
122.1539934078005
 20
116.8075515257961
 30
0.0
 10
122.4031527019533
 20
116.6660832827262
 30
0.0
 10
122.6621984895136
 20
116.5489712791245
 30
0.0
 10
122.930126654849
 20
116.4568493606517
 30
0.0
 10
123.2040688512513
 20
116.390539595084
 30
0.0
 10
123.4825532644913
 20
116.3505879299882
 30
0.0
 10
123.7630554127793
 20
116.3371750203652
 30
0.0
 10
124.0435575610673
 20
116.3505879299882
 30
0.0
 10
124.3220419743073
 20
116.390539595084
 30
0.0
 10
124.5959841707096
 20
116.4568493606517
 30
0.0
 10
124.8639123360451
 20
116.5489712791245
 30
0.0
 10
125.1229581236055
 20
116.6660832827262
 30
0.0
 10
125.3721174177583
 20
116.8075515257961
 30
0.0
 10
125.608427437936
 20
116.9718360535072
 30
0.0
 10
125.831202431854
 20
117.1582956126843
 30
0.0
 10
126.0376584641521
 20
117.3647202477108
 30
0.0
 10
126.2272712077926
 20
117.5904378989087
 30
0.0
 10
126.3976703837182
 20
117.8327287090043
 30
0.0
 10
126.5483831913261
 20
118.0907861986734
 30
0.0
 10
126.6776063278515
 20
118.3616134030151
 30
0.0
 10
126.784886001036
 20
118.6441302562799
 30
0.0
 10
126.8690405045912
 20
118.9353182269358
 30
0.0
 10
126.9296837784223
 20
119.2336969998336
 30
0.0
 10
126.9662175406936
 20
119.5364579717185
 30
0.0
 10
126.9784365714303
 20
119.8416459819648
 30
0.0
 10
126.9662175406936
 20
120.1468339922127
 30
0.0
 10
126.9296837784224
 20
120.4495949640929
 30
0.0
 10
126.8690405045911
 20
120.7479737370077
 30
0.0
 10
126.784886001036
 20
121.0391617076008
 30
0.0
 10
126.6776063278515
 20
121.3216785610975
 30
0.0
 10
126.548383191326
 20
121.5925057645794
 30
0.0
 10
126.3976703837182
 20
121.8505632574195
 30
0.0
 10
126.2272712077926
 20
122.0928540557682
 30
0.0
 10
126.037658464152
 20
122.3185717502047
 30
0.0
 10
125.831202431854
 20
122.5249962251419
 30
0.0
 10
125.608427437936
 20
122.7114563733583
 30
0.0
 10
125.3721174177582
 20
122.8757387193513
 30
0.0
 10
125.1229581236055
 20
123.0172150009308
 30
0.0
 10
124.8639123360451
 20
123.1342971902896
 30
0.0
 10
124.5959841707097
 20
123.2265292995236
 30
0.0
 10
124.3220419743073
 20
123.2924294599163
 30
0.0
 10
124.0435575610673
 20
123.3339018099653
 30
0.0
 10
123.8565559558328
 20
123.3390645960759
 30
0.0
 10
123.7630554127793
 20
123.3416459819651
 30
0.0
 11
123.7630554127793
 21
123.3416459819651
 31
0.0
 11
123.4829754139097
 21
123.328293196667
 31
0.0
 11
123.205417605531
 21
123.2884731175078
 31
0.0
 11
122.9313662011521
 21
123.2222135347839
 31
0.0
 11
122.6647233408777
 21
123.1305701547158
 31
0.0
 11
122.4051349163417
 21
123.0133221544306
 31
0.0
 11
122.1574013404462
 21
122.8727348952106
 31
0.0
 11
121.9203008558373
 21
122.7080376998586
 31
0.0
 11
121.6988663265024
 21
122.5228015328815
 31
0.0
 11
121.4915829371926
 21
122.3157086559663
 31
0.0
 11
121.303050653415
 21
122.091402615868
 31
0.0
 11
121.1319621068413
 21
121.8483077851673
 31
0.0
 11
120.9819809801184
 21
121.5916459819651
 31
0.0
 11
120.8523042002441
 21
121.320057761994
 31
0.0
 11
120.7454128461667
 21
121.0387164836049
 31
0.0
 11
120.6610467848364
 21
120.7469990000595
 31
0.0
 11
120.6005342546007
 21
120.4494146037993
 31
0.0
 11
120.5639553060377
 21
120.1465088692651
 31
0.0
 11
120.551747268113
 21
119.8416459819651
 31
0.0
 11
120.5639553060377
 21
119.5367830946651
 31
0.0
 11
120.6005342546007
 21
119.2338773601308
 31
0.0
 11
120.6610467848365
 21
118.9362929638706
 31
0.0
 11
120.7454128461667
 21
118.6445754803252
 31
0.0
 11
120.8523042002441
 21
118.3632342019362
 31
0.0
 11
120.9819809801184
 21
118.0916459819651
 31
0.0
 11
121.1319621068414
 21
117.834984178763
 31
0.0
 11
121.303050653415
 21
117.5918893480622
 31
0.0
 11
121.4915829371926
 21
117.3675833079639
 31
0.0
 11
121.6988663265024
 21
117.1604904310487
 31
0.0
 11
121.9203008558373
 21
116.9752542640717
 31
0.0
 11
122.1574013404462
 21
116.8105570687196
 31
0.0
 11
122.4051349163417
 21
116.6699698094996
 31
0.0
 11
122.6647233408777
 21
116.5527218092144
 31
0.0
 11
122.9313662011521
 21
116.4610784291463
 31
0.0
 11
123.205417605531
 21
116.3948188464224
 31
0.0
 11
123.4829754139097
 21
116.3549987672632
 31
0.0
 11
123.7630554127793
 21
116.3416459819651
 31
0.0
 11
124.0431354116489
 21
116.3549987672633
 31
0.0
 11
124.3206932200276
 21
116.3948188464224
 31
0.0
 11
124.5947446244065
 21
116.4610784291463
 31
0.0
 11
124.861387484681
 21
116.5527218092144
 31
0.0
 11
125.120975909217
 21
116.6699698094996
 31
0.0
 11
125.3687094851125
 21
116.8105570687196
 31
0.0
 11
125.6058099697214
 21
116.9752542640717
 31
0.0
 11
125.8272444990562
 21
117.1604904310487
 31
0.0
 11
126.034527888366
 21
117.3675833079639
 31
0.0
 11
126.2230601721436
 21
117.5918893480622
 31
0.0
 11
126.3941487187173
 21
117.834984178763
 31
0.0
 11
126.5441298454402
 21
118.0916459819651
 31
0.0
 11
126.6738066253145
 21
118.3632342019362
 31
0.0
 11
126.7806979793919
 21
118.6445754803252
 31
0.0
 11
126.8650640407222
 21
118.9362929638706
 31
0.0
 11
126.9255765709579
 21
119.2338773601308
 31
0.0
 11
126.9621555195209
 21
119.5367830946651
 31
0.0
 11
126.9743635574456
 21
119.8416459819651
 31
0.0
 11
126.9621555195209
 21
120.1465088692651
 31
0.0
 11
126.9255765709579
 21
120.4494146037993
 31
0.0
 11
126.8650640407222
 21
120.7469990000595
 31
0.0
 11
126.7806979793919
 21
121.0387164836049
 31
0.0
 11
126.6738066253145
 21
121.3200577619939
 31
0.0
 11
126.5441298454402
 21
121.5916459819651
 31
0.0
 11
126.3941487187173
 21
121.8483077851672
 31
0.0
 11
126.2230601721436
 21
122.091402615868
 31
0.0
 11
126.034527888366
 21
122.3157086559663
 31
0.0
 11
125.8272444990562
 21
122.5228015328815
 31
0.0
 11
125.6058099697214
 21
122.7080376998586
 31
0.0
 11
125.3687094851125
 21
122.8727348952106
 31
0.0
 11
125.120975909217
 21
123.0133221544307
 31
0.0
 11
124.861387484681
 21
123.1305701547158
 31
0.0
 11
124.5947446244065
 21
123.2222135347839
 31
0.0
 11
124.3206932200276
 21
123.2884731175078
 31
0.0
 11
124.0431354116489
 21
123.328293196667
 31
0.0
 11
123.7630554127793
 21
123.3416459819651
 31
0.0
  0
SPLINE
  5
D5
330
39
100
AcDbEntity
  8
1
  6
Continuous
 62
     7
100
AcDbSpline
210
0.0
220
0.0
230
1.0
 70
    11
 71
     3
 72
    79
 73
    75
 74
    73
 42
0.0000000001
 43
0.0000000001
 44
0.00000001
 40
0.0
 40
0.0
 40
0.0
 40
0.0
 40
0.3105305927636595
 40
0.6211097050894132
 40
0.9446853874346629
 40
1.268350833884979
 40
1.615177941517096
 40
1.962073591621567
 40
2.337982254486237
 40
2.71393441418307
 40
3.120408259025888
 40
3.526909442882805
 40
3.961816267817423
 40
4.396740384516166
 40
4.855202007200668
 40
5.31367429855973
 40
5.788867666243252
 40
6.264066854325089
 40
6.747928781316572
 40
7.231792560540624
 40
7.715656339764662
 40
8.199518266756146
 40
8.674717454837984
 40
9.149910822521495
 40
9.608383113880564
 40
10.06684473656507
 40
10.50176885326381
 40
10.93667567819843
 40
11.34317686205536
 40
11.74965070689815
 40
12.125602866595
 40
12.50151152945967
 40
12.84840717956417
 40
13.19523428719627
 40
13.51889973364658
 40
13.84247541599182
 40
14.15305452831758
 40
14.46358512108124
 40
14.7741157138448
 40
15.08469482617054
 40
15.40827050851581
 40
15.73193595496609
 40
16.0787630625982
 40
16.4256587127027
 40
16.80156737556739
 40
17.17751953526429
 40
17.58399338010707
 40
17.99049456396401
 40
18.42540138889859
 40
18.86032550559733
 40
19.31878712828182
 40
19.7772594196409
 40
20.25245278732443
 40
20.72765197540627
 40
21.21151390239773
 40
21.69537768162179
 40
22.17924146084583
 40
22.66310338783731
 40
23.13830257591915
 40
23.61349594360267
 40
24.07196823496174
 40
24.53042985764625
 40
24.96535397434498
 40
25.40026079927957
 40
25.8067619831365
 40
26.2132358279793
 40
26.58918798767618
 40
26.96509665054086
 40
27.31199230064534
 40
27.65881940827747
 40
27.98248485472777
 40
28.30606053707303
 40
28.61663964939877
 40
28.92717024216233
 40
28.92717024216233
 40
28.92717024216233
 40
28.92717024216233
 10
56.95923679665519
 20
119.9473118009159
 30
0.0
 10
56.96345284737421
 20
120.050896835247
 30
0.0
 10
56.97188560755874
 20
120.2580830887897
 30
0.0
 10
57.03861354058437
 20
120.5673026853998
 30
0.0
 10
57.14432092212167
 20
120.869307831621
 30
0.0
 10
57.2928437902512
 20
121.1664680203682
 30
0.0
 10
57.47931152564524
 20
121.4506146857324
 30
0.0
 10
57.70648258113485
 20
121.7262142708667
 30
0.0
 10
57.9669160391943
 20
121.9845793907171
 30
0.0
 10
58.26532215019175
 20
122.2303473681742
 30
0.0
 10
58.59183586960364
 20
122.4557800207031
 30
0.0
 10
58.95206272785934
 20
122.6645257500026
 30
0.0
 10
59.3350759351008
 20
122.850594544236
 30
0.0
 10
59.74602569285647
 20
123.016243493852
 30
0.0
 10
60.17427500052058
 20
123.1574579145117
 30
0.0
 10
60.62341526251831
 20
123.2752040365849
 30
0.0
 10
61.08420193333946
 20
123.3672751187634
 30
0.0
 10
61.55790080214472
 20
123.4337366922837
 30
0.0
 10
62.03745962098222
 20
123.4737803457061
 30
0.0
 10
62.52138566197765
 20
123.4871131977309
 30
0.0
 10
63.0053117029688
 20
123.4737803457062
 30
0.0
 10
63.48487052181913
 20
123.4337366922836
 30
0.0
 10
63.95856939057816
 20
123.3672751187635
 30
0.0
 10
64.41935606156899
 20
123.275204036585
 30
0.0
 10
64.86849632295477
 20
123.1574579145117
 30
0.0
 10
65.29674563284661
 20
123.016243493852
 30
0.0
 10
65.70769538269661
 20
122.850594544236
 30
0.0
 10
66.0907086184753
 20
122.6645257500026
 30
0.0
 10
66.4509353768662
 20
122.455780020703
 30
0.0
 10
66.77744945437655
 20
122.2303473681742
 30
0.0
 10
67.0758543245347
 20
121.9845793907171
 30
0.0
 10
67.33629221822413
 20
121.7262142708668
 30
0.0
 10
67.56344793597557
 20
121.4506146857324
 30
0.0
 10
67.74997066221718
 20
121.1664680203682
 30
0.0
 10
67.89830135108998
 20
120.8693078316211
 30
0.0
 10
68.00470571045651
 20
120.5673026853998
 30
0.0
 10
68.06893183620309
 20
120.2580830887897
 30
0.0
 10
68.09083530248337
 20
119.9473118009159
 30
0.0
 10
68.06893183620305
 20
119.6365405130422
 30
0.0
 10
68.00470571045648
 20
119.3273209164321
 30
0.0
 10
67.89830135109
 20
119.0253157702108
 30
0.0
 10
67.74997066221717
 20
118.7281555814637
 30
0.0
 10
67.56344793597556
 20
118.4440089160995
 30
0.0
 10
67.33629221822413
 20
118.1684093309651
 30
0.0
 10
67.0758543245347
 20
117.9100442111148
 30
0.0
 10
66.77744945437659
 20
117.6642762336576
 30
0.0
 10
66.4509353768662
 20
117.4388435811287
 30
0.0
 10
66.0907086184753
 20
117.2300978518291
 30
0.0
 10
65.70769538269659
 20
117.0440290575959
 30
0.0
 10
65.29674563284662
 20
116.8783801079799
 30
0.0
 10
64.86849632295476
 20
116.7371656873203
 30
0.0
 10
64.41935606156901
 20
116.619419565247
 30
0.0
 10
63.95856939057816
 20
116.5273484830683
 30
0.0
 10
63.48487052181912
 20
116.4608869095481
 30
0.0
 10
63.0053117029688
 20
116.4208432561257
 30
0.0
 10
62.52138566197765
 20
116.4075104041011
 30
0.0
 10
62.03745962098225
 20
116.4208432561257
 30
0.0
 10
61.55790080214472
 20
116.4608869095481
 30
0.0
 10
61.08420193333947
 20
116.5273484830684
 30
0.0
 10
60.62341526251834
 20
116.6194195652469
 30
0.0
 10
60.17427500052062
 20
116.7371656873203
 30
0.0
 10
59.74602569285646
 20
116.8783801079799
 30
0.0
 10
59.3350759351008
 20
117.0440290575959
 30
0.0
 10
58.95206272785933
 20
117.2300978518292
 30
0.0
 10
58.59183586960364
 20
117.4388435811288
 30
0.0
 10
58.26532215019174
 20
117.6642762336576
 30
0.0
 10
57.9669160391943
 20
117.9100442111148
 30
0.0
 10
57.70648258113488
 20
118.1684093309651
 30
0.0
 10
57.47931152564526
 20
118.4440089160995
 30
0.0
 10
57.29284379025118
 20
118.7281555814637
 30
0.0
 10
57.14432092212167
 20
119.0253157702108
 30
0.0
 10
57.03861354058435
 20
119.3273209164321
 30
0.0
 10
56.97188560755878
 20
119.6365405130422
 30
0.0
 10
56.96345284737421
 20
119.8437267665848
 30
0.0
 10
56.95923679665519
 20
119.9473118009159
 30
0.0
 11
56.95923679665519
 21
119.9473118009159
 31
0.0
 11
56.98074340886849
 21
120.2570967499907
 31
0.0
 11
57.04373833600002
 21
120.5612201199719
 31
0.0
 11
57.15062741827885
 21
120.8666312302721
 31
0.0
 11
57.29467541752138
 21
121.1564751454059
 31
0.0
 11
57.48434510154745
 21
121.4468446574934
 31
0.0
 11
57.70442344497751
 21
121.7149903544838
 31
0.0
 11
57.97077564450724
 21
121.9802521659501
 31
0.0
 11
58.26053243189668
 21
122.2197955452
 31
0.0
 11
58.594682074329
 21
122.451236688914
 31
0.0
 11
58.94610528811607
 21
122.6555524672784
 31
0.0
 11
59.33709149593098
 21
122.8460091071554
 31
0.0
 11
59.74031122931606
 21
123.0090208671454
 31
0.0
 11
60.17561100603988
 21
123.1528998574765
 31
0.0
 11
60.61901870986088
 21
123.2694607863344
 31
0.0
 11
61.08496341390256
 21
123.3627574607977
 31
0.0
 11
61.55552864760163
 21
123.42895888969
 31
0.0
 11
62.03770692576488
 21
123.4692884379076
 31
0.0
 11
62.52138566197695
 21
123.4826689080517
 31
0.0
 11
63.00506439818901
 21
123.4692884379076
 31
0.0
 11
63.48724267635225
 21
123.42895888969
 31
0.0
 11
63.95780791005133
 21
123.3627574607978
 31
0.0
 11
64.42375261409299
 21
123.2694607863344
 31
0.0
 11
64.867160317914
 21
123.1528998574765
 31
0.0
 11
65.30246009463782
 21
123.0090208671454
 31
0.0
 11
65.70567982802291
 21
122.8460091071554
 31
0.0
 11
66.09666603583781
 21
122.6555524672784
 31
0.0
 11
66.44808924962489
 21
122.451236688914
 31
0.0
 11
66.78223889205719
 21
122.2197955452
 31
0.0
 11
67.07199567944664
 21
121.9802521659501
 31
0.0
 11
67.33834787897638
 21
121.7149903544838
 31
0.0
 11
67.55842622240647
 21
121.4468446574934
 31
0.0
 11
67.74809590643253
 21
121.1564751454059
 31
0.0
 11
67.89214390567504
 21
120.8666312302721
 31
0.0
 11
67.99903298795385
 21
120.5612201199719
 31
0.0
 11
68.0620279150854
 21
120.2570967499907
 31
0.0
 11
68.0835345272987
 21
119.9473118009159
 31
0.0
 11
68.06202791508537
 21
119.6375268518412
 31
0.0
 11
67.99903298795385
 21
119.33340348186
 31
0.0
 11
67.89214390567503
 21
119.0279923715598
 31
0.0
 11
67.74809590643253
 21
118.738148456426
 31
0.0
 11
67.55842622240647
 21
118.4477789443385
 31
0.0
 11
67.33834787897638
 21
118.1796332473481
 31
0.0
 11
67.07199567944664
 21
117.9143714358818
 31
0.0
 11
66.78223889205719
 21
117.6748280566318
 31
0.0
 11
66.4480892496249
 21
117.4433869129178
 31
0.0
 11
66.09666603583781
 21
117.2390711345534
 31
0.0
 11
65.70567982802292
 21
117.0486144946765
 31
0.0
 11
65.30246009463782
 21
116.8856027346865
 31
0.0
 11
64.867160317914
 21
116.7417237443554
 31
0.0
 11
64.42375261409299
 21
116.6251628154975
 31
0.0
 11
63.95780791005132
 21
116.5318661410341
 31
0.0
 11
63.48724267635225
 21
116.4656647121418
 31
0.0
 11
63.00506439818902
 21
116.4253351639242
 31
0.0
 11
62.52138566197695
 21
116.4119546937802
 31
0.0
 11
62.03770692576489
 21
116.4253351639242
 31
0.0
 11
61.55552864760163
 21
116.4656647121418
 31
0.0
 11
61.08496341390257
 21
116.5318661410341
 31
0.0
 11
60.61901870986091
 21
116.6251628154975
 31
0.0
 11
60.1756110060399
 21
116.7417237443554
 31
0.0
 11
59.74031122931606
 21
116.8856027346865
 31
0.0
 11
59.33709149593098
 21
117.0486144946765
 31
0.0
 11
58.94610528811607
 21
117.2390711345534
 31
0.0
 11
58.59468207432899
 21
117.4433869129178
 31
0.0
 11
58.26053243189668
 21
117.6748280566318
 31
0.0
 11
57.97077564450725
 21
117.9143714358818
 31
0.0
 11
57.70442344497752
 21
118.1796332473481
 31
0.0
 11
57.48434510154745
 21
118.4477789443385
 31
0.0
 11
57.29467541752138
 21
118.738148456426
 31
0.0
 11
57.15062741827886
 21
119.0279923715598
 31
0.0
 11
57.04373833600002
 21
119.33340348186
 31
0.0
 11
56.98074340886851
 21
119.6375268518412
 31
0.0
 11
56.95923679665519
 21
119.9473118009159
 31
0.0
  0
SPLINE
  5
D6
330
39
100
AcDbEntity
  8
1
  6
Continuous
 62
     7
100
AcDbSpline
210
0.0
220
0.0
230
1.0
 70
    11
 71
     3
 72
    79
 73
    75
 74
    73
 42
0.0000000001
 43
0.0000000001
 44
0.00000001
 40
0.0
 40
0.0
 40
0.0
 40
0.0
 40
0.3105305927636615
 40
0.6211097050894239
 40
0.9446853874346666
 40
1.268350833884964
 40
1.615177941517062
 40
1.962073591621541
 40
2.337982254486192
 40
2.713934414183062
 40
3.120408259025869
 40
3.526909442882785
 40
3.961816267817417
 40
4.396740384516173
 40
4.855202007200668
 40
5.313674298559715
 40
5.788867666243283
 40
6.264066854325128
 40
6.747928781316611
 40
7.231792560540649
 40
7.715656339764673
 40
8.199518266756163
 40
8.674717454837987
 40
9.149910822521477
 40
9.608383113880532
 40
10.06684473656503
 40
10.50176885326378
 40
10.9366756781984
 40
11.34317686205533
 40
11.74965070689813
 40
12.12560286659498
 40
12.50151152945966
 40
12.84840717956413
 40
13.19523428719623
 40
13.51889973364655
 40
13.84247541599181
 40
14.15305452831756
 40
14.46358512108122
 40
14.77411571384478
 40
15.08469482617051
 40
15.4082705085158
 40
15.7319359549661
 40
16.07876306259818
 40
16.42565871270267
 40
16.80156737556737
 40
17.17751953526426
 40
17.58399338010707
 40
17.990494563964
 40
18.42540138889859
 40
18.86032550559733
 40
19.31878712828182
 40
19.77725941964087
 40
20.25245278732438
 40
20.72765197540621
 40
21.21151390239768
 40
21.69537768162171
 40
22.17924146084575
 40
22.66310338783723
 40
23.1383025759191
 40
23.61349594360266
 40
24.07196823496171
 40
24.53042985764619
 40
24.96535397434494
 40
25.40026079927954
 40
25.80676198313648
 40
26.21323582797926
 40
26.58918798767611
 40
26.96509665054078
 40
27.31199230064528
 40
27.65881940827742
 40
27.98248485472771
 40
28.30606053707297
 40
28.61663964939871
 40
28.92717024216227
 40
28.92717024216227
 40
28.92717024216227
 40
28.92717024216227
 10
55.08353452729878
 20
119.9473118009159
 30
0.0
 10
55.07931847657974
 20
120.050896835247
 30
0.0
 10
55.0708857163952
 20
120.2580830887897
 30
0.0
 10
55.00415778336952
 20
120.5673026853998
 30
0.0
 10
54.89845040183226
 20
120.8693078316211
 30
0.0
 10
54.74992753370277
 20
121.1664680203682
 30
0.0
 10
54.56345979830876
 20
121.4506146857324
 30
0.0
 10
54.33628874281914
 20
121.7262142708668
 30
0.0
 10
54.07585528475966
 20
121.984579390717
 30
0.0
 10
53.77744917376222
 20
122.2303473681742
 30
0.0
 10
53.45093545435032
 20
122.4557800207031
 30
0.0
 10
53.09070859609463
 20
122.6645257500027
 30
0.0
 10
52.70769538885316
 20
122.850594544236
 30
0.0
 10
52.29674563109749
 20
123.016243493852
 30
0.0
 10
51.86849632343336
 20
123.1574579145117
 30
0.0
 10
51.41935606143563
 20
123.2752040365849
 30
0.0
 10
50.9585693906145
 20
123.3672751187636
 30
0.0
 10
50.48487052180919
 20
123.4337366922836
 30
0.0
 10
50.00531170297169
 20
123.4737803457062
 30
0.0
 10
49.52138566197627
 20
123.4871131977309
 30
0.0
 10
49.03745962098514
 20
123.4737803457062
 30
0.0
 10
48.55790080213482
 20
123.4337366922837
 30
0.0
 10
48.08420193337579
 20
123.3672751187635
 30
0.0
 10
47.62341526238497
 20
123.2752040365849
 30
0.0
 10
47.17427500099922
 20
123.1574579145117
 30
0.0
 10
46.7460256911074
 20
123.016243493852
 30
0.0
 10
46.33507594125737
 20
122.8505945442359
 30
0.0
 10
45.9520627054787
 20
122.6645257500027
 30
0.0
 10
45.59183594708777
 20
122.455780020703
 30
0.0
 10
45.26532186957743
 20
122.2303473681742
 30
0.0
 10
44.96691699941926
 20
121.984579390717
 30
0.0
 10
44.70647910572981
 20
121.7262142708668
 30
0.0
 10
44.47932338797844
 20
121.4506146857324
 30
0.0
 10
44.29280066173683
 20
121.1664680203681
 30
0.0
 10
44.14446997286398
 20
120.8693078316211
 30
0.0
 10
44.03806561349742
 20
120.5673026853998
 30
0.0
 10
43.97383948775087
 20
120.2580830887897
 30
0.0
 10
43.95193602147064
 20
119.947311800916
 30
0.0
 10
43.97383948775089
 20
119.6365405130422
 30
0.0
 10
44.03806561349744
 20
119.3273209164321
 30
0.0
 10
44.14446997286396
 20
119.0253157702108
 30
0.0
 10
44.29280066173686
 20
118.7281555814638
 30
0.0
 10
44.47932338797845
 20
118.4440089160995
 30
0.0
 10
44.70647910572981
 20
118.1684093309651
 30
0.0
 10
44.96691699941928
 20
117.9100442111148
 30
0.0
 10
45.2653218695774
 20
117.6642762336576
 30
0.0
 10
45.59183594708777
 20
117.4388435811287
 30
0.0
 10
45.95206270547867
 20
117.2300978518292
 30
0.0
 10
46.3350759412574
 20
117.0440290575959
 30
0.0
 10
46.74602569110738
 20
116.8783801079799
 30
0.0
 10
47.17427500099923
 20
116.7371656873203
 30
0.0
 10
47.62341526238499
 20
116.619419565247
 30
0.0
 10
48.0842019333758
 20
116.5273484830683
 30
0.0
 10
48.55790080213481
 20
116.4608869095482
 30
0.0
 10
49.03745962098515
 20
116.4208432561257
 30
0.0
 10
49.52138566197627
 20
116.4075104041011
 30
0.0
 10
50.00531170297167
 20
116.4208432561256
 30
0.0
 10
50.48487052180923
 20
116.4608869095482
 30
0.0
 10
50.95856939061449
 20
116.5273484830684
 30
0.0
 10
51.41935606143563
 20
116.619419565247
 30
0.0
 10
51.86849632343335
 20
116.7371656873203
 30
0.0
 10
52.29674563109749
 20
116.8783801079799
 30
0.0
 10
52.70769538885314
 20
117.0440290575959
 30
0.0
 10
53.09070859609465
 20
117.2300978518291
 30
0.0
 10
53.45093545435032
 20
117.4388435811288
 30
0.0
 10
53.77744917376223
 20
117.6642762336576
 30
0.0
 10
54.07585528475963
 20
117.9100442111148
 30
0.0
 10
54.33628874281902
 20
118.1684093309652
 30
0.0
 10
54.5634597983087
 20
118.4440089160995
 30
0.0
 10
54.74992753370278
 20
118.7281555814637
 30
0.0
 10
54.89845040183225
 20
119.0253157702108
 30
0.0
 10
55.00415778336952
 20
119.3273209164321
 30
0.0
 10
55.07088571639518
 20
119.6365405130422
 30
0.0
 10
55.07931847657973
 20
119.8437267665848
 30
0.0
 10
55.08353452729878
 20
119.9473118009159
 30
0.0
 11
55.08353452729878
 21
119.9473118009159
 31
0.0
 11
55.06202791508545
 21
120.2570967499907
 31
0.0
 11
54.99903298795388
 21
120.5612201199719
 31
0.0
 11
54.89214390567507
 21
120.8666312302721
 31
0.0
 11
54.74809590643258
 21
121.1564751454059
 31
0.0
 11
54.55842622240655
 21
121.4468446574934
 31
0.0
 11
54.33834787897648
 21
121.7149903544838
 31
0.0
 11
54.07199567944673
 21
121.9802521659501
 31
0.0
 11
53.78223889205728
 21
122.2197955452
 31
0.0
 11
53.44808924962497
 21
122.451236688914
 31
0.0
 11
53.0966660358379
 21
122.6555524672784
 31
0.0
 11
52.70567982802298
 21
122.8460091071554
 31
0.0
 11
52.30246009463788
 21
123.0090208671454
 31
0.0
 11
51.86716031791407
 21
123.1528998574765
 31
0.0
 11
51.42375261409308
 21
123.2694607863344
 31
0.0
 11
50.95780791005137
 21
123.3627574607978
 31
0.0
 11
50.48724267635228
 21
123.42895888969
 31
0.0
 11
50.00506439818904
 21
123.4692884379076
 31
0.0
 11
49.52138566197698
 21
123.4826689080517
 31
0.0
 11
49.03770692576494
 21
123.4692884379076
 31
0.0
 11
48.55552864760168
 21
123.42895888969
 31
0.0
 11
48.08496341390262
 21
123.3627574607978
 31
0.0
 11
47.61901870986098
 21
123.2694607863344
 31
0.0
 11
47.17561100603999
 21
123.1528998574765
 31
0.0
 11
46.74031122931618
 21
123.0090208671454
 31
0.0
 11
46.33709149593108
 21
122.8460091071554
 31
0.0
 11
45.94610528811617
 21
122.6555524672784
 31
0.0
 11
45.59468207432909
 21
122.451236688914
 31
0.0
 11
45.26053243189678
 21
122.2197955452
 31
0.0
 11
44.97077564450732
 21
121.9802521659501
 31
0.0
 11
44.70442344497758
 21
121.7149903544838
 31
0.0
 11
44.48434510154753
 21
121.4468446574934
 31
0.0
 11
44.29467541752148
 21
121.1564751454059
 31
0.0
 11
44.15062741827894
 21
120.8666312302721
 31
0.0
 11
44.04373833600008
 21
120.5612201199719
 31
0.0
 11
43.98074340886857
 21
120.2570967499907
 31
0.0
 11
43.95923679665528
 21
119.9473118009159
 31
0.0
 11
43.98074340886858
 21
119.6375268518412
 31
0.0
 11
44.04373833600008
 21
119.33340348186
 31
0.0
 11
44.15062741827893
 21
119.0279923715598
 31
0.0
 11
44.29467541752148
 21
118.738148456426
 31
0.0
 11
44.48434510154753
 21
118.4477789443386
 31
0.0
 11
44.70442344497758
 21
118.1796332473481
 31
0.0
 11
44.97077564450732
 21
117.9143714358818
 31
0.0
 11
45.26053243189678
 21
117.6748280566318
 31
0.0
 11
45.5946820743291
 21
117.4433869129178
 31
0.0
 11
45.94610528811617
 21
117.2390711345534
 31
0.0
 11
46.33709149593108
 21
117.0486144946765
 31
0.0
 11
46.74031122931618
 21
116.8856027346865
 31
0.0
 11
47.17561100603999
 21
116.7417237443554
 31
0.0
 11
47.61901870986098
 21
116.6251628154975
 31
0.0
 11
48.08496341390263
 21
116.5318661410341
 31
0.0
 11
48.55552864760168
 21
116.4656647121418
 31
0.0
 11
49.03770692576492
 21
116.4253351639242
 31
0.0
 11
49.52138566197698
 21
116.4119546937802
 31
0.0
 11
50.00506439818904
 21
116.4253351639242
 31
0.0
 11
50.48724267635228
 21
116.4656647121418
 31
0.0
 11
50.95780791005138
 21
116.5318661410341
 31
0.0
 11
51.42375261409308
 21
116.6251628154975
 31
0.0
 11
51.86716031791406
 21
116.7417237443554
 31
0.0
 11
52.30246009463788
 21
116.8856027346865
 31
0.0
 11
52.70567982802298
 21
117.0486144946765
 31
0.0
 11
53.0966660358379
 21
117.2390711345534
 31
0.0
 11
53.44808924962499
 21
117.4433869129178
 31
0.0
 11
53.78223889205728
 21
117.6748280566318
 31
0.0
 11
54.07199567944667
 21
117.9143714358818
 31
0.0
 11
54.33834787897638
 21
118.1796332473481
 31
0.0
 11
54.5584262224065
 21
118.4477789443385
 31
0.0
 11
54.74809590643258
 21
118.738148456426
 31
0.0
 11
54.89214390567507
 21
119.0279923715598
 31
0.0
 11
54.99903298795388
 21
119.33340348186
 31
0.0
 11
55.06202791508544
 21
119.6375268518412
 31
0.0
 11
55.08353452729878
 21
119.9473118009159
 31
0.0
  0
ENDBLK
  5
3B
330
39
100
AcDbEntity
  8
0
100
AcDbBlockEnd
  0
BLOCK
  5
3D
330
3C
100
AcDbEntity
  8
0
100
AcDbBlockBegin
  2
36-45
 70
     0
 71
     0
 10
691.194248234107
 20
133.514127144298
 30
0.0
  3
36-45
  1

  0
LINE
  5
D7
330
3C
100
AcDbEntity
  8
1
  6
Continuous
 62
     7
100
AcDbLine
 10
51.35742811500035
 20
198.987373625955
 30
0.0
 11
60.68534320895355
 21
198.987373625955
 31
0.0
  0
LINE
  5
D8
330
3C
100
AcDbEntity
  8
1
  6
Continuous
 62
     7
100
AcDbLine
 10
51.35742811500035
 20
200.787373625955
 30
0.0
 11
60.68534320895355
 21
200.787373625955
 31
0.0
  0
LINE
  5
D9
330
3C
100
AcDbEntity
  8
1
  6
Continuous
 62
     7
100
AcDbLine
 10
56.92138566197696
 20
132.9119546937802
 30
0.0
 11
59.77138566197698
 21
132.9119546937802
 31
0.0
  0
LINE
  5
DA
330
3C
100
AcDbEntity
  8
1
  6
Continuous
 62
     7
100
AcDbLine
 10
51.27138566197698
 20
131.9119546937802
 30
0.0
 11
56.92138566197694
 21
131.9119546937802
 31
0.0
  0
LINE
  5
DB
330
3C
100
AcDbEntity
  8
1
  6
Continuous
 62
     7
100
AcDbLine
 10
60.77138566197698
 20
131.9119546937802
 30
0.0
 11
59.77138566197698
 21
132.9119546937802
 31
0.0
  0
LINE
  5
DC
330
3C
100
AcDbEntity
  8
1
  6
Continuous
 62
     7
100
AcDbLine
 10
52.27138566197698
 20
132.9119546937802
 30
0.0
 11
51.27138566197698
 21
131.9119546937802
 31
0.0
  0
LINE
  5
DD
330
3C
100
AcDbEntity
  8
1
  6
Continuous
 62
     7
100
AcDbLine
 10
52.27138566197698
 20
132.9119546937802
 30
0.0
 11
56.92138566197696
 21
132.9119546937802
 31
0.0
  0
LINE
  5
DE
330
3C
100
AcDbEntity
  8
1
  6
Continuous
 62
     7
100
AcDbLine
 10
51.27138566197698
 20
130.4119546937802
 30
0.0
 11
51.27138566197698
 21
131.9119546937802
 31
0.0
  0
LINE
  5
DF
330
3C
100
AcDbEntity
  8
1
  6
Continuous
 62
     7
100
AcDbLine
 10
60.77138566197698
 20
130.4119546937802
 30
0.0
 11
60.77138566197698
 21
131.9119546937802
 31
0.0
  0
LINE
  5
E0
330
3C
100
AcDbEntity
  8
1
  6
Continuous
 62
     7
100
AcDbLine
 10
50.54416008692532
 20
94.4119546937802
 30
0.0
 11
61.49861123702864
 21
94.4119546937802
 31
0.0
  0
LINE
  5
E1
330
3C
100
AcDbEntity
  8
1
  6
Continuous
 62
     7
100
AcDbLine
 10
56.92138566197694
 20
131.9119546937802
 30
0.0
 11
60.77138566197698
 21
131.9119546937802
 31
0.0
  0
LINE
  5
E2
330
3C
100
AcDbEntity
  8
1
  6
Continuous
 62
     7
100
AcDbLine
 10
131.271385661977
 20
132.9119546937802
 30
0.0
 11
134.121385661977
 21
132.9119546937802
 31
0.0
  0
LINE
  5
E3
330
3C
100
AcDbEntity
  8
1
  6
Continuous
 62
     7
100
AcDbLine
 10
131.271385661977
 20
132.9119546937802
 30
0.0
 11
130.271385661977
 21
131.9119546937802
 31
0.0
  0
LINE
  5
E4
330
3C
100
AcDbEntity
  8
1
  6
Continuous
 62
     7
100
AcDbLine
 10
130.271385661977
 20
131.9119546937802
 30
0.0
 11
134.121385661977
 21
131.9119546937802
 31
0.0
  0
LINE
  5
E5
330
3C
100
AcDbEntity
  8
1
  6
Continuous
 62
     7
100
AcDbLine
 10
134.121385661977
 20
132.9119546937802
 30
0.0
 11
134.121385661977
 21
130.3416459819651
 31
0.0
  0
LINE
  5
E6
330
3C
100
AcDbEntity
  8
1
  6
Continuous
 62
     7
100
AcDbLine
 10
139.771385661977
 20
131.9119546937802
 30
0.0
 11
139.771385661977
 21
130.3416459819651
 31
0.0
  0
LINE
  5
E7
330
3C
100
AcDbEntity
  8
1
  6
Continuous
 62
     7
100
AcDbLine
 10
135.921385661977
 20
132.9119546937802
 30
0.0
 11
138.771385661977
 21
132.9119546937802
 31
0.0
  0
LINE
  5
E8
330
3C
100
AcDbEntity
  8
1
  6
Continuous
 62
     7
100
AcDbLine
 10
139.771385661977
 20
131.9119546937802
 30
0.0
 11
138.771385661977
 21
132.9119546937802
 31
0.0
  0
LINE
  5
E9
330
3C
100
AcDbEntity
  8
1
  6
Continuous
 62
     7
100
AcDbLine
 10
135.921385661977
 20
131.9119546937802
 30
0.0
 11
139.771385661977
 21
131.9119546937802
 31
0.0
  0
LINE
  5
EA
330
3C
100
AcDbEntity
  8
1
  6
Continuous
 62
     7
100
AcDbLine
 10
130.271385661977
 20
130.3416459819651
 30
0.0
 11
130.271385661977
 21
131.9119546937802
 31
0.0
  0
LINE
  5
EB
330
3C
100
AcDbEntity
  8
1
  6
Continuous
 62
     7
100
AcDbLine
 10
135.921385661977
 20
130.3416459819651
 30
0.0
 11
135.921385661977
 21
132.9119546937802
 31
0.0
  0
ARC
  5
EC
330
3C
100
AcDbEntity
  8
0
  6
Continuous
 62
     7
100
AcDbCircle
 10
56.02138566197706
 20
199.887373625955
 30
0.0
 40
3.749999999999832
100
AcDbArc
 50
13.88654036262972
 51
166.1134596373714
  0
ARC
  5
ED
330
3C
100
AcDbEntity
  8
0
  6
Continuous
 62
     7
100
AcDbCircle
 10
56.02138566197706
 20
199.887373625955
 30
0.0
 40
3.750000000000122
100
AcDbArc
 50
-166.1134596373714
 51
-13.88654036262972
  0
CIRCLE
  5
EE
330
3C
100
AcDbEntity
  8
1
  6
Continuous
 62
     7
100
AcDbCircle
 10
56.02138566197706
 20
199.887373625955
 30
0.0
 40
4.749999999999868
  0
ENDBLK
  5
3E
330
3C
100
AcDbEntity
  8
0
100
AcDbBlockEnd
  0
BLOCK
  5
40
330
3F
100
AcDbEntity
  8
0
100
AcDbBlockBegin
  2
35-22
 70
     0
 71
     0
 10
-165.2057855282787
 20
141.5846706392713
 30
0.0
  3
35-22
  1

  0
LINE
  5
EF
330
3F
100
AcDbEntity
  8
1
  6
Continuous
 62
     7
100
AcDbLine
 10
165.021385661977
 20
99.5119546937802
 30
0.0
 11
166.021385661977
 21
99.5119546937802
 31
0.0
  0
LINE
  5
F0
330
3F
100
AcDbEntity
  8
1
  6
Continuous
 62
     7
100
AcDbLine
 10
64.62138566197694
 20
230.887373625955
 30
0.0
 11
64.62138566197694
 21
229.887373625955
 31
0.0
  0
LINE
  5
F1
330
3F
100
AcDbEntity
  8
1
  6
Continuous
 62
     7
100
AcDbLine
 10
47.42138566197696
 20
229.887373625955
 30
0.0
 11
47.42138566197696
 21
230.887373625955
 31
0.0
  0
LINE
  5
F2
330
3F
100
AcDbEntity
  8
1
  6
Continuous
 62
     7
100
AcDbLine
 10
166.021385661977
 20
82.31195469378021
 30
0.0
 11
165.021385661977
 21
82.31195469378021
 31
0.0
  0
ENDBLK
  5
41
330
3F
100
AcDbEntity
  8
0
100
AcDbBlockEnd
  0
BLOCK
  5
43
330
42
100
AcDbEntity
  8
0
100
AcDbBlockBegin
  2
32-26
 70
     0
 71
     0
 10
277.827938313813
 20
127.6912435183802
 30
0.0
  3
32-26
  1

  0
LINE
  5
F3
330
42
100
AcDbEntity
  8
1
  6
Continuous
 62
     7
100
AcDbLine
 10
67.63162868362144
 20
244.387373625955
 30
0.0
 11
44.41114264033246
 21
244.387373625955
 31
0.0
  0
LINE
  5
F4
330
42
100
AcDbEntity
  8
1
  6
Continuous
 62
     7
100
AcDbLine
 10
44.41114264033246
 20
230.887373625955
 30
0.0
 11
67.63162868362144
 21
230.887373625955
 31
0.0
  0
LINE
  5
F5
330
42
100
AcDbEntity
  8
1
  6
Continuous
 62
     7
100
AcDbLine
 10
68.02138566197695
 20
231.5751957994639
 30
0.0
 11
68.02138566197695
 21
243.6995514524461
 31
0.0
  0
LINE
  5
F6
330
42
100
AcDbEntity
  8
1
  6
Continuous
 62
     7
100
AcDbLine
 10
44.02138566197695
 20
231.5751957994639
 30
0.0
 11
44.02138566197695
 21
243.6995514524461
 31
0.0
  0
LINE
  5
F7
330
42
100
AcDbEntity
  8
1
  6
Continuous
 62
     7
100
AcDbLine
 10
166.021385661977
 20
102.2721977154245
 30
0.0
 11
166.021385661977
 21
79.55171167213571
 31
0.0
  0
LINE
  5
F8
330
42
100
AcDbEntity
  8
1
  6
Continuous
 62
     7
100
AcDbLine
 10
179.521385661977
 20
102.2721977154245
 30
0.0
 11
179.521385661977
 21
79.55171167213571
 31
0.0
  0
ARC
  5
F9
330
42
100
AcDbEntity
  8
1
  6
Continuous
 62
     7
100
AcDbCircle
 10
55.52138566197695
 20
237.637373625955
 30
0.0
 40
13.00000000000002
100
AcDbArc
 50
-152.2042275039719
 51
-148.7193328479516
  0
ARC
  5
FA
330
42
100
AcDbEntity
  8
1
  6
Continuous
 62
     7
100
AcDbCircle
 10
56.52138566197695
 20
237.637373625955
 30
0.0
 40
13.0
100
AcDbArc
 50
27.79577249602801
 51
31.28066715204843
  0
ARC
  5
FB
330
42
100
AcDbEntity
  8
1
  6
Continuous
 62
     7
100
AcDbCircle
 10
56.52138566197695
 20
237.637373625955
 30
0.0
 40
13.00000000000001
100
AcDbArc
 50
-31.28066715204843
 51
-27.79577249602812
  0
ARC
  5
FC
330
42
100
AcDbEntity
  8
1
  6
Continuous
 62
     7
100
AcDbCircle
 10
55.52138566197695
 20
237.637373625955
 30
0.0
 40
13.00000000000001
100
AcDbArc
 50
148.7193328479516
 51
152.204227503972
  0
ARC
  5
FD
330
42
100
AcDbEntity
  8
1
  6
Continuous
 62
     7
100
AcDbCircle
 10
172.771385661977
 20
91.16195469378006
 30
0.0
 40
12.99999999999996
100
AcDbArc
 50
58.71933284795144
 51
121.2806671520486
  0
ARC
  5
FE
330
42
100
AcDbEntity
  8
1
  6
Continuous
 62
     7
100
AcDbCircle
 10
172.500060002099
 20
90.89640838282811
 30
0.0
 40
6.332098487497206
100
AcDbArc
 50
0.14067041142498
 51
38.10483270602296
  0
ARC
  5
FF
330
42
100
AcDbEntity
  8
1
  6
Continuous
 62
     7
100
AcDbCircle
 10
172.9716933799008
 20
90.86102077555803
 30
0.0
 40
6.238808798172386
100
AcDbArc
 50
91.83989603134396
 51
179.5322294588913
  0
ARC
  5
100
330
42
100
AcDbEntity
  8
1
  6
Continuous
 62
     7
100
AcDbCircle
 10
172.7711112984856
 20
91.10897666790449
 30
0.0
 40
5.987636470587903
100
AcDbArc
 50
38.10483270602291
 51
89.99737461180344
  0
ARC
  5
101
330
42
100
AcDbEntity
  8
1
  6
Continuous
 62
     7
100
AcDbCircle
 10
172.771385661977
 20
90.66195469378017
 30
0.0
 40
12.99999999999998
100
AcDbArc
 50
-121.2806671520485
 51
-58.71933284795151
  0
ARC
  5
102
330
42
100
AcDbEntity
  8
1
  6
Continuous
 62
     7
100
AcDbCircle
 10
172.500060002099
 20
90.92750100473212
 30
0.0
 40
6.332098487497134
100
AcDbArc
 50
-38.10483270602296
 51
-0.14067041142395
  0
ARC
  5
103
330
42
100
AcDbEntity
  8
1
  6
Continuous
 62
     7
100
AcDbCircle
 10
172.9716933799008
 20
90.9628886120022
 30
0.0
 40
6.238808798172458
100
AcDbArc
 50
-179.5322294588923
 51
-91.83989603134396
  0
ARC
  5
104
330
42
100
AcDbEntity
  8
1
  6
Continuous
 62
     7
100
AcDbCircle
 10
172.7711112984856
 20
90.71493271965575
 30
0.0
 40
5.987636470587953
100
AcDbArc
 50
-89.99737461180344
 51
-38.10483270602291
  0
SPLINE
  5
105
330
42
100
AcDbEntity
  8
1
  6
Continuous
 62
     7
100
AcDbSpline
210
0.0
220
0.0
230
1.0
 70
    11
 71
     3
 72
    79
 73
    75
 74
    73
 42
0.0000000001
 43
0.0000000001
 44
0.00000001
 40
0.0
 40
0.0
 40
0.0
 40
0.0
 40
0.2732520596959515
 40
0.546686974374699
 40
0.8413986807838892
 40
1.136327588786966
 40
1.467767925674598
 40
1.799287330784431
 40
2.174576154088272
 40
2.549907460999791
 40
2.96956123558018
 40
3.389237629160006
 40
3.849011454340431
 40
4.30879950399352
 40
4.801169042998255
 40
5.293547118901654
 40
5.808782067216349
 40
6.324021649886056
 40
6.851020326127252
 40
7.37802046597008
 40
7.905020605812851
 40
8.432019282053989
 40
8.947258864723668
 40
9.462493813038391
 40
9.954871888941819
 40
10.44724142794652
 40
10.90702947759962
 40
11.36680330278004
 40
11.78647969635987
 40
12.20613347094025
 40
12.58146477785186
 40
12.95675360115571
 40
13.2882730062655
 40
13.61971334315309
 40
13.91464225115621
 40
14.20935395756545
 40
14.48278887224413
 40
14.75604093194007
 40
15.02929299163604
 40
15.30272790631475
 40
15.59743961272397
 40
15.89236852072711
 40
16.22380885761467
 40
16.55532826272451
 40
16.93061708602836
 40
17.30594839293993
 40
17.72560216752028
 40
18.14527856110014
 40
18.60505238628056
 40
19.06484043593365
 40
19.55720997493834
 40
20.0495880508418
 40
20.56482299915652
 40
21.0800625818262
 40
21.6070612580673
 40
22.1340613979101
 40
22.66106153775296
 40
23.18806021399412
 40
23.70329979666383
 40
24.21853474497853
 40
24.71091282088193
 40
25.20328235988667
 40
25.66307040953976
 40
26.12284423472018
 40
26.54252062830004
 40
26.96217440288039
 40
27.33750570979185
 40
27.71279453309572
 40
28.04431393820562
 40
28.37575427509323
 40
28.67068318309634
 40
28.96539488950555
 40
29.23882980418427
 40
29.51208186388019
 40
29.51208186388019
 40
29.51208186388019
 40
29.51208186388019
 10
166.7092078354859
 20
81.00398511069831
 30
0.0
 10
166.713939624401
 20
80.9128061617416
 30
0.0
 10
166.7234063686525
 20
80.73038724864259
 30
0.0
 10
166.7969961395641
 20
80.45776743309511
 30
0.0
 10
166.9129519856851
 20
80.19351352346983
 30
0.0
 10
167.0765047727829
 20
79.93252658689896
 30
0.0
 10
167.2795670177418
 20
79.68507445938948
 30
0.0
 10
167.5285161496034
 20
79.4438052877434
 30
0.0
 10
167.8114036928052
 20
79.2190885704721
 30
0.0
 10
168.1374758755721
 20
79.00422440163862
 30
0.0
 10
168.4921041289444
 20
78.80802681652102
 30
0.0
 10
168.885174280785
 20
78.62561427209646
 30
0.0
 10
169.3014274866216
 20
78.46350555692831
 30
0.0
 10
169.7495140976986
 20
78.31877939488406
 30
0.0
 10
170.2152518075789
 20
78.1956321087772
 30
0.0
 10
170.7047547487491
 20
78.09277559019684
 30
0.0
 10
171.2061710370512
 20
78.01242256659589
 30
0.0
 10
171.7222542211233
 20
77.95438174904524
 30
0.0
 10
172.2443416321722
 20
77.91940816313968
 30
0.0
 10
172.7713856619781
 20
77.90777975027528
 30
0.0
 10
173.2984296917773
 20
77.91940816313968
 30
0.0
 10
173.820517102846
 20
77.95438174904525
 30
0.0
 10
174.3366002868473
 20
78.01242256659592
 30
0.0
 10
174.8380165754079
 20
78.09277559019679
 30
0.0
 10
175.3275195156544
 20
78.19563210877723
 30
0.0
 10
175.7932572288738
 20
78.31877939488405
 30
0.0
 10
176.2413438282762
 20
78.46350555692833
 30
0.0
 10
176.6575970757954
 20
78.62561427209646
 30
0.0
 10
177.0506670849906
 20
78.80802681652102
 30
0.0
 10
177.4052958418384
 20
79.00422440163868
 30
0.0
 10
177.7313663340766
 20
79.21908857047204
 30
0.0
 10
178.0142597933244
 20
79.4438052877434
 30
0.0
 10
178.2631892877632
 20
79.68507445938946
 30
0.0
 10
178.4663202018116
 20
79.93252658689896
 30
0.0
 10
178.6296435043319
 20
80.1935135234699
 30
0.0
 10
178.7464133709995
 20
80.45776743309511
 30
0.0
 10
178.8171737784911
 20
80.73038724864263
 30
0.0
 10
178.8417556024545
 20
81.0039851106983
 30
0.0
 10
178.8171737784911
 20
81.27758297275406
 30
0.0
 10
178.7464133709995
 20
81.55020278830156
 30
0.0
 10
178.6296435043319
 20
81.81445669792679
 30
0.0
 10
178.4663202018117
 20
82.07544363449767
 30
0.0
 10
178.2631892877633
 20
82.32289576200724
 30
0.0
 10
178.0142597933244
 20
82.56416493365329
 30
0.0
 10
177.7313663340765
 20
82.78888165092459
 30
0.0
 10
177.4052958418383
 20
83.00374581975797
 30
0.0
 10
177.0506670849907
 20
83.19994340487561
 30
0.0
 10
176.6575970757953
 20
83.38235594930016
 30
0.0
 10
176.2413438282762
 20
83.54446466446828
 30
0.0
 10
175.7932572288737
 20
83.68919082651253
 30
0.0
 10
175.3275195156544
 20
83.81233811261947
 30
0.0
 10
174.8380165754079
 20
83.91519463119981
 30
0.0
 10
174.3366002868473
 20
83.99554765480082
 30
0.0
 10
173.8205171028459
 20
84.05358847235142
 30
0.0
 10
173.2984296917773
 20
84.08856205825695
 30
0.0
 10
172.7713856619781
 20
84.10019047112132
 30
0.0
 10
172.2443416321722
 20
84.08856205825694
 30
0.0
 10
171.7222542211233
 20
84.05358847235146
 30
0.0
 10
171.2061710370512
 20
83.99554765480077
 30
0.0
 10
170.7047547487491
 20
83.91519463119978
 30
0.0
 10
170.2152518075789
 20
83.8123381126194
 30
0.0
 10
169.7495140976986
 20
83.68919082651256
 30
0.0
 10
169.3014274866216
 20
83.54446466446831
 30
0.0
 10
168.8851742807849
 20
83.38235594930015
 30
0.0
 10
168.4921041289444
 20
83.19994340487561
 30
0.0
 10
168.1374758755721
 20
83.00374581975801
 30
0.0
 10
167.8114036928052
 20
82.78888165092452
 30
0.0
 10
167.5285161496034
 20
82.56416493365327
 30
0.0
 10
167.2795670177416
 20
82.32289576200725
 30
0.0
 10
167.0765047727828
 20
82.07544363449766
 30
0.0
 10
166.9129519856851
 20
81.81445669792672
 30
0.0
 10
166.796996139564
 20
81.55020278830146
 30
0.0
 10
166.7234063686525
 20
81.27758297275403
 30
0.0
 10
166.713939624401
 20
81.09516405965501
 30
0.0
 10
166.7092078354859
 20
81.00398511069831
 30
0.0
 11
166.7092078354859
 21
81.00398511069831
 31
0.0
 11
166.7329835840878
 21
80.73176938391806
 31
0.0
 11
166.8013059383099
 21
80.4670077770357
 31
0.0
 11
166.9192883279011
 21
80.19694270035792
 31
0.0
 11
167.0748018925313
 21
79.94634622793286
 31
0.0
 11
167.2841548323218
 21
79.68939478598855
 31
0.0
 11
167.521385661977
 21
79.45782050109172
 31
0.0
 11
167.8146224982639
 21
79.22361149455863
 31
0.0
 11
168.1274880247944
 21
79.0162742035164
 31
0.0
 11
168.4943245145658
 21
78.81245987553187
 31
0.0
 11
168.874692867392
 21
78.63512349602554
 31
0.0
 11
169.3029273768946
 21
78.46777005210488
 31
0.0
 11
169.7402967487314
 21
78.32594944999471
 31
0.0
 11
170.2162154819512
 21
78.19973882322276
 31
0.0
 11
170.6979987328948
 21
78.09814616236298
 31
0.0
 11
171.2067100060977
 21
78.01641555315743
 31
0.0
 11
171.7186995297139
 21
77.95863532075096
 31
0.0
 11
172.2445151226544
 21
77.92334272973592
 31
0.0
 11
172.771385661977
 21
77.91165589148507
 31
0.0
 11
173.2982562012995
 21
77.92334272973592
 31
0.0
 11
173.82407179424
 21
77.95863532075096
 31
0.0
 11
174.3360613178562
 21
78.01641555315743
 31
0.0
 11
174.8447725910591
 21
78.09814616236298
 31
0.0
 11
175.3265558420027
 21
78.19973882322276
 31
0.0
 11
175.8024745752225
 21
78.32594944999471
 31
0.0
 11
176.2398439470593
 21
78.4677700521049
 31
0.0
 11
176.6680784565619
 21
78.63512349602554
 31
0.0
 11
177.0484468093881
 21
78.81245987553189
 31
0.0
 11
177.4152832991595
 21
79.0162742035164
 31
0.0
 11
177.7281488256901
 21
79.22361149455861
 31
0.0
 11
178.021385661977
 21
79.45782050109172
 31
0.0
 11
178.2586164916322
 21
79.68939478598855
 31
0.0
 11
178.4679694314226
 21
79.94634622793286
 31
0.0
 11
178.6234829960529
 21
80.19694270035795
 31
0.0
 11
178.7414653856441
 21
80.46700777703576
 31
0.0
 11
178.8097877398661
 21
80.73176938391808
 31
0.0
 11
178.833563488468
 21
81.00398511069831
 31
0.0
 11
178.8097877398661
 21
81.27620083747857
 31
0.0
 11
178.7414653856441
 21
81.54096244436092
 31
0.0
 11
178.6234829960529
 21
81.81102752103872
 31
0.0
 11
178.4679694314226
 21
82.06162399346381
 31
0.0
 11
178.2586164916322
 21
82.31857543540812
 31
0.0
 11
178.021385661977
 21
82.55014972030496
 31
0.0
 11
177.7281488256901
 21
82.78435872683804
 31
0.0
 11
177.4152832991595
 21
82.99169601788022
 31
0.0
 11
177.0484468093882
 21
83.19551034586473
 31
0.0
 11
176.6680784565619
 21
83.37284672537108
 31
0.0
 11
176.2398439470593
 21
83.54020016929171
 31
0.0
 11
175.8024745752225
 21
83.6820207714019
 31
0.0
 11
175.3265558420027
 21
83.80823139817387
 31
0.0
 11
174.8447725910591
 21
83.90982405903368
 31
0.0
 11
174.3360613178562
 21
83.99155466823926
 31
0.0
 11
173.82407179424
 21
84.04933490064572
 31
0.0
 11
173.2982562012996
 21
84.08462749166071
 31
0.0
 11
172.771385661977
 21
84.09631432991155
 31
0.0
 11
172.2445151226544
 21
84.08462749166073
 31
0.0
 11
171.7186995297139
 21
84.04933490064572
 31
0.0
 11
171.2067100060977
 21
83.99155466823923
 31
0.0
 11
170.6979987328948
 21
83.90982405903363
 31
0.0
 11
170.2162154819512
 21
83.80823139817385
 31
0.0
 11
169.7402967487314
 21
83.6820207714019
 31
0.0
 11
169.3029273768946
 21
83.54020016929172
 31
0.0
 11
168.874692867392
 21
83.37284672537108
 31
0.0
 11
168.4943245145657
 21
83.19551034586473
 31
0.0
 11
168.1274880247944
 21
82.99169601788022
 31
0.0
 11
167.814622498264
 21
82.78435872683802
 31
0.0
 11
167.521385661977
 21
82.55014972030496
 31
0.0
 11
167.2841548323217
 21
82.31857543540811
 31
0.0
 11
167.0748018925313
 21
82.06162399346376
 31
0.0
 11
166.9192883279011
 21
81.81102752103865
 31
0.0
 11
166.8013059383099
 21
81.54096244436086
 31
0.0
 11
166.7329835840878
 21
81.27620083747853
 31
0.0
 11
166.7092078354859
 21
81.00398511069831
 31
0.0
  0
SPLINE
  5
106
330
42
100
AcDbEntity
  8
1
  6
Continuous
 62
     7
100
AcDbSpline
210
0.0
220
0.0
230
1.0
 70
    11
 71
     3
 72
    79
 73
    75
 74
    73
 42
0.0000000001
 43
0.0000000001
 44
0.00000001
 40
0.0
 40
0.0
 40
0.0
 40
0.0
 40
0.2732520596959399
 40
0.5466869743746941
 40
0.8413986807838843
 40
1.136327588787009
 40
1.467767925674606
 40
1.799287330784449
 40
2.174576154088272
 40
2.549907460999799
 40
2.969561235580188
 40
3.389237629160033
 40
3.849011454340442
 40
4.308799503993531
 40
4.801169042998255
 40
5.293547118901657
 40
5.808782067216386
 40
6.32402164988607
 40
6.851020326127236
 40
7.378020465970092
 40
7.905020605812863
 40
8.432019282054002
 40
8.947258864723686
 40
9.462493813038416
 40
9.954871888941836
 40
10.44724142794654
 40
10.90702947759963
 40
11.36680330278004
 40
11.78647969635989
 40
12.20613347094028
 40
12.58146477785186
 40
12.95675360115572
 40
13.28827300626549
 40
13.61971334315308
 40
13.91464225115622
 40
14.20935395756543
 40
14.48278887224417
 40
14.75604093194011
 40
15.02929299163605
 40
15.30272790631477
 40
15.59743961272399
 40
15.89236852072715
 40
16.22380885761469
 40
16.5553282627245
 40
16.93061708602837
 40
17.30594839293993
 40
17.72560216752029
 40
18.14527856110015
 40
18.60505238628056
 40
19.06484043593365
 40
19.55720997493834
 40
20.0495880508418
 40
20.56482299915653
 40
21.08006258182621
 40
21.60706125806731
 40
22.13406139791011
 40
22.66106153775296
 40
23.18806021399413
 40
23.70329979666384
 40
24.21853474497855
 40
24.71091282088195
 40
25.20328235988668
 40
25.66307040953977
 40
26.12284423472019
 40
26.54252062830004
 40
26.9621744028804
 40
27.33750570979187
 40
27.71279453309574
 40
28.04431393820563
 40
28.37575427509324
 40
28.67068318309635
 40
28.96539488950557
 40
29.23882980418427
 40
29.51208186388016
 40
29.51208186388016
 40
29.51208186388016
 40
29.51208186388016
 10
166.7092078354859
 20
100.8199242768619
 30
0.0
 10
166.713939624401
 20
100.9111032258186
 30
0.0
 10
166.7234063686526
 20
101.0935221389176
 30
0.0
 10
166.796996139564
 20
101.3661419544651
 30
0.0
 10
166.9129519856851
 20
101.6303958640903
 30
0.0
 10
167.0765047727828
 20
101.8913828006613
 30
0.0
 10
167.2795670177416
 20
102.1388349281708
 30
0.0
 10
167.5285161496034
 20
102.3801040998168
 30
0.0
 10
167.8114036928052
 20
102.6048208170881
 30
0.0
 10
168.137475875572
 20
102.8196849859216
 30
0.0
 10
168.4921041289444
 20
103.0158825710392
 30
0.0
 10
168.885174280785
 20
103.1982951154638
 30
0.0
 10
169.3014274866216
 20
103.3604038306319
 30
0.0
 10
169.7495140976987
 20
103.5051299926762
 30
0.0
 10
170.2152518075788
 20
103.628277278783
 30
0.0
 10
170.7047547487491
 20
103.7311337973633
 30
0.0
 10
171.2061710370512
 20
103.8114868209643
 30
0.0
 10
171.7222542211233
 20
103.869527638515
 30
0.0
 10
172.2443416321722
 20
103.9045012244205
 30
0.0
 10
172.7713856619781
 20
103.916129637285
 30
0.0
 10
173.2984296917773
 20
103.9045012244205
 30
0.0
 10
173.8205171028459
 20
103.869527638515
 30
0.0
 10
174.3366002868473
 20
103.8114868209643
 30
0.0
 10
174.838016575408
 20
103.7311337973633
 30
0.0
 10
175.3275195156544
 20
103.628277278783
 30
0.0
 10
175.7932572288738
 20
103.5051299926761
 30
0.0
 10
176.2413438282762
 20
103.3604038306319
 30
0.0
 10
176.6575970757954
 20
103.1982951154639
 30
0.0
 10
177.0506670849906
 20
103.0158825710391
 30
0.0
 10
177.4052958418383
 20
102.8196849859216
 30
0.0
 10
177.7313663340766
 20
102.6048208170882
 30
0.0
 10
178.0142597933243
 20
102.3801040998168
 30
0.0
 10
178.2631892877633
 20
102.1388349281708
 30
0.0
 10
178.4663202018117
 20
101.8913828006613
 30
0.0
 10
178.6296435043319
 20
101.6303958640904
 30
0.0
 10
178.7464133709995
 20
101.3661419544652
 30
0.0
 10
178.8171737784911
 20
101.0935221389176
 30
0.0
 10
178.8417556024545
 20
100.8199242768619
 30
0.0
 10
178.8171737784911
 20
100.5463264148062
 30
0.0
 10
178.7464133709994
 20
100.2737065992587
 30
0.0
 10
178.629643504332
 20
100.0094526896334
 30
0.0
 10
178.4663202018117
 20
99.74846575306252
 30
0.0
 10
178.2631892877633
 20
99.50101362555299
 30
0.0
 10
178.0142597933244
 20
99.25974445390696
 30
0.0
 10
177.7313663340766
 20
99.03502773663571
 30
0.0
 10
177.4052958418383
 20
98.82016356780227
 30
0.0
 10
177.0506670849906
 20
98.62396598268465
 30
0.0
 10
176.6575970757953
 20
98.44155343826006
 30
0.0
 10
176.2413438282762
 20
98.27944472309194
 30
0.0
 10
175.7932572288737
 20
98.13471856104769
 30
0.0
 10
175.3275195156544
 20
98.01157127494081
 30
0.0
 10
174.8380165754079
 20
97.90871475636038
 30
0.0
 10
174.3366002868473
 20
97.82836173275945
 30
0.0
 10
173.8205171028459
 20
97.77032091520883
 30
0.0
 10
173.2984296917773
 20
97.7353473293033
 30
0.0
 10
172.7713856619781
 20
97.72371891643891
 30
0.0
 10
172.2443416321722
 20
97.73534732930324
 30
0.0
 10
171.7222542211233
 20
97.77032091520879
 30
0.0
 10
171.2061710370511
 20
97.82836173275948
 30
0.0
 10
170.7047547487491
 20
97.90871475636045
 30
0.0
 10
170.2152518075789
 20
98.01157127494085
 30
0.0
 10
169.7495140976986
 20
98.13471856104765
 30
0.0
 10
169.3014274866215
 20
98.27944472309193
 30
0.0
 10
168.885174280785
 20
98.44155343826009
 30
0.0
 10
168.4921041289444
 20
98.62396598268462
 30
0.0
 10
168.137475875572
 20
98.82016356780224
 30
0.0
 10
167.8114036928052
 20
99.03502773663573
 30
0.0
 10
167.5285161496034
 20
99.25974445390698
 30
0.0
 10
167.2795670177417
 20
99.50101362555303
 30
0.0
 10
167.0765047727829
 20
99.74846575306262
 30
0.0
 10
166.9129519856851
 20
100.0094526896335
 30
0.0
 10
166.796996139564
 20
100.2737065992588
 30
0.0
 10
166.7234063686526
 20
100.5463264148062
 30
0.0
 10
166.713939624401
 20
100.7287453279052
 30
0.0
 10
166.7092078354859
 20
100.8199242768619
 30
0.0
 11
166.7092078354859
 21
100.8199242768619
 31
0.0
 11
166.7329835840879
 21
101.0921400036421
 31
0.0
 11
166.8013059383099
 21
101.3569016105245
 31
0.0
 11
166.9192883279011
 21
101.6269666872023
 31
0.0
 11
167.0748018925313
 21
101.8775631596274
 31
0.0
 11
167.2841548323218
 21
102.1345146015717
 31
0.0
 11
167.521385661977
 21
102.3660888864685
 31
0.0
 11
167.8146224982639
 21
102.6002978930016
 31
0.0
 11
168.1274880247944
 21
102.8076351840438
 31
0.0
 11
168.4943245145658
 21
103.0114495120283
 31
0.0
 11
168.874692867392
 21
103.1887858915347
 31
0.0
 11
169.3029273768946
 21
103.3561393354553
 31
0.0
 11
169.7402967487314
 21
103.4979599375655
 31
0.0
 11
170.2162154819512
 21
103.6241705643374
 31
0.0
 11
170.6979987328948
 21
103.7257632251972
 31
0.0
 11
171.2067100060978
 21
103.8074938344028
 31
0.0
 11
171.7186995297139
 21
103.8652740668093
 31
0.0
 11
172.2445151226544
 21
103.9005666578243
 31
0.0
 11
172.771385661977
 21
103.9122534960752
 31
0.0
 11
173.2982562012995
 21
103.9005666578243
 31
0.0
 11
173.82407179424
 21
103.8652740668093
 31
0.0
 11
174.3360613178562
 21
103.8074938344028
 31
0.0
 11
174.8447725910591
 21
103.7257632251972
 31
0.0
 11
175.3265558420027
 21
103.6241705643375
 31
0.0
 11
175.8024745752225
 21
103.4979599375655
 31
0.0
 11
176.2398439470593
 21
103.3561393354553
 31
0.0
 11
176.6680784565619
 21
103.1887858915347
 31
0.0
 11
177.0484468093881
 21
103.0114495120283
 31
0.0
 11
177.4152832991595
 21
102.8076351840438
 31
0.0
 11
177.7281488256901
 21
102.6002978930016
 31
0.0
 11
178.021385661977
 21
102.3660888864685
 31
0.0
 11
178.2586164916322
 21
102.1345146015717
 31
0.0
 11
178.4679694314226
 21
101.8775631596274
 31
0.0
 11
178.6234829960529
 21
101.6269666872023
 31
0.0
 11
178.7414653856441
 21
101.3569016105245
 31
0.0
 11
178.8097877398661
 21
101.0921400036421
 31
0.0
 11
178.833563488468
 21
100.8199242768619
 31
0.0
 11
178.8097877398661
 21
100.5477085500817
 31
0.0
 11
178.7414653856441
 21
100.2829469431993
 31
0.0
 11
178.6234829960529
 21
100.0128818665215
 31
0.0
 11
178.4679694314226
 21
99.7622853940964
 31
0.0
 11
178.2586164916322
 21
99.50533395215211
 31
0.0
 11
178.021385661977
 21
99.27375966725531
 31
0.0
 11
177.72814882569
 21
99.03955066072223
 31
0.0
 11
177.4152832991595
 21
98.83221336968002
 31
0.0
 11
177.0484468093882
 21
98.6283990416955
 31
0.0
 11
176.6680784565619
 21
98.45106266218916
 31
0.0
 11
176.2398439470593
 21
98.28370921826853
 31
0.0
 11
175.8024745752225
 21
98.14188861615834
 31
0.0
 11
175.3265558420027
 21
98.01567798938636
 31
0.0
 11
174.8447725910591
 21
97.91408532852655
 31
0.0
 11
174.3360613178562
 21
97.83235471932098
 31
0.0
 11
173.82407179424
 21
97.77457448691452
 31
0.0
 11
173.2982562012996
 21
97.73928189589952
 31
0.0
 11
172.771385661977
 21
97.72759505764869
 31
0.0
 11
172.2445151226544
 21
97.7392818958995
 31
0.0
 11
171.7186995297139
 21
97.77457448691452
 31
0.0
 11
171.2067100060977
 21
97.83235471932102
 31
0.0
 11
170.6979987328948
 21
97.91408532852661
 31
0.0
 11
170.2162154819512
 21
98.0156779893864
 31
0.0
 11
169.7402967487314
 21
98.14188861615834
 31
0.0
 11
169.3029273768946
 21
98.28370921826851
 31
0.0
 11
168.874692867392
 21
98.45106266218916
 31
0.0
 11
168.4943245145657
 21
98.62839904169549
 31
0.0
 11
168.1274880247944
 21
98.83221336968002
 31
0.0
 11
167.814622498264
 21
99.03955066072223
 31
0.0
 11
167.521385661977
 21
99.27375966725531
 31
0.0
 11
167.2841548323218
 21
99.50533395215216
 31
0.0
 11
167.0748018925313
 21
99.76228539409649
 31
0.0
 11
166.9192883279011
 21
100.0128818665216
 31
0.0
 11
166.8013059383099
 21
100.2829469431994
 31
0.0
 11
166.7329835840879
 21
100.5477085500817
 31
0.0
 11
166.7092078354859
 21
100.8199242768619
 31
0.0
  0
SPLINE
  5
107
330
42
100
AcDbEntity
  8
1
  6
Continuous
 62
     7
100
AcDbSpline
210
0.0
220
0.0
230
1.0
 70
    11
 71
     3
 72
    79
 73
    75
 74
    73
 42
0.0000000001
 43
0.0000000001
 44
0.00000001
 40
0.0
 40
0.0
 40
0.0
 40
0.0
 40
0.4678744007739554
 40
0.935753192787278
 40
1.407485930135244
 40
1.879230484328333
 40
2.358135841895985
 40
2.837057239131109
 40
3.325463367261266
 40
3.813886402176196
 40
4.312879557180144
 40
4.811888069867809
 40
5.321250498094522
 40
5.83062540698822
 40
6.348936658710712
 40
6.867256949342177
 40
7.392112797561141
 40
7.916974076742585
 40
8.445280254639942
 40
8.973588240303874
 40
9.501896225967835
 40
10.03020240386528
 40
10.55506368304667
 40
11.07991953126558
 40
11.59823982189699
 40
12.11655107361953
 40
12.62592598251328
 40
13.13528841074004
 40
13.63429692342767
 40
14.13329007843159
 40
14.62171311334649
 40
15.11011924147666
 40
15.58904063871181
 40
16.06794599627943
 40
16.53969055047254
 40
17.0114232878205
 40
17.47930207983381
 40
17.94717648060778
 40
18.41505088138178
 40
18.88292967339515
 40
19.35466241074312
 40
19.82640696493619
 40
20.30531232250384
 40
20.78423371973897
 40
21.2726398478691
 40
21.76106288278397
 40
22.26005603778791
 40
22.75906455047558
 40
23.2684269787024
 40
23.77780188759608
 40
24.29611313931856
 40
24.81443342995
 40
25.33928927816893
 40
25.8641505573503
 40
26.39245673524775
 40
26.92076472091171
 40
27.44907270657568
 40
27.97737888447302
 40
28.50224016365441
 40
29.02709601187342
 40
29.54541630250487
 40
30.06372755422733
 40
30.573102463121
 40
31.08246489134774
 40
31.58147340403546
 40
32.08046655903942
 40
32.56888959395429
 40
33.05729572208444
 40
33.53621711931957
 40
34.01512247688722
 40
34.4868670310803
 40
34.95859976842826
 40
35.42647856044162
 40
35.89435296121563
 40
35.89435296121563
 40
35.89435296121563
 40
35.89435296121563
 10
62.02138566197695
 20
243.6995514524461
 30
0.0
 10
62.17740562304675
 20
243.6950716338437
 30
0.0
 10
62.48944700951304
 20
243.6861119545932
 30
0.0
 10
62.95423113171547
 20
243.6142120873264
 30
0.0
 10
63.41120174788858
 20
243.4999784908286
 30
0.0
 10
63.85838293221363
 20
243.3400500055473
 30
0.0
 10
64.29034828537803
 20
243.1371901732461
 30
0.0
 10
64.70615866353978
 20
242.8918914592904
 30
0.0
 10
65.10008394580939
 20
242.6073645052468
 30
0.0
 10
65.4717881678541
 20
242.2841344719117
 30
0.0
 10
65.8158678275727
 20
241.9267232468417
 30
0.0
 10
66.13216358291646
 20
241.5355385212611
 30
0.0
 10
66.41611699383785
 20
241.1160970661587
 30
0.0
 10
66.66746051626882
 20
240.6689811673383
 30
0.0
 10
66.8827949912591
 20
240.2001656759901
 30
0.0
 10
67.06166162393355
 20
239.7107894935539
 30
0.0
 10
67.20190584955316
 20
239.2067132155947
 30
0.0
 10
67.30299038520015
 20
238.6899717648665
 30
0.0
 10
67.36388744013806
 20
238.1658115262332
 30
0.0
 10
67.38424176661516
 20
237.6373736259545
 30
0.0
 10
67.36388744013809
 20
237.1089357256786
 30
0.0
 10
67.30299038520016
 20
236.5847754870368
 30
0.0
 10
67.20190584955314
 20
236.0680340363396
 30
0.0
 10
67.06166162393353
 20
235.5639577582659
 30
0.0
 10
66.88279499125908
 20
235.0745815762518
 30
0.0
 10
66.66746051626882
 20
234.605766083342
 30
0.0
 10
66.41611699383783
 20
234.158650190253
 30
0.0
 10
66.13216358291652
 20
233.739208713983
 30
0.0
 10
65.81586782757272
 20
233.3480240658624
 30
0.0
 10
65.4717881678541
 20
232.9906125549954
 30
0.0
 10
65.10008394580936
 20
232.6673835666368
 30
0.0
 10
64.70615866353978
 20
232.3828527554896
 30
0.0
 10
64.29034828537803
 20
232.1375681690425
 30
0.0
 10
63.85838293221362
 20
231.9346560925247
 30
0.0
 10
63.41120174788857
 20
231.77491980058
 30
0.0
 10
62.95423113171545
 20
231.6599731552614
 30
0.0
 10
62.48944700951305
 20
231.5907137460827
 30
0.0
 10
62.02138566197694
 20
231.5674368625652
 30
0.0
 10
61.55332431444082
 20
231.5907137460828
 30
0.0
 10
61.08854019223834
 20
231.6599731552613
 30
0.0
 10
60.63156957606525
 20
231.7749198005801
 30
0.0
 10
60.18438839174019
 20
231.9346560925248
 30
0.0
 10
59.75242303857579
 20
232.1375681690423
 30
0.0
 10
59.33661266041405
 20
232.3828527554896
 30
0.0
 10
58.9426873781445
 20
232.6673835666367
 30
0.0
 10
58.57098315609979
 20
232.9906125549954
 30
0.0
 10
58.22690349638116
 20
233.3480240658624
 30
0.0
 10
57.91060774103729
 20
233.7392087139828
 30
0.0
 10
57.626654330116
 20
234.1586501902532
 30
0.0
 10
57.37531080768498
 20
234.6057660833419
 30
0.0
 10
57.15997633269477
 20
235.0745815762518
 30
0.0
 10
56.9811097000204
 20
235.5639577582659
 30
0.0
 10
56.84086547440083
 20
236.0680340363397
 30
0.0
 10
56.73978093875379
 20
236.5847754870368
 30
0.0
 10
56.67888388381578
 20
237.1089357256786
 30
0.0
 10
56.65852955733863
 20
237.6373736259546
 30
0.0
 10
56.67888388381577
 20
238.1658115262331
 30
0.0
 10
56.73978093875379
 20
238.6899717648666
 30
0.0
 10
56.84086547440083
 20
239.2067132155945
 30
0.0
 10
56.98110970002038
 20
239.7107894935539
 30
0.0
 10
57.15997633269478
 20
240.2001656759901
 30
0.0
 10
57.37531080768499
 20
240.6689811673383
 30
0.0
 10
57.62665433011596
 20
241.1160970661587
 30
0.0
 10
57.91060774103733
 20
241.5355385212611
 30
0.0
 10
58.22690349638115
 20
241.9267232468417
 30
0.0
 10
58.57098315609979
 20
242.2841344719117
 30
0.0
 10
58.94268737814451
 20
242.6073645052467
 30
0.0
 10
59.33661266041404
 20
242.8918914592905
 30
0.0
 10
59.7524230385758
 20
243.137190173246
 30
0.0
 10
60.18438839174015
 20
243.3400500055473
 30
0.0
 10
60.63156957606527
 20
243.4999784908285
 30
0.0
 10
61.08854019223836
 20
243.6142120873264
 30
0.0
 10
61.55332431444081
 20
243.6861119545932
 30
0.0
 10
61.86536570090716
 20
243.6950716338436
 30
0.0
 10
62.02138566197695
 20
243.6995514524461
 30
0.0
 11
62.02138566197695
 21
243.6995514524461
 31
0.0
 11
62.48868699503134
 21
243.6764015274963
 31
0.0
 11
62.95145768639335
 21
243.6074533496221
 31
0.0
 11
63.40898259163686
 21
243.4925501879262
 31
0.0
 11
63.85326994298706
 21
243.3339573954006
 31
0.0
 11
64.28683515228018
 21
243.130557418022
 31
0.0
 11
64.69942132268045
 21
242.887373625955
 31
0.0
 11
65.09550381990522
 21
242.6016128844469
 31
0.0
 11
65.46420194397484
 21
242.2812712631376
 31
0.0
 11
65.81046332553636
 21
241.9219702411798
 31
0.0
 11
66.12437433468975
 21
241.5340664205399
 31
0.0
 11
66.41011305907026
 21
241.1123989393673
 31
0.0
 11
66.65987949079675
 21
240.6684625392005
 31
0.0
 11
66.87638345692999
 21
240.1975351707978
 31
0.0
 11
67.05444635910627
 21
239.7107605550372
 31
0.0
 11
67.19524454690236
 21
239.2051425849027
 31
0.0
 11
67.29608622498506
 21
238.690059758218
 31
0.0
 11
67.35710815609073
 21
238.165289578493
 31
0.0
 11
67.37745698338406
 21
237.637373625955
 31
0.0
 11
67.35710815609075
 21
237.109457673417
 31
0.0
 11
67.29608622498506
 21
236.5846874936919
 31
0.0
 11
67.19524454690236
 21
236.0696046670073
 31
0.0
 11
67.05444635910627
 21
235.5639866968728
 31
0.0
 11
66.87638345692999
 21
235.0772120811123
 31
0.0
 11
66.65987949079675
 21
234.6062847127095
 31
0.0
 11
66.41011305907026
 21
234.1623483125426
 31
0.0
 11
66.12437433468975
 21
233.74068083137
 31
0.0
 11
65.81046332553638
 21
233.3527770107301
 31
0.0
 11
65.46420194397484
 21
232.9934759887724
 31
0.0
 11
65.0955038199052
 21
232.6731343674632
 31
0.0
 11
64.69942132268045
 21
232.387373625955
 31
0.0
 11
64.28683515228016
 21
232.144189833888
 31
0.0
 11
63.85326994298706
 21
231.9407898565094
 31
0.0
 11
63.40898259163686
 21
231.7821970639838
 31
0.0
 11
62.95145768639335
 21
231.6672939022879
 31
0.0
 11
62.48868699503134
 21
231.5983457244137
 31
0.0
 11
62.02138566197695
 21
231.5751957994639
 31
0.0
 11
61.55408432892251
 21
231.5983457244137
 31
0.0
 11
61.09131363756046
 21
231.6672939022879
 31
0.0
 11
60.63378873231695
 21
231.7821970639839
 31
0.0
 11
60.18950138096676
 21
231.9407898565094
 31
0.0
 11
59.75593617167365
 21
232.144189833888
 31
0.0
 11
59.34335000127337
 21
232.387373625955
 31
0.0
 11
58.94726750404865
 21
232.6731343674632
 31
0.0
 11
58.57856937997906
 21
232.9934759887724
 31
0.0
 11
58.23230799841749
 21
233.3527770107301
 31
0.0
 11
57.91839698926407
 21
233.74068083137
 31
0.0
 11
57.63265826488353
 21
234.1623483125427
 31
0.0
 11
57.38289183315706
 21
234.6062847127095
 31
0.0
 11
57.16638786702388
 21
235.0772120811122
 31
0.0
 11
56.98832496484766
 21
235.5639866968728
 31
0.0
 11
56.8475267770516
 21
236.0696046670073
 31
0.0
 11
56.74668509896887
 21
236.5846874936919
 31
0.0
 11
56.68566316786312
 21
237.109457673417
 31
0.0
 11
56.66531434056975
 21
237.637373625955
 31
0.0
 11
56.68566316786313
 21
238.165289578493
 31
0.0
 11
56.74668509896887
 21
238.690059758218
 31
0.0
 11
56.84752677705161
 21
239.2051425849026
 31
0.0
 11
56.98832496484766
 21
239.7107605550372
 31
0.0
 11
57.16638786702389
 21
240.1975351707978
 31
0.0
 11
57.38289183315706
 21
240.6684625392005
 31
0.0
 11
57.63265826488354
 21
241.1123989393673
 31
0.0
 11
57.91839698926407
 21
241.5340664205399
 31
0.0
 11
58.2323079984175
 21
241.9219702411799
 31
0.0
 11
58.57856937997906
 21
242.2812712631376
 31
0.0
 11
58.94726750404865
 21
242.6016128844468
 31
0.0
 11
59.34335000127337
 21
242.887373625955
 31
0.0
 11
59.75593617167365
 21
243.130557418022
 31
0.0
 11
60.18950138096676
 21
243.3339573954006
 31
0.0
 11
60.63378873231696
 21
243.4925501879262
 31
0.0
 11
61.09131363756046
 21
243.6074533496221
 31
0.0
 11
61.55408432892251
 21
243.6764015274963
 31
0.0
 11
62.02138566197695
 21
243.6995514524461
 31
0.0
  0
SPLINE
  5
108
330
42
100
AcDbEntity
  8
1
  6
Continuous
 62
     7
100
AcDbSpline
210
0.0
220
0.0
230
1.0
 70
    11
 71
     3
 72
    79
 73
    75
 74
    73
 42
0.0000000001
 43
0.0000000001
 44
0.00000001
 40
0.0
 40
0.0
 40
0.0
 40
0.0
 40
0.4678744007739625
 40
0.935753192787278
 40
1.40748593013523
 40
1.879230484328319
 40
2.358135841895965
 40
2.83705723913111
 40
3.325463367261267
 40
3.813886402176197
 40
4.312879557180144
 40
4.81188806986781
 40
5.321250498094523
 40
5.830625406988217
 40
6.348936658710703
 40
6.867256949342166
 40
7.392112797561127
 40
7.916974076742573
 40
8.445280254639931
 40
8.973588240303863
 40
9.501896225967824
 40
10.03020240386527
 40
10.55506368304666
 40
11.07991953126557
 40
11.59823982189698
 40
12.11655107361951
 40
12.62592598251326
 40
13.13528841074002
 40
13.63429692342766
 40
14.13329007843157
 40
14.62171311334646
 40
15.11011924147663
 40
15.58904063871177
 40
16.06794599627942
 40
16.53969055047251
 40
17.01142328782047
 40
17.47930207983378
 40
17.94717648060775
 40
18.41505088138177
 40
18.88292967339514
 40
19.35466241074311
 40
19.82640696493619
 40
20.30531232250385
 40
20.78423371973896
 40
21.27263984786908
 40
21.76106288278395
 40
22.26005603778789
 40
22.75906455047558
 40
23.26842697870239
 40
23.77780188759608
 40
24.29611313931855
 40
24.81443342995
 40
25.33928927816893
 40
25.8641505573503
 40
26.39245673524775
 40
26.92076472091171
 40
27.44907270657567
 40
27.97737888447301
 40
28.5022401636544
 40
29.02709601187341
 40
29.54541630250486
 40
30.06372755422733
 40
30.573102463121
 40
31.08246489134774
 40
31.58147340403546
 40
32.08046655903943
 40
32.56888959395431
 40
33.05729572208443
 40
33.53621711931957
 40
34.01512247688721
 40
34.48686703108029
 40
34.95859976842825
 40
35.42647856044163
 40
35.89435296121565
 40
35.89435296121565
 40
35.89435296121565
 40
35.89435296121565
 10
50.02138566197695
 20
243.6995514524461
 30
0.0
 10
49.86536570090717
 20
243.6950716338436
 30
0.0
 10
49.55332431444085
 20
243.6861119545932
 30
0.0
 10
49.08854019223844
 20
243.6142120873264
 30
0.0
 10
48.63156957606535
 20
243.4999784908285
 30
0.0
 10
48.18438839174029
 20
243.3400500055474
 30
0.0
 10
47.75242303857586
 20
243.137190173246
 30
0.0
 10
47.33661266041413
 20
242.8918914592904
 30
0.0
 10
46.9426873781445
 20
242.6073645052468
 30
0.0
 10
46.57098315609981
 20
242.2841344719117
 30
0.0
 10
46.22690349638119
 20
241.9267232468417
 30
0.0
 10
45.91060774103742
 20
241.5355385212611
 30
0.0
 10
45.62665433011605
 20
241.1160970661587
 30
0.0
 10
45.3753108076851
 20
240.6689811673383
 30
0.0
 10
45.15997633269483
 20
240.2001656759901
 30
0.0
 10
44.98110970002038
 20
239.7107894935539
 30
0.0
 10
44.84086547440082
 20
239.2067132155947
 30
0.0
 10
44.73978093875376
 20
238.6899717648665
 30
0.0
 10
44.67888388381586
 20
238.1658115262332
 30
0.0
 10
44.65852955733876
 20
237.6373736259546
 30
0.0
 10
44.67888388381585
 20
237.1089357256786
 30
0.0
 10
44.73978093875375
 20
236.5847754870368
 30
0.0
 10
44.8408654744008
 20
236.0680340363397
 30
0.0
 10
44.98110970002038
 20
235.5639577582658
 30
0.0
 10
45.15997633269485
 20
235.0745815762519
 30
0.0
 10
45.3753108076851
 20
234.6057660833419
 30
0.0
 10
45.62665433011605
 20
234.1586501902531
 30
0.0
 10
45.9106077410374
 20
233.7392087139829
 30
0.0
 10
46.2269034963812
 20
233.3480240658624
 30
0.0
 10
46.5709831560998
 20
232.9906125549954
 30
0.0
 10
46.94268737814455
 20
232.6673835666367
 30
0.0
 10
47.3366126604141
 20
232.3828527554896
 30
0.0
 10
47.75242303857589
 20
232.1375681690424
 30
0.0
 10
48.18438839174027
 20
231.9346560925247
 30
0.0
 10
48.63156957606535
 20
231.7749198005801
 30
0.0
 10
49.08854019223844
 20
231.6599731552614
 30
0.0
 10
49.55332431444086
 20
231.5907137460827
 30
0.0
 10
50.02138566197696
 20
231.5674368625652
 30
0.0
 10
50.4894470095131
 20
231.5907137460828
 30
0.0
 10
50.95423113171557
 20
231.6599731552613
 30
0.0
 10
51.41120174788868
 20
231.7749198005802
 30
0.0
 10
51.85838293221376
 20
231.9346560925247
 30
0.0
 10
52.29034828537813
 20
232.1375681690425
 30
0.0
 10
52.70615866353987
 20
232.3828527554895
 30
0.0
 10
53.10008394580941
 20
232.6673835666367
 30
0.0
 10
53.47178816785411
 20
232.9906125549955
 30
0.0
 10
53.81586782757276
 20
233.3480240658625
 30
0.0
 10
54.13216358291665
 20
233.7392087139829
 30
0.0
 10
54.41611699383795
 20
234.1586501902531
 30
0.0
 10
54.66746051626894
 20
234.605766083342
 30
0.0
 10
54.88279499125915
 20
235.0745815762517
 30
0.0
 10
55.06166162393356
 20
235.563957758266
 30
0.0
 10
55.20190584955311
 20
236.0680340363396
 30
0.0
 10
55.30299038520017
 20
236.5847754870368
 30
0.0
 10
55.36388744013814
 20
237.1089357256786
 30
0.0
 10
55.38424176661525
 20
237.6373736259545
 30
0.0
 10
55.36388744013811
 20
238.1658115262332
 30
0.0
 10
55.30299038520016
 20
238.6899717648666
 30
0.0
 10
55.20190584955309
 20
239.2067132155945
 30
0.0
 10
55.06166162393355
 20
239.7107894935539
 30
0.0
 10
54.88279499125918
 20
240.2001656759902
 30
0.0
 10
54.66746051626895
 20
240.6689811673382
 30
0.0
 10
54.41611699383797
 20
241.1160970661587
 30
0.0
 10
54.13216358291658
 20
241.5355385212611
 30
0.0
 10
53.81586782757278
 20
241.9267232468416
 30
0.0
 10
53.4717881678541
 20
242.2841344719117
 30
0.0
 10
53.10008394580944
 20
242.6073645052467
 30
0.0
 10
52.70615866353988
 20
242.8918914592905
 30
0.0
 10
52.29034828537813
 20
243.137190173246
 30
0.0
 10
51.85838293221376
 20
243.3400500055474
 30
0.0
 10
51.41120174788868
 20
243.4999784908284
 30
0.0
 10
50.95423113171555
 20
243.6142120873264
 30
0.0
 10
50.48944700951311
 20
243.6861119545932
 30
0.0
 10
50.17740562304676
 20
243.6950716338436
 30
0.0
 10
50.02138566197695
 20
243.6995514524461
 30
0.0
 11
50.02138566197695
 21
243.6995514524461
 31
0.0
 11
49.55408432892256
 21
243.6764015274963
 31
0.0
 11
49.09131363756055
 21
243.6074533496221
 31
0.0
 11
48.63378873231705
 21
243.4925501879262
 31
0.0
 11
48.18950138096685
 21
243.3339573954006
 31
0.0
 11
47.75593617167373
 21
243.130557418022
 31
0.0
 11
47.34335000127345
 21
242.887373625955
 31
0.0
 11
46.94726750404868
 21
242.6016128844469
 31
0.0
 11
46.57856937997906
 21
242.2812712631376
 31
0.0
 11
46.23230799841754
 21
241.9219702411798
 31
0.0
 11
45.91839698926415
 21
241.5340664205399
 31
0.0
 11
45.63265826488365
 21
241.1123989393673
 31
0.0
 11
45.38289183315715
 21
240.6684625392005
 31
0.0
 11
45.16638786702394
 21
240.1975351707978
 31
0.0
 11
44.98832496484766
 21
239.7107605550372
 31
0.0
 11
44.84752677705158
 21
239.2051425849027
 31
0.0
 11
44.74668509896887
 21
238.690059758218
 31
0.0
 11
44.68566316786319
 21
238.165289578493
 31
0.0
 11
44.66531434056986
 21
237.637373625955
 31
0.0
 11
44.68566316786318
 21
237.109457673417
 31
0.0
 11
44.74668509896887
 21
236.5846874936919
 31
0.0
 11
44.84752677705158
 21
236.0696046670073
 31
0.0
 11
44.98832496484766
 21
235.5639866968728
 31
0.0
 11
45.16638786702394
 21
235.0772120811123
 31
0.0
 11
45.38289183315715
 21
234.6062847127095
 31
0.0
 11
45.63265826488365
 21
234.1623483125426
 31
0.0
 11
45.91839698926415
 21
233.74068083137
 31
0.0
 11
46.23230799841754
 21
233.3527770107301
 31
0.0
 11
46.57856937997906
 21
232.9934759887724
 31
0.0
 11
46.94726750404869
 21
232.6731343674632
 31
0.0
 11
47.34335000127345
 21
232.387373625955
 31
0.0
 11
47.75593617167374
 21
232.144189833888
 31
0.0
 11
48.18950138096685
 21
231.9407898565094
 31
0.0
 11
48.63378873231706
 21
231.7821970639838
 31
0.0
 11
49.09131363756055
 21
231.6672939022879
 31
0.0
 11
49.55408432892256
 21
231.5983457244137
 31
0.0
 11
50.02138566197695
 21
231.5751957994639
 31
0.0
 11
50.4886869950314
 21
231.5983457244137
 31
0.0
 11
50.95145768639347
 21
231.6672939022879
 31
0.0
 11
51.40898259163697
 21
231.7821970639839
 31
0.0
 11
51.85326994298717
 21
231.9407898565094
 31
0.0
 11
52.28683515228029
 21
232.144189833888
 31
0.0
 11
52.69942132268056
 21
232.387373625955
 31
0.0
 11
53.09550381990525
 21
232.6731343674632
 31
0.0
 11
53.46420194397484
 21
232.9934759887724
 31
0.0
 11
53.81046332553642
 21
233.3527770107301
 31
0.0
 11
54.12437433468986
 21
233.74068083137
 31
0.0
 11
54.41011305907039
 21
234.1623483125427
 31
0.0
 11
54.65987949079687
 21
234.6062847127095
 31
0.0
 11
54.87638345693005
 21
235.0772120811122
 31
0.0
 11
55.05444635910627
 21
235.5639866968728
 31
0.0
 11
55.19524454690234
 21
236.0696046670073
 31
0.0
 11
55.29608622498506
 21
236.5846874936919
 31
0.0
 11
55.3571081560908
 21
237.109457673417
 31
0.0
 11
55.37745698338415
 21
237.637373625955
 31
0.0
 11
55.35710815609079
 21
238.165289578493
 31
0.0
 11
55.29608622498506
 21
238.690059758218
 31
0.0
 11
55.19524454690234
 21
239.2051425849026
 31
0.0
 11
55.05444635910627
 21
239.7107605550372
 31
0.0
 11
54.87638345693005
 21
240.1975351707978
 31
0.0
 11
54.65987949079687
 21
240.6684625392005
 31
0.0
 11
54.41011305907038
 21
241.1123989393673
 31
0.0
 11
54.12437433468986
 21
241.5340664205399
 31
0.0
 11
53.81046332553642
 21
241.9219702411799
 31
0.0
 11
53.46420194397484
 21
242.2812712631376
 31
0.0
 11
53.09550381990526
 21
242.6016128844468
 31
0.0
 11
52.69942132268056
 21
242.887373625955
 31
0.0
 11
52.28683515228028
 21
243.130557418022
 31
0.0
 11
51.85326994298717
 21
243.3339573954006
 31
0.0
 11
51.40898259163697
 21
243.4925501879262
 31
0.0
 11
50.95145768639347
 21
243.6074533496221
 31
0.0
 11
50.4886869950314
 21
243.6764015274963
 31
0.0
 11
50.02138566197695
 21
243.6995514524461
 31
0.0
  0
ENDBLK
  5
44
330
42
100
AcDbEntity
  8
0
100
AcDbBlockEnd
  0
BLOCK
  5
46
330
45
100
AcDbEntity
  8
0
100
AcDbBlockBegin
  2
_J__A4
 70
     0
 71
     0
 10
0.0
 20
0.0
 30
0.0
  3
_J__A4
  1

  0
POINT
  5
109
330
45
100
AcDbEntity
  8
1
 62
     4
100
AcDbPoint
 10
93.75
 20
17.0
 30
0.0
  0
POINT
  5
10A
330
45
100
AcDbEntity
  8
1
 62
     4
100
AcDbPoint
 10
85.25
 20
17.0
 30
0.0
  0
POINT
  5
10B
330
45
100
AcDbEntity
  8
1
 62
     4
100
AcDbPoint
 10
106.5
 20
19.00000000000001
 30
0.0
  0
POINT
  5
10C
330
45
100
AcDbEntity
  8
1
 62
     4
100
AcDbPoint
 10
106.5
 20
12.5
 30
0.0
  0
POINT
  5
10D
330
45
100
AcDbEntity
  8
1
 62
     4
100
AcDbPoint
 10
112.25
 20
12.5
 30
0.0
  0
POINT
  5
10E
330
45
100
AcDbEntity
  8
1
 62
     4
100
AcDbPoint
 10
100.75
 20
12.5
 30
0.0
  0
POINT
  5
10F
330
45
100
AcDbEntity
  8
1
 62
     4
100
AcDbPoint
 10
123.5
 20
19.00000000000001
 30
0.0
  0
POINT
  5
110
330
45
100
AcDbEntity
  8
1
 62
     4
100
AcDbPoint
 10
123.5
 20
12.5
 30
0.0
  0
POINT
  5
111
330
45
100
AcDbEntity
  8
1
 62
     4
100
AcDbPoint
 10
129.25
 20
12.5
 30
0.0
  0
POINT
  5
112
330
45
100
AcDbEntity
  8
1
 62
     4
100
AcDbPoint
 10
117.75
 20
12.5
 30
0.0
  0
POINT
  5
113
330
45
100
AcDbEntity
  8
1
 62
     4
100
AcDbPoint
 10
140.5
 20
19.00000000000001
 30
0.0
  0
POINT
  5
114
330
45
100
AcDbEntity
  8
1
 62
     4
100
AcDbPoint
 10
140.5
 20
12.5
 30
0.0
  0
POINT
  5
115
330
45
100
AcDbEntity
  8
1
 62
     4
100
AcDbPoint
 10
146.25
 20
12.5
 30
0.0
  0
POINT
  5
116
330
45
100
AcDbEntity
  8
1
 62
     4
100
AcDbPoint
 10
134.75
 20
12.5
 30
0.0
  0
POINT
  5
117
330
45
100
AcDbEntity
  8
1
 62
     4
100
AcDbPoint
 10
151.75
 20
12.5
 30
0.0
  0
POINT
  5
118
330
45
100
AcDbEntity
  8
1
 62
     4
100
AcDbPoint
 10
163.25
 20
12.5
 30
0.0
  0
POINT
  5
119
330
45
100
AcDbEntity
  8
1
 62
     4
100
AcDbPoint
 10
157.5
 20
12.5
 30
0.0
  0
POINT
  5
11A
330
45
100
AcDbEntity
  8
1
 62
     4
100
AcDbPoint
 10
57.0
 20
14.25
 30
0.0
  0
POINT
  5
11B
330
45
100
AcDbEntity
  8
1
 62
     4
100
AcDbPoint
 10
57.0
 20
22.75000000000001
 30
0.0
  0
POINT
  5
11C
330
45
100
AcDbEntity
  8
1
 62
     4
100
AcDbPoint
 10
47.5
 20
282.0000000000003
 30
0.0
  0
POINT
  5
11D
330
45
100
AcDbEntity
  8
1
 62
     4
100
AcDbPoint
 10
157.5
 20
19.00000000000001
 30
0.0
  0
POINT
  5
11E
330
45
100
AcDbEntity
  8
1
 62
     4
100
AcDbPoint
 10
57.0
 20
16.25
 30
0.0
  0
POINT
  5
11F
330
45
100
AcDbEntity
  8
1
 62
     4
100
AcDbPoint
 10
57.0
 20
24.75000000000001
 30
0.0
  0
POINT
  5
120
330
45
100
AcDbEntity
  8
1
 62
     4
100
AcDbPoint
 10
57.0
 20
20.75000000000001
 30
0.0
  0
POINT
  5
121
330
45
100
AcDbEntity
  8
1
 62
     4
100
AcDbPoint
 10
57.0
 20
12.25
 30
0.0
  0
POINT
  5
122
330
45
100
AcDbEntity
  8
1
 62
     4
100
AcDbPoint
 10
34.0
 20
34.00000000000001
 30
0.0
  0
LINE
  5
123
330
45
100
AcDbEntity
  8
1
  6
Continuous
 62
     7
100
AcDbLine
 10
105.0
 20
10.0
 30
0.0
 11
200.0
 21
10.0
 31
0.0
  0
LINE
  5
124
330
45
100
AcDbEntity
  8
1
  6
Continuous
 62
     2
100
AcDbLine
 10
105.0
 20
10.0
 30
0.0
 11
105.0
 21
5.0
 31
0.0
  0
LINE
  5
125
330
45
100
AcDbEntity
  8
1
  6
Continuous
 62
     7
100
AcDbLine
 10
200.0
 20
148.5
 30
0.0
 11
200.0
 21
287.0000000000003
 31
0.0
  0
LINE
  5
126
330
45
100
AcDbEntity
  8
1
  6
Continuous
 62
     2
100
AcDbLine
 10
200.0
 20
148.5
 30
0.0
 11
205.0
 21
148.5
 31
0.0
  0
LINE
  5
127
330
45
100
AcDbEntity
  8
1
  6
Continuous
 62
     7
100
AcDbLine
 10
25.0
 20
148.5
 30
0.0
 11
25.0
 21
287.0000000000003
 31
0.0
  0
LINE
  5
128
330
45
100
AcDbEntity
  8
1
  6
Continuous
 62
     2
100
AcDbLine
 10
25.0
 20
148.5
 30
0.0
 11
20.0
 21
148.5
 31
0.0
  0
LINE
  5
129
330
45
100
AcDbEntity
  8
1
  6
Continuous
 62
     7
100
AcDbLine
 10
105.0
 20
287.0000000000003
 30
0.0
 11
25.0
 21
287.0000000000003
 31
0.0
  0
LINE
  5
12A
330
45
100
AcDbEntity
  8
1
  6
Continuous
 62
     2
100
AcDbLine
 10
105.0
 20
287.0000000000003
 30
0.0
 11
105.0
 21
292.0000000000003
 31
0.0
  0
LINE
  5
12B
330
45
100
AcDbEntity
  8
1
  6
Continuous
 62
     2
100
AcDbLine
 10
166.0
 20
20.00000000000001
 30
0.0
 11
200.0
 21
20.00000000000001
 31
0.0
  0
LINE
  5
12C
330
45
100
AcDbEntity
  8
1
  6
Continuous
 62
     2
100
AcDbLine
 10
98.0
 20
27.00000000000001
 30
0.0
 11
98.0
 21
9.99999999999999
 31
0.0
  0
LINE
  5
12D
330
45
100
AcDbEntity
  8
1
  6
Continuous
 62
     2
100
AcDbLine
 10
115.0
 20
27.00000000000001
 30
0.0
 11
115.0
 21
9.99999999999999
 31
0.0
  0
LINE
  5
12E
330
45
100
AcDbEntity
  8
1
  6
Continuous
 62
     2
100
AcDbLine
 10
149.0
 20
27.00000000000001
 30
0.0
 11
149.0
 21
10.0
 31
0.0
  0
LINE
  5
12F
330
45
100
AcDbEntity
  8
1
  6
Continuous
 62
     2
100
AcDbLine
 10
132.0
 20
27.00000000000001
 30
0.0
 11
132.0
 21
9.99999999999999
 31
0.0
  0
LINE
  5
130
330
45
100
AcDbEntity
  8
1
  6
Continuous
 62
     2
100
AcDbLine
 10
166.0
 20
27.00000000000001
 30
0.0
 11
166.0
 21
10.0
 31
0.0
  0
LINE
  5
131
330
45
100
AcDbEntity
  8
1
  6
Continuous
 62
     2
100
AcDbLine
 10
55.0
 20
277.0000000000003
 30
0.0
 11
25.0
 21
277.0000000000003
 31
0.0
  0
LINE
  5
132
330
45
100
AcDbEntity
  8
1
  6
Continuous
 62
     7
100
AcDbLine
 10
25.0
 20
10.0
 30
0.0
 11
25.0
 21
148.5
 31
0.0
  0
LINE
  5
133
330
45
100
AcDbEntity
  8
1
  6
Continuous
 62
     2
100
AcDbLine
 10
40.0
 20
287.0000000000003
 30
0.0
 11
40.0
 21
277.0000000000003
 31
0.0
  0
LINE
  5
134
330
45
100
AcDbEntity
  8
1
  6
Continuous
 62
     2
100
AcDbLine
 10
55.0
 20
287.0000000000003
 30
0.0
 11
55.0
 21
277.0000000000003
 31
0.0
  0
LINE
  5
135
330
45
100
AcDbEntity
  8
1
  6
Continuous
 62
     2
100
AcDbLine
 10
33.0
 20
41.00000000000001
 30
0.0
 11
33.0
 21
27.0
 31
0.0
  0
LINE
  5
136
330
45
100
AcDbEntity
  8
1
  6
Continuous
 62
     7
100
AcDbLine
 10
200.0
 20
27.00000000000001
 30
0.0
 11
25.0
 21
27.00000000000001
 31
0.0
  0
LINE
  5
137
330
45
100
AcDbEntity
  8
1
  6
Continuous
 62
     7
100
AcDbLine
 10
25.0
 20
41.0
 30
0.0
 11
200.0
 21
41.0
 31
0.0
  0
LINE
  5
138
330
45
100
AcDbEntity
  8
1
  6
PHANTOM
 62
     4
100
AcDbLine
 10
0.0
 20
0.0
 30
0.0
 11
210.0
 21
0.0
 31
0.0
  0
LINE
  5
139
330
45
100
AcDbEntity
  8
1
  6
PHANTOM
 62
     4
100
AcDbLine
 10
210.0
 20
0.0
 30
0.0
 11
210.0
 21
297.0
 31
0.0
  0
LINE
  5
13A
330
45
100
AcDbEntity
  8
1
  6
PHANTOM
 62
     4
100
AcDbLine
 10
210.0
 20
297.0
 30
0.0
 11
0.0
 21
297.0
 31
0.0
  0
LINE
  5
13B
330
45
100
AcDbEntity
  8
1
  6
PHANTOM
 62
     4
100
AcDbLine
 10
0.0
 20
297.0
 30
0.0
 11
0.0
 21
0.0
 31
0.0
  0
LINE
  5
13C
330
45
100
AcDbEntity
  8
1
  6
Continuous
 62
     7
100
AcDbLine
 10
25.0
 20
10.0
 30
0.0
 11
105.0
 21
10.0
 31
0.0
  0
LINE
  5
13D
330
45
100
AcDbEntity
  8
1
  6
Continuous
 62
     7
100
AcDbLine
 10
200.0
 20
10.0
 30
0.0
 11
200.0
 21
148.5
 31
0.0
  0
LINE
  5
13E
330
45
100
AcDbEntity
  8
1
  6
Continuous
 62
     7
100
AcDbLine
 10
200.0
 20
287.0000000000003
 30
0.0
 11
105.0
 21
287.0000000000003
 31
0.0
  0
LINE
  5
13F
330
45
100
AcDbEntity
  8
1
  6
Continuous
 62
     2
100
AcDbLine
 10
25.0
 20
18.50000000000001
 30
0.0
 11
81.0
 21
18.50000000000001
 31
0.0
  0
LINE
  5
140
330
45
100
AcDbEntity
  8
1
  6
Continuous
 62
     2
100
AcDbLine
 10
33.0
 20
27.0
 30
0.0
 11
33.0
 21
10.0
 31
0.0
  0
LINE
  5
141
330
45
100
AcDbEntity
  8
1
  6
Continuous
 62
     7
100
AcDbLine
 10
191.0
 20
24.70000000000001
 30
0.0
 11
191.0
 21
22.30000000000001
 31
0.0
  0
LINE
  5
142
330
45
100
AcDbEntity
  8
1
  6
Continuous
 62
     7
100
AcDbLine
 10
191.0
 20
24.70000000000001
 30
0.0
 11
196.0
 21
25.50000000000001
 31
0.0
  0
LINE
  5
143
330
45
100
AcDbEntity
  8
1
  6
Continuous
 62
     7
100
AcDbLine
 10
196.0
 20
25.50000000000001
 30
0.0
 11
196.0
 21
21.50000000000001
 31
0.0
  0
LINE
  5
144
330
45
100
AcDbEntity
  8
1
  6
Continuous
 62
     7
100
AcDbLine
 10
196.0
 20
21.50000000000001
 30
0.0
 11
191.0
 21
22.30000000000001
 31
0.0
  0
LINE
  5
145
330
45
100
AcDbEntity
  8
1
  6
DOT_CENTER
 62
     2
100
AcDbLine
 10
184.0
 20
23.50000000000001
 30
0.0
 11
197.0
 21
23.50000000000001
 31
0.0
  0
LINE
  5
146
330
45
100
AcDbEntity
  8
1
  6
DOT_CENTER
 62
     2
100
AcDbLine
 10
187.0
 20
26.50000000000001
 30
0.0
 11
187.0
 21
20.50000000000001
 31
0.0
  0
LINE
  5
147
330
45
100
AcDbEntity
  8
1
  6
Continuous
 62
     2
100
AcDbLine
 10
81.0
 20
27.00000000000001
 30
0.0
 11
81.0
 21
10.0
 31
0.0
  0
CIRCLE
  5
148
330
45
100
AcDbEntity
  8
1
  6
Continuous
 62
     7
100
AcDbCircle
 10
103.5
 20
12.5
 30
0.0
 40
0.2999999999999972
  0
CIRCLE
  5
149
330
45
100
AcDbEntity
  8
1
  6
Continuous
 62
     7
100
AcDbCircle
 10
109.5
 20
12.5
 30
0.0
 40
0.2999999999999972
  0
CIRCLE
  5
14A
330
45
100
AcDbEntity
  8
1
  6
Continuous
 62
     7
100
AcDbCircle
 10
120.5
 20
12.5
 30
0.0
 40
0.2999999999999972
  0
CIRCLE
  5
14B
330
45
100
AcDbEntity
  8
1
  6
Continuous
 62
     7
100
AcDbCircle
 10
126.5
 20
12.5
 30
0.0
 40
0.2999999999999972
  0
CIRCLE
  5
14C
330
45
100
AcDbEntity
  8
1
  6
Continuous
 62
     7
100
AcDbCircle
 10
137.5
 20
12.5
 30
0.0
 40
0.3000000000000114
  0
CIRCLE
  5
14D
330
45
100
AcDbEntity
  8
1
  6
Continuous
 62
     7
100
AcDbCircle
 10
143.5
 20
12.5
 30
0.0
 40
0.3000000000000114
  0
CIRCLE
  5
14E
330
45
100
AcDbEntity
  8
1
  6
Continuous
 62
     7
100
AcDbCircle
 10
160.5
 20
12.5
 30
0.0
 40
0.3000000000000114
  0
CIRCLE
  5
14F
330
45
100
AcDbEntity
  8
1
  6
Continuous
 62
     7
100
AcDbCircle
 10
154.5
 20
12.5
 30
0.0
 40
0.3000000000000114
  0
CIRCLE
  5
150
330
45
100
AcDbEntity
  8
1
  6
Continuous
 62
     7
100
AcDbCircle
 10
187.0
 20
23.50000000000001
 30
0.0
 40
1.200000000000102
  0
CIRCLE
  5
151
330
45
100
AcDbEntity
  8
1
  6
Continuous
 62
     7
100
AcDbCircle
 10
187.0
 20
23.50000000000001
 30
0.0
 40
2.0
  0
CIRCLE
  5
152
330
45
100
AcDbEntity
  8
1
  6
DOT_CENTER
 62
     7
100
AcDbCircle
 10
89.5
 20
16.0
 30
0.0
 40
0.1000000000000227
  0
CIRCLE
  5
153
330
45
100
AcDbEntity
  8
1
  6
DOT_CENTER
 62
     7
100
AcDbCircle
 10
89.5
 20
18.0
 30
0.0
 40
0.1000000000000227
  0
MTEXT
  5
155
330
45
100
AcDbEntity
  8
1
 62
     7
100
AcDbMText
 10
188.5
 20
15.0
 30
0.0
 40
3.0
 41
0.0
 71
     5
 72
     1
  1
三栄水栓製作所
  7
CONVERTER_1
 73
     1
 44
1.32052821128451
  0
MTEXT
  5
156
330
45
100
AcDbEntity
  8
1
 62
     7
100
AcDbMText
 10
171.5
 20
15.0
 30
0.0
 40
2.5
 41
0.0
 71
     5
 72
     1
  1
株式会社
  7
CONVERTER_1
 73
     1
 44
1.32052821128451
  0
MTEXT
  5
157
330
45
100
AcDbEntity
  8
1
 62
     2
100
AcDbMText
 10
32.5
 20
282.0000000000003
 30
0.0
 40
5.0
 41
0.0
 71
     5
 72
     1
  1
図番
  7
CONVERTER_1
 73
     1
 44
0.60024009603842
  0
MTEXT
  5
158
330
45
100
AcDbEntity
  8
1
 62
     2
100
AcDbMText
 10
29.0
 20
34.00000000000001
 30
0.0
 40
3.5
 41
0.0
 71
     5
 72
     1
  1
備考
  7
CONVERTER_1
 73
     1
 44
0.60024009603842
  0
MTEXT
  5
159
330
45
100
AcDbEntity
  8
1
 62
     2
100
AcDbMText
 10
29.0
 20
22.75
 30
0.0
 40
3.5
 41
0.0
 71
     5
 72
     1
  1
品名
  7
CONVERTER_1
 73
     1
 44
0.96038415366146
  0
MTEXT
  5
15A
330
45
100
AcDbEntity
  8
1
 62
     2
100
AcDbMText
 10
29.0
 20
14.25
 30
0.0
 40
3.5
 41
0.0
 71
     5
 72
     1
  1
品番
  7
CONVERTER_1
 73
     1
 44
0.96038415366146
  0
MTEXT
  5
15B
330
45
100
AcDbEntity
  8
1
 62
     2
100
AcDbMText
 10
101.5
 20
25.00000000000001
 30
0.0
 40
3.0
 41
0.0
 71
     5
 72
     1
  1
承認
  7
CONVERTER_1
 73
     1
 44
0.78031212484994
  0
MTEXT
  5
15C
330
45
100
AcDbEntity
  8
1
 62
     2
100
AcDbMText
 10
175.0
 20
23.50000000000001
 30
0.0
 40
3.5
 41
0.0
 71
     5
 72
     1
  1
第三角法
  7
CONVERTER_1
 73
     1
 44
0.7202881152461
  0
MTEXT
  5
15D
330
45
100
AcDbEntity
  8
1
 62
     2
100
AcDbMText
 10
118.5
 20
25.00000000000001
 30
0.0
 40
3.0
 41
0.0
 71
     5
 72
     1
  1
検図
  7
CONVERTER_1
 73
     1
 44
0.78031212484994
  0
MTEXT
  5
15E
330
45
100
AcDbEntity
  8
1
 62
     2
100
AcDbMText
 10
152.5
 20
25.00000000000001
 30
0.0
 40
3.0
 41
0.0
 71
     5
 72
     1
  1
設計
  7
CONVERTER_1
 73
     1
 44
0.78031212484994
  0
MTEXT
  5
15F
330
45
100
AcDbEntity
  8
1
 62
     2
100
AcDbMText
 10
135.5
 20
25.00000000000001
 30
0.0
 40
3.0
 41
0.0
 71
     5
 72
     1
  1
製図
  7
CONVERTER_1
 73
     1
 44
0.78031212484994
  0
MTEXT
  5
160
330
45
100
AcDbEntity
  8
1
 62
     2
100
AcDbMText
 10
89.5
 20
24.00000000000001
 30
0.0
 40
3.5
 41
0.0
 71
     5
 72
     1
  1
尺度
  7
CONVERTER_1
 73
     1
 44
0.7202881152461
  0
MTEXT
  5
161
330
45
100
AcDbEntity
  8
1
 62
   250
100
AcDbMText
 10
25.0
 20
5.0
 30
0.0
 40
3.5
 41
0.0
 71
     4
 72
     1
  1
備考欄の文字列 原点位置=4
  7
CONVERTER_1
 73
     1
 44
0.7202881152461
  0
ENDBLK
  5
47
330
45
100
AcDbEntity
  8
0
100
AcDbBlockEnd
  0
BLOCK
  5
187
330
180
100
AcDbEntity
  8
0
100
AcDbBlockBegin
  2
*D07
 70
     1
 71
     0
 10
0.0
 20
0.0
 30
0.0
  3
*D07
  1

  0
LINE
  5
181
330
180
100
AcDbEntity
  8
1
  6
Continuous
 62
     2
100
AcDbLine
 10
105.021385661977
 20
67.91195469378022
 30
0.0
 11
135.021385661977
 21
67.91195469378022
 31
0.0
  0
LINE
  5
182
330
180
100
AcDbEntity
  8
1
  6
Continuous
 62
     2
100
AcDbLine
 10
135.021385661977
 20
74.9119546937802
 30
0.0
 11
135.021385661977
 21
66.91195469378022
 31
0.0
  0
LINE
  5
183
330
180
100
AcDbEntity
  8
1
  6
Continuous
 62
     2
100
AcDbLine
 10
105.021385661977
 20
81.5964546937802
 30
0.0
 11
105.021385661977
 21
66.91195469378022
 31
0.0
  0
SOLID
  5
184
330
180
100
AcDbEntity
  8
1
 62
     2
100
AcDbTrace
 10
108.521385661977
 20
68.3727384353361
 30
0.0
 11
108.521385661977
 21
67.45117095222433
 31
0.0
 12
105.021385661977
 22
67.91195469378022
 32
0.0
 13
105.021385661977
 23
67.91195469378022
 33
0.0
  0
SOLID
  5
185
330
180
100
AcDbEntity
  8
1
 62
     2
100
AcDbTrace
 10
131.521385661977
 20
67.45117095222433
 30
0.0
 11
131.521385661977
 21
68.3727384353361
 31
0.0
 12
135.021385661977
 22
67.91195469378022
 32
0.0
 13
135.021385661977
 23
67.91195469378022
 33
0.0
  0
MTEXT
  5
186
330
180
100
AcDbEntity
  8
1
 62
     7
100
AcDbMText
 10
117.396385661977
 20
68.91195469378022
 30
0.0
 40
3.5
 41
0.0
 71
     7
 72
     1
  1
30
  7
CONVERTER_2
 11
0.9999999999970621
 21
2.424068405545307E-6
 31
0.0
 73
     1
 44
0.60024009603842
  0
ENDBLK
  5
188
330
180
100
AcDbEntity
  8
0
100
AcDbBlockEnd
  0
BLOCK
  5
192
330
18B
100
AcDbEntity
  8
0
100
AcDbBlockBegin
  2
*D18
 70
     1
 71
     0
 10
0.0
 20
0.0
 30
0.0
  3
*D18
  1

  0
LINE
  5
18C
330
18B
100
AcDbEntity
  8
1
  6
Continuous
 62
     2
100
AcDbLine
 10
135.021385661977
 20
67.91195469378022
 30
0.0
 11
179.521385661977
 21
67.91195469378022
 31
0.0
  0
LINE
  5
18D
330
18B
100
AcDbEntity
  8
1
  6
Continuous
 62
     2
100
AcDbLine
 10
179.521385661977
 20
79.55171167213571
 30
0.0
 11
179.521385661977
 21
66.91195469378022
 31
0.0
  0
LINE
  5
18E
330
18B
100
AcDbEntity
  8
1
  6
Continuous
 62
     2
100
AcDbLine
 10
135.021385661977
 20
74.9119546937802
 30
0.0
 11
135.021385661977
 21
66.91195469378022
 31
0.0
  0
SOLID
  5
18F
330
18B
100
AcDbEntity
  8
1
 62
     2
100
AcDbTrace
 10
138.521385661977
 20
68.3727384353361
 30
0.0
 11
138.521385661977
 21
67.45117095222433
 31
0.0
 12
135.021385661977
 22
67.91195469378022
 32
0.0
 13
135.021385661977
 23
67.91195469378022
 33
0.0
  0
SOLID
  5
190
330
18B
100
AcDbEntity
  8
1
 62
     2
100
AcDbTrace
 10
176.021385661977
 20
67.45117095222433
 30
0.0
 11
176.021385661977
 21
68.3727384353361
 31
0.0
 12
179.521385661977
 22
67.91195469378022
 32
0.0
 13
179.521385661977
 23
67.91195469378022
 33
0.0
  0
MTEXT
  5
191
330
18B
100
AcDbEntity
  8
1
 62
     7
100
AcDbMText
 10
154.646385661977
 20
68.91195469378022
 30
0.0
 40
3.5
 41
0.0
 71
     7
 72
     1
  1
45
  7
CONVERTER_2
 11
0.9999999999970621
 21
2.424068405545307E-6
 31
0.0
 73
     1
 44
0.60024009603842
  0
ENDBLK
  5
193
330
18B
100
AcDbEntity
  8
0
100
AcDbBlockEnd
  0
BLOCK
  5
19D
330
196
100
AcDbEntity
  8
0
100
AcDbBlockBegin
  2
*D29
 70
     1
 71
     0
 10
0.0
 20
0.0
 30
0.0
  3
*D29
  1

  0
LINE
  5
197
330
196
100
AcDbEntity
  8
1
  6
Continuous
 62
     2
100
AcDbLine
 10
95.02138566197701
 20
90.91195469378019
 30
0.0
 11
95.02138566197701
 21
132.9119546937802
 31
0.0
  0
LINE
  5
198
330
196
100
AcDbEntity
  8
1
  6
Continuous
 62
     2
100
AcDbLine
 10
102.9038415070354
 20
90.91195469378019
 30
0.0
 11
94.02138566197701
 21
90.91195469378019
 31
0.0
  0
LINE
  5
199
330
196
100
AcDbEntity
  8
1
  6
Continuous
 62
     2
100
AcDbLine
 10
134.121385661977
 20
132.9119546937802
 30
0.0
 11
94.02138566197701
 21
132.9119546937802
 31
0.0
  0
SOLID
  5
19A
330
196
100
AcDbEntity
  8
1
 62
     2
100
AcDbTrace
 10
94.56060192042112
 20
94.41195469378019
 30
0.0
 11
95.48216940353289
 21
94.41195469378019
 31
0.0
 12
95.02138566197701
 22
90.91195469378019
 32
0.0
 13
95.02138566197701
 23
90.91195469378019
 33
0.0
  0
SOLID
  5
19B
330
196
100
AcDbEntity
  8
1
 62
     2
100
AcDbTrace
 10
95.48216940353289
 20
129.4119546937802
 30
0.0
 11
94.56060192042112
 21
129.4119546937802
 31
0.0
 12
95.02138566197701
 22
132.9119546937802
 32
0.0
 13
95.02138566197701
 23
132.9119546937802
 33
0.0
  0
MTEXT
  5
19C
330
196
100
AcDbEntity
  8
1
 62
     7
100
AcDbMText
 10
94.02138566197701
 20
102.4619546937802
 30
0.0
 40
3.5
 41
0.0
 71
     7
 72
     1
  1
42リフト5
  7
CONVERTER_1
 11
0.0
 21
1.0
 31
0.0
 73
     1
 44
0.60024009603842
  0
ENDBLK
  5
19E
330
196
100
AcDbEntity
  8
0
100
AcDbBlockEnd
  0
BLOCK
  5
1A8
330
1A1
100
AcDbEntity
  8
0
100
AcDbBlockBegin
  2
*D310
 70
     1
 71
     0
 10
0.0
 20
0.0
 30
0.0
  3
*D310
  1

  0
LINE
  5
1A2
330
1A1
100
AcDbEntity
  8
1
  6
Continuous
 62
     2
100
AcDbLine
 10
44.02138566197695
 20
254.387373625955
 30
0.0
 11
68.02138566197695
 21
254.387373625955
 31
0.0
  0
LINE
  5
1A3
330
1A1
100
AcDbEntity
  8
1
  6
Continuous
 62
     2
100
AcDbLine
 10
68.02138566197695
 20
243.6995514524461
 30
0.0
 11
68.02138566197695
 21
255.387373625955
 31
0.0
  0
LINE
  5
1A4
330
1A1
100
AcDbEntity
  8
1
  6
Continuous
 62
     2
100
AcDbLine
 10
44.02138566197695
 20
243.6995514524461
 30
0.0
 11
44.02138566197695
 21
255.387373625955
 31
0.0
  0
SOLID
  5
1A5
330
1A1
100
AcDbEntity
  8
1
 62
     2
100
AcDbTrace
 10
47.52138566197695
 20
254.8481573675109
 30
0.0
 11
47.52138566197695
 21
253.9265898843991
 31
0.0
 12
44.02138566197695
 22
254.387373625955
 32
0.0
 13
44.02138566197695
 23
254.387373625955
 33
0.0
  0
SOLID
  5
1A6
330
1A1
100
AcDbEntity
  8
1
 62
     2
100
AcDbTrace
 10
64.52138566197695
 20
253.9265898843991
 30
0.0
 11
64.52138566197695
 21
254.8481573675109
 31
0.0
 12
68.02138566197695
 22
254.387373625955
 32
0.0
 13
68.02138566197695
 23
254.387373625955
 33
0.0
  0
MTEXT
  5
1A7
330
1A1
100
AcDbEntity
  8
1
 62
     7
100
AcDbMText
 10
53.39638566197698
 20
255.387373625955
 30
0.0
 40
3.5
 41
0.0
 71
     7
 72
     1
  1
24
  7
CONVERTER_2
 11
0.9999999999970621
 21
2.424068405545307E-6
 31
0.0
 73
     1
 44
0.60024009603842
  0
ENDBLK
  5
1A9
330
1A1
100
AcDbEntity
  8
0
100
AcDbBlockEnd
  0
ENDSEC
  0
SECTION
  2
ENTITIES
  0
INSERT
  5
48
330
1F
100
AcDbEntity
  8
1
100
AcDbBlockReference
  2
V26-0
 10
105.021385661977
 20
77.91195469378016
 30
0.0
  0
INSERT
  5
49
330
1F
100
AcDbEntity
  8
1
100
AcDbBlockReference
  2
37-1-13
 10
328.3898984074202
 20
88.99799558692997
 30
0.0
  0
INSERT
  5
4A
330
1F
100
AcDbEntity
  8
1
100
AcDbBlockReference
  2
36-45
 10
691.194248234107
 20
133.514127144298
 30
0.0
  0
INSERT
  5
4B
330
1F
100
AcDbEntity
  8
1
100
AcDbBlockReference
  2
35-22
 10
-165.2057855282787
 20
141.5846706392713
 30
0.0
  0
INSERT
  5
4C
330
1F
100
AcDbEntity
  8
1
100
AcDbBlockReference
  2
32-26
 10
277.827938313813
 20
127.6912435183802
 30
0.0
  0
INSERT
  5
4D
330
1F
100
AcDbEntity
  8
1
100
AcDbBlockReference
  2
_J__A4
 10
0.0
 20
0.0
 30
0.0
  0
LINE
  5
162
330
1F
100
AcDbEntity
  8
1
  6
Continuous
 62
     7
100
AcDbLine
 10
164.2671000083819
 20
130.6731058005784
 30
0.0
 11
167.3651548498309
 21
130.6731058005784
 31
0.0
  0
LINE
  5
163
330
1F
100
AcDbEntity
  8
1
  6
Continuous
 62
     7
100
AcDbLine
 10
164.2671000083819
 20
131.3027884890788
 30
0.0
 11
164.2671000083819
 21
130.6731058005784
 31
0.0
  0
LINE
  5
164
330
1F
100
AcDbEntity
  8
1
  6
Continuous
 62
     7
100
AcDbLine
 10
159.899482717629
 20
129.7131058005783
 30
0.0
 11
164.2671000083819
 21
131.3027884890788
 31
0.0
  0
LINE
  5
165
330
1F
100
AcDbEntity
  8
1
  6
Continuous
 62
     7
100
AcDbLine
 10
164.2671000083819
 20
128.1234231120779
 30
0.0
 11
159.899482717629
 21
129.7131058005783
 31
0.0
  0
LINE
  5
166
330
1F
100
AcDbEntity
  8
1
  6
Continuous
 62
     7
100
AcDbLine
 10
164.2671000083819
 20
128.7531058005784
 30
0.0
 11
164.2671000083819
 21
128.1234231120779
 31
0.0
  0
LINE
  5
167
330
1F
100
AcDbEntity
  8
1
  6
Continuous
 62
     7
100
AcDbLine
 10
167.3651548498309
 20
128.7531058005784
 30
0.0
 11
164.2671000083819
 21
128.7531058005784
 31
0.0
  0
LINE
  5
168
330
1F
100
AcDbEntity
  8
1
  6
Continuous
 62
     7
100
AcDbLine
 10
167.3651548498309
 20
130.6731058005784
 30
0.0
 11
167.3651548498309
 21
128.7531058005784
 31
0.0
  0
LINE
  5
169
330
1F
100
AcDbEntity
  8
1
  6
DASH_CENTER
 62
     2
100
AcDbLine
 10
40.02138566197709
 20
199.887373625955
 30
0.0
 11
72.02138566197709
 21
199.887373625955
 31
0.0
  0
LINE
  5
16A
330
1F
100
AcDbEntity
  8
1
  6
DASH_CENTER
 62
     2
100
AcDbLine
 10
40.02138566197698
 20
90.9119546937802
 30
0.0
 11
72.02138566197698
 21
90.9119546937802
 31
0.0
  0
LINE
  5
16B
330
1F
100
AcDbEntity
  8
1
  6
DASH_CENTER
 62
     2
100
AcDbLine
 10
56.02138566197698
 20
167.4454647818256
 30
0.0
 11
56.02138566197698
 21
247.387373625955
 31
0.0
  0
LINE
  5
16C
330
1F
100
AcDbEntity
  8
1
  6
DASH_CENTER
 62
     2
100
AcDbLine
 10
102.9038415070354
 20
90.9119546937802
 30
0.0
 11
135.021385661977
 21
90.9119546937802
 31
0.0
  0
LINE
  5
16D
330
1F
100
AcDbEntity
  8
1
  6
DASH_CENTER
 62
     2
100
AcDbLine
 10
135.021385661977
 20
135.9119546937802
 30
0.0
 11
135.021385661977
 21
90.9119546937802
 31
0.0
  0
LINE
  5
16E
330
1F
100
AcDbEntity
  8
1
  6
DASH_CENTER
 62
     2
100
AcDbLine
 10
56.02138566197698
 20
135.9119546937802
 30
0.0
 11
56.02138566197698
 21
74.91195469378016
 31
0.0
  0
LINE
  5
16F
330
1F
100
AcDbEntity
  8
1
  6
DASH_CENTER
 62
     2
100
AcDbLine
 10
135.021385661977
 20
90.9119546937802
 30
0.0
 11
182.3787970778067
 21
90.9119546937802
 31
0.0
  0
LINE
  5
170
330
1F
100
AcDbEntity
  8
1
  6
DASH_CENTER
 62
     2
100
AcDbLine
 10
135.021385661977
 20
90.9119546937802
 30
0.0
 11
135.021385661977
 21
74.9119546937802
 31
0.0
  0
SOLID
  5
171
330
1F
100
AcDbEntity
  8
1
 62
     2
100
AcDbTrace
 10
180.8723352361388
 20
102.0372260786229
 30
0.0
 11
181.6704360878153
 21
101.576442337067
 31
0.0
 12
179.521385661977
 22
98.7757452945994
 32
0.0
 13
179.521385661977
 23
98.7757452945994
 33
0.0
  0
LEADER
  5
172
330
1F
100
AcDbEntity
  8
1
  6
Continuous
 62
     2
100
AcDbLeader
  3
Standard
 71
     0
 76
     3
 10
179.521385661977
 20
98.7757452945994
 30
0.0
 10
190.3953393832855
 20
117.6099856190583
 30
0.0
 10
175.008029541746
 20
117.6099856190583
 30
0.0
  0
SOLID
  5
173
330
1F
100
AcDbEntity
  8
1
 62
     2
100
AcDbTrace
 10
109.6076298663329
 20
77.17297390975674
 30
0.0
 11
108.8095290146565
 21
77.63375765131262
 31
0.0
 12
110.9585794404947
 22
80.43445469378021
 32
0.0
 13
110.9585794404947
 23
80.43445469378021
 33
0.0
  0
LEADER
  5
174
330
1F
100
AcDbEntity
  8
1
  6
Continuous
 62
     2
100
AcDbLeader
  3
Standard
 71
     0
 76
     3
 10
110.9585794404947
 20
80.43445469378021
 30
0.0
 10
99.90526842908569
 20
61.28955843015928
 30
0.0
 10
82.2147431906991
 20
61.28955843015928
 30
0.0
  0
SOLID
  5
175
330
1F
100
AcDbEntity
  8
1
 62
     2
100
AcDbTrace
 10
136.3723352361388
 20
94.17343547780368
 30
0.0
 11
137.1704360878153
 21
93.71265173624779
 31
0.0
 12
135.021385661977
 22
90.9119546937802
 32
0.0
 13
135.021385661977
 23
90.9119546937802
 33
0.0
  0
LEADER
  5
176
330
1F
100
AcDbEntity
  8
1
  6
Continuous
 62
     2
100
AcDbLeader
  3
Standard
 71
     0
 76
     3
 10
135.021385661977
 20
90.9119546937802
 30
0.0
 10
155.6911898907854
 20
126.7131058005783
 30
0.0
 10
170.412490225391
 20
126.7131058005783
 30
0.0
  0
MTEXT
  5
178
330
1F
100
AcDbEntity
  8
0
 62
     7
100
AcDbMText
 10
57.0
 20
14.25
 30
0.0
 40
3.5
 41
0.0
 71
     5
 72
     1
  1
V26AD-13
  7
CONVERTER_2
 73
     1
 44
0.7202881152461
  0
MTEXT
  5
179
330
1F
100
AcDbEntity
  8
0
 62
     7
100
AcDbMText
 10
57.0
 20
22.75000000000001
 30
0.0
 40
3.0
 41
0.0
 71
     5
 72
     1
  1
D式ナット付化粧バルブ
  7
CONVERTER_1
 73
     1
 44
1.32052821128451
  0
MTEXT
  5
17A
330
1F
100
AcDbEntity
  8
1
 62
     7
100
AcDbMText
 10
91.0600058098924
 20
64.28955843015928
 30
0.0
 40
3.5
 41
0.0
 71
     5
 72
     1
  1
PJ1/2
  7
CONVERTER_2
 73
     1
 44
1.32052821128451
  0
MTEXT
  5
17B
330
1F
100
AcDbEntity
  8
1
 62
     7
100
AcDbMText
 10
182.7016844625157
 20
120.6099856190583
 30
0.0
 40
3.5
 41
0.0
 71
     5
 72
     1
  1
G1/2
  7
CONVERTER_2
 73
     1
 44
0.90036014405762
  0
MTEXT
  5
17C
330
1F
100
AcDbEntity
  8
0
 62
     7
100
AcDbMText
 10
34.0
 20
37.5
 30
0.0
 40
3.5
 41
0.0
 71
     4
 72
     1
  1
JIS
  7
CONVERTER_2
 73
     1
 44
1.32052821128451
  0
MTEXT
  5
17D
330
1F
100
AcDbEntity
  8
1
 62
     7
100
AcDbMText
 10
85.25
 20
17.0
 30
0.0
 40
3.5
 41
0.0
 71
     5
 72
     1
  1
1
  7
CONVERTER_2
 73
     1
 44
0.7202881152461
  0
MTEXT
  5
17E
330
1F
100
AcDbEntity
  8
1
 62
     7
100
AcDbMText
 10
93.75
 20
17.0
 30
0.0
 40
3.5
 41
0.0
 71
     5
 72
     1
  1
1
  7
CONVERTER_2
 73
     1
 44
0.7202881152461
  0
MTEXT
  5
17F
330
1F
100
AcDbEntity
  8
0
 62
     7
100
AcDbMText
 10
34.0
 20
30.50000000000001
 30
0.0
 40
3.5
 41
0.0
 71
     4
 72
     1
  1
共用形
  7
CONVERTER_1
 73
     1
 44
1.32052821128451
  0
DIMENSION
  5
18A
330
1F
100
AcDbEntity
  8
1
100
AcDbDimension
  2
*D07
 10
105.021385661977
 20
67.91195469378022
 30
0.0
 11
120.021385661977
 21
70.66195469378022
 31
0.0
  1
<>
 71
     5
 42
0.0
 53
0.00013888888889
  3
ME10_DIM_0
100
AcDbAlignedDimension
 13
135.021385661977
 23
74.9119546937802
 33
0.0
 14
105.021385661977
 24
81.5964546937802
 34
0.0
100
AcDbRotatedDimension
  0
DIMENSION
  5
195
330
1F
100
AcDbEntity
  8
1
100
AcDbDimension
  2
*D18
 10
135.021385661977
 20
67.91195469378022
 30
0.0
 11
157.271385661977
 21
70.66195469378022
 31
0.0
  1
45
 71
     5
 42
0.0
 53
0.00013888888889
  3
ME10_DIM_1
100
AcDbAlignedDimension
 13
179.521385661977
 23
79.55171167213571
 33
0.0
 14
135.021385661977
 24
74.9119546937802
 34
0.0
100
AcDbRotatedDimension
  0
DIMENSION
  5
1A0
330
1F
100
AcDbEntity
  8
1
100
AcDbDimension
  2
*D29
 10
95.02138566197701
 20
90.91195469378019
 30
0.0
 11
92.27138566197701
 21
111.9119546937802
 31
0.0
  1
42リフト5
 71
     5
 42
0.0
 53
90.0
  3
ME10_DIM_2
100
AcDbAlignedDimension
 13
134.121385661977
 23
132.9119546937802
 33
0.0
 14
102.9038415070354
 24
90.9119546937802
 34
0.0
 50
90.0
100
AcDbRotatedDimension
  0
DIMENSION
  5
1AB
330
1F
100
AcDbEntity
  8
1
100
AcDbDimension
  2
*D310
 10
44.02138566197695
 20
254.387373625955
 30
0.0
 11
56.02138566197698
 21
257.137373625955
 31
0.0
 70
     1
  1
<>
 71
     5
 42
0.0
 53
0.00013888888889
  3
ME10_DIM_3
100
AcDbAlignedDimension
 13
68.02138566197695
 23
243.6995514524461
 33
0.0
 14
44.02138566197695
 24
243.6995514524461
 34
0.0
  0
ENDSEC
  0
SECTION
  2
OBJECTS
  0
DICTIONARY
  5
C
330
0
100
AcDbDictionary
281
     1
  3
ACAD_GROUP
350
D
  3
ACAD_LAYOUT
350
1A
  3
ACAD_MLINESTYLE
350
17
  3
ACAD_PLOTSETTINGS
350
19
  3
ACAD_PLOTSTYLENAME
350
E
  3
ACAD_TABLESTYLE
350
2A
  3
AcDbVariableDictionary
350
2C
  0
DICTIONARY
  5
D
102
{ACAD_REACTORS
330
C
102
}
330
C
100
AcDbDictionary
281
     1
  0
DICTIONARY
  5
1A
102
{ACAD_REACTORS
330
C
102
}
330
C
100
AcDbDictionary
281
     1
  3
Layout1
350
1E
  3
Layout2
350
26
  3
Model
350
22
  0
DICTIONARY
  5
17
102
{ACAD_REACTORS
330
C
102
}
330
C
100
AcDbDictionary
281
     1
  3
Standard
350
18
  0
DICTIONARY
  5
19
102
{ACAD_REACTORS
330
C
102
}
330
C
100
AcDbDictionary
281
     1
  0
ACDBDICTIONARYWDFLT
  5
E
102
{ACAD_REACTORS
330
C
102
}
330
C
100
AcDbDictionary
281
     1
  3
Normal
350
F
100
AcDbDictionaryWithDefault
340
F
  0
DICTIONARY
  5
2A
102
{ACAD_REACTORS
330
C
102
}
330
C
100
AcDbDictionary
281
     1
  3
Standard
350
2B
  0
DICTIONARY
  5
2C
102
{ACAD_REACTORS
330
C
102
}
330
C
100
AcDbDictionary
281
     1
  3
CTABLESTYLE
350
2D
  0
LAYOUT
  5
1E
102
{ACAD_REACTORS
330
1A
102
}
330
1A
100
AcDbPlotSettings
  1

  2

  4

  6

 40
0.0
 41
0.0
 42
0.0
 43
0.0
 44
0.0
 45
0.0
 46
0.0
 47
0.0
 48
0.0
 49
0.0
140
0.0
141
0.0
142
1.0
143
1.0
 70
   688
 72
     0
 73
     0
 74
     5
  7

 75
    16
147
1.0
148
0.0
149
0.0
100
AcDbLayout
  1
Layout1
 70
     1
 71
     1
 10
0.0
 20
0.0
 11
12.0
 21
9.0
 12
0.0
 22
0.0
 32
0.0
 14
1.00000000000000E+20
 24
1.00000000000000E+20
 34
1.00000000000000E+20
 15
-1.00000000000000E+20
 25
-1.00000000000000E+20
 35
-1.00000000000000E+20
146
0.0
 13
0.0
 23
0.0
 33
0.0
 16
1.0
 26
0.0
 36
0.0
 17
0.0
 27
1.0
 37
0.0
 76
     0
330
1B
  0
LAYOUT
  5
26
102
{ACAD_REACTORS
330
1A
102
}
330
1A
100
AcDbPlotSettings
  1

  2

  4

  6

 40
0.0
 41
0.0
 42
0.0
 43
0.0
 44
0.0
 45
0.0
 46
0.0
 47
0.0
 48
0.0
 49
0.0
140
0.0
141
0.0
142
1.0
143
1.0
 70
   688
 72
     0
 73
     0
 74
     5
  7

 75
    16
147
1.0
148
0.0
149
0.0
100
AcDbLayout
  1
Layout2
 70
     1
 71
     2
 10
0.0
 20
0.0
 11
0.0
 21
0.0
 12
0.0
 22
0.0
 32
0.0
 14
0.0
 24
0.0
 34
0.0
 15
0.0
 25
0.0
 35
0.0
146
0.0
 13
0.0
 23
0.0
 33
0.0
 16
1.0
 26
0.0
 36
0.0
 17
0.0
 27
1.0
 37
0.0
 76
     0
330
23
  0
LAYOUT
  5
22
102
{ACAD_REACTORS
330
1A
102
}
330
1A
100
AcDbPlotSettings
  1

  2

  4

  6

 40
0.0
 41
0.0
 42
0.0
 43
0.0
 44
0.0
 45
0.0
 46
0.0
 47
0.0
 48
0.0
 49
0.0
140
0.0
141
0.0
142
1.0
143
1.0
 70
  1712
 72
     0
 73
     0
 74
     0
  7

 75
     0
147
1.0
148
0.0
149
0.0
100
AcDbLayout
  1
Model
 70
     1
 71
     0
 10
0.0
 20
0.0
 11
0.0
 21
0.0
 12
0.0
 22
0.0
 32
0.0
 14
0.0
 24
0.0
 34
0.0
 15
210.0
 25
297.0
 35
0.0
146
0.0
 13
0.0
 23
0.0
 33
0.0
 16
1.0
 26
0.0
 36
0.0
 17
0.0
 27
1.0
 37
0.0
 76
     0
330
1F
  0
MLINESTYLE
  5
18
102
{ACAD_REACTORS
330
17
102
}
330
17
100
AcDbMlineStyle
  2
Standard
 70
     0
  3

 62
   256
 51
90.0
 52
90.0
 71
     2
 49
0.5
 62
   256
  6
BYLAYER
 49
-0.5
 62
   256
  6
BYLAYER
  0
ACDBPLACEHOLDER
  5
F
102
{ACAD_REACTORS
330
E
102
}
330
E
  0
TABLESTYLE
  5
2B
102
{ACAD_REACTORS
330
2A
102
}
330
2A
100
AcDbTableStyle
  3
Standard
 70
     0
 71
     0
 40
0.06
 41
0.06
280
     0
281
     0
  7
Standard
140
0.18
170
     2
 62
     0
 63
     7
283
     0
274
    -2
284
     1
 64
     0
275
    -2
285
     1
 65
     0
276
    -2
286
     1
 66
     0
277
    -2
287
     1
 67
     0
278
    -2
288
     1
 68
     0
279
    -2
289
     1
 69
     0
  7
Standard
140
0.25
170
     5
 62
     0
 63
     7
283
     0
274
    -2
284
     1
 64
     0
275
    -2
285
     1
 65
     0
276
    -2
286
     1
 66
     0
277
    -2
287
     1
 67
     0
278
    -2
288
     1
 68
     0
279
    -2
289
     1
 69
     0
  7
Standard
140
0.18
170
     5
 62
     0
 63
     7
283
     0
274
    -2
284
     1
 64
     0
275
    -2
285
     1
 65
     0
276
    -2
286
     1
 66
     0
277
    -2
287
     1
 67
     0
278
    -2
288
     1
 68
     0
279
    -2
289
     1
 69
     0
  0
DICTIONARYVAR
  5
2D
102
{ACAD_REACTORS
330
2C
102
}
330
2C
100
DictionaryVariables
280
     0
  1
Standard
  0
ENDSEC
  0
EOF
