  0
SECTION
  2
HEADER
  9
$ACADVER
  1
AC1015
  9
$ACADMAINTVER
 70
     6
  9
$DWGCODEPAGE
  3
DOS932
  9
$INSBASE
 10
0.0
 20
0.0
 30
0.0
  9
$EXTMIN
 10
0.0
 20
0.0
 30
0.0
  9
$EXTMAX
 10
315.0
 20
445.5
 30
0.0
  9
$LIMMIN
 10
0.0
 20
0.0
  9
$LIMMAX
 10
12.0
 20
9.0
  9
$ORTHOMODE
 70
     0
  9
$REGENMODE
 70
     1
  9
$FILLMODE
 70
     1
  9
$QTEXTMODE
 70
     0
  9
$MIRRTEXT
 70
     1
  9
$LTSCALE
 40
1.0
  9
$ATTMODE
 70
     1
  9
$TEXTSIZE
 40
0.2
  9
$TRACEWID
 40
0.05
  9
$TEXTSTYLE
  7
Standard
  9
$CLAYER
  8
0
  9
$CELTYPE
  6
ByLayer
  9
$CECOLOR
 62
   256
  9
$CELTSCALE
 40
1.0
  9
$DISPSILH
 70
     0
  9
$DIMSCALE
 40
1.0
  9
$DIMASZ
 40
0.18
  9
$DIMEXO
 40
0.0625
  9
$DIMDLI
 40
0.38
  9
$DIMRND
 40
0.0
  9
$DIMDLE
 40
0.0
  9
$DIMEXE
 40
0.18
  9
$DIMTP
 40
0.0
  9
$DIMTM
 40
0.0
  9
$DIMTXT
 40
0.18
  9
$DIMCEN
 40
0.09
  9
$DIMTSZ
 40
0.0
  9
$DIMTOL
 70
     0
  9
$DIMLIM
 70
     0
  9
$DIMTIH
 70
     1
  9
$DIMTOH
 70
     1
  9
$DIMSE1
 70
     0
  9
$DIMSE2
 70
     0
  9
$DIMTAD
 70
     0
  9
$DIMZIN
 70
     0
  9
$DIMBLK
  1

  9
$DIMASO
 70
     1
  9
$DIMSHO
 70
     1
  9
$DIMPOST
  1

  9
$DIMAPOST
  1

  9
$DIMALT
 70
     0
  9
$DIMALTD
 70
     2
  9
$DIMALTF
 40
25.4
  9
$DIMLFAC
 40
1.0
  9
$DIMTOFL
 70
     0
  9
$DIMTVP
 40
0.0
  9
$DIMTIX
 70
     0
  9
$DIMSOXD
 70
     0
  9
$DIMSAH
 70
     0
  9
$DIMBLK1
  1

  9
$DIMBLK2
  1

  9
$DIMSTYLE
  2
Standard
  9
$DIMCLRD
 70
     0
  9
$DIMCLRE
 70
     0
  9
$DIMCLRT
 70
     0
  9
$DIMTFAC
 40
1.0
  9
$DIMGAP
 40
0.09
  9
$DIMJUST
 70
     0
  9
$DIMSD1
 70
     0
  9
$DIMSD2
 70
     0
  9
$DIMTOLJ
 70
     1
  9
$DIMTZIN
 70
     0
  9
$DIMALTZ
 70
     0
  9
$DIMALTTZ
 70
     0
  9
$DIMUPT
 70
     0
  9
$DIMDEC
 70
     4
  9
$DIMTDEC
 70
     4
  9
$DIMALTU
 70
     2
  9
$DIMALTTD
 70
     2
  9
$DIMTXSTY
  7
Standard
  9
$DIMAUNIT
 70
     0
  9
$DIMADEC
 70
     0
  9
$DIMALTRND
 40
0.0
  9
$DIMAZIN
 70
     0
  9
$DIMDSEP
 70
    46
  9
$DIMATFIT
 70
     3
  9
$DIMFRAC
 70
     0
  9
$DIMLDRBLK
  1

  9
$DIMLUNIT
 70
     2
  9
$DIMLWD
 70
    -2
  9
$DIMLWE
 70
    -2
  9
$DIMTMOVE
 70
     0
  9
$LUNITS
 70
     2
  9
$LUPREC
 70
     4
  9
$SKETCHINC
 40
0.1
  9
$FILLETRAD
 40
0.5
  9
$AUNITS
 70
     0
  9
$AUPREC
 70
     0
  9
$MENU
  1
.
  9
$ELEVATION
 40
0.0
  9
$PELEVATION
 40
0.0
  9
$THICKNESS
 40
0.0
  9
$LIMCHECK
 70
     0
  9
$CHAMFERA
 40
0.5
  9
$CHAMFERB
 40
0.5
  9
$CHAMFERC
 40
1.0
  9
$CHAMFERD
 40
0.0
  9
$SKPOLY
 70
     0
  9
$TDCREATE
 40
2456135.687246273
  9
$TDUCREATE
 40
2456135.312246273
  9
$TDUPDATE
 40
2456135.687246285
  9
$TDUUPDATE
 40
2456135.312246285
  9
$TDINDWG
 40
0.0000000116
  9
$TDUSRTIMER
 40
0.0000000116
  9
$USRTIMER
 70
     1
  9
$ANGBASE
 50
0.0
  9
$ANGDIR
 70
     0
  9
$PDMODE
 70
     0
  9
$PDSIZE
 40
0.0
  9
$PLINEWID
 40
0.0
  9
$SPLFRAME
 70
     0
  9
$SPLINETYPE
 70
     6
  9
$SPLINESEGS
 70
     8
  9
$HANDSEED
  5
245
  9
$SURFTAB1
 70
     6
  9
$SURFTAB2
 70
     6
  9
$SURFTYPE
 70
     6
  9
$SURFU
 70
     6
  9
$SURFV
 70
     6
  9
$UCSBASE
  2

  9
$UCSNAME
  2

  9
$UCSORG
 10
0.0
 20
0.0
 30
0.0
  9
$UCSXDIR
 10
1.0
 20
0.0
 30
0.0
  9
$UCSYDIR
 10
0.0
 20
1.0
 30
0.0
  9
$UCSORTHOREF
  2

  9
$UCSORTHOVIEW
 70
     0
  9
$UCSORGTOP
 10
0.0
 20
0.0
 30
0.0
  9
$UCSORGBOTTOM
 10
0.0
 20
0.0
 30
0.0
  9
$UCSORGLEFT
 10
0.0
 20
0.0
 30
0.0
  9
$UCSORGRIGHT
 10
0.0
 20
0.0
 30
0.0
  9
$UCSORGFRONT
 10
0.0
 20
0.0
 30
0.0
  9
$UCSORGBACK
 10
0.0
 20
0.0
 30
0.0
  9
$PUCSBASE
  2

  9
$PUCSNAME
  2

  9
$PUCSORG
 10
0.0
 20
0.0
 30
0.0
  9
$PUCSXDIR
 10
1.0
 20
0.0
 30
0.0
  9
$PUCSYDIR
 10
0.0
 20
1.0
 30
0.0
  9
$PUCSORTHOREF
  2

  9
$PUCSORTHOVIEW
 70
     0
  9
$PUCSORGTOP
 10
0.0
 20
0.0
 30
0.0
  9
$PUCSORGBOTTOM
 10
0.0
 20
0.0
 30
0.0
  9
$PUCSORGLEFT
 10
0.0
 20
0.0
 30
0.0
  9
$PUCSORGRIGHT
 10
0.0
 20
0.0
 30
0.0
  9
$PUCSORGFRONT
 10
0.0
 20
0.0
 30
0.0
  9
$PUCSORGBACK
 10
0.0
 20
0.0
 30
0.0
  9
$USERI1
 70
     0
  9
$USERI2
 70
     0
  9
$USERI3
 70
     0
  9
$USERI4
 70
     0
  9
$USERI5
 70
     0
  9
$USERR1
 40
13.2
  9
$USERR2
 40
0.0
  9
$USERR3
 40
0.0
  9
$USERR4
 40
0.0
  9
$USERR5
 40
0.0
  9
$WORLDVIEW
 70
     1
  9
$SHADEDGE
 70
     3
  9
$SHADEDIF
 70
    70
  9
$TILEMODE
 70
     1
  9
$MAXACTVP
 70
    64
  9
$PINSBASE
 10
0.0
 20
0.0
 30
0.0
  9
$PLIMCHECK
 70
     0
  9
$PEXTMIN
 10
1.00000000000000E+20
 20
1.00000000000000E+20
 30
1.00000000000000E+20
  9
$PEXTMAX
 10
-1.00000000000000E+20
 20
-1.00000000000000E+20
 30
-1.00000000000000E+20
  9
$PLIMMIN
 10
0.0
 20
0.0
  9
$PLIMMAX
 10
12.0
 20
9.0
  9
$UNITMODE
 70
     0
  9
$VISRETAIN
 70
     1
  9
$PLINEGEN
 70
     0
  9
$PSLTSCALE
 70
     1
  9
$TREEDEPTH
 70
  3020
  9
$CMLSTYLE
  2
Standard
  9
$CMLJUST
 70
     0
  9
$CMLSCALE
 40
1.0
  9
$PROXYGRAPHICS
 70
     1
  9
$MEASUREMENT
 70
     1
  9
$CELWEIGHT
370
    -1
  9
$ENDCAPS
280
     0
  9
$JOINSTYLE
280
     0
  9
$LWDISPLAY
290
     0
  9
$INSUNITS
 70
     1
  9
$HYPERLINKBASE
  1

  9
$STYLESHEET
  1

  9
$XEDIT
290
     1
  9
$CEPSNTYPE
380
     0
  9
$PSTYLEMODE
290
     0
  9
$FINGERPRINTGUID
  2
{FAEB1C30-E019-11D5-929B-00C0DF256EC4}
  9
$VERSIONGUID
  2
{FAEB1C32-E019-11D5-929B-00C0DF256EC4}
  9
$EXTNAMES
290
     1
  9
$PSVPSCALE
 40
0.0
  9
$OLESTARTUP
290
     0
  0
ENDSEC
  0
SECTION
  2
CLASSES
  0
CLASS
  1
ACDBDICTIONARYWDFLT
  2
AcDbDictionaryWithDefault
  3
ObjectDBX Classes
 90
        0
280
     0
281
     0
  0
CLASS
  1
TABLESTYLE
  2
AcDbTableStyle
  3
ObjectDBX Classes
 90
     2047
280
     0
281
     0
  0
CLASS
  1
DICTIONARYVAR
  2
AcDbDictionaryVar
  3
ObjectDBX Classes
 90
        0
280
     0
281
     0
  0
CLASS
  1

  2
exOdDbCircle
  3

 90
        0
280
     0
281
     1
  0
CLASS
  1

  2
exOdDbSpline
  3

 90
        0
280
     0
281
     1
  0
CLASS
  1
ACDBPLACEHOLDER
  2
AcDbPlaceHolder
  3
ObjectDBX Classes
 90
        0
280
     0
281
     0
  0
CLASS
  1
LAYOUT
  2
AcDbLayout
  3
ObjectDBX Classes
 90
        0
280
     0
281
     0
  0
ENDSEC
  0
SECTION
  2
TABLES
  0
TABLE
  2
VPORT
  5
8
330
0
100
AcDbSymbolTable
 70
     2
  0
VPORT
  5
29
330
8
100
AcDbSymbolTableRecord
100
AcDbViewportTableRecord
  2
*Active
 70
     0
 10
0.0
 20
0.0
 11
1.0
 21
1.0
 12
157.5
 22
222.75
 13
0.0
 23
0.0
 14
0.5
 24
0.5
 15
0.5
 25
0.5
 16
0.0
 26
0.0
 36
1.0
 17
0.0
 27
0.0
 37
0.0
 40
490.05
 41
1.60267857142857
 42
50.0
 43
0.0
 44
0.0
 50
0.0
 51
0.0
 71
     0
 72
   100
 73
     1
 74
     3
 75
     0
 76
     0
 77
     0
 78
     0
281
     0
 65
     1
110
0.0
120
0.0
130
0.0
111
1.0
121
0.0
131
0.0
112
0.0
122
1.0
132
0.0
 79
     0
146
0.0
  0
ENDTAB
  0
TABLE
  2
LTYPE
  5
5
330
0
100
AcDbSymbolTable
 70
     8
  0
LTYPE
  5
14
330
5
100
AcDbSymbolTableRecord
100
AcDbLinetypeTableRecord
  2
ByBlock
 70
     0
  3

 72
    65
 73
     0
 40
0.0
  0
LTYPE
  5
15
330
5
100
AcDbSymbolTableRecord
100
AcDbLinetypeTableRecord
  2
ByLayer
 70
     0
  3

 72
    65
 73
     0
 40
0.0
  0
LTYPE
  5
16
330
5
100
AcDbSymbolTableRecord
100
AcDbLinetypeTableRecord
  2
Continuous
 70
     0
  3
Solid line
 72
    65
 73
     0
 40
0.0
  0
LTYPE
  5
2E
330
5
100
AcDbSymbolTableRecord
100
AcDbLinetypeTableRecord
  2
DASHED
 70
     0
  3
Dashed
 72
    65
 73
     2
 40
15.0
 49
7.0
 74
     0
 49
-8.0
 74
     0
  0
LTYPE
  5
2F
330
5
100
AcDbSymbolTableRecord
100
AcDbLinetypeTableRecord
  2
DOTTED
 70
     0
  3
Dotted
 72
    65
 73
     2
 40
1.0
 49
0.0
 74
     0
 49
-1.0
 74
     0
  0
LTYPE
  5
30
330
5
100
AcDbSymbolTableRecord
100
AcDbLinetypeTableRecord
  2
DOT_CENTER
 70
     0
  3
Dot_Center
 72
    65
 73
     4
 40
14.0
 49
12.0
 74
     0
 49
-1.0
 74
     0
 49
0.0
 74
     0
 49
-1.0
 74
     0
  0
LTYPE
  5
31
330
5
100
AcDbSymbolTableRecord
100
AcDbLinetypeTableRecord
  2
LONG_DASHED
 70
     0
  3
Long_Dashed
 72
    65
 73
     2
 40
15.0
 49
10.0
 74
     0
 49
-5.0
 74
     0
  0
LTYPE
  5
32
330
5
100
AcDbSymbolTableRecord
100
AcDbLinetypeTableRecord
  2
DASH_CENTER
 70
     0
  3
Dash_Center
 72
    65
 73
     4
 40
14.0
 49
11.0
 74
     0
 49
-1.0
 74
     0
 49
1.0
 74
     0
 49
-1.0
 74
     0
  0
LTYPE
  5
33
330
5
100
AcDbSymbolTableRecord
100
AcDbLinetypeTableRecord
  2
PHANTOM
 70
     0
  3
Phantom
 72
    65
 73
     6
 40
13.0
 49
10.0
 74
     0
 49
-1.0
 74
     0
 49
0.0
 74
     0
 49
-1.0
 74
     0
 49
0.0
 74
     0
 49
-1.0
 74
     0
  0
LTYPE
  5
34
330
5
100
AcDbSymbolTableRecord
100
AcDbLinetypeTableRecord
  2
CENTER_DASH_DASH
 70
     0
  3
Center_Dash_Dash
 72
    65
 73
     6
 40
14.0
 49
9.0
 74
     0
 49
-1.0
 74
     0
 49
1.0
 74
     0
 49
-1.0
 74
     0
 49
1.0
 74
     0
 49
-1.0
 74
     0
  0
ENDTAB
  0
TABLE
  2
LAYER
  5
2
330
0
100
AcDbSymbolTable
 70
     2
  0
LAYER
  5
10
330
2
100
AcDbSymbolTableRecord
100
AcDbLayerTableRecord
  2
0
 70
     0
 62
     7
  6
Continuous
370
    -3
390
F
  0
LAYER
  5
35
330
2
100
AcDbSymbolTableRecord
100
AcDbLayerTableRecord
  2
1
 70
     0
 62
     7
  6
Continuous
370
    -3
390
F
  0
ENDTAB
  0
TABLE
  2
STYLE
  5
3
330
0
100
AcDbSymbolTable
 70
     3
  0
STYLE
  5
11
330
3
100
AcDbSymbolTableRecord
100
AcDbTextStyleTableRecord
  2
Standard
 70
     0
 40
0.0
 41
1.0
 50
0.0
 71
     0
 42
0.2
  3
txt
  4

  0
STYLE
  5
A9
330
3
100
AcDbSymbolTableRecord
100
AcDbTextStyleTableRecord
  2
CONVERTER_1
 70
     0
 40
0.0
 41
0.89
 50
0.0
 71
     0
 42
0.2
  3
msmincho.ttc
  4

1001
ACAD
1000
MS Mincho
1071
    32785
  0
STYLE
  5
1E2
330
3
100
AcDbSymbolTableRecord
100
AcDbTextStyleTableRecord
  2
CONVERTER_2
 70
     0
 40
0.0
 41
0.9
 50
0.0
 71
     0
 42
0.2
  3
txt.shx
  4

  0
ENDTAB
  0
TABLE
  2
VIEW
  5
6
330
0
100
AcDbSymbolTable
 70
     0
  0
ENDTAB
  0
TABLE
  2
UCS
  5
7
330
0
100
AcDbSymbolTable
 70
     0
  0
ENDTAB
  0
TABLE
  2
APPID
  5
9
330
0
100
AcDbSymbolTable
 70
     1
  0
APPID
  5
12
330
9
100
AcDbSymbolTableRecord
100
AcDbRegAppTableRecord
  2
ACAD
 70
     0
  0
ENDTAB
  0
TABLE
  2
DIMSTYLE
  5
A
330
0
100
AcDbSymbolTable
 70
     9
100
AcDbDimStyleTable
  0
DIMSTYLE
105
27
330
A
100
AcDbSymbolTableRecord
100
AcDbDimStyleTableRecord
  2
Standard
 70
     0
340
11
  0
DIMSTYLE
105
1F4
102
{ACAD_REACTORS
330
1F5
102
}
330
A
100
AcDbSymbolTableRecord
100
AcDbDimStyleTableRecord
  2
ME10_DIM_0
 70
     0
  3
{\Fgdt;n}<>
 41
5.25
 42
0.0
 44
1.5
 73
     0
 74
     0
 77
     1
 78
     8
140
5.25
147
0.625
172
     1
173
     1
176
     2
177
     2
178
     7
271
     2
340
1E2
  0
DIMSTYLE
105
1FF
102
{ACAD_REACTORS
330
200
102
}
330
A
100
AcDbSymbolTableRecord
100
AcDbDimStyleTableRecord
  2
ME10_DIM_1
 70
     0
 41
5.25
 42
0.0
 44
1.5
 73
     0
 74
     0
 77
     1
 78
     8
140
5.25
147
0.625
172
     1
173
     1
176
     2
177
     2
178
     7
271
     2
340
1E2
  0
DIMSTYLE
105
20A
102
{ACAD_REACTORS
330
20B
102
}
330
A
100
AcDbSymbolTableRecord
100
AcDbDimStyleTableRecord
  2
ME10_DIM_2
 70
     0
 41
5.25
 42
0.0
 44
1.5
 73
     0
 74
     0
 77
     1
 78
     8
140
5.25
147
0.625
172
     1
173
     1
176
     2
177
     2
178
     7
271
     2
340
1E2
  0
DIMSTYLE
105
215
102
{ACAD_REACTORS
330
216
102
}
330
A
100
AcDbSymbolTableRecord
100
AcDbDimStyleTableRecord
  2
ME10_DIM_3
 70
     0
 41
5.25
 42
0.0
 44
1.5
 73
     0
 74
     0
 77
     1
 78
     8
140
5.25
147
0.625
172
     1
173
     1
176
     2
177
     2
178
     7
271
     2
340
1E2
  0
DIMSTYLE
105
220
102
{ACAD_REACTORS
330
221
102
}
330
A
100
AcDbSymbolTableRecord
100
AcDbDimStyleTableRecord
  2
ME10_DIM_4
 70
     0
 41
5.25
 42
0.0
 44
1.5
 73
     0
 74
     0
 77
     1
 78
     8
140
5.25
147
0.625
172
     1
173
     1
176
     2
177
     2
178
     7
271
     2
340
1E2
  0
DIMSTYLE
105
22B
102
{ACAD_REACTORS
330
22C
102
}
330
A
100
AcDbSymbolTableRecord
100
AcDbDimStyleTableRecord
  2
ME10_DIM_5
 70
     0
 41
5.25
 42
0.0
 44
1.5
 73
     0
 74
     0
 77
     1
 78
     8
140
5.25
147
0.625
172
     1
173
     1
176
     2
177
     2
178
     7
271
     2
340
1E2
  0
DIMSTYLE
105
238
102
{ACAD_REACTORS
330
239
102
}
330
A
100
AcDbSymbolTableRecord
100
AcDbDimStyleTableRecord
  2
ME10_DIM_6
 70
     0
  3
{\Fgdt;n}<>
 41
5.25
 42
0.0
 44
1.5
 73
     0
 74
     0
 77
     1
 78
     8
140
5.25
147
0.625
172
     1
173
     1
176
     2
177
     2
178
     7
271
     2
340
1E2
  0
DIMSTYLE
105
243
102
{ACAD_REACTORS
330
244
102
}
330
A
100
AcDbSymbolTableRecord
100
AcDbDimStyleTableRecord
  2
ME10_DIM_7
 70
     0
 41
5.25
 42
0.0
 44
1.5
 73
     0
 74
     0
 77
     1
 78
     8
140
5.25
147
0.625
172
     1
173
     1
176
     2
177
     2
178
     7
271
     2
340
1E2
  0
ENDTAB
  0
TABLE
  2
BLOCK_RECORD
  5
1
330
0
100
AcDbSymbolTable
 70
    19
  0
BLOCK_RECORD
  5
1F
330
1
100
AcDbSymbolTableRecord
100
AcDbBlockTableRecord
  2
*Model_Space
340
22
  0
BLOCK_RECORD
  5
1B
330
1
100
AcDbSymbolTableRecord
100
AcDbBlockTableRecord
  2
*Paper_Space
340
1E
  0
BLOCK_RECORD
  5
23
330
1
100
AcDbSymbolTableRecord
100
AcDbBlockTableRecord
  2
*Paper_Space0
340
26
  0
BLOCK_RECORD
  5
36
330
1
100
AcDbSymbolTableRecord
100
AcDbBlockTableRecord
  2
_J__A4
340
0
102
{BLKREFS
331
56
102
}
  0
BLOCK_RECORD
  5
39
330
1
100
AcDbSymbolTableRecord
100
AcDbBlockTableRecord
  2
V271-0-13
340
0
102
{BLKREFS
331
57
102
}
  0
BLOCK_RECORD
  5
3C
330
1
100
AcDbSymbolTableRecord
100
AcDbBlockTableRecord
  2
35-22-C2
340
0
102
{BLKREFS
331
58
102
}
  0
BLOCK_RECORD
  5
3F
330
1
100
AcDbSymbolTableRecord
100
AcDbBlockTableRecord
  2
32-26
340
0
102
{BLKREFS
331
59
102
}
  0
BLOCK_RECORD
  5
42
330
1
100
AcDbSymbolTableRecord
100
AcDbBlockTableRecord
  2
35-22
340
0
102
{BLKREFS
331
5A
102
}
  0
BLOCK_RECORD
  5
45
330
1
100
AcDbSymbolTableRecord
100
AcDbBlockTableRecord
  2
33-073
340
0
102
{BLKREFS
331
5B
102
}
  0
BLOCK_RECORD
  5
48
330
1
100
AcDbSymbolTableRecord
100
AcDbBlockTableRecord
  2
32-12
340
0
102
{BLKREFS
331
5C
102
}
  0
BLOCK_RECORD
  5
4B
330
1
100
AcDbSymbolTableRecord
100
AcDbBlockTableRecord
  2
72-73
340
0
102
{BLKREFS
331
52
102
}
  0
BLOCK_RECORD
  5
4E
330
1
100
AcDbSymbolTableRecord
100
AcDbBlockTableRecord
  2
81-15-1
340
0
102
{BLKREFS
331
53
102
}
  0
BLOCK_RECORD
  5
51
330
1
100
AcDbSymbolTableRecord
100
AcDbBlockTableRecord
  2
R37-26AX-S
340
0
102
{BLKREFS
331
5D
102
}
  0
BLOCK_RECORD
  5
1EB
330
1
100
AcDbSymbolTableRecord
100
AcDbBlockTableRecord
  2
*D011
340
0
  0
BLOCK_RECORD
  5
1F6
330
1
100
AcDbSymbolTableRecord
100
AcDbBlockTableRecord
  2
*D112
340
0
  0
BLOCK_RECORD
  5
201
330
1
100
AcDbSymbolTableRecord
100
AcDbBlockTableRecord
  2
*D213
340
0
  0
BLOCK_RECORD
  5
20C
330
1
100
AcDbSymbolTableRecord
100
AcDbBlockTableRecord
  2
*D314
340
0
  0
BLOCK_RECORD
  5
217
330
1
100
AcDbSymbolTableRecord
100
AcDbBlockTableRecord
  2
*D415
340
0
  0
BLOCK_RECORD
  5
222
330
1
100
AcDbSymbolTableRecord
100
AcDbBlockTableRecord
  2
*D516
340
0
  0
BLOCK_RECORD
  5
22D
330
1
100
AcDbSymbolTableRecord
100
AcDbBlockTableRecord
  2
*D617
340
0
  0
BLOCK_RECORD
  5
23A
330
1
100
AcDbSymbolTableRecord
100
AcDbBlockTableRecord
  2
*D718
340
0
  0
ENDTAB
  0
ENDSEC
  0
SECTION
  2
BLOCKS
  0
BLOCK
  5
20
330
1F
100
AcDbEntity
  8
0
100
AcDbBlockBegin
  2
*Model_Space
 70
     0
 71
     0
 10
0.0
 20
0.0
 30
0.0
  3
*Model_Space
  1

  0
ENDBLK
  5
21
330
1F
100
AcDbEntity
  8
0
100
AcDbBlockEnd
  0
BLOCK
  5
1C
330
1B
100
AcDbEntity
 67
     1
  8
0
100
AcDbBlockBegin
  2
*Paper_Space
 70
     0
 71
     0
 10
0.0
 20
0.0
 30
0.0
  3
*Paper_Space
  1

  0
ENDBLK
  5
1D
330
1B
100
AcDbEntity
 67
     1
  8
0
100
AcDbBlockEnd
  0
BLOCK
  5
24
330
23
100
AcDbEntity
  8
0
100
AcDbBlockBegin
  2
*Paper_Space0
 70
     0
 71
     0
 10
0.0
 20
0.0
 30
0.0
  3
*Paper_Space0
  1

  0
ENDBLK
  5
25
330
23
100
AcDbEntity
  8
0
100
AcDbBlockEnd
  0
BLOCK
  5
37
330
36
100
AcDbEntity
  8
0
100
AcDbBlockBegin
  2
_J__A4
 70
     0
 71
     0
 10
0.0
 20
0.0
 30
0.0
  3
_J__A4
  1

  0
POINT
  5
5E
330
36
100
AcDbEntity
  8
1
 62
     4
100
AcDbPoint
 10
34.0
 20
34.00000000000001
 30
0.0
  0
POINT
  5
5F
330
36
100
AcDbEntity
  8
1
 62
     4
100
AcDbPoint
 10
57.0
 20
12.25
 30
0.0
  0
POINT
  5
60
330
36
100
AcDbEntity
  8
1
 62
     4
100
AcDbPoint
 10
57.0
 20
20.75000000000001
 30
0.0
  0
POINT
  5
61
330
36
100
AcDbEntity
  8
1
 62
     4
100
AcDbPoint
 10
57.0
 20
24.75000000000001
 30
0.0
  0
POINT
  5
62
330
36
100
AcDbEntity
  8
1
 62
     4
100
AcDbPoint
 10
57.0
 20
16.25
 30
0.0
  0
POINT
  5
63
330
36
100
AcDbEntity
  8
1
 62
     4
100
AcDbPoint
 10
157.5
 20
19.00000000000001
 30
0.0
  0
POINT
  5
64
330
36
100
AcDbEntity
  8
1
 62
     4
100
AcDbPoint
 10
47.5
 20
282.0000000000003
 30
0.0
  0
POINT
  5
65
330
36
100
AcDbEntity
  8
1
 62
     4
100
AcDbPoint
 10
57.0
 20
22.75000000000001
 30
0.0
  0
POINT
  5
66
330
36
100
AcDbEntity
  8
1
 62
     4
100
AcDbPoint
 10
57.0
 20
14.25
 30
0.0
  0
POINT
  5
67
330
36
100
AcDbEntity
  8
1
 62
     4
100
AcDbPoint
 10
157.5
 20
12.5
 30
0.0
  0
POINT
  5
68
330
36
100
AcDbEntity
  8
1
 62
     4
100
AcDbPoint
 10
163.25
 20
12.5
 30
0.0
  0
POINT
  5
69
330
36
100
AcDbEntity
  8
1
 62
     4
100
AcDbPoint
 10
151.75
 20
12.5
 30
0.0
  0
POINT
  5
6A
330
36
100
AcDbEntity
  8
1
 62
     4
100
AcDbPoint
 10
134.75
 20
12.5
 30
0.0
  0
POINT
  5
6B
330
36
100
AcDbEntity
  8
1
 62
     4
100
AcDbPoint
 10
146.25
 20
12.5
 30
0.0
  0
POINT
  5
6C
330
36
100
AcDbEntity
  8
1
 62
     4
100
AcDbPoint
 10
140.5
 20
12.5
 30
0.0
  0
POINT
  5
6D
330
36
100
AcDbEntity
  8
1
 62
     4
100
AcDbPoint
 10
140.5
 20
19.00000000000001
 30
0.0
  0
POINT
  5
6E
330
36
100
AcDbEntity
  8
1
 62
     4
100
AcDbPoint
 10
117.75
 20
12.5
 30
0.0
  0
POINT
  5
6F
330
36
100
AcDbEntity
  8
1
 62
     4
100
AcDbPoint
 10
129.25
 20
12.5
 30
0.0
  0
POINT
  5
70
330
36
100
AcDbEntity
  8
1
 62
     4
100
AcDbPoint
 10
123.5
 20
12.5
 30
0.0
  0
POINT
  5
71
330
36
100
AcDbEntity
  8
1
 62
     4
100
AcDbPoint
 10
123.5
 20
19.00000000000001
 30
0.0
  0
POINT
  5
72
330
36
100
AcDbEntity
  8
1
 62
     4
100
AcDbPoint
 10
100.75
 20
12.5
 30
0.0
  0
POINT
  5
73
330
36
100
AcDbEntity
  8
1
 62
     4
100
AcDbPoint
 10
112.25
 20
12.5
 30
0.0
  0
POINT
  5
74
330
36
100
AcDbEntity
  8
1
 62
     4
100
AcDbPoint
 10
106.5
 20
12.5
 30
0.0
  0
POINT
  5
75
330
36
100
AcDbEntity
  8
1
 62
     4
100
AcDbPoint
 10
106.5
 20
19.00000000000001
 30
0.0
  0
POINT
  5
76
330
36
100
AcDbEntity
  8
1
 62
     4
100
AcDbPoint
 10
85.25
 20
17.0
 30
0.0
  0
POINT
  5
77
330
36
100
AcDbEntity
  8
1
 62
     4
100
AcDbPoint
 10
93.75
 20
17.0
 30
0.0
  0
LINE
  5
78
330
36
100
AcDbEntity
  8
1
  6
Continuous
 62
     2
100
AcDbLine
 10
81.0
 20
27.00000000000001
 30
0.0
 11
81.0
 21
10.0
 31
0.0
  0
LINE
  5
79
330
36
100
AcDbEntity
  8
1
  6
DOT_CENTER
 62
     2
100
AcDbLine
 10
187.0
 20
26.50000000000001
 30
0.0
 11
187.0
 21
20.50000000000001
 31
0.0
  0
LINE
  5
7A
330
36
100
AcDbEntity
  8
1
  6
DOT_CENTER
 62
     2
100
AcDbLine
 10
184.0
 20
23.50000000000001
 30
0.0
 11
197.0
 21
23.50000000000001
 31
0.0
  0
LINE
  5
7B
330
36
100
AcDbEntity
  8
1
  6
Continuous
 62
     7
100
AcDbLine
 10
196.0
 20
21.50000000000001
 30
0.0
 11
191.0
 21
22.30000000000001
 31
0.0
  0
LINE
  5
7C
330
36
100
AcDbEntity
  8
1
  6
Continuous
 62
     7
100
AcDbLine
 10
196.0
 20
25.50000000000001
 30
0.0
 11
196.0
 21
21.50000000000001
 31
0.0
  0
LINE
  5
7D
330
36
100
AcDbEntity
  8
1
  6
Continuous
 62
     7
100
AcDbLine
 10
191.0
 20
24.70000000000001
 30
0.0
 11
196.0
 21
25.50000000000001
 31
0.0
  0
LINE
  5
7E
330
36
100
AcDbEntity
  8
1
  6
Continuous
 62
     7
100
AcDbLine
 10
191.0
 20
24.70000000000001
 30
0.0
 11
191.0
 21
22.30000000000001
 31
0.0
  0
LINE
  5
7F
330
36
100
AcDbEntity
  8
1
  6
Continuous
 62
     2
100
AcDbLine
 10
33.0
 20
27.0
 30
0.0
 11
33.0
 21
10.0
 31
0.0
  0
LINE
  5
80
330
36
100
AcDbEntity
  8
1
  6
Continuous
 62
     2
100
AcDbLine
 10
25.0
 20
18.50000000000001
 30
0.0
 11
81.0
 21
18.50000000000001
 31
0.0
  0
LINE
  5
81
330
36
100
AcDbEntity
  8
1
  6
Continuous
 62
     7
100
AcDbLine
 10
200.0
 20
287.0000000000003
 30
0.0
 11
105.0
 21
287.0000000000003
 31
0.0
  0
LINE
  5
82
330
36
100
AcDbEntity
  8
1
  6
Continuous
 62
     7
100
AcDbLine
 10
200.0
 20
10.0
 30
0.0
 11
200.0
 21
148.5
 31
0.0
  0
LINE
  5
83
330
36
100
AcDbEntity
  8
1
  6
Continuous
 62
     7
100
AcDbLine
 10
25.0
 20
10.0
 30
0.0
 11
105.0
 21
10.0
 31
0.0
  0
LINE
  5
84
330
36
100
AcDbEntity
  8
1
  6
PHANTOM
 62
     4
100
AcDbLine
 10
0.0
 20
297.0
 30
0.0
 11
0.0
 21
0.0
 31
0.0
  0
LINE
  5
85
330
36
100
AcDbEntity
  8
1
  6
PHANTOM
 62
     4
100
AcDbLine
 10
210.0
 20
297.0
 30
0.0
 11
0.0
 21
297.0
 31
0.0
  0
LINE
  5
86
330
36
100
AcDbEntity
  8
1
  6
PHANTOM
 62
     4
100
AcDbLine
 10
210.0
 20
0.0
 30
0.0
 11
210.0
 21
297.0
 31
0.0
  0
LINE
  5
87
330
36
100
AcDbEntity
  8
1
  6
PHANTOM
 62
     4
100
AcDbLine
 10
0.0
 20
0.0
 30
0.0
 11
210.0
 21
0.0
 31
0.0
  0
LINE
  5
88
330
36
100
AcDbEntity
  8
1
  6
Continuous
 62
     7
100
AcDbLine
 10
25.0
 20
41.0
 30
0.0
 11
200.0
 21
41.0
 31
0.0
  0
LINE
  5
89
330
36
100
AcDbEntity
  8
1
  6
Continuous
 62
     7
100
AcDbLine
 10
200.0
 20
27.00000000000001
 30
0.0
 11
25.0
 21
27.00000000000001
 31
0.0
  0
LINE
  5
8A
330
36
100
AcDbEntity
  8
1
  6
Continuous
 62
     2
100
AcDbLine
 10
33.0
 20
41.00000000000001
 30
0.0
 11
33.0
 21
27.0
 31
0.0
  0
LINE
  5
8B
330
36
100
AcDbEntity
  8
1
  6
Continuous
 62
     2
100
AcDbLine
 10
55.0
 20
287.0000000000003
 30
0.0
 11
55.0
 21
277.0000000000003
 31
0.0
  0
LINE
  5
8C
330
36
100
AcDbEntity
  8
1
  6
Continuous
 62
     2
100
AcDbLine
 10
40.0
 20
287.0000000000003
 30
0.0
 11
40.0
 21
277.0000000000003
 31
0.0
  0
LINE
  5
8D
330
36
100
AcDbEntity
  8
1
  6
Continuous
 62
     7
100
AcDbLine
 10
25.0
 20
10.0
 30
0.0
 11
25.0
 21
148.5
 31
0.0
  0
LINE
  5
8E
330
36
100
AcDbEntity
  8
1
  6
Continuous
 62
     2
100
AcDbLine
 10
55.0
 20
277.0000000000003
 30
0.0
 11
25.0
 21
277.0000000000003
 31
0.0
  0
LINE
  5
8F
330
36
100
AcDbEntity
  8
1
  6
Continuous
 62
     2
100
AcDbLine
 10
166.0
 20
27.00000000000001
 30
0.0
 11
166.0
 21
10.0
 31
0.0
  0
LINE
  5
90
330
36
100
AcDbEntity
  8
1
  6
Continuous
 62
     2
100
AcDbLine
 10
132.0
 20
27.00000000000001
 30
0.0
 11
132.0
 21
9.99999999999999
 31
0.0
  0
LINE
  5
91
330
36
100
AcDbEntity
  8
1
  6
Continuous
 62
     2
100
AcDbLine
 10
149.0
 20
27.00000000000001
 30
0.0
 11
149.0
 21
10.0
 31
0.0
  0
LINE
  5
92
330
36
100
AcDbEntity
  8
1
  6
Continuous
 62
     2
100
AcDbLine
 10
115.0
 20
27.00000000000001
 30
0.0
 11
115.0
 21
9.99999999999999
 31
0.0
  0
LINE
  5
93
330
36
100
AcDbEntity
  8
1
  6
Continuous
 62
     2
100
AcDbLine
 10
98.0
 20
27.00000000000001
 30
0.0
 11
98.0
 21
9.99999999999999
 31
0.0
  0
LINE
  5
94
330
36
100
AcDbEntity
  8
1
  6
Continuous
 62
     2
100
AcDbLine
 10
166.0
 20
20.00000000000001
 30
0.0
 11
200.0
 21
20.00000000000001
 31
0.0
  0
LINE
  5
95
330
36
100
AcDbEntity
  8
1
  6
Continuous
 62
     2
100
AcDbLine
 10
105.0
 20
287.0000000000003
 30
0.0
 11
105.0
 21
292.0000000000003
 31
0.0
  0
LINE
  5
96
330
36
100
AcDbEntity
  8
1
  6
Continuous
 62
     7
100
AcDbLine
 10
105.0
 20
287.0000000000003
 30
0.0
 11
25.0
 21
287.0000000000003
 31
0.0
  0
LINE
  5
97
330
36
100
AcDbEntity
  8
1
  6
Continuous
 62
     2
100
AcDbLine
 10
25.0
 20
148.5
 30
0.0
 11
20.0
 21
148.5
 31
0.0
  0
LINE
  5
98
330
36
100
AcDbEntity
  8
1
  6
Continuous
 62
     7
100
AcDbLine
 10
25.0
 20
148.5
 30
0.0
 11
25.0
 21
287.0000000000003
 31
0.0
  0
LINE
  5
99
330
36
100
AcDbEntity
  8
1
  6
Continuous
 62
     2
100
AcDbLine
 10
200.0
 20
148.5
 30
0.0
 11
205.0
 21
148.5
 31
0.0
  0
LINE
  5
9A
330
36
100
AcDbEntity
  8
1
  6
Continuous
 62
     7
100
AcDbLine
 10
200.0
 20
148.5
 30
0.0
 11
200.0
 21
287.0000000000003
 31
0.0
  0
LINE
  5
9B
330
36
100
AcDbEntity
  8
1
  6
Continuous
 62
     2
100
AcDbLine
 10
105.0
 20
10.0
 30
0.0
 11
105.0
 21
5.0
 31
0.0
  0
LINE
  5
9C
330
36
100
AcDbEntity
  8
1
  6
Continuous
 62
     7
100
AcDbLine
 10
105.0
 20
10.0
 30
0.0
 11
200.0
 21
10.0
 31
0.0
  0
CIRCLE
  5
9D
330
36
100
AcDbEntity
  8
1
  6
DOT_CENTER
 62
     7
100
AcDbCircle
 10
89.5
 20
18.0
 30
0.0
 40
0.1000000000000227
  0
CIRCLE
  5
9E
330
36
100
AcDbEntity
  8
1
  6
DOT_CENTER
 62
     7
100
AcDbCircle
 10
89.5
 20
16.0
 30
0.0
 40
0.1000000000000227
  0
CIRCLE
  5
9F
330
36
100
AcDbEntity
  8
1
  6
Continuous
 62
     7
100
AcDbCircle
 10
187.0
 20
23.50000000000001
 30
0.0
 40
2.0
  0
CIRCLE
  5
A0
330
36
100
AcDbEntity
  8
1
  6
Continuous
 62
     7
100
AcDbCircle
 10
187.0
 20
23.50000000000001
 30
0.0
 40
1.200000000000102
  0
CIRCLE
  5
A1
330
36
100
AcDbEntity
  8
1
  6
Continuous
 62
     7
100
AcDbCircle
 10
154.5
 20
12.5
 30
0.0
 40
0.3000000000000114
  0
CIRCLE
  5
A2
330
36
100
AcDbEntity
  8
1
  6
Continuous
 62
     7
100
AcDbCircle
 10
160.5
 20
12.5
 30
0.0
 40
0.3000000000000114
  0
CIRCLE
  5
A3
330
36
100
AcDbEntity
  8
1
  6
Continuous
 62
     7
100
AcDbCircle
 10
143.5
 20
12.5
 30
0.0
 40
0.3000000000000114
  0
CIRCLE
  5
A4
330
36
100
AcDbEntity
  8
1
  6
Continuous
 62
     7
100
AcDbCircle
 10
137.5
 20
12.5
 30
0.0
 40
0.3000000000000114
  0
CIRCLE
  5
A5
330
36
100
AcDbEntity
  8
1
  6
Continuous
 62
     7
100
AcDbCircle
 10
126.5
 20
12.5
 30
0.0
 40
0.2999999999999972
  0
CIRCLE
  5
A6
330
36
100
AcDbEntity
  8
1
  6
Continuous
 62
     7
100
AcDbCircle
 10
120.5
 20
12.5
 30
0.0
 40
0.2999999999999972
  0
CIRCLE
  5
A7
330
36
100
AcDbEntity
  8
1
  6
Continuous
 62
     7
100
AcDbCircle
 10
109.5
 20
12.5
 30
0.0
 40
0.2999999999999972
  0
CIRCLE
  5
A8
330
36
100
AcDbEntity
  8
1
  6
Continuous
 62
     7
100
AcDbCircle
 10
103.5
 20
12.5
 30
0.0
 40
0.2999999999999972
  0
MTEXT
  5
AA
330
36
100
AcDbEntity
  8
1
 62
   250
100
AcDbMText
 10
25.0
 20
5.0
 30
0.0
 40
3.5
 41
0.0
 71
     4
 72
     1
  1
備考欄の文字列 原点位置=4
  7
CONVERTER_1
 73
     1
 44
0.7202881152461
  0
MTEXT
  5
AB
330
36
100
AcDbEntity
  8
1
 62
     2
100
AcDbMText
 10
89.5
 20
24.00000000000001
 30
0.0
 40
3.5
 41
0.0
 71
     5
 72
     1
  1
尺度
  7
CONVERTER_1
 73
     1
 44
0.7202881152461
  0
MTEXT
  5
AC
330
36
100
AcDbEntity
  8
1
 62
     2
100
AcDbMText
 10
135.5
 20
25.00000000000001
 30
0.0
 40
3.0
 41
0.0
 71
     5
 72
     1
  1
製図
  7
CONVERTER_1
 73
     1
 44
0.78031212484994
  0
MTEXT
  5
AD
330
36
100
AcDbEntity
  8
1
 62
     2
100
AcDbMText
 10
152.5
 20
25.00000000000001
 30
0.0
 40
3.0
 41
0.0
 71
     5
 72
     1
  1
設計
  7
CONVERTER_1
 73
     1
 44
0.78031212484994
  0
MTEXT
  5
AE
330
36
100
AcDbEntity
  8
1
 62
     2
100
AcDbMText
 10
118.5
 20
25.00000000000001
 30
0.0
 40
3.0
 41
0.0
 71
     5
 72
     1
  1
検図
  7
CONVERTER_1
 73
     1
 44
0.78031212484994
  0
MTEXT
  5
AF
330
36
100
AcDbEntity
  8
1
 62
     2
100
AcDbMText
 10
175.0
 20
23.50000000000001
 30
0.0
 40
3.5
 41
0.0
 71
     5
 72
     1
  1
第三角法
  7
CONVERTER_1
 73
     1
 44
0.7202881152461
  0
MTEXT
  5
B0
330
36
100
AcDbEntity
  8
1
 62
     2
100
AcDbMText
 10
101.5
 20
25.00000000000001
 30
0.0
 40
3.0
 41
0.0
 71
     5
 72
     1
  1
承認
  7
CONVERTER_1
 73
     1
 44
0.78031212484994
  0
MTEXT
  5
B1
330
36
100
AcDbEntity
  8
1
 62
     2
100
AcDbMText
 10
29.0
 20
14.25
 30
0.0
 40
3.5
 41
0.0
 71
     5
 72
     1
  1
品番
  7
CONVERTER_1
 73
     1
 44
0.96038415366146
  0
MTEXT
  5
B2
330
36
100
AcDbEntity
  8
1
 62
     2
100
AcDbMText
 10
29.0
 20
22.75
 30
0.0
 40
3.5
 41
0.0
 71
     5
 72
     1
  1
品名
  7
CONVERTER_1
 73
     1
 44
0.96038415366146
  0
MTEXT
  5
B3
330
36
100
AcDbEntity
  8
1
 62
     2
100
AcDbMText
 10
29.0
 20
34.00000000000001
 30
0.0
 40
3.5
 41
0.0
 71
     5
 72
     1
  1
備考
  7
CONVERTER_1
 73
     1
 44
0.60024009603842
  0
MTEXT
  5
B4
330
36
100
AcDbEntity
  8
1
 62
     2
100
AcDbMText
 10
32.5
 20
282.0000000000003
 30
0.0
 40
5.0
 41
0.0
 71
     5
 72
     1
  1
図番
  7
CONVERTER_1
 73
     1
 44
0.60024009603842
  0
MTEXT
  5
B5
330
36
100
AcDbEntity
  8
1
 62
     7
100
AcDbMText
 10
171.5
 20
15.0
 30
0.0
 40
2.5
 41
0.0
 71
     5
 72
     1
  1
株式会社
  7
CONVERTER_1
 73
     1
 44
1.32052821128451
  0
MTEXT
  5
B6
330
36
100
AcDbEntity
  8
1
 62
     7
100
AcDbMText
 10
188.5
 20
15.0
 30
0.0
 40
3.0
 41
0.0
 71
     5
 72
     1
  1
三栄水栓製作所
  7
CONVERTER_1
 73
     1
 44
1.32052821128451
  0
ENDBLK
  5
38
330
36
100
AcDbEntity
  8
0
100
AcDbBlockEnd
  0
BLOCK
  5
3A
330
39
100
AcDbEntity
  8
0
100
AcDbBlockBegin
  2
V271-0-13
 70
     0
 71
     0
 10
-91.00000000000007
 20
99.0
 30
0.0
  3
V271-0-13
  1

  0
LINE
  5
B7
330
39
100
AcDbEntity
  8
1
  6
Continuous
 62
     7
100
AcDbLine
 10
224.987356961605
 20
313.0405213160346
 30
0.0
 11
230.342127643431
 21
313.0405213160342
 31
0.0
  0
LINE
  5
B8
330
39
100
AcDbEntity
  8
1
  6
Continuous
 62
     2
100
AcDbLine
 10
226.9999999999998
 20
293.2475213160329
 30
0.0
 11
229.9999999999998
 21
293.2475213160329
 31
0.0
  0
LINE
  5
B9
330
39
100
AcDbEntity
  8
1
  6
Continuous
 62
     7
100
AcDbLine
 10
157.4999999999997
 20
313.0630213160335
 30
0.0
 11
157.4999999999997
 21
292.0630213160333
 31
0.0
  0
LINE
  5
BA
330
39
100
AcDbEntity
  8
1
  6
Continuous
 62
     7
100
AcDbLine
 10
213.2671020888515
 20
315.6348344261681
 30
0.0
 11
221.320240798413
 21
313.962213719185
 31
0.0
  0
LINE
  5
BB
330
39
100
AcDbEntity
  8
1
  6
Continuous
 62
     7
100
AcDbLine
 10
224.8089478854772
 20
313.0405213160343
 30
0.0
 11
221.320240798413
 21
313.962213719185
 31
0.0
  0
LINE
  5
BC
330
39
100
AcDbEntity
  8
1
  6
Continuous
 62
     7
100
AcDbLine
 10
156.9999999999997
 20
302.5630213160334
 30
0.0
 11
156.9999999999997
 21
310.0630213160335
 31
0.0
  0
LINE
  5
BD
330
39
100
AcDbEntity
  8
1
  6
Continuous
 62
     7
100
AcDbLine
 10
157.4999999999997
 20
313.0630213160335
 30
0.0
 11
156.9999999999997
 21
312.5630213160334
 31
0.0
  0
LINE
  5
BE
330
39
100
AcDbEntity
  8
1
  6
Continuous
 62
     7
100
AcDbLine
 10
171.3229072289363
 20
313.0630213160334
 30
0.0
 11
157.4999999999997
 21
313.0630213160335
 31
0.0
  0
LINE
  5
BF
330
39
100
AcDbEntity
  8
1
  6
Continuous
 62
     7
100
AcDbLine
 10
156.9999999999997
 20
312.5630213160334
 30
0.0
 11
156.9999999999997
 21
310.0630213160335
 31
0.0
  0
LINE
  5
C0
330
39
100
AcDbEntity
  8
1
  6
Continuous
 62
     2
100
AcDbLine
 10
226.9999999999998
 20
311.8785213160339
 30
0.0
 11
224.987356961605
 21
313.0405213160346
 31
0.0
  0
LINE
  5
C1
330
39
100
AcDbEntity
  8
1
  6
Continuous
 62
     2
100
AcDbLine
 10
229.9999999999998
 20
311.8785213160339
 30
0.0
 11
226.9999999999998
 21
311.8785213160339
 31
0.0
  0
LINE
  5
C2
330
39
100
AcDbEntity
  8
1
  6
Continuous
 62
     7
100
AcDbLine
 10
226.9999999999998
 20
313.0405213160337
 30
0.0
 11
226.9999999999998
 21
311.8785213160339
 31
0.0
  0
LINE
  5
C3
330
39
100
AcDbEntity
  8
1
  6
Continuous
 62
     7
100
AcDbLine
 10
224.8089478854772
 20
313.0405213160343
 30
0.0
 11
224.987356961605
 21
313.0405213160346
 31
0.0
  0
LINE
  5
C4
330
39
100
AcDbEntity
  8
1
  6
Continuous
 62
     7
100
AcDbLine
 10
184.7328979111485
 20
289.4912082058986
 30
0.0
 11
173.3564874616857
 21
291.8540657668043
 31
0.0
  0
LINE
  5
C5
330
39
100
AcDbEntity
  8
1
  6
Continuous
 62
     7
100
AcDbLine
 10
221.320240798413
 20
291.1638289128818
 30
0.0
 11
224.8089478854772
 21
292.0855213160325
 31
0.0
  0
LINE
  5
C6
330
39
100
AcDbEntity
  8
1
  6
Continuous
 62
     7
100
AcDbLine
 10
230.342127643431
 20
292.0855213160326
 30
0.0
 11
224.987356961605
 21
292.0855213160322
 31
0.0
  0
LINE
  5
C7
330
39
100
AcDbEntity
  8
1
  6
Continuous
 62
     7
100
AcDbLine
 10
156.9999999999997
 20
295.0630213160333
 30
0.0
 11
156.9999999999997
 21
302.5630213160334
 31
0.0
  0
LINE
  5
C8
330
39
100
AcDbEntity
  8
1
  6
Continuous
 62
     7
100
AcDbLine
 10
156.9999999999997
 20
292.5630213160334
 30
0.0
 11
157.4999999999997
 21
292.0630213160333
 31
0.0
  0
LINE
  5
C9
330
39
100
AcDbEntity
  8
1
  6
Continuous
 62
     7
100
AcDbLine
 10
157.4999999999997
 20
292.0630213160333
 30
0.0
 11
171.3229072289363
 21
292.0630213160334
 31
0.0
  0
LINE
  5
CA
330
39
100
AcDbEntity
  8
1
  6
Continuous
 62
     7
100
AcDbLine
 10
156.9999999999997
 20
295.0630213160333
 30
0.0
 11
156.9999999999997
 21
292.5630213160334
 31
0.0
  0
LINE
  5
CB
330
39
100
AcDbEntity
  8
1
  6
Continuous
 62
     2
100
AcDbLine
 10
224.987356961605
 20
292.0855213160322
 30
0.0
 11
226.9999999999998
 21
293.2475213160329
 31
0.0
  0
LINE
  5
CC
330
39
100
AcDbEntity
  8
1
  6
Continuous
 62
     7
100
AcDbLine
 10
226.9999999999998
 20
293.2475213160329
 30
0.0
 11
226.9999999999998
 21
292.0855213160331
 31
0.0
  0
LINE
  5
CD
330
39
100
AcDbEntity
  8
1
  6
Continuous
 62
     7
100
AcDbLine
 10
224.987356961605
 20
292.0855213160322
 30
0.0
 11
224.8089478854772
 21
292.0855213160325
 31
0.0
  0
LINE
  5
CE
330
39
100
AcDbEntity
  8
1
  6
Continuous
 62
     7
100
AcDbLine
 10
196.966419767251
 20
173.3873090143243
 30
0.0
 11
173.3564874616857
 21
178.2910444507783
 31
0.0
  0
LINE
  5
CF
330
39
100
AcDbEntity
  8
1
  6
Continuous
 62
     7
100
AcDbLine
 10
221.320240798413
 20
177.6008075968558
 30
0.0
 11
201.0335802327489
 21
173.3873090143243
 31
0.0
  0
LINE
  5
D0
330
39
100
AcDbEntity
  8
1
  6
Continuous
 62
     7
100
AcDbLine
 10
221.320240798413
 20
177.6008075968558
 30
0.0
 11
224.8089478854772
 21
178.5225000000065
 31
0.0
  0
LINE
  5
D1
330
39
100
AcDbEntity
  8
1
  6
Continuous
 62
     7
100
AcDbLine
 10
224.8089478854772
 20
199.4775000000082
 30
0.0
 11
221.320240798413
 21
200.399192403159
 31
0.0
  0
LINE
  5
D2
330
39
100
AcDbEntity
  8
1
  6
Continuous
 62
     7
100
AcDbLine
 10
214.7466949859538
 20
206.276951003889
 30
0.0
 11
213.0000000000001
 21
207.5000000000068
 31
0.0
  0
LINE
  5
D3
330
39
100
AcDbEntity
  8
1
  6
Continuous
 62
     7
100
AcDbLine
 10
185.0000000000001
 20
207.5000000000068
 30
0.0
 11
183.2533050140461
 21
206.276951003889
 31
0.0
  0
LINE
  5
D4
330
39
100
AcDbEntity
  8
1
  6
Continuous
 62
     7
100
AcDbLine
 10
176.6797592015869
 20
200.399192403159
 30
0.0
 11
173.3564874616835
 21
199.708955549236
 31
0.0
  0
LINE
  5
D5
330
39
100
AcDbEntity
  8
1
  6
Continuous
 62
     7
100
AcDbLine
 10
226.9999999999998
 20
199.477500000007
 30
0.0
 11
226.9999999999998
 21
198.3155000000071
 31
0.0
  0
LINE
  5
D6
330
39
100
AcDbEntity
  8
1
  6
Continuous
 62
     7
100
AcDbLine
 10
229.9999999999998
 20
178.5225000000065
 30
0.0
 11
224.987356961605
 21
178.5225000000062
 31
0.0
  0
LINE
  5
D7
330
39
100
AcDbEntity
  8
1
  6
Continuous
 62
     7
100
AcDbLine
 10
157.5000000000001
 20
199.5000000000075
 30
0.0
 11
156.9999999999997
 21
199.0000000000073
 31
0.0
  0
LINE
  5
D8
330
39
100
AcDbEntity
  8
1
  6
Continuous
 62
     7
100
AcDbLine
 10
156.9999999999997
 20
179.0000000000073
 30
0.0
 11
157.4999999999997
 21
178.5000000000073
 31
0.0
  0
LINE
  5
D9
330
39
100
AcDbEntity
  8
1
  6
PHANTOM
 62
     4
100
AcDbLine
 10
199.0000000000001
 20
171.0000000000072
 30
0.0
 11
198.9999999999997
 21
216.5000000000068
 31
0.0
  0
LINE
  5
DA
330
39
100
AcDbEntity
  8
1
  6
Continuous
 62
     2
100
AcDbLine
 10
226.9999999999998
 20
198.3155000000071
 30
0.0
 11
224.987356961605
 21
199.4775000000079
 31
0.0
  0
LINE
  5
DB
330
39
100
AcDbEntity
  8
1
  6
Continuous
 62
     7
100
AcDbLine
 10
157.5000000000001
 20
199.5000000000075
 30
0.0
 11
171.322907228934
 21
199.5000000000069
 31
0.0
  0
LINE
  5
DC
330
39
100
AcDbEntity
  8
1
  6
Continuous
 62
     7
100
AcDbLine
 10
156.9999999999997
 20
199.0000000000073
 30
0.0
 11
156.9999999999997
 21
196.5000000000073
 31
0.0
  0
LINE
  5
DD
330
39
100
AcDbEntity
  8
1
  6
Continuous
 62
     2
100
AcDbLine
 10
229.9999999999998
 20
198.3155000000071
 30
0.0
 11
226.9999999999998
 21
198.3155000000071
 31
0.0
  0
LINE
  5
DE
330
39
100
AcDbEntity
  8
1
  6
Continuous
 62
     7
100
AcDbLine
 10
157.4999999999997
 20
178.5000000000073
 30
0.0
 11
171.3229072289363
 21
178.5000000000074
 31
0.0
  0
LINE
  5
DF
330
39
100
AcDbEntity
  8
1
  6
Continuous
 62
     7
100
AcDbLine
 10
156.9999999999997
 20
181.5000000000002
 30
0.0
 11
156.9999999999997
 21
179.0000000000073
 31
0.0
  0
LINE
  5
E0
330
39
100
AcDbEntity
  8
1
  6
Continuous
 62
     2
100
AcDbLine
 10
224.987356961605
 20
178.5225000000062
 30
0.0
 11
226.9999999999998
 21
179.6845000000069
 31
0.0
  0
LINE
  5
E1
330
39
100
AcDbEntity
  8
1
  6
Continuous
 62
     7
100
AcDbLine
 10
226.9999999999998
 20
179.6845000000069
 30
0.0
 11
226.9999999999998
 21
178.5225000000071
 31
0.0
  0
LINE
  5
E2
330
39
100
AcDbEntity
  8
1
  6
Continuous
 62
     7
100
AcDbLine
 10
224.8089478854772
 20
199.4775000000082
 30
0.0
 11
224.987356961605
 21
199.4775000000079
 31
0.0
  0
LINE
  5
E3
330
39
100
AcDbEntity
  8
1
  6
Continuous
 62
     7
100
AcDbLine
 10
224.987356961605
 20
178.5225000000062
 30
0.0
 11
224.8089478854772
 21
178.5225000000065
 31
0.0
  0
LINE
  5
E4
330
39
100
AcDbEntity
  8
1
  6
Continuous
 62
     7
100
AcDbLine
 10
173.3564874616857
 20
313.2719768652625
 30
0.0
 11
184.7328979111485
 21
315.6348344261682
 31
0.0
  0
LINE
  5
E5
330
39
100
AcDbEntity
  8
1
  6
Continuous
 62
     7
100
AcDbLine
 10
221.320240798413
 20
291.1638289128818
 30
0.0
 11
213.2671020888515
 21
289.4912082058987
 31
0.0
  0
LINE
  5
E6
330
39
100
AcDbEntity
  8
1
  6
Continuous
 62
     7
100
AcDbLine
 10
226.9999999999998
 20
293.2475213160329
 30
0.0
 11
226.9999999999998
 21
311.8785213160339
 31
0.0
  0
LINE
  5
E7
330
39
100
AcDbEntity
  8
1
  6
Continuous
 62
     7
100
AcDbLine
 10
224.987356961605
 20
199.4775000000079
 30
0.0
 11
229.9999999999998
 21
199.4775000000075
 31
0.0
  0
LINE
  5
E8
330
39
100
AcDbEntity
  8
1
  6
Continuous
 62
     2
100
AcDbLine
 10
226.9999999999998
 20
179.6845000000069
 30
0.0
 11
229.9999999999998
 21
179.6845000000069
 31
0.0
  0
LINE
  5
E9
330
39
100
AcDbEntity
  8
1
  6
Continuous
 62
     7
100
AcDbLine
 10
213.0000000000001
 20
207.5000000000068
 30
0.0
 11
213.0000000000001
 21
209.0
 31
0.0
  0
LINE
  5
EA
330
39
100
AcDbEntity
  8
1
  6
Continuous
 62
     7
100
AcDbLine
 10
185.0000000000001
 20
207.5000000000068
 30
0.0
 11
185.0000000000001
 21
209.0
 31
0.0
  0
LINE
  5
EB
330
39
100
AcDbEntity
  8
0
  6
Continuous
 62
     7
100
AcDbLine
 10
156.9999999999997
 20
181.5000000000002
 30
0.0
 11
156.9999999999997
 21
196.5000000000073
 31
0.0
  0
LINE
  5
EC
330
39
100
AcDbEntity
  8
1
  6
Continuous
 62
     7
100
AcDbLine
 10
156.9999999999997
 20
181.5000000000073
 30
0.0
 11
156.9999999999997
 21
181.5000000000002
 31
0.0
  0
LINE
  5
ED
330
39
100
AcDbEntity
  8
0
  6
Continuous
 62
     7
100
AcDbLine
 10
157.4999999999997
 20
178.5000000000073
 30
0.0
 11
157.5000000000001
 21
199.5000000000075
 31
0.0
  0
LINE
  5
EE
330
39
100
AcDbEntity
  8
0
  6
Continuous
 62
     7
100
AcDbLine
 10
226.9999999999998
 20
179.6845000000069
 30
0.0
 11
226.9999999999998
 21
198.3155000000071
 31
0.0
  0
LINE
  5
EF
330
39
100
AcDbEntity
  8
0
  6
Continuous
 62
     7
100
AcDbLine
 10
185.0000000000001
 20
207.5000000000068
 30
0.0
 11
213.0000000000001
 21
207.5000000000068
 31
0.0
  0
LINE
  5
F0
330
39
100
AcDbEntity
  8
1
  6
Continuous
 62
     7
100
AcDbLine
 10
95.73737327189036
 20
207.5000000000068
 30
0.0
 11
95.73737327189036
 21
209.0
 31
0.0
  0
LINE
  5
F1
330
39
100
AcDbEntity
  8
1
  6
Continuous
 62
     7
100
AcDbLine
 10
67.73737327189024
 20
207.5000000000068
 30
0.0
 11
67.73737327189024
 21
209.0
 31
0.0
  0
LINE
  5
F2
330
39
100
AcDbEntity
  8
0
  6
Continuous
 62
     7
100
AcDbLine
 10
67.73737327189024
 20
207.5000000000068
 30
0.0
 11
95.73737327189036
 21
207.5000000000068
 31
0.0
  0
LINE
  5
F3
330
39
100
AcDbEntity
  8
0
  6
Continuous
 62
     7
100
AcDbLine
 10
95.81639311624376
 20
189.0
 30
0.0
 11
95.73737327189036
 21
207.5000000000068
 31
0.0
  0
LINE
  5
F4
330
39
100
AcDbEntity
  8
0
  6
Continuous
 62
     7
100
AcDbLine
 10
67.65835342753626
 20
189.0
 30
0.0
 11
67.73737327189024
 21
207.5000000000068
 31
0.0
  0
ARC
  5
F5
330
39
100
AcDbEntity
  8
1
  6
Continuous
 62
     7
100
AcDbCircle
 10
223.1097914032322
 20
209.0153115198374
 30
0.0
 40
8.800000000000003
100
AcDbArc
 50
-161.8698037314246
 51
-101.7333961547575
  0
ARC
  5
F6
330
39
100
AcDbEntity
  8
1
  6
Continuous
 62
     7
100
AcDbCircle
 10
174.8902085967677
 20
209.0153115198374
 30
0.0
 40
8.800000000000003
100
AcDbArc
 50
-78.26660384524249
 51
-18.13019626857538
  0
ARC
  5
F7
330
39
100
AcDbEntity
  8
0
  6
Continuous
 62
     7
100
AcDbCircle
 10
81.73737327188989
 20
186.7202189774722
 30
0.0
 40
17.53062471744624
100
AcDbArc
 50
46.80241393362399
 51
133.197586066376
  0
SPLINE
  5
F8
330
39
100
AcDbEntity
  8
0
  6
Continuous
 62
     7
100
AcDbSpline
210
0.0
220
0.0
230
1.0
 70
     8
 71
     3
 72
    25
 73
    21
 74
    19
 42
0.0000000001
 43
0.0000000001
 44
0.00000001
 40
0.0
 40
0.0
 40
0.0
 40
0.0
 40
1.23453125331906
 40
2.468970360574482
 40
3.717123590720123
 40
4.965113220616217
 40
6.233829291190957
 40
7.502342886971585
 40
8.795832170319354
 40
10.08911323246453
 40
11.40845889971117
 40
12.72761669388587
 40
14.0708110066421
 40
15.41385476980682
 40
16.7761827017753
 40
18.13840678671351
 40
19.51307327316172
 40
20.88768702368724
 40
21.57779003866911
 40
22.26685509271781
 40
22.26685509271781
 40
22.26685509271781
 40
22.26685509271781
 10
80.50913247029966
 20
173.2389143188863
 30
0.0
 10
80.10056027999823
 20
173.2907427661397
 30
0.0
 10
79.28344639543907
 20
173.3943957921439
 30
0.0
 10
78.08026704820682
 20
173.7024754657702
 30
0.0
 10
76.90627092201845
 20
174.1169325500468
 30
0.0
 10
75.76760902225055
 20
174.6493189071191
 30
0.0
 10
74.67735077495627
 20
175.287922093876
 30
0.0
 10
73.63872002751737
 20
176.0337515802691
 30
0.0
 10
72.66488301055243
 20
176.8749094627971
 30
0.0
 10
71.75789394112519
 20
177.8113734839596
 30
0.0
 10
70.92952453224459
 20
178.8290800883702
 30
0.0
 10
70.1814852360508
 20
179.9273016238592
 30
0.0
 10
69.52317777940976
 20
181.0906179809561
 30
0.0
 10
68.956416305739
 20
182.3169742693291
 30
0.0
 10
68.48769954442098
 20
183.5908050182221
 30
0.0
 10
68.11905094531572
 20
184.9079972653301
 30
0.0
 10
67.85366537718598
 20
186.2540153029464
 30
0.0
 10
67.72133326692452
 20
187.3939767002545
 30
0.0
 10
67.66612609783827
 20
188.310540166921
 30
0.0
 10
67.660943017376
 20
188.7702953927952
 30
0.0
 10
67.65835342753626
 20
189.0
 30
0.0
 11
80.50913247029966
 21
173.2389143188863
 31
0.0
 11
79.28790217264795
 21
173.4196460967203
 31
0.0
 11
78.09022452235124
 21
173.7186580622021
 31
0.0
 11
76.91386512595192
 21
174.1358691076288
 31
0.0
 11
75.78279804137219
 21
174.6632829551039
 31
0.0
 11
74.68801290797218
 21
175.3044428255114
 31
0.0
 11
73.65713249762131
 21
176.0436399049395
 31
0.0
 11
72.67802560689162
 21
176.8888997600499
 31
0.0
 11
71.77771770338237
 21
177.8173509351701
 31
0.0
 11
70.94453706536898
 21
178.8403284589321
 31
0.0
 11
70.20137045927544
 21
179.9302278494811
 31
0.0
 11
69.53951707036818
 21
181.0990396621407
 31
0.0
 11
68.97562345871646
 21
182.3179697440216
 31
0.0
 11
68.50492199559469
 21
183.5963974998359
 31
0.0
 11
68.13738090104121
 21
184.9081017353251
 31
0.0
 11
67.87158215157778
 21
186.256826679021
 31
0.0
 11
67.71186085834447
 21
187.6221296020464
 31
0.0
 11
67.67173028523826
 21
188.3110648010232
 31
0.0
 11
67.65835342753626
 21
189.0
 31
0.0
  0
SPLINE
  5
F9
330
39
100
AcDbEntity
  8
0
  6
Continuous
 62
     7
100
AcDbSpline
210
0.0
220
0.0
230
1.0
 70
     8
 71
     3
 72
    27
 73
    23
 74
    21
 42
0.0000000001
 43
0.0000000001
 44
0.00000001
 40
0.0
 40
0.0
 40
0.0
 40
0.0
 40
0.689065054048727
 40
1.379168069030567
 40
2.753781819556091
 40
4.128448306004326
 40
5.490672390942479
 40
6.853000322911004
 40
8.196044086075704
 40
9.539238398831973
 40
10.85839619300665
 40
12.17774186025332
 40
13.47102292239849
 40
14.76451220574623
 40
16.03302580152686
 40
17.30174187210163
 40
18.54973150199773
 40
19.79788473214328
 40
21.03232383939865
 40
22.26685509271774
 40
23.49658802457866
 40
24.72632095643948
 40
24.72632095643948
 40
24.72632095643948
 40
24.72632095643948
 10
95.81639311624376
 20
189.0
 30
0.0
 10
95.81380352640394
 20
188.7702953927956
 30
0.0
 10
95.80862044594153
 20
188.3105401669223
 30
0.0
 10
95.75341327685624
 20
187.3939767002472
 30
0.0
 10
95.62108116658735
 20
186.254015303005
 30
0.0
 10
95.35569559848857
 20
184.9079972651169
 30
0.0
 10
94.98704699926942
 20
183.5908050190088
 30
0.0
 10
94.51833023837318
 20
182.3169742664101
 30
0.0
 10
93.95156876314962
 20
181.0906179916794
 30
0.0
 10
93.29326131225199
 20
179.927301584118
 30
0.0
 10
92.54522199499003
 20
178.8290802337481
 30
0.0
 10
91.71685266393376
 20
177.8113729455213
 30
0.0
 10
90.80986330953097
 20
176.8749114283418
 30
0.0
 10
89.83602734499883
 20
176.0337442984466
 30
0.0
 10
88.79739274201388
 20
175.2879486894191
 30
0.0
 10
87.70714874907363
 20
174.6492202545248
 30
0.0
 10
86.56843447734661
 20
174.1172940719574
 30
0.0
 10
85.39463244232719
 20
173.7011315749163
 30
0.0
 10
84.19073628327118
 20
173.3993502817937
 30
0.0
 10
82.96930396394556
 20
173.2206473487572
 30
0.0
 10
81.73685102328602
 20
173.1526618581883
 30
0.0
 10
80.91837198796175
 20
173.2101634986536
 30
0.0
 10
80.50913247029966
 20
173.2389143188863
 30
0.0
 11
95.81639311624376
 21
189.0
 31
0.0
 11
95.80301625854169
 21
188.3110648010232
 31
0.0
 11
95.76288568543548
 21
187.6221296020464
 31
0.0
 11
95.60316439220219
 21
186.256826679021
 31
0.0
 11
95.33736564273877
 21
184.9081017353251
 31
0.0
 11
94.96982454818529
 21
183.596397499836
 31
0.0
 11
94.49912308506347
 21
182.3179697440216
 31
0.0
 11
93.93522947341168
 21
181.0990396621408
 31
0.0
 11
93.27337608450443
 21
179.9302278494811
 31
0.0
 11
92.53020947841092
 21
178.8403284589321
 31
0.0
 11
91.69702884039751
 21
177.8173509351701
 31
0.0
 11
90.79672093688825
 21
176.8888997600499
 31
0.0
 11
89.81761404615861
 21
176.0436399049395
 31
0.0
 11
88.78673363580775
 21
175.3044428255114
 31
0.0
 11
87.69194850240771
 21
174.6632829551039
 31
0.0
 11
86.56088141782796
 21
174.1358691076288
 31
0.0
 11
85.38452202142871
 21
173.7186580622022
 31
0.0
 11
84.18684437113204
 21
173.4196460967204
 31
0.0
 11
82.96561407348031
 21
173.2389143188863
 31
0.0
 11
81.73737327188994
 21
173.1783534650953
 31
0.0
 11
80.50913247029966
 21
173.2389143188863
 31
0.0
  0
ARC
  5
FA
330
39
100
AcDbEntity
  8
1
  6
Continuous
 62
     7
100
AcDbCircle
 10
171.3229072289365
 20
323.0630213160334
 30
0.0
 40
10.0
100
AcDbArc
 50
-90.00000000000115
 51
-78.26660384524176
  0
ARC
  5
FB
330
39
100
AcDbEntity
  8
1
  6
Continuous
 62
     7
100
AcDbCircle
 10
171.3229072289365
 20
282.0630213160334
 30
0.0
 40
9.99999999999997
100
AcDbArc
 50
78.2666038452417
 51
90.00000000000115
  0
ARC
  5
FC
330
39
100
AcDbEntity
  8
1
  6
Continuous
 62
     7
100
AcDbCircle
 10
171.3229072289365
 20
168.5000000000074
 30
0.0
 40
9.999999999999996
100
AcDbArc
 50
78.26660384524173
 51
90.00000000000115
  0
ARC
  5
FD
330
39
100
AcDbEntity
  8
1
  6
Continuous
 62
     7
100
AcDbCircle
 10
171.3229072289346
 20
209.5000000000069
 30
0.0
 40
10.0
100
AcDbArc
 50
-90.00000000000343
 51
-78.26660384524348
  0
ARC
  5
FE
330
39
100
AcDbEntity
  8
1
  6
Continuous
 62
     7
100
AcDbCircle
 10
198.9999999999999
 20
183.1783534650953
 30
0.0
 40
10.00000000000004
100
AcDbArc
 50
-101.7333961547562
 51
-78.26660384524297
  0
ENDBLK
  5
3B
330
39
100
AcDbEntity
  8
0
100
AcDbBlockEnd
  0
BLOCK
  5
3D
330
3C
100
AcDbEntity
  8
0
100
AcDbBlockBegin
  2
35-22-C2
 70
     0
 71
     0
 10
87.41391045232597
 20
183.323462819564
 30
0.0
  3
35-22-C2
  1

  0
LINE
  5
FF
330
3C
100
AcDbEntity
  8
1
  6
Continuous
 62
     7
100
AcDbLine
 10
77.63737327189004
 20
186.6328638963225
 30
0.0
 11
77.63737327189004
 21
191.3671361036775
 31
0.0
  0
LINE
  5
100
330
3C
100
AcDbEntity
  8
1
  6
Continuous
 62
     7
100
AcDbLine
 10
81.73737327189001
 20
184.2657277926451
 30
0.0
 11
77.63737327189004
 21
186.6328638963225
 31
0.0
  0
LINE
  5
101
330
3C
100
AcDbEntity
  8
1
  6
Continuous
 62
     7
100
AcDbLine
 10
85.83737327189003
 20
186.6328638963225
 30
0.0
 11
81.73737327189001
 21
184.2657277926451
 31
0.0
  0
LINE
  5
102
330
3C
100
AcDbEntity
  8
1
  6
Continuous
 62
     7
100
AcDbLine
 10
85.83737327189003
 20
191.3671361036775
 30
0.0
 11
85.83737327189003
 21
186.6328638963225
 31
0.0
  0
LINE
  5
103
330
3C
100
AcDbEntity
  8
1
  6
Continuous
 62
     7
100
AcDbLine
 10
81.73737327189001
 20
193.7342722073549
 30
0.0
 11
85.83737327189003
 21
191.3671361036775
 31
0.0
  0
LINE
  5
104
330
3C
100
AcDbEntity
  8
1
  6
Continuous
 62
     7
100
AcDbLine
 10
77.63737327189004
 20
191.3671361036775
 30
0.0
 11
81.73737327189001
 21
193.7342722073549
 31
0.0
  0
CIRCLE
  5
105
330
3C
100
AcDbEntity
  8
1
  6
Continuous
 62
     7
100
AcDbCircle
 10
81.73737327188989
 20
189.0
 30
0.0
 40
5.676537180435986
  0
ENDBLK
  5
3E
330
3C
100
AcDbEntity
  8
0
100
AcDbBlockEnd
  0
BLOCK
  5
40
330
3F
100
AcDbEntity
  8
0
100
AcDbBlockBegin
  2
32-26
 70
     0
 71
     0
 10
6.19187149416842
 20
486.5634879671871
 30
0.0
  3
32-26
  1

  0
LINE
  5
106
330
3F
100
AcDbEntity
  8
1
  6
Continuous
 62
     7
100
AcDbLine
 10
143.1878221735088
 20
314.5630213160334
 30
0.0
 11
155.3121778264909
 21
314.5630213160334
 31
0.0
  0
LINE
  5
107
330
3F
100
AcDbEntity
  8
1
  6
Continuous
 62
     7
100
AcDbLine
 10
143.1878221735088
 20
290.5630213160334
 30
0.0
 11
155.3121778264909
 21
290.5630213160334
 31
0.0
  0
LINE
  5
108
330
3F
100
AcDbEntity
  8
1
  6
Continuous
 62
     7
100
AcDbLine
 10
155.9999999999999
 20
290.9527782943888
 30
0.0
 11
155.9999999999999
 21
314.1732643376779
 31
0.0
  0
LINE
  5
109
330
3F
100
AcDbEntity
  8
1
  6
Continuous
 62
     7
100
AcDbLine
 10
142.4999999999999
 20
314.1732643376779
 30
0.0
 11
142.4999999999999
 21
290.9527782943888
 31
0.0
  0
LINE
  5
10A
330
3F
100
AcDbEntity
  8
1
  6
Continuous
 62
     7
100
AcDbLine
 10
155.9999999999999
 20
177.6397569783555
 30
0.0
 11
155.9999999999999
 21
200.3602430216445
 31
0.0
  0
LINE
  5
10B
330
3F
100
AcDbEntity
  8
1
  6
Continuous
 62
     7
100
AcDbLine
 10
142.4999999999999
 20
177.6397569783555
 30
0.0
 11
142.4999999999999
 21
200.3602430216446
 31
0.0
  0
LINE
  5
10C
330
3F
100
AcDbEntity
  8
1
  6
PHANTOM
 62
     4
100
AcDbLine
 10
81.73737327188989
 20
204.2508436949184
 30
0.0
 11
81.73737327188989
 21
174.0648117879243
 31
0.0
  0
LINE
  5
10D
330
3F
100
AcDbEntity
  8
1
  6
Continuous
 62
     7
100
AcDbLine
 10
93.73737327188985
 20
194.618051263561
 30
0.0
 11
93.73737327188985
 21
189.0
 31
0.0
  0
LINE
  5
10E
330
3F
100
AcDbEntity
  8
1
  6
PHANTOM
 62
     4
100
AcDbLine
 10
66.72158190498355
 20
189.0
 30
0.0
 11
96.66548118555906
 21
189.0
 31
0.0
  0
LINE
  5
10F
330
3F
100
AcDbEntity
  8
1
  6
Continuous
 62
     7
100
AcDbLine
 10
82.87199815788283
 20
202.2013304771938
 30
0.0
 11
92.60274838589706
 21
196.5832792136328
 31
0.0
  0
LINE
  5
110
330
3F
100
AcDbEntity
  8
1
  6
Continuous
 62
     7
100
AcDbLine
 10
70.87199815788283
 20
196.5832792136328
 30
0.0
 11
80.60274838589702
 21
202.2013304771938
 31
0.0
  0
LINE
  5
111
330
3F
100
AcDbEntity
  8
1
  6
Continuous
 62
     7
100
AcDbLine
 10
69.73737327188995
 20
189.0
 30
0.0
 11
69.73737327188995
 21
194.618051263561
 31
0.0
  0
LINE
  5
112
330
3F
100
AcDbEntity
  8
1
  6
Continuous
 62
     7
100
AcDbLine
 10
93.73737327188985
 20
189.0
 30
0.0
 11
93.73737327188985
 21
183.381948736439
 31
0.0
  0
LINE
  5
113
330
3F
100
AcDbEntity
  8
1
  6
Continuous
 62
     7
100
AcDbLine
 10
92.60274838589706
 20
181.4167207863673
 30
0.0
 11
82.87199815788283
 21
175.7986695228062
 31
0.0
  0
LINE
  5
114
330
3F
100
AcDbEntity
  8
1
  6
Continuous
 62
     7
100
AcDbLine
 10
80.60274838589702
 20
175.7986695228062
 30
0.0
 11
70.87199815788283
 21
181.4167207863673
 31
0.0
  0
LINE
  5
115
330
3F
100
AcDbEntity
  8
1
  6
Continuous
 62
     7
100
AcDbLine
 10
69.73737327188995
 20
183.381948736439
 30
0.0
 11
69.73737327188995
 21
189.0
 31
0.0
  0
ARC
  5
116
330
3F
100
AcDbEntity
  8
1
  6
Continuous
 62
     7
100
AcDbCircle
 10
149.2499999999999
 20
303.0630213160334
 30
0.0
 40
13.0
100
AcDbArc
 50
117.795772496028
 51
121.2806671520485
  0
ARC
  5
117
330
3F
100
AcDbEntity
  8
1
  6
Continuous
 62
     7
100
AcDbCircle
 10
149.2499999999999
 20
302.0630213160334
 30
0.0
 40
12.99999999999998
100
AcDbArc
 50
-62.20422750397222
 51
-58.7193328479519
  0
ARC
  5
118
330
3F
100
AcDbEntity
  8
1
  6
Continuous
 62
     7
100
AcDbCircle
 10
149.2499999999999
 20
302.0630213160334
 30
0.0
 40
13.00000000000013
100
AcDbArc
 50
-121.2806671520481
 51
-117.795772496028
  0
ARC
  5
119
330
3F
100
AcDbEntity
  8
1
  6
Continuous
 62
     7
100
AcDbCircle
 10
149.2499999999999
 20
303.0630213160334
 30
0.0
 40
12.99999999999998
100
AcDbArc
 50
58.71933284795151
 51
62.20422750397222
  0
ARC
  5
11A
330
3F
100
AcDbEntity
  8
1
  6
Continuous
 62
     7
100
AcDbCircle
 10
149.2499999999999
 20
188.75
 30
0.0
 40
12.99999999999997
100
AcDbArc
 50
-86.69263782032954
 51
-58.71933284795157
  0
ARC
  5
11B
330
3F
100
AcDbEntity
  8
1
  6
Continuous
 62
     7
100
AcDbCircle
 10
149.5213256598779
 20
189.015546310952
 30
0.0
 40
6.332098487497178
100
AcDbArc
 50
-179.8593295885756
 51
-141.895167293976
  0
ARC
  5
11C
330
3F
100
AcDbEntity
  8
1
  6
Continuous
 62
     7
100
AcDbCircle
 10
149.0496922820761
 20
189.0509339182221
 30
0.0
 40
6.238808798172498
100
AcDbArc
 50
-88.16010396865634
 51
-0.46777054110845
  0
ARC
  5
11D
330
3F
100
AcDbEntity
  8
1
  6
Continuous
 62
     7
100
AcDbCircle
 10
149.2502743634913
 20
188.8029780258756
 30
0.0
 40
5.987636470587831
100
AcDbArc
 50
-141.8951672939762
 51
-90.00262538819656
  0
ARC
  5
11E
330
3F
100
AcDbEntity
  8
1
  6
Continuous
 62
     7
100
AcDbCircle
 10
149.2499999999999
 20
189.25
 30
0.0
 40
13.00000000000001
100
AcDbArc
 50
58.71933284795157
 51
121.2806671520482
  0
ARC
  5
11F
330
3F
100
AcDbEntity
  8
1
  6
Continuous
 62
     7
100
AcDbCircle
 10
149.5213256598779
 20
188.984453689048
 30
0.0
 40
6.332098487497079
100
AcDbArc
 50
141.895167293976
 51
179.8593295885756
  0
ARC
  5
120
330
3F
100
AcDbEntity
  8
1
  6
Continuous
 62
     7
100
AcDbCircle
 10
149.0496922820761
 20
188.9490660817779
 30
0.0
 40
6.238808798172543
100
AcDbArc
 50
0.46777054110845
 51
88.16010396865634
  0
ARC
  5
121
330
3F
100
AcDbEntity
  8
1
  6
Continuous
 62
     7
100
AcDbCircle
 10
149.2502743634913
 20
189.1970219741244
 30
0.0
 40
5.98763647058801
100
AcDbArc
 50
90.00262538819656
 51
141.8951672939762
  0
ARC
  5
122
330
3F
100
AcDbEntity
  8
1
  6
Continuous
 62
     7
100
AcDbCircle
 10
81.73737327188989
 20
189.0
 30
0.0
 40
13.24999999999994
100
AcDbArc
 50
25.08762784151146
 51
34.91237215848859
  0
ARC
  5
123
330
3F
100
AcDbEntity
  8
1
  6
Continuous
 62
     7
100
AcDbCircle
 10
81.73737327188989
 20
189.0
 30
0.0
 40
13.25000000000002
100
AcDbArc
 50
85.08762784151129
 51
90.0
  0
ARC
  5
124
330
3F
100
AcDbEntity
  8
1
  6
Continuous
 62
     7
100
AcDbCircle
 10
81.73737327188989
 20
189.0
 30
0.0
 40
13.25
100
AcDbArc
 50
90.0
 51
94.91237215848848
  0
ARC
  5
125
330
3F
100
AcDbEntity
  8
1
  6
Continuous
 62
     7
100
AcDbCircle
 10
81.73737327188989
 20
189.0
 30
0.0
 40
13.24999999999998
100
AcDbArc
 50
145.0876278415112
 51
154.9123721584885
  0
ARC
  5
126
330
3F
100
AcDbEntity
  8
1
  6
Continuous
 62
     7
100
AcDbCircle
 10
81.73737327188989
 20
189.0
 30
0.0
 40
13.25
100
AcDbArc
 50
-34.91237215848819
 51
-25.08762784151146
  0
ARC
  5
127
330
3F
100
AcDbEntity
  8
1
  6
Continuous
 62
     7
100
AcDbCircle
 10
81.73737327188989
 20
189.0
 30
0.0
 40
13.25
100
AcDbArc
 50
-90.0
 51
-85.08762784151129
  0
ARC
  5
128
330
3F
100
AcDbEntity
  8
1
  6
Continuous
 62
     7
100
AcDbCircle
 10
81.73737327188989
 20
189.0
 30
0.0
 40
13.25000000000002
100
AcDbArc
 50
-94.91237215848848
 51
-90.0
  0
ARC
  5
129
330
3F
100
AcDbEntity
  8
1
  6
Continuous
 62
     7
100
AcDbCircle
 10
81.73737327188989
 20
189.0
 30
0.0
 40
13.24999999999992
100
AcDbArc
 50
-154.9123721584885
 51
-145.0876278415116
  0
ARC
  5
12A
330
3F
100
AcDbEntity
  8
1
  6
Continuous
 62
     7
100
AcDbCircle
 10
149.2499999999999
 20
188.75
 30
0.0
 40
13.00000000000001
100
AcDbArc
 50
-121.2806671520484
 51
-86.69263782032954
  0
CIRCLE
  5
12B
330
3F
100
AcDbEntity
  8
1
  6
Continuous
 62
     7
100
AcDbCircle
 10
81.73737327188989
 20
189.0
 30
0.0
 40
11.36024302164449
  0
CIRCLE
  5
12C
330
3F
100
AcDbEntity
  8
1
  6
Continuous
 62
     7
100
AcDbCircle
 10
81.73737327188989
 20
189.0
 30
0.0
 40
8.550000000000011
  0
SPLINE
  5
12D
330
3F
100
AcDbEntity
  8
1
  6
Continuous
 62
     7
100
AcDbSpline
210
0.0
220
0.0
230
1.0
 70
    11
 71
     3
 72
    79
 73
    75
 74
    73
 42
0.0000000001
 43
0.0000000001
 44
0.00000001
 40
0.0
 40
0.0
 40
0.0
 40
0.0
 40
0.2732520596959515
 40
0.546686974374699
 40
0.841398680783938
 40
1.136327588787114
 40
1.467767925674721
 40
1.799287330784563
 40
2.174576154088378
 40
2.549907460999912
 40
2.969561235580275
 40
3.389237629160027
 40
3.849011454340515
 40
4.308799503993671
 40
4.801169042998283
 40
5.293547118901633
 40
5.808782067216407
 40
6.324021649886142
 40
6.851020326127311
 40
7.378020465970168
 40
7.905020605812939
 40
8.432019282054052
 40
8.947258864723782
 40
9.462493813038561
 40
9.954871888941883
 40
10.44724142794652
 40
10.90702947759971
 40
11.36680330278017
 40
11.78647969635994
 40
12.20613347094033
 40
12.58146477785183
 40
12.95675360115572
 40
13.28827300626552
 40
13.61971334315307
 40
13.91464225115624
 40
14.20935395756548
 40
14.48278887224423
 40
14.75604093194018
 40
15.02929299163611
 40
15.3027279063148
 40
15.59743961272409
 40
15.89236852072721
 40
16.22380885761476
 40
16.55532826272456
 40
16.93061708602847
 40
17.30594839294002
 40
17.72560216752038
 40
18.14527856110018
 40
18.60505238628065
 40
19.06484043593382
 40
19.55720997493845
 40
20.04958805084177
 40
20.56482299915655
 40
21.08006258182628
 40
21.60706125806737
 40
22.13406139791017
 40
22.66106153775305
 40
23.18806021399419
 40
23.70329979666392
 40
24.2185347449787
 40
24.71091282088199
 40
25.20328235988666
 40
25.66307040953982
 40
26.1228442347203
 40
26.54252062830011
 40
26.96217440288046
 40
27.33750570979199
 40
27.71279453309581
 40
28.04431393820565
 40
28.37575427509326
 40
28.67068318309647
 40
28.96539488950567
 40
29.2388298041844
 40
29.51208186388029
 40
29.51208186388029
 40
29.51208186388029
 40
29.51208186388029
 10
155.3121778264911
 20
198.9079695830818
 30
0.0
 10
155.307446037576
 20
198.9991485320385
 30
0.0
 10
155.2979792933245
 20
199.1815674451376
 30
0.0
 10
155.224389522413
 20
199.454187260685
 30
0.0
 10
155.1084336762919
 20
199.7184411703104
 30
0.0
 10
154.944880889194
 20
199.9794281068812
 30
0.0
 10
154.7418186442351
 20
200.2268802343908
 30
0.0
 10
154.4928695123735
 20
200.4681494060368
 30
0.0
 10
154.2099819691718
 20
200.6928661233082
 30
0.0
 10
153.8839097864048
 20
200.9077302921415
 30
0.0
 10
153.5292815330326
 20
201.1039278772591
 30
0.0
 10
153.1362113811919
 20
201.2863404216836
 30
0.0
 10
152.7199581753553
 20
201.4484491368518
 30
0.0
 10
152.2718715642782
 20
201.593175298896
 30
0.0
 10
151.806133854398
 20
201.716322585003
 30
0.0
 10
151.3166309132279
 20
201.8191791035835
 30
0.0
 10
150.8152146249258
 20
201.8995321271842
 30
0.0
 10
150.2991314408536
 20
201.9575729447349
 30
0.0
 10
149.7770440298046
 20
201.9925465306405
 30
0.0
 10
149.2499999999988
 20
202.0041749435049
 30
0.0
 10
148.7229559701996
 20
201.9925465306405
 30
0.0
 10
148.200868559131
 20
201.9575729447349
 30
0.0
 10
147.6847853751295
 20
201.8995321271843
 30
0.0
 10
147.1833690865689
 20
201.8191791035834
 30
0.0
 10
146.6938661463226
 20
201.716322585003
 30
0.0
 10
146.2281284331032
 20
201.593175298896
 30
0.0
 10
145.7800418337008
 20
201.4484491368518
 30
0.0
 10
145.3637885861816
 20
201.2863404216836
 30
0.0
 10
144.9707185769864
 20
201.103927877259
 30
0.0
 10
144.6160898201386
 20
200.9077302921414
 30
0.0
 10
144.2900193279004
 20
200.6928661233081
 30
0.0
 10
144.0071258686525
 20
200.468149406037
 30
0.0
 10
143.7581963742138
 20
200.2268802343907
 30
0.0
 10
143.5550654601653
 20
199.9794281068811
 30
0.0
 10
143.3917421576451
 20
199.7184411703103
 30
0.0
 10
143.2749722909775
 20
199.4541872606851
 30
0.0
 10
143.2042118834857
 20
199.1815674451375
 30
0.0
 10
143.1796300595223
 20
198.9079695830818
 30
0.0
 10
143.2042118834857
 20
198.6343717210261
 30
0.0
 10
143.2749722909775
 20
198.3617519054786
 30
0.0
 10
143.3917421576451
 20
198.0974979958534
 30
0.0
 10
143.5550654601653
 20
197.8365110592824
 30
0.0
 10
143.7581963742138
 20
197.5890589317731
 30
0.0
 10
144.0071258686525
 20
197.3477897601268
 30
0.0
 10
144.2900193279004
 20
197.1230730428556
 30
0.0
 10
144.6160898201386
 20
196.9082088740221
 30
0.0
 10
144.9707185769863
 20
196.7120112889046
 30
0.0
 10
145.3637885861816
 20
196.52959874448
 30
0.0
 10
145.7800418337008
 20
196.3674900293119
 30
0.0
 10
146.2281284331032
 20
196.2227638672675
 30
0.0
 10
146.6938661463226
 20
196.0996165811607
 30
0.0
 10
147.1833690865689
 20
195.9967600625803
 30
0.0
 10
147.6847853751295
 20
195.9164070389793
 30
0.0
 10
148.200868559131
 20
195.8583662214287
 30
0.0
 10
148.7229559701996
 20
195.8233926355231
 30
0.0
 10
149.2499999999988
 20
195.8117642226588
 30
0.0
 10
149.7770440298047
 20
195.8233926355231
 30
0.0
 10
150.2991314408537
 20
195.8583662214288
 30
0.0
 10
150.8152146249258
 20
195.9164070389792
 30
0.0
 10
151.3166309132278
 20
195.9967600625802
 30
0.0
 10
151.8061338543981
 20
196.0996165811606
 30
0.0
 10
152.2718715642782
 20
196.2227638672675
 30
0.0
 10
152.7199581753552
 20
196.3674900293119
 30
0.0
 10
153.136211381192
 20
196.52959874448
 30
0.0
 10
153.5292815330325
 20
196.7120112889045
 30
0.0
 10
153.8839097864049
 20
196.9082088740222
 30
0.0
 10
154.2099819691717
 20
197.1230730428555
 30
0.0
 10
154.4928695123736
 20
197.3477897601269
 30
0.0
 10
154.7418186442351
 20
197.589058931773
 30
0.0
 10
154.944880889194
 20
197.8365110592825
 30
0.0
 10
155.1084336762919
 20
198.0974979958534
 30
0.0
 10
155.224389522413
 20
198.3617519054787
 30
0.0
 10
155.2979792933245
 20
198.6343717210261
 30
0.0
 10
155.307446037576
 20
198.8167906341251
 30
0.0
 10
155.3121778264911
 20
198.9079695830818
 30
0.0
 11
155.3121778264911
 21
198.9079695830818
 31
0.0
 11
155.2884020778892
 21
199.1801853098621
 31
0.0
 11
155.2200797236671
 21
199.4449469167444
 31
0.0
 11
155.1020973340759
 21
199.7150119934222
 31
0.0
 11
154.9465837694455
 21
199.9656084658473
 31
0.0
 11
154.7372308296551
 21
200.2225599077916
 31
0.0
 11
154.4999999999999
 21
200.4541341926885
 31
0.0
 11
154.206763163713
 21
200.6883431992216
 31
0.0
 11
153.8938976371825
 21
200.8956804902638
 31
0.0
 11
153.5270611474111
 21
201.0994948182483
 31
0.0
 11
153.1466927945849
 21
201.2768311977545
 31
0.0
 11
152.7184582850823
 21
201.4441846416752
 31
0.0
 11
152.2810889132454
 21
201.5860052437854
 31
0.0
 11
151.8051701800257
 21
201.7122158705574
 31
0.0
 11
151.3233869290822
 21
201.8138085314172
 31
0.0
 11
150.8146756558792
 21
201.8955391406227
 31
0.0
 11
150.302686132263
 21
201.9533193730292
 31
0.0
 11
149.7768705393225
 21
201.9886119640443
 31
0.0
 11
149.2499999999999
 21
202.0002988022951
 31
0.0
 11
148.7231294606774
 21
201.9886119640443
 31
0.0
 11
148.1973138677369
 21
201.9533193730292
 31
0.0
 11
147.6853243441207
 21
201.8955391406228
 31
0.0
 11
147.1766130709177
 21
201.8138085314172
 31
0.0
 11
146.6948298199742
 21
201.7122158705574
 31
0.0
 11
146.2189110867545
 21
201.5860052437854
 31
0.0
 11
145.7815417149176
 21
201.4441846416752
 31
0.0
 11
145.353307205415
 21
201.2768311977545
 31
0.0
 11
144.9729388525888
 21
201.0994948182482
 31
0.0
 11
144.6061023628174
 21
200.8956804902637
 31
0.0
 11
144.2932368362869
 21
200.6883431992216
 31
0.0
 11
143.9999999999999
 21
200.4541341926885
 31
0.0
 11
143.7627691703448
 21
200.2225599077916
 31
0.0
 11
143.5534162305544
 21
199.9656084658473
 31
0.0
 11
143.3979026659241
 21
199.7150119934222
 31
0.0
 11
143.2799202763328
 21
199.4449469167444
 31
0.0
 11
143.2115979221107
 21
199.1801853098621
 31
0.0
 11
143.1878221735088
 21
198.9079695830818
 31
0.0
 11
143.2115979221107
 21
198.6357538563016
 31
0.0
 11
143.2799202763328
 21
198.3709922494193
 31
0.0
 11
143.3979026659241
 21
198.1009271727415
 31
0.0
 11
143.5534162305544
 21
197.8503307003164
 31
0.0
 11
143.7627691703448
 21
197.5933792583721
 31
0.0
 11
143.9999999999999
 21
197.3618049734752
 31
0.0
 11
144.2932368362869
 21
197.1275959669421
 31
0.0
 11
144.6061023628174
 21
196.9202586758999
 31
0.0
 11
144.9729388525888
 21
196.7164443479154
 31
0.0
 11
145.353307205415
 21
196.5391079684091
 31
0.0
 11
145.7815417149177
 21
196.3717545244884
 31
0.0
 11
146.2189110867545
 21
196.2299339223782
 31
0.0
 11
146.6948298199742
 21
196.1037232956062
 31
0.0
 11
147.1766130709177
 21
196.0021306347464
 31
0.0
 11
147.6853243441207
 21
195.9204000255409
 31
0.0
 11
148.1973138677369
 21
195.8626197931344
 31
0.0
 11
148.7231294606773
 21
195.8273272021194
 31
0.0
 11
149.2499999999999
 21
195.8156403638685
 31
0.0
 11
149.7768705393225
 21
195.8273272021194
 31
0.0
 11
150.302686132263
 21
195.8626197931344
 31
0.0
 11
150.8146756558792
 21
195.9204000255409
 31
0.0
 11
151.3233869290822
 21
196.0021306347464
 31
0.0
 11
151.8051701800257
 21
196.1037232956062
 31
0.0
 11
152.2810889132454
 21
196.2299339223782
 31
0.0
 11
152.7184582850823
 21
196.3717545244884
 31
0.0
 11
153.1466927945849
 21
196.5391079684091
 31
0.0
 11
153.5270611474112
 21
196.7164443479154
 31
0.0
 11
153.8938976371825
 21
196.9202586758999
 31
0.0
 11
154.206763163713
 21
197.1275959669421
 31
0.0
 11
154.4999999999999
 21
197.3618049734752
 31
0.0
 11
154.7372308296551
 21
197.5933792583721
 31
0.0
 11
154.9465837694455
 21
197.8503307003164
 31
0.0
 11
155.1020973340759
 21
198.1009271727415
 31
0.0
 11
155.2200797236671
 21
198.3709922494193
 31
0.0
 11
155.2884020778892
 21
198.6357538563016
 31
0.0
 11
155.3121778264911
 21
198.9079695830818
 31
0.0
  0
SPLINE
  5
12E
330
3F
100
AcDbEntity
  8
1
  6
Continuous
 62
     7
100
AcDbSpline
210
0.0
220
0.0
230
1.0
 70
    11
 71
     3
 72
    79
 73
    75
 74
    73
 42
0.0000000001
 43
0.0000000001
 44
0.00000001
 40
0.0
 40
0.0
 40
0.0
 40
0.0
 40
0.2732520596959515
 40
0.546686974374699
 40
0.8413986807839087
 40
1.136327588787006
 40
1.467767925674657
 40
1.79928733078454
 40
2.174576154088354
 40
2.549907460999888
 40
2.969561235580237
 40
3.389237629160001
 40
3.849011454340479
 40
4.308799503993644
 40
4.80116904299831
 40
5.293547118901604
 40
5.808782067216387
 40
6.324021649886114
 40
6.851020326127276
 40
7.378020465970132
 40
7.905020605812903
 40
8.432019282054009
 40
8.947258864723736
 40
9.462493813038519
 40
9.95487188894184
 40
10.44724142794648
 40
10.90702947759966
 40
11.36680330278012
 40
11.7864796963599
 40
12.20613347094029
 40
12.58146477785179
 40
12.95675360115568
 40
13.2882730062655
 40
13.61971334315312
 40
13.91464225115621
 40
14.20935395756542
 40
14.48278887224418
 40
14.75604093194013
 40
15.02929299163608
 40
15.30272790631474
 40
15.59743961272398
 40
15.89236852072715
 40
16.2238088576147
 40
16.5553282627245
 40
16.93061708602848
 40
17.30594839294003
 40
17.72560216752038
 40
18.14527856110014
 40
18.60505238628065
 40
19.06484043593379
 40
19.55720997493842
 40
20.04958805084174
 40
20.56482299915652
 40
21.08006258182625
 40
21.60706125806733
 40
22.13406139791013
 40
22.66106153775302
 40
23.18806021399416
 40
23.70329979666389
 40
24.21853474497867
 40
24.71091282088196
 40
25.20328235988662
 40
25.66307040953979
 40
26.12284423472027
 40
26.54252062830006
 40
26.96217440288038
 40
27.33750570979194
 40
27.7127945330958
 40
28.04431393820564
 40
28.37575427509324
 40
28.67068318309641
 40
28.96539488950566
 40
29.23882980418433
 40
29.51208186388028
 40
29.51208186388028
 40
29.51208186388028
 40
29.51208186388028
 10
155.3121778264911
 20
179.0920304169182
 30
0.0
 10
155.307446037576
 20
179.0008514679615
 30
0.0
 10
155.2979792933245
 20
178.8184325548625
 30
0.0
 10
155.224389522413
 20
178.545812739315
 30
0.0
 10
155.1084336762918
 20
178.2815588296898
 30
0.0
 10
154.944880889194
 20
178.0205718931189
 30
0.0
 10
154.7418186442351
 20
177.7731197656093
 30
0.0
 10
154.4928695123736
 20
177.5318505939632
 30
0.0
 10
154.2099819691718
 20
177.3071338766918
 30
0.0
 10
153.8839097864048
 20
177.0922697078584
 30
0.0
 10
153.5292815330325
 20
176.8960721227409
 30
0.0
 10
153.1362113811919
 20
176.7136595783164
 30
0.0
 10
152.7199581753553
 20
176.5515508631484
 30
0.0
 10
152.2718715642782
 20
176.406824701104
 30
0.0
 10
151.8061338543981
 20
176.2836774149971
 30
0.0
 10
151.3166309132279
 20
176.1808208964166
 30
0.0
 10
150.8152146249258
 20
176.1004678728156
 30
0.0
 10
150.2991314408536
 20
176.0424270552651
 30
0.0
 10
149.7770440298046
 20
176.0074534693596
 30
0.0
 10
149.2499999999988
 20
175.9958250564952
 30
0.0
 10
148.7229559701996
 20
176.0074534693596
 30
0.0
 10
148.200868559131
 20
176.0424270552651
 30
0.0
 10
147.6847853751296
 20
176.1004678728157
 30
0.0
 10
147.1833690865689
 20
176.1808208964166
 30
0.0
 10
146.6938661463226
 20
176.283677414997
 30
0.0
 10
146.2281284331032
 20
176.406824701104
 30
0.0
 10
145.7800418337008
 20
176.5515508631482
 30
0.0
 10
145.3637885861816
 20
176.7136595783163
 30
0.0
 10
144.9707185769864
 20
176.8960721227411
 30
0.0
 10
144.6160898201386
 20
177.0922697078585
 30
0.0
 10
144.2900193279004
 20
177.3071338766919
 30
0.0
 10
144.0071258686525
 20
177.5318505939631
 30
0.0
 10
143.7581963742137
 20
177.7731197656093
 30
0.0
 10
143.5550654601654
 20
178.0205718931189
 30
0.0
 10
143.3917421576451
 20
178.2815588296898
 30
0.0
 10
143.2749722909774
 20
178.5458127393149
 30
0.0
 10
143.2042118834857
 20
178.8184325548625
 30
0.0
 10
143.1796300595223
 20
179.0920304169182
 30
0.0
 10
143.2042118834857
 20
179.3656282789739
 30
0.0
 10
143.2749722909775
 20
179.6382480945214
 30
0.0
 10
143.3917421576451
 20
179.9025020041466
 30
0.0
 10
143.5550654601653
 20
180.1634889407175
 30
0.0
 10
143.7581963742138
 20
180.4109410682271
 30
0.0
 10
144.0071258686525
 20
180.6522102398732
 30
0.0
 10
144.2900193279003
 20
180.8769269571445
 30
0.0
 10
144.6160898201386
 20
181.091791125978
 30
0.0
 10
144.9707185769863
 20
181.2879887110955
 30
0.0
 10
145.3637885861816
 20
181.47040125552
 30
0.0
 10
145.7800418337008
 20
181.6325099706881
 30
0.0
 10
146.2281284331032
 20
181.7772361327324
 30
0.0
 10
146.6938661463225
 20
181.9003834188393
 30
0.0
 10
147.183369086569
 20
182.0032399374198
 30
0.0
 10
147.6847853751295
 20
182.0835929610206
 30
0.0
 10
148.200868559131
 20
182.1416337785713
 30
0.0
 10
148.7229559701996
 20
182.1766073644769
 30
0.0
 10
149.2499999999988
 20
182.1882357773413
 30
0.0
 10
149.7770440298047
 20
182.1766073644769
 30
0.0
 10
150.2991314408537
 20
182.1416337785713
 30
0.0
 10
150.8152146249258
 20
182.0835929610207
 30
0.0
 10
151.3166309132278
 20
182.0032399374198
 30
0.0
 10
151.8061338543981
 20
181.9003834188394
 30
0.0
 10
152.2718715642782
 20
181.7772361327324
 30
0.0
 10
152.7199581753553
 20
181.6325099706882
 30
0.0
 10
153.136211381192
 20
181.47040125552
 30
0.0
 10
153.5292815330325
 20
181.2879887110955
 30
0.0
 10
153.8839097864049
 20
181.091791125978
 30
0.0
 10
154.2099819691718
 20
180.8769269571445
 30
0.0
 10
154.4928695123735
 20
180.6522102398731
 30
0.0
 10
154.7418186442351
 20
180.410941068227
 30
0.0
 10
154.9448808891939
 20
180.1634889407175
 30
0.0
 10
155.1084336762919
 20
179.9025020041466
 30
0.0
 10
155.224389522413
 20
179.6382480945213
 30
0.0
 10
155.2979792933245
 20
179.3656282789739
 30
0.0
 10
155.3074460375761
 20
179.1832093658749
 30
0.0
 10
155.3121778264911
 20
179.0920304169182
 30
0.0
 11
155.3121778264911
 21
179.0920304169182
 31
0.0
 11
155.2884020778892
 21
178.819814690138
 31
0.0
 11
155.2200797236671
 21
178.5550530832556
 31
0.0
 11
155.1020973340758
 21
178.2849880065778
 31
0.0
 11
154.9465837694455
 21
178.0343915341528
 31
0.0
 11
154.7372308296551
 21
177.7774400922084
 31
0.0
 11
154.4999999999999
 21
177.5458658073115
 31
0.0
 11
154.206763163713
 21
177.3116568007784
 31
0.0
 11
153.8938976371825
 21
177.1043195097362
 31
0.0
 11
153.5270611474111
 21
176.9005051817518
 31
0.0
 11
153.1466927945849
 21
176.7231688022455
 31
0.0
 11
152.7184582850823
 21
176.5558153583249
 31
0.0
 11
152.2810889132454
 21
176.4139947562146
 31
0.0
 11
151.8051701800257
 21
176.2877841294426
 31
0.0
 11
151.3233869290822
 21
176.1861914685828
 31
0.0
 11
150.8146756558792
 21
176.1044608593772
 31
0.0
 11
150.302686132263
 21
176.0466806269708
 31
0.0
 11
149.7768705393225
 21
176.0113880359559
 31
0.0
 11
149.2499999999999
 21
175.999701197705
 31
0.0
 11
148.7231294606774
 21
176.0113880359559
 31
0.0
 11
148.1973138677369
 21
176.0466806269708
 31
0.0
 11
147.6853243441207
 21
176.1044608593772
 31
0.0
 11
147.1766130709177
 21
176.1861914685828
 31
0.0
 11
146.6948298199742
 21
176.2877841294426
 31
0.0
 11
146.2189110867545
 21
176.4139947562146
 31
0.0
 11
145.7815417149176
 21
176.5558153583248
 31
0.0
 11
145.353307205415
 21
176.7231688022455
 31
0.0
 11
144.9729388525888
 21
176.9005051817518
 31
0.0
 11
144.6061023628174
 21
177.1043195097363
 31
0.0
 11
144.2932368362869
 21
177.3116568007784
 31
0.0
 11
143.9999999999999
 21
177.5458658073115
 31
0.0
 11
143.7627691703448
 21
177.7774400922084
 31
0.0
 11
143.5534162305544
 21
178.0343915341528
 31
0.0
 11
143.3979026659241
 21
178.2849880065778
 31
0.0
 11
143.2799202763328
 21
178.5550530832556
 31
0.0
 11
143.2115979221107
 21
178.819814690138
 31
0.0
 11
143.1878221735088
 21
179.0920304169182
 31
0.0
 11
143.2115979221107
 21
179.3642461436984
 31
0.0
 11
143.2799202763328
 21
179.6290077505807
 31
0.0
 11
143.3979026659241
 21
179.8990728272585
 31
0.0
 11
143.5534162305544
 21
180.1496692996836
 31
0.0
 11
143.7627691703448
 21
180.4066207416279
 31
0.0
 11
143.9999999999999
 21
180.6381950265248
 31
0.0
 11
144.2932368362869
 21
180.872404033058
 31
0.0
 11
144.6061023628174
 21
181.0797413241002
 31
0.0
 11
144.9729388525888
 21
181.2835556520847
 31
0.0
 11
145.353307205415
 21
181.4608920315909
 31
0.0
 11
145.7815417149177
 21
181.6282454755116
 31
0.0
 11
146.2189110867545
 21
181.7700660776218
 31
0.0
 11
146.6948298199742
 21
181.8962767043938
 31
0.0
 11
147.1766130709177
 21
181.9978693652536
 31
0.0
 11
147.6853243441207
 21
182.0795999744591
 31
0.0
 11
148.1973138677369
 21
182.1373802068656
 31
0.0
 11
148.7231294606773
 21
182.1726727978806
 31
0.0
 11
149.2499999999999
 21
182.1843596361315
 31
0.0
 11
149.7768705393225
 21
182.1726727978806
 31
0.0
 11
150.302686132263
 21
182.1373802068656
 31
0.0
 11
150.8146756558792
 21
182.0795999744591
 31
0.0
 11
151.3233869290822
 21
181.9978693652536
 31
0.0
 11
151.8051701800257
 21
181.8962767043938
 31
0.0
 11
152.2810889132454
 21
181.7700660776218
 31
0.0
 11
152.7184582850823
 21
181.6282454755116
 31
0.0
 11
153.1466927945849
 21
181.4608920315909
 31
0.0
 11
153.5270611474112
 21
181.2835556520847
 31
0.0
 11
153.8938976371825
 21
181.0797413241002
 31
0.0
 11
154.206763163713
 21
180.872404033058
 31
0.0
 11
154.4999999999999
 21
180.6381950265248
 31
0.0
 11
154.7372308296551
 21
180.4066207416279
 31
0.0
 11
154.9465837694455
 21
180.1496692996836
 31
0.0
 11
155.1020973340759
 21
179.8990728272586
 31
0.0
 11
155.2200797236671
 21
179.6290077505807
 31
0.0
 11
155.2884020778892
 21
179.3642461436984
 31
0.0
 11
155.3121778264911
 21
179.0920304169182
 31
0.0
  0
SPLINE
  5
12F
330
3F
100
AcDbEntity
  8
1
  6
Continuous
 62
     7
100
AcDbSpline
210
0.0
220
0.0
230
1.0
 70
    11
 71
     3
 72
    79
 73
    75
 74
    73
 42
0.0000000001
 43
0.0000000001
 44
0.00000001
 40
0.0
 40
0.0
 40
0.0
 40
0.0
 40
0.4678744007739355
 40
0.9357531927872258
 40
1.407485930135136
 40
1.879230484328243
 40
2.358135841895862
 40
2.837057239131091
 40
3.325463367261268
 40
3.813886402176155
 40
4.31287955718009
 40
4.811888069867778
 40
5.321250498094499
 40
5.830625406988161
 40
6.348936658710713
 40
6.867256949342171
 40
7.392112797561182
 40
7.916974076742581
 40
8.44528025463997
 40
8.973588240303844
 40
9.50189622596786
 40
10.03020240386525
 40
10.55506368304659
 40
11.07991953126547
 40
11.59823982189693
 40
12.11655107361948
 40
12.62592598251321
 40
13.13528841074004
 40
13.63429692342772
 40
14.13329007843166
 40
14.62171311334654
 40
15.11011924147664
 40
15.58904063871185
 40
16.06794599627946
 40
16.53969055047255
 40
17.01142328782054
 40
17.47930207983376
 40
17.94717648060775
 40
18.41505088138173
 40
18.88292967339512
 40
19.35466241074305
 40
19.8264069649362
 40
20.30531232250386
 40
20.78423371973902
 40
21.27263984786909
 40
21.761062882784
 40
22.26005603778789
 40
22.75906455047558
 40
23.26842697870239
 40
23.7778018875961
 40
24.2961131393186
 40
24.81443342995011
 40
25.33928927816901
 40
25.86415055735036
 40
26.39245673524776
 40
26.92076472091175
 40
27.44907270657565
 40
27.97737888447299
 40
28.50224016365442
 40
29.02709601187342
 40
29.5454163025049
 40
30.06372755422743
 40
30.57310246312106
 40
31.08246489134778
 40
31.58147340403537
 40
32.08046655903937
 40
32.56888959395423
 40
33.05729572208443
 40
33.53621711931956
 40
34.01512247688729
 40
34.48686703108043
 40
34.9585997684283
 40
35.42647856044171
 40
35.8943529612157
 40
35.8943529612157
 40
35.8943529612157
 40
35.8943529612157
 10
143.1878221735088
 20
308.5630213160334
 30
0.0
 10
143.1923019921113
 20
308.7190412771032
 30
0.0
 10
143.2012616713617
 20
309.0310826635695
 30
0.0
 10
143.2731615386285
 20
309.4958667857719
 30
0.0
 10
143.3873951351264
 20
309.9528374019451
 30
0.0
 10
143.5473236204074
 20
310.4000185862701
 30
0.0
 10
143.7501834527088
 20
310.8319839394345
 30
0.0
 10
143.9954821666644
 20
311.2477943175962
 30
0.0
 10
144.2800091207082
 20
311.6417195998657
 30
0.0
 10
144.6032391540433
 20
312.0134238219103
 30
0.0
 10
144.9606503791133
 20
312.3575034816292
 30
0.0
 10
145.3518351046938
 20
312.673799236973
 30
0.0
 10
145.7712765597962
 20
312.9577526478943
 30
0.0
 10
146.2183924586166
 20
313.2090961703255
 30
0.0
 10
146.6872079499648
 20
313.4244306453157
 30
0.0
 10
147.176584132401
 20
313.6032972779899
 30
0.0
 10
147.6806604103604
 20
313.7435415036096
 30
0.0
 10
148.1974018610883
 20
313.8446260392565
 30
0.0
 10
148.7215620997217
 20
313.9055230941946
 30
0.0
 10
149.2500000000004
 20
313.9258774206716
 30
0.0
 10
149.7784379002763
 20
313.9055230941946
 30
0.0
 10
150.3025981389181
 20
313.8446260392566
 30
0.0
 10
150.8193395896152
 20
313.7435415036094
 30
0.0
 10
151.3234158676889
 20
313.60329727799
 30
0.0
 10
151.8127920497032
 20
313.4244306453156
 30
0.0
 10
152.281607542613
 20
313.2090961703254
 30
0.0
 10
152.7287234357019
 20
312.9577526478944
 30
0.0
 10
153.1481649119721
 20
312.673799236973
 30
0.0
 10
153.5393495600925
 20
312.3575034816292
 30
0.0
 10
153.8967610709594
 20
312.0134238219104
 30
0.0
 10
154.2199900593183
 20
311.6417195998658
 30
0.0
 10
154.5045208704653
 20
311.2477943175962
 30
0.0
 10
154.7498054569125
 20
310.8319839394344
 30
0.0
 10
154.9527175334302
 20
310.4000185862701
 30
0.0
 10
155.1124538253749
 20
309.952837401945
 30
0.0
 10
155.2274004706936
 20
309.4958667857719
 30
0.0
 10
155.2966598798722
 20
309.0310826635695
 30
0.0
 10
155.3199367633895
 20
308.5630213160333
 30
0.0
 10
155.2966598798722
 20
308.0949599684973
 30
0.0
 10
155.2274004706937
 20
307.6301758462948
 30
0.0
 10
155.1124538253749
 20
307.1732052301217
 30
0.0
 10
154.9527175334302
 20
306.7260240457966
 30
0.0
 10
154.7498054569125
 20
306.2940586926322
 30
0.0
 10
154.5045208704653
 20
305.8782483144705
 30
0.0
 10
154.2199900593182
 20
305.4843230322009
 30
0.0
 10
153.8967610709595
 20
305.1126188101563
 30
0.0
 10
153.5393495600925
 20
304.7685391504376
 30
0.0
 10
153.1481649119721
 20
304.4522433950938
 30
0.0
 10
152.7287234357018
 20
304.1682899841723
 30
0.0
 10
152.281607542613
 20
303.9169464617414
 30
0.0
 10
151.8127920497031
 20
303.7016119867512
 30
0.0
 10
151.3234158676889
 20
303.522745354077
 30
0.0
 10
150.8193395896153
 20
303.3825011284572
 30
0.0
 10
150.3025981389181
 20
303.2814165928101
 30
0.0
 10
149.7784379002763
 20
303.2205195378722
 30
0.0
 10
149.2500000000004
 20
303.2001652113954
 30
0.0
 10
148.7215620997217
 20
303.2205195378723
 30
0.0
 10
148.1974018610884
 20
303.2814165928101
 30
0.0
 10
147.6806604103603
 20
303.3825011284573
 30
0.0
 10
147.176584132401
 20
303.5227453540769
 30
0.0
 10
146.6872079499648
 20
303.7016119867512
 30
0.0
 10
146.2183924586166
 20
303.9169464617414
 30
0.0
 10
145.7712765597961
 20
304.1682899841723
 30
0.0
 10
145.3518351046938
 20
304.4522433950938
 30
0.0
 10
144.9606503791134
 20
304.7685391504377
 30
0.0
 10
144.6032391540433
 20
305.1126188101563
 30
0.0
 10
144.2800091207083
 20
305.484323032201
 30
0.0
 10
143.9954821666644
 20
305.8782483144704
 30
0.0
 10
143.7501834527088
 20
306.2940586926322
 30
0.0
 10
143.5473236204074
 20
306.7260240457966
 30
0.0
 10
143.3873951351265
 20
307.1732052301218
 30
0.0
 10
143.2731615386284
 20
307.6301758462948
 30
0.0
 10
143.2012616713617
 20
308.0949599684973
 30
0.0
 10
143.1923019921113
 20
308.4070013549637
 30
0.0
 10
143.1878221735088
 20
308.5630213160334
 30
0.0
 11
143.1878221735088
 21
308.5630213160334
 31
0.0
 11
143.2109720984586
 21
309.0303226490878
 31
0.0
 11
143.2799202763328
 21
309.4930933404498
 31
0.0
 11
143.3948234380287
 21
309.9506182456933
 31
0.0
 11
143.5534162305542
 21
310.3949055970435
 31
0.0
 11
143.7568162079328
 21
310.8284708063366
 31
0.0
 11
143.9999999999999
 21
311.2410569767369
 31
0.0
 11
144.2857607415081
 21
311.6371394739616
 31
0.0
 11
144.6061023628174
 21
312.0058375980312
 31
0.0
 11
144.9654033847751
 21
312.3520989795928
 31
0.0
 11
145.353307205415
 21
312.6660099887462
 31
0.0
 11
145.7749746865875
 21
312.9517487131268
 31
0.0
 11
146.2189110867543
 21
313.2015151448533
 31
0.0
 11
146.6898384551571
 21
313.4180191109865
 31
0.0
 11
147.1766130709177
 21
313.5960820131627
 31
0.0
 11
147.6822310410523
 21
313.7368802009588
 31
0.0
 11
148.1973138677369
 21
313.8377218790415
 31
0.0
 11
148.722084047462
 21
313.8987438101472
 31
0.0
 11
149.2499999999999
 21
313.9190926374405
 31
0.0
 11
149.7779159525379
 21
313.8987438101472
 31
0.0
 11
150.302686132263
 21
313.8377218790415
 31
0.0
 11
150.8177689589475
 21
313.7368802009588
 31
0.0
 11
151.323386929082
 21
313.5960820131627
 31
0.0
 11
151.8101615448426
 21
313.4180191109865
 31
0.0
 11
152.2810889132454
 21
313.2015151448533
 31
0.0
 11
152.7250253134123
 21
312.9517487131269
 31
0.0
 11
153.1466927945849
 21
312.6660099887462
 31
0.0
 11
153.5345966152248
 21
312.3520989795928
 31
0.0
 11
153.8938976371825
 21
312.0058375980312
 31
0.0
 11
154.2142392584918
 21
311.6371394739616
 31
0.0
 11
154.4999999999999
 21
311.2410569767369
 31
0.0
 11
154.7431837920669
 21
310.8284708063366
 31
0.0
 11
154.9465837694455
 21
310.3949055970435
 31
0.0
 11
155.1051765619712
 21
309.9506182456933
 31
0.0
 11
155.2200797236671
 21
309.4930933404498
 31
0.0
 11
155.2890279015412
 21
309.0303226490879
 31
0.0
 11
155.3121778264909
 21
308.5630213160334
 31
0.0
 11
155.2890279015412
 21
308.095719982979
 31
0.0
 11
155.2200797236671
 21
307.6329492916169
 31
0.0
 11
155.1051765619712
 21
307.1754243863734
 31
0.0
 11
154.9465837694455
 21
306.7311370350232
 31
0.0
 11
154.7431837920669
 21
306.2975718257301
 31
0.0
 11
154.4999999999999
 21
305.8849856553298
 31
0.0
 11
154.2142392584917
 21
305.4889031581051
 31
0.0
 11
153.8938976371825
 21
305.1202050340355
 31
0.0
 11
153.5345966152248
 21
304.773943652474
 31
0.0
 11
153.1466927945849
 21
304.4600326433205
 31
0.0
 11
152.7250253134123
 21
304.17429391894
 31
0.0
 11
152.2810889132454
 21
303.9245274872135
 31
0.0
 11
151.8101615448426
 21
303.7080235210804
 31
0.0
 11
151.323386929082
 21
303.5299606189041
 31
0.0
 11
150.8177689589475
 21
303.3891624311079
 31
0.0
 11
150.302686132263
 21
303.2883207530252
 31
0.0
 11
149.7779159525379
 21
303.2272988219196
 31
0.0
 11
149.2499999999999
 21
303.2069499946264
 31
0.0
 11
148.722084047462
 21
303.2272988219197
 31
0.0
 11
148.1973138677369
 21
303.2883207530252
 31
0.0
 11
147.6822310410523
 21
303.389162431108
 31
0.0
 11
147.1766130709177
 21
303.5299606189041
 31
0.0
 11
146.6898384551571
 21
303.7080235210804
 31
0.0
 11
146.2189110867543
 21
303.9245274872135
 31
0.0
 11
145.7749746865875
 21
304.17429391894
 31
0.0
 11
145.353307205415
 21
304.4600326433205
 31
0.0
 11
144.9654033847752
 21
304.7739436524739
 31
0.0
 11
144.6061023628174
 21
305.1202050340355
 31
0.0
 11
144.2857607415082
 21
305.4889031581051
 31
0.0
 11
143.9999999999999
 21
305.8849856553298
 31
0.0
 11
143.7568162079328
 21
306.29757182573
 31
0.0
 11
143.5534162305542
 21
306.7311370350232
 31
0.0
 11
143.3948234380287
 21
307.1754243863735
 31
0.0
 11
143.2799202763328
 21
307.6329492916169
 31
0.0
 11
143.2109720984586
 21
308.095719982979
 31
0.0
 11
143.1878221735088
 21
308.5630213160334
 31
0.0
  0
SPLINE
  5
130
330
3F
100
AcDbEntity
  8
1
  6
Continuous
 62
     7
100
AcDbSpline
210
0.0
220
0.0
230
1.0
 70
    11
 71
     3
 72
    79
 73
    75
 74
    73
 42
0.0000000001
 43
0.0000000001
 44
0.00000001
 40
0.0
 40
0.0
 40
0.0
 40
0.0
 40
0.4678744007738788
 40
0.9357531927872815
 40
1.407485930135199
 40
1.879230484328296
 40
2.358135841896019
 40
2.837057239131247
 40
3.32546336726147
 40
3.813886402176314
 40
4.312879557180171
 40
4.811888069867859
 40
5.321250498094548
 40
5.830625406988181
 40
6.348936658710733
 40
6.86725694934223
 40
7.392112797561271
 40
7.916974076742671
 40
8.445280254640039
 40
8.973588240303911
 40
9.501896225967926
 40
10.0302024038653
 40
10.55506368304664
 40
11.07991953126555
 40
11.59823982189706
 40
12.11655107361959
 40
12.6259259825133
 40
13.13528841074008
 40
13.6342969234277
 40
14.13329007843163
 40
14.62171311334652
 40
15.11011924147661
 40
15.58904063871185
 40
16.06794599627953
 40
16.53969055047268
 40
17.01142328782061
 40
17.47930207983389
 40
17.94717648060787
 40
18.41505088138186
 40
18.88292967339519
 40
19.35466241074312
 40
19.82640696493627
 40
20.30531232250398
 40
20.7842337197391
 40
21.27263984786916
 40
21.76106288278399
 40
22.26005603778792
 40
22.75906455047565
 40
23.26842697870243
 40
23.77780188759617
 40
24.29611313931872
 40
24.81443342995017
 40
25.33928927816911
 40
25.86415055735039
 40
26.39245673524782
 40
26.92076472091181
 40
27.44907270657571
 40
27.97737888447308
 40
28.50224016365451
 40
29.02709601187348
 40
29.54541630250494
 40
30.06372755422749
 40
30.57310246312112
 40
31.08246489134785
 40
31.5814734040355
 40
32.0804665590395
 40
32.56888959395428
 40
33.05729572208448
 40
33.53621711931961
 40
34.01512247688734
 40
34.48686703108037
 40
34.95859976842834
 40
35.42647856044169
 40
35.89435296121569
 40
35.89435296121569
 40
35.89435296121569
 40
35.89435296121569
 10
143.1878221735088
 20
296.5630213160334
 30
0.0
 10
143.1923019921114
 20
296.4070013549638
 30
0.0
 10
143.2012616713618
 20
296.0949599684973
 30
0.0
 10
143.2731615386285
 20
295.630175846295
 30
0.0
 10
143.3873951351264
 20
295.1732052301218
 30
0.0
 10
143.5473236204074
 20
294.7260240457968
 30
0.0
 10
143.7501834527088
 20
294.2940586926324
 30
0.0
 10
143.9954821666645
 20
293.8782483144705
 30
0.0
 10
144.2800091207082
 20
293.4843230322008
 30
0.0
 10
144.6032391540433
 20
293.1126188101563
 30
0.0
 10
144.9606503791133
 20
292.7685391504377
 30
0.0
 10
145.3518351046937
 20
292.4522433950938
 30
0.0
 10
145.7712765597962
 20
292.1682899841725
 30
0.0
 10
146.2183924586166
 20
291.9169464617415
 30
0.0
 10
146.6872079499648
 20
291.7016119867514
 30
0.0
 10
147.1765841324011
 20
291.5227453540769
 30
0.0
 10
147.6806604103603
 20
291.3825011284571
 30
0.0
 10
148.1974018610884
 20
291.2814165928101
 30
0.0
 10
148.7215620997217
 20
291.2205195378723
 30
0.0
 10
149.2500000000004
 20
291.2001652113954
 30
0.0
 10
149.7784379002762
 20
291.2205195378722
 30
0.0
 10
150.3025981389181
 20
291.28141659281
 30
0.0
 10
150.8193395896153
 20
291.3825011284573
 30
0.0
 10
151.3234158676889
 20
291.5227453540767
 30
0.0
 10
151.8127920497031
 20
291.7016119867514
 30
0.0
 10
152.281607542613
 20
291.9169464617415
 30
0.0
 10
152.7287234357018
 20
292.1682899841724
 30
0.0
 10
153.1481649119721
 20
292.4522433950939
 30
0.0
 10
153.5393495600925
 20
292.7685391504375
 30
0.0
 10
153.8967610709594
 20
293.1126188101563
 30
0.0
 10
154.2199900593182
 20
293.4843230322008
 30
0.0
 10
154.5045208704653
 20
293.8782483144706
 30
0.0
 10
154.7498054569124
 20
294.2940586926323
 30
0.0
 10
154.9527175334302
 20
294.7260240457968
 30
0.0
 10
155.1124538253749
 20
295.1732052301219
 30
0.0
 10
155.2274004706937
 20
295.6301758462949
 30
0.0
 10
155.2966598798722
 20
296.0949599684973
 30
0.0
 10
155.3199367633895
 20
296.5630213160334
 30
0.0
 10
155.2966598798722
 20
297.0310826635696
 30
0.0
 10
155.2274004706937
 20
297.4958667857719
 30
0.0
 10
155.1124538253749
 20
297.9528374019452
 30
0.0
 10
154.9527175334301
 20
298.4000185862701
 30
0.0
 10
154.7498054569126
 20
298.8319839394347
 30
0.0
 10
154.5045208704653
 20
299.2477943175963
 30
0.0
 10
154.2199900593182
 20
299.6417195998658
 30
0.0
 10
153.8967610709594
 20
300.0134238219105
 30
0.0
 10
153.5393495600925
 20
300.3575034816291
 30
0.0
 10
153.1481649119721
 20
300.673799236973
 30
0.0
 10
152.7287234357018
 20
300.9577526478943
 30
0.0
 10
152.281607542613
 20
301.2090961703254
 30
0.0
 10
151.8127920497031
 20
301.4244306453156
 30
0.0
 10
151.3234158676889
 20
301.60329727799
 30
0.0
 10
150.8193395896152
 20
301.7435415036095
 30
0.0
 10
150.3025981389181
 20
301.8446260392566
 30
0.0
 10
149.7784379002763
 20
301.9055230941946
 30
0.0
 10
149.2500000000003
 20
301.9258774206717
 30
0.0
 10
148.7215620997217
 20
301.9055230941947
 30
0.0
 10
148.1974018610884
 20
301.8446260392566
 30
0.0
 10
147.6806604103603
 20
301.7435415036094
 30
0.0
 10
147.176584132401
 20
301.6032972779899
 30
0.0
 10
146.6872079499648
 20
301.4244306453157
 30
0.0
 10
146.2183924586166
 20
301.2090961703254
 30
0.0
 10
145.7712765597962
 20
300.9577526478945
 30
0.0
 10
145.3518351046938
 20
300.673799236973
 30
0.0
 10
144.9606503791134
 20
300.3575034816291
 30
0.0
 10
144.6032391540434
 20
300.0134238219106
 30
0.0
 10
144.2800091207082
 20
299.6417195998658
 30
0.0
 10
143.9954821666645
 20
299.2477943175963
 30
0.0
 10
143.7501834527088
 20
298.8319839394347
 30
0.0
 10
143.5473236204074
 20
298.4000185862702
 30
0.0
 10
143.3873951351264
 20
297.9528374019451
 30
0.0
 10
143.2731615386285
 20
297.495866785772
 30
0.0
 10
143.2012616713617
 20
297.0310826635696
 30
0.0
 10
143.1923019921113
 20
296.7190412771031
 30
0.0
 10
143.1878221735088
 20
296.5630213160334
 30
0.0
 11
143.1878221735088
 21
296.5630213160334
 31
0.0
 11
143.2109720984586
 21
296.0957199829791
 31
0.0
 11
143.2799202763328
 21
295.632949291617
 31
0.0
 11
143.3948234380287
 21
295.1754243863736
 31
0.0
 11
143.5534162305542
 21
294.7311370350233
 31
0.0
 11
143.7568162079328
 21
294.2975718257301
 31
0.0
 11
143.9999999999999
 21
293.8849856553298
 31
0.0
 11
144.2857607415081
 21
293.488903158105
 31
0.0
 11
144.6061023628174
 21
293.1202050340355
 31
0.0
 11
144.9654033847751
 21
292.773943652474
 31
0.0
 11
145.353307205415
 21
292.4600326433206
 31
0.0
 11
145.7749746865875
 21
292.1742939189401
 31
0.0
 11
146.2189110867543
 21
291.9245274872136
 31
0.0
 11
146.6898384551571
 21
291.7080235210804
 31
0.0
 11
147.1766130709177
 21
291.5299606189041
 31
0.0
 11
147.6822310410523
 21
291.3891624311079
 31
0.0
 11
148.1973138677369
 21
291.2883207530252
 31
0.0
 11
148.722084047462
 21
291.2272988219197
 31
0.0
 11
149.2499999999999
 21
291.2069499946264
 31
0.0
 11
149.7779159525379
 21
291.2272988219197
 31
0.0
 11
150.302686132263
 21
291.2883207530252
 31
0.0
 11
150.8177689589475
 21
291.3891624311079
 31
0.0
 11
151.323386929082
 21
291.5299606189041
 31
0.0
 11
151.8101615448426
 21
291.7080235210805
 31
0.0
 11
152.2810889132454
 21
291.9245274872136
 31
0.0
 11
152.7250253134123
 21
292.1742939189401
 31
0.0
 11
153.1466927945849
 21
292.4600326433206
 31
0.0
 11
153.5345966152248
 21
292.7739436524739
 31
0.0
 11
153.8938976371825
 21
293.1202050340355
 31
0.0
 11
154.2142392584918
 21
293.4889031581051
 31
0.0
 11
154.4999999999999
 21
293.8849856553298
 31
0.0
 11
154.7431837920669
 21
294.2975718257302
 31
0.0
 11
154.9465837694455
 21
294.7311370350233
 31
0.0
 11
155.1051765619712
 21
295.1754243863736
 31
0.0
 11
155.2200797236671
 21
295.632949291617
 31
0.0
 11
155.2890279015412
 21
296.095719982979
 31
0.0
 11
155.3121778264909
 21
296.5630213160334
 31
0.0
 11
155.2890279015412
 21
297.0303226490879
 31
0.0
 11
155.2200797236671
 21
297.4930933404499
 31
0.0
 11
155.1051765619712
 21
297.9506182456934
 31
0.0
 11
154.9465837694455
 21
298.3949055970436
 31
0.0
 11
154.7431837920669
 21
298.8284708063368
 31
0.0
 11
154.4999999999999
 21
299.241056976737
 31
0.0
 11
154.2142392584917
 21
299.6371394739617
 31
0.0
 11
153.8938976371825
 21
300.0058375980312
 31
0.0
 11
153.5345966152248
 21
300.3520989795928
 31
0.0
 11
153.1466927945849
 21
300.6660099887463
 31
0.0
 11
152.7250253134123
 21
300.9517487131268
 31
0.0
 11
152.2810889132454
 21
301.2015151448533
 31
0.0
 11
151.8101615448426
 21
301.4180191109865
 31
0.0
 11
151.323386929082
 21
301.5960820131627
 31
0.0
 11
150.8177689589475
 21
301.7368802009588
 31
0.0
 11
150.302686132263
 21
301.8377218790415
 31
0.0
 11
149.7779159525379
 21
301.8987438101473
 31
0.0
 11
149.2499999999999
 21
301.9190926374406
 31
0.0
 11
148.722084047462
 21
301.8987438101473
 31
0.0
 11
148.1973138677369
 21
301.8377218790415
 31
0.0
 11
147.6822310410523
 21
301.7368802009587
 31
0.0
 11
147.1766130709177
 21
301.5960820131627
 31
0.0
 11
146.6898384551571
 21
301.4180191109865
 31
0.0
 11
146.2189110867543
 21
301.2015151448533
 31
0.0
 11
145.7749746865875
 21
300.9517487131269
 31
0.0
 11
145.353307205415
 21
300.6660099887463
 31
0.0
 11
144.9654033847752
 21
300.3520989795928
 31
0.0
 11
144.6061023628174
 21
300.0058375980312
 31
0.0
 11
144.2857607415082
 21
299.6371394739617
 31
0.0
 11
143.9999999999999
 21
299.241056976737
 31
0.0
 11
143.7568162079328
 21
298.8284708063368
 31
0.0
 11
143.5534162305542
 21
298.3949055970436
 31
0.0
 11
143.3948234380287
 21
297.9506182456934
 31
0.0
 11
143.2799202763328
 21
297.4930933404499
 31
0.0
 11
143.2109720984586
 21
297.0303226490879
 31
0.0
 11
143.1878221735088
 21
296.5630213160334
 31
0.0
  0
ENDBLK
  5
41
330
3F
100
AcDbEntity
  8
0
100
AcDbBlockEnd
  0
BLOCK
  5
43
330
42
100
AcDbEntity
  8
0
100
AcDbBlockBegin
  2
35-22
 70
     0
 71
     0
 10
449.2255953362603
 20
500.4569150880785
 30
0.0
  3
35-22
  1

  0
LINE
  5
131
330
42
100
AcDbEntity
  8
1
  6
Continuous
 62
     7
100
AcDbLine
 10
155.9999999999999
 20
197.6
 30
0.0
 11
156.9999999999999
 21
197.6
 31
0.0
  0
LINE
  5
132
330
42
100
AcDbEntity
  8
1
  6
Continuous
 62
     7
100
AcDbLine
 10
156.9999999999999
 20
180.4000000000001
 30
0.0
 11
155.9999999999999
 21
180.4000000000001
 31
0.0
  0
LINE
  5
133
330
42
100
AcDbEntity
  8
1
  6
Continuous
 62
     7
100
AcDbLine
 10
155.9999999999999
 20
311.1630213160335
 30
0.0
 11
156.9999999999999
 21
311.1630213160335
 31
0.0
  0
LINE
  5
134
330
42
100
AcDbEntity
  8
1
  6
Continuous
 62
     7
100
AcDbLine
 10
155.9999999999999
 20
293.9630213160334
 30
0.0
 11
156.9999999999999
 21
293.9630213160334
 31
0.0
  0
ENDBLK
  5
44
330
42
100
AcDbEntity
  8
0
100
AcDbBlockEnd
  0
BLOCK
  5
46
330
45
100
AcDbEntity
  8
0
100
AcDbBlockBegin
  2
33-073
 70
     0
 71
     0
 10
428.2666883742522
 20
72.94210854981438
 30
0.0
  3
33-073
  1

  0
LINE
  5
135
330
45
100
AcDbEntity
  8
1
  6
Continuous
 62
     7
100
AcDbLine
 10
248.9999999999997
 20
298.8130213160334
 30
0.0
 11
248.9999999999997
 21
306.3130213160334
 31
0.0
  0
LINE
  5
136
330
45
100
AcDbEntity
  8
1
  6
Continuous
 62
     7
100
AcDbLine
 10
245.9999999999997
 20
306.3130213160334
 30
0.0
 11
245.9999999999997
 21
298.8130213160334
 31
0.0
  0
LINE
  5
137
330
45
100
AcDbEntity
  8
1
  6
Continuous
 62
     7
100
AcDbLine
 10
242.9999999999997
 20
298.8130213160334
 30
0.0
 11
242.9999999999997
 21
306.3130213160334
 31
0.0
  0
LINE
  5
138
330
45
100
AcDbEntity
  8
1
  6
Continuous
 62
     7
100
AcDbLine
 10
242.9999999999997
 20
306.3130213160334
 30
0.0
 11
241.9999999999997
 21
306.3130213160334
 31
0.0
  0
LINE
  5
139
330
45
100
AcDbEntity
  8
1
  6
Continuous
 62
     7
100
AcDbLine
 10
242.9999999999997
 20
307.0630213160334
 30
0.0
 11
242.9999999999997
 21
306.3130213160334
 31
0.0
  0
LINE
  5
13A
330
45
100
AcDbEntity
  8
1
  6
Continuous
 62
     7
100
AcDbLine
 10
245.9999999999997
 20
306.3130213160334
 30
0.0
 11
242.9999999999997
 21
307.0630213160334
 31
0.0
  0
LINE
  5
13B
330
45
100
AcDbEntity
  8
1
  6
Continuous
 62
     7
100
AcDbLine
 10
245.9999999999997
 20
307.0630213160334
 30
0.0
 11
245.9999999999997
 21
306.3130213160334
 31
0.0
  0
LINE
  5
13C
330
45
100
AcDbEntity
  8
1
  6
Continuous
 62
     7
100
AcDbLine
 10
248.9999999999997
 20
306.3130213160334
 30
0.0
 11
245.9999999999997
 21
307.0630213160334
 31
0.0
  0
LINE
  5
13D
330
45
100
AcDbEntity
  8
1
  6
Continuous
 62
     7
100
AcDbLine
 10
248.9999999999997
 20
307.0630213160334
 30
0.0
 11
248.9999999999997
 21
306.3130213160334
 31
0.0
  0
LINE
  5
13E
330
45
100
AcDbEntity
  8
1
  6
Continuous
 62
     7
100
AcDbLine
 10
251.9999999999997
 20
306.3130213160334
 30
0.0
 11
248.9999999999997
 21
307.0630213160334
 31
0.0
  0
LINE
  5
13F
330
45
100
AcDbEntity
  8
1
  6
Continuous
 62
     7
100
AcDbLine
 10
251.9999999999997
 20
305.3130213160334
 30
0.0
 11
251.9999999999997
 21
306.3130213160334
 31
0.0
  0
LINE
  5
140
330
45
100
AcDbEntity
  8
1
  6
Continuous
 62
     7
100
AcDbLine
 10
251.9999999999997
 20
302.5630213160334
 30
0.0
 11
251.9999999999997
 21
305.3130213160334
 31
0.0
  0
LINE
  5
141
330
45
100
AcDbEntity
  8
1
  6
Continuous
 62
     7
100
AcDbLine
 10
241.9999999999997
 20
298.8130213160334
 30
0.0
 11
242.9999999999997
 21
298.8130213160334
 31
0.0
  0
LINE
  5
142
330
45
100
AcDbEntity
  8
1
  6
Continuous
 62
     7
100
AcDbLine
 10
242.9999999999997
 20
298.8130213160334
 30
0.0
 11
242.9999999999997
 21
298.0630213160334
 31
0.0
  0
LINE
  5
143
330
45
100
AcDbEntity
  8
1
  6
Continuous
 62
     7
100
AcDbLine
 10
242.9999999999997
 20
298.0630213160334
 30
0.0
 11
245.9999999999997
 21
298.8130213160334
 31
0.0
  0
LINE
  5
144
330
45
100
AcDbEntity
  8
1
  6
Continuous
 62
     7
100
AcDbLine
 10
245.9999999999997
 20
298.8130213160334
 30
0.0
 11
245.9999999999997
 21
298.0630213160334
 31
0.0
  0
LINE
  5
145
330
45
100
AcDbEntity
  8
1
  6
Continuous
 62
     7
100
AcDbLine
 10
245.9999999999997
 20
298.0630213160334
 30
0.0
 11
248.9999999999997
 21
298.8130213160334
 31
0.0
  0
LINE
  5
146
330
45
100
AcDbEntity
  8
1
  6
Continuous
 62
     7
100
AcDbLine
 10
248.9999999999997
 20
298.8130213160334
 30
0.0
 11
248.9999999999997
 21
298.0630213160334
 31
0.0
  0
LINE
  5
147
330
45
100
AcDbEntity
  8
1
  6
Continuous
 62
     7
100
AcDbLine
 10
248.9999999999997
 20
298.0630213160334
 30
0.0
 11
251.9999999999997
 21
298.8130213160334
 31
0.0
  0
LINE
  5
148
330
45
100
AcDbEntity
  8
1
  6
Continuous
 62
     7
100
AcDbLine
 10
251.9999999999997
 20
298.8130213160334
 30
0.0
 11
251.9999999999997
 21
299.8130213160334
 31
0.0
  0
LINE
  5
149
330
45
100
AcDbEntity
  8
1
  6
Continuous
 62
     7
100
AcDbLine
 10
251.9999999999997
 20
299.8130213160334
 30
0.0
 11
251.9999999999997
 21
302.5630213160334
 31
0.0
  0
LINE
  5
14A
330
45
100
AcDbEntity
  8
1
  6
Continuous
 62
     7
100
AcDbLine
 10
248.9999999999997
 20
185.25
 30
0.0
 11
248.9999999999997
 21
192.75
 31
0.0
  0
LINE
  5
14B
330
45
100
AcDbEntity
  8
1
  6
Continuous
 62
     7
100
AcDbLine
 10
245.9999999999997
 20
192.75
 30
0.0
 11
245.9999999999997
 21
185.25
 31
0.0
  0
LINE
  5
14C
330
45
100
AcDbEntity
  8
1
  6
Continuous
 62
     7
100
AcDbLine
 10
242.9999999999997
 20
185.25
 30
0.0
 11
242.9999999999997
 21
192.75
 31
0.0
  0
LINE
  5
14D
330
45
100
AcDbEntity
  8
1
  6
Continuous
 62
     7
100
AcDbLine
 10
242.9999999999997
 20
192.75
 30
0.0
 11
241.9999999999997
 21
192.75
 31
0.0
  0
LINE
  5
14E
330
45
100
AcDbEntity
  8
1
  6
Continuous
 62
     7
100
AcDbLine
 10
242.9999999999997
 20
193.5
 30
0.0
 11
242.9999999999997
 21
192.75
 31
0.0
  0
LINE
  5
14F
330
45
100
AcDbEntity
  8
1
  6
Continuous
 62
     7
100
AcDbLine
 10
245.9999999999997
 20
192.75
 30
0.0
 11
242.9999999999997
 21
193.5
 31
0.0
  0
LINE
  5
150
330
45
100
AcDbEntity
  8
1
  6
Continuous
 62
     7
100
AcDbLine
 10
245.9999999999997
 20
193.5
 30
0.0
 11
245.9999999999997
 21
192.75
 31
0.0
  0
LINE
  5
151
330
45
100
AcDbEntity
  8
1
  6
Continuous
 62
     7
100
AcDbLine
 10
248.9999999999997
 20
192.75
 30
0.0
 11
245.9999999999997
 21
193.5
 31
0.0
  0
LINE
  5
152
330
45
100
AcDbEntity
  8
1
  6
Continuous
 62
     7
100
AcDbLine
 10
248.9999999999997
 20
193.5
 30
0.0
 11
248.9999999999997
 21
192.75
 31
0.0
  0
LINE
  5
153
330
45
100
AcDbEntity
  8
1
  6
Continuous
 62
     7
100
AcDbLine
 10
251.9999999999997
 20
192.75
 30
0.0
 11
248.9999999999997
 21
193.5
 31
0.0
  0
LINE
  5
154
330
45
100
AcDbEntity
  8
1
  6
Continuous
 62
     7
100
AcDbLine
 10
251.9999999999997
 20
191.75
 30
0.0
 11
251.9999999999997
 21
192.75
 31
0.0
  0
LINE
  5
155
330
45
100
AcDbEntity
  8
1
  6
Continuous
 62
     7
100
AcDbLine
 10
251.9999999999997
 20
189.0
 30
0.0
 11
251.9999999999997
 21
191.75
 31
0.0
  0
LINE
  5
156
330
45
100
AcDbEntity
  8
1
  6
Continuous
 62
     7
100
AcDbLine
 10
241.9999999999997
 20
185.25
 30
0.0
 11
242.9999999999997
 21
185.25
 31
0.0
  0
LINE
  5
157
330
45
100
AcDbEntity
  8
1
  6
Continuous
 62
     7
100
AcDbLine
 10
242.9999999999997
 20
185.25
 30
0.0
 11
242.9999999999997
 21
184.5
 31
0.0
  0
LINE
  5
158
330
45
100
AcDbEntity
  8
1
  6
Continuous
 62
     7
100
AcDbLine
 10
242.9999999999997
 20
184.5
 30
0.0
 11
245.9999999999997
 21
185.25
 31
0.0
  0
LINE
  5
159
330
45
100
AcDbEntity
  8
1
  6
Continuous
 62
     7
100
AcDbLine
 10
245.9999999999997
 20
185.25
 30
0.0
 11
245.9999999999997
 21
184.5
 31
0.0
  0
LINE
  5
15A
330
45
100
AcDbEntity
  8
1
  6
Continuous
 62
     7
100
AcDbLine
 10
245.9999999999997
 20
184.5
 30
0.0
 11
248.9999999999997
 21
185.25
 31
0.0
  0
LINE
  5
15B
330
45
100
AcDbEntity
  8
1
  6
Continuous
 62
     7
100
AcDbLine
 10
248.9999999999997
 20
185.25
 30
0.0
 11
248.9999999999997
 21
184.5
 31
0.0
  0
LINE
  5
15C
330
45
100
AcDbEntity
  8
1
  6
Continuous
 62
     7
100
AcDbLine
 10
248.9999999999997
 20
184.5
 30
0.0
 11
251.9999999999997
 21
185.25
 31
0.0
  0
LINE
  5
15D
330
45
100
AcDbEntity
  8
1
  6
Continuous
 62
     7
100
AcDbLine
 10
251.9999999999997
 20
185.25
 30
0.0
 11
251.9999999999997
 21
186.25
 31
0.0
  0
LINE
  5
15E
330
45
100
AcDbEntity
  8
1
  6
Continuous
 62
     7
100
AcDbLine
 10
251.9999999999997
 20
186.25
 30
0.0
 11
251.9999999999997
 21
189.0
 31
0.0
  0
ENDBLK
  5
47
330
45
100
AcDbEntity
  8
0
100
AcDbBlockEnd
  0
BLOCK
  5
49
330
48
100
AcDbEntity
  8
0
100
AcDbBlockBegin
  2
32-12
 70
     0
 71
     0
 10
891.5134638064403
 20
1315.958062894986
 30
0.0
  3
32-12
  1

  0
LINE
  5
15F
330
48
100
AcDbEntity
  8
1
  6
Continuous
 62
     7
100
AcDbLine
 10
229.9999999999998
 20
292.5703806289142
 30
0.0
 11
229.9999999999998
 21
312.5630213160335
 31
0.0
  0
LINE
  5
160
330
48
100
AcDbEntity
  8
1
  6
Continuous
 62
     7
100
AcDbLine
 10
229.9999999999998
 20
312.5556620031528
 30
0.0
 11
230.8702743050571
 21
314.0630213160334
 31
0.0
  0
LINE
  5
161
330
48
100
AcDbEntity
  8
1
  6
Continuous
 62
     7
100
AcDbLine
 10
241.1297256949428
 20
291.0630213160334
 30
0.0
 11
230.8702743050571
 21
291.0630213160334
 31
0.0
  0
LINE
  5
162
330
48
100
AcDbEntity
  8
1
  6
Continuous
 62
     7
100
AcDbLine
 10
230.8702743050571
 20
291.0630213160334
 30
0.0
 11
229.9999999999998
 21
292.5703806289142
 31
0.0
  0
LINE
  5
163
330
48
100
AcDbEntity
  8
1
  6
Continuous
 62
     7
100
AcDbLine
 10
242.0000000000001
 20
312.5556620031528
 30
0.0
 11
242.0000000000001
 21
292.5703806289142
 31
0.0
  0
LINE
  5
164
330
48
100
AcDbEntity
  8
1
  6
Continuous
 62
     7
100
AcDbLine
 10
241.1297256949428
 20
291.0630213160334
 30
0.0
 11
242.0000000000001
 21
292.5703806289142
 31
0.0
  0
LINE
  5
165
330
48
100
AcDbEntity
  8
1
  6
Continuous
 62
     7
100
AcDbLine
 10
230.8702743050571
 20
314.0630213160334
 30
0.0
 11
241.1297256949428
 21
314.0630213160334
 31
0.0
  0
LINE
  5
166
330
48
100
AcDbEntity
  8
1
  6
Continuous
 62
     7
100
AcDbLine
 10
242.0000000000001
 20
312.5556620031528
 30
0.0
 11
241.1297256949428
 21
314.0630213160334
 31
0.0
  0
LINE
  5
167
330
48
100
AcDbEntity
  8
1
  6
Continuous
 62
     7
100
AcDbLine
 10
241.9999999999998
 20
195.7000000000001
 30
0.0
 11
241.9999999999998
 21
199.8923048454133
 31
0.0
  0
LINE
  5
168
330
48
100
AcDbEntity
  8
1
  6
Continuous
 62
     7
100
AcDbLine
 10
229.9999999999998
 20
178.1076951545868
 30
0.0
 11
229.9999999999998
 21
199.8923048454133
 31
0.0
  0
LINE
  5
169
330
48
100
AcDbEntity
  8
1
  6
Continuous
 62
     7
100
AcDbLine
 10
241.9999999999998
 20
178.1076951545868
 30
0.0
 11
241.9999999999998
 21
195.7000000000001
 31
0.0
  0
ARC
  5
16A
330
48
100
AcDbEntity
  8
1
  6
Continuous
 62
     7
100
AcDbCircle
 10
235.9999999999998
 20
188.5000000000001
 30
0.0
 40
12.0
100
AcDbArc
 50
-90.0
 51
-60.00000000000014
  0
ARC
  5
16B
330
48
100
AcDbEntity
  8
1
  6
Continuous
 62
     7
100
AcDbCircle
 10
235.9999999999998
 20
189.5000000000001
 30
0.0
 40
11.99999999999993
100
AcDbArc
 50
59.99999999999981
 51
120.0000000000002
  0
ARC
  5
16C
330
48
100
AcDbEntity
  8
1
  6
Continuous
 62
     7
100
AcDbCircle
 10
235.9999999999998
 20
188.5000000000001
 30
0.0
 40
12.00000000000005
100
AcDbArc
 50
-119.9999999999999
 51
-90.0
  0
SPLINE
  5
16D
330
48
100
AcDbEntity
  8
1
  6
Continuous
 62
     7
100
AcDbSpline
210
0.0
220
0.0
230
1.0
 70
    11
 71
     3
 72
    79
 73
    75
 74
    73
 42
0.0000000001
 43
0.0000000001
 44
0.00000001
 40
0.0
 40
0.0
 40
0.0
 40
0.0
 40
0.2164388510900477
 40
0.43302139015895
 40
0.6664029452428649
 40
0.8999556959143451
 40
1.162342903951781
 40
1.42479281175877
 40
1.721818249127045
 40
2.018877338058097
 40
2.350956324595982
 40
2.6830532545373
 40
3.04683648461066
 40
3.410630989668821
 40
3.800174953577291
 40
4.189725686088059
 40
4.597341509202269
 40
5.004961006155364
 40
5.421874691173489
 40
5.838789536562755
 40
6.255704381951966
 40
6.672618066970032
 40
7.080237563923043
 40
7.487853387037253
 40
7.877404119548099
 40
8.266948083456576
 40
8.630742588514655
 40
8.99452581858791
 40
9.326622748529216
 40
9.658701735067115
 40
9.955760823998144
 40
10.25278626136644
 40
10.51523616917345
 40
10.77762337721094
 40
11.01117612788242
 40
11.24455768296633
 40
11.46114022203527
 40
11.67757907312532
 40
11.89401792421532
 40
12.11060046328422
 40
12.3439820183682
 40
12.57753476903978
 40
12.83992197707728
 40
13.10237188488421
 40
13.39939732225249
 40
13.69645641118354
 40
14.02853539772142
 40
14.36063232766274
 40
14.72441555773596
 40
15.08821006279407
 40
15.47775402670255
 40
15.86730475921337
 40
16.27492058232759
 40
16.68254007928059
 40
17.09945376429867
 40
17.51636860968788
 40
17.93328345507709
 40
18.35019714009528
 40
18.75781663704836
 40
19.16543246016258
 40
19.55498319267337
 40
19.9445271565818
 40
20.30832166163999
 40
20.67210489171331
 40
21.00420182165462
 40
21.33628080819252
 40
21.63333989712355
 40
21.93036533449185
 40
22.1928152422988
 40
22.45520245033621
 40
22.68875520100778
 40
22.92213675609178
 40
23.13871929516065
 40
23.35515814625064
 40
23.35515814625064
 40
23.35515814625064
 40
23.35515814625064
 10
240.7958315233125
 20
198.9592921435211
 30
0.0
 10
240.7920889520162
 20
199.0315134695861
 30
0.0
 10
240.7846013248304
 20
199.1760040675275
 30
0.0
 10
240.7263886028072
 20
199.3919397197291
 30
0.0
 10
240.6346584281328
 20
199.6012600317121
 30
0.0
 10
240.5052789466835
 20
199.807988552286
 30
0.0
 10
240.3446331650794
 20
200.0040059141411
 30
0.0
 10
240.1476932034406
 20
200.1951197316497
 30
0.0
 10
239.9238937652352
 20
200.3731280791502
 30
0.0
 10
239.6659386767205
 20
200.5433268489602
 30
0.0
 10
239.385384120742
 20
200.6987428071228
 30
0.0
 10
239.0744250061961
 20
200.8432359949129
 30
0.0
 10
238.7451191994585
 20
200.9716478502656
 30
0.0
 10
238.3906352752113
 20
201.0862887628229
 30
0.0
 10
238.0221829317525
 20
201.1838373852208
 30
0.0
 10
237.6349335766562
 20
201.2653124136494
 30
0.0
 10
237.2382566264594
 20
201.3289621685804
 30
0.0
 10
236.8299788276977
 20
201.3749376900605
 30
0.0
 10
236.4169496551286
 20
201.4026410902131
 30
0.0
 10
235.9999999999989
 20
201.4118522886227
 30
0.0
 10
235.5830503448747
 20
201.4026410902131
 30
0.0
 10
235.1700211722899
 20
201.3749376900605
 30
0.0
 10
234.7617433735841
 20
201.3289621685805
 30
0.0
 10
234.3650664231832
 20
201.2653124136494
 30
0.0
 10
233.9778170688162
 20
201.183837385221
 30
0.0
 10
233.6093647227208
 20
201.0862887628228
 30
0.0
 10
233.2548808076927
 20
200.9716478502656
 30
0.0
 10
232.9255749680384
 20
200.8432359949128
 30
0.0
 10
232.6146159661527
 20
200.6987428071227
 30
0.0
 10
232.3340610125003
 20
200.5433268489601
 30
0.0
 10
232.0761072594857
 20
200.3731280791502
 30
0.0
 10
231.8523031471112
 20
200.1951197316498
 30
0.0
 10
231.655378704308
 20
200.004005914141
 30
0.0
 10
231.4946786474817
 20
199.807988552286
 30
0.0
 10
231.3654805987563
 20
199.6012600317121
 30
0.0
 10
231.2731067572586
 20
199.3919397197291
 30
0.0
 10
231.2171317752116
 20
199.1760040675276
 30
0.0
 10
231.1976889782079
 20
198.9592921435211
 30
0.0
 10
231.2171317752118
 20
198.7425802195148
 30
0.0
 10
231.2731067572585
 20
198.526644567313
 30
0.0
 10
231.3654805987565
 20
198.3173242553301
 30
0.0
 10
231.4946786474816
 20
198.1105957347561
 30
0.0
 10
231.6553787043081
 20
197.9145783729012
 30
0.0
 10
231.8523031471111
 20
197.7234645553924
 30
0.0
 10
232.0761072594856
 20
197.5454562078921
 30
0.0
 10
232.3340610125003
 20
197.375257438082
 30
0.0
 10
232.6146159661528
 20
197.2198414799195
 30
0.0
 10
232.9255749680383
 20
197.0753482921293
 30
0.0
 10
233.2548808076928
 20
196.9469364367766
 30
0.0
 10
233.6093647227209
 20
196.8322955242194
 30
0.0
 10
233.9778170688162
 20
196.7347469018213
 30
0.0
 10
234.3650664231832
 20
196.6532718733929
 30
0.0
 10
234.7617433735841
 20
196.5896221184618
 30
0.0
 10
235.1700211722899
 20
196.5436465969819
 30
0.0
 10
235.5830503448747
 20
196.5159431968291
 30
0.0
 10
235.999999999999
 20
196.5067319984195
 30
0.0
 10
236.4169496551286
 20
196.5159431968291
 30
0.0
 10
236.8299788276977
 20
196.5436465969818
 30
0.0
 10
237.2382566264595
 20
196.5896221184618
 30
0.0
 10
237.6349335766562
 20
196.6532718733928
 30
0.0
 10
238.0221829317526
 20
196.7347469018214
 30
0.0
 10
238.3906352752113
 20
196.8322955242194
 30
0.0
 10
238.7451191994585
 20
196.9469364367766
 30
0.0
 10
239.074425006196
 20
197.0753482921294
 30
0.0
 10
239.385384120742
 20
197.2198414799195
 30
0.0
 10
239.6659386767206
 20
197.375257438082
 30
0.0
 10
239.9238937652352
 20
197.545456207892
 30
0.0
 10
240.1476932034406
 20
197.7234645553925
 30
0.0
 10
240.3446331650794
 20
197.9145783729011
 30
0.0
 10
240.5052789466836
 20
198.1105957347562
 30
0.0
 10
240.6346584281328
 20
198.3173242553301
 30
0.0
 10
240.7263886028072
 20
198.526644567313
 30
0.0
 10
240.7846013248304
 20
198.7425802195148
 30
0.0
 10
240.7920889520163
 20
198.8870708174562
 30
0.0
 10
240.7958315233125
 20
198.9592921435211
 30
0.0
 11
240.7958315233125
 21
198.9592921435211
 31
0.0
 11
240.7770242504196
 21
199.1749123252006
 31
0.0
 11
240.7229720662986
 21
199.3846415735693
 31
0.0
 11
240.629642932322
 21
199.5985495514583
 31
0.0
 11
240.5066074929893
 21
199.7970669764225
 31
0.0
 11
240.3409994905711
 21
200.0005885636724
 31
0.0
 11
240.153311931459
 21
200.1840370149127
 31
0.0
 11
239.9213430538576
 21
200.3695486055699
 31
0.0
 11
239.6738200885685
 21
200.5337938002364
 31
0.0
 11
239.3836239769846
 21
200.695233170037
 31
0.0
 11
239.0827010813295
 21
200.8357101494571
 31
0.0
 11
238.7439299217863
 21
200.9682708523231
 31
0.0
 11
238.3979157616562
 21
201.0806124870807
 31
0.0
 11
238.0214187103116
 21
201.1805848339889
 31
0.0
 11
237.6402709849691
 21
201.2610595795053
 31
0.0
 11
237.2378291702311
 21
201.3257994049876
 31
0.0
 11
236.8327874044207
 21
201.3715686331379
 31
0.0
 11
236.4168120542108
 21
201.3995244692568
 31
0.0
 11
235.9999999999998
 21
201.4087818863043
 31
0.0
 11
235.5831879457889
 21
201.3995244692567
 31
0.0
 11
235.167212595579
 21
201.3715686331379
 31
0.0
 11
234.7621708297687
 21
201.3257994049876
 31
0.0
 11
234.3597290150307
 21
201.2610595795053
 31
0.0
 11
233.9785812896881
 21
201.180584833989
 31
0.0
 11
233.6020842383435
 21
201.0806124870807
 31
0.0
 11
233.2560700782136
 21
200.9682708523231
 31
0.0
 11
232.9172989186704
 21
200.8357101494571
 31
0.0
 11
232.6163760230153
 21
200.695233170037
 31
0.0
 11
232.3261799114314
 21
200.5337938002364
 31
0.0
 11
232.0786569461424
 21
200.3695486055699
 31
0.0
 11
231.8466880685409
 21
200.1840370149127
 31
0.0
 11
231.6590005094289
 21
200.0005885636724
 31
0.0
 11
231.4933925070105
 21
199.7970669764225
 31
0.0
 11
231.3703570676778
 21
199.5985495514583
 31
0.0
 11
231.2770279337012
 21
199.3846415735693
 31
0.0
 11
231.2229757495801
 21
199.1749123252006
 31
0.0
 11
231.2041684766871
 21
198.9592921435211
 31
0.0
 11
231.2229757495801
 21
198.7436719618416
 31
0.0
 11
231.2770279337012
 21
198.533942713473
 31
0.0
 11
231.3703570676778
 21
198.3200347355839
 31
0.0
 11
231.4933925070105
 21
198.1215173106196
 31
0.0
 11
231.6590005094289
 21
197.9179957233698
 31
0.0
 11
231.8466880685409
 21
197.7345472721295
 31
0.0
 11
232.0786569461423
 21
197.5490356814723
 31
0.0
 11
232.3261799114314
 21
197.3847904868058
 31
0.0
 11
232.6163760230153
 21
197.2233511170052
 31
0.0
 11
232.9172989186704
 21
197.0828741375851
 31
0.0
 11
233.2560700782135
 21
196.9503134347191
 31
0.0
 11
233.6020842383435
 21
196.8379717999615
 31
0.0
 11
233.9785812896882
 21
196.7379994530534
 31
0.0
 11
234.3597290150307
 21
196.657524707537
 31
0.0
 11
234.7621708297687
 21
196.5927848820547
 31
0.0
 11
235.167212595579
 21
196.5470156539044
 31
0.0
 11
235.5831879457889
 21
196.5190598177855
 31
0.0
 11
235.9999999999998
 21
196.5098024007379
 31
0.0
 11
236.4168120542107
 21
196.5190598177855
 31
0.0
 11
236.8327874044207
 21
196.5470156539044
 31
0.0
 11
237.2378291702311
 21
196.5927848820547
 31
0.0
 11
237.6402709849691
 21
196.657524707537
 31
0.0
 11
238.0214187103116
 21
196.7379994530534
 31
0.0
 11
238.3979157616562
 21
196.8379717999615
 31
0.0
 11
238.7439299217863
 21
196.9503134347191
 31
0.0
 11
239.0827010813295
 21
197.0828741375851
 31
0.0
 11
239.3836239769846
 21
197.2233511170052
 31
0.0
 11
239.6738200885685
 21
197.3847904868058
 31
0.0
 11
239.9213430538576
 21
197.5490356814723
 31
0.0
 11
240.153311931459
 21
197.7345472721295
 31
0.0
 11
240.340999490571
 21
197.9179957233698
 31
0.0
 11
240.5066074929893
 21
198.1215173106196
 31
0.0
 11
240.629642932322
 21
198.3200347355839
 31
0.0
 11
240.7229720662986
 21
198.533942713473
 31
0.0
 11
240.7770242504196
 21
198.7436719618416
 31
0.0
 11
240.7958315233125
 21
198.9592921435211
 31
0.0
  0
SPLINE
  5
16E
330
48
100
AcDbEntity
  8
1
  6
Continuous
 62
     7
100
AcDbSpline
210
0.0
220
0.0
230
1.0
 70
    11
 71
     3
 72
    79
 73
    75
 74
    73
 42
0.0000000001
 43
0.0000000001
 44
0.00000001
 40
0.0
 40
0.0
 40
0.0
 40
0.0
 40
0.2164388510900477
 40
0.4330213901589776
 40
0.6664029452429185
 40
0.899955695914447
 40
1.162342903951929
 40
1.424792811758877
 40
1.721818249127161
 40
2.018877338058268
 40
2.35095632459614
 40
2.683053254537458
 40
3.046836484610733
 40
3.41063098966883
 40
3.800174953577264
 40
4.18972568608802
 40
4.597341509202296
 40
5.004961006155337
 40
5.421874691173462
 40
5.83878953656273
 40
6.25570438195194
 40
6.672618066970008
 40
7.080237563923019
 40
7.487853387037243
 40
7.877404119548083
 40
8.266948083456516
 40
8.630742588514694
 40
8.994525818587995
 40
9.326622748529287
 40
9.658701735067183
 40
9.955760823998196
 40
10.25278626136641
 40
10.51523616917338
 40
10.77762337721084
 40
11.01117612788242
 40
11.24455768296636
 40
11.4611402220353
 40
11.67757907312535
 40
11.89401792421535
 40
12.11060046328424
 40
12.34398201836821
 40
12.57753476903975
 40
12.83992197707728
 40
13.10237188488427
 40
13.39939732225254
 40
13.69645641118348
 40
14.02853539772137
 40
14.36063232766269
 40
14.72441555773597
 40
15.08821006279413
 40
15.47775402670261
 40
15.86730475921343
 40
16.27492058232765
 40
16.68254007928066
 40
17.09945376429873
 40
17.51636860968794
 40
17.93328345507715
 40
18.35019714009532
 40
18.75781663704841
 40
19.16543246016264
 40
19.55498319267344
 40
19.94452715658186
 40
20.30832166163996
 40
20.67210489171319
 40
21.00420182165451
 40
21.3362808081924
 40
21.63333989712345
 40
21.93036533449177
 40
22.19281524229876
 40
22.45520245033629
 40
22.68875520100782
 40
22.92213675609176
 40
23.13871929516063
 40
23.35515814625062
 40
23.35515814625062
 40
23.35515814625062
 40
23.35515814625062
 10
240.7958315233125
 20
179.040707856479
 30
0.0
 10
240.7920889520162
 20
178.968486530414
 30
0.0
 10
240.7846013248305
 20
178.8239959324726
 30
0.0
 10
240.7263886028073
 20
178.6080602802709
 30
0.0
 10
240.6346584281328
 20
178.3987399682879
 30
0.0
 10
240.5052789466836
 20
178.192011447714
 30
0.0
 10
240.3446331650792
 20
177.995994085859
 30
0.0
 10
240.1476932034405
 20
177.8048802683504
 30
0.0
 10
239.923893765235
 20
177.62687192085
 30
0.0
 10
239.6659386767205
 20
177.4566731510399
 30
0.0
 10
239.3853841207417
 20
177.3012571928774
 30
0.0
 10
239.0744250061959
 20
177.1567640050873
 30
0.0
 10
238.7451191994584
 20
177.0283521497345
 30
0.0
 10
238.3906352752113
 20
176.9137112371771
 30
0.0
 10
238.0221829317526
 20
176.8161626147793
 30
0.0
 10
237.6349335766562
 20
176.7346875863507
 30
0.0
 10
237.2382566264594
 20
176.6710378314197
 30
0.0
 10
236.8299788276977
 20
176.6250623099396
 30
0.0
 10
236.4169496551285
 20
176.597358909787
 30
0.0
 10
235.9999999999989
 20
176.5881477113774
 30
0.0
 10
235.5830503448747
 20
176.597358909787
 30
0.0
 10
235.1700211722898
 20
176.6250623099396
 30
0.0
 10
234.7617433735841
 20
176.6710378314197
 30
0.0
 10
234.3650664231832
 20
176.7346875863507
 30
0.0
 10
233.9778170688162
 20
176.8161626147793
 30
0.0
 10
233.6093647227208
 20
176.9137112371771
 30
0.0
 10
233.2548808076926
 20
177.0283521497344
 30
0.0
 10
232.9255749680384
 20
177.1567640050873
 30
0.0
 10
232.6146159661525
 20
177.3012571928774
 30
0.0
 10
232.3340610125003
 20
177.4566731510399
 30
0.0
 10
232.0761072594855
 20
177.62687192085
 30
0.0
 10
231.8523031471112
 20
177.8048802683504
 30
0.0
 10
231.6553787043081
 20
177.9959940858591
 30
0.0
 10
231.4946786474816
 20
178.192011447714
 30
0.0
 10
231.3654805987563
 20
178.3987399682879
 30
0.0
 10
231.2731067572585
 20
178.6080602802709
 30
0.0
 10
231.2171317752117
 20
178.8239959324725
 30
0.0
 10
231.1976889782079
 20
179.040707856479
 30
0.0
 10
231.2171317752117
 20
179.2574197804854
 30
0.0
 10
231.2731067572585
 20
179.473355432687
 30
0.0
 10
231.3654805987563
 20
179.6826757446699
 30
0.0
 10
231.4946786474817
 20
179.8894042652439
 30
0.0
 10
231.655378704308
 20
180.085421627099
 30
0.0
 10
231.8523031471111
 20
180.2765354446077
 30
0.0
 10
232.0761072594856
 20
180.454543792108
 30
0.0
 10
232.3340610125003
 20
180.6247425619181
 30
0.0
 10
232.6146159661527
 20
180.7801585200807
 30
0.0
 10
232.9255749680383
 20
180.9246517078707
 30
0.0
 10
233.2548808076926
 20
181.0530635632235
 30
0.0
 10
233.609364722721
 20
181.1677044757808
 30
0.0
 10
233.9778170688162
 20
181.2652530981788
 30
0.0
 10
234.3650664231833
 20
181.3467281266073
 30
0.0
 10
234.7617433735841
 20
181.4103778815383
 30
0.0
 10
235.1700211722899
 20
181.4563534030184
 30
0.0
 10
235.5830503448746
 20
181.484056803171
 30
0.0
 10
235.9999999999989
 20
181.4932680015805
 30
0.0
 10
236.4169496551285
 20
181.484056803171
 30
0.0
 10
236.8299788276977
 20
181.4563534030184
 30
0.0
 10
237.2382566264594
 20
181.4103778815384
 30
0.0
 10
237.6349335766562
 20
181.3467281266073
 30
0.0
 10
238.0221829317526
 20
181.2652530981787
 30
0.0
 10
238.3906352752113
 20
181.1677044757808
 30
0.0
 10
238.7451191994584
 20
181.0530635632235
 30
0.0
 10
239.074425006196
 20
180.9246517078707
 30
0.0
 10
239.3853841207418
 20
180.7801585200806
 30
0.0
 10
239.6659386767204
 20
180.6247425619181
 30
0.0
 10
239.923893765235
 20
180.454543792108
 30
0.0
 10
240.1476932034404
 20
180.2765354446077
 30
0.0
 10
240.3446331650793
 20
180.085421627099
 30
0.0
 10
240.5052789466835
 20
179.8894042652439
 30
0.0
 10
240.6346584281328
 20
179.68267574467
 30
0.0
 10
240.7263886028073
 20
179.473355432687
 30
0.0
 10
240.7846013248305
 20
179.2574197804854
 30
0.0
 10
240.7920889520163
 20
179.112929182544
 30
0.0
 10
240.7958315233125
 20
179.040707856479
 30
0.0
 11
240.7958315233125
 21
179.040707856479
 31
0.0
 11
240.7770242504196
 21
178.8250876747995
 31
0.0
 11
240.7229720662986
 21
178.6153584264308
 31
0.0
 11
240.629642932322
 21
178.4014504485417
 31
0.0
 11
240.5066074929893
 21
178.2029330235775
 31
0.0
 11
240.3409994905709
 21
177.9994114363277
 31
0.0
 11
240.1533119314589
 21
177.8159629850874
 31
0.0
 11
239.9213430538574
 21
177.6304513944303
 31
0.0
 11
239.6738200885683
 21
177.4662061997637
 31
0.0
 11
239.3836239769844
 21
177.3047668299631
 31
0.0
 11
239.0827010813293
 21
177.164289850543
 31
0.0
 11
238.7439299217862
 21
177.031729147677
 31
0.0
 11
238.3979157616562
 21
176.9193875129193
 31
0.0
 11
238.0214187103116
 21
176.8194151660112
 31
0.0
 11
237.6402709849691
 21
176.7389404204949
 31
0.0
 11
237.2378291702311
 21
176.6742005950126
 31
0.0
 11
236.8327874044207
 21
176.6284313668622
 31
0.0
 11
236.4168120542108
 21
176.6004755307434
 31
0.0
 11
235.9999999999998
 21
176.5912181136958
 31
0.0
 11
235.5831879457889
 21
176.6004755307434
 31
0.0
 11
235.167212595579
 21
176.6284313668622
 31
0.0
 11
234.7621708297687
 21
176.6742005950126
 31
0.0
 11
234.3597290150307
 21
176.7389404204949
 31
0.0
 11
233.9785812896881
 21
176.8194151660112
 31
0.0
 11
233.6020842383435
 21
176.9193875129193
 31
0.0
 11
233.2560700782135
 21
177.031729147677
 31
0.0
 11
232.9172989186703
 21
177.164289850543
 31
0.0
 11
232.6163760230152
 21
177.3047668299631
 31
0.0
 11
232.3261799114313
 21
177.4662061997637
 31
0.0
 11
232.0786569461423
 21
177.6304513944303
 31
0.0
 11
231.8466880685409
 21
177.8159629850874
 31
0.0
 11
231.6590005094289
 21
177.9994114363277
 31
0.0
 11
231.4933925070105
 21
178.2029330235775
 31
0.0
 11
231.3703570676777
 21
178.4014504485417
 31
0.0
 11
231.2770279337011
 21
178.6153584264308
 31
0.0
 11
231.2229757495801
 21
178.8250876747995
 31
0.0
 11
231.2041684766871
 21
179.040707856479
 31
0.0
 11
231.22297574958
 21
179.2563280381585
 31
0.0
 11
231.2770279337011
 21
179.4660572865271
 31
0.0
 11
231.3703570676777
 21
179.6799652644162
 31
0.0
 11
231.4933925070105
 21
179.8784826893804
 31
0.0
 11
231.6590005094289
 21
180.0820042766303
 31
0.0
 11
231.8466880685409
 21
180.2654527278706
 31
0.0
 11
232.0786569461423
 21
180.4509643185278
 31
0.0
 11
232.3261799114313
 21
180.6152095131943
 31
0.0
 11
232.6163760230152
 21
180.7766488829949
 31
0.0
 11
232.9172989186703
 21
180.917125862415
 31
0.0
 11
233.2560700782135
 21
181.049686565281
 31
0.0
 11
233.6020842383435
 21
181.1620282000386
 31
0.0
 11
233.9785812896882
 21
181.2620005469468
 31
0.0
 11
234.3597290150307
 21
181.3424752924631
 31
0.0
 11
234.7621708297687
 21
181.4072151179454
 31
0.0
 11
235.167212595579
 21
181.4529843460958
 31
0.0
 11
235.5831879457889
 21
181.4809401822146
 31
0.0
 11
235.9999999999998
 21
181.4901975992621
 31
0.0
 11
236.4168120542107
 21
181.4809401822146
 31
0.0
 11
236.8327874044207
 21
181.4529843460958
 31
0.0
 11
237.2378291702311
 21
181.4072151179455
 31
0.0
 11
237.6402709849691
 21
181.3424752924631
 31
0.0
 11
238.0214187103116
 21
181.2620005469467
 31
0.0
 11
238.3979157616562
 21
181.1620282000386
 31
0.0
 11
238.7439299217862
 21
181.049686565281
 31
0.0
 11
239.0827010813293
 21
180.917125862415
 31
0.0
 11
239.3836239769844
 21
180.7766488829949
 31
0.0
 11
239.6738200885683
 21
180.6152095131943
 31
0.0
 11
239.9213430538574
 21
180.4509643185278
 31
0.0
 11
240.1533119314589
 21
180.2654527278706
 31
0.0
 11
240.3409994905709
 21
180.0820042766303
 31
0.0
 11
240.5066074929893
 21
179.8784826893804
 31
0.0
 11
240.629642932322
 21
179.6799652644162
 31
0.0
 11
240.7229720662986
 21
179.4660572865271
 31
0.0
 11
240.7770242504196
 21
179.2563280381585
 31
0.0
 11
240.7958315233125
 21
179.040707856479
 31
0.0
  0
SPLINE
  5
16F
330
48
100
AcDbEntity
  8
1
  6
Continuous
 62
     7
100
AcDbSpline
210
0.0
220
0.0
230
1.0
 70
    11
 71
     3
 72
    79
 73
    75
 74
    73
 42
0.0000000001
 43
0.0000000001
 44
0.00000001
 40
0.0
 40
0.0
 40
0.0
 40
0.0
 40
0.4253242104154838
 40
0.8506474276468435
 40
1.2761547049123
 40
1.701660119757851
 40
2.127447378161917
 40
2.5532321358787
 40
2.979362373888772
 40
3.405489780078045
 40
3.831984534451851
 40
4.258476469546247
 40
4.685313313807337
 40
5.112147689137465
 40
5.539263033005336
 40
5.966376550566108
 40
6.393673358676803
 40
6.820969197174817
 40
7.248328673607481
 40
7.675688150040115
 40
8.102983988538128
 40
8.530280796648802
 40
8.957394314209502
 40
9.384509658077384
 40
9.811344033407549
 40
10.23818087766861
 40
10.66467281276307
 40
11.09116756713685
 40
11.51729497332607
 40
11.94342521133615
 40
12.36920996905294
 40
12.79499722745701
 40
13.22050264230265
 40
13.64600991956808
 40
14.07133313679941
 40
14.4966573472149
 40
14.92191761580178
 40
15.34717788438857
 40
15.772502094804
 40
16.19782531203539
 40
16.62333258930098
 40
17.04883800414649
 40
17.47462526255041
 40
17.90041002026717
 40
18.32654025827724
 40
18.75266766446653
 40
19.17916241884042
 40
19.60565435393487
 40
20.03249119819597
 40
20.4593255735261
 40
20.88644091739403
 40
21.31355443495468
 40
21.74085124306533
 40
22.16814708156336
 40
22.59550655799599
 40
23.02286603442867
 40
23.4501618729267
 40
23.87745868103736
 40
24.30457219859805
 40
24.73168754246594
 40
25.15852191779607
 40
25.58535876205714
 40
26.0118506971516
 40
26.43834545152546
 40
26.86447285771477
 40
27.29060309572479
 40
27.71638785344151
 40
28.1421751118455
 40
28.56768052669102
 40
28.99318780395648
 40
29.41851102118782
 40
29.84383523160332
 40
30.26909550019018
 40
30.69435576877709
 40
30.69435576877709
 40
30.69435576877709
 40
30.69435576877709
 10
236.4248497827715
 20
184.1197009351308
 30
0.0
 10
236.5658134913686
 20
184.1356820597815
 30
0.0
 10
236.8477405793953
 20
184.167644271765
 30
0.0
 10
237.2632662836892
 20
184.2624839910772
 30
0.0
 10
237.6694342666426
 20
184.3905128359181
 30
0.0
 10
238.0627891184383
 20
184.5545549289877
 30
0.0
 10
238.4405057880414
 20
184.7520250293973
 30
0.0
 10
238.799573351251
 20
184.982088186766
 30
0.0
 10
239.1374067290055
 20
185.2425071672876
 30
0.0
 10
239.451263520371
 20
185.531723428076
 30
0.0
 10
239.7389573832098
 20
185.8471382981972
 30
0.0
 10
239.9980682581141
 20
186.1867218249699
 30
0.0
 10
240.2268889532214
 20
186.547544454727
 30
0.0
 10
240.4233863979243
 20
186.927172405094
 30
0.0
 10
240.5863888083578
 20
187.3224413220484
 30
0.0
 10
240.7143098001744
 20
187.7305769676202
 30
0.0
 10
240.80654657421
 20
188.148287656323
 30
0.0
 10
240.8620117377669
 20
188.5725319963851
 30
0.0
 10
240.8806822171403
 20
188.9999999999989
 30
0.0
 10
240.8620117377674
 20
189.4274680036197
 30
0.0
 10
240.8065465742085
 20
189.8517123436607
 30
0.0
 10
240.7143098001797
 20
190.2694230324409
 30
0.0
 10
240.5863888083379
 20
190.6775586777241
 30
0.0
 10
240.4233863979989
 20
191.0728275957553
 30
0.0
 10
240.2268889529429
 20
191.4524555421057
 30
0.0
 10
239.9980682591534
 20
191.813278186847
 30
0.0
 10
239.7389573793353
 20
192.1528616577417
 30
0.0
 10
239.4512635348265
 20
192.4682767363083
 30
0.0
 10
239.1374066751083
 20
192.7574922198072
 30
0.0
 10
238.7995735523374
 20
193.0179140999261
 30
0.0
 10
238.4405050382516
 20
193.247966444217
 30
0.0
 10
238.0627919160037
 20
193.4454768840868
 30
0.0
 10
237.6694238336424
 20
193.6093685231314
 30
0.0
 10
237.2633052141111
 20
193.7379587140095
 30
0.0
 10
236.8475953586923
 20
193.8307043219425
 30
0.0
 10
236.4254129206714
 20
193.8864595084137
 30
0.0
 10
235.9999999999998
 20
193.9052390035545
 30
0.0
 10
235.5745870793285
 20
193.8864595084137
 30
0.0
 10
235.1524046413076
 20
193.8307043219425
 30
0.0
 10
234.7366947858886
 20
193.7379587140094
 30
0.0
 10
234.3305761663573
 20
193.6093685231314
 30
0.0
 10
233.937208083996
 20
193.4454768840867
 30
0.0
 10
233.5594949617483
 20
193.247966444217
 30
0.0
 10
233.2004264476625
 20
193.0179140999261
 30
0.0
 10
232.8625933248918
 20
192.7574922198073
 30
0.0
 10
232.5487364651733
 20
192.4682767363083
 30
0.0
 10
232.2610426206646
 20
192.1528616577416
 30
0.0
 10
232.0019317408465
 20
191.8132781868468
 30
0.0
 10
231.7731110470567
 20
191.4524555421057
 30
0.0
 10
231.5766136020008
 20
191.0728275957552
 30
0.0
 10
231.4136111916619
 20
190.6775586777241
 30
0.0
 10
231.2856901998199
 20
190.2694230324408
 30
0.0
 10
231.1934534257913
 20
189.8517123436608
 30
0.0
 10
231.1379882622325
 20
189.4274680036194
 30
0.0
 10
231.1193177828598
 20
188.9999999999999
 30
0.0
 10
231.1379882622325
 20
188.572531996381
 30
0.0
 10
231.1934534257913
 20
188.1482876563381
 30
0.0
 10
231.2856901998196
 20
187.7305769675635
 30
0.0
 10
231.4136111916633
 20
187.3224413222596
 30
0.0
 10
231.5766136019954
 20
186.9271724043057
 30
0.0
 10
231.7731110470768
 20
186.5475444576669
 30
0.0
 10
232.0019317407718
 20
186.1867218140015
 30
0.0
 10
232.2610426209427
 20
185.8471383390951
 30
0.0
 10
232.5487364641354
 20
185.5317232754931
 30
0.0
 10
232.8625933287611
 20
185.2425077361916
 30
0.0
 10
233.2004264332262
 20
184.9820860642385
 30
0.0
 10
233.5594950155766
 20
184.7520329436626
 30
0.0
 10
233.937207883155
 20
184.5545253998161
 30
0.0
 10
234.3305769153562
 20
184.3906229594775
 30
0.0
 10
234.7366919910218
 20
184.2620730683759
 30
0.0
 10
235.1524150668942
 20
184.1691771214099
 30
0.0
 10
235.5745481723146
 20
184.1139829304799
 30
0.0
 10
236.0001451787904
 20
184.0931100667704
 30
0.0
 10
236.2832815814444
 20
184.110837312344
 30
0.0
 10
236.4248497827715
 20
184.1197009351308
 30
0.0
 11
236.4248497827715
 21
184.1197009351308
 31
0.0
 11
236.8465034561061
 21
184.1754581205777
 31
0.0
 11
237.2616376883173
 21
184.2679968063393
 31
0.0
 11
237.6672751913181
 21
184.3965061801807
 31
0.0
 11
238.0600836959299
 21
184.5600798234353
 31
0.0
 11
238.4373683702263
 21
184.7574400624914
 31
0.0
 11
238.7959246546239
 21
184.9870703105488
 31
0.0
 11
239.133381225877
 21
185.2472818442375
 31
0.0
 11
239.4468024620083
 21
185.5359887805025
 31
0.0
 11
239.7341688460084
 21
185.8511368994166
 31
0.0
 11
239.9929433660328
 21
186.1901518231098
 31
0.0
 11
240.2214847638308
 21
186.550649425198
 31
0.0
 11
240.417757993883
 21
186.9296802987799
 31
0.0
 11
240.5805331394259
 21
187.3245622671716
 31
0.0
 11
240.7083441052953
 21
187.7321040612083
 31
0.0
 11
240.800415380355
 21
188.1493635039181
 31
0.0
 11
240.8558771506044
 21
188.5730446642716
 31
0.0
 11
240.874458415088
 21
189.0000000000001
 31
0.0
 11
240.8558771506045
 21
189.4269553357285
 31
0.0
 11
240.8004153803551
 21
189.850636496082
 31
0.0
 11
240.7083441052953
 21
190.2678959387918
 31
0.0
 11
240.5805331394259
 21
190.6754377328284
 31
0.0
 11
240.417757993883
 21
191.0703197012201
 31
0.0
 11
240.2214847638308
 21
191.4493505748021
 31
0.0
 11
239.9929433660329
 21
191.8098481768903
 31
0.0
 11
239.7341688460085
 21
192.1488631005835
 31
0.0
 11
239.4468024620084
 21
192.4640112194975
 31
0.0
 11
239.1333812258771
 21
192.7527181557625
 31
0.0
 11
238.795924654624
 21
193.0129296894512
 31
0.0
 11
238.4373683702264
 21
193.2425599375087
 31
0.0
 11
238.06008369593
 21
193.4399201765648
 31
0.0
 11
237.6672751913181
 21
193.6034938198194
 31
0.0
 11
237.2616376883173
 21
193.7320031936608
 31
0.0
 11
236.8465034561062
 21
193.8245418794225
 31
0.0
 11
236.4248497827716
 21
193.8802990648694
 31
0.0
 11
235.9999999999999
 21
193.8989794855665
 31
0.0
 11
235.5751502172282
 21
193.8802990648693
 31
0.0
 11
235.1534965438937
 21
193.8245418794224
 31
0.0
 11
234.7383623116825
 21
193.7320031936608
 31
0.0
 11
234.3327248086815
 21
193.6034938198194
 31
0.0
 11
233.9399163040698
 21
193.4399201765648
 31
0.0
 11
233.5626316297735
 21
193.2425599375087
 31
0.0
 11
233.2040753453759
 21
193.0129296894513
 31
0.0
 11
232.8666187741229
 21
192.7527181557626
 31
0.0
 11
232.5531975379915
 21
192.4640112194975
 31
0.0
 11
232.2658311539914
 21
192.1488631005834
 31
0.0
 11
232.0070566339669
 21
191.8098481768902
 31
0.0
 11
231.7785152361689
 21
191.4493505748021
 31
0.0
 11
231.5822420061167
 21
191.0703197012201
 31
0.0
 11
231.4194668605738
 21
190.6754377328284
 31
0.0
 11
231.2916558947044
 21
190.2678959387918
 31
0.0
 11
231.1995846196447
 21
189.850636496082
 31
0.0
 11
231.1441228493954
 21
189.4269553357285
 31
0.0
 11
231.125541584912
 21
189.0
 31
0.0
 11
231.1441228493954
 21
188.5730446642716
 31
0.0
 11
231.1995846196447
 21
188.149363503918
 31
0.0
 11
231.2916558947044
 21
187.7321040612083
 31
0.0
 11
231.4194668605737
 21
187.3245622671716
 31
0.0
 11
231.5822420061166
 21
186.9296802987799
 31
0.0
 11
231.7785152361689
 21
186.550649425198
 31
0.0
 11
232.0070566339668
 21
186.1901518231098
 31
0.0
 11
232.2658311539913
 21
185.8511368994166
 31
0.0
 11
232.5531975379915
 21
185.5359887805025
 31
0.0
 11
232.8666187741229
 21
185.2472818442375
 31
0.0
 11
233.2040753453759
 21
184.9870703105488
 31
0.0
 11
233.5626316297734
 21
184.7574400624914
 31
0.0
 11
233.9399163040698
 21
184.5600798234353
 31
0.0
 11
234.3327248086815
 21
184.3965061801807
 31
0.0
 11
234.7383623116823
 21
184.2679968063393
 31
0.0
 11
235.1534965438934
 21
184.1754581205776
 31
0.0
 11
235.5751502172281
 21
184.1197009351308
 31
0.0
 11
235.9999999999998
 21
184.1010205144336
 31
0.0
 11
236.4248497827715
 21
184.1197009351308
 31
0.0
  0
SPLINE
  5
170
330
48
100
AcDbEntity
  8
1
  6
Continuous
 62
     7
100
AcDbSpline
210
0.0
220
0.0
230
1.0
 70
    11
 71
     3
 72
    79
 73
    75
 74
    73
 42
0.0000000001
 43
0.0000000001
 44
0.00000001
 40
0.0
 40
0.0
 40
0.0
 40
0.0
 40
0.3734479797957014
 40
0.7468401653593227
 40
1.127437468378002
 40
1.507939714843556
 40
1.899225768079236
 40
2.290400939152191
 40
2.694415262437106
 40
3.098322864637407
 40
3.515464201804978
 40
3.93251516526853
 40
4.361633773059353
 40
4.790683751245424
 40
5.229328230317734
 40
5.667927232152354
 40
6.112678050488094
 40
6.557406335569751
 40
7.0042514966459
 40
7.451096657722059
 40
7.895824942803657
 40
8.340575761139343
 40
8.77917476297395
 40
9.217819242046287
 40
9.646869220232384
 40
10.07598782802321
 40
10.4930387914868
 40
10.91018012865446
 40
11.31408773085482
 40
11.71810205413962
 40
12.10927722521249
 40
12.50056327844819
 40
12.88106552491373
 40
13.26166282793234
 40
13.63505501349581
 40
14.00850299329166
 40
14.37941616104839
 40
14.75032932880501
 40
15.12377730860075
 40
15.49716949416438
 40
15.87776679718302
 40
16.25826904364864
 40
16.64955509688435
 40
17.04073026795723
 40
17.44474459124209
 40
17.84865219344239
 40
18.26579353061001
 40
18.68284449407359
 40
19.11196310186446
 40
19.54101308005062
 40
19.97965755912294
 40
20.41825656095753
 40
20.86300737929325
 40
21.30773566437487
 40
21.75458082545105
 40
22.20142598652724
 40
22.64615427160888
 40
23.09090508994453
 40
23.52950409177906
 40
23.96814857085141
 40
24.39719854903757
 40
24.82631715682835
 40
25.24336812029183
 40
25.66050945745951
 40
26.06441705965984
 40
26.46843138294466
 40
26.85960655401761
 40
27.25089260725322
 40
27.63139485371876
 40
28.01199215673744
 40
28.38538434230103
 40
28.75883232209672
 40
29.12974548985329
 40
29.50065865760985
 40
29.50065865760985
 40
29.50065865760985
 40
29.50065865760985
 10
241.1100317028651
 20
308.6834112790344
 30
0.0
 10
241.0931729005715
 20
308.8068662407479
 30
0.0
 10
241.0594578147392
 20
309.0537577196387
 30
0.0
 10
240.9591390550538
 20
309.4169946215594
 30
0.0
 10
240.8245305657148
 20
309.7709276374779
 30
0.0
 10
240.651341144705
 20
310.1145576006613
 30
0.0
 10
240.4441225802939
 20
310.442874069194
 30
0.0
 10
240.2017448802761
 20
310.7561104492809
 30
0.0
 10
239.9290552633123
 20
311.0490924970401
 30
0.0
 10
239.6250061939424
 20
311.3224449741502
 30
0.0
 10
239.2953085227329
 20
311.5715062799037
 30
0.0
 10
238.9390136186737
 20
311.7968253816509
 30
0.0
 10
238.5622882014913
 20
311.9946904981665
 30
0.0
 10
238.1646638888054
 20
312.1653327371896
 30
0.0
 10
237.7522020994333
 20
312.306191076933
 30
0.0
 10
237.3253298491023
 20
312.4171744374566
 30
0.0
 10
236.8894604359415
 20
312.4968401958153
 30
0.0
 10
236.4462375134492
 20
312.5449699272866
 30
0.0
 10
236.0000000000012
 20
312.5610207342626
 30
0.0
 10
235.5537624865436
 20
312.5449699272869
 30
0.0
 10
235.1105395640801
 20
312.4968401958126
 30
0.0
 10
234.6746701508148
 20
312.4171744374647
 30
0.0
 10
234.247797900868
 20
312.3061910769
 30
0.0
 10
233.8353361100776
 20
312.1653327373075
 30
0.0
 10
233.4377118025736
 20
311.9946904977336
 30
0.0
 10
233.0609863663198
 20
311.7968253832453
 30
0.0
 10
232.7046915315266
 20
311.5715062741341
 30
0.0
 10
232.3749936060314
 20
311.3224449954146
 30
0.0
 10
232.0709454570018
 20
311.0490924204581
 30
0.0
 10
231.7982524639275
 20
310.7561107316319
 30
0.0
 10
231.5558869830689
 20
310.4428730524579
 30
0.0
 10
231.3486235306637
 20
310.1145613562193
 30
0.0
 10
231.1755972514437
 20
309.7709140485179
 30
0.0
 10
231.0403871657005
 20
309.417044991685
 30
0.0
 10
230.9422733407745
 20
309.0535736707919
 30
0.0
 10
230.8836352941953
 20
308.6849347035853
 30
0.0
 10
230.8636165599273
 20
308.3130213160327
 30
0.0
 10
230.8836352941953
 20
307.9411079284798
 30
0.0
 10
230.9422733407747
 20
307.5724689612734
 30
0.0
 10
231.0403871657007
 20
307.2089976403804
 30
0.0
 10
231.1755972514442
 20
306.8551285835474
 30
0.0
 10
231.3486235306642
 20
306.5114812758459
 30
0.0
 10
231.5558869830696
 20
306.1831695796074
 30
0.0
 10
231.7982524639282
 20
305.8699319004335
 30
0.0
 10
232.0709454570027
 20
305.5769502116073
 30
0.0
 10
232.3749936060324
 20
305.303597636651
 30
0.0
 10
232.7046915315276
 20
305.0545363579316
 30
0.0
 10
233.0609863663209
 20
304.8292172488205
 30
0.0
 10
233.4377118025747
 20
304.6313521343323
 30
0.0
 10
233.8353361100787
 20
304.4607098947583
 30
0.0
 10
234.2477979008693
 20
304.3198515551661
 30
0.0
 10
234.6746701508161
 20
304.2088681946014
 30
0.0
 10
235.1105395640813
 20
304.1292024362542
 30
0.0
 10
235.5537624865455
 20
304.0810727047796
 30
0.0
 10
236.0000000000011
 20
304.0650218978042
 30
0.0
 10
236.4462375134561
 20
304.0810727047798
 30
0.0
 10
236.8894604359224
 20
304.1292024362548
 30
0.0
 10
237.3253298491798
 20
304.2088681946016
 30
0.0
 10
237.7522020991543
 20
304.3198515551692
 30
0.0
 10
238.164663889843
 20
304.460709894751
 30
0.0
 10
238.5622881977178
 20
304.6313521343644
 30
0.0
 10
238.9390136326071
 20
304.8292172487077
 30
0.0
 10
239.2953084723563
 20
305.0545363583457
 30
0.0
 10
239.625006379657
 20
305.3035976351308
 30
0.0
 10
239.9290545945373
 20
305.5769502170883
 30
0.0
 10
240.20174734605
 20
305.8699318802326
 30
0.0
 10
240.4441137011937
 20
306.1831696523568
 30
0.0
 10
240.6513739418463
 20
306.5114810071359
 30
0.0
 10
240.8244118939222
 20
306.8551295558442
 30
0.0
 10
240.9595789352179
 20
307.2089940363807
 30
0.0
 10
241.0578505240499
 20
307.5724821300388
 30
0.0
 10
241.1159033895223
 20
307.9410588833621
 30
0.0
 10
241.1380921615747
 20
308.3132029797939
 30
0.0
 10
241.1193851891017
 20
308.5600085126209
 30
0.0
 10
241.1100317028651
 20
308.6834112790344
 30
0.0
 11
241.1100317028651
 21
308.6834112790344
 31
0.0
 11
241.0512694887365
 21
309.0522071518478
 31
0.0
 11
240.954293549545
 21
309.4127863962004
 31
0.0
 11
240.8184980924043
 21
309.7683337220026
 31
0.0
 11
240.6477291496164
 21
310.1083630262463
 31
0.0
 11
240.4389953701217
 21
310.4393237259594
 31
0.0
 11
240.19991706654
 21
310.7489357076727
 31
0.0
 11
239.9248331247526
 21
311.0448350121499
 31
0.0
 11
239.624693685566
 21
311.3151268325217
 31
0.0
 11
239.2920013312575
 21
311.5667668384004
 31
0.0
 11
238.9396652845786
 21
311.789905397006
 31
0.0
 11
238.5598654264209
 21
311.9896423422508
 31
0.0
 11
238.1656680878913
 21
312.1590304825606
 31
0.0
 11
237.7506193942218
 21
312.3009584956653
 31
0.0
 11
237.3261630814934
 21
312.4114389147238
 31
0.0
 11
236.8886796958428
 21
312.4915112425906
 31
0.0
 11
236.4465551037545
 21
312.5395642614601
 31
0.0
 11
235.9999999999996
 21
312.5556620031528
 31
0.0
 11
235.5534448962447
 21
312.5395642614599
 31
0.0
 11
235.1113203041565
 21
312.4915112425902
 31
0.0
 11
234.673836918506
 21
312.4114389147231
 31
0.0
 11
234.2493806057777
 21
312.3009584956645
 31
0.0
 11
233.8343319121081
 21
312.1590304825598
 31
0.0
 11
233.4401345735785
 21
311.98964234225
 31
0.0
 11
233.0603347154208
 21
311.7899053970051
 31
0.0
 11
232.707998668742
 21
311.5667668383994
 31
0.0
 11
232.3753063144335
 21
311.3151268325205
 31
0.0
 11
232.075166875247
 21
311.0448350121485
 31
0.0
 11
231.8000829334598
 21
310.7489357076713
 31
0.0
 11
231.5610046298783
 21
310.4393237259579
 31
0.0
 11
231.3522708503836
 21
310.1083630262448
 31
0.0
 11
231.1815019075957
 21
309.7683337220011
 31
0.0
 11
231.0457064504552
 21
309.412786396199
 31
0.0
 11
230.9487305112639
 21
309.0522071518465
 31
0.0
 11
230.8899682971354
 21
308.6834112790329
 31
0.0
 11
230.8702743050577
 21
308.3130213160326
 31
0.0
 11
230.8899682971354
 21
307.9426313530324
 31
0.0
 11
230.9487305112639
 21
307.5738354802189
 31
0.0
 11
231.0457064504555
 21
307.2132562358663
 31
0.0
 11
231.1815019075962
 21
306.8577089100642
 31
0.0
 11
231.3522708503841
 21
306.5176796058205
 31
0.0
 11
231.5610046298788
 21
306.1867189061073
 31
0.0
 11
231.8000829334605
 21
305.8771069243941
 31
0.0
 11
232.0751668752479
 21
305.581207619917
 31
0.0
 11
232.3753063144345
 21
305.3109157995451
 31
0.0
 11
232.707998668743
 21
305.0592757936663
 31
0.0
 11
233.0603347154219
 21
304.8361372350607
 31
0.0
 11
233.4401345735796
 21
304.6364002898158
 31
0.0
 11
233.8343319121093
 21
304.4670121495061
 31
0.0
 11
234.2493806057789
 21
304.3250841364015
 31
0.0
 11
234.6738369185073
 21
304.214603717343
 31
0.0
 11
235.1113203041579
 21
304.1345313894763
 31
0.0
 11
235.5534448962461
 21
304.0864783706067
 31
0.0
 11
236.000000000001
 21
304.0703806289139
 31
0.0
 11
236.4465551037559
 21
304.086478370607
 31
0.0
 11
236.8886796958441
 21
304.1345313894769
 31
0.0
 11
237.3261630814946
 21
304.2146037173438
 31
0.0
 11
237.7506193942229
 21
304.3250841364023
 31
0.0
 11
238.1656680878924
 21
304.4670121495071
 31
0.0
 11
238.5598654264221
 21
304.6364002898171
 31
0.0
 11
238.9396652845797
 21
304.836137235062
 31
0.0
 11
239.2920013312585
 21
305.0592757936676
 31
0.0
 11
239.6246936855669
 21
305.3109157995466
 31
0.0
 11
239.9248331247534
 21
305.5812076199186
 31
0.0
 11
240.1999170665408
 21
305.8771069243957
 31
0.0
 11
240.4389953701223
 21
306.1867189061091
 31
0.0
 11
240.647729149617
 21
306.5176796058222
 31
0.0
 11
240.8184980924047
 21
306.8577089100659
 31
0.0
 11
240.9542935495452
 21
307.2132562358681
 31
0.0
 11
241.0512694887366
 21
307.5738354802207
 31
0.0
 11
241.1100317028652
 21
307.9426313530341
 31
0.0
 11
241.1297256949429
 21
308.3130213160343
 31
0.0
 11
241.1100317028651
 21
308.6834112790344
 31
0.0
  0
SPLINE
  5
171
330
48
100
AcDbEntity
  8
1
  6
Continuous
 62
     7
100
AcDbSpline
210
0.0
220
0.0
230
1.0
 70
    11
 71
     3
 72
    79
 73
    75
 74
    73
 42
0.0000000001
 43
0.0000000001
 44
0.00000001
 40
0.0
 40
0.0
 40
0.0
 40
0.0
 40
0.3734479797958136
 40
0.7468401653593253
 40
1.127437468378005
 40
1.507939714843508
 40
1.899225768079188
 40
2.290400939152143
 40
2.694415262437099
 40
3.098322864637325
 40
3.515464201804964
 40
3.932515165268455
 40
4.361633773059304
 40
4.790683751245398
 40
5.229328230317727
 40
5.667927232152347
 40
6.112678050488066
 40
6.557406335569723
 40
7.004251496645873
 40
7.451096657722029
 40
7.895824942803627
 40
8.340575761139313
 40
8.77917476297392
 40
9.217819242046257
 40
9.646869220232354
 40
10.07598782802318
 40
10.49303879148674
 40
10.91018012865444
 40
11.31408773085479
 40
11.71810205413959
 40
12.10927722521251
 40
12.50056327844816
 40
12.88106552491375
 40
13.26166282793231
 40
13.63505501349584
 40
14.00850299329162
 40
14.37941616104824
 40
14.75032932880492
 40
15.12377730860078
 40
15.4971694941643
 40
15.87776679718293
 40
16.2582690436485
 40
16.64955509688421
 40
17.04073026795719
 40
17.44474459124204
 40
17.84865219344238
 40
18.26579353061003
 40
18.68284449407361
 40
19.1119631018644
 40
19.5410130800506
 40
19.97965755912295
 40
20.41825656095751
 40
20.86300737929324
 40
21.30773566437485
 40
21.75458082545103
 40
22.20142598652722
 40
22.64615427160887
 40
23.09090508994451
 40
23.52950409177904
 40
23.96814857085137
 40
24.39719854903751
 40
24.82631715682834
 40
25.24336812029186
 40
25.66050945745949
 40
26.06441705965979
 40
26.46843138294469
 40
26.85960655401755
 40
27.25089260725321
 40
27.63139485371875
 40
28.01199215673742
 40
28.38538434230097
 40
28.75883232209672
 40
29.12974548985334
 40
29.5006586576099
 40
29.5006586576099
 40
29.5006586576099
 40
29.5006586576099
 10
241.1100317028651
 20
296.4426313530325
 30
0.0
 10
241.0931729005715
 20
296.3191763913191
 30
0.0
 10
241.0594578147392
 20
296.0722849124282
 30
0.0
 10
240.9591390550538
 20
295.7090480105076
 30
0.0
 10
240.8245305657149
 20
295.3551149945891
 30
0.0
 10
240.6513411447048
 20
295.0114850314056
 30
0.0
 10
240.444122580294
 20
294.683168562873
 30
0.0
 10
240.2017448802761
 20
294.3699321827862
 30
0.0
 10
239.9290552633124
 20
294.0769501350268
 30
0.0
 10
239.6250061939422
 20
293.803597657917
 30
0.0
 10
239.2953085227331
 20
293.5545363521631
 30
0.0
 10
238.9390136186736
 20
293.3292172504163
 30
0.0
 10
238.5622882014913
 20
293.1313521339005
 30
0.0
 10
238.1646638888054
 20
292.9607098948773
 30
0.0
 10
237.7522020994332
 20
292.819851555134
 30
0.0
 10
237.3253298491024
 20
292.7088681946102
 30
0.0
 10
236.8894604359415
 20
292.6292024362517
 30
0.0
 10
236.4462375134492
 20
292.5810727047805
 30
0.0
 10
236.0000000000012
 20
292.5650218978045
 30
0.0
 10
235.5537624865437
 20
292.58107270478
 30
0.0
 10
235.11053956408
 20
292.6292024362546
 30
0.0
 10
234.6746701508148
 20
292.7088681946021
 30
0.0
 10
234.247797900868
 20
292.819851555167
 30
0.0
 10
233.8353361100776
 20
292.9607098947594
 30
0.0
 10
233.4377118025736
 20
293.1313521343336
 30
0.0
 10
233.0609863663197
 20
293.3292172488216
 30
0.0
 10
232.7046915315265
 20
293.5545363579329
 30
0.0
 10
232.3749936060316
 20
293.8035976366524
 30
0.0
 10
232.0709454570017
 20
294.0769502116088
 30
0.0
 10
231.7982524639274
 20
294.3699319004351
 30
0.0
 10
231.555886983069
 20
294.6831695796092
 30
0.0
 10
231.3486235306637
 20
295.0114812758476
 30
0.0
 10
231.1755972514437
 20
295.3551285835491
 30
0.0
 10
231.0403871657005
 20
295.7089976403821
 30
0.0
 10
230.9422733407746
 20
296.0724689612749
 30
0.0
 10
230.8836352941953
 20
296.4411079284815
 30
0.0
 10
230.8636165599273
 20
296.8130213160343
 30
0.0
 10
230.8836352941954
 20
297.1849347035872
 30
0.0
 10
230.9422733407747
 20
297.5535736707935
 30
0.0
 10
231.0403871657007
 20
297.9170449916866
 30
0.0
 10
231.1755972514442
 20
298.2709140485195
 30
0.0
 10
231.3486235306642
 20
298.614561356221
 30
0.0
 10
231.5558869830695
 20
298.9428730524595
 30
0.0
 10
231.7982524639282
 20
299.2561107316336
 30
0.0
 10
232.0709454570027
 20
299.5490924204595
 30
0.0
 10
232.3749936060325
 20
299.8224449954162
 30
0.0
 10
232.7046915315275
 20
300.0715062741355
 30
0.0
 10
233.0609863663208
 20
300.2968253832465
 30
0.0
 10
233.4377118025748
 20
300.4946904977346
 30
0.0
 10
233.8353361100788
 20
300.6653327373087
 30
0.0
 10
234.2477979008691
 20
300.8061910769011
 30
0.0
 10
234.6746701508162
 20
300.9171744374656
 30
0.0
 10
235.1105395640812
 20
300.996840195813
 30
0.0
 10
235.5537624865454
 20
301.0449699272875
 30
0.0
 10
236.0000000000011
 20
301.0610207342627
 30
0.0
 10
236.4462375134561
 20
301.0449699272872
 30
0.0
 10
236.8894604359223
 20
300.9968401958121
 30
0.0
 10
237.3253298491799
 20
300.9171744374655
 30
0.0
 10
237.7522020991542
 20
300.8061910768979
 30
0.0
 10
238.164663889843
 20
300.665332737316
 30
0.0
 10
238.562288197718
 20
300.4946904977027
 30
0.0
 10
238.939013632607
 20
300.2968253833594
 30
0.0
 10
239.2953084723562
 20
300.0715062737212
 30
0.0
 10
239.625006379657
 20
299.8224449969362
 30
0.0
 10
239.9290545945374
 20
299.5490924149787
 30
0.0
 10
240.2017473460498
 20
299.2561107518343
 30
0.0
 10
240.4441137011937
 20
298.9428729797101
 30
0.0
 10
240.6513739418464
 20
298.6145616249312
 30
0.0
 10
240.8244118939222
 20
298.2709130762228
 30
0.0
 10
240.9595789352179
 20
297.9170485956863
 30
0.0
 10
241.0578505240499
 20
297.5535605020282
 30
0.0
 10
241.1159033895222
 20
297.1849837487049
 30
0.0
 10
241.1380921615747
 20
296.8128396522729
 30
0.0
 10
241.1193851891016
 20
296.5660341194459
 30
0.0
 10
241.1100317028651
 20
296.4426313530325
 30
0.0
 11
241.1100317028651
 21
296.4426313530325
 31
0.0
 11
241.0512694887365
 21
296.073835480219
 31
0.0
 11
240.954293549545
 21
295.7132562358665
 31
0.0
 11
240.8184980924043
 21
295.3577089100644
 31
0.0
 11
240.6477291496164
 21
295.0176796058208
 31
0.0
 11
240.4389953701217
 21
294.6867189061077
 31
0.0
 11
240.19991706654
 21
294.3771069243943
 31
0.0
 11
239.9248331247526
 21
294.0812076199171
 31
0.0
 11
239.624693685566
 21
293.8109157995453
 31
0.0
 11
239.2920013312575
 21
293.5592757936665
 31
0.0
 11
238.9396652845786
 21
293.3361372350611
 31
0.0
 11
238.5598654264209
 21
293.1364002898162
 31
0.0
 11
238.1656680878913
 21
292.9670121495063
 31
0.0
 11
237.7506193942218
 21
292.8250841364016
 31
0.0
 11
237.3261630814934
 21
292.7146037173432
 31
0.0
 11
236.8886796958428
 21
292.6345313894764
 31
0.0
 11
236.4465551037545
 21
292.5864783706069
 31
0.0
 11
235.9999999999996
 21
292.5703806289142
 31
0.0
 11
235.5534448962447
 21
292.5864783706071
 31
0.0
 11
235.1113203041565
 21
292.6345313894768
 31
0.0
 11
234.673836918506
 21
292.7146037173438
 31
0.0
 11
234.2493806057777
 21
292.8250841364024
 31
0.0
 11
233.8343319121081
 21
292.9670121495071
 31
0.0
 11
233.4401345735785
 21
293.136400289817
 31
0.0
 11
233.0603347154208
 21
293.3361372350619
 31
0.0
 11
232.707998668742
 21
293.5592757936675
 31
0.0
 11
232.3753063144335
 21
293.8109157995465
 31
0.0
 11
232.075166875247
 21
294.0812076199185
 31
0.0
 11
231.8000829334598
 21
294.3771069243957
 31
0.0
 11
231.5610046298783
 21
294.6867189061091
 31
0.0
 11
231.3522708503836
 21
295.0176796058222
 31
0.0
 11
231.1815019075957
 21
295.3577089100659
 31
0.0
 11
231.0457064504552
 21
295.713256235868
 31
0.0
 11
230.9487305112639
 21
296.0738354802206
 31
0.0
 11
230.8899682971354
 21
296.4426313530341
 31
0.0
 11
230.8702743050577
 21
296.8130213160343
 31
0.0
 11
230.8899682971354
 21
297.1834112790345
 31
0.0
 11
230.9487305112639
 21
297.5522071518481
 31
0.0
 11
231.0457064504555
 21
297.9127863962006
 31
0.0
 11
231.1815019075962
 21
298.2683337220027
 31
0.0
 11
231.3522708503841
 21
298.6083630262464
 31
0.0
 11
231.5610046298788
 21
298.9393237259595
 31
0.0
 11
231.8000829334605
 21
299.2489357076729
 31
0.0
 11
232.0751668752479
 21
299.54483501215
 31
0.0
 11
232.3753063144345
 21
299.8151268325219
 31
0.0
 11
232.707998668743
 21
300.0667668384008
 31
0.0
 11
233.0603347154219
 21
300.2899053970064
 31
0.0
 11
233.4401345735796
 21
300.4896423422511
 31
0.0
 11
233.8343319121093
 21
300.659030482561
 31
0.0
 11
234.2493806057789
 21
300.8009584956656
 31
0.0
 11
234.6738369185073
 21
300.9114389147239
 31
0.0
 11
235.1113203041579
 21
300.9915112425907
 31
0.0
 11
235.5534448962461
 21
301.0395642614603
 31
0.0
 11
236.000000000001
 21
301.055662003153
 31
0.0
 11
236.4465551037559
 21
301.03956426146
 31
0.0
 11
236.8886796958441
 21
300.99151124259
 31
0.0
 11
237.3261630814946
 21
300.9114389147231
 31
0.0
 11
237.7506193942229
 21
300.8009584956646
 31
0.0
 11
238.1656680878924
 21
300.6590304825599
 31
0.0
 11
238.5598654264221
 21
300.48964234225
 31
0.0
 11
238.9396652845797
 21
300.289905397005
 31
0.0
 11
239.2920013312585
 21
300.0667668383993
 31
0.0
 11
239.6246936855669
 21
299.8151268325204
 31
0.0
 11
239.9248331247534
 21
299.5448350121484
 31
0.0
 11
240.1999170665408
 21
299.2489357076713
 31
0.0
 11
240.4389953701223
 21
298.9393237259579
 31
0.0
 11
240.647729149617
 21
298.6083630262448
 31
0.0
 11
240.8184980924047
 21
298.2683337220011
 31
0.0
 11
240.9542935495452
 21
297.9127863961988
 31
0.0
 11
241.0512694887366
 21
297.5522071518463
 31
0.0
 11
241.1100317028652
 21
297.1834112790328
 31
0.0
 11
241.1297256949429
 21
296.8130213160326
 31
0.0
 11
241.1100317028651
 21
296.4426313530325
 31
0.0
  0
ENDBLK
  5
4A
330
48
100
AcDbEntity
  8
0
100
AcDbBlockEnd
  0
BLOCK
  5
4C
330
4B
100
AcDbEntity
  8
0
100
AcDbBlockBegin
  2
72-73
 70
     0
 71
     0
 10
48.65169582941461
 20
262.1483106201005
 30
0.0
  3
72-73
  1

  0
LINE
  5
172
330
4B
100
AcDbEntity
  8
1
  6
Continuous
 62
     7
100
AcDbLine
 10
200.7499999999999
 20
303.3130213160334
 30
0.0
 11
201.55
 21
303.3130213160334
 31
0.0
  0
LINE
  5
173
330
4B
100
AcDbEntity
  8
1
  6
Continuous
 62
     7
100
AcDbLine
 10
199.7499999999999
 20
305.1130213160334
 30
0.0
 11
199.7499999999999
 21
304.3130213160334
 31
0.0
  0
LINE
  5
174
330
4B
100
AcDbEntity
  8
1
  6
Continuous
 62
     7
100
AcDbLine
 10
198.2499999999999
 20
305.1130213160334
 30
0.0
 11
199.7499999999999
 21
305.1130213160334
 31
0.0
  0
LINE
  5
175
330
4B
100
AcDbEntity
  8
1
  6
Continuous
 62
     7
100
AcDbLine
 10
198.2499999999999
 20
304.3130213160334
 30
0.0
 11
198.2499999999999
 21
305.1130213160334
 31
0.0
  0
LINE
  5
176
330
4B
100
AcDbEntity
  8
1
  6
Continuous
 62
     7
100
AcDbLine
 10
196.4499999999999
 20
303.3130213160334
 30
0.0
 11
197.2499999999999
 21
303.3130213160334
 31
0.0
  0
LINE
  5
177
330
4B
100
AcDbEntity
  8
1
  6
Continuous
 62
     7
100
AcDbLine
 10
196.4499999999999
 20
301.8130213160334
 30
0.0
 11
196.4499999999999
 21
303.3130213160334
 31
0.0
  0
LINE
  5
178
330
4B
100
AcDbEntity
  8
1
  6
Continuous
 62
     7
100
AcDbLine
 10
197.2499999999999
 20
301.8130213160334
 30
0.0
 11
196.4499999999999
 21
301.8130213160334
 31
0.0
  0
LINE
  5
179
330
4B
100
AcDbEntity
  8
1
  6
Continuous
 62
     7
100
AcDbLine
 10
198.2499999999999
 20
300.0130213160334
 30
0.0
 11
198.2499999999999
 21
300.8130213160334
 31
0.0
  0
LINE
  5
17A
330
4B
100
AcDbEntity
  8
1
  6
Continuous
 62
     7
100
AcDbLine
 10
199.7499999999999
 20
300.0130213160334
 30
0.0
 11
198.2499999999999
 21
300.0130213160334
 31
0.0
  0
LINE
  5
17B
330
4B
100
AcDbEntity
  8
1
  6
Continuous
 62
     7
100
AcDbLine
 10
199.7499999999999
 20
300.8130213160334
 30
0.0
 11
199.7499999999999
 21
300.0130213160334
 31
0.0
  0
LINE
  5
17C
330
4B
100
AcDbEntity
  8
1
  6
Continuous
 62
     7
100
AcDbLine
 10
201.55
 20
301.8130213160334
 30
0.0
 11
200.7499999999999
 21
301.8130213160334
 31
0.0
  0
LINE
  5
17D
330
4B
100
AcDbEntity
  8
1
  6
Continuous
 62
     7
100
AcDbLine
 10
201.55
 20
303.3130213160334
 30
0.0
 11
201.55
 21
301.8130213160334
 31
0.0
  0
ARC
  5
17E
330
4B
100
AcDbEntity
  8
1
  6
Continuous
 62
     7
100
AcDbCircle
 10
198.9999999999998
 20
229.1329347228474
 30
0.0
 40
11.78124999999987
100
AcDbArc
 50
67.28001366520508
 51
112.7199863347944
  0
ARC
  5
17F
330
4B
100
AcDbEntity
  8
1
  6
Continuous
 62
     7
100
AcDbCircle
 10
81.73737327188989
 20
229.1329347228474
 30
0.0
 40
11.78124999999992
100
AcDbArc
 50
67.28001366520456
 51
112.7199863347947
  0
CIRCLE
  5
180
330
4B
100
AcDbEntity
  8
1
  6
Continuous
 62
     7
100
AcDbCircle
 10
198.9999999999999
 20
302.5630213160334
 30
0.0
 40
4.75
  0
ARC
  5
181
330
4B
100
AcDbEntity
  8
1
  6
Continuous
 62
     7
100
AcDbCircle
 10
200.7499999999999
 20
304.3130213160334
 30
0.0
 40
1.0
100
AcDbArc
 50
180.0
 51
-90.0
  0
ARC
  5
182
330
4B
100
AcDbEntity
  8
1
  6
Continuous
 62
     7
100
AcDbCircle
 10
197.2499999999999
 20
304.3130213160334
 30
0.0
 40
1.0
100
AcDbArc
 50
-90.0
 51
0.0
  0
ARC
  5
183
330
4B
100
AcDbEntity
  8
1
  6
Continuous
 62
     7
100
AcDbCircle
 10
200.7499999999999
 20
300.8130213160334
 30
0.0
 40
1.0
100
AcDbArc
 50
90.0
 51
180.0
  0
ARC
  5
184
330
4B
100
AcDbEntity
  8
1
  6
Continuous
 62
     7
100
AcDbCircle
 10
197.2499999999999
 20
300.8130213160334
 30
0.0
 40
1.0
100
AcDbArc
 50
0.0
 51
90.0
  0
ENDBLK
  5
4D
330
4B
100
AcDbEntity
  8
0
100
AcDbBlockEnd
  0
BLOCK
  5
4F
330
4E
100
AcDbEntity
  8
0
100
AcDbBlockBegin
  2
81-15-1
 70
     0
 71
     0
 10
120.492270638769
 20
401.8059520431416
 30
0.0
  3
81-15-1
  1

  0
LINE
  5
185
330
4E
100
AcDbEntity
  8
1
  6
Continuous
 62
     7
100
AcDbLine
 10
194.4999999999999
 20
279.4898225781038
 30
0.0
 11
194.4999999999999
 21
269.5630213160335
 31
0.0
  0
LINE
  5
186
330
4E
100
AcDbEntity
  8
1
  6
Continuous
 62
     7
100
AcDbLine
 10
203.4999999999999
 20
269.5630213160335
 30
0.0
 11
203.4999999999999
 21
279.4898225781038
 31
0.0
  0
LINE
  5
187
330
4E
100
AcDbEntity
  8
0
  6
Continuous
 62
     7
100
AcDbLine
 10
218.3499999999999
 20
219.5
 30
0.0
 11
218.3500000000001
 21
219.57
 31
0.0
  0
LINE
  5
188
330
4E
100
AcDbEntity
  8
1
  6
Continuous
 62
     7
100
AcDbLine
 10
179.9999999999999
 20
210.0
 30
0.0
 11
179.9999999999999
 21
219.15
 31
0.0
  0
LINE
  5
189
330
4E
100
AcDbEntity
  8
1
  6
Continuous
 62
     7
100
AcDbLine
 10
180.1789699339979
 20
237.5731394115982
 30
0.0
 11
179.6499999999998
 21
219.5
 31
0.0
  0
LINE
  5
18A
330
4E
100
AcDbEntity
  8
1
  6
Continuous
 62
     7
100
AcDbLine
 10
185.0000000000001
 20
209.0
 30
0.0
 11
180.9999999999999
 21
209.0
 31
0.0
  0
LINE
  5
18B
330
4E
100
AcDbEntity
  8
1
  6
Continuous
 62
     7
100
AcDbLine
 10
182.6778998302677
 20
240.0
 30
0.0
 11
193.7499999999999
 21
240.0
 31
0.0
  0
LINE
  5
18C
330
4E
100
AcDbEntity
  8
1
  6
Continuous
 62
     7
100
AcDbLine
 10
217.9999999999999
 20
219.15
 30
0.0
 11
217.9999999999999
 21
210.0
 31
0.0
  0
LINE
  5
18D
330
4E
100
AcDbEntity
  8
1
  6
Continuous
 62
     7
100
AcDbLine
 10
216.9999999999999
 20
209.0
 30
0.0
 11
213.0000000000001
 21
209.0
 31
0.0
  0
LINE
  5
18E
330
4E
100
AcDbEntity
  8
1
  6
Continuous
 62
     7
100
AcDbLine
 10
204.25
 20
240.0
 30
0.0
 11
215.3221001697322
 21
240.0
 31
0.0
  0
LINE
  5
18F
330
4E
100
AcDbEntity
  8
1
  6
PHANTOM
 62
     2
100
AcDbLine
 10
231.9999999999999
 20
307.0630213160334
 30
0.0
 11
222.0731987379297
 21
307.0630213160334
 31
0.0
  0
LINE
  5
190
330
4E
100
AcDbEntity
  8
1
  6
PHANTOM
 62
     2
100
AcDbLine
 10
222.0731987379297
 20
298.0630213160335
 30
0.0
 11
231.9999999999999
 21
298.0630213160335
 31
0.0
  0
LINE
  5
191
330
4E
100
AcDbEntity
  8
0
  6
Continuous
 62
     7
100
AcDbLine
 10
185.0000000000001
 20
209.0
 30
0.0
 11
213.0000000000001
 21
209.0
 31
0.0
  0
LINE
  5
192
330
4E
100
AcDbEntity
  8
0
  6
Continuous
 62
     7
100
AcDbLine
 10
193.7499999999999
 20
240.0
 30
0.0
 11
204.25
 21
240.0
 31
0.0
  0
LINE
  5
193
330
4E
100
AcDbEntity
  8
1
  6
Continuous
 62
     7
100
AcDbLine
 10
218.3499999999999
 20
219.5
 30
0.0
 11
217.8210300660018
 21
237.573139411598
 31
0.0
  0
LINE
  5
194
330
4E
100
AcDbEntity
  8
1
  6
Continuous
 62
     7
100
AcDbLine
 10
218.3499999999999
 20
219.5
 30
0.0
 11
179.6499999999998
 21
219.5
 31
0.0
  0
LINE
  5
195
330
4E
100
AcDbEntity
  8
1
  6
Continuous
 62
     7
100
AcDbLine
 10
194.4497534325481
 20
220.07
 30
0.0
 11
194.4497534325481
 21
236.5731394115982
 31
0.0
  0
LINE
  5
196
330
4E
100
AcDbEntity
  8
1
  6
Continuous
 62
     7
100
AcDbLine
 10
203.550246567451
 20
236.5731394115982
 30
0.0
 11
203.550246567451
 21
220.07
 31
0.0
  0
LINE
  5
197
330
4E
100
AcDbEntity
  8
1
  6
Continuous
 62
     7
100
AcDbLine
 10
195.4497534325481
 20
237.5731394115982
 30
0.0
 11
202.550246567451
 21
237.5731394115982
 31
0.0
  0
LINE
  5
198
330
4E
100
AcDbEntity
  8
1
  6
Continuous
 62
     7
100
AcDbLine
 10
62.91634320588834
 20
237.573139411598
 30
0.0
 11
62.38737327189018
 21
219.5
 31
0.0
  0
LINE
  5
199
330
4E
100
AcDbEntity
  8
1
  6
Continuous
 62
     7
100
AcDbLine
 10
62.73737327189021
 20
210.0
 30
0.0
 11
62.73737327189021
 21
219.15
 31
0.0
  0
LINE
  5
19A
330
4E
100
AcDbEntity
  8
1
  6
Continuous
 62
     7
100
AcDbLine
 10
100.5584033378922
 20
237.5731394115982
 30
0.0
 11
100.7373732718908
 21
237.573139411598
 31
0.0
  0
LINE
  5
19B
330
4E
100
AcDbEntity
  8
1
  6
Continuous
 62
     7
100
AcDbLine
 10
86.98737327189078
 20
240.0
 30
0.0
 11
98.05947344162236
 21
240.0
 31
0.0
  0
LINE
  5
19C
330
4E
100
AcDbEntity
  8
1
  6
Continuous
 62
     7
100
AcDbLine
 10
99.73737327189016
 20
209.0
 30
0.0
 11
96.39906882351116
 21
209.0
 31
0.0
  0
LINE
  5
19D
330
4E
100
AcDbEntity
  8
1
  6
Continuous
 62
     7
100
AcDbLine
 10
100.7373732718902
 20
219.15
 30
0.0
 11
100.7373732718905
 21
210.0
 31
0.0
  0
LINE
  5
19E
330
4E
100
AcDbEntity
  8
1
  6
Continuous
 62
     7
100
AcDbLine
 10
65.41527310215794
 20
240.0
 30
0.0
 11
86.98737327189078
 21
240.0
 31
0.0
  0
LINE
  5
19F
330
4E
100
AcDbEntity
  8
1
  6
Continuous
 62
     7
100
AcDbLine
 10
96.39906882351116
 20
209.0
 30
0.0
 11
63.73737327189021
 21
209.0
 31
0.0
  0
LINE
  5
1A0
330
4E
100
AcDbEntity
  8
1
  6
Continuous
 62
     7
100
AcDbLine
 10
101.0873732718907
 20
219.57
 30
0.0
 11
118.7373732718909
 21
219.57
 31
0.0
  0
LINE
  5
1A1
330
4E
100
AcDbEntity
  8
1
  6
Continuous
 62
     7
100
AcDbLine
 10
119.2373732718909
 20
236.5731394115982
 30
0.0
 11
119.2373732718909
 21
220.07
 31
0.0
  0
LINE
  5
1A2
330
4E
100
AcDbEntity
  8
1
  6
Continuous
 62
     7
100
AcDbLine
 10
100.7373732718908
 20
237.573139411598
 30
0.0
 11
118.237373271891
 21
237.5731394115982
 31
0.0
  0
LINE
  5
1A3
330
4E
100
AcDbEntity
  8
0
  6
Continuous
 62
     7
100
AcDbLine
 10
101.0873732718904
 20
219.5
 30
0.0
 11
101.0873732718907
 21
219.57
 31
0.0
  0
LINE
  5
1A4
330
4E
100
AcDbEntity
  8
1
  6
Continuous
 62
     7
100
AcDbLine
 10
100.7373732718908
 20
219.5
 30
0.0
 11
100.7373732718902
 21
219.15
 31
0.0
  0
LINE
  5
1A5
330
4E
100
AcDbEntity
  8
1
  6
Continuous
 62
     7
100
AcDbLine
 10
100.7373732718908
 20
219.5
 30
0.0
 11
62.38737327189018
 21
219.5
 31
0.0
  0
LINE
  5
1A6
330
4E
100
AcDbEntity
  8
1
  6
Continuous
 62
     7
100
AcDbLine
 10
100.7373732718908
 20
237.573139411598
 30
0.0
 11
100.7373732718908
 21
219.5
 31
0.0
  0
ARC
  5
1A7
330
4E
100
AcDbEntity
  8
1
  6
Continuous
 62
     7
100
AcDbCircle
 10
209.4999999999999
 20
279.4898225781038
 30
0.0
 40
5.99999999999993
100
AcDbArc
 50
114.4690212692302
 51
180.0
  0
ARC
  5
1A8
330
4E
100
AcDbEntity
  8
1
  6
Continuous
 62
     7
100
AcDbCircle
 10
188.4999999999999
 20
279.4898225781038
 30
0.0
 40
6.0
100
AcDbArc
 50
0.0
 51
65.53097873077026
  0
ARC
  5
1A9
330
4E
100
AcDbEntity
  8
1
  6
Continuous
 62
     7
100
AcDbCircle
 10
198.9999999999999
 20
269.5630213160335
 30
0.0
 40
4.5
100
AcDbArc
 50
-90.0
 51
0.0
  0
ARC
  5
1AA
330
4E
100
AcDbEntity
  8
1
  6
Continuous
 62
     7
100
AcDbCircle
 10
198.9999999999999
 20
269.5630213160335
 30
0.0
 40
4.5
100
AcDbArc
 50
180.0
 51
-90.0
  0
ARC
  5
1AB
330
4E
100
AcDbEntity
  8
1
  6
Continuous
 62
     7
100
AcDbCircle
 10
198.9999999999999
 20
302.5630213160334
 30
0.0
 40
19.35000000000019
100
AcDbArc
 50
-24.46902126923027
 51
26.32225160495214
  0
ARC
  5
1AC
330
4E
100
AcDbEntity
  8
1
  6
PHANTOM
 62
     2
100
AcDbCircle
 10
222.0731987379297
 20
313.0630213160335
 30
0.0
 40
5.999999999999965
100
AcDbArc
 50
-155.530978730769
 51
-90.0
  0
ARC
  5
1AD
330
4E
100
AcDbEntity
  8
1
  6
PHANTOM
 62
     2
100
AcDbCircle
 10
231.9999999999999
 20
302.5630213160334
 30
0.0
 40
4.5
100
AcDbArc
 50
0.0
 51
90.0
  0
ARC
  5
1AE
330
4E
100
AcDbEntity
  8
1
  6
PHANTOM
 62
     2
100
AcDbCircle
 10
222.0731987379297
 20
292.0630213160335
 30
0.0
 40
6.0
100
AcDbArc
 50
90.0
 51
155.5309787307705
  0
ARC
  5
1AF
330
4E
100
AcDbEntity
  8
1
  6
PHANTOM
 62
     2
100
AcDbCircle
 10
231.9999999999999
 20
302.5630213160334
 30
0.0
 40
4.499999999999943
100
AcDbArc
 50
-90.0
 51
0.0
  0
ARC
  5
1B0
330
4E
100
AcDbEntity
  8
1
  6
Continuous
 62
     7
100
AcDbCircle
 10
198.9999999999999
 20
302.5630213160334
 30
0.0
 40
19.35000000000012
100
AcDbArc
 50
26.32225160495214
 51
-24.46902126923027
  0
ARC
  5
1B1
330
4E
100
AcDbEntity
  8
1
  6
Continuous
 62
     7
100
AcDbCircle
 10
198.9999999999999
 20
302.5630213160334
 30
0.0
 40
19.35000000000017
100
AcDbArc
 50
24.46902126923012
 51
26.32225160495214
  0
ARC
  5
1B2
330
4E
100
AcDbEntity
  8
1
  6
Continuous
 62
     7
100
AcDbCircle
 10
182.6778998302675
 20
237.5
 30
0.0
 40
2.5
100
AcDbArc
 50
89.99999999999544
 51
178.323528953192
  0
ARC
  5
1B3
330
4E
100
AcDbEntity
  8
1
  6
Continuous
 62
     7
100
AcDbCircle
 10
180.9999999999999
 20
210.0
 30
0.0
 40
1.0
100
AcDbArc
 50
180.0
 51
-90.0
  0
ARC
  5
1B4
330
4E
100
AcDbEntity
  8
1
  6
Continuous
 62
     7
100
AcDbCircle
 10
179.6499999999998
 20
219.15
 30
0.0
 40
0.3500000000000796
100
AcDbArc
 50
0.0
 51
90.0
  0
ARC
  5
1B5
330
4E
100
AcDbEntity
  8
1
  6
Continuous
 62
     7
100
AcDbCircle
 10
215.3221001697322
 20
237.5
 30
0.0
 40
2.49999999999978
100
AcDbArc
 50
1.67647104680349
 51
90.0
  0
ARC
  5
1B6
330
4E
100
AcDbEntity
  8
1
  6
Continuous
 62
     7
100
AcDbCircle
 10
216.9999999999999
 20
210.0
 30
0.0
 40
1.0
100
AcDbArc
 50
-90.0
 51
0.0
  0
ARC
  5
1B7
330
4E
100
AcDbEntity
  8
1
  6
Continuous
 62
     7
100
AcDbCircle
 10
218.3499999999999
 20
219.15
 30
0.0
 40
0.3499999999999943
100
AcDbArc
 50
90.0
 51
180.0
  0
ARC
  5
1B8
330
4E
100
AcDbEntity
  8
1
  6
Continuous
 62
     7
100
AcDbCircle
 10
195.4497534325481
 20
236.5731394115982
 30
0.0
 40
1.0
100
AcDbArc
 50
90.0
 51
180.0
  0
ARC
  5
1B9
330
4E
100
AcDbEntity
  8
1
  6
Continuous
 62
     7
100
AcDbCircle
 10
194.9497534325481
 20
220.07
 30
0.0
 40
0.5
100
AcDbArc
 50
180.0
 51
-90.0
  0
ARC
  5
1BA
330
4E
100
AcDbEntity
  8
1
  6
Continuous
 62
     7
100
AcDbCircle
 10
202.550246567451
 20
236.5731394115982
 30
0.0
 40
1.0
100
AcDbArc
 50
0.0
 51
90.0
  0
ARC
  5
1BB
330
4E
100
AcDbEntity
  8
1
  6
Continuous
 62
     7
100
AcDbCircle
 10
203.050246567451
 20
220.07
 30
0.0
 40
0.5
100
AcDbArc
 50
-90.00000000002279
 51
0.0
  0
ARC
  5
1BC
330
4E
100
AcDbEntity
  8
1
  6
Continuous
 62
     7
100
AcDbCircle
 10
62.38737327189018
 20
219.15
 30
0.0
 40
0.3500000000000298
100
AcDbArc
 50
0.0
 51
90.0
  0
ARC
  5
1BD
330
4E
100
AcDbEntity
  8
1
  6
Continuous
 62
     7
100
AcDbCircle
 10
63.73737327189021
 20
210.0
 30
0.0
 40
1.0
100
AcDbArc
 50
180.0
 51
-90.0
  0
ARC
  5
1BE
330
4E
100
AcDbEntity
  8
1
  6
Continuous
 62
     7
100
AcDbCircle
 10
65.41527310215794
 20
237.5
 30
0.0
 40
2.5
100
AcDbArc
 50
90.0
 51
178.3235289531965
  0
ARC
  5
1BF
330
4E
100
AcDbEntity
  8
1
  6
Continuous
 62
     7
100
AcDbCircle
 10
101.0873732718907
 20
219.15
 30
0.0
 40
0.3499999999999943
100
AcDbArc
 50
90.00000000004886
 51
180.0
  0
ARC
  5
1C0
330
4E
100
AcDbEntity
  8
1
  6
Continuous
 62
     7
100
AcDbCircle
 10
99.73737327189046
 20
210.0
 30
0.0
 40
1.0
100
AcDbArc
 50
-90.0000000000171
 51
0.0
  0
ARC
  5
1C1
330
4E
100
AcDbEntity
  8
1
  6
Continuous
 62
     7
100
AcDbCircle
 10
98.05947344162306
 20
237.5
 30
0.0
 40
2.499999999999331
100
AcDbArc
 50
1.67647104680836
 51
90.00000000001597
  0
ARC
  5
1C2
330
4E
100
AcDbEntity
  8
1
  6
Continuous
 62
     7
100
AcDbCircle
 10
118.237373271891
 20
236.5731394115982
 30
0.0
 40
0.9999999999999005
100
AcDbArc
 50
0.0
 51
90.0
  0
ARC
  5
1C3
330
4E
100
AcDbEntity
  8
1
  6
Continuous
 62
     7
100
AcDbCircle
 10
118.7373732718909
 20
220.07
 30
0.0
 40
0.5
100
AcDbArc
 50
-90.0
 51
0.0
  0
ENDBLK
  5
50
330
4E
100
AcDbEntity
  8
0
100
AcDbBlockEnd
  0
BLOCK
  5
54
330
51
100
AcDbEntity
  8
0
100
AcDbBlockBegin
  2
R37-26AX-S
 70
     0
 71
     0
 10
-827.375298828985
 20
674.937984948853
 30
0.0
  3
R37-26AX-S
  1

  0
INSERT
  5
52
330
51
100
AcDbEntity
  8
0
100
AcDbBlockReference
  2
72-73
 10
48.65169582941461
 20
262.1483106201005
 30
0.0
  0
INSERT
  5
53
330
51
100
AcDbEntity
  8
0
100
AcDbBlockReference
  2
81-15-1
 10
120.492270638769
 20
401.8059520431416
 30
0.0
  0
LINE
  5
1C4
330
51
100
AcDbEntity
  8
1
  6
PHANTOM
 62
     4
100
AcDbLine
 10
198.9999999999999
 20
184.3288814428951
 30
0.0
 11
198.9999999999999
 21
246.1341847228473
 31
0.0
  0
LINE
  5
1C5
330
51
100
AcDbEntity
  8
1
  6
PHANTOM
 62
     4
100
AcDbLine
 10
81.73737327189009
 20
184.3288814428951
 30
0.0
 11
81.73737327189009
 21
246.1341847228473
 31
0.0
  0
ENDBLK
  5
55
330
51
100
AcDbEntity
  8
0
100
AcDbBlockEnd
  0
BLOCK
  5
1F2
330
1EB
100
AcDbEntity
  8
0
100
AcDbBlockBegin
  2
*D011
 70
     1
 71
     0
 10
0.0
 20
0.0
 30
0.0
  3
*D011
  1

  0
LINE
  5
1EC
330
1EB
100
AcDbEntity
  8
1
  6
Continuous
 62
     2
100
AcDbLine
 10
62.38737327189018
 20
255.9141847228473
 30
0.0
 11
100.7373732718908
 21
255.9141847228473
 31
0.0
  0
LINE
  5
1ED
330
1EB
100
AcDbEntity
  8
1
  6
Continuous
 62
     2
100
AcDbLine
 10
100.7373732718908
 20
219.5000000000001
 30
0.0
 11
100.7373732718908
 21
257.4141847228473
 31
0.0
  0
LINE
  5
1EE
330
1EB
100
AcDbEntity
  8
1
  6
Continuous
 62
     2
100
AcDbLine
 10
62.38737327189018
 20
219.5000000000001
 30
0.0
 11
62.38737327189018
 21
257.4141847228473
 31
0.0
  0
SOLID
  5
1EF
330
1EB
100
AcDbEntity
  8
1
 62
     2
100
AcDbTrace
 10
67.63737327189018
 20
256.6053603351812
 30
0.0
 11
67.63737327189018
 21
255.2230091105135
 31
0.0
 12
62.38737327189018
 22
255.9141847228473
 32
0.0
 13
62.38737327189018
 23
255.9141847228473
 33
0.0
  0
SOLID
  5
1F0
330
1EB
100
AcDbEntity
  8
1
 62
     2
100
AcDbTrace
 10
95.48737327189076
 20
255.2230091105135
 30
0.0
 11
95.48737327189076
 21
256.6053603351812
 31
0.0
 12
100.7373732718908
 22
255.9141847228473
 32
0.0
 13
100.7373732718908
 23
255.9141847228473
 33
0.0
  0
MTEXT
  5
1F1
330
1EB
100
AcDbEntity
  8
1
 62
     7
100
AcDbMText
 10
72.16487327191578
 20
257.4141638516184
 30
0.0
 40
5.25
 41
0.0
 71
     7
 72
     1
  1
\C7;{\Fgdt;n}\C7;39
  7
CONVERTER_2
 11
0.9999999999970621
 21
2.424068405545307E-6
 31
0.0
 73
     1
 44
0.60024009603842
  0
ENDBLK
  5
1F3
330
1EB
100
AcDbEntity
  8
0
100
AcDbBlockEnd
  0
BLOCK
  5
1FD
330
1F6
100
AcDbEntity
  8
0
100
AcDbBlockBegin
  2
*D112
 70
     1
 71
     0
 10
0.0
 20
0.0
 30
0.0
  3
*D112
  1

  0
LINE
  5
1F7
330
1F6
100
AcDbEntity
  8
1
  6
Continuous
 62
     2
100
AcDbLine
 10
127.4999999999999
 20
314.5630213160334
 30
0.0
 11
127.4999999999999
 21
290.5630213160334
 31
0.0
  0
LINE
  5
1F8
330
1F6
100
AcDbEntity
  8
1
  6
Continuous
 62
     2
100
AcDbLine
 10
143.1878221735088
 20
290.5630213160334
 30
0.0
 11
125.9999999999999
 21
290.5630213160334
 31
0.0
  0
LINE
  5
1F9
330
1F6
100
AcDbEntity
  8
1
  6
Continuous
 62
     2
100
AcDbLine
 10
143.1878221735088
 20
314.5630213160334
 30
0.0
 11
125.9999999999999
 21
314.5630213160334
 31
0.0
  0
SOLID
  5
1FA
330
1F6
100
AcDbEntity
  8
1
 62
     2
100
AcDbTrace
 10
128.1911756123337
 20
309.3130213160334
 30
0.0
 11
126.8088243876661
 21
309.3130213160334
 31
0.0
 12
127.4999999999999
 22
314.5630213160334
 32
0.0
 13
127.4999999999999
 23
314.5630213160334
 33
0.0
  0
SOLID
  5
1FB
330
1F6
100
AcDbEntity
  8
1
 62
     2
100
AcDbTrace
 10
126.8088243876661
 20
295.8130213160334
 30
0.0
 11
128.1911756123337
 21
295.8130213160334
 31
0.0
 12
127.4999999999999
 22
290.5630213160334
 32
0.0
 13
127.4999999999999
 23
290.5630213160334
 33
0.0
  0
MTEXT
  5
1FC
330
1F6
100
AcDbEntity
  8
1
 62
     7
100
AcDbMText
 10
125.9999999999999
 20
298.6255213160334
 30
0.0
 40
5.25
 41
0.0
 71
     7
 72
     1
  1
24
  7
CONVERTER_2
 11
0.0
 21
1.0
 31
0.0
 73
     1
 44
0.60024009603842
  0
ENDBLK
  5
1FE
330
1F6
100
AcDbEntity
  8
0
100
AcDbBlockEnd
  0
BLOCK
  5
208
330
201
100
AcDbEntity
  8
0
100
AcDbBlockBegin
  2
*D213
 70
     1
 71
     0
 10
0.0
 20
0.0
 30
0.0
  3
*D213
  1

  0
LINE
  5
202
330
201
100
AcDbEntity
  8
1
  6
Continuous
 62
     2
100
AcDbLine
 10
149.9999999999998
 20
158.3873090143243
 30
0.0
 11
198.9999999999998
 21
158.3873090143243
 31
0.0
  0
LINE
  5
203
330
201
100
AcDbEntity
  8
1
  6
Continuous
 62
     2
100
AcDbLine
 10
198.9999999999998
 20
168.6783534650953
 30
0.0
 11
198.9999999999998
 21
156.8873090143243
 31
0.0
  0
LINE
  5
204
330
201
100
AcDbEntity
  8
1
  6
Continuous
 62
     2
100
AcDbLine
 10
149.9999999999998
 20
175.7716526475826
 30
0.0
 11
149.9999999999998
 21
156.8873090143243
 31
0.0
  0
SOLID
  5
205
330
201
100
AcDbEntity
  8
1
 62
     2
100
AcDbTrace
 10
155.2499999999998
 20
159.0784846266581
 30
0.0
 11
155.2499999999998
 21
157.6961334019905
 31
0.0
 12
149.9999999999998
 22
158.3873090143243
 32
0.0
 13
149.9999999999998
 23
158.3873090143243
 33
0.0
  0
SOLID
  5
206
330
201
100
AcDbEntity
  8
1
 62
     2
100
AcDbTrace
 10
193.7499999999998
 20
157.6961334019905
 30
0.0
 11
193.7499999999998
 21
159.0784846266581
 31
0.0
 12
198.9999999999998
 22
158.3873090143243
 32
0.0
 13
198.9999999999998
 23
158.3873090143243
 33
0.0
  0
MTEXT
  5
207
330
201
100
AcDbEntity
  8
1
 62
     7
100
AcDbMText
 10
170.5624999999999
 20
159.8873090143243
 30
0.0
 40
5.25
 41
0.0
 71
     7
 72
     1
  1
49
  7
CONVERTER_2
 11
0.9999999999970621
 21
2.424068405545307E-6
 31
0.0
 73
     1
 44
0.60024009603842
  0
ENDBLK
  5
209
330
201
100
AcDbEntity
  8
0
100
AcDbBlockEnd
  0
BLOCK
  5
213
330
20C
100
AcDbEntity
  8
0
100
AcDbBlockBegin
  2
*D314
 70
     1
 71
     0
 10
0.0
 20
0.0
 30
0.0
  3
*D314
  1

  0
LINE
  5
20D
330
20C
100
AcDbEntity
  8
1
  6
Continuous
 62
     2
100
AcDbLine
 10
198.9999999999999
 20
158.3873090143243
 30
0.0
 11
235.9999999999998
 21
158.3873090143243
 31
0.0
  0
LINE
  5
20E
330
20C
100
AcDbEntity
  8
1
  6
Continuous
 62
     2
100
AcDbLine
 10
235.9999999999998
 20
176.5000000000001
 30
0.0
 11
235.9999999999998
 21
156.8873090143243
 31
0.0
  0
LINE
  5
20F
330
20C
100
AcDbEntity
  8
1
  6
Continuous
 62
     2
100
AcDbLine
 10
198.9999999999999
 20
168.6783534650953
 30
0.0
 11
198.9999999999999
 21
156.8873090143243
 31
0.0
  0
SOLID
  5
210
330
20C
100
AcDbEntity
  8
1
 62
     2
100
AcDbTrace
 10
204.2499999999999
 20
159.0784846266581
 30
0.0
 11
204.2499999999999
 21
157.6961334019905
 31
0.0
 12
198.9999999999999
 22
158.3873090143243
 32
0.0
 13
198.9999999999999
 23
158.3873090143243
 33
0.0
  0
SOLID
  5
211
330
20C
100
AcDbEntity
  8
1
 62
     2
100
AcDbTrace
 10
230.7499999999998
 20
157.6961334019905
 30
0.0
 11
230.7499999999998
 21
159.0784846266581
 31
0.0
 12
235.9999999999998
 22
158.3873090143243
 32
0.0
 13
235.9999999999998
 23
158.3873090143243
 33
0.0
  0
MTEXT
  5
212
330
20C
100
AcDbEntity
  8
1
 62
     7
100
AcDbMText
 10
215.1446557014099
 20
159.8873090143243
 30
0.0
 40
5.25
 41
0.0
 71
     7
 72
     1
  1
37
  7
CONVERTER_2
 11
0.9999999999970621
 21
2.424068405545307E-6
 31
0.0
 73
     1
 44
0.60024009603842
  0
ENDBLK
  5
214
330
20C
100
AcDbEntity
  8
0
100
AcDbBlockEnd
  0
BLOCK
  5
21E
330
217
100
AcDbEntity
  8
0
100
AcDbBlockBegin
  2
*D415
 70
     1
 71
     0
 10
0.0
 20
0.0
 30
0.0
  3
*D415
  1

  0
LINE
  5
218
330
217
100
AcDbEntity
  8
1
  6
Continuous
 62
     2
100
AcDbLine
 10
142.4999999999999
 20
143.3873090143243
 30
0.0
 11
251.9999999999997
 21
143.3873090143243
 31
0.0
  0
LINE
  5
219
330
217
100
AcDbEntity
  8
1
  6
Continuous
 62
     2
100
AcDbLine
 10
251.9999999999997
 20
185.25
 30
0.0
 11
251.9999999999997
 21
141.8873090143243
 31
0.0
  0
LINE
  5
21A
330
217
100
AcDbEntity
  8
1
  6
Continuous
 62
     2
100
AcDbLine
 10
142.4999999999999
 20
177.6397569783555
 30
0.0
 11
142.4999999999999
 21
141.8873090143243
 31
0.0
  0
SOLID
  5
21B
330
217
100
AcDbEntity
  8
1
 62
     2
100
AcDbTrace
 10
147.7499999999999
 20
144.0784846266581
 30
0.0
 11
147.7499999999999
 21
142.6961334019905
 31
0.0
 12
142.4999999999999
 22
143.3873090143243
 32
0.0
 13
142.4999999999999
 23
143.3873090143243
 33
0.0
  0
SOLID
  5
21C
330
217
100
AcDbEntity
  8
1
 62
     2
100
AcDbTrace
 10
246.7499999999997
 20
142.6961334019905
 30
0.0
 11
246.7499999999997
 21
144.0784846266581
 31
0.0
 12
251.9999999999997
 22
143.3873090143243
 32
0.0
 13
251.9999999999997
 23
143.3873090143243
 33
0.0
  0
MTEXT
  5
21D
330
217
100
AcDbEntity
  8
1
 62
     7
100
AcDbMText
 10
192.5249999999998
 20
144.8873090143243
 30
0.0
 40
5.25
 41
0.0
 71
     7
 72
     1
  1
110
  7
CONVERTER_2
 11
0.9999999999970621
 21
2.424068405545307E-6
 31
0.0
 73
     1
 44
0.60024009603842
  0
ENDBLK
  5
21F
330
217
100
AcDbEntity
  8
0
100
AcDbBlockEnd
  0
BLOCK
  5
229
330
222
100
AcDbEntity
  8
0
100
AcDbBlockBegin
  2
*D516
 70
     1
 71
     0
 10
0.0
 20
0.0
 30
0.0
  3
*D516
  1

  0
LINE
  5
223
330
222
100
AcDbEntity
  8
1
  6
Continuous
 62
     2
100
AcDbLine
 10
278.9999999999997
 20
291.0630213160334
 30
0.0
 11
278.9999999999997
 21
314.0630213160334
 31
0.0
  0
LINE
  5
224
330
222
100
AcDbEntity
  8
1
  6
Continuous
 62
     2
100
AcDbLine
 10
241.1297256949429
 20
314.0630213160334
 30
0.0
 11
280.4999999999997
 21
314.0630213160334
 31
0.0
  0
LINE
  5
225
330
222
100
AcDbEntity
  8
1
  6
Continuous
 62
     2
100
AcDbLine
 10
241.1297256949429
 20
291.0630213160334
 30
0.0
 11
280.4999999999997
 21
291.0630213160334
 31
0.0
  0
SOLID
  5
226
330
222
100
AcDbEntity
  8
1
 62
     2
100
AcDbTrace
 10
278.3088243876659
 20
296.3130213160334
 30
0.0
 11
279.6911756123336
 21
296.3130213160334
 31
0.0
 12
278.9999999999997
 22
291.0630213160334
 32
0.0
 13
278.9999999999997
 23
291.0630213160334
 33
0.0
  0
SOLID
  5
227
330
222
100
AcDbEntity
  8
1
 62
     2
100
AcDbTrace
 10
279.6911756123336
 20
308.8130213160334
 30
0.0
 11
278.3088243876659
 21
308.8130213160334
 31
0.0
 12
278.9999999999997
 22
314.0630213160334
 32
0.0
 13
278.9999999999997
 23
314.0630213160334
 33
0.0
  0
MTEXT
  5
228
330
222
100
AcDbEntity
  8
1
 62
     7
100
AcDbMText
 10
277.4999999999997
 20
298.6255213160334
 30
0.0
 40
5.25
 41
0.0
 71
     7
 72
     1
  1
23
  7
CONVERTER_2
 11
0.0
 21
1.0
 31
0.0
 73
     1
 44
0.60024009603842
  0
ENDBLK
  5
22A
330
222
100
AcDbEntity
  8
0
100
AcDbBlockEnd
  0
BLOCK
  5
236
330
22D
100
AcDbEntity
  8
0
100
AcDbBlockBegin
  2
*D617
 70
     1
 71
     0
 10
0.0
 20
0.0
 30
0.0
  3
*D617
  1

  0
LINE
  5
22E
330
22D
100
AcDbEntity
  8
1
  6
Continuous
 62
     2
100
AcDbLine
 10
266.9999999999997
 20
287.5630213160334
 30
0.0
 11
266.9999999999997
 21
298.0630213160334
 31
0.0
  0
LINE
  5
22F
330
22D
100
AcDbEntity
  8
1
  6
Continuous
 62
     2
100
AcDbLine
 10
266.9999999999997
 20
298.0630213160334
 30
0.0
 11
266.9999999999997
 21
307.0630213160334
 31
0.0
  0
LINE
  5
230
330
22D
100
AcDbEntity
  8
1
  6
Continuous
 62
     2
100
AcDbLine
 10
266.9999999999997
 20
307.0630213160334
 30
0.0
 11
266.9999999999997
 21
327.305183797734
 31
0.0
  0
LINE
  5
231
330
22D
100
AcDbEntity
  8
1
  6
Continuous
 62
     2
100
AcDbLine
 10
248.9999999999997
 20
307.0630213160334
 30
0.0
 11
268.4999999999997
 21
307.0630213160334
 31
0.0
  0
LINE
  5
232
330
22D
100
AcDbEntity
  8
1
  6
Continuous
 62
     2
100
AcDbLine
 10
248.9999999999997
 20
298.0630213160334
 30
0.0
 11
268.4999999999997
 21
298.0630213160334
 31
0.0
  0
SOLID
  5
233
330
22D
100
AcDbEntity
  8
1
 62
     2
100
AcDbTrace
 10
267.6911756123336
 20
292.8130213160334
 30
0.0
 11
266.3088243876659
 21
292.8130213160334
 31
0.0
 12
266.9999999999997
 22
298.0630213160334
 32
0.0
 13
266.9999999999997
 23
298.0630213160334
 33
0.0
  0
SOLID
  5
234
330
22D
100
AcDbEntity
  8
1
 62
     2
100
AcDbTrace
 10
266.3088243876659
 20
312.3130213160334
 30
0.0
 11
267.6911756123336
 21
312.3130213160334
 31
0.0
 12
266.9999999999997
 22
307.0630213160334
 32
0.0
 13
266.9999999999997
 23
307.0630213160334
 33
0.0
  0
MTEXT
  5
235
330
22D
100
AcDbEntity
  8
1
 62
     7
100
AcDbMText
 10
265.4999999999997
 20
315.545183797734
 30
0.0
 40
5.25
 41
0.0
 71
     7
 72
     1
  1
\C7;{\Fgdt;n}\C7;9
  7
CONVERTER_2
 11
0.0
 21
1.0
 31
0.0
 73
     1
 44
0.60024009603842
  0
ENDBLK
  5
237
330
22D
100
AcDbEntity
  8
0
100
AcDbBlockEnd
  0
BLOCK
  5
241
330
23A
100
AcDbEntity
  8
0
100
AcDbBlockBegin
  2
*D718
 70
     1
 71
     0
 10
0.0
 20
0.0
 30
0.0
  3
*D718
  1

  0
LINE
  5
23B
330
23A
100
AcDbEntity
  8
1
  6
Continuous
 62
     2
100
AcDbLine
 10
265.4999999999997
 20
240.0
 30
0.0
 11
265.4999999999997
 21
189.0
 31
0.0
  0
LINE
  5
23C
330
23A
100
AcDbEntity
  8
1
  6
Continuous
 62
     2
100
AcDbLine
 10
215.3221001697322
 20
240.0
 30
0.0
 11
266.9999999999997
 21
240.0
 31
0.0
  0
LINE
  5
23D
330
23A
100
AcDbEntity
  8
1
  6
Continuous
 62
     2
100
AcDbLine
 10
261.9999999999999
 20
189.0
 30
0.0
 11
266.9999999999997
 21
189.0
 31
0.0
  0
SOLID
  5
23E
330
23A
100
AcDbEntity
  8
1
 62
     2
100
AcDbTrace
 10
266.1911756123336
 20
234.75
 30
0.0
 11
264.8088243876659
 21
234.75
 31
0.0
 12
265.4999999999997
 22
240.0
 32
0.0
 13
265.4999999999997
 23
240.0
 33
0.0
  0
SOLID
  5
23F
330
23A
100
AcDbEntity
  8
1
 62
     2
100
AcDbTrace
 10
264.8088243876659
 20
194.25
 30
0.0
 11
266.1911756123336
 21
194.25
 31
0.0
 12
265.4999999999997
 22
189.0
 32
0.0
 13
265.4999999999997
 23
189.0
 33
0.0
  0
MTEXT
  5
240
330
23A
100
AcDbEntity
  8
1
 62
     7
100
AcDbMText
 10
263.9999999999997
 20
209.951234656009
 30
0.0
 40
5.25
 41
0.0
 71
     7
 72
     1
  1
51
  7
CONVERTER_2
 11
0.0
 21
1.0
 31
0.0
 73
     1
 44
0.60024009603842
  0
ENDBLK
  5
242
330
23A
100
AcDbEntity
  8
0
100
AcDbBlockEnd
  0
ENDSEC
  0
SECTION
  2
ENTITIES
  0
INSERT
  5
56
330
1F
100
AcDbEntity
  8
1
100
AcDbBlockReference
  2
_J__A4
 10
0.0
 20
0.0
 30
0.0
 41
1.5
 42
1.5
 43
1.5
  0
INSERT
  5
57
330
1F
100
AcDbEntity
  8
1
100
AcDbBlockReference
  2
V271-0-13
 10
-91.00000000000007
 20
99.0
 30
0.0
  0
INSERT
  5
58
330
1F
100
AcDbEntity
  8
0
100
AcDbBlockReference
  2
35-22-C2
 10
87.41391045232597
 20
183.323462819564
 30
0.0
  0
INSERT
  5
59
330
1F
100
AcDbEntity
  8
1
100
AcDbBlockReference
  2
32-26
 10
6.19187149416842
 20
486.5634879671871
 30
0.0
  0
INSERT
  5
5A
330
1F
100
AcDbEntity
  8
1
100
AcDbBlockReference
  2
35-22
 10
449.2255953362603
 20
500.4569150880785
 30
0.0
  0
INSERT
  5
5B
330
1F
100
AcDbEntity
  8
1
100
AcDbBlockReference
  2
33-073
 10
428.2666883742522
 20
72.94210854981438
 30
0.0
  0
INSERT
  5
5C
330
1F
100
AcDbEntity
  8
0
100
AcDbBlockReference
  2
32-12
 10
891.5134638064403
 20
1315.958062894986
 30
0.0
  0
INSERT
  5
5D
330
1F
100
AcDbEntity
  8
0
100
AcDbBlockReference
  2
R37-26AX-S
 10
-827.375298828985
 20
674.937984948853
 30
0.0
  0
LINE
  5
1C6
330
1F
100
AcDbEntity
  8
1
  6
Continuous
 62
     7
100
AcDbLine
 10
50.75725255043308
 20
168.0878166441264
 30
0.0
 11
55.25725255043308
 21
168.0878166441264
 31
0.0
  0
LINE
  5
1C7
330
1F
100
AcDbEntity
  8
1
  6
Continuous
 62
     7
100
AcDbLine
 10
55.25725255043308
 20
168.0878166441264
 30
0.0
 11
55.25725255043308
 21
169.5878166441264
 31
0.0
  0
LINE
  5
1C8
330
1F
100
AcDbEntity
  8
1
  6
Continuous
 62
     7
100
AcDbLine
 10
55.25725255043308
 20
169.5878166441264
 30
0.0
 11
50.75725255043308
 21
169.5878166441264
 31
0.0
  0
LINE
  5
1C9
330
1F
100
AcDbEntity
  8
1
  6
Continuous
 62
     7
100
AcDbLine
 10
50.75725255043308
 20
166.9628166441264
 30
0.0
 11
50.75725255043308
 21
168.0878166441264
 31
0.0
  0
LINE
  5
1CA
330
1F
100
AcDbEntity
  8
1
  6
Continuous
 62
     7
100
AcDbLine
 10
50.75725255043308
 20
170.7128166441264
 30
0.0
 11
47.00725255043308
 21
168.8378166441264
 31
0.0
  0
LINE
  5
1CB
330
1F
100
AcDbEntity
  8
1
  6
Continuous
 62
     7
100
AcDbLine
 10
50.75725255043308
 20
166.9628166441264
 30
0.0
 11
47.00725255043308
 21
168.8378166441264
 31
0.0
  0
LINE
  5
1CC
330
1F
100
AcDbEntity
  8
1
  6
Continuous
 62
     7
100
AcDbLine
 10
50.75725255043308
 20
169.5878166441264
 30
0.0
 11
50.75725255043308
 21
170.7128166441264
 31
0.0
  0
LINE
  5
1CD
330
1F
100
AcDbEntity
  8
1
  6
Continuous
 62
     2
100
AcDbLine
 10
237.6943675834132
 20
275.54592748266
 30
0.0
 11
249.1943675834132
 21
275.54592748266
 31
0.0
  0
LINE
  5
1CE
330
1F
100
AcDbEntity
  8
1
  6
Continuous
 62
     2
100
AcDbLine
 10
213.1943675834132
 20
256.04592748266
 30
0.0
 11
224.6943675834132
 21
256.04592748266
 31
0.0
  0
LINE
  5
1CF
330
1F
100
AcDbEntity
  8
1
  6
DASH_CENTER
 62
     2
100
AcDbLine
 10
198.9999999999999
 20
324.9130213160335
 30
0.0
 11
198.9999999999999
 21
262.7130213160334
 31
0.0
  0
LINE
  5
1D0
330
1F
100
AcDbEntity
  8
1
  6
DASH_CENTER
 62
     2
100
AcDbLine
 10
254.9999999999998
 20
302.5630213160334
 30
0.0
 11
139.4999999999999
 21
302.5630213160334
 31
0.0
  0
LINE
  5
1D1
330
1F
100
AcDbEntity
  8
1
  6
DASH_CENTER
 62
     2
100
AcDbLine
 10
261.9999999999998
 20
189.0
 30
0.0
 11
198.9999999999999
 21
189.0
 31
0.0
  0
LINE
  5
1D2
330
1F
100
AcDbEntity
  8
1
  6
DASH_CENTER
 62
     2
100
AcDbLine
 10
198.9999999999999
 20
189.0
 30
0.0
 11
139.4999999999999
 21
189.0
 31
0.0
  0
LINE
  5
1D3
330
1F
100
AcDbEntity
  8
1
  6
DASH_CENTER
 62
     2
100
AcDbLine
 10
81.73737327188989
 20
168.6783534650953
 30
0.0
 11
81.73737327188989
 21
245.4141847228473
 31
0.0
  0
LINE
  5
1D4
330
1F
100
AcDbEntity
  8
1
  6
DASH_CENTER
 62
     2
100
AcDbLine
 10
63.15835342753626
 20
189.0
 30
0.0
 11
100.3163931162438
 21
189.0
 31
0.0
  0
LINE
  5
1D5
330
1F
100
AcDbEntity
  8
1
  6
DASH_CENTER
 62
     2
100
AcDbLine
 10
198.9999999999999
 20
168.6783534650953
 30
0.0
 11
198.9999999999998
 21
245.4141847228472
 31
0.0
  0
ARC
  5
1D6
330
1F
100
AcDbEntity
  8
1
  6
Continuous
 62
     2
100
AcDbCircle
 10
199.0000000000001
 20
302.5630213160334
 30
0.0
 40
41.00000000000005
100
AcDbArc
 50
-39.11412540066507
 51
-25.00000000000003
  0
ARC
  5
1D7
330
1F
100
AcDbEntity
  8
1
  6
Continuous
 62
     2
100
AcDbCircle
 10
199.0000000000001
 20
302.5630213160334
 30
0.0
 40
40.99999999999996
100
AcDbArc
 50
-80.94670397520378
 51
-64.99999999999996
  0
SOLID
  5
1D8
330
1F
100
AcDbEntity
  8
1
 62
     2
100
AcDbTrace
 10
66.37934038817166
 20
183.8614837382548
 30
0.0
 11
65.09297582854484
 21
184.3676073674959
 31
0.0
 12
67.65835342753627
 22
189.0
 32
0.0
 13
67.65835342753627
 23
189.0
 33
0.0
  0
LEADER
  5
1D9
330
1F
100
AcDbEntity
  8
1
  6
Continuous
 62
     2
100
AcDbLeader
  3
Standard
 71
     0
 76
     3
 10
67.65835342753627
 20
189.0
 30
0.0
 10
58.5712423943193
 20
165.904185248079
 30
0.0
 10
46.28952408271488
 20
165.904185248079
 30
0.0
  0
SOLID
  5
1DA
330
1F
100
AcDbEntity
  8
1
 62
     2
100
AcDbTrace
 10
234.4184313856851
 20
280.23447574195
 30
0.0
 11
233.1833218586927
 21
280.8552811580611
 31
0.0
 12
236.1586192685028
 22
285.2356725846647
 32
0.0
 13
236.1586192685028
 23
285.2356725846647
 33
0.0
  0
LEADER
  5
1DB
330
1F
100
AcDbEntity
  8
1
  6
Continuous
 62
     2
100
AcDbLeader
  3
Standard
 71
     0
 76
     2
 10
236.1586192685028
 20
285.2356725846647
 30
0.0
 10
235.0754159625942
 20
283.0806096807709
 30
0.0
  0
SOLID
  5
1DC
330
1F
100
AcDbEntity
  8
1
 62
     2
100
AcDbTrace
 10
210.4777207980177
 20
263.7402501371177
 30
0.0
 11
210.7377691957608
 21
262.3825794336069
 31
0.0
 12
205.4514785819301
 22
262.0737829420297
 32
0.0
 13
205.4514785819301
 23
262.0737829420297
 33
0.0
  0
LEADER
  5
1DD
330
1F
100
AcDbEntity
  8
1
  6
Continuous
 62
     2
100
AcDbLeader
  3
Standard
 71
     0
 76
     2
 10
205.4514785819301
 20
262.0737829420297
 30
0.0
 10
207.9668643688316
 20
262.5555802157708
 30
0.0
  0
SOLID
  5
1DE
330
1F
100
AcDbEntity
  8
1
 62
     2
100
AcDbTrace
 10
229.2874558998133
 20
204.616806318786
 30
0.0
 11
230.5741332391041
 21
204.1114783728978
 31
0.0
 12
228.0116211578309
 22
199.4775000000076
 32
0.0
 13
228.0116211578309
 23
199.4775000000076
 33
0.0
  0
LEADER
  5
1DF
330
1F
100
AcDbEntity
  8
1
  6
Continuous
 62
     2
100
AcDbLeader
  3
Standard
 71
     0
 76
     3
 10
228.0116211578309
 20
199.4775000000076
 30
0.0
 10
233.9882793957791
 20
214.6954011313935
 30
0.0
 10
253.636720492325
 20
214.6954011313935
 30
0.0
  0
SOLID
  5
1E0
330
1F
100
AcDbEntity
  8
1
 62
     2
100
AcDbTrace
 10
139.674257623817
 20
203.8903259986884
 30
0.0
 11
140.9296185190438
 21
204.4690866841843
 31
0.0
 12
142.4999999999999
 22
199.4119999999999
 32
0.0
 13
142.4999999999999
 23
199.4119999999999
 33
0.0
  0
LEADER
  5
1E1
330
1F
100
AcDbEntity
  8
1
  6
Continuous
 62
     2
100
AcDbLeader
  3
Standard
 71
     0
 76
     3
 10
142.4999999999999
 20
199.4119999999999
 30
0.0
 10
135.453873464478
 20
214.6954011313935
 30
0.0
 10
152.4485850685083
 20
214.6954011313935
 30
0.0
  0
MTEXT
  5
1E3
330
1F
100
AcDbEntity
  8
1
 62
     7
100
AcDbMText
 10
140.6250000000001
 20
25.5
 30
0.0
 40
5.25
 41
0.0
 71
     5
 72
     1
  1
1,5
  7
CONVERTER_2
 73
     1
 44
0.7202881152461
  0
MTEXT
  5
1E4
330
1F
100
AcDbEntity
  8
1
 62
     7
100
AcDbMText
 10
127.8750000000001
 20
25.5
 30
0.0
 40
5.25
 41
0.0
 71
     5
 72
     1
  1
1
  7
CONVERTER_2
 73
     1
 44
0.7202881152461
  0
MTEXT
  5
1E5
330
1F
100
AcDbEntity
  8
1
 62
     7
100
AcDbMText
 10
243.3932884079322
 20
280.04592748266
 30
0.0
 40
5.25
 41
0.0
 71
     5
 72
     1
  1
吐水
  7
CONVERTER_1
 73
     1
 44
0.7202881152461
  0
MTEXT
  5
1E6
330
1F
100
AcDbEntity
  8
1
 62
     7
100
AcDbMText
 10
218.8932884079322
 20
260.54592748266
 30
0.0
 40
5.25
 41
0.0
 71
     5
 72
     1
  1
止水
  7
CONVERTER_1
 73
     1
 44
0.7202881152461
  0
MTEXT
  5
1E7
330
1F
100
AcDbEntity
  8
0
 62
     7
100
AcDbMText
 10
85.41335031128601
 20
34.75715394159521
 30
0.0
 40
5.25
 41
0.0
 71
     5
 72
     1
  1
化粧バルブ
  7
CONVERTER_1
 73
     1
 44
0.7202881152461
  0
MTEXT
  5
1E8
330
1F
100
AcDbEntity
  8
1
 62
     7
100
AcDbMText
 10
243.9608805904161
 20
219.1954011313936
 30
0.0
 40
5.25
 41
0.0
 71
     5
 72
     1
  1
PJ1/2
  7
CONVERTER_2
 73
     1
 44
0.7202881152461
  0
MTEXT
  5
1E9
330
1F
100
AcDbEntity
  8
1
 62
     7
100
AcDbMText
 10
144.7396719939695
 20
219.1954011313936
 30
0.0
 40
5.25
 41
0.0
 71
     5
 72
     1
  1
G1/2
  7
CONVERTER_2
 73
     1
 44
0.7202881152461
  0
MTEXT
  5
1EA
330
1F
100
AcDbEntity
  8
1
 62
     7
100
AcDbMText
 10
84.30434499045029
 20
21.6516667908236
 30
0.0
 40
5.25
 41
0.0
 71
     5
 72
     1
  1
V271S-13
  7
CONVERTER_2
 73
     1
 44
0.7202881152461
  0
DIMENSION
  5
1F5
330
1F
100
AcDbEntity
  8
1
100
AcDbDimension
  2
*D011
 10
62.38737327189018
 20
255.9141847228473
 30
0.0
 11
81.56237327189048
 21
260.0391847228473
 31
0.0
  1
{\Fgdt;n}39
 71
     5
 42
0.0
 53
0.00013888888889
  3
ME10_DIM_0
100
AcDbAlignedDimension
 13
100.7373732718908
 23
219.5
 33
0.0
 14
62.38737327189018
 24
219.5
 34
0.0
100
AcDbRotatedDimension
  0
DIMENSION
  5
200
330
1F
100
AcDbEntity
  8
1
100
AcDbDimension
  2
*D112
 10
127.4999999999999
 20
314.5630213160334
 30
0.0
 11
123.3749999999999
 21
302.5630213160334
 31
0.0
  1
<>
 71
     5
 42
0.0
 53
90.0
  3
ME10_DIM_1
100
AcDbAlignedDimension
 13
143.1878221735088
 23
290.5630213160334
 33
0.0
 14
143.1878221735088
 24
314.5630213160334
 34
0.0
 50
90.0
100
AcDbRotatedDimension
  0
DIMENSION
  5
20B
330
1F
100
AcDbEntity
  8
1
100
AcDbDimension
  2
*D213
 10
149.9999999999998
 20
158.3873090143243
 30
0.0
 11
174.4999999999999
 21
162.5123090143243
 31
0.0
  1
<>
 71
     5
 42
0.0
 53
0.00013888888889
  3
ME10_DIM_2
100
AcDbAlignedDimension
 13
198.9999999999999
 23
168.6783534650953
 33
0.0
 14
149.9999999999998
 24
175.7716526475826
 34
0.0
100
AcDbRotatedDimension
  0
DIMENSION
  5
216
330
1F
100
AcDbEntity
  8
1
100
AcDbDimension
  2
*D314
 10
198.9999999999999
 20
158.3873090143243
 30
0.0
 11
219.0821557014099
 21
162.5123090143243
 31
0.0
  1
<>
 71
     5
 42
0.0
 53
0.00013888888889
  3
ME10_DIM_3
100
AcDbAlignedDimension
 13
235.9999999999998
 23
176.5000000000001
 33
0.0
 14
198.9999999999999
 24
168.6783534650953
 34
0.0
100
AcDbRotatedDimension
  0
DIMENSION
  5
221
330
1F
100
AcDbEntity
  8
1
100
AcDbDimension
  2
*D415
 10
142.4999999999999
 20
143.3873090143243
 30
0.0
 11
197.2499999999998
 21
147.5123090143243
 31
0.0
  1
110
 71
     5
 42
0.0
 53
0.00013888888889
  3
ME10_DIM_4
100
AcDbAlignedDimension
 13
251.9999999999997
 23
185.25
 33
0.0
 14
142.4999999999999
 24
177.6397569783555
 34
0.0
100
AcDbRotatedDimension
  0
DIMENSION
  5
22C
330
1F
100
AcDbEntity
  8
1
100
AcDbDimension
  2
*D516
 10
278.9999999999997
 20
291.0630213160334
 30
0.0
 11
274.8749999999997
 21
302.5630213160334
 31
0.0
 70
     1
  1
<>
 71
     5
 42
0.0
 53
90.0
  3
ME10_DIM_5
100
AcDbAlignedDimension
 13
241.1297256949428
 23
314.0630213160334
 33
0.0
 14
241.1297256949428
 24
291.0630213160334
 34
0.0
  0
DIMENSION
  5
239
330
1F
100
AcDbEntity
  8
1
100
AcDbDimension
  2
*D617
 10
266.9999999999997
 20
298.0630213160334
 30
0.0
 11
262.8749999999997
 21
322.580183797734
 31
0.0
 70
     1
  1
<>
 71
     5
 42
0.0
 53
90.0
  3
ME10_DIM_6
100
AcDbAlignedDimension
 13
248.9999999999997
 23
307.0630213160334
 33
0.0
 14
248.9999999999997
 24
298.0630213160334
 34
0.0
  0
DIMENSION
  5
244
330
1F
100
AcDbEntity
  8
1
100
AcDbDimension
  2
*D718
 10
265.4999999999997
 20
240.0
 30
0.0
 11
261.3749999999997
 21
213.101234656009
 31
0.0
  1
51
 71
     5
 42
0.0
 53
90.0
  3
ME10_DIM_7
100
AcDbAlignedDimension
 13
261.9999999999998
 23
189.0
 33
0.0
 14
215.3221001697322
 24
240.0
 34
0.0
 50
90.0
100
AcDbRotatedDimension
  0
ENDSEC
  0
SECTION
  2
OBJECTS
  0
DICTIONARY
  5
C
330
0
100
AcDbDictionary
281
     1
  3
ACAD_GROUP
350
D
  3
ACAD_LAYOUT
350
1A
  3
ACAD_MLINESTYLE
350
17
  3
ACAD_PLOTSETTINGS
350
19
  3
ACAD_PLOTSTYLENAME
350
E
  3
ACAD_TABLESTYLE
350
2A
  3
AcDbVariableDictionary
350
2C
  0
DICTIONARY
  5
D
102
{ACAD_REACTORS
330
C
102
}
330
C
100
AcDbDictionary
281
     1
  0
DICTIONARY
  5
1A
102
{ACAD_REACTORS
330
C
102
}
330
C
100
AcDbDictionary
281
     1
  3
Layout1
350
1E
  3
Layout2
350
26
  3
Model
350
22
  0
DICTIONARY
  5
17
102
{ACAD_REACTORS
330
C
102
}
330
C
100
AcDbDictionary
281
     1
  3
Standard
350
18
  0
DICTIONARY
  5
19
102
{ACAD_REACTORS
330
C
102
}
330
C
100
AcDbDictionary
281
     1
  0
ACDBDICTIONARYWDFLT
  5
E
102
{ACAD_REACTORS
330
C
102
}
330
C
100
AcDbDictionary
281
     1
  3
Normal
350
F
100
AcDbDictionaryWithDefault
340
F
  0
DICTIONARY
  5
2A
102
{ACAD_REACTORS
330
C
102
}
330
C
100
AcDbDictionary
281
     1
  3
Standard
350
2B
  0
DICTIONARY
  5
2C
102
{ACAD_REACTORS
330
C
102
}
330
C
100
AcDbDictionary
281
     1
  3
CTABLESTYLE
350
2D
  0
LAYOUT
  5
1E
102
{ACAD_REACTORS
330
1A
102
}
330
1A
100
AcDbPlotSettings
  1

  2

  4

  6

 40
0.0
 41
0.0
 42
0.0
 43
0.0
 44
0.0
 45
0.0
 46
0.0
 47
0.0
 48
0.0
 49
0.0
140
0.0
141
0.0
142
1.0
143
1.0
 70
   688
 72
     0
 73
     0
 74
     5
  7

 75
    16
147
1.0
148
0.0
149
0.0
100
AcDbLayout
  1
Layout1
 70
     1
 71
     1
 10
0.0
 20
0.0
 11
12.0
 21
9.0
 12
0.0
 22
0.0
 32
0.0
 14
1.00000000000000E+20
 24
1.00000000000000E+20
 34
1.00000000000000E+20
 15
-1.00000000000000E+20
 25
-1.00000000000000E+20
 35
-1.00000000000000E+20
146
0.0
 13
0.0
 23
0.0
 33
0.0
 16
1.0
 26
0.0
 36
0.0
 17
0.0
 27
1.0
 37
0.0
 76
     0
330
1B
  0
LAYOUT
  5
26
102
{ACAD_REACTORS
330
1A
102
}
330
1A
100
AcDbPlotSettings
  1

  2

  4

  6

 40
0.0
 41
0.0
 42
0.0
 43
0.0
 44
0.0
 45
0.0
 46
0.0
 47
0.0
 48
0.0
 49
0.0
140
0.0
141
0.0
142
1.0
143
1.0
 70
   688
 72
     0
 73
     0
 74
     5
  7

 75
    16
147
1.0
148
0.0
149
0.0
100
AcDbLayout
  1
Layout2
 70
     1
 71
     2
 10
0.0
 20
0.0
 11
0.0
 21
0.0
 12
0.0
 22
0.0
 32
0.0
 14
0.0
 24
0.0
 34
0.0
 15
0.0
 25
0.0
 35
0.0
146
0.0
 13
0.0
 23
0.0
 33
0.0
 16
1.0
 26
0.0
 36
0.0
 17
0.0
 27
1.0
 37
0.0
 76
     0
330
23
  0
LAYOUT
  5
22
102
{ACAD_REACTORS
330
1A
102
}
330
1A
100
AcDbPlotSettings
  1

  2

  4

  6

 40
0.0
 41
0.0
 42
0.0
 43
0.0
 44
0.0
 45
0.0
 46
0.0
 47
0.0
 48
0.0
 49
0.0
140
0.0
141
0.0
142
1.0
143
1.0
 70
  1712
 72
     0
 73
     0
 74
     0
  7

 75
     0
147
1.0
148
0.0
149
0.0
100
AcDbLayout
  1
Model
 70
     1
 71
     0
 10
0.0
 20
0.0
 11
0.0
 21
0.0
 12
0.0
 22
0.0
 32
0.0
 14
0.0
 24
0.0
 34
0.0
 15
315.0
 25
445.5
 35
0.0
146
0.0
 13
0.0
 23
0.0
 33
0.0
 16
1.0
 26
0.0
 36
0.0
 17
0.0
 27
1.0
 37
0.0
 76
     0
330
1F
  0
MLINESTYLE
  5
18
102
{ACAD_REACTORS
330
17
102
}
330
17
100
AcDbMlineStyle
  2
Standard
 70
     0
  3

 62
   256
 51
90.0
 52
90.0
 71
     2
 49
0.5
 62
   256
  6
BYLAYER
 49
-0.5
 62
   256
  6
BYLAYER
  0
ACDBPLACEHOLDER
  5
F
102
{ACAD_REACTORS
330
E
102
}
330
E
  0
TABLESTYLE
  5
2B
102
{ACAD_REACTORS
330
2A
102
}
330
2A
100
AcDbTableStyle
  3
Standard
 70
     0
 71
     0
 40
0.06
 41
0.06
280
     0
281
     0
  7
Standard
140
0.18
170
     2
 62
     0
 63
     7
283
     0
274
    -2
284
     1
 64
     0
275
    -2
285
     1
 65
     0
276
    -2
286
     1
 66
     0
277
    -2
287
     1
 67
     0
278
    -2
288
     1
 68
     0
279
    -2
289
     1
 69
     0
  7
Standard
140
0.25
170
     5
 62
     0
 63
     7
283
     0
274
    -2
284
     1
 64
     0
275
    -2
285
     1
 65
     0
276
    -2
286
     1
 66
     0
277
    -2
287
     1
 67
     0
278
    -2
288
     1
 68
     0
279
    -2
289
     1
 69
     0
  7
Standard
140
0.18
170
     5
 62
     0
 63
     7
283
     0
274
    -2
284
     1
 64
     0
275
    -2
285
     1
 65
     0
276
    -2
286
     1
 66
     0
277
    -2
287
     1
 67
     0
278
    -2
288
     1
 68
     0
279
    -2
289
     1
 69
     0
  0
DICTIONARYVAR
  5
2D
102
{ACAD_REACTORS
330
2C
102
}
330
2C
100
DictionaryVariables
280
     0
  1
Standard
  0
ENDSEC
  0
EOF
