  0
SECTION
  2
HEADER
  9
$ACADVER
  1
AC1015
  9
$ACADMAINTVER
 70
     6
  9
$DWGCODEPAGE
  3
ANSI_932
  9
$INSBASE
 10
0.0
 20
0.0
 30
0.0
  9
$EXTMIN
 10
0.0
 20
0.0
 30
0.0
  9
$EXTMAX
 10
315.0
 20
445.5
 30
0.0
  9
$LIMMIN
 10
0.0
 20
0.0
  9
$LIMMAX
 10
12.0
 20
9.0
  9
$ORTHOMODE
 70
     0
  9
$REGENMODE
 70
     1
  9
$FILLMODE
 70
     1
  9
$QTEXTMODE
 70
     0
  9
$MIRRTEXT
 70
     1
  9
$LTSCALE
 40
1.0
  9
$ATTMODE
 70
     1
  9
$TEXTSIZE
 40
0.2
  9
$TRACEWID
 40
0.05
  9
$TEXTSTYLE
  7
Standard
  9
$CLAYER
  8
0
  9
$CELTYPE
  6
ByLayer
  9
$CECOLOR
 62
   256
  9
$CELTSCALE
 40
1.0
  9
$DISPSILH
 70
     0
  9
$DIMSCALE
 40
1.0
  9
$DIMASZ
 40
0.18
  9
$DIMEXO
 40
0.0625
  9
$DIMDLI
 40
0.38
  9
$DIMRND
 40
0.0
  9
$DIMDLE
 40
0.0
  9
$DIMEXE
 40
0.18
  9
$DIMTP
 40
0.0
  9
$DIMTM
 40
0.0
  9
$DIMTXT
 40
0.18
  9
$DIMCEN
 40
0.09
  9
$DIMTSZ
 40
0.0
  9
$DIMTOL
 70
     0
  9
$DIMLIM
 70
     0
  9
$DIMTIH
 70
     1
  9
$DIMTOH
 70
     1
  9
$DIMSE1
 70
     0
  9
$DIMSE2
 70
     0
  9
$DIMTAD
 70
     0
  9
$DIMZIN
 70
     0
  9
$DIMBLK
  1

  9
$DIMASO
 70
     1
  9
$DIMSHO
 70
     1
  9
$DIMPOST
  1

  9
$DIMAPOST
  1

  9
$DIMALT
 70
     0
  9
$DIMALTD
 70
     2
  9
$DIMALTF
 40
25.4
  9
$DIMLFAC
 40
1.0
  9
$DIMTOFL
 70
     0
  9
$DIMTVP
 40
0.0
  9
$DIMTIX
 70
     0
  9
$DIMSOXD
 70
     0
  9
$DIMSAH
 70
     0
  9
$DIMBLK1
  1

  9
$DIMBLK2
  1

  9
$DIMSTYLE
  2
Standard
  9
$DIMCLRD
 70
     0
  9
$DIMCLRE
 70
     0
  9
$DIMCLRT
 70
     0
  9
$DIMTFAC
 40
1.0
  9
$DIMGAP
 40
0.09
  9
$DIMJUST
 70
     0
  9
$DIMSD1
 70
     0
  9
$DIMSD2
 70
     0
  9
$DIMTOLJ
 70
     1
  9
$DIMTZIN
 70
     0
  9
$DIMALTZ
 70
     0
  9
$DIMALTTZ
 70
     0
  9
$DIMUPT
 70
     0
  9
$DIMDEC
 70
     4
  9
$DIMTDEC
 70
     4
  9
$DIMALTU
 70
     2
  9
$DIMALTTD
 70
     2
  9
$DIMTXSTY
  7
Standard
  9
$DIMAUNIT
 70
     0
  9
$DIMADEC
 70
     0
  9
$DIMALTRND
 40
0.0
  9
$DIMAZIN
 70
     0
  9
$DIMDSEP
 70
    46
  9
$DIMATFIT
 70
     3
  9
$DIMFRAC
 70
     0
  9
$DIMLDRBLK
  1

  9
$DIMLUNIT
 70
     2
  9
$DIMLWD
 70
    -2
  9
$DIMLWE
 70
    -2
  9
$DIMTMOVE
 70
     0
  9
$LUNITS
 70
     2
  9
$LUPREC
 70
     4
  9
$SKETCHINC
 40
0.1
  9
$FILLETRAD
 40
0.5
  9
$AUNITS
 70
     0
  9
$AUPREC
 70
     0
  9
$MENU
  1
.
  9
$ELEVATION
 40
0.0
  9
$PELEVATION
 40
0.0
  9
$THICKNESS
 40
0.0
  9
$LIMCHECK
 70
     0
  9
$CHAMFERA
 40
0.5
  9
$CHAMFERB
 40
0.5
  9
$CHAMFERC
 40
1.0
  9
$CHAMFERD
 40
0.0
  9
$SKPOLY
 70
     0
  9
$TDCREATE
 40
2457206.731542419
  9
$TDUCREATE
 40
2457206.356542419
  9
$TDUPDATE
 40
2457206.731543507
  9
$TDUUPDATE
 40
2457206.356543507
  9
$TDINDWG
 40
0.0000000116
  9
$TDUSRTIMER
 40
0.0000000116
  9
$USRTIMER
 70
     1
  9
$ANGBASE
 50
0.0
  9
$ANGDIR
 70
     0
  9
$PDMODE
 70
     0
  9
$PDSIZE
 40
0.0
  9
$PLINEWID
 40
0.0
  9
$SPLFRAME
 70
     0
  9
$SPLINETYPE
 70
     6
  9
$SPLINESEGS
 70
     8
  9
$HANDSEED
  5
259
  9
$SURFTAB1
 70
     6
  9
$SURFTAB2
 70
     6
  9
$SURFTYPE
 70
     6
  9
$SURFU
 70
     6
  9
$SURFV
 70
     6
  9
$UCSBASE
  2

  9
$UCSNAME
  2

  9
$UCSORG
 10
0.0
 20
0.0
 30
0.0
  9
$UCSXDIR
 10
1.0
 20
0.0
 30
0.0
  9
$UCSYDIR
 10
0.0
 20
1.0
 30
0.0
  9
$UCSORTHOREF
  2

  9
$UCSORTHOVIEW
 70
     0
  9
$UCSORGTOP
 10
0.0
 20
0.0
 30
0.0
  9
$UCSORGBOTTOM
 10
0.0
 20
0.0
 30
0.0
  9
$UCSORGLEFT
 10
0.0
 20
0.0
 30
0.0
  9
$UCSORGRIGHT
 10
0.0
 20
0.0
 30
0.0
  9
$UCSORGFRONT
 10
0.0
 20
0.0
 30
0.0
  9
$UCSORGBACK
 10
0.0
 20
0.0
 30
0.0
  9
$PUCSBASE
  2

  9
$PUCSNAME
  2

  9
$PUCSORG
 10
0.0
 20
0.0
 30
0.0
  9
$PUCSXDIR
 10
1.0
 20
0.0
 30
0.0
  9
$PUCSYDIR
 10
0.0
 20
1.0
 30
0.0
  9
$PUCSORTHOREF
  2

  9
$PUCSORTHOVIEW
 70
     0
  9
$PUCSORGTOP
 10
0.0
 20
0.0
 30
0.0
  9
$PUCSORGBOTTOM
 10
0.0
 20
0.0
 30
0.0
  9
$PUCSORGLEFT
 10
0.0
 20
0.0
 30
0.0
  9
$PUCSORGRIGHT
 10
0.0
 20
0.0
 30
0.0
  9
$PUCSORGFRONT
 10
0.0
 20
0.0
 30
0.0
  9
$PUCSORGBACK
 10
0.0
 20
0.0
 30
0.0
  9
$USERI1
 70
     0
  9
$USERI2
 70
     0
  9
$USERI3
 70
     0
  9
$USERI4
 70
     0
  9
$USERI5
 70
     0
  9
$USERR1
 40
18.1
  9
$USERR2
 40
0.0
  9
$USERR3
 40
0.0
  9
$USERR4
 40
0.0
  9
$USERR5
 40
0.0
  9
$WORLDVIEW
 70
     1
  9
$SHADEDGE
 70
     3
  9
$SHADEDIF
 70
    70
  9
$TILEMODE
 70
     1
  9
$MAXACTVP
 70
    64
  9
$PINSBASE
 10
0.0
 20
0.0
 30
0.0
  9
$PLIMCHECK
 70
     0
  9
$PEXTMIN
 10
1.00000000000000E+20
 20
1.00000000000000E+20
 30
1.00000000000000E+20
  9
$PEXTMAX
 10
-1.00000000000000E+20
 20
-1.00000000000000E+20
 30
-1.00000000000000E+20
  9
$PLIMMIN
 10
0.0
 20
0.0
  9
$PLIMMAX
 10
12.0
 20
9.0
  9
$UNITMODE
 70
     0
  9
$VISRETAIN
 70
     1
  9
$PLINEGEN
 70
     0
  9
$PSLTSCALE
 70
     1
  9
$TREEDEPTH
 70
  3020
  9
$CMLSTYLE
  2
Standard
  9
$CMLJUST
 70
     0
  9
$CMLSCALE
 40
1.0
  9
$PROXYGRAPHICS
 70
     1
  9
$MEASUREMENT
 70
     1
  9
$CELWEIGHT
370
    -1
  9
$ENDCAPS
280
     0
  9
$JOINSTYLE
280
     0
  9
$LWDISPLAY
290
     0
  9
$INSUNITS
 70
     4
  9
$HYPERLINKBASE
  1

  9
$STYLESHEET
  1

  9
$XEDIT
290
     1
  9
$CEPSNTYPE
380
     0
  9
$PSTYLEMODE
290
     1
  9
$FINGERPRINTGUID
  2
{9287E598-E2B6-48E6-A27F-A96EE54E87AA}
  9
$VERSIONGUID
  2
{FAEB1C32-E019-11D5-929B-00C0DF256EC4}
  9
$EXTNAMES
290
     1
  9
$PSVPSCALE
 40
0.0
  9
$OLESTARTUP
290
     0
  0
ENDSEC
  0
SECTION
  2
CLASSES
  0
CLASS
  1
ACDBDICTIONARYWDFLT
  2
AcDbDictionaryWithDefault
  3
ObjectDBX Classes
 90
        0
280
     0
281
     0
  0
CLASS
  1
VISUALSTYLE
  2
AcDbVisualStyle
  3
ObjectDBX Classes
 90
     4095
280
     0
281
     0
  0
CLASS
  1
MATERIAL
  2
AcDbMaterial
  3
ObjectDBX Classes
 90
     1153
280
     0
281
     0
  0
CLASS
  1
DICTIONARYVAR
  2
AcDbDictionaryVar
  3
ObjectDBX Classes
 90
        0
280
     0
281
     0
  0
CLASS
  1
ACDBPLACEHOLDER
  2
AcDbPlaceHolder
  3
ObjectDBX Classes
 90
        0
280
     0
281
     0
  0
CLASS
  1
LAYOUT
  2
AcDbLayout
  3
ObjectDBX Classes
 90
        0
280
     0
281
     0
  0
ENDSEC
  0
SECTION
  2
TABLES
  0
TABLE
  2
VPORT
  5
8
330
0
100
AcDbSymbolTable
 70
     1
  0
VPORT
  5
29
330
8
100
AcDbSymbolTableRecord
100
AcDbViewportTableRecord
  2
*Active
 70
     0
 10
0.0
 20
0.0
 11
1.0
 21
1.0
 12
157.5
 22
222.75
 13
0.0
 23
0.0
 14
0.5
 24
0.5
 15
0.5
 25
0.5
 16
0.0
 26
0.0
 36
1.0
 17
0.0
 27
0.0
 37
0.0
 40
490.05
 41
1.60267857142857
 42
50.0
 43
0.0
 44
0.0
 50
0.0
 51
0.0
 71
     0
 72
   100
 73
     1
 74
     3
 75
     0
 76
     0
 77
     0
 78
     0
281
     0
 65
     1
110
0.0
120
0.0
130
0.0
111
1.0
121
0.0
131
0.0
112
0.0
122
1.0
132
0.0
 79
     0
146
0.0
  0
ENDTAB
  0
TABLE
  2
LTYPE
  5
5
330
0
100
AcDbSymbolTable
 70
     8
  0
LTYPE
  5
14
330
5
100
AcDbSymbolTableRecord
100
AcDbLinetypeTableRecord
  2
ByBlock
 70
     0
  3

 72
    65
 73
     0
 40
0.0
  0
LTYPE
  5
15
330
5
100
AcDbSymbolTableRecord
100
AcDbLinetypeTableRecord
  2
ByLayer
 70
     0
  3

 72
    65
 73
     0
 40
0.0
  0
LTYPE
  5
16
330
5
100
AcDbSymbolTableRecord
100
AcDbLinetypeTableRecord
  2
Continuous
 70
     0
  3
Solid line
 72
    65
 73
     0
 40
0.0
  0
LTYPE
  5
3F
330
5
100
AcDbSymbolTableRecord
100
AcDbLinetypeTableRecord
  2
DASHED
 70
     0
  3
Dashed
 72
    65
 73
     2
 40
15.0
 49
7.0
 74
     0
 49
-8.0
 74
     0
  0
LTYPE
  5
40
330
5
100
AcDbSymbolTableRecord
100
AcDbLinetypeTableRecord
  2
DOTTED
 70
     0
  3
Dotted
 72
    65
 73
     2
 40
1.0
 49
0.0
 74
     0
 49
-1.0
 74
     0
  0
LTYPE
  5
41
330
5
100
AcDbSymbolTableRecord
100
AcDbLinetypeTableRecord
  2
DOT_CENTER
 70
     0
  3
Dot_Center
 72
    65
 73
     4
 40
14.0
 49
12.0
 74
     0
 49
-1.0
 74
     0
 49
0.0
 74
     0
 49
-1.0
 74
     0
  0
LTYPE
  5
42
330
5
100
AcDbSymbolTableRecord
100
AcDbLinetypeTableRecord
  2
LONG_DASHED
 70
     0
  3
Long_Dashed
 72
    65
 73
     2
 40
15.0
 49
10.0
 74
     0
 49
-5.0
 74
     0
  0
LTYPE
  5
43
330
5
100
AcDbSymbolTableRecord
100
AcDbLinetypeTableRecord
  2
DASH_CENTER
 70
     0
  3
Dash_Center
 72
    65
 73
     4
 40
14.0
 49
11.0
 74
     0
 49
-1.0
 74
     0
 49
1.0
 74
     0
 49
-1.0
 74
     0
  0
LTYPE
  5
44
330
5
100
AcDbSymbolTableRecord
100
AcDbLinetypeTableRecord
  2
PHANTOM
 70
     0
  3
Phantom
 72
    65
 73
     6
 40
13.0
 49
10.0
 74
     0
 49
-1.0
 74
     0
 49
0.0
 74
     0
 49
-1.0
 74
     0
 49
0.0
 74
     0
 49
-1.0
 74
     0
  0
LTYPE
  5
45
330
5
100
AcDbSymbolTableRecord
100
AcDbLinetypeTableRecord
  2
CENTER_DASH_DASH
 70
     0
  3
Center_Dash_Dash
 72
    65
 73
     6
 40
14.0
 49
9.0
 74
     0
 49
-1.0
 74
     0
 49
1.0
 74
     0
 49
-1.0
 74
     0
 49
1.0
 74
     0
 49
-1.0
 74
     0
  0
ENDTAB
  0
TABLE
  2
LAYER
  5
2
330
0
100
AcDbSymbolTable
 70
     2
  0
LAYER
  5
10
330
2
100
AcDbSymbolTableRecord
100
AcDbLayerTableRecord
  2
0
 70
     0
 62
     7
  6
Continuous
370
    -3
390
F
  0
LAYER
  5
46
330
2
100
AcDbSymbolTableRecord
100
AcDbLayerTableRecord
  2
1
 70
     0
 62
     7
  6
Continuous
370
    -3
390
F
  0
ENDTAB
  0
TABLE
  2
STYLE
  5
3
330
0
100
AcDbSymbolTable
 70
     3
  0
STYLE
  5
11
330
3
100
AcDbSymbolTableRecord
100
AcDbTextStyleTableRecord
  2
Standard
 70
     0
 40
0.0
 41
1.0
 50
0.0
 71
     0
 42
0.2
  3
txt
  4

  0
STYLE
  5
BD
330
3
100
AcDbSymbolTableRecord
100
AcDbTextStyleTableRecord
  2
CONVERTER_11
 70
     0
 40
0.0
 41
0.89
 50
0.0
 71
     0
 42
0.2
  3
MS Mincho.ttf
  4

1001
ACAD
1000
MS Mincho
1071
    32785
  0
STYLE
  5
1F1
330
3
100
AcDbSymbolTableRecord
100
AcDbTextStyleTableRecord
  2
CONVERTER_12
 70
     0
 40
0.0
 41
0.9
 50
0.0
 71
     0
 42
0.2
  3
txt.shx
  4

  0
ENDTAB
  0
TABLE
  2
VIEW
  5
6
330
0
100
AcDbSymbolTable
 70
     0
  0
ENDTAB
  0
TABLE
  2
UCS
  5
7
330
0
100
AcDbSymbolTable
 70
     0
  0
ENDTAB
  0
TABLE
  2
APPID
  5
9
330
0
100
AcDbSymbolTable
 70
     1
  0
APPID
  5
12
330
9
100
AcDbSymbolTableRecord
100
AcDbRegAppTableRecord
  2
ACAD
 70
     0
  0
ENDTAB
  0
TABLE
  2
DIMSTYLE
  5
A
330
0
100
AcDbSymbolTable
 70
     5
100
AcDbDimStyleTable
  0
DIMSTYLE
105
27
330
A
100
AcDbSymbolTableRecord
100
AcDbDimStyleTableRecord
  2
Standard
 70
     0
178
     0
340
11
  0
DIMSTYLE
105
203
102
{ACAD_REACTORS
330
204
102
}
330
A
100
AcDbSymbolTableRecord
100
AcDbDimStyleTableRecord
  2
ME10_DIM_10
 70
     0
 41
5.25
 42
0.0
 44
1.5
 73
     0
 74
     0
 77
     1
 78
     8
140
5.25
147
1.5
172
     1
173
     1
174
     1
175
     1
176
     2
177
     2
271
     2
178
     7
271
     2
340
1F1
  0
DIMSTYLE
105
20E
102
{ACAD_REACTORS
330
20F
102
}
330
A
100
AcDbSymbolTableRecord
100
AcDbDimStyleTableRecord
  2
ME10_DIM_11
 70
     0
 41
5.25
 42
0.0
 44
1.5
 73
     0
 74
     0
 77
     1
 78
     8
140
5.25
147
1.5
172
     1
173
     1
174
     1
175
     1
176
     2
177
     2
271
     2
178
     7
271
     2
340
1F1
  0
DIMSTYLE
105
219
102
{ACAD_REACTORS
330
21A
102
}
330
A
100
AcDbSymbolTableRecord
100
AcDbDimStyleTableRecord
  2
ME10_DIM_12
 70
     0
 41
5.25
 42
0.0
 44
1.5
 73
     0
 74
     0
 77
     1
 78
     8
140
5.25
147
1.5
172
     1
173
     1
174
     1
175
     1
176
     2
177
     2
271
     2
178
     7
271
     2
340
BD
  0
DIMSTYLE
105
224
102
{ACAD_REACTORS
330
225
102
}
330
A
100
AcDbSymbolTableRecord
100
AcDbDimStyleTableRecord
  2
ME10_DIM_13
 70
     0
 41
5.25
 42
0.0
 44
1.5
 73
     0
 74
     0
 77
     1
 78
     8
140
5.25
147
1.5
172
     1
173
     1
174
     1
175
     1
176
     2
177
     2
271
     2
178
     7
271
     2
340
1F1
  0
ENDTAB
  0
TABLE
  2
BLOCK_RECORD
  5
1
330
0
100
AcDbSymbolTable
 70
    13
  0
BLOCK_RECORD
  5
1F
330
1
100
AcDbSymbolTableRecord
100
AcDbBlockTableRecord
  2
*Model_Space
340
22
  0
BLOCK_RECORD
  5
1B
330
1
100
AcDbSymbolTableRecord
100
AcDbBlockTableRecord
  2
*Paper_Space
340
1E
  0
BLOCK_RECORD
  5
23
330
1
100
AcDbSymbolTableRecord
100
AcDbBlockTableRecord
  2
*Paper_Space0
340
26
  0
BLOCK_RECORD
  5
47
330
1
100
AcDbSymbolTableRecord
100
AcDbBlockTableRecord
  2
34-7-13
340
0
102
{BLKREFS
331
5C
102
}
  0
BLOCK_RECORD
  5
4A
330
1
100
AcDbSymbolTableRecord
100
AcDbBlockTableRecord
  2
開示A4
340
0
102
{BLKREFS
331
5D
102
}
  0
BLOCK_RECORD
  5
4D
330
1
100
AcDbSymbolTableRecord
100
AcDbBlockTableRecord
  2
V280-0A-13-M1
340
0
102
{BLKREFS
331
5E
102
}
  0
BLOCK_RECORD
  5
50
330
1
100
AcDbSymbolTableRecord
100
AcDbBlockTableRecord
  2
42-1-P8
340
0
102
{BLKREFS
331
5F
102
}
  0
BLOCK_RECORD
  5
53
330
1
100
AcDbSymbolTableRecord
100
AcDbBlockTableRecord
  2
21-1C
340
0
102
{BLKREFS
331
60
102
}
  0
BLOCK_RECORD
  5
56
330
1
100
AcDbSymbolTableRecord
100
AcDbBlockTableRecord
  2
37-1-13
340
0
102
{BLKREFS
331
61
102
}
  0
BLOCK_RECORD
  5
59
330
1
100
AcDbSymbolTableRecord
100
AcDbBlockTableRecord
  2
36-54-M11
340
0
102
{BLKREFS
331
62
102
}
  0
BLOCK_RECORD
  5
1FA
330
1
100
AcDbSymbolTableRecord
100
AcDbBlockTableRecord
  2
*D8
340
0
  0
BLOCK_RECORD
  5
205
330
1
100
AcDbSymbolTableRecord
100
AcDbBlockTableRecord
  2
*D9
340
0
  0
BLOCK_RECORD
  5
210
330
1
100
AcDbSymbolTableRecord
100
AcDbBlockTableRecord
  2
*D10
340
0
  0
BLOCK_RECORD
  5
21B
330
1
100
AcDbSymbolTableRecord
100
AcDbBlockTableRecord
  2
*D11
340
0
  0
BLOCK_RECORD
  5
226
330
1
100
AcDbSymbolTableRecord
100
AcDbBlockTableRecord
  2
*D12
340
0
102
{BLKREFS
331
22D
102
}
  0
ENDTAB
  0
ENDSEC
  0
SECTION
  2
BLOCKS
  0
BLOCK
  5
20
330
1F
100
AcDbEntity
  8
0
100
AcDbBlockBegin
  2
*Model_Space
 70
     0
 10
0.0
 20
0.0
 30
0.0
  3
*Model_Space
  1

  0
ENDBLK
  5
21
330
1F
100
AcDbEntity
  8
0
100
AcDbBlockEnd
  0
BLOCK
  5
1C
330
1B
100
AcDbEntity
 67
     1
  8
0
100
AcDbBlockBegin
  2
*Paper_Space
 70
     0
 10
0.0
 20
0.0
 30
0.0
  3
*Paper_Space
  1

  0
ENDBLK
  5
1D
330
1B
100
AcDbEntity
 67
     1
  8
0
100
AcDbBlockEnd
  0
BLOCK
  5
24
330
23
100
AcDbEntity
  8
0
100
AcDbBlockBegin
  2
*Paper_Space0
 70
     0
 10
0.0
 20
0.0
 30
0.0
  3
*Paper_Space0
  1

  0
ENDBLK
  5
25
330
23
100
AcDbEntity
  8
0
100
AcDbBlockEnd
  0
BLOCK
  5
48
330
47
100
AcDbEntity
  8
0
100
AcDbBlockBegin
  2
34-7-13
 70
     0
 10
351.6070230629777
 20
298.1253447212641
 30
0.0
  3
34-7-13
  1

  0
LINE
  5
63
330
47
100
AcDbEntity
  8
1
  6
Continuous
 62
     7
100
AcDbLine
 10
251.5
 20
173.4999999999999
 30
0.0
 11
251.5
 21
176.4999999999999
 31
0.0
  0
LINE
  5
64
330
47
100
AcDbEntity
  8
1
  6
Continuous
 62
     7
100
AcDbLine
 10
251.5
 20
173.4999999999999
 30
0.0
 11
225.0000000000001
 21
173.4999999999999
 31
0.0
  0
LINE
  5
65
330
47
100
AcDbEntity
  8
1
  6
Continuous
 62
     7
100
AcDbLine
 10
237.5
 20
174.9999999999999
 30
0.0
 11
235.5000000000001
 21
174.9999999999999
 31
0.0
  0
LINE
  5
66
330
47
100
AcDbEntity
  8
1
  6
Continuous
 62
     7
100
AcDbLine
 10
237.5
 20
177.4999999999999
 30
0.0
 11
237.5
 21
174.9999999999999
 31
0.0
  0
LINE
  5
67
330
47
100
AcDbEntity
  8
1
  6
Continuous
 62
     7
100
AcDbLine
 10
237.5
 20
177.4999999999999
 30
0.0
 11
250.5
 21
177.4999999999999
 31
0.0
  0
LINE
  5
68
330
47
100
AcDbEntity
  8
1
  6
Continuous
 62
     7
100
AcDbLine
 10
221.5000000000001
 20
176.4999999999999
 30
0.0
 11
221.5000000000001
 21
173.4999999999999
 31
0.0
  0
LINE
  5
69
330
47
100
AcDbEntity
  8
1
  6
Continuous
 62
     7
100
AcDbLine
 10
225.0000000000001
 20
173.4999999999999
 30
0.0
 11
221.5000000000001
 21
173.4999999999999
 31
0.0
  0
LINE
  5
6A
330
47
100
AcDbEntity
  8
1
  6
Continuous
 62
     7
100
AcDbLine
 10
235.5000000000001
 20
174.9999999999999
 30
0.0
 11
235.5000000000001
 21
177.4999999999999
 31
0.0
  0
LINE
  5
6B
330
47
100
AcDbEntity
  8
1
  6
Continuous
 62
     7
100
AcDbLine
 10
222.5000000000001
 20
177.4999999999999
 30
0.0
 11
235.5000000000001
 21
177.4999999999999
 31
0.0
  0
LINE
  5
6C
330
47
100
AcDbEntity
  8
0
  6
Continuous
 62
     7
100
AcDbLine
 10
76.53337045290422
 20
326.9620225157158
 30
0.0
 11
106.4666295470958
 21
326.9620225157158
 31
0.0
  0
LINE
  5
6D
330
47
100
AcDbEntity
  8
0
  6
Continuous
 62
     7
100
AcDbLine
 10
106.4666295470958
 20
324.9620225157159
 30
0.0
 11
76.53337045290422
 21
324.9620225157159
 31
0.0
  0
ARC
  5
6E
330
47
100
AcDbEntity
  8
0
  6
Continuous
 62
     7
100
AcDbCircle
 10
91.50000000000003
 20
325.9620225157158
 30
0.0
 40
15.00000000000003
100
AcDbArc
 50
183.8225537292739
 51
176.1774462707257
  0
ARC
  5
6F
330
47
100
AcDbEntity
  8
0
  6
Continuous
 62
     7
100
AcDbCircle
 10
91.50000000000003
 20
325.9620225157158
 30
0.0
 40
15.00000000000004
100
AcDbArc
 50
176.1774462707257
 51
183.8225537292739
  0
ARC
  5
70
330
47
100
AcDbEntity
  8
1
  6
Continuous
 62
     7
100
AcDbCircle
 10
250.5
 20
176.4999999999999
 30
0.0
 40
1.0
100
AcDbArc
 50
0.0
 51
90.0
  0
ARC
  5
71
330
47
100
AcDbEntity
  8
1
  6
Continuous
 62
     7
100
AcDbCircle
 10
222.5000000000001
 20
176.4999999999999
 30
0.0
 40
1.0
100
AcDbArc
 50
90.0
 51
180.0
  0
ENDBLK
  5
49
330
47
100
AcDbEntity
  8
0
100
AcDbBlockEnd
  0
BLOCK
  5
4B
330
4A
100
AcDbEntity
  8
0
100
AcDbBlockBegin
  2
開示A4
 70
     0
 10
0.0
 20
0.0
 30
0.0
  3
開示A4
  1

  0
POINT
  5
72
330
4A
100
AcDbEntity
  8
1
 62
     4
100
AcDbPoint
 10
93.75
 20
17.0
 30
0.0
  0
POINT
  5
73
330
4A
100
AcDbEntity
  8
1
 62
     4
100
AcDbPoint
 10
85.25
 20
17.0
 30
0.0
  0
POINT
  5
74
330
4A
100
AcDbEntity
  8
1
 62
     4
100
AcDbPoint
 10
106.5
 20
19.00000000000001
 30
0.0
  0
POINT
  5
75
330
4A
100
AcDbEntity
  8
1
 62
     4
100
AcDbPoint
 10
106.5
 20
12.5
 30
0.0
  0
POINT
  5
76
330
4A
100
AcDbEntity
  8
1
 62
     4
100
AcDbPoint
 10
112.25
 20
12.5
 30
0.0
  0
POINT
  5
77
330
4A
100
AcDbEntity
  8
1
 62
     4
100
AcDbPoint
 10
100.75
 20
12.5
 30
0.0
  0
POINT
  5
78
330
4A
100
AcDbEntity
  8
1
 62
     4
100
AcDbPoint
 10
123.5
 20
19.00000000000001
 30
0.0
  0
POINT
  5
79
330
4A
100
AcDbEntity
  8
1
 62
     4
100
AcDbPoint
 10
123.5
 20
12.5
 30
0.0
  0
POINT
  5
7A
330
4A
100
AcDbEntity
  8
1
 62
     4
100
AcDbPoint
 10
129.25
 20
12.5
 30
0.0
  0
POINT
  5
7B
330
4A
100
AcDbEntity
  8
1
 62
     4
100
AcDbPoint
 10
117.75
 20
12.5
 30
0.0
  0
POINT
  5
7C
330
4A
100
AcDbEntity
  8
1
 62
     4
100
AcDbPoint
 10
140.5
 20
19.00000000000001
 30
0.0
  0
POINT
  5
7D
330
4A
100
AcDbEntity
  8
1
 62
     4
100
AcDbPoint
 10
140.5
 20
12.5
 30
0.0
  0
POINT
  5
7E
330
4A
100
AcDbEntity
  8
1
 62
     4
100
AcDbPoint
 10
146.25
 20
12.5
 30
0.0
  0
POINT
  5
7F
330
4A
100
AcDbEntity
  8
1
 62
     4
100
AcDbPoint
 10
134.75
 20
12.5
 30
0.0
  0
POINT
  5
80
330
4A
100
AcDbEntity
  8
1
 62
     4
100
AcDbPoint
 10
151.75
 20
12.5
 30
0.0
  0
POINT
  5
81
330
4A
100
AcDbEntity
  8
1
 62
     4
100
AcDbPoint
 10
163.25
 20
12.5
 30
0.0
  0
POINT
  5
82
330
4A
100
AcDbEntity
  8
1
 62
     4
100
AcDbPoint
 10
157.5
 20
12.5
 30
0.0
  0
POINT
  5
83
330
4A
100
AcDbEntity
  8
1
 62
     4
100
AcDbPoint
 10
57.0
 20
14.25
 30
0.0
  0
POINT
  5
84
330
4A
100
AcDbEntity
  8
1
 62
     4
100
AcDbPoint
 10
57.0
 20
22.75000000000001
 30
0.0
  0
POINT
  5
85
330
4A
100
AcDbEntity
  8
1
 62
     4
100
AcDbPoint
 10
47.5
 20
282.0000000000003
 30
0.0
  0
POINT
  5
86
330
4A
100
AcDbEntity
  8
1
 62
     4
100
AcDbPoint
 10
157.5
 20
19.00000000000001
 30
0.0
  0
POINT
  5
87
330
4A
100
AcDbEntity
  8
1
 62
     4
100
AcDbPoint
 10
57.0
 20
16.25
 30
0.0
  0
POINT
  5
88
330
4A
100
AcDbEntity
  8
1
 62
     4
100
AcDbPoint
 10
57.0
 20
24.75000000000001
 30
0.0
  0
POINT
  5
89
330
4A
100
AcDbEntity
  8
1
 62
     4
100
AcDbPoint
 10
57.0
 20
20.75000000000001
 30
0.0
  0
POINT
  5
8A
330
4A
100
AcDbEntity
  8
1
 62
     4
100
AcDbPoint
 10
57.0
 20
12.25
 30
0.0
  0
POINT
  5
8B
330
4A
100
AcDbEntity
  8
1
 62
     4
100
AcDbPoint
 10
34.0
 20
34.00000000000001
 30
0.0
  0
LINE
  5
8C
330
4A
100
AcDbEntity
  8
1
  6
Continuous
 62
     7
100
AcDbLine
 10
105.0
 20
10.0
 30
0.0
 11
200.0
 21
10.0
 31
0.0
  0
LINE
  5
8D
330
4A
100
AcDbEntity
  8
1
  6
Continuous
 62
     2
100
AcDbLine
 10
105.0
 20
10.0
 30
0.0
 11
105.0
 21
5.0
 31
0.0
  0
LINE
  5
8E
330
4A
100
AcDbEntity
  8
1
  6
Continuous
 62
     7
100
AcDbLine
 10
200.0
 20
148.5
 30
0.0
 11
200.0
 21
287.0000000000003
 31
0.0
  0
LINE
  5
8F
330
4A
100
AcDbEntity
  8
1
  6
Continuous
 62
     2
100
AcDbLine
 10
200.0
 20
148.5
 30
0.0
 11
205.0
 21
148.5
 31
0.0
  0
LINE
  5
90
330
4A
100
AcDbEntity
  8
1
  6
Continuous
 62
     7
100
AcDbLine
 10
25.0
 20
148.5
 30
0.0
 11
25.0
 21
287.0000000000003
 31
0.0
  0
LINE
  5
91
330
4A
100
AcDbEntity
  8
1
  6
Continuous
 62
     2
100
AcDbLine
 10
25.0
 20
148.5
 30
0.0
 11
20.0
 21
148.5
 31
0.0
  0
LINE
  5
92
330
4A
100
AcDbEntity
  8
1
  6
Continuous
 62
     7
100
AcDbLine
 10
105.0
 20
287.0000000000003
 30
0.0
 11
25.0
 21
287.0000000000003
 31
0.0
  0
LINE
  5
93
330
4A
100
AcDbEntity
  8
1
  6
Continuous
 62
     2
100
AcDbLine
 10
105.0
 20
287.0000000000003
 30
0.0
 11
105.0
 21
292.0000000000003
 31
0.0
  0
LINE
  5
94
330
4A
100
AcDbEntity
  8
1
  6
Continuous
 62
     2
100
AcDbLine
 10
166.0
 20
20.00000000000001
 30
0.0
 11
200.0
 21
20.00000000000001
 31
0.0
  0
LINE
  5
95
330
4A
100
AcDbEntity
  8
1
  6
Continuous
 62
     2
100
AcDbLine
 10
98.0
 20
27.00000000000001
 30
0.0
 11
98.0
 21
9.99999999999999
 31
0.0
  0
LINE
  5
96
330
4A
100
AcDbEntity
  8
1
  6
Continuous
 62
     2
100
AcDbLine
 10
115.0
 20
27.00000000000001
 30
0.0
 11
115.0
 21
9.99999999999999
 31
0.0
  0
LINE
  5
97
330
4A
100
AcDbEntity
  8
1
  6
Continuous
 62
     2
100
AcDbLine
 10
149.0
 20
27.00000000000001
 30
0.0
 11
149.0
 21
10.0
 31
0.0
  0
LINE
  5
98
330
4A
100
AcDbEntity
  8
1
  6
Continuous
 62
     2
100
AcDbLine
 10
132.0
 20
27.00000000000001
 30
0.0
 11
132.0
 21
9.99999999999999
 31
0.0
  0
LINE
  5
99
330
4A
100
AcDbEntity
  8
1
  6
Continuous
 62
     2
100
AcDbLine
 10
166.0
 20
27.00000000000001
 30
0.0
 11
166.0
 21
10.0
 31
0.0
  0
LINE
  5
9A
330
4A
100
AcDbEntity
  8
1
  6
Continuous
 62
     2
100
AcDbLine
 10
55.0
 20
277.0000000000003
 30
0.0
 11
25.0
 21
277.0000000000003
 31
0.0
  0
LINE
  5
9B
330
4A
100
AcDbEntity
  8
1
  6
Continuous
 62
     7
100
AcDbLine
 10
25.0
 20
10.0
 30
0.0
 11
25.0
 21
148.5
 31
0.0
  0
LINE
  5
9C
330
4A
100
AcDbEntity
  8
1
  6
Continuous
 62
     2
100
AcDbLine
 10
40.0
 20
287.0000000000003
 30
0.0
 11
40.0
 21
277.0000000000003
 31
0.0
  0
LINE
  5
9D
330
4A
100
AcDbEntity
  8
1
  6
Continuous
 62
     2
100
AcDbLine
 10
55.0
 20
287.0000000000003
 30
0.0
 11
55.0
 21
277.0000000000003
 31
0.0
  0
LINE
  5
9E
330
4A
100
AcDbEntity
  8
1
  6
Continuous
 62
     2
100
AcDbLine
 10
33.0
 20
41.00000000000001
 30
0.0
 11
33.0
 21
27.0
 31
0.0
  0
LINE
  5
9F
330
4A
100
AcDbEntity
  8
1
  6
Continuous
 62
     7
100
AcDbLine
 10
200.0
 20
27.00000000000001
 30
0.0
 11
25.0
 21
27.00000000000001
 31
0.0
  0
LINE
  5
A0
330
4A
100
AcDbEntity
  8
1
  6
Continuous
 62
     7
100
AcDbLine
 10
25.0
 20
41.0
 30
0.0
 11
200.0
 21
41.0
 31
0.0
  0
LINE
  5
A1
330
4A
100
AcDbEntity
  8
1
  6
PHANTOM
 62
     4
100
AcDbLine
 10
0.0
 20
0.0
 30
0.0
 11
210.0
 21
0.0
 31
0.0
  0
LINE
  5
A2
330
4A
100
AcDbEntity
  8
1
  6
PHANTOM
 62
     4
100
AcDbLine
 10
210.0
 20
0.0
 30
0.0
 11
210.0
 21
297.0
 31
0.0
  0
LINE
  5
A3
330
4A
100
AcDbEntity
  8
1
  6
PHANTOM
 62
     4
100
AcDbLine
 10
210.0
 20
297.0
 30
0.0
 11
0.0
 21
297.0
 31
0.0
  0
LINE
  5
A4
330
4A
100
AcDbEntity
  8
1
  6
PHANTOM
 62
     4
100
AcDbLine
 10
0.0
 20
297.0
 30
0.0
 11
0.0
 21
0.0
 31
0.0
  0
LINE
  5
A5
330
4A
100
AcDbEntity
  8
1
  6
Continuous
 62
     7
100
AcDbLine
 10
25.0
 20
10.0
 30
0.0
 11
105.0
 21
10.0
 31
0.0
  0
LINE
  5
A6
330
4A
100
AcDbEntity
  8
1
  6
Continuous
 62
     7
100
AcDbLine
 10
200.0
 20
10.0
 30
0.0
 11
200.0
 21
148.5
 31
0.0
  0
LINE
  5
A7
330
4A
100
AcDbEntity
  8
1
  6
Continuous
 62
     7
100
AcDbLine
 10
200.0
 20
287.0000000000003
 30
0.0
 11
105.0
 21
287.0000000000003
 31
0.0
  0
LINE
  5
A8
330
4A
100
AcDbEntity
  8
1
  6
Continuous
 62
     2
100
AcDbLine
 10
25.0
 20
18.50000000000001
 30
0.0
 11
81.0
 21
18.50000000000001
 31
0.0
  0
LINE
  5
A9
330
4A
100
AcDbEntity
  8
1
  6
Continuous
 62
     2
100
AcDbLine
 10
33.0
 20
27.0
 30
0.0
 11
33.0
 21
10.0
 31
0.0
  0
LINE
  5
AA
330
4A
100
AcDbEntity
  8
1
  6
Continuous
 62
     7
100
AcDbLine
 10
191.0
 20
24.70000000000001
 30
0.0
 11
191.0
 21
22.30000000000001
 31
0.0
  0
LINE
  5
AB
330
4A
100
AcDbEntity
  8
1
  6
Continuous
 62
     7
100
AcDbLine
 10
191.0
 20
24.70000000000001
 30
0.0
 11
196.0
 21
25.50000000000001
 31
0.0
  0
LINE
  5
AC
330
4A
100
AcDbEntity
  8
1
  6
Continuous
 62
     7
100
AcDbLine
 10
196.0
 20
25.50000000000001
 30
0.0
 11
196.0
 21
21.50000000000001
 31
0.0
  0
LINE
  5
AD
330
4A
100
AcDbEntity
  8
1
  6
Continuous
 62
     7
100
AcDbLine
 10
196.0
 20
21.50000000000001
 30
0.0
 11
191.0
 21
22.30000000000001
 31
0.0
  0
LINE
  5
AE
330
4A
100
AcDbEntity
  8
1
  6
DOT_CENTER
 62
     2
100
AcDbLine
 10
184.0
 20
23.50000000000001
 30
0.0
 11
197.0
 21
23.50000000000001
 31
0.0
  0
LINE
  5
AF
330
4A
100
AcDbEntity
  8
1
  6
DOT_CENTER
 62
     2
100
AcDbLine
 10
187.0
 20
26.50000000000001
 30
0.0
 11
187.0
 21
20.50000000000001
 31
0.0
  0
LINE
  5
B0
330
4A
100
AcDbEntity
  8
1
  6
Continuous
 62
     2
100
AcDbLine
 10
81.0
 20
27.00000000000001
 30
0.0
 11
81.0
 21
10.0
 31
0.0
  0
CIRCLE
  5
B1
330
4A
100
AcDbEntity
  8
1
  6
Continuous
 62
     7
100
AcDbCircle
 10
103.5
 20
12.5
 30
0.0
 40
0.2999999999999972
  0
CIRCLE
  5
B2
330
4A
100
AcDbEntity
  8
1
  6
Continuous
 62
     7
100
AcDbCircle
 10
109.5
 20
12.5
 30
0.0
 40
0.2999999999999972
  0
CIRCLE
  5
B3
330
4A
100
AcDbEntity
  8
1
  6
Continuous
 62
     7
100
AcDbCircle
 10
120.5
 20
12.5
 30
0.0
 40
0.2999999999999972
  0
CIRCLE
  5
B4
330
4A
100
AcDbEntity
  8
1
  6
Continuous
 62
     7
100
AcDbCircle
 10
126.5
 20
12.5
 30
0.0
 40
0.2999999999999972
  0
CIRCLE
  5
B5
330
4A
100
AcDbEntity
  8
1
  6
Continuous
 62
     7
100
AcDbCircle
 10
137.5
 20
12.5
 30
0.0
 40
0.3000000000000114
  0
CIRCLE
  5
B6
330
4A
100
AcDbEntity
  8
1
  6
Continuous
 62
     7
100
AcDbCircle
 10
143.5
 20
12.5
 30
0.0
 40
0.3000000000000114
  0
CIRCLE
  5
B7
330
4A
100
AcDbEntity
  8
1
  6
Continuous
 62
     7
100
AcDbCircle
 10
160.5
 20
12.5
 30
0.0
 40
0.3000000000000114
  0
CIRCLE
  5
B8
330
4A
100
AcDbEntity
  8
1
  6
Continuous
 62
     7
100
AcDbCircle
 10
154.5
 20
12.5
 30
0.0
 40
0.3000000000000114
  0
CIRCLE
  5
B9
330
4A
100
AcDbEntity
  8
1
  6
Continuous
 62
     7
100
AcDbCircle
 10
187.0
 20
23.50000000000001
 30
0.0
 40
1.200000000000102
  0
CIRCLE
  5
BA
330
4A
100
AcDbEntity
  8
1
  6
Continuous
 62
     7
100
AcDbCircle
 10
187.0
 20
23.50000000000001
 30
0.0
 40
2.0
  0
CIRCLE
  5
BB
330
4A
100
AcDbEntity
  8
1
  6
DOT_CENTER
 62
     7
100
AcDbCircle
 10
89.5
 20
16.0
 30
0.0
 40
0.1000000000000227
  0
CIRCLE
  5
BC
330
4A
100
AcDbEntity
  8
1
  6
DOT_CENTER
 62
     7
100
AcDbCircle
 10
89.5
 20
18.0
 30
0.0
 40
0.1000000000000227
  0
MTEXT
  5
BE
330
4A
100
AcDbEntity
  8
1
 62
     7
100
AcDbMText
 10
188.5
 20
15.0
 30
0.0
 40
3.0
 41
0.0
 71
     5
 72
     1
  1
三栄水栓製作所
  7
CONVERTER_11
 73
     1
 44
1.0
  0
MTEXT
  5
BF
330
4A
100
AcDbEntity
  8
1
 62
     7
100
AcDbMText
 10
171.5
 20
15.0
 30
0.0
 40
2.5
 41
0.0
 71
     5
 72
     1
  1
株式会社
  7
CONVERTER_11
 73
     1
 44
1.0
  0
MTEXT
  5
C0
330
4A
100
AcDbEntity
  8
1
 62
     2
100
AcDbMText
 10
32.5
 20
282.0000000000003
 30
0.0
 40
5.0
 41
0.0
 71
     5
 72
     1
  1
図番
  7
CONVERTER_11
 73
     1
 44
0.45454545454545
  0
MTEXT
  5
C1
330
4A
100
AcDbEntity
  8
1
 62
     2
100
AcDbMText
 10
29.0
 20
34.00000000000001
 30
0.0
 40
3.5
 41
0.0
 71
     5
 72
     1
  1
備考
  7
CONVERTER_11
 73
     1
 44
0.45454545454545
  0
MTEXT
  5
C2
330
4A
100
AcDbEntity
  8
1
 62
     2
100
AcDbMText
 10
29.0
 20
22.75
 30
0.0
 40
3.5
 41
0.0
 71
     5
 72
     1
  1
品名
  7
CONVERTER_11
 73
     1
 44
0.72727272727273
  0
MTEXT
  5
C3
330
4A
100
AcDbEntity
  8
1
 62
     2
100
AcDbMText
 10
29.0
 20
14.25
 30
0.0
 40
3.5
 41
0.0
 71
     5
 72
     1
  1
品番
  7
CONVERTER_11
 73
     1
 44
0.72727272727273
  0
MTEXT
  5
C4
330
4A
100
AcDbEntity
  8
1
 62
     2
100
AcDbMText
 10
101.5
 20
25.00000000000001
 30
0.0
 40
3.0
 41
0.0
 71
     5
 72
     1
  1
承認
  7
CONVERTER_11
 73
     1
 44
0.59090909090909
  0
MTEXT
  5
C5
330
4A
100
AcDbEntity
  8
1
 62
     2
100
AcDbMText
 10
175.0
 20
23.50000000000001
 30
0.0
 40
3.5
 41
0.0
 71
     5
 72
     1
  1
第三角法
  7
CONVERTER_11
 73
     1
 44
0.54545454545455
  0
MTEXT
  5
C6
330
4A
100
AcDbEntity
  8
1
 62
     2
100
AcDbMText
 10
118.5
 20
25.00000000000001
 30
0.0
 40
3.0
 41
0.0
 71
     5
 72
     1
  1
検図
  7
CONVERTER_11
 73
     1
 44
0.59090909090909
  0
MTEXT
  5
C7
330
4A
100
AcDbEntity
  8
1
 62
     2
100
AcDbMText
 10
152.5
 20
25.00000000000001
 30
0.0
 40
3.0
 41
0.0
 71
     5
 72
     1
  1
設計
  7
CONVERTER_11
 73
     1
 44
0.59090909090909
  0
MTEXT
  5
C8
330
4A
100
AcDbEntity
  8
1
 62
     2
100
AcDbMText
 10
135.5
 20
25.00000000000001
 30
0.0
 40
3.0
 41
0.0
 71
     5
 72
     1
  1
製図
  7
CONVERTER_11
 73
     1
 44
0.59090909090909
  0
MTEXT
  5
C9
330
4A
100
AcDbEntity
  8
1
 62
     2
100
AcDbMText
 10
89.5
 20
24.00000000000001
 30
0.0
 40
3.5
 41
0.0
 71
     5
 72
     1
  1
尺度
  7
CONVERTER_11
 73
     1
 44
0.54545454545455
  0
MTEXT
  5
CA
330
4A
100
AcDbEntity
  8
1
 62
   250
100
AcDbMText
 10
25.0
 20
5.0
 30
0.0
 40
3.5
 41
0.0
 71
     4
 72
     1
  1
備考欄の文字列 原点位置=4
  7
CONVERTER_11
 73
     1
 44
0.54545454545455
  0
ENDBLK
  5
4C
330
4A
100
AcDbEntity
  8
0
100
AcDbBlockEnd
  0
BLOCK
  5
4E
330
4D
100
AcDbEntity
  8
0
100
AcDbBlockBegin
  2
V280-0A-13-M1
 70
     0
 10
0.0
 20
445.5
 30
0.0
  3
V280-0A-13-M1
  1

  0
LINE
  5
CB
330
4D
100
AcDbEntity
  8
1
  6
PHANTOM
 62
     4
100
AcDbLine
 10
270.0
 20
143.4999999999998
 30
0.0
 11
168.5
 21
143.4999999999999
 31
0.0
  0
LINE
  5
CC
330
4D
100
AcDbEntity
  8
1
  6
PHANTOM
 62
     4
100
AcDbLine
 10
201.5
 20
127.4999999999999
 30
0.0
 11
201.5000000000001
 21
188.5
 31
0.0
  0
LINE
  5
CD
330
4D
100
AcDbEntity
  8
1
  6
Continuous
 62
     7
100
AcDbLine
 10
189.5
 20
179.5
 30
0.0
 11
213.5000000000001
 21
179.4999999999999
 31
0.0
  0
LINE
  5
CE
330
4D
100
AcDbEntity
  8
1
  6
Continuous
 62
     2
100
AcDbLine
 10
190.313
 20
179.5
 30
0.0
 11
189.2246468348824
 21
177.6149170214379
 31
0.0
  0
LINE
  5
CF
330
4D
100
AcDbEntity
  8
1
  6
Continuous
 62
     2
100
AcDbLine
 10
213.5000000000001
 20
178.0918426934464
 30
0.0
 11
212.6870000000001
 21
179.4999999999999
 31
0.0
  0
LINE
  5
D0
330
4D
100
AcDbEntity
  8
1
  6
Continuous
 62
     7
100
AcDbLine
 10
213.5
 20
176.4999999999999
 30
0.0
 11
213.5
 21
177.6149170214379
 31
0.0
  0
LINE
  5
D1
330
4D
100
AcDbEntity
  8
1
  6
Continuous
 62
     2
100
AcDbLine
 10
190.313
 20
179.5
 30
0.0
 11
190.313
 21
181.0
 31
0.0
  0
LINE
  5
D2
330
4D
100
AcDbEntity
  8
1
  6
Continuous
 62
     7
100
AcDbLine
 10
171.5
 20
156.0
 30
0.0
 11
171.5
 21
131.0
 31
0.0
  0
LINE
  5
D3
330
4D
100
AcDbEntity
  8
1
  6
Continuous
 62
     7
100
AcDbLine
 10
184.6070822007651
 20
155.9999999999999
 30
0.0
 11
180.5000000000002
 21
156.0
 31
0.0
  0
LINE
  5
D4
330
4D
100
AcDbEntity
  8
1
  6
Continuous
 62
     7
100
AcDbLine
 10
180.5000000000002
 20
131.0
 30
0.0
 11
183.5
 21
131.0
 31
0.0
  0
LINE
  5
D5
330
4D
100
AcDbEntity
  8
1
  6
Continuous
 62
     7
100
AcDbLine
 10
253.0000000000001
 20
173.4999999999999
 30
0.0
 11
253.0
 21
153.978
 31
0.0
  0
LINE
  5
D6
330
4D
100
AcDbEntity
  8
1
  6
Continuous
 62
     7
100
AcDbLine
 10
252.0
 20
130.4999999999998
 30
0.0
 11
186.8678574219325
 21
130.4999999999999
 31
0.0
  0
LINE
  5
D7
330
4D
100
AcDbEntity
  8
1
  6
Continuous
 62
     7
100
AcDbLine
 10
253.0
 20
133.0219999999998
 30
0.0
 11
253.0
 21
131.4999999999998
 31
0.0
  0
LINE
  5
D8
330
4D
100
AcDbEntity
  8
1
  6
Continuous
 62
     7
100
AcDbLine
 10
253.0000000000001
 20
173.4999999999999
 30
0.0
 11
216.5000000000001
 21
173.4999999999999
 31
0.0
  0
LINE
  5
D9
330
4D
100
AcDbEntity
  8
1
  6
PHANTOM
 62
     4
100
AcDbLine
 10
236.5000000000001
 20
176.4999999999999
 30
0.0
 11
236.5
 21
127.4999999999999
 31
0.0
  0
LINE
  5
DA
330
4D
100
AcDbEntity
  8
1
  6
Continuous
 62
     7
100
AcDbLine
 10
267.0
 20
152.8159999999998
 30
0.0
 11
267.0
 21
134.1839999999997
 31
0.0
  0
LINE
  5
DB
330
4D
100
AcDbEntity
  8
1
  6
Continuous
 62
     2
100
AcDbLine
 10
255.0126430383951
 20
134.1839999999997
 30
0.0
 11
267.0
 21
134.1839999999997
 31
0.0
  0
LINE
  5
DC
330
4D
100
AcDbEntity
  8
1
  6
Continuous
 62
     7
100
AcDbLine
 10
265.8380000000001
 20
133.0219999999998
 30
0.0
 11
253.0
 21
133.0219999999998
 31
0.0
  0
LINE
  5
DD
330
4D
100
AcDbEntity
  8
1
  6
Continuous
 62
     2
100
AcDbLine
 10
253.0
 20
133.0219999999998
 30
0.0
 11
255.0126430383951
 21
134.1839999999997
 31
0.0
  0
LINE
  5
DE
330
4D
100
AcDbEntity
  8
1
  6
Continuous
 62
     7
100
AcDbLine
 10
267.0
 20
134.1839999999997
 30
0.0
 11
265.8380000000001
 21
133.0219999999998
 31
0.0
  0
LINE
  5
DF
330
4D
100
AcDbEntity
  8
1
  6
Continuous
 62
     2
100
AcDbLine
 10
267.0
 20
152.8159999999998
 30
0.0
 11
255.0126430383951
 21
152.8159999999998
 31
0.0
  0
LINE
  5
E0
330
4D
100
AcDbEntity
  8
1
  6
Continuous
 62
     7
100
AcDbLine
 10
253.0
 20
153.978
 30
0.0
 11
265.8380000000001
 21
153.978
 31
0.0
  0
LINE
  5
E1
330
4D
100
AcDbEntity
  8
1
  6
Continuous
 62
     2
100
AcDbLine
 10
255.0126430383951
 20
152.8159999999998
 30
0.0
 11
253.0
 21
153.978
 31
0.0
  0
LINE
  5
E2
330
4D
100
AcDbEntity
  8
1
  6
Continuous
 62
     7
100
AcDbLine
 10
265.8380000000001
 20
153.978
 30
0.0
 11
267.0
 21
152.8159999999998
 31
0.0
  0
LINE
  5
E3
330
4D
100
AcDbEntity
  8
1
  6
Continuous
 62
     7
100
AcDbLine
 10
255.0126430383951
 20
133.0219999999998
 30
0.0
 11
255.0126430383951
 21
153.978
 31
0.0
  0
LINE
  5
E4
330
4D
100
AcDbEntity
  8
1
  6
Continuous
 62
     7
100
AcDbLine
 10
189.2246468348824
 20
177.6149170214379
 30
0.0
 11
188.6046455088416
 21
159.8604020131899
 31
0.0
  0
LINE
  5
E5
330
4D
100
AcDbEntity
  8
1
  6
Continuous
 62
     7
100
AcDbLine
 10
265.8380000000001
 20
153.978
 30
0.0
 11
265.8380000000001
 21
133.0219999999998
 31
0.0
  0
LINE
  5
E6
330
4D
100
AcDbEntity
  8
1
  6
Continuous
 62
     7
100
AcDbLine
 10
180.5000000000002
 20
156.0
 30
0.0
 11
180.5000000000002
 21
131.0
 31
0.0
  0
LINE
  5
E7
330
4D
100
AcDbEntity
  8
1
  6
Continuous
 62
     7
100
AcDbLine
 10
188.4698372999935
 20
155.9999999999999
 30
0.0
 11
193.5
 21
150.9698372999934
 31
0.0
  0
LINE
  5
E8
330
4D
100
AcDbEntity
  8
1
  6
Continuous
 62
     7
100
AcDbLine
 10
108.0
 20
173.5
 30
0.0
 11
107.9999999999999
 21
146.9999999999974
 31
0.0
  0
LINE
  5
E9
330
4D
100
AcDbEntity
  8
1
  6
PHANTOM
 62
     4
100
AcDbLine
 10
91.50000000000014
 20
188.5000000000001
 30
0.0
 11
91.49999999999994
 21
127.5
 31
0.0
  0
LINE
  5
EA
330
4D
100
AcDbEntity
  8
1
  6
Continuous
 62
     7
100
AcDbLine
 10
108.0
 20
173.5
 30
0.0
 11
74.99999999999994
 21
173.5
 31
0.0
  0
LINE
  5
EB
330
4D
100
AcDbEntity
  8
1
  6
Continuous
 62
     7
100
AcDbLine
 10
75.00000000000014
 20
146.9999999999974
 30
0.0
 11
74.99999999999994
 21
173.5
 31
0.0
  0
LINE
  5
EC
330
4D
100
AcDbEntity
  8
1
  6
Continuous
 62
     2
100
AcDbLine
 10
103.5
 20
178.0918426934466
 30
0.0
 11
102.687
 21
179.5
 31
0.0
  0
LINE
  5
ED
330
4D
100
AcDbEntity
  8
1
  6
Continuous
 62
     2
100
AcDbLine
 10
80.31300000000005
 20
179.5
 30
0.0
 11
80.31300000000002
 21
180.9296912881848
 31
0.0
  0
LINE
  5
EE
330
4D
100
AcDbEntity
  8
1
  6
Continuous
 62
     2
100
AcDbLine
 10
80.31300000000005
 20
179.5
 30
0.0
 11
79.50000000000003
 21
178.0918426934466
 31
0.0
  0
LINE
  5
EF
330
4D
100
AcDbEntity
  8
1
  6
Continuous
 62
     7
100
AcDbLine
 10
103.5
 20
179.5
 30
0.0
 11
79.50000000000003
 21
179.5
 31
0.0
  0
LINE
  5
F0
330
4D
100
AcDbEntity
  8
1
  6
Continuous
 62
     7
100
AcDbLine
 10
75.13694585915187
 20
323.8405939442872
 30
0.0
 11
77.2300475150177
 21
307.6960316533359
 31
0.0
  0
LINE
  5
F1
330
4D
100
AcDbEntity
  8
1
  6
Continuous
 62
     7
100
AcDbLine
 10
100.8159999999999
 20
344.4746655541109
 30
0.0
 11
82.18399999999997
 21
344.4746655541109
 31
0.0
  0
LINE
  5
F2
330
4D
100
AcDbEntity
  8
1
  6
Continuous
 62
     7
100
AcDbLine
 10
81.02200000000005
 20
355.3000225157158
 30
0.0
 11
101.978
 21
355.3000225157158
 31
0.0
  0
LINE
  5
F3
330
4D
100
AcDbEntity
  8
1
  6
Continuous
 62
     7
100
AcDbLine
 10
100.8159999999999
 20
344.4746655541109
 30
0.0
 11
101.978
 21
344.4746655541109
 31
0.0
  0
LINE
  5
F4
330
4D
100
AcDbEntity
  8
1
  6
Continuous
 62
     7
100
AcDbLine
 10
82.18399999999997
 20
344.4746655541109
 30
0.0
 11
81.02200000000005
 21
344.4746655541109
 31
0.0
  0
LINE
  5
F5
330
4D
100
AcDbEntity
  8
1
  6
Continuous
 62
     7
100
AcDbLine
 10
81.02200000000005
 20
355.3000225157158
 30
0.0
 11
82.18399999999997
 21
356.4620225157157
 31
0.0
  0
LINE
  5
F6
330
4D
100
AcDbEntity
  8
1
  6
Continuous
 62
     2
100
AcDbLine
 10
82.18399999999997
 20
344.4746655541109
 30
0.0
 11
81.02200000000005
 21
342.4620225157157
 31
0.0
  0
LINE
  5
F7
330
4D
100
AcDbEntity
  8
1
  6
Continuous
 62
     7
100
AcDbLine
 10
81.02200000000005
 20
342.4620225157157
 30
0.0
 11
81.02200000000005
 21
355.3000225157158
 31
0.0
  0
LINE
  5
F8
330
4D
100
AcDbEntity
  8
1
  6
Continuous
 62
     2
100
AcDbLine
 10
82.18399999999997
 20
356.4620225157157
 30
0.0
 11
82.18399999999997
 21
344.4746655541109
 31
0.0
  0
LINE
  5
F9
330
4D
100
AcDbEntity
  8
1
  6
Continuous
 62
     7
100
AcDbLine
 10
100.8159999999999
 20
356.4620225157157
 30
0.0
 11
101.978
 21
355.3000225157158
 31
0.0
  0
LINE
  5
FA
330
4D
100
AcDbEntity
  8
1
  6
Continuous
 62
     2
100
AcDbLine
 10
101.978
 20
342.4620225157157
 30
0.0
 11
100.8159999999999
 21
344.4746655541109
 31
0.0
  0
LINE
  5
FB
330
4D
100
AcDbEntity
  8
1
  6
Continuous
 62
     7
100
AcDbLine
 10
101.978
 20
355.3000225157158
 30
0.0
 11
101.978
 21
342.4620225157157
 31
0.0
  0
LINE
  5
FC
330
4D
100
AcDbEntity
  8
1
  6
Continuous
 62
     2
100
AcDbLine
 10
100.8159999999999
 20
344.4746655541109
 30
0.0
 11
100.8159999999999
 21
356.4620225157157
 31
0.0
  0
LINE
  5
FD
330
4D
100
AcDbEntity
  8
1
  6
Continuous
 62
     7
100
AcDbLine
 10
82.18399999999997
 20
356.4620225157157
 30
0.0
 11
100.8159999999999
 21
356.4620225157157
 31
0.0
  0
LINE
  5
FE
330
4D
100
AcDbEntity
  8
1
  6
PHANTOM
 62
     4
100
AcDbLine
 10
75.49999999999989
 20
290.9620225157157
 30
0.0
 11
107.4999999999999
 21
290.9620225157157
 31
0.0
  0
LINE
  5
FF
330
4D
100
AcDbEntity
  8
1
  6
PHANTOM
 62
     4
100
AcDbLine
 10
72.0
 20
325.9620225157157
 30
0.0
 11
110.9999999999999
 21
325.9620225157157
 31
0.0
  0
LINE
  5
100
330
4D
100
AcDbEntity
  8
1
  6
Continuous
 62
     7
100
AcDbLine
 10
78.49999999999989
 20
261.5775295353789
 30
0.0
 11
78.49999999999989
 21
269.3465154960527
 31
0.0
  0
LINE
  5
101
330
4D
100
AcDbEntity
  8
1
  6
Continuous
 62
     7
100
AcDbLine
 10
104.4999999999999
 20
261.5775295353789
 30
0.0
 11
104.4999999999999
 21
269.3465154960527
 31
0.0
  0
LINE
  5
102
330
4D
100
AcDbEntity
  8
1
  6
Continuous
 62
     7
100
AcDbLine
 10
78.99999999999989
 20
269.9620225157159
 30
0.0
 11
84.21654614781494
 21
269.9620225157159
 31
0.0
  0
LINE
  5
103
330
4D
100
AcDbEntity
  8
1
  6
Continuous
 62
     7
100
AcDbLine
 10
78.99999999999989
 20
260.9620225157157
 30
0.0
 11
88.1833752096446
 21
260.9620225157157
 31
0.0
  0
LINE
  5
104
330
4D
100
AcDbEntity
  8
1
  6
Continuous
 62
     7
100
AcDbLine
 10
79.49999999999989
 20
342.4620225157157
 30
0.0
 11
103.4999999999999
 21
342.4620225157157
 31
0.0
  0
LINE
  5
105
330
4D
100
AcDbEntity
  8
1
  6
Continuous
 62
     7
100
AcDbLine
 10
78.49999999999989
 20
276.3298799376482
 30
0.0
 11
78.49999999999989
 21
285.7377310058971
 31
0.0
  0
LINE
  5
106
330
4D
100
AcDbEntity
  8
1
  6
Continuous
 62
     7
100
AcDbLine
 10
78.99999999999989
 20
272.9620225157157
 30
0.0
 11
78.99999999999989
 21
269.9620225157159
 31
0.0
  0
LINE
  5
107
330
4D
100
AcDbEntity
  8
1
  6
Continuous
 62
     7
100
AcDbLine
 10
103.9999999999999
 20
269.9620225157159
 30
0.0
 11
103.9999999999999
 21
272.9620225157157
 31
0.0
  0
LINE
  5
108
330
4D
100
AcDbEntity
  8
1
  6
PHANTOM
 62
     4
100
AcDbLine
 10
91.49999999999989
 20
359.4620225157157
 30
0.0
 11
91.49999999999989
 21
257.9620225157157
 31
0.0
  0
LINE
  5
109
330
4D
100
AcDbEntity
  8
1
  6
PHANTOM
 62
     4
100
AcDbLine
 10
110.9999999999999
 20
143.4999999999999
 30
0.0
 11
72.00000000000014
 21
143.4999999999999
 31
0.0
  0
LINE
  5
10A
330
4D
100
AcDbEntity
  8
1
  6
Continuous
 62
     7
100
AcDbLine
 10
102.5000000000001
 20
152.1602540378441
 30
0.0
 11
93.49999999999986
 21
157.3564064605509
 31
0.0
  0
LINE
  5
10B
330
4D
100
AcDbEntity
  8
1
  6
Continuous
 62
     7
100
AcDbLine
 10
104.5
 20
138.3038475772932
 30
0.0
 11
104.5
 21
148.6961524227065
 31
0.0
  0
LINE
  5
10C
330
4D
100
AcDbEntity
  8
1
  6
Continuous
 62
     7
100
AcDbLine
 10
89.50000000000009
 20
157.3564064605509
 30
0.0
 11
80.5
 21
152.1602540378442
 31
0.0
  0
LINE
  5
10D
330
4D
100
AcDbEntity
  8
1
  6
Continuous
 62
     7
100
AcDbLine
 10
78.5
 20
148.6961524227065
 30
0.0
 11
78.5
 21
138.3038475772932
 31
0.0
  0
LINE
  5
10E
330
4D
100
AcDbEntity
  8
1
  6
Continuous
 62
     7
100
AcDbLine
 10
80.5
 20
134.8397459621555
 30
0.0
 11
89.5
 21
129.6435935394488
 31
0.0
  0
LINE
  5
10F
330
4D
100
AcDbEntity
  8
1
  6
Continuous
 62
     7
100
AcDbLine
 10
93.49999999999986
 20
129.6435935394488
 30
0.0
 11
102.5
 21
134.8397459621555
 31
0.0
  0
LINE
  5
110
330
4D
100
AcDbEntity
  8
1
  6
Continuous
 62
     7
100
AcDbLine
 10
105.7699524849821
 20
307.696031653336
 30
0.0
 11
107.8630541408479
 21
323.8405939442872
 31
0.0
  0
LINE
  5
111
330
4D
100
AcDbEntity
  8
1
  6
Continuous
 62
     7
100
AcDbLine
 10
104.4999999999999
 20
285.7377310058969
 30
0.0
 11
104.4999999999999
 21
276.3298799376482
 31
0.0
  0
LINE
  5
112
330
4D
100
AcDbEntity
  8
1
  6
Continuous
 62
     7
100
AcDbLine
 10
98.78345385218492
 20
269.9620225157159
 30
0.0
 11
103.9999999999999
 21
269.9620225157159
 31
0.0
  0
LINE
  5
113
330
4D
100
AcDbEntity
  8
1
  6
Continuous
 62
     7
100
AcDbLine
 10
94.81662479035519
 20
260.9620225157157
 30
0.0
 11
103.9999999999999
 21
260.9620225157157
 31
0.0
  0
LINE
  5
114
330
4D
100
AcDbEntity
  8
1
  6
Continuous
 62
     7
100
AcDbLine
 10
103.4999999999999
 20
180.9296912881848
 30
0.0
 11
103.4999999999998
 21
177.6149170214379
 31
0.0
  0
LINE
  5
115
330
4D
100
AcDbEntity
  8
1
  6
Continuous
 62
     2
100
AcDbLine
 10
102.687
 20
180.9296912881848
 30
0.0
 11
102.687
 21
179.5
 31
0.0
  0
LINE
  5
116
330
4D
100
AcDbEntity
  8
1
  6
Continuous
 62
     7
100
AcDbLine
 10
79.50000000000014
 20
180.9296912881848
 30
0.0
 11
79.50000000000027
 21
177.6149170214379
 31
0.0
  0
LINE
  5
117
330
4D
100
AcDbEntity
  8
1
  6
Continuous
 62
     7
100
AcDbLine
 10
79.50000000000027
 20
177.6149170214379
 30
0.0
 11
103.4999999999998
 21
177.6149170214379
 31
0.0
  0
LINE
  5
118
330
4D
100
AcDbEntity
  8
1
  6
Continuous
 62
     7
100
AcDbLine
 10
103.4999999999998
 20
177.6149170214379
 30
0.0
 11
103.4999999999997
 21
173.5
 31
0.0
  0
LINE
  5
119
330
4D
100
AcDbEntity
  8
1
  6
Continuous
 62
     7
100
AcDbLine
 10
79.50000000000027
 20
177.6149170214379
 30
0.0
 11
79.50000000000043
 21
173.5
 31
0.0
  0
LINE
  5
11A
330
4D
100
AcDbEntity
  8
1
  6
Continuous
 62
     7
100
AcDbLine
 10
189.2246468348824
 20
177.6149170214379
 30
0.0
 11
213.5
 21
177.6149170214379
 31
0.0
  0
LINE
  5
11B
330
4D
100
AcDbEntity
  8
1
  6
Continuous
 62
     7
100
AcDbLine
 10
213.5
 20
177.6149170214379
 30
0.0
 11
213.5
 21
181.0
 31
0.0
  0
LINE
  5
11C
330
4D
100
AcDbEntity
  8
1
  6
Continuous
 62
     2
100
AcDbLine
 10
212.6870000000001
 20
181.0
 30
0.0
 11
212.6870000000001
 21
179.4999999999999
 31
0.0
  0
LINE
  5
11D
330
4D
100
AcDbEntity
  8
1
  6
Continuous
 62
     7
100
AcDbLine
 10
189.5
 20
181.0
 30
0.0
 11
189.5
 21
178.0918426934464
 31
0.0
  0
ARC
  5
11E
330
4D
100
AcDbEntity
  8
1
  6
Continuous
 62
     7
100
AcDbCircle
 10
176.0000000000001
 20
135.9107142857145
 30
0.0
 40
6.660714285714524
100
AcDbArc
 50
227.4989889857341
 51
312.5010110142657
  0
ARC
  5
11F
330
4D
100
AcDbEntity
  8
1
  6
Continuous
 62
     7
100
AcDbCircle
 10
176.0000000000001
 20
151.0892857142854
 30
0.0
 40
6.660714285714568
100
AcDbArc
 50
47.49898898573475
 51
132.5010110142654
  0
ARC
  5
120
330
4D
100
AcDbEntity
  8
1
  6
Continuous
 62
     7
100
AcDbCircle
 10
192.3478755190368
 20
179.0043028557785
 30
0.0
 40
48.81288757971274
100
AcDbArc
 50
259.556778670838
 51
263.5540541807946
  0
ARC
  5
121
330
4D
100
AcDbEntity
  8
1
  6
Continuous
 62
     7
100
AcDbCircle
 10
264.0000000000001
 20
143.4999999999998
 30
0.0
 40
18.00000000000004
100
AcDbArc
 50
131.810314895779
 51
167.1604115930959
  0
ARC
  5
122
330
4D
100
AcDbEntity
  8
1
  6
Continuous
 62
     7
100
AcDbCircle
 10
91.50000000000145
 20
146.9999999999976
 30
0.0
 40
16.49999999999845
100
AcDbArc
 50
286.3077499286593
 51
359.9999999999993
  0
ARC
  5
123
330
4D
100
AcDbEntity
  8
1
  6
Continuous
 62
     7
100
AcDbCircle
 10
91.49999999999997
 20
325.9620225157158
 30
0.0
 40
16.49999999999994
100
AcDbArc
 50
90.0000000000003
 51
187.3870484363017
  0
ARC
  5
124
330
4D
100
AcDbEntity
  8
1
  6
Continuous
 62
     7
100
AcDbCircle
 10
48.59527715827232
 20
343.8906241866363
 30
0.0
 40
29.99999999999988
100
AcDbArc
 50
337.3214074986959
 51
355.5067304158519
  0
ARC
  5
125
330
4D
100
AcDbEntity
  8
1
  6
Continuous
 62
     7
100
AcDbCircle
 10
91.49999999999997
 20
325.9620225157158
 30
0.0
 40
16.49999999999981
100
AcDbArc
 50
352.6129515636982
 51
90.0000000000003
  0
ARC
  5
126
330
4D
100
AcDbEntity
  8
1
  6
Continuous
 62
     7
100
AcDbCircle
 10
134.4047228417275
 20
343.8906241866363
 30
0.0
 40
30.00000000000001
100
AcDbArc
 50
184.4932695841481
 51
202.6785925013041
  0
ARC
  5
127
330
4D
100
AcDbEntity
  8
1
  6
Continuous
 62
     7
100
AcDbCircle
 10
83.91071428571433
 20
265.4620225157158
 30
0.0
 40
6.660714285714483
100
AcDbArc
 50
137.4989889857338
 51
144.3244470960527
  0
ARC
  5
128
330
4D
100
AcDbEntity
  8
1
  6
Continuous
 62
     7
100
AcDbCircle
 10
99.08928571428544
 20
265.4620225157158
 30
0.0
 40
6.660714285714454
100
AcDbArc
 50
317.4989889857342
 51
324.3244470960532
  0
ARC
  5
129
330
4D
100
AcDbEntity
  8
1
  6
Continuous
 62
     7
100
AcDbCircle
 10
83.91071428571433
 20
265.4620225157158
 30
0.0
 40
6.660714285714464
100
AcDbArc
 50
215.6755529039469
 51
222.5010110142659
  0
ARC
  5
12A
330
4D
100
AcDbEntity
  8
1
  6
Continuous
 62
     7
100
AcDbCircle
 10
99.08928571428544
 20
265.4620225157158
 30
0.0
 40
6.660714285714509
100
AcDbArc
 50
35.67555290394727
 51
42.50101101426618
  0
ARC
  5
12B
330
4D
100
AcDbEntity
  8
1
  6
Continuous
 62
     7
100
AcDbCircle
 10
127.0043028557784
 20
281.8098980347525
 30
0.0
 40
48.81288757971275
100
AcDbArc
 50
186.4459458192055
 51
190.443221329162
  0
ARC
  5
12C
330
4D
100
AcDbEntity
  8
1
  6
Continuous
 62
     7
100
AcDbCircle
 10
55.99569714422125
 20
281.8098980347525
 30
0.0
 40
48.81288757971289
100
AcDbArc
 50
349.556778670838
 51
353.5540541807945
  0
ARC
  5
12D
330
4D
100
AcDbEntity
  8
1
  6
Continuous
 62
     7
100
AcDbCircle
 10
91.5
 20
143.4999999999999
 30
0.0
 40
13.99999999999999
100
AcDbArc
 50
21.78678929826171
 51
38.21321070173742
  0
ARC
  5
12E
330
4D
100
AcDbEntity
  8
1
  6
Continuous
 62
     7
100
AcDbCircle
 10
91.5
 20
143.4999999999999
 30
0.0
 40
14.0
100
AcDbArc
 50
90.0
 51
98.21321070173786
  0
ARC
  5
12F
330
4D
100
AcDbEntity
  8
1
  6
Continuous
 62
     7
100
AcDbCircle
 10
91.5
 20
143.4999999999999
 30
0.0
 40
13.99999999999996
100
AcDbArc
 50
81.78678929826239
 51
90.0
  0
ARC
  5
130
330
4D
100
AcDbEntity
  8
1
  6
Continuous
 62
     7
100
AcDbCircle
 10
91.5
 20
143.4999999999999
 30
0.0
 40
13.99999999999995
100
AcDbArc
 50
141.7867892982621
 51
158.2132107017383
  0
ARC
  5
131
330
4D
100
AcDbEntity
  8
1
  6
Continuous
 62
     7
100
AcDbCircle
 10
91.5
 20
143.4999999999999
 30
0.0
 40
14.00000000000002
100
AcDbArc
 50
201.786789298262
 51
218.2132107017382
  0
ARC
  5
132
330
4D
100
AcDbEntity
  8
1
  6
Continuous
 62
     7
100
AcDbCircle
 10
91.5
 20
143.4999999999999
 30
0.0
 40
14.00000000000007
100
AcDbArc
 50
261.7867892982619
 51
278.2132107017375
  0
ARC
  5
133
330
4D
100
AcDbEntity
  8
1
  6
Continuous
 62
     7
100
AcDbCircle
 10
91.5
 20
143.4999999999999
 30
0.0
 40
14.00000000000001
100
AcDbArc
 50
321.7867892982617
 51
338.213210701738
  0
ARC
  5
134
330
4D
100
AcDbEntity
  8
1
  6
Continuous
 62
     7
100
AcDbCircle
 10
91.50000000000145
 20
146.9999999999976
 30
0.0
 40
16.50000000000131
100
AcDbArc
 50
180.0000000000007
 51
253.6922500713191
  0
CIRCLE
  5
135
330
4D
100
AcDbEntity
  8
1
  6
Continuous
 62
     7
100
AcDbCircle
 10
91.5
 20
143.4999999999999
 30
0.0
 40
9.299930586468207
  0
CIRCLE
  5
136
330
4D
100
AcDbEntity
  8
1
  6
Continuous
 62
     2
100
AcDbCircle
 10
91.5
 20
143.4999999999999
 30
0.0
 40
10.5
  0
CIRCLE
  5
137
330
4D
100
AcDbEntity
  8
1
  6
Continuous
 62
     7
100
AcDbCircle
 10
91.5
 20
143.4999999999999
 30
0.0
 40
12.5
  0
SPLINE
  5
138
330
4D
100
AcDbEntity
  8
1
  6
Continuous
 62
     7
100
AcDbSpline
210
0.0
220
0.0
230
1.0
 70
    11
 71
     3
 72
    79
 73
    75
 74
    73
 42
0.000000001
 43
0.0000000001
 44
0.00000001
 40
0.0
 40
0.0
 40
0.0
 40
0.0
 40
0.2583837536871136
 40
0.5166913546707859
 40
0.7831844193671034
 40
1.049555386953064
 40
1.328004082963133
 40
1.60632193244352
 40
1.898781357273884
 40
2.191125681786283
 40
2.497811241554808
 40
2.804406907791926
 40
3.123898753731002
 40
3.443326616223815
 40
3.772897943108189
 40
4.102428789158618
 40
4.438416656959372
 40
4.774385012087561
 40
5.112567271841974
 40
5.450749531591505
 40
5.786717886704814
 40
6.122705754479922
 40
6.452236600493023
 40
6.781807927325812
 40
7.101235789752015
 40
7.420727635604232
 40
7.727323301734326
 40
8.034008861366173
 40
8.326353185713467
 40
8.618812610334967
 40
8.897130459561943
 40
9.175579155243684
 40
9.441950122395413
 40
9.70844318640034
 40
9.966750785605472
 40
10.22513454749843
 40
10.48061439604082
 40
10.73609424458194
 40
10.99447800647133
 40
11.25278560567069
 40
11.51927866966772
 40
11.78564963680998
 40
12.06409833248056
 40
12.34241618169534
 40
12.63487560630351
 40
12.92721993063712
 40
13.23390549025447
 40
13.54050115636997
 40
13.8599930022071
 40
14.17942086461862
 40
14.50899219143648
 40
14.83852303743492
 40
15.17451090519534
 40
15.51047926029428
 40
15.8486615200296
 40
16.18684377976999
 40
16.52281213488447
 40
16.85880000267153
 40
17.18833084870846
 40
17.51790217557902
 40
17.83733003805807
 40
18.15682188398239
 40
18.46341755020416
 40
18.77010310995506
 40
19.06244743444709
 40
19.35490685925081
 40
19.63322470869387
 40
19.91167340464264
 40
20.17804437211036
 40
20.4445374365079
 40
20.70284503621444
 40
20.96122879885361
 40
21.21670864924081
 40
21.47218848966234
 40
21.47218848966234
 40
21.47218848966234
 40
21.47218848966234
 10
172.1304894864652
 20
132.4967099021224
 30
0.0
 10
172.1433201610099
 20
132.5819773061387
 30
0.0
 10
172.1689777216178
 20
132.7524869846725
 30
0.0
 10
172.2454251416987
 20
133.0029861534176
 30
0.0
 10
172.3476107089054
 20
133.2465424847505
 30
0.0
 10
172.4793460340192
 20
133.4833351479663
 30
0.0
 10
172.6364095334397
 20
133.7088606442368
 30
0.0
 10
172.8204635007982
 20
133.9244844019145
 30
0.0
 10
173.0268687165309
 20
134.1254879590029
 30
0.0
 10
173.2574551900604
 20
134.3134929728737
 30
0.0
 10
173.5068061525681
 20
134.4842594732133
 30
0.0
 10
173.7767662051824
 20
134.6391321153924
 30
0.0
 10
174.061589264274
 20
134.7747757947656
 30
0.0
 10
174.3626699478929
 20
134.8920175392367
 30
0.0
 10
174.674505889597
 20
134.9885884725625
 30
0.0
 10
174.9975815570573
 20
135.0648221414889
 30
0.0
 10
175.3271656023452
 20
135.1194432624868
 30
0.0
 10
175.6624934474749
 20
135.1525080474898
 30
0.0
 10
175.999999990164
 20
135.1634941863791
 30
0.0
 10
176.337506532862
 20
135.1525080476634
 30
0.0
 10
176.672834377969
 20
135.119443262834
 30
0.0
 10
177.0024184233507
 20
135.0648221420293
 30
0.0
 10
177.3254940904875
 20
134.9885884732568
 30
0.0
 10
177.6373300334124
 20
134.8920175402782
 30
0.0
 10
177.9384107126533
 20
134.7747757955132
 30
0.0
 10
178.2232337878245
 20
134.6391321182676
 30
0.0
 10
178.4931937828257
 20
134.4842594695819
 30
0.0
 10
178.7425449553318
 20
134.3134929942036
 30
0.0
 10
178.9731306801542
 20
134.1254878926837
 30
0.0
 10
179.1795386183672
 20
133.924484655833
 30
0.0
 10
179.3635828919077
 20
133.7088597595761
 30
0.0
 10
179.5206816871703
 20
133.4833384109227
 30
0.0
 10
179.6522907004862
 20
133.246530907147
 30
0.0
 10
179.7549386646135
 20
133.0030289069577
 30
0.0
 10
179.8297105113263
 20
132.7523328626075
 30
0.0
 10
179.8742452725839
 20
132.4982414647747
 30
0.0
 10
179.8895878636579
 20
132.2416697512799
 30
0.0
 10
179.8742452726002
 20
131.9850980377853
 30
0.0
 10
179.8297105113588
 20
131.7310066399533
 30
0.0
 10
179.754938664662
 20
131.4803105956043
 30
0.0
 10
179.6522907005507
 20
131.2368085954166
 30
0.0
 10
179.5206816872501
 20
131.0000010916432
 30
0.0
 10
179.3635828920026
 20
130.7744797429926
 30
0.0
 10
179.1795386184769
 20
130.558854846739
 30
0.0
 10
178.9731306802783
 20
130.3578516098924
 30
0.0
 10
178.7425449554697
 20
130.1698465083772
 30
0.0
 10
178.493193782977
 20
129.9990800330043
 30
0.0
 10
178.2232337879894
 20
129.8442073843248
 30
0.0
 10
177.9384107128311
 20
129.7085637070863
 30
0.0
 10
177.6373300336032
 20
129.5913219623291
 30
0.0
 10
177.3254940906909
 20
129.4947510293593
 30
0.0
 10
177.0024184235669
 20
129.4185173605966
 30
0.0
 10
176.6728343781982
 20
129.3638962398028
 30
0.0
 10
176.3375065331041
 20
129.3308314549852
 30
0.0
 10
175.9999999904214
 20
129.3198453162828
 30
0.0
 10
175.6624934477406
 20
129.3308314551854
 30
0.0
 10
175.3271656026489
 20
129.3638962402065
 30
0.0
 10
174.9975815572939
 20
129.4185173612091
 30
0.0
 10
174.6745058901574
 20
129.4947510301934
 30
0.0
 10
174.3626699473473
 20
129.5913219633837
 30
0.0
 10
174.0615892678274
 20
129.7085637084245
 30
0.0
 10
173.776766193844
 20
129.8442073857916
 30
0.0
 10
173.5068061947793
 20
129.9990800352402
 30
0.0
 10
173.2574550373238
 20
130.1698465091585
 30
0.0
 10
173.0268692591256
 20
130.3578516172892
 30
0.0
 10
172.8204615153532
 20
130.5588548316602
 30
0.0
 10
172.6364165498994
 20
130.7744798096201
 30
0.0
 10
172.4793202744703
 20
131.0000008626406
 30
0.0
 10
172.3477022441636
 20
131.2368094263778
 30
0.0
 10
172.2450872898751
 20
131.4803075485785
 30
0.0
 10
172.1701958273529
 20
131.7310176480977
 30
0.0
 10
172.1261030104407
 20
131.9850571201262
 30
0.0
 10
172.1091284144642
 20
132.2418205872549
 30
0.0
 10
172.1233691316189
 20
132.4117467980974
 30
0.0
 10
172.1304894864652
 20
132.4967099021224
 30
0.0
 11
172.1304894864652
 21
132.4967099021224
 31
0.0
 11
172.1751776367803
 21
132.7511998581452
 31
0.0
 11
172.2486369301932
 21
132.9988418337857
 31
0.0
 11
172.3520533899326
 21
133.2444504433615
 31
0.0
 11
172.4810884738405
 21
133.4774814269995
 31
0.0
 11
172.6400441467488
 21
133.7061006961981
 31
0.0
 11
172.8204394124455
 21
133.9180402474291
 31
0.0
 11
173.0297504928021
 21
134.1222983849687
 31
0.0
 11
173.2561259330827
 21
134.3072831520952
 31
0.0
 11
173.5089904547166
 21
134.4808215231707
 31
0.0
 11
173.7748083727587
 21
134.6336015512498
 31
0.0
 11
174.0631486991751
 21
134.7712056782478
 31
0.0
 11
174.3607431908252
 21
134.8872732355847
 31
0.0
 11
174.6755062291738
 21
134.9849537822075
 31
0.0
 11
174.9962071599678
 21
135.060726412395
 31
0.0
 11
175.3276537858373
 21
135.1157807629187
 31
0.0
 11
175.6619983840841
 21
135.1487720538404
 31
0.0
 11
176.0000000000001
 21
135.1598241332843
 31
0.0
 11
176.3380016159161
 21
135.1487720538404
 31
0.0
 11
176.6723462141628
 21
135.1157807629187
 31
0.0
 11
177.0037928400325
 21
135.060726412395
 31
0.0
 11
177.3244937708265
 21
134.9849537822076
 31
0.0
 11
177.639256809175
 21
134.8872732355847
 31
0.0
 11
177.936851300825
 21
134.7712056782478
 31
0.0
 11
178.2251916272414
 21
134.6336015512498
 31
0.0
 11
178.4910095452836
 21
134.4808215231707
 31
0.0
 11
178.7438740669175
 21
134.3072831520952
 31
0.0
 11
178.9702495071981
 21
134.1222983849688
 31
0.0
 11
179.1795605875547
 21
133.9180402474291
 31
0.0
 11
179.3599558532514
 21
133.7061006961981
 31
0.0
 11
179.5189115261597
 21
133.4774814269995
 31
0.0
 11
179.6479466100675
 21
133.2444504433615
 31
0.0
 11
179.751363069807
 21
132.9988418337857
 31
0.0
 11
179.8248223632199
 21
132.7511998581452
 31
0.0
 11
179.869510513535
 21
132.4967099021224
 31
0.0
 11
179.8844929803371
 21
132.2416697508022
 31
0.0
 11
179.869510513535
 21
131.986629599482
 31
0.0
 11
179.8248223632199
 21
131.7321396434592
 31
0.0
 11
179.751363069807
 21
131.4844976678187
 31
0.0
 11
179.6479466100675
 21
131.238889058243
 31
0.0
 11
179.5189115261597
 21
131.005858074605
 31
0.0
 11
179.3599558532515
 21
130.7772388054064
 31
0.0
 11
179.1795605875549
 21
130.5652992541754
 31
0.0
 11
178.9702495071982
 21
130.3610411166357
 31
0.0
 11
178.7438740669176
 21
130.1760563495093
 31
0.0
 11
178.4910095452837
 21
130.0025179784338
 31
0.0
 11
178.2251916272415
 21
129.8497379503548
 31
0.0
 11
177.9368513008251
 21
129.7121338233568
 31
0.0
 11
177.639256809175
 21
129.5960662660198
 31
0.0
 11
177.3244937708264
 21
129.4983857193969
 31
0.0
 11
177.0037928400324
 21
129.4226130892095
 31
0.0
 11
176.6723462141628
 21
129.3675587386858
 31
0.0
 11
176.3380016159161
 21
129.3345674477641
 31
0.0
 11
176.0000000000001
 21
129.3235153683201
 31
0.0
 11
175.6619983840841
 21
129.3345674477641
 31
0.0
 11
175.3276537858373
 21
129.3675587386857
 31
0.0
 11
174.9962071599677
 21
129.4226130892094
 31
0.0
 11
174.6755062291737
 21
129.4983857193969
 31
0.0
 11
174.3607431908252
 21
129.5960662660198
 31
0.0
 11
174.0631486991751
 21
129.7121338233567
 31
0.0
 11
173.7748083727587
 21
129.8497379503548
 31
0.0
 11
173.5089904547166
 21
130.0025179784338
 31
0.0
 11
173.2561259330827
 21
130.1760563495093
 31
0.0
 11
173.0297504928021
 21
130.3610411166357
 31
0.0
 11
172.8204394124454
 21
130.5652992541754
 31
0.0
 11
172.6400441467487
 21
130.7772388054065
 31
0.0
 11
172.4810884738404
 21
131.0058580746051
 31
0.0
 11
172.3520533899326
 21
131.238889058243
 31
0.0
 11
172.2486369301932
 21
131.4844976678188
 31
0.0
 11
172.1751776367803
 21
131.7321396434592
 31
0.0
 11
172.1304894864653
 21
131.986629599482
 31
0.0
 11
172.1155070196631
 21
132.2416697508022
 31
0.0
 11
172.1304894864652
 21
132.4967099021224
 31
0.0
  0
SPLINE
  5
139
330
4D
100
AcDbEntity
  8
1
  6
Continuous
 62
     7
100
AcDbSpline
210
0.0
220
0.0
230
1.0
 70
    11
 71
     3
 72
    79
 73
    75
 74
    73
 42
0.000000001
 43
0.0000000001
 44
0.00000001
 40
0.0
 40
0.0
 40
0.0
 40
0.0
 40
0.3470845887344385
 40
0.6939659986528525
 40
1.058285219158318
 40
1.42230584641497
 40
1.811536744129023
 40
2.200483355820826
 40
2.618302794153905
 40
3.035899617579148
 40
3.482197747022185
 40
3.928337885435584
 40
4.399874910918384
 40
4.871307244057528
 40
5.362481205893535
 40
5.853592077365745
 40
6.357174413119164
 40
6.860727180023908
 40
7.368540113715097
 40
7.876353047404323
 40
8.379905814302981
 40
8.883488150045155
 40
9.374599021499783
 40
9.86577298330899
 40
10.3372053164103
 40
10.80874234183874
 40
11.25488248017963
 40
11.70118060952185
 40
12.11877743281742
 40
12.53659687097338
 40
12.92554348244034
 40
13.31477437984442
 40
13.67879500667818
 40
14.04311422647931
 40
14.38999563442825
 40
14.73708023084252
 40
15.07789906476091
 40
15.41871789867812
 40
15.76580249508898
 40
16.11268390303236
 40
16.477003122826
 40
16.84102374965094
 40
17.2302546470448
 40
17.61920125850108
 40
18.03702069664547
 40
18.45461751992964
 40
18.90091564925992
 40
19.34705578758929
 40
19.81859281300607
 40
20.29002514609641
 40
20.78119910789482
 40
21.27230997933924
 40
21.77589231507167
 40
22.2794450819612
 40
22.78725801564195
 40
23.29507094932526
 40
23.79862371622287
 40
24.30220605196974
 40
24.79331692343612
 40
25.2844908852667
 40
25.75592321840091
 40
26.22746024387855
 40
26.67360038228643
 40
27.11989851172243
 40
27.53749533513807
 40
27.9553147734554
 40
28.34426138512092
 40
28.73349228278399
 40
29.09751290993206
 40
29.46183213013855
 40
29.80871353861101
 40
30.15579813580868
 40
30.496616971784
 40
30.83743579819371
 40
30.83743579819371
 40
30.83743579819371
 40
30.83743579819371
 10
175.6599360959402
 20
149.3136367820172
 30
0.0
 10
175.5457109594146
 20
149.2942095578596
 30
0.0
 10
175.3173275507927
 20
149.2553664900047
 30
0.0
 10
174.9826578723725
 20
149.1394747873435
 30
0.0
 10
174.658351828016
 20
148.9854190080612
 30
0.0
 10
174.3424766081963
 20
148.7863870991586
 30
0.0
 10
174.0429977862474
 20
148.550207057948
 30
0.0
 10
173.7558008120241
 20
148.2728474033493
 30
0.0
 10
173.4892621757375
 20
147.9630447967848
 30
0.0
 10
173.2390989076227
 20
147.6161290560863
 30
0.0
 10
173.0127303527262
 20
147.2421714486931
 30
0.0
 10
172.8067676643109
 20
146.8364094258799
 30
0.0
 10
172.6269178181542
 20
146.4093154351359
 30
0.0
 10
172.471047708788
 20
145.9570433940297
 30
0.0
 10
172.3429564054637
 20
145.4893658949966
 30
0.0
 10
172.2416214883241
 20
145.0042491866952
 30
0.0
 10
172.1691548223872
 20
144.509817946853
 30
0.0
 10
172.1251943302907
 20
144.0064675755699
 30
0.0
 10
172.1106429633811
 20
143.5000000099228
 30
0.0
 10
172.1251943302254
 20
142.9935324442613
 30
0.0
 10
172.1691548222593
 20
142.4901820730225
 30
0.0
 10
172.2416214880989
 20
141.995750833022
 30
0.0
 10
172.3429564052271
 20
141.5106341253007
 30
0.0
 10
172.471047708163
 20
141.0429566241455
 30
0.0
 10
172.6269178184192
 20
140.590684590654
 30
0.0
 10
172.8067676607302
 20
140.163590572231
 30
0.0
 10
173.0127303620428
 20
139.7578286473992
 30
0.0
 10
173.239098869499
 20
139.3838706862346
 30
0.0
 10
173.4892623028261
 20
139.0369561851232
 30
0.0
 10
173.7558003437378
 20
138.727149120764
 30
0.0
 10
174.0429993930128
 20
138.4498050136306
 30
0.0
 10
174.3424707470828
 20
138.2135690322868
 30
0.0
 10
174.6583721290144
 20
138.014733114245
 30
0.0
 10
174.9825833894786
 20
137.859967296721
 30
0.0
 10
175.3175908357818
 20
137.746605877879
 30
0.0
 10
175.6568966875558
 20
137.6793923750893
 30
0.0
 10
175.9999999995843
 20
137.655912186803
 30
0.0
 10
176.3431033116127
 20
137.6793923750766
 30
0.0
 10
176.6824091633858
 20
137.7466058778536
 30
0.0
 10
177.0174166096874
 20
137.8599672966834
 30
0.0
 10
177.3416278701493
 20
138.0147331141954
 30
0.0
 10
177.6575292520777
 20
138.2135690322256
 30
0.0
 10
177.9570006061438
 20
138.4498050135585
 30
0.0
 10
178.2441996554142
 20
138.7271491206812
 30
0.0
 10
178.5107376963203
 20
139.0369561850304
 30
0.0
 10
178.7609011296412
 20
139.3838706861321
 30
0.0
 10
178.9872696370898
 20
139.7578286472877
 30
0.0
 10
179.1932323383939
 20
140.1635905721108
 30
0.0
 10
179.373082180695
 20
140.5906845905256
 30
0.0
 10
179.5289522909403
 20
141.0429566240092
 30
0.0
 10
179.6570435938635
 20
141.5106341251567
 30
0.0
 10
179.7583785109777
 20
141.9957508328707
 30
0.0
 10
179.8308451768009
 20
142.4901820728635
 30
0.0
 10
179.8748056688171
 20
142.9935324440955
 30
0.0
 10
179.8893570356409
 20
143.5000000097464
 30
0.0
 10
179.8748056687107
 20
144.0064675753956
 30
0.0
 10
179.8308451765834
 20
144.5098179466297
 30
0.0
 10
179.7583785106427
 20
145.004249186609
 30
0.0
 10
179.6570435933912
 20
145.4893658943603
 30
0.0
 10
179.5289522903398
 20
145.9570433953506
 30
0.0
 10
179.3730821798525
 20
146.4093154293663
 30
0.0
 10
179.1932323376205
 20
146.8364094457978
 30
0.0
 10
178.9872696351619
 20
147.2421713775704
 30
0.0
 10
178.7609011308176
 20
147.61612931353
 30
0.0
 10
178.5107376854311
 20
147.9630439027733
 30
0.0
 10
178.2441996865261
 20
148.2728506499467
 30
0.0
 10
177.9570004892326
 20
148.5501958630186
 30
0.0
 10
177.6575296659657
 20
148.7864278647539
 30
0.0
 10
177.341626422367
 20
148.9852777251603
 30
0.0
 10
177.0174219040621
 20
149.1399930313923
 30
0.0
 10
176.6823904287874
 20
149.2535344508629
 30
0.0
 10
176.3431728333096
 20
149.3200867971802
 30
0.0
 10
175.9997456992165
 20
149.3459928153983
 30
0.0
 10
175.7732059628628
 20
149.3244221235648
 30
0.0
 10
175.6599360959402
 20
149.3136367820172
 30
0.0
 11
175.6599360959402
 21
149.3136367820172
 31
0.0
 11
175.3194932853529
 21
149.2460615654897
 31
0.0
 11
174.9906458468547
 21
149.1356710157692
 31
0.0
 11
174.6617193798172
 21
148.9790317062327
 31
0.0
 11
174.353199570029
 21
148.7858309199754
 31
0.0
 11
174.0472186724274
 21
148.5452558134551
 31
0.0
 11
173.7669411612649
 21
148.2755819671599
 31
0.0
 11
173.4939190158497
 21
147.9593036228519
 31
0.0
 11
173.249219021081
 21
147.6209118093589
 31
0.0
 11
173.0175672272699
 21
147.2394416706505
 31
0.0
 11
172.8152725181575
 21
146.8418012882173
 31
0.0
 11
172.6318055269556
 21
146.4074200852149
 31
0.0
 11
172.4779430849593
 21
145.9618027677091
 31
0.0
 11
172.3478417218418
 21
145.4881726418785
 31
0.0
 11
172.2472807081575
 21
145.007467565348
 31
0.0
 11
172.1740256546549
 21
144.509241847406
 31
0.0
 11
172.1301917095381
 21
144.0076005668934
 31
0.0
 11
172.1155070196631
 21
143.4999999999999
 31
0.0
 11
172.1301917095381
 21
142.9923994331064
 31
0.0
 11
172.1740256546548
 21
142.4907581525937
 31
0.0
 11
172.2472807081575
 21
141.9925324346518
 31
0.0
 11
172.3478417218419
 21
141.5118273581212
 31
0.0
 11
172.4779430849593
 21
141.0381972322906
 31
0.0
 11
172.6318055269555
 21
140.5925799147849
 31
0.0
 11
172.8152725181574
 21
140.1581987117825
 31
0.0
 11
173.0175672272698
 21
139.7605583293494
 31
0.0
 11
173.249219021081
 21
139.379088190641
 31
0.0
 11
173.4939190158497
 21
139.0406963771479
 31
0.0
 11
173.7669411612648
 21
138.7244180328398
 31
0.0
 11
174.0472186724273
 21
138.4547441865445
 31
0.0
 11
174.3531995700289
 21
138.2141690800243
 31
0.0
 11
174.6617193798172
 21
138.020968293767
 31
0.0
 11
174.9906458468548
 21
137.8643289842306
 31
0.0
 11
175.319493285353
 21
137.75393843451
 31
0.0
 11
175.6599360959403
 21
137.6863632179825
 31
0.0
 11
176.0000000000001
 21
137.6636912350355
 31
0.0
 11
176.34006390406
 21
137.6863632179825
 31
0.0
 11
176.6805067146473
 21
137.75393843451
 31
0.0
 11
177.0093541531455
 21
137.8643289842306
 31
0.0
 11
177.338280620183
 21
138.020968293767
 31
0.0
 11
177.6468004299713
 21
138.2141690800243
 31
0.0
 11
177.9527813275729
 21
138.4547441865445
 31
0.0
 11
178.2330588387353
 21
138.7244180328398
 31
0.0
 11
178.5060809841505
 21
139.0406963771479
 31
0.0
 11
178.7507809789192
 21
139.379088190641
 31
0.0
 11
178.9824327727304
 21
139.7605583293494
 31
0.0
 11
179.1847274818427
 21
140.1581987117826
 31
0.0
 11
179.3681944730446
 21
140.5925799147848
 31
0.0
 11
179.5220569150409
 21
141.0381972322906
 31
0.0
 11
179.6521582781584
 21
141.5118273581212
 31
0.0
 11
179.7527192918427
 21
141.9925324346518
 31
0.0
 11
179.8259743453454
 21
142.4907581525937
 31
0.0
 11
179.8698082904621
 21
142.9923994331064
 31
0.0
 11
179.8844929803371
 21
143.4999999999999
 31
0.0
 11
179.8698082904621
 21
144.0076005668934
 31
0.0
 11
179.8259743453454
 21
144.509241847406
 31
0.0
 11
179.7527192918427
 21
145.007467565348
 31
0.0
 11
179.6521582781584
 21
145.4881726418785
 31
0.0
 11
179.5220569150409
 21
145.9618027677091
 31
0.0
 11
179.3681944730446
 21
146.4074200852149
 31
0.0
 11
179.1847274818428
 21
146.8418012882173
 31
0.0
 11
178.9824327727305
 21
147.2394416706505
 31
0.0
 11
178.7507809789192
 21
147.6209118093589
 31
0.0
 11
178.5060809841505
 21
147.9593036228519
 31
0.0
 11
178.2330588387353
 21
148.27558196716
 31
0.0
 11
177.9527813275728
 21
148.5452558134553
 31
0.0
 11
177.6468004299712
 21
148.7858309199755
 31
0.0
 11
177.338280620183
 21
148.9790317062328
 31
0.0
 11
177.0093541531454
 21
149.1356710157692
 31
0.0
 11
176.6805067146473
 21
149.2460615654897
 31
0.0
 11
176.34006390406
 21
149.3136367820172
 31
0.0
 11
176.0000000000002
 21
149.3363087649642
 31
0.0
 11
175.6599360959402
 21
149.3136367820172
 31
0.0
  0
SPLINE
  5
13A
330
4D
100
AcDbEntity
  8
1
  6
Continuous
 62
     7
100
AcDbSpline
210
0.0
220
0.0
230
1.0
 70
    11
 71
     3
 72
    79
 73
    75
 74
    73
 42
0.000000001
 43
0.0000000001
 44
0.00000001
 40
0.0
 40
0.0
 40
0.0
 40
0.0
 40
0.2583837536871136
 40
0.5166913546708131
 40
0.783184419367078
 40
1.049555386953039
 40
1.328004082963131
 40
1.606321932443496
 40
1.89878135727388
 40
2.191125681786261
 40
2.497811241554786
 40
2.804406907791904
 40
3.123898753730955
 40
3.44332661622379
 40
3.772897943108172
 40
4.102428789158594
 40
4.438416656959348
 40
4.774385012087542
 40
5.112567271841956
 40
5.450749531591487
 40
5.786717886704804
 40
6.122705754479912
 40
6.452236600493019
 40
6.781807927325809
 40
7.101235789752022
 40
7.420727635604226
 40
7.727323301734306
 40
8.034008861366138
 40
8.326353185713467
 40
8.618812610334945
 40
8.8971304595619
 40
9.175579155243687
 40
9.441950122395392
 40
9.708443186400265
 40
9.966750785605425
 40
10.22513454749836
 40
10.48061439604077
 40
10.73609424458195
 40
10.99447800647134
 40
11.25278560567067
 40
11.5192786696677
 40
11.78564963680996
 40
12.06409833248054
 40
12.3424161816953
 40
12.63487560630349
 40
12.9272199306371
 40
13.23390549025445
 40
13.54050115636995
 40
13.85999300220709
 40
14.1794208646186
 40
14.50899219143647
 40
14.83852303743491
 40
15.17451090519533
 40
15.51047926029426
 40
15.84866152002959
 40
16.18684377976997
 40
16.52281213488446
 40
16.85880000267151
 40
17.18833084870845
 40
17.51790217557902
 40
17.83733003805806
 40
18.15682188398238
 40
18.46341755020413
 40
18.77010310995504
 40
19.06244743444707
 40
19.3549068592508
 40
19.63322470869384
 40
19.91167340464263
 40
20.17804437211038
 40
20.44453743650789
 40
20.70284503621446
 40
20.96122879885356
 40
21.21670864924079
 40
21.47218848966236
 40
21.47218848966236
 40
21.47218848966236
 40
21.47218848966236
 10
172.1304894864652
 20
154.5032900978774
 30
0.0
 10
172.1433201610099
 20
154.418022693861
 30
0.0
 10
172.1689777216178
 20
154.2475130153273
 30
0.0
 10
172.2454251416987
 20
153.9970138465821
 30
0.0
 10
172.3476107089054
 20
153.7534575152493
 30
0.0
 10
172.4793460340193
 20
153.5166648520334
 30
0.0
 10
172.6364095334398
 20
153.2911393557631
 30
0.0
 10
172.8204635007982
 20
153.0755155980853
 30
0.0
 10
173.0268687165309
 20
152.8745120409968
 30
0.0
 10
173.2574551900604
 20
152.6865070271261
 30
0.0
 10
173.5068061525681
 20
152.5157405267865
 30
0.0
 10
173.7767662051824
 20
152.3608678846074
 30
0.0
 10
174.0615892642741
 20
152.2252242052342
 30
0.0
 10
174.3626699478928
 20
152.1079824607631
 30
0.0
 10
174.674505889597
 20
152.0114115274372
 30
0.0
 10
174.9975815570573
 20
151.9351778585109
 30
0.0
 10
175.3271656023452
 20
151.880556737513
 30
0.0
 10
175.6624934474748
 20
151.84749195251
 30
0.0
 10
175.9999999901639
 20
151.8365058136206
 30
0.0
 10
176.337506532862
 20
151.8474919523363
 30
0.0
 10
176.6728343779689
 20
151.8805567371658
 30
0.0
 10
177.0024184233508
 20
151.9351778579706
 30
0.0
 10
177.3254940904875
 20
152.011411526743
 30
0.0
 10
177.6373300334125
 20
152.1079824597216
 30
0.0
 10
177.9384107126533
 20
152.2252242044867
 30
0.0
 10
178.2232337878246
 20
152.3608678817322
 30
0.0
 10
178.4931937828257
 20
152.5157405304179
 30
0.0
 10
178.7425449553318
 20
152.6865070057962
 30
0.0
 10
178.9731306801543
 20
152.8745121073161
 30
0.0
 10
179.1795386183672
 20
153.0755153441668
 30
0.0
 10
179.3635828919077
 20
153.2911402404237
 30
0.0
 10
179.5206816871704
 20
153.5166615890772
 30
0.0
 10
179.6522907004863
 20
153.7534690928528
 30
0.0
 10
179.7549386646134
 20
153.9969710930421
 30
0.0
 10
179.8297105113263
 20
154.2476671373923
 30
0.0
 10
179.8742452725839
 20
154.5017585352251
 30
0.0
 10
179.8895878636578
 20
154.7583302487199
 30
0.0
 10
179.8742452726003
 20
155.0149019622144
 30
0.0
 10
179.8297105113587
 20
155.2689933600465
 30
0.0
 10
179.7549386646621
 20
155.5196894043955
 30
0.0
 10
179.6522907005506
 20
155.7631914045832
 30
0.0
 10
179.5206816872501
 20
155.9999989083566
 30
0.0
 10
179.3635828920026
 20
156.2255202570072
 30
0.0
 10
179.179538618477
 20
156.4411451532608
 30
0.0
 10
178.9731306802783
 20
156.6421483901074
 30
0.0
 10
178.7425449554696
 20
156.8301534916226
 30
0.0
 10
178.4931937829771
 20
157.0009199669955
 30
0.0
 10
178.2232337879894
 20
157.155792615675
 30
0.0
 10
177.938410712831
 20
157.2914362929135
 30
0.0
 10
177.6373300336031
 20
157.4086780376707
 30
0.0
 10
177.3254940906909
 20
157.5052489706405
 30
0.0
 10
177.0024184235669
 20
157.5814826394032
 30
0.0
 10
176.6728343781982
 20
157.636103760197
 30
0.0
 10
176.3375065331041
 20
157.6691685450145
 30
0.0
 10
175.9999999904215
 20
157.680154683717
 30
0.0
 10
175.6624934477406
 20
157.6691685448144
 30
0.0
 10
175.3271656026489
 20
157.6361037597932
 30
0.0
 10
174.9975815572938
 20
157.5814826387908
 30
0.0
 10
174.6745058901574
 20
157.5052489698064
 30
0.0
 10
174.3626699473472
 20
157.4086780366161
 30
0.0
 10
174.0615892678274
 20
157.2914362915753
 30
0.0
 10
173.7767661938441
 20
157.1557926142082
 30
0.0
 10
173.5068061947792
 20
157.0009199647596
 30
0.0
 10
173.2574550373238
 20
156.8301534908413
 30
0.0
 10
173.0268692591255
 20
156.6421483827107
 30
0.0
 10
172.8204615153533
 20
156.4411451683395
 30
0.0
 10
172.6364165498993
 20
156.2255201903798
 30
0.0
 10
172.4793202744704
 20
155.9999991373591
 30
0.0
 10
172.3477022441636
 20
155.763190573622
 30
0.0
 10
172.2450872898752
 20
155.5196924514212
 30
0.0
 10
172.1701958273529
 20
155.2689823519021
 30
0.0
 10
172.1261030104407
 20
155.0149428798736
 30
0.0
 10
172.1091284144642
 20
154.7581794127449
 30
0.0
 10
172.1233691316189
 20
154.5882532019024
 30
0.0
 10
172.1304894864652
 20
154.5032900978774
 30
0.0
 11
172.1304894864652
 21
154.5032900978774
 31
0.0
 11
172.1751776367803
 21
154.2488001418546
 31
0.0
 11
172.2486369301932
 21
154.001158166214
 31
0.0
 11
172.3520533899326
 21
153.7555495566383
 31
0.0
 11
172.4810884738405
 21
153.5225185730003
 31
0.0
 11
172.6400441467488
 21
153.2938993038017
 31
0.0
 11
172.8204394124455
 21
153.0819597525707
 31
0.0
 11
173.0297504928021
 21
152.8777016150311
 31
0.0
 11
173.2561259330827
 21
152.6927168479046
 31
0.0
 11
173.5089904547166
 21
152.5191784768291
 31
0.0
 11
173.7748083727587
 21
152.36639844875
 31
0.0
 11
174.0631486991751
 21
152.228794321752
 31
0.0
 11
174.3607431908252
 21
152.1127267644151
 31
0.0
 11
174.6755062291738
 21
152.0150462177923
 31
0.0
 11
174.9962071599678
 21
151.9392735876048
 31
0.0
 11
175.3276537858373
 21
151.8842192370811
 31
0.0
 11
175.6619983840841
 21
151.8512279461594
 31
0.0
 11
176.0000000000001
 21
151.8401758667154
 31
0.0
 11
176.3380016159161
 21
151.8512279461593
 31
0.0
 11
176.6723462141628
 21
151.8842192370811
 31
0.0
 11
177.0037928400325
 21
151.9392735876048
 31
0.0
 11
177.3244937708265
 21
152.0150462177922
 31
0.0
 11
177.639256809175
 21
152.1127267644151
 31
0.0
 11
177.936851300825
 21
152.228794321752
 31
0.0
 11
178.2251916272414
 21
152.36639844875
 31
0.0
 11
178.4910095452836
 21
152.5191784768291
 31
0.0
 11
178.7438740669175
 21
152.6927168479045
 31
0.0
 11
178.9702495071981
 21
152.877701615031
 31
0.0
 11
179.1795605875547
 21
153.0819597525707
 31
0.0
 11
179.3599558532514
 21
153.2938993038017
 31
0.0
 11
179.5189115261597
 21
153.5225185730004
 31
0.0
 11
179.6479466100675
 21
153.7555495566383
 31
0.0
 11
179.751363069807
 21
154.001158166214
 31
0.0
 11
179.8248223632199
 21
154.2488001418546
 31
0.0
 11
179.869510513535
 21
154.5032900978773
 31
0.0
 11
179.8844929803371
 21
154.7583302491976
 31
0.0
 11
179.869510513535
 21
155.0133704005178
 31
0.0
 11
179.8248223632199
 21
155.2678603565406
 31
0.0
 11
179.751363069807
 21
155.5155023321811
 31
0.0
 11
179.6479466100675
 21
155.7611109417568
 31
0.0
 11
179.5189115261597
 21
155.9941419253948
 31
0.0
 11
179.3599558532515
 21
156.2227611945934
 31
0.0
 11
179.1795605875549
 21
156.4347007458243
 31
0.0
 11
178.9702495071982
 21
156.6389588833641
 31
0.0
 11
178.7438740669176
 21
156.8239436504905
 31
0.0
 11
178.4910095452837
 21
156.997482021566
 31
0.0
 11
178.2251916272415
 21
157.1502620496451
 31
0.0
 11
177.9368513008251
 21
157.2878661766431
 31
0.0
 11
177.639256809175
 21
157.40393373398
 31
0.0
 11
177.3244937708264
 21
157.5016142806029
 31
0.0
 11
177.0037928400324
 21
157.5773869107903
 31
0.0
 11
176.6723462141628
 21
157.6324412613141
 31
0.0
 11
176.3380016159161
 21
157.6654325522357
 31
0.0
 11
176.0000000000001
 21
157.6764846316797
 31
0.0
 11
175.6619983840841
 21
157.6654325522357
 31
0.0
 11
175.3276537858373
 21
157.6324412613141
 31
0.0
 11
174.9962071599677
 21
157.5773869107904
 31
0.0
 11
174.6755062291737
 21
157.501614280603
 31
0.0
 11
174.3607431908252
 21
157.40393373398
 31
0.0
 11
174.0631486991751
 21
157.2878661766431
 31
0.0
 11
173.7748083727587
 21
157.1502620496451
 31
0.0
 11
173.5089904547166
 21
156.997482021566
 31
0.0
 11
173.2561259330827
 21
156.8239436504906
 31
0.0
 11
173.0297504928021
 21
156.6389588833641
 31
0.0
 11
172.8204394124454
 21
156.4347007458244
 31
0.0
 11
172.6400441467487
 21
156.2227611945934
 31
0.0
 11
172.4810884738404
 21
155.9941419253947
 31
0.0
 11
172.3520533899326
 21
155.7611109417567
 31
0.0
 11
172.2486369301932
 21
155.515502332181
 31
0.0
 11
172.1751776367803
 21
155.2678603565406
 31
0.0
 11
172.1304894864653
 21
155.0133704005178
 31
0.0
 11
172.1155070196631
 21
154.7583302491976
 31
0.0
 11
172.1304894864652
 21
154.5032900978774
 31
0.0
  0
SPLINE
  5
13B
330
4D
100
AcDbEntity
  8
1
  6
Continuous
 62
     7
100
AcDbSpline
210
0.0
220
0.0
230
1.0
 70
     8
 71
     3
 72
    47
 73
    43
 74
    41
 42
0.000000001
 43
0.0000000001
 44
0.00000001
 40
0.0
 40
0.0
 40
0.0
 40
0.0
 40
0.3957370318710461
 40
0.7915690566481717
 40
1.228732419920378
 40
1.665870744668553
 40
2.105751582484325
 40
2.545632420345072
 40
2.982770745258697
 40
3.419934108989417
 40
3.849103720368678
 40
4.278325030797468
 40
4.695004638074239
 40
5.111765301955271
 40
5.512611140466475
 40
5.9135695525881
 40
6.29687450796523
 40
6.68032148517964
 40
7.046413128180919
 40
7.412663505052217
 40
7.764138449354198
 40
8.115759103410076
 40
8.457393814079587
 40
8.799118341175157
 40
9.13730611504075
 40
9.475493888913485
 40
9.817218416028396
 40
10.1588531267297
 40
10.51047378082786
 40
10.8619487251803
 40
11.22819910210918
 40
11.59429074517054
 40
11.97773772244727
 40
12.36104267788304
 40
12.76200109005835
 40
13.16284692861065
 40
13.57960759251339
 40
13.99628719977479
 40
14.42550851011003
 40
14.85467812117722
 40
15.21146280748981
 40
15.56798742747089
 40
15.56798742747089
 40
15.56798742747089
 40
15.56798742747089
 10
87.06903656746985
 20
261.9164616078168
 30
0.0
 10
86.94343212984295
 20
261.8760032642999
 30
0.0
 10
86.69219310098518
 20
261.795076876969
 30
0.0
 10
86.2929282813582
 20
261.7018740020824
 30
0.0
 10
85.8752755736077
 20
261.6309198372114
 30
0.0
 10
85.43904181254291
 20
261.5872514444097
 30
0.0
 10
85.00000230058191
 20
261.5726594283362
 30
0.0
 10
84.56094905537378
 20
261.587227370436
 30
0.0
 10
84.12475623766014
 20
261.6310154325305
 30
0.0
 10
83.69599225024663
 20
261.7033805404978
 30
0.0
 10
83.27576145599548
 20
261.8043457452788
 30
0.0
 10
82.87007263244367
 20
261.9322900462063
 30
0.0
 10
82.47848086613146
 20
262.0875616763663
 30
0.0
 10
82.10793193247046
 20
262.2672780554201
 30
0.0
 10
81.75685409170931
 20
262.47237369787
 30
0.0
 10
81.43246871061683
 20
262.6986236428759
 30
0.0
 10
81.13264503152126
 20
262.947570274525
 30
0.0
 10
80.86416384116504
 20
263.2138564419986
 30
0.0
 10
80.62491505157908
 20
263.4993303906611
 30
0.0
 10
80.42062616046272
 20
263.7980298339551
 30
0.0
 10
80.24959841565997
 20
264.1114823113687
 30
0.0
 10
80.11616051127237
 20
264.4338836617404
 30
0.0
 10
80.01903342012584
 20
264.7656539854672
 30
0.0
 10
79.9611458364688
 20
265.1019577486837
 30
0.0
 10
79.94123924439072
 20
265.4414841259719
 30
0.0
 10
79.96114583663902
 20
265.7810105032534
 30
0.0
 10
80.01903342046371
 20
266.11731426647
 30
0.0
 10
80.1161605117806
 20
266.4490845901444
 30
0.0
 10
80.24959841631454
 20
266.7714859406317
 30
0.0
 10
80.42062616133651
 20
267.0849384174904
 30
0.0
 10
80.62491505236697
 20
267.3836378627886
 30
0.0
 10
80.86416384300735
 20
267.6691118036094
 30
0.0
 10
81.13264502995636
 20
267.9353980014538
 30
0.0
 10
81.43246872273627
 20
268.1843445166992
 30
0.0
 10
81.75685405112642
 20
268.4105949149762
 30
0.0
 10
82.10793209351746
 20
268.6156888276665
 30
0.0
 10
82.47848024657064
 20
268.7954119071509
 30
0.0
 10
82.87007497869624
 20
268.9506580823838
 30
0.0
 10
83.27575241544935
 20
269.0787001138602
 30
0.0
 10
83.66995163067537
 20
269.1730549505581
 30
0.0
 10
84.0451472721657
 20
269.2399430309775
 30
0.0
 10
84.28161095807945
 20
269.2653914168803
 30
0.0
 10
84.39979969534629
 20
269.2781109657304
 30
0.0
 11
87.06903656746985
 21
261.9164616078168
 31
0.0
 11
86.69073016905224
 21
261.8003062278789
 31
0.0
 11
86.30562767665951
 21
261.708769003825
 31
0.0
 11
85.87458593534484
 21
261.6358661642812
 31
0.0
 11
85.43963718956999
 21
261.5921682943114
 31
0.0
 11
84.99999999999979
 21
261.5775295353789
 31
0.0
 11
84.56036281042967
 21
261.5921682943114
 31
0.0
 11
84.12541406465488
 21
261.6358661642812
 31
0.0
 11
83.69437232334022
 21
261.708769003825
 31
0.0
 11
83.2771072752371
 21
261.8091504520277
 31
0.0
 11
82.8678327876934
 21
261.9384768892447
 31
0.0
 11
82.48057228524637
 21
262.092266351039
 31
0.0
 11
82.10572574205216
 21
262.2744188152681
 31
0.0
 11
81.75977017952346
 21
262.476883960959
 31
0.0
 11
81.43111241599888
 21
262.7065613933675
 31
0.0
 11
81.13646869216296
 21
262.9517302434501
 31
0.0
 11
80.86447931098394
 21
263.2220140962976
 31
0.0
 11
80.62969460406718
 21
263.5029041685998
 31
0.0
 11
80.42317762465228
 21
263.805377433589
 31
0.0
 11
80.25528139929204
 21
264.1141580907495
 31
0.0
 11
80.12092735899755
 21
264.4390982028957
 31
0.0
 11
80.02539162415852
 21
264.7671030796313
 31
0.0
 11
79.96731976258027
 21
265.1038571613807
 31
0.0
 11
79.94785171434123
 21
265.4414841237932
 31
0.0
 11
79.96731976258027
 21
265.7791110862057
 31
0.0
 11
80.0253916241585
 21
266.1158651679552
 31
0.0
 11
80.12092735899753
 21
266.4438700446907
 31
0.0
 11
80.25528139929207
 21
266.768810156837
 31
0.0
 11
80.42317762465235
 21
267.0775908139974
 31
0.0
 11
80.62969460406727
 21
267.3800640789868
 31
0.0
 11
80.864479310984
 21
267.6609541512889
 31
0.0
 11
81.13646869216299
 21
267.9312380041366
 31
0.0
 11
81.43111241599888
 21
268.1764068542192
 31
0.0
 11
81.75977017952344
 21
268.4060842866276
 31
0.0
 11
82.10572574205216
 21
268.6085494323184
 31
0.0
 11
82.48057228524635
 21
268.7907018965474
 31
0.0
 11
82.8678327876934
 21
268.9444913583418
 31
0.0
 11
83.2771072752371
 21
269.0738177955589
 31
0.0
 11
83.69437232334022
 21
269.1741992437616
 31
0.0
 11
84.04578543254318
 21
269.2358769533545
 31
0.0
 11
84.39979969534629
 21
269.2781109657304
 31
0.0
  0
SPLINE
  5
13C
330
4D
100
AcDbEntity
  8
1
  6
Continuous
 62
     7
100
AcDbSpline
210
0.0
220
0.0
230
1.0
 70
     8
 71
     3
 72
    47
 73
    43
 74
    41
 42
0.000000001
 43
0.0000000001
 44
0.00000001
 40
0.0
 40
0.0
 40
0.0
 40
0.0
 40
0.3957370318688199
 40
0.7915690566438092
 40
1.228732419916029
 40
1.665870744664204
 40
2.105751582479977
 40
2.545632420340738
 40
2.982770745254335
 40
3.419934108985069
 40
3.849103720364343
 40
4.278325030793147
 40
4.695004638069931
 40
5.111765301950899
 40
5.512611140462079
 40
5.913569552583716
 40
6.296874507960879
 40
6.680321485175268
 40
7.046413128176511
 40
7.412663505047817
 40
7.764138449349833
 40
8.115759103405715
 40
8.457393814075227
 40
8.799118341170786
 40
9.137306115036377
 40
9.47549388890911
 40
9.817218416024009
 40
10.15885312672532
 40
10.51047378082347
 40
10.86194872517591
 40
11.22819910210479
 40
11.59429074516615
 40
11.97773772244286
 40
12.36104267787869
 40
12.76200109005404
 40
13.1628469286063
 40
13.57960759250899
 40
13.99628719977039
 40
14.42550851010564
 40
14.85467812117285
 40
15.21146280748425
 40
15.56798742746409
 40
15.56798742746409
 40
15.56798742746409
 40
15.56798742746409
 10
95.930963432534
 20
261.9164616078153
 30
0.0
 10
96.05656787016026
 20
261.8760032642987
 30
0.0
 10
96.3078068990167
 20
261.7950768769684
 30
0.0
 10
96.70707171864227
 20
261.7018740020822
 30
0.0
 10
97.12472442639208
 20
261.6309198372114
 30
0.0
 10
97.56095818745688
 20
261.5872514444096
 30
0.0
 10
97.99999769941788
 20
261.5726594283364
 30
0.0
 10
98.43905094462599
 20
261.5872273704359
 30
0.0
 10
98.87524376233964
 20
261.6310154325307
 30
0.0
 10
99.30400774975315
 20
261.7033805404978
 30
0.0
 10
99.72423854400427
 20
261.8043457452787
 30
0.0
 10
100.1299273675561
 20
261.9322900462063
 30
0.0
 10
100.5215191338683
 20
262.0875616763662
 30
0.0
 10
100.8920680675293
 20
262.2672780554201
 30
0.0
 10
101.2431459082904
 20
262.47237369787
 30
0.0
 10
101.5675312893829
 20
262.698623642876
 30
0.0
 10
101.8673549684785
 20
262.9475702745249
 30
0.0
 10
102.1358361588346
 20
263.2138564419986
 30
0.0
 10
102.3750849484206
 20
263.499330390661
 30
0.0
 10
102.579373839537
 20
263.7980298339551
 30
0.0
 10
102.7504015843398
 20
264.1114823113686
 30
0.0
 10
102.8838394887274
 20
264.4338836617404
 30
0.0
 10
102.980966579874
 20
264.7656539854671
 30
0.0
 10
103.0388541635309
 20
265.1019577486837
 30
0.0
 10
103.0587607556089
 20
265.4414841259718
 30
0.0
 10
103.0388541633607
 20
265.7810105032534
 30
0.0
 10
102.9809665795361
 20
266.1173142664701
 30
0.0
 10
102.8838394882191
 20
266.4490845901444
 30
0.0
 10
102.7504015836853
 20
266.7714859406318
 30
0.0
 10
102.5793738386633
 20
267.0849384174903
 30
0.0
 10
102.3750849476328
 20
267.3836378627886
 30
0.0
 10
102.1358361569924
 20
267.6691118036093
 30
0.0
 10
101.8673549700435
 20
267.9353980014538
 30
0.0
 10
101.5675312772635
 20
268.1843445166991
 30
0.0
 10
101.2431459488733
 20
268.4105949149762
 30
0.0
 10
100.8920679064823
 20
268.6156888276665
 30
0.0
 10
100.5215197534291
 20
268.7954119071508
 30
0.0
 10
100.1299250213035
 20
268.9506580823837
 30
0.0
 10
99.72424758455043
 20
269.0787001138601
 30
0.0
 10
99.33004836932477
 20
269.173054950558
 30
0.0
 10
98.95485272783529
 20
269.2399430309774
 30
0.0
 10
98.71838904192226
 20
269.2653914168802
 30
0.0
 10
98.6002003046559
 20
269.2781109657302
 30
0.0
 11
95.930963432534
 21
261.9164616078153
 31
0.0
 11
96.30926983094957
 21
261.8003062278784
 31
0.0
 11
96.69437232334025
 21
261.708769003825
 31
0.0
 11
97.12541406465493
 21
261.6358661642812
 31
0.0
 11
97.56036281042978
 21
261.5921682943114
 31
0.0
 11
97.99999999999999
 21
261.5775295353789
 31
0.0
 11
98.43963718957012
 21
261.5921682943114
 31
0.0
 11
98.87458593534488
 21
261.6358661642812
 31
0.0
 11
99.30562767665955
 21
261.708769003825
 31
0.0
 11
99.72289272476269
 21
261.8091504520277
 31
0.0
 11
100.1321672123064
 21
261.9384768892447
 31
0.0
 11
100.5194277147534
 21
262.092266351039
 31
0.0
 11
100.8942742579476
 21
262.2744188152681
 31
0.0
 11
101.2402298204763
 21
262.476883960959
 31
0.0
 11
101.5688875840008
 21
262.7065613933675
 31
0.0
 11
101.8635313078368
 21
262.9517302434501
 31
0.0
 11
102.1355206890158
 21
263.2220140962976
 31
0.0
 11
102.3703053959325
 21
263.5029041685998
 31
0.0
 11
102.5768223753474
 21
263.805377433589
 31
0.0
 11
102.7447186007077
 21
264.1141580907495
 31
0.0
 11
102.8790726410022
 21
264.4390982028957
 31
0.0
 11
102.9746083758413
 21
264.7671030796313
 31
0.0
 11
103.0326802374194
 21
265.1038571613807
 31
0.0
 11
103.0521482856585
 21
265.4414841237932
 31
0.0
 11
103.0326802374194
 21
265.7791110862057
 31
0.0
 11
102.9746083758413
 21
266.1158651679552
 31
0.0
 11
102.8790726410022
 21
266.4438700446907
 31
0.0
 11
102.7447186007077
 21
266.768810156837
 31
0.0
 11
102.5768223753474
 21
267.0775908139974
 31
0.0
 11
102.3703053959325
 21
267.3800640789868
 31
0.0
 11
102.1355206890158
 21
267.6609541512889
 31
0.0
 11
101.8635313078368
 21
267.9312380041366
 31
0.0
 11
101.5688875840009
 21
268.1764068542192
 31
0.0
 11
101.2402298204763
 21
268.4060842866276
 31
0.0
 11
100.8942742579476
 21
268.6085494323184
 31
0.0
 11
100.5194277147534
 21
268.7907018965474
 31
0.0
 11
100.1321672123064
 21
268.9444913583418
 31
0.0
 11
99.72289272476267
 21
269.0738177955589
 31
0.0
 11
99.30562767665954
 21
269.1741992437615
 31
0.0
 11
98.95421456745775
 21
269.2358769533544
 31
0.0
 11
98.6002003046559
 21
269.2781109657302
 31
0.0
  0
ARC
  5
13D
330
4D
100
AcDbEntity
  8
1
  6
Continuous
 62
     7
100
AcDbCircle
 10
252.0
 20
131.4999999999998
 30
0.0
 40
1.0
100
AcDbArc
 50
270.0
 51
0.0
  0
ARC
  5
13E
330
4D
100
AcDbEntity
  8
1
  6
Continuous
 62
     7
100
AcDbCircle
 10
216.5000000000001
 20
176.4999999999999
 30
0.0
 40
3.000000000000114
100
AcDbArc
 50
180.0
 51
270.0
  0
ARC
  5
13F
330
4D
100
AcDbEntity
  8
1
  6
Continuous
 62
     7
100
AcDbCircle
 10
184.6070822007652
 20
159.9999999999999
 30
0.0
 40
4.0
100
AcDbArc
 50
269.9999999999984
 51
358.0000000000005
  0
ARC
  5
140
330
4D
100
AcDbEntity
  8
1
  6
Continuous
 62
     7
100
AcDbCircle
 10
79.49999999999989
 20
341.4620225157157
 30
0.0
 40
1.0
100
AcDbArc
 50
90.0
 51
175.5067304158563
  0
ARC
  5
141
330
4D
100
AcDbEntity
  8
1
  6
Continuous
 62
     7
100
AcDbCircle
 10
103.4999999999999
 20
341.4620225157157
 30
0.0
 40
0.9999999999999608
100
AcDbArc
 50
4.49326958414358
 51
90.0
  0
ENDBLK
  5
4F
330
4D
100
AcDbEntity
  8
0
100
AcDbBlockEnd
  0
BLOCK
  5
51
330
50
100
AcDbEntity
  8
0
100
AcDbBlockBegin
  2
42-1-P8
 70
     0
 10
311.8054388372682
 20
160.4774310210217
 30
0.0
  3
42-1-P8
  1

  0
LINE
  5
142
330
50
100
AcDbEntity
  8
1
  6
Continuous
 62
     7
100
AcDbLine
 10
194.5
 20
208.9999999999999
 30
0.0
 11
194.5
 21
211.9999999999999
 31
0.0
  0
LINE
  5
143
330
50
100
AcDbEntity
  8
1
  6
Continuous
 62
     2
100
AcDbLine
 10
195.0
 20
211.9999999999999
 30
0.0
 11
195.0
 21
208.9999999999999
 31
0.0
  0
LINE
  5
144
330
50
100
AcDbEntity
  8
1
  6
Continuous
 62
     2
100
AcDbLine
 10
195.5
 20
211.9999999999999
 30
0.0
 11
195.5
 21
208.9999999999999
 31
0.0
  0
LINE
  5
145
330
50
100
AcDbEntity
  8
1
  6
Continuous
 62
     2
100
AcDbLine
 10
196.0
 20
211.9999999999999
 30
0.0
 11
196.0
 21
208.9999999999999
 31
0.0
  0
LINE
  5
146
330
50
100
AcDbEntity
  8
1
  6
Continuous
 62
     2
100
AcDbLine
 10
196.5
 20
211.9999999999999
 30
0.0
 11
196.5
 21
208.9999999999999
 31
0.0
  0
LINE
  5
147
330
50
100
AcDbEntity
  8
1
  6
Continuous
 62
     2
100
AcDbLine
 10
197.0
 20
211.8555877649777
 30
0.0
 11
197.0
 21
209.1055873261873
 31
0.0
  0
LINE
  5
148
330
50
100
AcDbEntity
  8
1
  6
Continuous
 62
     2
100
AcDbLine
 10
197.5
 20
211.8100735915476
 30
0.0
 11
197.5
 21
209.1660483124514
 31
0.0
  0
LINE
  5
149
330
50
100
AcDbEntity
  8
1
  6
Continuous
 62
     2
100
AcDbLine
 10
198.0
 20
211.7242183172648
 30
0.0
 11
198.0
 21
209.254472700262
 31
0.0
  0
LINE
  5
14A
330
50
100
AcDbEntity
  8
1
  6
Continuous
 62
     2
100
AcDbLine
 10
198.5
 20
211.6965264936723
 30
0.0
 11
198.5
 21
209.3607004802376
 31
0.0
  0
LINE
  5
14B
330
50
100
AcDbEntity
  8
1
  6
Continuous
 62
     7
100
AcDbLine
 10
208.4999999999999
 20
208.9999999999999
 30
0.0
 11
194.5
 21
208.9999999999999
 31
0.0
  0
LINE
  5
14C
330
50
100
AcDbEntity
  8
1
  6
Continuous
 62
     2
100
AcDbLine
 10
206.4999999999999
 20
208.9999999999999
 30
0.0
 11
206.4999999999999
 21
211.9999999999999
 31
0.0
  0
LINE
  5
14D
330
50
100
AcDbEntity
  8
1
  6
Continuous
 62
     2
100
AcDbLine
 10
205.9999999999999
 20
209.1055873261873
 30
0.0
 11
205.9999999999999
 21
211.8555877649777
 31
0.0
  0
LINE
  5
14E
330
50
100
AcDbEntity
  8
1
  6
Continuous
 62
     2
100
AcDbLine
 10
205.4999999999999
 20
209.1660483124514
 30
0.0
 11
205.4999999999999
 21
211.8100735915476
 31
0.0
  0
LINE
  5
14F
330
50
100
AcDbEntity
  8
1
  6
Continuous
 62
     2
100
AcDbLine
 10
204.9999999999999
 20
209.254472700262
 30
0.0
 11
204.9999999999999
 21
211.7242183172648
 31
0.0
  0
LINE
  5
150
330
50
100
AcDbEntity
  8
1
  6
Continuous
 62
     2
100
AcDbLine
 10
204.4999999999999
 20
209.3607004802376
 30
0.0
 11
204.4999999999999
 21
211.6965264936723
 31
0.0
  0
LINE
  5
151
330
50
100
AcDbEntity
  8
1
  6
Continuous
 62
     2
100
AcDbLine
 10
202.9999999999999
 20
209.9375938283691
 30
0.0
 11
202.9999999999999
 21
211.2863201582217
 31
0.0
  0
LINE
  5
152
330
50
100
AcDbEntity
  8
1
  6
Continuous
 62
     2
100
AcDbLine
 10
203.9999999999999
 20
209.6135491906773
 30
0.0
 11
203.9999999999999
 21
211.5315431272858
 31
0.0
  0
LINE
  5
153
330
50
100
AcDbEntity
  8
1
  6
Continuous
 62
     2
100
AcDbLine
 10
203.4999999999999
 20
209.7175627878457
 30
0.0
 11
203.4999999999999
 21
211.4856533119039
 31
0.0
  0
LINE
  5
154
330
50
100
AcDbEntity
  8
1
  6
Continuous
 62
     2
100
AcDbLine
 10
202.4999999999999
 20
209.9770990115607
 30
0.0
 11
202.4999999999999
 21
211.2423381021711
 31
0.0
  0
LINE
  5
155
330
50
100
AcDbEntity
  8
1
  6
Continuous
 62
     7
100
AcDbLine
 10
196.5
 20
211.9999999999999
 30
0.0
 11
206.4999999999999
 21
211.9999999999999
 31
0.0
  0
LINE
  5
156
330
50
100
AcDbEntity
  8
1
  6
Continuous
 62
     2
100
AcDbLine
 10
200.0
 20
211.2863201582217
 30
0.0
 11
200.0
 21
209.9375938283691
 31
0.0
  0
LINE
  5
157
330
50
100
AcDbEntity
  8
1
  6
Continuous
 62
     2
100
AcDbLine
 10
199.0
 20
211.5315431272858
 30
0.0
 11
199.0
 21
209.6135491906773
 31
0.0
  0
LINE
  5
158
330
50
100
AcDbEntity
  8
1
  6
Continuous
 62
     7
100
AcDbLine
 10
196.0
 20
211.9999999999999
 30
0.0
 11
196.5
 21
211.9999999999999
 31
0.0
  0
LINE
  5
159
330
50
100
AcDbEntity
  8
1
  6
Continuous
 62
     7
100
AcDbLine
 10
195.0
 20
211.9999999999999
 30
0.0
 11
195.5
 21
211.9999999999999
 31
0.0
  0
LINE
  5
15A
330
50
100
AcDbEntity
  8
1
  6
Continuous
 62
     7
100
AcDbLine
 10
194.5
 20
211.9999999999999
 30
0.0
 11
195.4999999999999
 21
212.2693221990231
 31
0.0
  0
LINE
  5
15B
330
50
100
AcDbEntity
  8
1
  6
Continuous
 62
     7
100
AcDbLine
 10
194.5
 20
211.9999999999999
 30
0.0
 11
195.0
 21
211.9999999999999
 31
0.0
  0
LINE
  5
15C
330
50
100
AcDbEntity
  8
1
  6
Continuous
 62
     7
100
AcDbLine
 10
195.5
 20
211.9999999999999
 30
0.0
 11
196.0
 21
211.9999999999999
 31
0.0
  0
LINE
  5
15D
330
50
100
AcDbEntity
  8
1
  6
Continuous
 62
     2
100
AcDbLine
 10
199.5
 20
211.4856533119039
 30
0.0
 11
199.5
 21
209.7175627878457
 31
0.0
  0
LINE
  5
15E
330
50
100
AcDbEntity
  8
1
  6
Continuous
 62
     2
100
AcDbLine
 10
200.5
 20
211.2423381021711
 30
0.0
 11
200.5
 21
209.9770990115607
 31
0.0
  0
LINE
  5
15F
330
50
100
AcDbEntity
  8
1
  6
Continuous
 62
     7
100
AcDbLine
 10
195.75
 20
212.3297657202036
 30
0.0
 11
201.5
 21
212.3297657202036
 31
0.0
  0
LINE
  5
160
330
50
100
AcDbEntity
  8
1
  6
Continuous
 62
     7
100
AcDbLine
 10
206.4999999999999
 20
211.9999999999999
 30
0.0
 11
206.9999999999999
 21
211.9999999999999
 31
0.0
  0
LINE
  5
161
330
50
100
AcDbEntity
  8
1
  6
Continuous
 62
     2
100
AcDbLine
 10
206.9999999999999
 20
208.9999999999999
 30
0.0
 11
206.9999999999999
 21
211.9999999999999
 31
0.0
  0
LINE
  5
162
330
50
100
AcDbEntity
  8
1
  6
Continuous
 62
     7
100
AcDbLine
 10
207.4999999999999
 20
211.9999999999999
 30
0.0
 11
207.9999999999999
 21
211.9999999999999
 31
0.0
  0
LINE
  5
163
330
50
100
AcDbEntity
  8
1
  6
Continuous
 62
     2
100
AcDbLine
 10
207.9999999999999
 20
208.9999999999999
 30
0.0
 11
207.9999999999999
 21
211.9999999999999
 31
0.0
  0
LINE
  5
164
330
50
100
AcDbEntity
  8
1
  6
Continuous
 62
     7
100
AcDbLine
 10
208.4999999999999
 20
211.9999999999999
 30
0.0
 11
208.4999999999999
 21
208.9999999999999
 31
0.0
  0
LINE
  5
165
330
50
100
AcDbEntity
  8
1
  6
Continuous
 62
     7
100
AcDbLine
 10
207.5000000000001
 20
212.2693221990231
 30
0.0
 11
208.4999999999999
 21
211.9999999999999
 31
0.0
  0
LINE
  5
166
330
50
100
AcDbEntity
  8
1
  6
Continuous
 62
     7
100
AcDbLine
 10
207.9999999999999
 20
211.9999999999999
 30
0.0
 11
208.4999999999999
 21
211.9999999999999
 31
0.0
  0
LINE
  5
167
330
50
100
AcDbEntity
  8
1
  6
Continuous
 62
     2
100
AcDbLine
 10
207.4999999999999
 20
208.9999999999999
 30
0.0
 11
207.4999999999999
 21
211.9999999999999
 31
0.0
  0
LINE
  5
168
330
50
100
AcDbEntity
  8
1
  6
Continuous
 62
     7
100
AcDbLine
 10
206.9999999999999
 20
211.9999999999999
 30
0.0
 11
207.4999999999999
 21
211.9999999999999
 31
0.0
  0
LINE
  5
169
330
50
100
AcDbEntity
  8
1
  6
Continuous
 62
     7
100
AcDbLine
 10
201.5
 20
212.3297657202036
 30
0.0
 11
207.2499999999999
 21
212.3297657202036
 31
0.0
  0
LINE
  5
16A
330
50
100
AcDbEntity
  8
1
  6
Continuous
 62
     7
100
AcDbLine
 10
84.5
 20
208.9999999999999
 30
0.0
 11
84.5
 21
211.9999999999999
 31
0.0
  0
LINE
  5
16B
330
50
100
AcDbEntity
  8
1
  6
Continuous
 62
     2
100
AcDbLine
 10
85.0
 20
211.9999999999999
 30
0.0
 11
85.0
 21
208.9999999999999
 31
0.0
  0
LINE
  5
16C
330
50
100
AcDbEntity
  8
1
  6
Continuous
 62
     2
100
AcDbLine
 10
85.5
 20
211.9999999999999
 30
0.0
 11
85.5
 21
208.9999999999999
 31
0.0
  0
LINE
  5
16D
330
50
100
AcDbEntity
  8
1
  6
Continuous
 62
     2
100
AcDbLine
 10
86.0
 20
211.9999999999999
 30
0.0
 11
86.0
 21
208.9999999999999
 31
0.0
  0
LINE
  5
16E
330
50
100
AcDbEntity
  8
1
  6
Continuous
 62
     2
100
AcDbLine
 10
86.49999999999986
 20
211.9999999999999
 30
0.0
 11
86.5
 21
208.9999999999999
 31
0.0
  0
LINE
  5
16F
330
50
100
AcDbEntity
  8
1
  6
Continuous
 62
     2
100
AcDbLine
 10
87.0
 20
211.8555877649777
 30
0.0
 11
87.0
 21
209.1055873261873
 31
0.0
  0
LINE
  5
170
330
50
100
AcDbEntity
  8
1
  6
Continuous
 62
     2
100
AcDbLine
 10
87.5
 20
211.8100735915476
 30
0.0
 11
87.5
 21
209.1660483124514
 31
0.0
  0
LINE
  5
171
330
50
100
AcDbEntity
  8
1
  6
Continuous
 62
     2
100
AcDbLine
 10
88.0
 20
211.7242183172648
 30
0.0
 11
88.0
 21
209.254472700262
 31
0.0
  0
LINE
  5
172
330
50
100
AcDbEntity
  8
1
  6
Continuous
 62
     2
100
AcDbLine
 10
88.5
 20
211.6965264936723
 30
0.0
 11
88.5
 21
209.3607004802376
 31
0.0
  0
LINE
  5
173
330
50
100
AcDbEntity
  8
1
  6
Continuous
 62
     7
100
AcDbLine
 10
98.49999999999986
 20
208.9999999999999
 30
0.0
 11
84.5
 21
208.9999999999999
 31
0.0
  0
LINE
  5
174
330
50
100
AcDbEntity
  8
1
  6
Continuous
 62
     2
100
AcDbLine
 10
96.49999999999986
 20
208.9999999999999
 30
0.0
 11
96.49999999999986
 21
211.9999999999999
 31
0.0
  0
LINE
  5
175
330
50
100
AcDbEntity
  8
1
  6
Continuous
 62
     2
100
AcDbLine
 10
95.99999999999986
 20
209.1055873261873
 30
0.0
 11
95.99999999999986
 21
211.8555877649777
 31
0.0
  0
LINE
  5
176
330
50
100
AcDbEntity
  8
1
  6
Continuous
 62
     2
100
AcDbLine
 10
95.49999999999986
 20
209.1660483124514
 30
0.0
 11
95.49999999999986
 21
211.8100735915476
 31
0.0
  0
LINE
  5
177
330
50
100
AcDbEntity
  8
1
  6
Continuous
 62
     2
100
AcDbLine
 10
94.99999999999986
 20
209.254472700262
 30
0.0
 11
94.99999999999986
 21
211.7242183172648
 31
0.0
  0
LINE
  5
178
330
50
100
AcDbEntity
  8
1
  6
Continuous
 62
     2
100
AcDbLine
 10
94.49999999999986
 20
209.3607004802376
 30
0.0
 11
94.49999999999986
 21
211.6965264936723
 31
0.0
  0
LINE
  5
179
330
50
100
AcDbEntity
  8
1
  6
Continuous
 62
     2
100
AcDbLine
 10
92.99999999999986
 20
209.9375938283691
 30
0.0
 11
92.99999999999986
 21
211.2863201582217
 31
0.0
  0
LINE
  5
17A
330
50
100
AcDbEntity
  8
1
  6
Continuous
 62
     2
100
AcDbLine
 10
93.99999999999986
 20
209.6135491906773
 30
0.0
 11
93.99999999999986
 21
211.5315431272858
 31
0.0
  0
LINE
  5
17B
330
50
100
AcDbEntity
  8
1
  6
Continuous
 62
     2
100
AcDbLine
 10
93.49999999999986
 20
209.7175627878457
 30
0.0
 11
93.49999999999986
 21
211.4856533119039
 31
0.0
  0
LINE
  5
17C
330
50
100
AcDbEntity
  8
1
  6
Continuous
 62
     2
100
AcDbLine
 10
92.49999999999986
 20
209.9770990115607
 30
0.0
 11
92.49999999999986
 21
211.2423381021711
 31
0.0
  0
LINE
  5
17D
330
50
100
AcDbEntity
  8
1
  6
Continuous
 62
     7
100
AcDbLine
 10
86.49999999999986
 20
211.9999999999999
 30
0.0
 11
96.49999999999986
 21
211.9999999999999
 31
0.0
  0
LINE
  5
17E
330
50
100
AcDbEntity
  8
1
  6
Continuous
 62
     2
100
AcDbLine
 10
90.0
 20
211.2863201582217
 30
0.0
 11
90.0
 21
209.9375938283691
 31
0.0
  0
LINE
  5
17F
330
50
100
AcDbEntity
  8
1
  6
Continuous
 62
     2
100
AcDbLine
 10
89.0
 20
211.5315431272858
 30
0.0
 11
89.0
 21
209.6135491906773
 31
0.0
  0
LINE
  5
180
330
50
100
AcDbEntity
  8
1
  6
Continuous
 62
     7
100
AcDbLine
 10
86.0
 20
211.9999999999999
 30
0.0
 11
86.49999999999986
 21
211.9999999999999
 31
0.0
  0
LINE
  5
181
330
50
100
AcDbEntity
  8
1
  6
Continuous
 62
     7
100
AcDbLine
 10
85.0
 20
211.9999999999999
 30
0.0
 11
85.5
 21
211.9999999999999
 31
0.0
  0
LINE
  5
182
330
50
100
AcDbEntity
  8
1
  6
Continuous
 62
     7
100
AcDbLine
 10
84.5
 20
211.9999999999999
 30
0.0
 11
85.49999999999986
 21
212.2693221990231
 31
0.0
  0
LINE
  5
183
330
50
100
AcDbEntity
  8
1
  6
Continuous
 62
     7
100
AcDbLine
 10
84.5
 20
211.9999999999999
 30
0.0
 11
85.0
 21
211.9999999999999
 31
0.0
  0
LINE
  5
184
330
50
100
AcDbEntity
  8
1
  6
Continuous
 62
     7
100
AcDbLine
 10
85.5
 20
211.9999999999999
 30
0.0
 11
86.0
 21
211.9999999999999
 31
0.0
  0
LINE
  5
185
330
50
100
AcDbEntity
  8
1
  6
Continuous
 62
     2
100
AcDbLine
 10
89.5
 20
211.4856533119039
 30
0.0
 11
89.5
 21
209.7175627878457
 31
0.0
  0
LINE
  5
186
330
50
100
AcDbEntity
  8
1
  6
Continuous
 62
     2
100
AcDbLine
 10
90.5
 20
211.2423381021711
 30
0.0
 11
90.5
 21
209.9770990115607
 31
0.0
  0
LINE
  5
187
330
50
100
AcDbEntity
  8
1
  6
Continuous
 62
     7
100
AcDbLine
 10
85.75
 20
212.3297657202036
 30
0.0
 11
91.5
 21
212.3297657202036
 31
0.0
  0
LINE
  5
188
330
50
100
AcDbEntity
  8
1
  6
Continuous
 62
     7
100
AcDbLine
 10
96.49999999999986
 20
211.9999999999999
 30
0.0
 11
96.99999999999986
 21
211.9999999999999
 31
0.0
  0
LINE
  5
189
330
50
100
AcDbEntity
  8
1
  6
Continuous
 62
     2
100
AcDbLine
 10
96.99999999999986
 20
208.9999999999999
 30
0.0
 11
96.99999999999986
 21
211.9999999999999
 31
0.0
  0
LINE
  5
18A
330
50
100
AcDbEntity
  8
1
  6
Continuous
 62
     7
100
AcDbLine
 10
97.49999999999986
 20
211.9999999999999
 30
0.0
 11
97.99999999999986
 21
211.9999999999999
 31
0.0
  0
LINE
  5
18B
330
50
100
AcDbEntity
  8
1
  6
Continuous
 62
     2
100
AcDbLine
 10
97.99999999999986
 20
208.9999999999999
 30
0.0
 11
97.99999999999986
 21
211.9999999999999
 31
0.0
  0
LINE
  5
18C
330
50
100
AcDbEntity
  8
1
  6
Continuous
 62
     7
100
AcDbLine
 10
98.49999999999986
 20
211.9999999999999
 30
0.0
 11
98.49999999999986
 21
208.9999999999999
 31
0.0
  0
LINE
  5
18D
330
50
100
AcDbEntity
  8
1
  6
Continuous
 62
     7
100
AcDbLine
 10
97.50000000000009
 20
212.2693221990231
 30
0.0
 11
98.49999999999986
 21
211.9999999999999
 31
0.0
  0
LINE
  5
18E
330
50
100
AcDbEntity
  8
1
  6
Continuous
 62
     7
100
AcDbLine
 10
97.99999999999986
 20
211.9999999999999
 30
0.0
 11
98.49999999999986
 21
211.9999999999999
 31
0.0
  0
LINE
  5
18F
330
50
100
AcDbEntity
  8
1
  6
Continuous
 62
     2
100
AcDbLine
 10
97.49999999999986
 20
208.9999999999999
 30
0.0
 11
97.49999999999986
 21
211.9999999999999
 31
0.0
  0
LINE
  5
190
330
50
100
AcDbEntity
  8
1
  6
Continuous
 62
     7
100
AcDbLine
 10
96.99999999999986
 20
211.9999999999999
 30
0.0
 11
97.49999999999986
 21
211.9999999999999
 31
0.0
  0
LINE
  5
191
330
50
100
AcDbEntity
  8
1
  6
Continuous
 62
     7
100
AcDbLine
 10
91.5
 20
212.3297657202036
 30
0.0
 11
97.24999999999986
 21
212.3297657202036
 31
0.0
  0
ARC
  5
192
330
50
100
AcDbEntity
  8
1
  6
Continuous
 62
     7
100
AcDbCircle
 10
201.5
 20
187.9999999999999
 30
0.0
 40
24.99999999999999
100
AcDbArc
 50
103.2970717472091
 51
103.8865403626292
  0
ARC
  5
193
330
50
100
AcDbEntity
  8
1
  6
Continuous
 62
     7
100
AcDbCircle
 10
201.5
 20
187.9999999999999
 30
0.0
 40
25.00000000000004
100
AcDbArc
 50
76.11345963737077
 51
76.7029282527912
  0
ARC
  5
194
330
50
100
AcDbEntity
  8
1
  6
Continuous
 62
     7
100
AcDbCircle
 10
201.5
 20
187.9999999999999
 30
0.0
 40
25.0
100
AcDbArc
 50
90.0
 51
103.2970717472091
  0
ARC
  5
195
330
50
100
AcDbEntity
  8
1
  6
Continuous
 62
     7
100
AcDbCircle
 10
201.5
 20
187.9999999999999
 30
0.0
 40
24.99999999999996
100
AcDbArc
 50
76.7029282527912
 51
90.0
  0
ARC
  5
196
330
50
100
AcDbEntity
  8
1
  6
Continuous
 62
     7
100
AcDbCircle
 10
91.5
 20
187.9999999999999
 30
0.0
 40
24.99999999999999
100
AcDbArc
 50
103.2970717472091
 51
103.8865403626293
  0
ARC
  5
197
330
50
100
AcDbEntity
  8
1
  6
Continuous
 62
     7
100
AcDbCircle
 10
91.5
 20
187.9999999999999
 30
0.0
 40
25.00000000000004
100
AcDbArc
 50
76.11345963737082
 51
76.70292825279127
  0
ARC
  5
198
330
50
100
AcDbEntity
  8
1
  6
Continuous
 62
     7
100
AcDbCircle
 10
91.5
 20
187.9999999999999
 30
0.0
 40
25.0
100
AcDbArc
 50
90.0
 51
103.2970717472091
  0
ARC
  5
199
330
50
100
AcDbEntity
  8
1
  6
Continuous
 62
     7
100
AcDbCircle
 10
91.5
 20
187.9999999999999
 30
0.0
 40
24.99999999999996
100
AcDbArc
 50
76.70292825279127
 51
90.0
  0
CIRCLE
  5
19A
330
50
100
AcDbEntity
  8
1
  6
Continuous
 62
     7
100
AcDbCircle
 10
91.5
 20
290.9620225157159
 30
0.0
 40
6.999999999999915
  0
CIRCLE
  5
19B
330
50
100
AcDbEntity
  8
1
  6
Continuous
 62
     7
100
AcDbCircle
 10
91.5
 20
290.9620225157159
 30
0.0
 40
5.749999999999915
  0
ENDBLK
  5
52
330
50
100
AcDbEntity
  8
0
100
AcDbBlockEnd
  0
BLOCK
  5
54
330
53
100
AcDbEntity
  8
0
100
AcDbBlockBegin
  2
21-1C
 70
     0
 10
316.9424209201352
 20
144.4399042750086
 30
0.0
  3
21-1C
  1

  0
LINE
  5
19C
330
53
100
AcDbEntity
  8
1
  6
Continuous
 62
     7
100
AcDbLine
 10
196.75
 20
197.9999999999999
 30
0.0
 11
195.75
 21
197.9999999999999
 31
0.0
  0
LINE
  5
19D
330
53
100
AcDbEntity
  8
1
  6
Continuous
 62
     7
100
AcDbLine
 10
171.0751842036105
 20
197.9999999999999
 30
0.0
 11
219.4247742879257
 21
197.9999999999999
 31
0.0
  0
LINE
  5
19E
330
53
100
AcDbEntity
  8
1
  6
Continuous
 62
     7
100
AcDbLine
 10
219.3026858543512
 20
202.9590766057435
 30
0.0
 11
219.9199033483588
 21
198.5696219327125
 31
0.0
  0
LINE
  5
19F
330
53
100
AcDbEntity
  8
1
  6
Continuous
 62
     7
100
AcDbLine
 10
97.29555495773434
 20
264.4091082451008
 30
0.0
 11
100.9469641692048
 21
278.0363529415336
 31
0.0
  0
LINE
  5
1A0
330
53
100
AcDbEntity
  8
1
  6
Continuous
 62
     7
100
AcDbLine
 10
117.3932757817301
 20
299.2193818285966
 30
0.0
 11
107.4174402967678
 21
289.2435463436343
 31
0.0
  0
LINE
  5
1A1
330
53
100
AcDbEntity
  8
1
  6
Continuous
 62
     7
100
AcDbLine
 10
112.3582257266162
 20
309.4613541479474
 30
0.0
 11
97.97047612756293
 21
305.6061682619799
 31
0.0
  0
LINE
  5
1A2
330
53
100
AcDbEntity
  8
1
  6
Continuous
 62
     7
100
AcDbLine
 10
71.40227917600401
 20
309.2575774734503
 30
0.0
 11
85.02952387243684
 21
305.6061682619799
 31
0.0
  0
LINE
  5
1A3
330
53
100
AcDbEntity
  8
1
  6
Continuous
 62
     7
100
AcDbLine
 10
65.60672421826962
 20
299.2193818285966
 30
0.0
 11
75.58255970323202
 21
289.2435463436343
 31
0.0
  0
LINE
  5
1A4
330
53
100
AcDbEntity
  8
1
  6
Continuous
 62
     7
100
AcDbLine
 10
85.70444504226552
 20
264.4091082451008
 30
0.0
 11
82.05303583079504
 21
278.0363529415336
 31
0.0
  0
LINE
  5
1A5
330
53
100
AcDbEntity
  8
1
  6
Continuous
 62
     7
100
AcDbLine
 10
171.0319582682321
 20
201.7850797553505
 30
0.0
 11
170.5800501692397
 21
198.5695865504799
 31
0.0
  0
LINE
  5
1A6
330
53
100
AcDbEntity
  8
0
  6
Continuous
 62
     7
100
AcDbLine
 10
63.8493649053889
 20
197.9999999999999
 30
0.0
 11
85.70444504226549
 21
197.9999999999999
 31
0.0
  0
LINE
  5
1A7
330
53
100
AcDbEntity
  8
0
  6
Continuous
 62
     7
100
AcDbLine
 10
85.70444504226549
 20
197.9999999999999
 30
0.0
 11
97.29555495773428
 21
197.9999999999999
 31
0.0
  0
LINE
  5
1A8
330
53
100
AcDbEntity
  8
0
  6
Continuous
 62
     7
100
AcDbLine
 10
97.29555495773428
 20
197.9999999999999
 30
0.0
 11
119.1506350946108
 21
197.9999999999999
 31
0.0
  0
ARC
  5
1A9
330
53
100
AcDbEntity
  8
1
  6
Continuous
 62
     7
100
AcDbCircle
 10
201.8641956652468
 20
134.0881789913007
 30
0.0
 40
74.99999999999996
100
AcDbArc
 50
80.40850751733497
 51
87.22136103403746
  0
ARC
  5
1AA
330
53
100
AcDbEntity
  8
1
  6
Continuous
 62
     7
100
AcDbCircle
 10
91.49999999999991
 20
265.9620225157158
 30
0.0
 40
6.0
100
AcDbArc
 50
270.0
 51
345.0000000000015
  0
ARC
  5
1AB
330
53
100
AcDbEntity
  8
1
  6
Continuous
 62
     7
100
AcDbCircle
 10
113.1506350946108
 20
303.4620225157158
 30
0.0
 40
5.999999999999908
100
AcDbArc
 50
315.000000000001
 51
97.52424107894018
  0
ARC
  5
1AC
330
53
100
AcDbEntity
  8
1
  6
Continuous
 62
     7
100
AcDbCircle
 10
69.84936490538894
 20
303.4620225157158
 30
0.0
 40
6.000000000000084
100
AcDbArc
 50
75.0000000000007
 51
224.9999999999988
  0
ARC
  5
1AD
330
53
100
AcDbEntity
  8
1
  6
Continuous
 62
     7
100
AcDbCircle
 10
91.49999999999991
 20
265.9620225157158
 30
0.0
 40
5.999999999999944
100
AcDbArc
 50
194.9999999999986
 51
270.0
  0
ARC
  5
1AE
330
53
100
AcDbEntity
  8
1
  6
Continuous
 62
     7
100
AcDbCircle
 10
201.5
 20
58.99999999999987
 30
0.0
 40
150.0533238552215
100
AcDbArc
 50
91.52752544221293
 51
99.80290179376779
  0
SPLINE
  5
1AF
330
53
100
AcDbEntity
  8
0
  6
Continuous
 62
     7
100
AcDbSpline
210
0.0
220
0.0
230
1.0
 70
     8
 71
     3
 72
    27
 73
    23
 74
    21
 42
0.000000001
 43
0.0000000001
 44
0.00000001
 40
0.0
 40
0.0
 40
0.0
 40
0.0
 40
4.618703476093671
 40
9.231168904026905
 40
14.16779432066427
 40
19.11374070271305
 40
19.52821633187695
 40
19.9414421753485
 40
20.35867862566417
 40
20.77691959977467
 40
21.19949484179314
 40
21.62164873037823
 40
22.04927937800896
 40
22.4770734256418
 40
23.01006104395812
 40
23.54331037797874
 40
23.88091938438417
 40
24.21795786693046
 40
24.65811334484685
 40
25.09931765306997
 40
27.475123956112
 40
29.84763482454809
 40
29.84763482454809
 40
29.84763482454809
 40
29.84763482454809
 10
95.49999999999986
 20
208.9999999999999
 30
0.0
 10
97.03873096939944
 20
208.9494528336873
 30
0.0
 10
100.1141146888943
 20
208.8484267657289
 30
0.0
 10
104.8284040900211
 20
208.5292581192477
 30
0.0
 10
109.6174308519671
 20
207.8554964846906
 30
0.0
 10
112.9784290044076
 20
207.1464902412836
 30
0.0
 10
114.8472605932365
 20
206.686730133131
 30
0.0
 10
115.2441278230171
 20
206.5633325536128
 30
0.0
 10
115.6253979779985
 20
206.3940422231516
 30
0.0
 10
115.9903694989106
 20
206.1864514832046
 30
0.0
 10
116.3378617314382
 20
205.9478975863927
 30
0.0
 10
116.665782046569
 20
205.6780538221809
 30
0.0
 10
116.9695241138153
 20
205.3787487540894
 30
0.0
 10
117.2697677074313
 20
205.0258066487648
 30
0.0
 10
117.5546384151483
 20
204.6161670280066
 30
0.0
 10
117.7817557660189
 20
204.2061248381327
 30
0.0
 10
117.9485668793792
 20
203.8394119471751
 30
0.0
 10
118.0783579788613
 20
203.4907806198063
 30
0.0
 10
118.1842723877419
 20
203.0981635268939
 30
0.0
 10
118.4088394681764
 20
202.0359067030582
 30
0.0
 10
118.7365057949702
 20
200.3371990696322
 30
0.0
 10
119.0126558835991
 20
198.7787058146396
 30
0.0
 10
119.1506350946108
 20
197.9999999999999
 30
0.0
 11
95.49999999999986
 21
208.9999999999999
 31
0.0
 11
100.1152563746506
 21
208.8215894896735
 31
0.0
 11
104.7152916075622
 21
208.4831915109663
 31
0.0
 11
109.6045200960645
 21
207.8007581139436
 31
0.0
 11
114.4451017966919
 21
206.7853003480476
 31
0.0
 11
114.8466484999372
 21
206.6825857310406
 31
0.0
 11
115.2400833970345
 21
206.5562347131456
 31
0.0
 11
115.6219189644595
 21
206.3880447752634
 31
0.0
 11
115.9859978299361
 21
206.1821999491718
 31
0.0
 11
116.3342967175136
 21
205.9429140942278
 31
0.0
 11
116.6601808628037
 21
205.674560913159
 31
0.0
 11
116.9648894078318
 21
205.3745264590136
 31
0.0
 11
117.2421477853369
 21
205.0487419603386
 31
0.0
 11
117.5468913208945
 21
204.6114695289787
 31
0.0
 11
117.8056742701933
 21
204.1452225582023
 31
0.0
 11
117.9449836905536
 21
203.8376957679299
 31
0.0
 11
118.0620414394742
 21
203.5216381430595
 31
0.0
 11
118.1802281240176
 21
203.0976466897989
 31
0.0
 11
118.2750561172837
 21
202.6667535553371
 31
0.0
 11
118.7307910126662
 21
200.3350671923335
 31
0.0
 11
119.1506350946108
 21
197.9999999999999
 31
0.0
  0
SPLINE
  5
1B0
330
53
100
AcDbEntity
  8
0
  6
Continuous
 62
     7
100
AcDbSpline
210
0.0
220
0.0
230
1.0
 70
     8
 71
     3
 72
    27
 73
    23
 74
    21
 42
0.000000001
 43
0.0000000001
 44
0.00000001
 40
0.0
 40
0.0
 40
0.0
 40
0.0
 40
4.618703476093685
 40
9.231168904026962
 40
14.16779432066418
 40
19.11374070271278
 40
19.52821633187668
 40
19.94144217534826
 40
20.35867862566392
 40
20.77691959977443
 40
21.19949484179288
 40
21.62164873037798
 40
22.04927937800873
 40
22.47707342564162
 40
23.01006104395794
 40
23.54331037797867
 40
23.88091938438411
 40
24.21795786693039
 40
24.6581133448468
 40
25.09931765306982
 40
27.47512395611191
 40
29.84763482454799
 40
29.84763482454799
 40
29.84763482454799
 40
29.84763482454799
 10
87.49999999999986
 20
208.9999999999999
 30
0.0
 10
85.9612690306003
 20
208.9494528336872
 30
0.0
 10
82.8858853111054
 20
208.848426765729
 30
0.0
 10
78.17159590997863
 20
208.5292581192476
 30
0.0
 10
73.38256914803267
 20
207.8554964846907
 30
0.0
 10
70.02157099559247
 20
207.1464902412833
 30
0.0
 10
68.1527394067635
 20
206.686730133131
 30
0.0
 10
67.75587217698292
 20
206.5633325536129
 30
0.0
 10
67.37460202200151
 20
206.3940422231517
 30
0.0
 10
67.00963050108936
 20
206.1864514832046
 30
0.0
 10
66.66213826856176
 20
205.9478975863927
 30
0.0
 10
66.33421795343092
 20
205.6780538221808
 30
0.0
 10
66.0304758861847
 20
205.3787487540894
 30
0.0
 10
65.7302322925686
 20
205.0258066487648
 30
0.0
 10
65.4453615848514
 20
204.6161670280067
 30
0.0
 10
65.21824423398073
 20
204.2061248381327
 30
0.0
 10
65.05143312062046
 20
203.8394119471752
 30
0.0
 10
64.92164202113835
 20
203.4907806198063
 30
0.0
 10
64.81572761225796
 20
203.0981635268939
 30
0.0
 10
64.59116053182369
 20
202.0359067030581
 30
0.0
 10
64.26349420503024
 20
200.337199069632
 30
0.0
 10
63.98734411640084
 20
198.7787058146396
 30
0.0
 10
63.8493649053889
 20
197.9999999999999
 30
0.0
 11
87.49999999999986
 21
208.9999999999999
 31
0.0
 11
82.88474362534909
 21
208.8215894896735
 31
0.0
 11
78.28470839243747
 21
208.4831915109663
 31
0.0
 11
73.39547990393528
 21
207.8007581139435
 31
0.0
 11
68.55489820330808
 21
206.7853003480476
 31
0.0
 11
68.15335150006277
 21
206.6825857310406
 31
0.0
 11
67.75991660296546
 21
206.5562347131456
 31
0.0
 11
67.3780810355405
 21
206.3880447752634
 31
0.0
 11
67.01400217006386
 21
206.1821999491718
 31
0.0
 11
66.66570328248635
 21
205.9429140942278
 31
0.0
 11
66.33981913719626
 21
205.674560913159
 31
0.0
 11
66.03511059216814
 21
205.3745264590136
 31
0.0
 11
65.75785221466296
 21
205.0487419603386
 31
0.0
 11
65.45310867910528
 21
204.6114695289787
 31
0.0
 11
65.19432572980637
 21
204.1452225582023
 31
0.0
 11
65.055016309446
 21
203.8376957679299
 31
0.0
 11
64.93795856052546
 21
203.5216381430595
 31
0.0
 11
64.81977187598224
 21
203.0976466897988
 31
0.0
 11
64.72494388271627
 21
202.6667535553371
 31
0.0
 11
64.26920898733404
 21
200.3350671923334
 31
0.0
 11
63.8493649053889
 21
197.9999999999999
 31
0.0
  0
ARC
  5
1B1
330
53
100
AcDbEntity
  8
1
  6
Continuous
 62
     7
100
AcDbCircle
 10
219.4247742879257
 20
198.4999999999999
 30
0.0
 40
0.5
100
AcDbArc
 50
270.0
 51
8.00409437169984
  0
ARC
  5
1B2
330
53
100
AcDbEntity
  8
1
  6
Continuous
 62
     7
100
AcDbCircle
 10
171.0751842036105
 20
198.4999999999999
 30
0.0
 40
0.4999999999999903
100
AcDbArc
 50
172.0000000000024
 51
270.0
  0
ARC
  5
1B3
330
53
100
AcDbEntity
  8
1
  6
Continuous
 62
     7
100
AcDbCircle
 10
213.3611371291541
 20
202.1236134131921
 30
0.0
 40
5.999999999999978
100
AcDbArc
 50
8.00409437170103
 51
80.40850751733541
  0
ARC
  5
1B4
330
53
100
AcDbEntity
  8
1
  6
Continuous
 62
     7
100
AcDbCircle
 10
125.0951098264315
 20
271.5658768139706
 30
0.0
 40
25.00000000000003
100
AcDbArc
 50
135.0
 51
165.0
  0
ARC
  5
1B5
330
53
100
AcDbEntity
  8
1
  6
Continuous
 62
     7
100
AcDbCircle
 10
91.49999999999991
 20
329.7543139192064
 30
0.0
 40
24.99999999999982
100
AcDbArc
 50
254.9999999999998
 51
285.0000000000001
  0
ARC
  5
1B6
330
53
100
AcDbEntity
  8
1
  6
Continuous
 62
     7
100
AcDbCircle
 10
57.90489017356833
 20
271.5658768139706
 30
0.0
 40
25.0
100
AcDbArc
 50
15.0
 51
45.00000000000005
  0
ARC
  5
1B7
330
53
100
AcDbEntity
  8
1
  6
Continuous
 62
     7
100
AcDbCircle
 10
176.9735666806815
 20
200.9500411495901
 30
0.0
 40
6.000000000000102
100
AcDbArc
 50
99.80290179376766
 51
172.0
  0
ENDBLK
  5
55
330
53
100
AcDbEntity
  8
0
100
AcDbBlockEnd
  0
BLOCK
  5
57
330
56
100
AcDbEntity
  8
0
100
AcDbBlockBegin
  2
37-1-13
 70
     0
 10
394.8685127454432
 20
153.5860408931497
 30
0.0
  3
37-1-13
  1

  0
LINE
  5
1B8
330
56
100
AcDbEntity
  8
1
  6
Continuous
 62
     7
100
AcDbLine
 10
78.49999999999991
 20
284.5394062263832
 30
0.0
 11
78.49999999999991
 21
285.737731005897
 31
0.0
  0
LINE
  5
1B9
330
56
100
AcDbEntity
  8
1
  6
Continuous
 62
     7
100
AcDbLine
 10
92.43785113467823
 20
305.4316609095798
 30
0.0
 11
93.47563083572132
 21
304.8324985198231
 31
0.0
  0
LINE
  5
1BA
330
56
100
AcDbEntity
  8
1
  6
Continuous
 62
     7
100
AcDbLine
 10
103.5621488653217
 20
282.9150004111845
 30
0.0
 11
102.5243691642785
 21
282.3158380214277
 31
0.0
  0
LINE
  5
1BB
330
56
100
AcDbEntity
  8
1
  6
Continuous
 62
     7
100
AcDbLine
 10
89.52436916427854
 20
304.8324985198231
 30
0.0
 11
90.56214886532172
 21
305.4316609095798
 31
0.0
  0
LINE
  5
1BC
330
56
100
AcDbEntity
  8
1
  6
Continuous
 62
     7
100
AcDbLine
 10
104.4999999999999
 20
285.7377310058969
 30
0.0
 11
104.4999999999999
 21
284.5394062263832
 31
0.0
  0
LINE
  5
1BD
330
56
100
AcDbEntity
  8
1
  6
Continuous
 62
     7
100
AcDbLine
 10
80.47563083572132
 20
282.3158380214277
 30
0.0
 11
79.43785113467823
 21
282.9150004111845
 31
0.0
  0
LINE
  5
1BE
330
56
100
AcDbEntity
  8
1
  6
Continuous
 62
     7
100
AcDbLine
 10
207.5
 20
195.0
 30
0.0
 11
195.5
 21
195.0
 31
0.0
  0
LINE
  5
1BF
330
56
100
AcDbEntity
  8
1
  6
Continuous
 62
     7
100
AcDbLine
 10
188.4292857857287
 20
181.0
 30
0.0
 11
214.5707142142714
 21
181.0
 31
0.0
  0
LINE
  5
1C0
330
56
100
AcDbEntity
  8
1
  6
Continuous
 62
     7
100
AcDbLine
 10
78.5
 20
180.9296912881848
 30
0.0
 11
91.5
 21
180.9296912881848
 31
0.0
  0
LINE
  5
1C1
330
56
100
AcDbEntity
  8
1
  6
Continuous
 62
     7
100
AcDbLine
 10
91.5
 20
180.9296912881848
 30
0.0
 11
104.5
 21
180.9296912881848
 31
0.0
  0
LINE
  5
1C2
330
56
100
AcDbEntity
  8
1
  6
Continuous
 62
     7
100
AcDbLine
 10
104.5
 20
188.0004055024563
 30
0.0
 11
104.5
 21
180.9296912881848
 31
0.0
  0
LINE
  5
1C3
330
56
100
AcDbEntity
  8
1
  6
Continuous
 62
     7
100
AcDbLine
 10
78.5
 20
180.9296912881848
 30
0.0
 11
78.5
 21
188.0004055024562
 31
0.0
  0
LINE
  5
1C4
330
56
100
AcDbEntity
  8
1
  6
Continuous
 62
     7
100
AcDbLine
 10
97.49999999999997
 20
194.9296912881848
 30
0.0
 11
85.5
 21
194.9296912881848
 31
0.0
  0
ARC
  5
1C5
330
56
100
AcDbEntity
  8
1
  6
Continuous
 62
     7
100
AcDbCircle
 10
91.5
 20
290.9620225157159
 30
0.0
 40
14.50000000000012
100
AcDbArc
 50
206.2915552747296
 51
213.7084447252704
  0
ARC
  5
1C6
330
56
100
AcDbEntity
  8
1
  6
Continuous
 62
     7
100
AcDbCircle
 10
91.5
 20
290.9620225157159
 30
0.0
 40
14.49999999999989
100
AcDbArc
 50
90.00000000000034
 51
93.70844472527077
  0
ARC
  5
1C7
330
56
100
AcDbEntity
  8
1
  6
Continuous
 62
     7
100
AcDbCircle
 10
91.5
 20
290.9620225157159
 30
0.0
 40
14.49999999999994
100
AcDbArc
 50
326.2915552747294
 51
333.7084447252701
  0
ARC
  5
1C8
330
56
100
AcDbEntity
  8
1
  6
Continuous
 62
     7
100
AcDbCircle
 10
91.5
 20
290.9620225157159
 30
0.0
 40
14.49999999999994
100
AcDbArc
 50
86.29155527472946
 51
90.00000000000034
  0
ARC
  5
1C9
330
56
100
AcDbEntity
  8
1
  6
Continuous
 62
     7
100
AcDbCircle
 10
175.5935447948851
 20
208.406455205115
 30
0.0
 40
24.00000000000007
100
AcDbArc
 50
303.9591925000979
 51
326.0408074999023
  0
ARC
  5
1CA
330
56
100
AcDbEntity
  8
1
  6
Continuous
 62
     7
100
AcDbCircle
 10
192.0
 20
184.5
 30
0.0
 40
4.999999999999972
100
AcDbArc
 50
126.8698976458414
 51
224.4270040008066
  0
ARC
  5
1CB
330
56
100
AcDbEntity
  8
1
  6
Continuous
 62
     7
100
AcDbCircle
 10
227.4064552051149
 20
208.4064552051149
 30
0.0
 40
23.99999999999996
100
AcDbArc
 50
213.9591925000975
 51
236.0408074999021
  0
ARC
  5
1CC
330
56
100
AcDbEntity
  8
1
  6
Continuous
 62
     7
100
AcDbCircle
 10
211.0
 20
184.5
 30
0.0
 40
4.999999999999975
100
AcDbArc
 50
315.572995999194
 51
53.13010235415781
  0
ARC
  5
1CD
330
56
100
AcDbEntity
  8
1
  6
Continuous
 62
     7
100
AcDbCircle
 10
101.0
 20
184.4296912881848
 30
0.0
 40
5.000000000000036
100
AcDbArc
 50
45.57299599919471
 51
53.13010235415826
  0
ARC
  5
1CE
330
56
100
AcDbEntity
  8
1
  6
Continuous
 62
     7
100
AcDbCircle
 10
82.0
 20
184.4296912881848
 30
0.0
 40
5.000000000000057
100
AcDbArc
 50
126.8698976458411
 51
134.427004000806
  0
ARC
  5
1CF
330
56
100
AcDbEntity
  8
1
  6
Continuous
 62
     7
100
AcDbCircle
 10
117.4064552051149
 20
208.3361464932998
 30
0.0
 40
24.00000000000003
100
AcDbArc
 50
213.9591925000976
 51
236.0408074999022
  0
ARC
  5
1D0
330
56
100
AcDbEntity
  8
1
  6
Continuous
 62
     7
100
AcDbCircle
 10
65.59354479488508
 20
208.3361464932998
 30
0.0
 40
23.99999999999998
100
AcDbArc
 50
303.959192500098
 51
326.0408074999024
  0
SPLINE
  5
1D1
330
56
100
AcDbEntity
  8
1
  6
Continuous
 62
     7
100
AcDbSpline
210
0.0
220
0.0
230
1.0
 70
    11
 71
     3
 72
    79
 73
    75
 74
    73
 42
0.000000001
 43
0.0000000001
 44
0.00000001
 40
0.0
 40
0.0
 40
0.0
 40
0.0
 40
0.3102615582251871
 40
0.6205595420821188
 40
0.9422162975289012
 40
1.263944872753746
 40
1.606039020844936
 40
1.948193468906912
 40
2.316051885190415
 40
2.683951048239873
 40
3.079084664080368
 40
3.474244780173801
 40
3.894897959207605
 40
4.315568207494199
 40
4.757452126736412
 40
5.199346674241601
 40
5.656354161986973
 40
6.113367478658016
 40
6.578223037733263
 40
7.043080455842955
 40
7.507937873950384
 40
7.972793433018663
 40
8.429806749677475
 40
8.886814237403327
 40
9.328708784880146
 40
9.770592704081256
 40
10.19126295231251
 40
10.61191613126911
 40
11.00707624726305
 40
11.40220986296872
 40
11.77010902584981
 40
12.13796744190978
 40
12.48012188969627
 40
12.8222160374192
 40
13.14394461216139
 40
13.4656013668247
 40
13.77589934864138
 40
14.08616091447246
 40
14.39642248030362
 40
14.7067204621203
 40
15.02837721678359
 40
15.3501057915258
 40
15.69219993924872
 40
16.03435438703522
 40
16.4022128030952
 40
16.77011196597628
 40
17.16524558168192
 40
17.56040569767583
 40
17.98105887663246
 40
18.40172912486373
 40
18.84361304406481
 40
19.28550759154166
 40
19.74251507926751
 40
20.19952839592632
 40
20.66438395499462
 40
21.12924137310203
 40
21.59409879121174
 40
22.05895435028697
 40
22.51596766695802
 40
22.97297515470339
 40
23.41486970220859
 40
23.85675362145079
 40
24.27742386973743
 40
24.69807704877123
 40
25.09323716486465
 40
25.4883707807051
 40
25.85626994375455
 40
26.22412836003806
 40
26.56628280810004
 40
26.90837695619123
 40
27.23010553141608
 40
27.55176228686285
 40
27.86206027071978
 40
28.17232182894506
 40
28.17232182894506
 40
28.17232182894506
 40
28.17232182894506
 10
90.56214886532177
 20
184.4650483953206
 30
0.0
 10
90.55811567360577
 20
184.5685385772428
 30
0.0
 10
90.55004882493498
 20
184.7755310915875
 30
0.0
 10
90.48606484712543
 20
185.0843799596101
 30
0.0
 10
90.38464405082803
 20
185.3863468733441
 30
0.0
 10
90.24222155073039
 20
185.683256529459
 30
0.0
 10
90.06311897797028
 20
185.967574637819
 30
0.0
 10
89.8451487101098
 20
186.2430756841156
 30
0.0
 10
89.59486655607483
 20
186.501681704784
 30
0.0
 10
89.30840439430321
 20
186.7474395943969
 30
0.0
 10
88.99457364201591
 20
186.9730848545915
 30
0.0
 10
88.64865947698462
 20
187.1818565224794
 30
0.0
 10
88.28054068483414
 20
187.3680772907508
 30
0.0
 10
87.8858467499173
 20
187.5337618210972
 30
0.0
 10
87.47429354994543
 20
187.675069593947
 30
0.0
 10
87.04286785035092
 20
187.7928490825214
 30
0.0
 10
86.60009382164043
 20
187.8849673841601
 30
0.0
 10
86.14503582304648
 20
187.951453311553
 30
0.0
 10
85.68426872096535
 20
187.9915108684633
 30
0.0
 10
85.21934654553434
 20
188.0048528257583
 30
0.0
 10
84.75442437010739
 20
187.9915108685417
 30
0.0
 10
84.29365726801473
 20
187.9514533117142
 30
0.0
 10
83.83859926946256
 20
187.8849673844126
 30
0.0
 10
83.39582524059769
 20
187.7928490828777
 30
0.0
 10
82.96439954155599
 20
187.6750695944248
 30
0.0
 10
82.55284633955723
 20
187.5337618217169
 30
0.0
 10
82.15815241183498
 20
187.3680772915397
 30
0.0
 10
81.79003359361288
 20
187.1818565234659
 30
0.0
 10
81.44411952018973
 20
186.9730848558135
 30
0.0
 10
81.13028843825161
 20
186.7474395958906
 30
0.0
 10
80.84382742577867
 20
186.5016817065993
 30
0.0
 10
80.59354114670566
 20
186.2430756863004
 30
0.0
 10
80.37558524869861
 20
185.967574640444
 30
0.0
 10
80.19643093495938
 20
185.6832565326047
 30
0.0
 10
80.05419058357177
 20
185.3863468771923
 30
0.0
 10
79.9521069315317
 20
185.084379964683
 30
0.0
 10
79.8905136916037
 20
184.7755310955366
 30
0.0
 10
79.86955988814205
 20
184.4650483953206
 30
0.0
 10
79.8905136916037
 20
184.1545656951046
 30
0.0
 10
79.95210693153167
 20
183.845716825958
 30
0.0
 10
80.0541905835718
 20
183.5437499134489
 30
0.0
 10
80.19643093495937
 20
183.2468402580364
 30
0.0
 10
80.37558524869863
 20
182.9625221501972
 30
0.0
 10
80.59354114670566
 20
182.6870211043407
 30
0.0
 10
80.8438274257787
 20
182.4284150840418
 30
0.0
 10
81.13028843825163
 20
182.1826571947504
 30
0.0
 10
81.44411952018974
 20
181.9570119348277
 30
0.0
 10
81.7900335936129
 20
181.7482402671753
 30
0.0
 10
82.15815241183496
 20
181.5620194991014
 30
0.0
 10
82.5528463395572
 20
181.3963349689242
 30
0.0
 10
82.96439954155602
 20
181.2550271962163
 30
0.0
 10
83.39582524059766
 20
181.1372477077635
 30
0.0
 10
83.83859926946252
 20
181.0451294062285
 30
0.0
 10
84.29365726801475
 20
180.978643478927
 30
0.0
 10
84.75442437010736
 20
180.9385859220993
 30
0.0
 10
85.21934654553438
 20
180.9252439648827
 30
0.0
 10
85.68426872096535
 20
180.9385859221779
 30
0.0
 10
86.14503582304653
 20
180.9786434790881
 30
0.0
 10
86.60009382164041
 20
181.0451294064811
 30
0.0
 10
87.04286785035094
 20
181.1372477081197
 30
0.0
 10
87.47429354994536
 20
181.2550271966942
 30
0.0
 10
87.88584674991736
 20
181.3963349695438
 30
0.0
 10
88.28054068483411
 20
181.5620194998905
 30
0.0
 10
88.64865947698458
 20
181.7482402681618
 30
0.0
 10
88.99457364201592
 20
181.9570119360496
 30
0.0
 10
89.30840439430324
 20
182.1826571962441
 30
0.0
 10
89.59486655607483
 20
182.4284150858571
 30
0.0
 10
89.84514871010978
 20
182.6870211065256
 30
0.0
 10
90.06311897797028
 20
182.962522152822
 30
0.0
 10
90.24222155073036
 20
183.2468402611822
 30
0.0
 10
90.38464405082806
 20
183.543749917297
 30
0.0
 10
90.48606484712542
 20
183.845716831031
 30
0.0
 10
90.55004882493495
 20
184.1545656990538
 30
0.0
 10
90.55811567360578
 20
184.3615582133984
 30
0.0
 10
90.56214886532177
 20
184.4650483953206
 30
0.0
 11
90.56214886532177
 21
184.4650483953206
 31
0.0
 11
90.54153177212098
 21
184.7746241934572
 31
0.0
 11
90.48097969272288
 21
185.0789567143765
 31
0.0
 11
90.37851280409096
 21
185.3838560496399
 31
0.0
 11
90.23993845916209
 21
185.6742117398105
 31
0.0
 11
90.05814641480478
 21
185.9640048705019
 31
0.0
 11
89.84634908054858
 21
186.2327269488884
 31
0.0
 11
89.59099257027475
 21
186.4975152926573
 31
0.0
 11
89.31217057098556
 21
186.7375321396046
 31
0.0
 11
88.99167864336054
 21
186.9686500719299
 31
0.0
 11
88.65363367417856
 21
187.1732890616831
 31
0.0
 11
88.27846995033443
 21
187.3635553942743
 31
0.0
 11
87.89074770050166
 21
187.5267574615499
 31
0.0
 11
87.47291137604034
 21
187.6705427321319
 31
0.0
 11
87.04669255422579
 21
187.787197380739
 31
0.0
 11
86.59930258813591
 21
187.8804607824384
 31
0.0
 11
86.14711442385828
 21
187.9466954840946
 31
0.0
 11
85.68401121064583
 21
187.9870204728613
 31
0.0
 11
85.21934653568147
 21
188.0004055024562
 31
0.0
 11
84.7546818607172
 21
187.9870204728613
 31
0.0
 11
84.29157864750488
 21
187.9466954840946
 31
0.0
 11
83.83939048322725
 21
187.8804607824384
 31
0.0
 11
83.39200051713738
 21
187.787197380739
 31
0.0
 11
82.9657816953229
 21
187.6705427321319
 31
0.0
 11
82.54794537086167
 21
187.5267574615499
 31
0.0
 11
82.16022312102888
 21
187.3635553942742
 31
0.0
 11
81.78505939718471
 21
187.1732890616831
 31
0.0
 11
81.44701442800266
 21
186.9686500719299
 31
0.0
 11
81.12652250037758
 21
186.7375321396046
 31
0.0
 11
80.8477005010884
 21
186.4975152926573
 31
0.0
 11
80.59234399081458
 21
186.2327269488884
 31
0.0
 11
80.38054665655838
 21
185.9640048705019
 31
0.0
 11
80.19875461220107
 21
185.6742117398105
 31
0.0
 11
80.06018026727224
 21
185.3838560496399
 31
0.0
 11
79.95771337864036
 21
185.0789567143765
 31
0.0
 11
79.89716129924221
 21
184.7746241934572
 31
0.0
 11
79.87654420604136
 21
184.4650483953206
 31
0.0
 11
79.89716129924221
 21
184.1554725971839
 31
0.0
 11
79.95771337864036
 21
183.8511400762646
 31
0.0
 11
80.06018026727224
 21
183.5462407410012
 31
0.0
 11
80.19875461220107
 21
183.2558850508306
 31
0.0
 11
80.38054665655837
 21
182.9660919201392
 31
0.0
 11
80.59234399081458
 21
182.6973698417527
 31
0.0
 11
80.84770050108841
 21
182.4325814979838
 31
0.0
 11
81.12652250037758
 21
182.1925646510365
 31
0.0
 11
81.44701442800267
 21
181.9614467187112
 31
0.0
 11
81.78505939718471
 21
181.7568077289581
 31
0.0
 11
82.16022312102888
 21
181.5665413963669
 31
0.0
 11
82.54794537086167
 21
181.4033393290912
 31
0.0
 11
82.96578169532289
 21
181.2595540585092
 31
0.0
 11
83.39200051713738
 21
181.1428994099021
 31
0.0
 11
83.83939048322725
 21
181.0496360082027
 31
0.0
 11
84.29157864750488
 21
180.9834013065465
 31
0.0
 11
84.75468186071721
 21
180.9430763177798
 31
0.0
 11
85.21934653568147
 21
180.9296912881848
 31
0.0
 11
85.68401121064585
 21
180.9430763177798
 31
0.0
 11
86.14711442385828
 21
180.9834013065465
 31
0.0
 11
86.59930258813591
 21
181.0496360082027
 31
0.0
 11
87.04669255422579
 21
181.1428994099021
 31
0.0
 11
87.47291137604034
 21
181.2595540585092
 31
0.0
 11
87.89074770050166
 21
181.4033393290912
 31
0.0
 11
88.27846995033443
 21
181.5665413963669
 31
0.0
 11
88.65363367417856
 21
181.7568077289581
 31
0.0
 11
88.99167864336054
 21
181.9614467187112
 31
0.0
 11
89.31217057098556
 21
182.1925646510365
 31
0.0
 11
89.59099257027475
 21
182.4325814979838
 31
0.0
 11
89.84634908054858
 21
182.6973698417527
 31
0.0
 11
90.0581464148048
 21
182.9660919201392
 31
0.0
 11
90.23993845916209
 21
183.2558850508306
 31
0.0
 11
90.37851280409097
 21
183.5462407410012
 31
0.0
 11
90.48097969272288
 21
183.8511400762646
 31
0.0
 11
90.54153177212096
 21
184.1554725971839
 31
0.0
 11
90.56214886532177
 21
184.4650483953206
 31
0.0
  0
SPLINE
  5
1D2
330
56
100
AcDbEntity
  8
1
  6
Continuous
 62
     7
100
AcDbSpline
210
0.0
220
0.0
230
1.0
 70
    11
 71
     3
 72
    79
 73
    75
 74
    73
 42
0.000000001
 43
0.0000000001
 44
0.00000001
 40
0.0
 40
0.0
 40
0.0
 40
0.0
 40
0.310261558225188
 40
0.620559542082117
 40
0.9422162975288678
 40
1.26394487275367
 40
1.606039020844867
 40
1.948193468906887
 40
2.316051885190409
 40
2.683951048239907
 40
3.079084664080282
 40
3.474244780173596
 40
3.894897959207476
 40
4.315568207494175
 40
4.757452126736294
 40
5.199346674241387
 40
5.656354161986897
 40
6.113367478658109
 40
6.578223037733243
 40
7.043080455842821
 40
7.507937873950179
 40
7.972793433018444
 40
8.42980674967734
 40
8.886814237403302
 40
9.32870878488019
 40
9.770592704081356
 40
10.19126295231263
 40
10.61191613126925
 40
11.00707624726315
 40
11.40220986296874
 40
11.77010902584989
 40
12.13796744190989
 40
12.48012188969637
 40
12.82221603741925
 40
13.14394461216142
 40
13.46560136682471
 40
13.77589934864138
 40
14.08616091447245
 40
14.39642248030361
 40
14.70672046212028
 40
15.02837721678352
 40
15.35010579152573
 40
15.69219993924862
 40
16.03435438703509
 40
16.40221280309505
 40
16.77011196597623
 40
17.16524558168182
 40
17.56040569767566
 40
17.9810588766323
 40
18.4017291248636
 40
18.84361304406476
 40
19.28550759154165
 40
19.7425150792676
 40
20.19952839592651
 40
20.66438395499476
 40
21.12924137310214
 40
21.59409879121173
 40
22.05895435028685
 40
22.5159676669579
 40
22.97297515470327
 40
23.41486970220852
 40
23.85675362145078
 40
24.27742386973752
 40
24.6980770487714
 40
25.09323716486469
 40
25.48837078070503
 40
25.85626994375454
 40
26.22412836003805
 40
26.56628280810007
 40
26.90837695619126
 40
27.23010553141607
 40
27.55176228686281
 40
27.8620602707198
 40
28.17232182894502
 40
28.17232182894502
 40
28.17232182894502
 40
28.17232182894502
 10
92.43785113467828
 20
184.4650483953206
 30
0.0
 10
92.44188432639432
 20
184.5685385772428
 30
0.0
 10
92.44995117506511
 20
184.7755310915875
 30
0.0
 10
92.51393515287464
 20
185.08437995961
 30
0.0
 10
92.61535594917193
 20
185.3863468733441
 30
0.0
 10
92.75777844926947
 20
185.683256529459
 30
0.0
 10
92.93688102202964
 20
185.9675746378191
 30
0.0
 10
93.15485128989013
 20
186.2430756841155
 30
0.0
 10
93.40513344392521
 20
186.501681704784
 30
0.0
 10
93.69159560569675
 20
186.7474395943969
 30
0.0
 10
94.005426357984
 20
186.9730848545915
 30
0.0
 10
94.35134052301517
 20
187.1818565224794
 30
0.0
 10
94.71945931516571
 20
187.3680772907508
 30
0.0
 10
95.11415325008252
 20
187.5337618210971
 30
0.0
 10
95.52570645005447
 20
187.675069593947
 30
0.0
 10
95.95713214964888
 20
187.7928490825214
 30
0.0
 10
96.39990617835947
 20
187.88496738416
 30
0.0
 10
96.85496417695344
 20
187.951453311553
 30
0.0
 10
97.3157312790346
 20
187.9915108684632
 30
0.0
 10
97.7806534544655
 20
188.0048528257583
 30
0.0
 10
98.24557562989243
 20
187.9915108685417
 30
0.0
 10
98.70634273198502
 20
187.9514533117142
 30
0.0
 10
99.16140073053727
 20
187.8849673844125
 30
0.0
 10
99.60417475940227
 20
187.7928490828777
 30
0.0
 10
100.035600458444
 20
187.6750695944249
 30
0.0
 10
100.4471536604428
 20
187.5337618217169
 30
0.0
 10
100.8418475881652
 20
187.3680772915398
 30
0.0
 10
101.2099664063872
 20
187.1818565234659
 30
0.0
 10
101.5558804798103
 20
186.9730848558134
 30
0.0
 10
101.8697115617483
 20
186.7474395958906
 30
0.0
 10
102.1561725742214
 20
186.5016817065994
 30
0.0
 10
102.4064588532944
 20
186.2430756863004
 30
0.0
 10
102.6244147513014
 20
185.967574640444
 30
0.0
 10
102.8035690650406
 20
185.6832565326047
 30
0.0
 10
102.9458094164282
 20
185.3863468771923
 30
0.0
 10
103.0478930684682
 20
185.084379964683
 30
0.0
 10
103.1094863083961
 20
184.7755310955366
 30
0.0
 10
103.1304401118577
 20
184.4650483953206
 30
0.0
 10
103.1094863083961
 20
184.1545656951045
 30
0.0
 10
103.0478930684682
 20
183.8457168259581
 30
0.0
 10
102.9458094164281
 20
183.5437499134488
 30
0.0
 10
102.8035690650406
 20
183.2468402580365
 30
0.0
 10
102.6244147513014
 20
182.9625221501971
 30
0.0
 10
102.4064588532945
 20
182.6870211043407
 30
0.0
 10
102.1561725742213
 20
182.4284150840418
 30
0.0
 10
101.8697115617484
 20
182.1826571947505
 30
0.0
 10
101.5558804798103
 20
181.9570119348278
 30
0.0
 10
101.2099664063872
 20
181.7482402671753
 30
0.0
 10
100.8418475881651
 20
181.5620194991015
 30
0.0
 10
100.4471536604428
 20
181.3963349689241
 30
0.0
 10
100.035600458444
 20
181.2550271962163
 30
0.0
 10
99.60417475940226
 20
181.1372477077634
 30
0.0
 10
99.16140073053728
 20
181.0451294062285
 30
0.0
 10
98.70634273198503
 20
180.9786434789269
 30
0.0
 10
98.24557562989241
 20
180.9385859220993
 30
0.0
 10
97.7806534544655
 20
180.9252439648827
 30
0.0
 10
97.31573127903457
 20
180.9385859221778
 30
0.0
 10
96.85496417695353
 20
180.9786434790881
 30
0.0
 10
96.39990617835966
 20
181.0451294064811
 30
0.0
 10
95.95713214964908
 20
181.1372477081197
 30
0.0
 10
95.52570645005461
 20
181.2550271966942
 30
0.0
 10
95.11415325008255
 20
181.3963349695438
 30
0.0
 10
94.71945931516574
 20
181.5620194998905
 30
0.0
 10
94.35134052301517
 20
181.7482402681618
 30
0.0
 10
94.005426357984
 20
181.9570119360496
 30
0.0
 10
93.69159560569673
 20
182.1826571962442
 30
0.0
 10
93.4051334439252
 20
182.4284150858571
 30
0.0
 10
93.15485128989016
 20
182.6870211065257
 30
0.0
 10
92.93688102202961
 20
182.962522152822
 30
0.0
 10
92.75777844926947
 20
183.2468402611821
 30
0.0
 10
92.61535594917191
 20
183.543749917297
 30
0.0
 10
92.51393515287462
 20
183.845716831031
 30
0.0
 10
92.44995117506508
 20
184.1545656990537
 30
0.0
 10
92.44188432639429
 20
184.3615582133984
 30
0.0
 10
92.43785113467828
 20
184.4650483953206
 30
0.0
 11
92.43785113467828
 21
184.4650483953206
 31
0.0
 11
92.4584682278791
 21
184.7746241934572
 31
0.0
 11
92.51902030727717
 21
185.0789567143765
 31
0.0
 11
92.621487195909
 21
185.3838560496399
 31
0.0
 11
92.76006154083777
 21
185.6742117398105
 31
0.0
 11
92.94185358519509
 21
185.9640048705019
 31
0.0
 11
93.15365091945137
 21
186.2327269488884
 31
0.0
 11
93.40900742972525
 21
186.4975152926573
 31
0.0
 11
93.68782942901447
 21
186.7375321396046
 31
0.0
 11
94.00832135663936
 21
186.9686500719299
 31
0.0
 11
94.34636632582118
 21
187.1732890616831
 31
0.0
 11
94.7215300496654
 21
187.3635553942743
 31
0.0
 11
95.10925229949828
 21
187.5267574615499
 31
0.0
 11
95.5270886239595
 21
187.6705427321319
 31
0.0
 11
95.95330744577396
 21
187.787197380739
 31
0.0
 11
96.40069741186397
 21
187.8804607824384
 31
0.0
 11
96.85288557614177
 21
187.9466954840946
 31
0.0
 11
97.31598878935411
 21
187.9870204728613
 31
0.0
 11
97.78065346431836
 21
188.0004055024562
 31
0.0
 11
98.24531813928256
 21
187.9870204728613
 31
0.0
 11
98.70842135249487
 21
187.9466954840946
 31
0.0
 11
99.16060951677258
 21
187.8804607824384
 31
0.0
 11
99.60799948286257
 21
187.787197380739
 31
0.0
 11
100.0342183046771
 21
187.6705427321319
 31
0.0
 11
100.4520546291384
 21
187.5267574615499
 31
0.0
 11
100.8397768789712
 21
187.3635553942742
 31
0.0
 11
101.2149406028154
 21
187.1732890616831
 31
0.0
 11
101.5529855719974
 21
186.9686500719299
 31
0.0
 11
101.8734774996224
 21
186.7375321396046
 31
0.0
 11
102.1522994989116
 21
186.4975152926573
 31
0.0
 11
102.4076560091855
 21
186.2327269488884
 31
0.0
 11
102.6194533434417
 21
185.9640048705019
 31
0.0
 11
102.8012453877989
 21
185.6742117398105
 31
0.0
 11
102.9398197327277
 21
185.3838560496399
 31
0.0
 11
103.0422866213595
 21
185.0789567143765
 31
0.0
 11
103.1028387007576
 21
184.7746241934572
 31
0.0
 11
103.1234557939584
 21
184.4650483953206
 31
0.0
 11
103.1028387007576
 21
184.1554725971839
 31
0.0
 11
103.0422866213595
 21
183.8511400762646
 31
0.0
 11
102.9398197327277
 21
183.5462407410013
 31
0.0
 11
102.8012453877989
 21
183.2558850508306
 31
0.0
 11
102.6194533434417
 21
182.9660919201392
 31
0.0
 11
102.4076560091855
 21
182.6973698417527
 31
0.0
 11
102.1522994989116
 21
182.4325814979838
 31
0.0
 11
101.8734774996224
 21
182.1925646510365
 31
0.0
 11
101.5529855719974
 21
181.9614467187112
 31
0.0
 11
101.2149406028154
 21
181.7568077289581
 31
0.0
 11
100.8397768789712
 21
181.5665413963669
 31
0.0
 11
100.4520546291384
 21
181.4033393290912
 31
0.0
 11
100.0342183046771
 21
181.2595540585092
 31
0.0
 11
99.60799948286257
 21
181.1428994099021
 31
0.0
 11
99.1606095167726
 21
181.0496360082027
 31
0.0
 11
98.70842135249487
 21
180.9834013065465
 31
0.0
 11
98.24531813928257
 21
180.9430763177798
 31
0.0
 11
97.78065346431836
 21
180.9296912881848
 31
0.0
 11
97.3159887893541
 21
180.9430763177798
 31
0.0
 11
96.85288557614177
 21
180.9834013065465
 31
0.0
 11
96.40069741186414
 21
181.0496360082027
 31
0.0
 11
95.95330744577427
 21
181.1428994099021
 31
0.0
 11
95.52708862395966
 21
181.2595540585092
 31
0.0
 11
95.10925229949828
 21
181.4033393290912
 31
0.0
 11
94.7215300496654
 21
181.5665413963669
 31
0.0
 11
94.34636632582118
 21
181.7568077289581
 31
0.0
 11
94.00832135663936
 21
181.9614467187112
 31
0.0
 11
93.68782942901447
 21
182.1925646510365
 31
0.0
 11
93.40900742972525
 21
182.4325814979838
 31
0.0
 11
93.15365091945137
 21
182.6973698417527
 31
0.0
 11
92.94185358519509
 21
182.9660919201392
 31
0.0
 11
92.76006154083777
 21
183.2558850508306
 31
0.0
 11
92.62148719590898
 21
183.5462407410012
 31
0.0
 11
92.51902030727717
 21
183.8511400762646
 31
0.0
 11
92.45846822787908
 21
184.1554725971839
 31
0.0
 11
92.43785113467828
 21
184.4650483953206
 31
0.0
  0
SPLINE
  5
1D3
330
56
100
AcDbEntity
  8
1
  6
Continuous
 62
     7
100
AcDbSpline
210
0.0
220
0.0
230
1.0
 70
    11
 71
     3
 72
    79
 73
    75
 74
    73
 42
0.000000001
 43
0.0000000001
 44
0.00000001
 40
0.0
 40
0.0
 40
0.0
 40
0.0
 40
0.3219191065761257
 40
0.6433817936226406
 40
0.9928750027373507
 40
1.341795136668618
 40
1.729749024779447
 40
2.117262753762459
 40
2.547908612129193
 40
2.978266912591562
 40
3.450266272796283
 40
3.922086448925872
 40
4.429962875078055
 40
4.937730794206813
 40
5.473111498179015
 40
6.008430496810322
 40
6.561033305606072
 40
7.113608118626764
 40
7.672061090161401
 40
8.230514061698422
 40
8.783088874725792
 40
9.335691683531579
 40
9.871010682174036
 40
10.40639138615612
 40
10.91415930528947
 40
11.42203573143631
 40
11.89385590754536
 40
12.36585526770458
 40
12.79621356809218
 40
13.22685942633422
 40
13.61437315514082
 40
14.00232704297796
 40
14.35124717651876
 40
14.70074038494139
 40
15.0222030698644
 40
15.34412218308093
 40
15.6557003533689
 40
15.96727852365578
 40
16.28919763686924
 40
16.6106603217875
 40
16.96015353020373
 40
17.30907366373758
 40
17.6970275515668
 40
18.08454128036561
 40
18.51518713859948
 40
18.94554543897942
 40
19.41754479913097
 40
19.88936497523305
 40
20.39724140137317
 40
20.90500932050073
 40
21.44039002447757
 40
21.97570902311572
 40
22.52831183191807
 40
23.08088664494321
 40
23.63933961647937
 40
24.19779258801469
 40
24.75036740103783
 40
25.30297020983807
 40
25.83828920847588
 40
26.37366991245679
 40
26.88143783159608
 40
27.38931425776074
 40
27.86113443390348
 40
28.33313379412177
 40
28.76349209459561
 40
29.19413795296936
 40
29.58165168194938
 40
29.9696055700341
 40
30.31852570388562
 40
30.66801891273313
 40
30.98948159820593
 40
31.3114007122301
 40
31.62297888471764
 40
31.93455704876379
 40
31.93455704876379
 40
31.93455704876379
 40
31.93455704876379
 10
207.8972942143643
 20
184.845904605591
 30
0.0
 10
207.8755701978711
 20
184.9512235290389
 30
0.0
 10
207.8321529750469
 20
185.1617120561248
 30
0.0
 10
207.7025595201955
 20
185.4682052019112
 30
0.0
 10
207.5320444128811
 20
185.7631249129834
 30
0.0
 10
207.311265531571
 20
186.0513239799148
 30
0.0
 10
207.0513079936971
 20
186.3222789109404
 30
0.0
 10
206.7450761806164
 20
186.5836495333457
 30
0.0
 10
206.4050255342435
 20
186.824497341057
 30
0.0
 10
206.0228350102343
 20
187.0519192515607
 30
0.0
 10
205.6126027598147
 20
187.2565974780191
 30
0.0
 10
205.1660319278154
 20
187.4437654412372
 30
0.0
 10
204.6973673061663
 20
187.6065583576735
 30
0.0
 10
204.1998694300756
 20
187.7481851195439
 30
0.0
 10
203.6864072068665
 20
187.8642370411965
 30
0.0
 10
203.1529676263038
 20
187.9563077094793
 30
0.0
 10
202.609866648532
 20
188.021998776888
 30
0.0
 10
202.0565509450454
 20
188.0619517115858
 30
0.0
 10
201.5000000099907
 20
188.0751186449753
 30
0.0
 10
200.9434490749154
 20
188.0619517114899
 30
0.0
 10
200.3901333714913
 20
188.0219987766891
 30
0.0
 10
199.8470323934953
 20
187.9563077092348
 30
0.0
 10
199.3135928137475
 20
187.8642370407509
 30
0.0
 10
198.8001305875773
 20
187.7481851195382
 30
0.0
 10
198.3026327220031
 20
187.6065583559235
 30
0.0
 10
197.8339680624744
 20
187.4437654457118
 30
0.0
 10
197.387397362312
 20
187.2565974609291
 30
0.0
 10
196.977164641733
 20
187.0519193116598
 30
0.0
 10
196.5949757256278
 20
186.8244971376674
 30
0.0
 10
196.2549193908561
 20
186.5836502628801
 30
0.0
 10
195.9487067984351
 20
186.3222764892298
 30
0.0
 10
195.6886814469392
 20
186.0513326777663
 30
0.0
 10
195.4681316808868
 20
185.7630960441928
 30
0.0
 10
195.2968022180903
 20
185.4683098613493
 30
0.0
 10
195.1700191924796
 20
185.1613558983242
 30
0.0
 10
195.0953719347633
 20
184.8506046740093
 30
0.0
 10
195.0685364296302
 20
184.5353571074638
 30
0.0
 10
195.0953719347547
 20
184.2201095409184
 30
0.0
 10
195.1700191924629
 20
183.9093583166045
 30
0.0
 10
195.2968022180656
 20
183.6024043535814
 30
0.0
 10
195.4681316808545
 20
183.3076181707401
 30
0.0
 10
195.6886814469001
 20
183.0193815371705
 30
0.0
 10
195.9487067983898
 20
182.7484377257113
 30
0.0
 10
196.2549193908048
 20
182.4870639520663
 30
0.0
 10
196.5949757255711
 20
182.246217077285
 30
0.0
 10
196.9771646416718
 20
182.0187949033002
 30
0.0
 10
197.387397362247
 20
181.8141167540398
 30
0.0
 10
197.8339680624059
 20
181.6269487692672
 30
0.0
 10
198.302632721932
 20
181.4641558590675
 30
0.0
 10
198.8001305875041
 20
181.3225290954669
 30
0.0
 10
199.3135928136729
 20
181.2064771742709
 30
0.0
 10
199.8470323934197
 20
181.1144065058062
 30
0.0
 10
200.3901333714147
 20
181.0487154383743
 30
0.0
 10
200.9434490748398
 20
181.0087625035996
 30
0.0
 10
201.500000009911
 20
180.9955955701452
 30
0.0
 10
202.056550944981
 20
181.0087625035658
 30
0.0
 10
202.6098666484108
 20
181.0487154383133
 30
0.0
 10
203.1529676263908
 20
181.1144065057261
 30
0.0
 10
203.6864072061959
 20
181.2064771742004
 30
0.0
 10
204.199869432156
 20
181.322529095385
 30
0.0
 10
204.6973672984705
 20
181.4641558591583
 30
0.0
 10
205.1660319553197
 20
181.6269487690047
 30
0.0
 10
205.6126026647845
 20
181.8141167554292
 30
0.0
 10
206.0228353521487
 20
182.0187948994157
 30
0.0
 10
206.4050243817824
 20
182.2462170922423
 30
0.0
 10
206.7450803148144
 20
182.4870639014354
 30
0.0
 10
207.0512942645308
 20
182.7484378979864
 30
0.0
 10
207.3113148270347
 20
183.0193809246334
 30
0.0
 10
207.531880772857
 20
183.3076202116608
 30
0.0
 10
207.7031527266024
 20
183.6023969655455
 30
0.0
 10
207.8301342215822
 20
183.9093834716855
 30
0.0
 10
207.9040608939383
 20
184.2200165454413
 30
0.0
 10
207.9335051249191
 20
184.5356918549788
 30
0.0
 10
207.9093645142966
 20
184.7425003560006
 30
0.0
 10
207.8972942143643
 20
184.845904605591
 30
0.0
 11
207.8972942143643
 21
184.845904605591
 31
0.0
 11
207.8219679796789
 21
185.1588868317633
 31
0.0
 11
207.7005705882146
 21
185.4565459173158
 31
0.0
 11
207.5256464713591
 21
185.7591133579705
 31
0.0
 11
207.3145766584022
 21
186.0369528686666
 31
0.0
 11
207.0468003503322
 21
186.3176734913113
 31
0.0
 11
206.7526385183532
 21
186.5699346786965
 31
0.0
 11
206.4018562106487
 21
186.8197498661034
 31
0.0
 11
206.0323489619282
 21
187.0403686773617
 31
0.0
 11
205.6104034123134
 21
187.2518996424021
 31
0.0
 11
205.1754293147244
 21
187.4346886273599
 31
0.0
 11
204.6958910722371
 21
187.6019654584933
 31
0.0
 11
204.2076048763133
 21
187.7412667527165
 31
0.0
 11
203.6854977508952
 21
187.8597431123038
 31
0.0
 11
203.1580032580079
 21
187.9509351639094
 31
0.0
 11
202.6094328473249
 21
188.0175712563579
 31
0.0
 11
202.058293709546
 21
188.0573779743223
 31
0.0
 11
201.5
 21
188.0707142142714
 31
0.0
 11
200.941706290454
 21
188.0573779743223
 31
0.0
 11
200.3905671526751
 21
188.0175712563579
 31
0.0
 11
199.841996741992
 21
187.9509351639094
 31
0.0
 11
199.3145022491047
 21
187.8597431123038
 31
0.0
 11
198.7923951236866
 21
187.7412667527165
 31
0.0
 11
198.3041089277629
 21
187.6019654584934
 31
0.0
 11
197.8245706852756
 21
187.4346886273599
 31
0.0
 11
197.3895965876866
 21
187.2518996424021
 31
0.0
 11
196.9676510380718
 21
187.0403686773616
 31
0.0
 11
196.5981437893514
 21
186.8197498661033
 31
0.0
 11
196.2473614816468
 21
186.5699346786965
 31
0.0
 11
195.9531996496677
 21
186.3176734913113
 31
0.0
 11
195.6854233415976
 21
186.0369528686667
 31
0.0
 11
195.4743535286408
 21
185.7591133579705
 31
0.0
 11
195.2994294117854
 21
185.4565459173157
 31
0.0
 11
195.178032020321
 21
185.1588868317632
 31
0.0
 11
195.1027057856357
 21
184.8459046055909
 31
0.0
 11
195.0773837106674
 21
184.5353571071357
 31
0.0
 11
195.1027057856357
 21
184.2248096086804
 31
0.0
 11
195.1780320203211
 21
183.9118273825081
 31
0.0
 11
195.2994294117854
 21
183.6141682969556
 31
0.0
 11
195.4743535286406
 21
183.3116008563009
 31
0.0
 11
195.6854233415976
 21
183.0337613456048
 31
0.0
 11
195.9531996496679
 21
182.7530407229603
 31
0.0
 11
196.2473614816468
 21
182.500779535575
 31
0.0
 11
196.5981437893513
 21
182.250964348168
 31
0.0
 11
196.9676510380718
 21
182.0303455369097
 31
0.0
 11
197.3895965876867
 21
181.8188145718694
 31
0.0
 11
197.8245706852756
 21
181.6360255869116
 31
0.0
 11
198.3041089277628
 21
181.4687487557781
 31
0.0
 11
198.7923951236866
 21
181.3294474615549
 31
0.0
 11
199.3145022491047
 21
181.2109711019676
 31
0.0
 11
199.841996741992
 21
181.1197790503619
 31
0.0
 11
200.3905671526751
 21
181.0531429579133
 31
0.0
 11
200.941706290454
 21
181.013336239949
 31
0.0
 11
201.5
 21
181.0
 31
0.0
 11
202.058293709546
 21
181.013336239949
 31
0.0
 11
202.6094328473248
 21
181.0531429579133
 31
0.0
 11
203.1580032580079
 21
181.1197790503619
 31
0.0
 11
203.6854977508952
 21
181.2109711019676
 31
0.0
 11
204.2076048763133
 21
181.3294474615549
 31
0.0
 11
204.6958910722371
 21
181.468748755778
 31
0.0
 11
205.1754293147243
 21
181.6360255869116
 31
0.0
 11
205.6104034123133
 21
181.8188145718695
 31
0.0
 11
206.0323489619282
 21
182.0303455369098
 31
0.0
 11
206.4018562106488
 21
182.250964348168
 31
0.0
 11
206.7526385183532
 21
182.500779535575
 31
0.0
 11
207.046800350332
 21
182.7530407229602
 31
0.0
 11
207.3145766584022
 21
183.0337613456048
 31
0.0
 11
207.5256464713592
 21
183.3116008563009
 31
0.0
 11
207.7005705882146
 21
183.6141682969557
 31
0.0
 11
207.8219679796789
 21
183.9118273825082
 31
0.0
 11
207.8972942143643
 21
184.2248096086805
 31
0.0
 11
207.9226162893325
 21
184.5353571071357
 31
0.0
 11
207.8972942143643
 21
184.845904605591
 31
0.0
  0
SPLINE
  5
1D4
330
56
100
AcDbEntity
  8
1
  6
Continuous
 62
     7
100
AcDbSpline
210
0.0
220
0.0
230
1.0
 70
    11
 71
     3
 72
    79
 73
    75
 74
    73
 42
0.000000001
 43
0.0000000001
 44
0.00000001
 40
0.0
 40
0.0
 40
0.0
 40
0.0
 40
0.2813091295367136
 40
0.5626019528583328
 40
0.8464226451893166
 40
1.130214053669825
 40
1.417835704367908
 40
1.705420535636301
 40
1.9976359715598
 40
2.289812847778858
 40
2.586839028646937
 40
2.883829785627845
 40
3.185307038912327
 40
3.486755454941902
 40
3.791812973649303
 40
4.096850359215403
 40
4.404220792930823
 40
4.711580925269279
 40
5.019747225769515
 40
5.327913526259501
 40
5.635273658567284
 40
5.94264409223115
 40
6.247681477724765
 40
6.55273899633718
 40
6.854187412249696
 40
7.155664665392557
 40
7.452655422207976
 40
7.749681602882135
 40
8.041858478879737
 40
8.334073914546837
 40
8.621658745520804
 40
8.909280395868555
 40
9.193071803910657
 40
9.476892495599737
 40
9.758185317503527
 40
10.03949445584092
 40
10.31992039306067
 40
10.60034633027938
 40
10.88165546861352
 40
11.16294829051198
 40
11.44676898219366
 40
11.73056039022641
 40
12.01818204056294
 40
12.30576687152412
 40
12.59798230717681
 40
12.89015918315867
 40
13.18718536381572
 40
13.48417612061305
 40
13.78565337373673
 40
14.08710178962941
 40
14.39215930822114
 40
14.6971966936934
 40
15.00456712733532
 40
15.31192725962076
 40
15.62009356008789
 40
15.92825986056481
 40
16.23561999287961
 40
16.54299042657098
 40
16.84802781211278
 40
17.15308533079524
 40
17.45453374679945
 40
17.75601100005776
 40
18.05300175701155
 40
18.35002793785048
 40
18.64220481403769
 40
18.93442024992408
 40
19.22200508114557
 40
19.50962673177616
 40
19.79341814013921
 40
20.07723883220372
 40
20.35853165457057
 40
20.63984079357022
 40
20.92026673223038
 40
21.20069266066639
 40
21.20069266066639
 40
21.20069266066639
 40
21.20069266066639
 10
212.4782305128543
 20
188.0571922292434
 30
0.0
 10
212.3851035648128
 20
188.0456208261267
 30
0.0
 10
212.1988550661763
 20
188.0224786960189
 30
0.0
 10
211.9245534829512
 20
187.9537165572893
 30
0.0
 10
211.656809553582
 20
187.8611484309116
 30
0.0
 10
211.397196917124
 20
187.7422960953114
 30
0.0
 10
211.1484798198859
 20
187.5996341798657
 30
0.0
 10
210.9116359042379
 20
187.4330912790815
 30
0.0
 10
210.6894204846829
 20
187.2451335598842
 30
0.0
 10
210.4825574324577
 20
187.0359713481881
 30
0.0
 10
210.2934986973795
 20
186.8085187718033
 30
0.0
 10
210.1228587525194
 20
186.5631731875391
 30
0.0
 10
209.9725950234633
 20
186.3031446292798
 30
0.0
 10
209.8432876711514
 20
186.0291218832976
 30
0.0
 10
209.7362968690236
 20
185.7443741979826
 30
0.0
 10
209.6521645296705
 20
185.450011348497
 30
0.0
 10
209.5916455452913
 20
185.1491208685871
 30
0.0
 10
209.5551644071239
 20
184.8433345466843
 30
0.0
 10
209.5429456254188
 20
184.5353571167481
 30
0.0
 10
209.55516440678
 20
184.2273796868028
 30
0.0
 10
209.5916455446042
 20
183.9215933649074
 30
0.0
 10
209.6521645286301
 20
183.6207028849169
 30
0.0
 10
209.7362968676541
 20
183.3263400356412
 30
0.0
 10
209.8432876693418
 20
183.0415923494245
 30
0.0
 10
209.9725950215997
 20
182.7675696066092
 30
0.0
 10
210.1228587491377
 20
182.5075410364144
 30
0.0
 10
210.293498697836
 20
182.2621954958125
 30
0.0
 10
210.4825574169027
 20
182.0347427575517
 30
0.0
 10
210.6894205260991
 20
181.8255811402175
 30
0.0
 10
210.9116357329104
 20
181.6376212214423
 30
0.0
 10
211.148480428502
 20
181.4710864051971
 30
0.0
 10
211.3971946349782
 20
181.328394547986
 30
0.0
 10
211.6568179207575
 20
181.2096525408297
 30
0.0
 10
211.9245223281895
 20
181.116674995698
 30
0.0
 10
212.1989701613332
 20
181.0494279178886
 30
0.0
 10
212.4775089837904
 20
181.0091125717881
 30
0.0
 10
212.7583302486101
 20
180.9954508928053
 30
0.0
 10
213.0391515134297
 20
181.0091125717642
 30
0.0
 10
213.3176903358874
 20
181.0494279178407
 30
0.0
 10
213.5921381690313
 20
181.1166749956263
 30
0.0
 10
213.8598425764638
 20
181.2096525407343
 30
0.0
 10
214.1194658622435
 20
181.3283945478671
 30
0.0
 10
214.3681800687205
 20
181.4710864050548
 30
0.0
 10
214.6050247643127
 20
181.6376212212768
 30
0.0
 10
214.8272399711249
 20
181.8255811400289
 30
0.0
 10
215.034103080322
 20
182.0347427573402
 30
0.0
 10
215.2231617993895
 20
182.2621954955783
 30
0.0
 10
215.3938017480886
 20
182.5075410361576
 30
0.0
 10
215.5440654756277
 20
182.7675696063299
 30
0.0
 10
215.6733728278865
 20
183.0415923491227
 30
0.0
 10
215.7803636295752
 20
183.326340035317
 30
0.0
 10
215.8644959686004
 20
183.6207028845703
 30
0.0
 10
215.9250149526277
 20
183.921593364538
 30
0.0
 10
215.9614960904534
 20
184.2273796864112
 30
0.0
 10
215.9737148718162
 20
184.5353571163324
 30
0.0
 10
215.9614960901139
 20
184.8433345462496
 30
0.0
 10
215.9250149519472
 20
185.1491208681131
 30
0.0
 10
215.8644959675779
 20
185.4500113480579
 30
0.0
 10
215.7803636282049
 20
185.7443741973019
 30
0.0
 10
215.6733728261727
 20
186.0291218833995
 30
0.0
 10
215.5440654735363
 20
186.303144626379
 30
0.0
 10
215.393801745719
 20
186.5631731956462
 30
0.0
 10
215.2231617963487
 20
186.8085187392957
 30
0.0
 10
215.0341030780257
 20
187.0359714658597
 30
0.0
 10
214.8272399643298
 20
187.2451331256933
 30
0.0
 10
214.6050247723424
 20
187.4330928866761
 30
0.0
 10
214.3681800203981
 20
187.5996282823064
 30
0.0
 10
214.1194660206783
 20
187.7423179930459
 30
0.0
 10
213.8598419710221
 20
187.8610679086827
 30
0.0
 10
213.5921403960738
 20
187.9540161052448
 30
0.0
 10
213.317682078807
 20
188.0213717868926
 30
0.0
 10
213.039182268642
 20
188.061282974078
 30
0.0
 10
212.7582158351126
 20
188.0764485510761
 30
0.0
 10
212.5715589525872
 20
188.0636110012898
 30
0.0
 10
212.4782305128543
 20
188.0571922292434
 30
0.0
 11
212.4782305128543
 21
188.0571922292434
 31
0.0
 11
212.1998310055008
 21
188.0168369851035
 31
0.0
 11
211.9265869806281
 21
187.9500286425446
 31
0.0
 11
211.6584808544634
 21
187.8568981413555
 31
0.0
 11
211.4003348363659
 21
187.7390075279789
 31
0.0
 11
211.1508421580177
 21
187.5959005145221
 31
0.0
 11
210.915496750918
 21
187.4306202239285
 31
0.0
 11
210.6923545579031
 21
187.2419474314256
 31
0.0
 11
210.4867896328179
 21
187.0343170181231
 31
0.0
 11
210.2968750555489
 21
186.8059379353932
 31
0.0
 11
210.1271887528582
 21
186.5621961285813
 31
0.0
 11
209.9762930632976
 21
186.3011999119324
 31
0.0
 11
209.8475530762996
 21
186.0286248520541
 31
0.0
 11
209.7402104130097
 21
185.7430768834773
 31
0.0
 11
209.6563140697706
 21
185.4498036146788
 31
0.0
 11
209.5956821131311
 21
185.1484726514988
 31
0.0
 11
209.5592328791446
 21
184.8432813929184
 31
0.0
 11
209.5470221045313
 21
184.5353571071357
 31
0.0
 11
209.5592328791446
 21
184.227432821353
 31
0.0
 11
209.5956821131311
 21
183.9222415627726
 31
0.0
 11
209.6563140697706
 21
183.6209105995926
 31
0.0
 11
209.7402104130097
 21
183.3276373307941
 31
0.0
 11
209.8475530762996
 21
183.0420893622174
 31
0.0
 11
209.9762930632975
 21
182.7695143023391
 31
0.0
 11
210.1271887528581
 21
182.5085180856902
 31
0.0
 11
210.2968750555488
 21
182.2647762788781
 31
0.0
 11
210.4867896328178
 21
182.0363971961483
 31
0.0
 11
210.692354557903
 21
181.8287667828458
 31
0.0
 11
210.9154967509179
 21
181.6400939903428
 31
0.0
 11
211.1508421580177
 21
181.4748136997492
 31
0.0
 11
211.4003348363659
 21
181.3317066862925
 31
0.0
 11
211.6584808544635
 21
181.2138160729159
 31
0.0
 11
211.9265869806281
 21
181.1206855717267
 31
0.0
 11
212.1998310055007
 21
181.0538772291677
 31
0.0
 11
212.4782305128543
 21
181.0135219850279
 31
0.0
 11
212.7583302491976
 21
181.0
 31
0.0
 11
213.0384299855409
 21
181.0135219850279
 31
0.0
 11
213.3168294928945
 21
181.0538772291677
 31
0.0
 11
213.5900735177672
 21
181.1206855717267
 31
0.0
 11
213.8581796439318
 21
181.213816072916
 31
0.0
 11
214.1163256620294
 21
181.3317066862925
 31
0.0
 11
214.3658183403776
 21
181.4748136997492
 31
0.0
 11
214.6011637474774
 21
181.6400939903428
 31
0.0
 11
214.8243059404923
 21
181.8287667828458
 31
0.0
 11
215.0298708655775
 21
182.0363971961484
 31
0.0
 11
215.2197854428463
 21
182.2647762788782
 31
0.0
 11
215.389471745537
 21
182.5085180856902
 31
0.0
 11
215.5403674350976
 21
182.7695143023392
 31
0.0
 11
215.6691074220956
 21
183.0420893622174
 31
0.0
 11
215.7764500853855
 21
183.3276373307942
 31
0.0
 11
215.8603464286246
 21
183.6209105995927
 31
0.0
 11
215.9209783852641
 21
183.9222415627727
 31
0.0
 11
215.9574276192506
 21
184.2274328213531
 31
0.0
 11
215.9696383938639
 21
184.5353571071358
 31
0.0
 11
215.9574276192506
 21
184.8432813929184
 31
0.0
 11
215.9209783852641
 21
185.1484726514988
 31
0.0
 11
215.8603464286246
 21
185.4498036146787
 31
0.0
 11
215.7764500853854
 21
185.7430768834772
 31
0.0
 11
215.6691074220956
 21
186.028624852054
 31
0.0
 11
215.5403674350977
 21
186.3011999119323
 31
0.0
 11
215.3894717455371
 21
186.5621961285813
 31
0.0
 11
215.2197854428464
 21
186.8059379353932
 31
0.0
 11
215.0298708655775
 21
187.0343170181231
 31
0.0
 11
214.8243059404923
 21
187.2419474314256
 31
0.0
 11
214.6011637474774
 21
187.4306202239285
 31
0.0
 11
214.3658183403776
 21
187.5959005145222
 31
0.0
 11
214.1163256620294
 21
187.7390075279789
 31
0.0
 11
213.8581796439318
 21
187.8568981413555
 31
0.0
 11
213.5900735177672
 21
187.9500286425446
 31
0.0
 11
213.3168294928945
 21
188.0168369851036
 31
0.0
 11
213.0384299855409
 21
188.0571922292435
 31
0.0
 11
212.7583302491976
 21
188.0707142142714
 31
0.0
 11
212.4782305128543
 21
188.0571922292434
 31
0.0
  0
SPLINE
  5
1D5
330
56
100
AcDbEntity
  8
1
  6
Continuous
 62
     7
100
AcDbSpline
210
0.0
220
0.0
230
1.0
 70
    11
 71
     3
 72
    79
 73
    75
 74
    73
 42
0.000000001
 43
0.0000000001
 44
0.00000001
 40
0.0
 40
0.0
 40
0.0
 40
0.0
 40
0.2813091295367136
 40
0.5626019528583328
 40
0.8464226451893704
 40
1.130214053669775
 40
1.417835704367883
 40
1.705420535636275
 40
1.997635971559818
 40
2.289812847778896
 40
2.58683902864692
 40
2.883829785627828
 40
3.18530703891231
 40
3.486755454941873
 40
3.791812973649285
 40
4.096850359215377
 40
4.404220792930797
 40
4.711580925269253
 40
5.019747225769489
 40
5.327913526259475
 40
5.635273658567258
 40
5.942644092231125
 40
6.247681477724747
 40
6.552738996337151
 40
6.85418741224968
 40
7.155664665392512
 40
7.452655422207949
 40
7.749681602882126
 40
8.041858478879728
 40
8.334073914546806
 40
8.621658745520728
 40
8.909280395868453
 40
9.193071803910582
 40
9.476892495599717
 40
9.758185317503562
 40
10.03949445584092
 40
10.3199203930607
 40
10.60034633027936
 40
10.8816554686135
 40
11.16294829051195
 40
11.44676898219364
 40
11.73056039022639
 40
12.01818204056294
 40
12.30576687152408
 40
12.59798230717674
 40
12.89015918315861
 40
13.18718536381569
 40
13.48417612061305
 40
13.78565337373673
 40
14.0871017896294
 40
14.39215930822114
 40
14.69719669369339
 40
15.0045671273353
 40
15.31192725962075
 40
15.62009356008788
 40
15.9282598605648
 40
16.23561999287961
 40
16.54299042657098
 40
16.84802781211275
 40
17.15308533079524
 40
17.45453374679945
 40
17.75601100005774
 40
18.05300175701156
 40
18.3500279378505
 40
18.64220481403774
 40
18.93442024992406
 40
19.22200508114553
 40
19.50962673177613
 40
19.79341814013921
 40
20.07723883220375
 40
20.35853165457052
 40
20.63984079357017
 40
20.92026673223033
 40
21.20069266066642
 40
21.20069266066642
 40
21.20069266066642
 40
21.20069266066642
 10
190.5217694871458
 20
188.0571922292434
 30
0.0
 10
190.6148964351873
 20
188.0456208261267
 30
0.0
 10
190.801144933824
 20
188.0224786960188
 30
0.0
 10
191.0754465170488
 20
187.9537165572893
 30
0.0
 10
191.3431904464183
 20
187.8611484309116
 30
0.0
 10
191.6028030828762
 20
187.7422960953113
 30
0.0
 10
191.8515201801142
 20
187.5996341798657
 30
0.0
 10
192.0883640957622
 20
187.4330912790815
 30
0.0
 10
192.3105795153173
 20
187.2451335598842
 30
0.0
 10
192.5174425675425
 20
187.0359713481882
 30
0.0
 10
192.7065013026207
 20
186.8085187718032
 30
0.0
 10
192.8771412474808
 20
186.5631731875392
 30
0.0
 10
193.0274049765368
 20
186.3031446292799
 30
0.0
 10
193.1567123288488
 20
186.0291218832976
 30
0.0
 10
193.2637031309766
 20
185.7443741979826
 30
0.0
 10
193.3478354703296
 20
185.450011348497
 30
0.0
 10
193.4083544547088
 20
185.1491208685871
 30
0.0
 10
193.4448355928764
 20
184.8433345466843
 30
0.0
 10
193.4570543745812
 20
184.5353571167481
 30
0.0
 10
193.4448355932201
 20
184.2273796868028
 30
0.0
 10
193.408354455396
 20
183.9215933649074
 30
0.0
 10
193.34783547137
 20
183.620702884917
 30
0.0
 10
193.263703132346
 20
183.3263400356412
 30
0.0
 10
193.1567123306583
 20
183.0415923494245
 30
0.0
 10
193.0274049784003
 20
182.7675696066092
 30
0.0
 10
192.8771412508625
 20
182.5075410364144
 30
0.0
 10
192.7065013021643
 20
182.2621954958125
 30
0.0
 10
192.5174425830973
 20
182.0347427575517
 30
0.0
 10
192.3105794739011
 20
181.8255811402175
 30
0.0
 10
192.0883642670897
 20
181.6376212214423
 30
0.0
 10
191.8515195714982
 20
181.4710864051971
 30
0.0
 10
191.6028053650219
 20
181.328394547986
 30
0.0
 10
191.3431820792428
 20
181.2096525408296
 30
0.0
 10
191.0754776718105
 20
181.1166749956979
 30
0.0
 10
190.801029838667
 20
181.0494279178886
 30
0.0
 10
190.5224910162096
 20
181.0091125717881
 30
0.0
 10
190.24166975139
 20
180.9954508928054
 30
0.0
 10
189.9608484865704
 20
181.0091125717641
 30
0.0
 10
189.6823096641128
 20
181.0494279178407
 30
0.0
 10
189.4078618309689
 20
181.1166749956264
 30
0.0
 10
189.1401574235363
 20
181.2096525407342
 30
0.0
 10
188.8805341377566
 20
181.3283945478671
 30
0.0
 10
188.6318199312796
 20
181.4710864050548
 30
0.0
 10
188.3949752356874
 20
181.6376212212768
 30
0.0
 10
188.1727600288752
 20
181.8255811400289
 30
0.0
 10
187.9658969196782
 20
182.0347427573402
 30
0.0
 10
187.7768382006106
 20
182.2621954955784
 30
0.0
 10
187.6061982519115
 20
182.5075410361576
 30
0.0
 10
187.4559345243725
 20
182.7675696063299
 30
0.0
 10
187.3266271721136
 20
183.0415923491227
 30
0.0
 10
187.2196363704248
 20
183.326340035317
 30
0.0
 10
187.1355040313996
 20
183.6207028845703
 30
0.0
 10
187.0749850473725
 20
183.921593364538
 30
0.0
 10
187.0385039095468
 20
184.2273796864112
 30
0.0
 10
187.026285128184
 20
184.5353571163323
 30
0.0
 10
187.0385039098863
 20
184.8433345462496
 30
0.0
 10
187.074985048053
 20
185.149120868113
 30
0.0
 10
187.1355040324222
 20
185.4500113480579
 30
0.0
 10
187.2196363717952
 20
185.7443741973018
 30
0.0
 10
187.3266271738274
 20
186.0291218833995
 30
0.0
 10
187.4559345264639
 20
186.3031446263789
 30
0.0
 10
187.6061982542811
 20
186.5631731956462
 30
0.0
 10
187.7768382036514
 20
186.8085187392957
 30
0.0
 10
187.9658969219744
 20
187.0359714658598
 30
0.0
 10
188.1727600356704
 20
187.2451331256933
 30
0.0
 10
188.3949752276577
 20
187.4330928866762
 30
0.0
 10
188.6318199796019
 20
187.5996282823064
 30
0.0
 10
188.8805339793219
 20
187.7423179930459
 30
0.0
 10
189.1401580289779
 20
187.8610679086827
 30
0.0
 10
189.4078596039265
 20
187.9540161052448
 30
0.0
 10
189.6823179211931
 20
188.0213717868927
 30
0.0
 10
189.960817731358
 20
188.061282974078
 30
0.0
 10
190.2417841648875
 20
188.0764485510761
 30
0.0
 10
190.4284410474128
 20
188.0636110012898
 30
0.0
 10
190.5217694871458
 20
188.0571922292434
 30
0.0
 11
190.5217694871458
 21
188.0571922292434
 31
0.0
 11
190.8001689944994
 21
188.0168369851035
 31
0.0
 11
191.0734130193721
 21
187.9500286425446
 31
0.0
 11
191.3415191455368
 21
187.8568981413555
 31
0.0
 11
191.5996651636343
 21
187.7390075279789
 31
0.0
 11
191.8491578419824
 21
187.5959005145221
 31
0.0
 11
192.0845032490822
 21
187.4306202239285
 31
0.0
 11
192.3076454420971
 21
187.2419474314256
 31
0.0
 11
192.5132103671824
 21
187.0343170181231
 31
0.0
 11
192.7031249444512
 21
186.8059379353932
 31
0.0
 11
192.872811247142
 21
186.5621961285813
 31
0.0
 11
193.0237069367026
 21
186.3011999119324
 31
0.0
 11
193.1524469237005
 21
186.0286248520541
 31
0.0
 11
193.2597895869904
 21
185.7430768834773
 31
0.0
 11
193.3436859302295
 21
185.4498036146788
 31
0.0
 11
193.404317886869
 21
185.1484726514988
 31
0.0
 11
193.4407671208555
 21
184.8432813929184
 31
0.0
 11
193.4529778954688
 21
184.5353571071357
 31
0.0
 11
193.4407671208555
 21
184.227432821353
 31
0.0
 11
193.404317886869
 21
183.9222415627726
 31
0.0
 11
193.3436859302295
 21
183.6209105995926
 31
0.0
 11
193.2597895869904
 21
183.3276373307941
 31
0.0
 11
193.1524469237005
 21
183.0420893622174
 31
0.0
 11
193.0237069367026
 21
182.7695143023391
 31
0.0
 11
192.872811247142
 21
182.5085180856902
 31
0.0
 11
192.7031249444513
 21
182.2647762788781
 31
0.0
 11
192.5132103671823
 21
182.0363971961483
 31
0.0
 11
192.3076454420971
 21
181.8287667828458
 31
0.0
 11
192.0845032490822
 21
181.6400939903428
 31
0.0
 11
191.8491578419825
 21
181.4748136997492
 31
0.0
 11
191.5996651636343
 21
181.3317066862925
 31
0.0
 11
191.3415191455367
 21
181.2138160729159
 31
0.0
 11
191.073413019372
 21
181.1206855717267
 31
0.0
 11
190.8001689944993
 21
181.0538772291677
 31
0.0
 11
190.5217694871458
 21
181.0135219850279
 31
0.0
 11
190.2416697508025
 21
181.0
 31
0.0
 11
189.9615700144592
 21
181.0135219850279
 31
0.0
 11
189.6831705071056
 21
181.0538772291677
 31
0.0
 11
189.4099264822329
 21
181.1206855717267
 31
0.0
 11
189.1418203560683
 21
181.213816072916
 31
0.0
 11
188.8836743379707
 21
181.3317066862925
 31
0.0
 11
188.6341816596225
 21
181.4748136997492
 31
0.0
 11
188.3988362525228
 21
181.6400939903428
 31
0.0
 11
188.1756940595079
 21
181.8287667828458
 31
0.0
 11
187.9701291344227
 21
182.0363971961484
 31
0.0
 11
187.7802145571538
 21
182.2647762788782
 31
0.0
 11
187.610528254463
 21
182.5085180856902
 31
0.0
 11
187.4596325649024
 21
182.7695143023392
 31
0.0
 11
187.3308925779045
 21
183.0420893622174
 31
0.0
 11
187.2235499146146
 21
183.3276373307942
 31
0.0
 11
187.1396535713755
 21
183.6209105995927
 31
0.0
 11
187.079021614736
 21
183.9222415627727
 31
0.0
 11
187.0425723807495
 21
184.2274328213531
 31
0.0
 11
187.0303616061362
 21
184.5353571071358
 31
0.0
 11
187.0425723807495
 21
184.8432813929184
 31
0.0
 11
187.0790216147361
 21
185.1484726514988
 31
0.0
 11
187.1396535713756
 21
185.4498036146787
 31
0.0
 11
187.2235499146147
 21
185.7430768834772
 31
0.0
 11
187.3308925779045
 21
186.028624852054
 31
0.0
 11
187.4596325649024
 21
186.3011999119323
 31
0.0
 11
187.610528254463
 21
186.5621961285813
 31
0.0
 11
187.7802145571538
 21
186.8059379353932
 31
0.0
 11
187.9701291344227
 21
187.0343170181231
 31
0.0
 11
188.1756940595079
 21
187.2419474314256
 31
0.0
 11
188.3988362525228
 21
187.4306202239285
 31
0.0
 11
188.6341816596225
 21
187.5959005145222
 31
0.0
 11
188.8836743379707
 21
187.7390075279789
 31
0.0
 11
189.1418203560683
 21
187.8568981413555
 31
0.0
 11
189.409926482233
 21
187.9500286425446
 31
0.0
 11
189.6831705071056
 21
188.0168369851036
 31
0.0
 11
189.9615700144592
 21
188.0571922292435
 31
0.0
 11
190.2416697508025
 21
188.0707142142714
 31
0.0
 11
190.5217694871458
 21
188.0571922292434
 31
0.0
  0
ENDBLK
  5
58
330
56
100
AcDbEntity
  8
0
100
AcDbBlockEnd
  0
BLOCK
  5
5A
330
59
100
AcDbEntity
  8
0
100
AcDbBlockBegin
  2
36-54-M11
 70
     0
 10
138.621582733812
 20
105.0803597122301
 30
0.0
  3
36-54-M11
  1

  0
LINE
  5
1D6
330
59
100
AcDbEntity
  8
1
  6
Continuous
 62
     7
100
AcDbLine
 10
206.25
 20
197.9999999999999
 30
0.0
 11
206.25
 21
195.0
 31
0.0
  0
LINE
  5
1D7
330
59
100
AcDbEntity
  8
1
  6
Continuous
 62
     7
100
AcDbLine
 10
196.75
 20
195.0
 30
0.0
 11
196.75
 21
197.9999999999999
 31
0.0
  0
LINE
  5
1D8
330
59
100
AcDbEntity
  8
1
  6
Continuous
 62
     7
100
AcDbLine
 10
96.24999999999997
 20
197.9999999999999
 30
0.0
 11
96.24999999999997
 21
194.9296912881848
 31
0.0
  0
LINE
  5
1D9
330
59
100
AcDbEntity
  8
1
  6
Continuous
 62
     7
100
AcDbLine
 10
86.75
 20
194.9296912881848
 30
0.0
 11
86.75
 21
197.9999999999999
 31
0.0
  0
ENDBLK
  5
5B
330
59
100
AcDbEntity
  8
0
100
AcDbBlockEnd
  0
BLOCK
  5
201
330
1FA
100
AcDbEntity
  8
0
100
AcDbBlockBegin
  2
*D8
 70
     1
 10
0.0
 20
0.0
 30
0.0
  3
*D8
  1

  0
LINE
  5
1FB
330
1FA
100
AcDbEntity
  8
1
  6
Continuous
 62
     2
100
AcDbLine
 10
171.5
 20
114.25
 30
0.0
 11
267.0
 21
114.25
 31
0.0
  0
LINE
  5
1FC
330
1FA
100
AcDbEntity
  8
1
  6
Continuous
 62
     2
100
AcDbLine
 10
267.0
 20
134.1839999999997
 30
0.0
 11
267.0
 21
112.75
 31
0.0
  0
LINE
  5
1FD
330
1FA
100
AcDbEntity
  8
1
  6
Continuous
 62
     2
100
AcDbLine
 10
171.5
 20
131.0
 30
0.0
 11
171.5
 21
112.75
 31
0.0
  0
SOLID
  5
1FE
330
1FA
100
AcDbEntity
  8
1
 62
     2
100
AcDbTrace
 10
176.75
 20
114.9411756123338
 30
0.0
 11
176.75
 21
113.5588243876662
 31
0.0
 12
171.5
 22
114.25
 32
0.0
 13
171.5
 23
114.25
 33
0.0
  0
SOLID
  5
1FF
330
1FA
100
AcDbEntity
  8
1
 62
     2
100
AcDbTrace
 10
261.75
 20
113.5588243876662
 30
0.0
 11
261.75
 21
114.9411756123338
 31
0.0
 12
267.0
 22
114.25
 32
0.0
 13
267.0
 23
114.25
 33
0.0
  0
MTEXT
  5
200
330
1FA
100
AcDbEntity
  8
1
 62
     7
100
AcDbMText
 10
215.3125
 20
115.75
 30
0.0
 40
5.25
 41
0.0
 71
     7
 72
     1
  1
96
  7
CONVERTER_12
 11
0.9999999999970619
 21
2.424068405545306E-6
 31
0.0
 73
     1
 44
0.60024009603842
  0
ENDBLK
  5
202
330
1FA
100
AcDbEntity
  8
0
100
AcDbBlockEnd
  0
BLOCK
  5
20C
330
205
100
AcDbEntity
  8
0
100
AcDbBlockBegin
  2
*D9
 70
     1
 10
0.0
 20
0.0
 30
0.0
  3
*D9
  1

  0
LINE
  5
206
330
205
100
AcDbEntity
  8
0
  6
Continuous
 62
     2
100
AcDbLine
 10
282.0
 20
143.4999999999999
 30
0.0
 11
282.0
 21
177.4999999999999
 31
0.0
  0
LINE
  5
207
330
205
100
AcDbEntity
  8
0
  6
Continuous
 62
     2
100
AcDbLine
 10
271.7223676846584
 20
143.4999999999999
 30
0.0
 11
283.5
 21
143.4999999999999
 31
0.0
  0
LINE
  5
208
330
205
100
AcDbEntity
  8
0
  6
Continuous
 62
     2
100
AcDbLine
 10
250.5
 20
177.4999999999999
 30
0.0
 11
283.5
 21
177.4999999999999
 31
0.0
  0
SOLID
  5
209
330
205
100
AcDbEntity
  8
0
 62
     2
100
AcDbTrace
 10
281.3088243876662
 20
148.7499999999999
 30
0.0
 11
282.6911756123338
 21
148.7499999999999
 31
0.0
 12
282.0
 22
143.4999999999999
 32
0.0
 13
282.0
 23
143.4999999999999
 33
0.0
  0
SOLID
  5
20A
330
205
100
AcDbEntity
  8
0
 62
     2
100
AcDbTrace
 10
282.6911756123338
 20
172.2499999999999
 30
0.0
 11
281.3088243876662
 21
172.2499999999999
 31
0.0
 12
282.0
 22
177.4999999999999
 32
0.0
 13
282.0
 23
177.4999999999999
 33
0.0
  0
MTEXT
  5
20B
330
205
100
AcDbEntity
  8
0
 62
     7
100
AcDbMText
 10
280.5
 20
156.5624999999999
 30
0.0
 40
5.25
 41
0.0
 71
     7
 72
     1
  1
34
  7
CONVERTER_12
 11
0.0
 21
1.0
 31
0.0
 73
     1
 44
0.60024009603842
  0
ENDBLK
  5
20D
330
205
100
AcDbEntity
  8
0
100
AcDbBlockEnd
  0
BLOCK
  5
217
330
210
100
AcDbEntity
  8
0
100
AcDbBlockBegin
  2
*D10
 70
     1
 10
0.0
 20
0.0
 30
0.0
  3
*D10
  1

  0
LINE
  5
211
330
210
100
AcDbEntity
  8
0
  6
Continuous
 62
     2
100
AcDbLine
 10
155.5800501692397
 20
143.4999999999999
 30
0.0
 11
155.5800501692397
 21
212.9999999999999
 31
0.0
  0
LINE
  5
212
330
210
100
AcDbEntity
  8
0
  6
Continuous
 62
     2
100
AcDbLine
 10
201.5
 20
212.9999999999999
 30
0.0
 11
154.0800501692397
 21
212.9999999999999
 31
0.0
  0
LINE
  5
213
330
210
100
AcDbEntity
  8
0
  6
Continuous
 62
     2
100
AcDbLine
 10
166.5
 20
143.4999999999999
 30
0.0
 11
154.0800501692397
 21
143.4999999999999
 31
0.0
  0
SOLID
  5
214
330
210
100
AcDbEntity
  8
0
 62
     2
100
AcDbTrace
 10
154.8888745569059
 20
148.7499999999999
 30
0.0
 11
156.2712257815735
 21
148.7499999999999
 31
0.0
 12
155.5800501692397
 22
143.4999999999999
 32
0.0
 13
155.5800501692397
 23
143.4999999999999
 33
0.0
  0
SOLID
  5
215
330
210
100
AcDbEntity
  8
0
 62
     2
100
AcDbTrace
 10
156.2712257815735
 20
207.7499999999999
 30
0.0
 11
154.8888745569059
 21
207.7499999999999
 31
0.0
 12
155.5800501692397
 22
212.9999999999999
 32
0.0
 13
155.5800501692397
 23
212.9999999999999
 33
0.0
  0
MTEXT
  5
216
330
210
100
AcDbEntity
  8
0
 62
     7
100
AcDbMText
 10
154.0800501692397
 20
164.0749999999999
 30
0.0
 40
5.25
 41
0.0
 71
     7
 72
     1
  1
70リフト6
  7
CONVERTER_11
 11
0.0
 21
1.0
 31
0.0
 73
     1
 44
0.45454545454545
  0
ENDBLK
  5
218
330
210
100
AcDbEntity
  8
0
100
AcDbBlockEnd
  0
BLOCK
  5
222
330
21B
100
AcDbEntity
  8
0
100
AcDbBlockBegin
  2
*D11
 70
     1
 10
0.0
 20
0.0
 30
0.0
  3
*D11
  1

  0
LINE
  5
21C
330
21B
100
AcDbEntity
  8
1
  6
Continuous
 62
     2
100
AcDbLine
 10
78.49999999999989
 20
244.9620225157157
 30
0.0
 11
104.4999999999999
 21
244.9620225157157
 31
0.0
  0
LINE
  5
21D
330
21B
100
AcDbEntity
  8
1
  6
Continuous
 62
     2
100
AcDbLine
 10
104.4999999999999
 20
261.5775295353789
 30
0.0
 11
104.4999999999999
 21
243.4620225157157
 31
0.0
  0
LINE
  5
21E
330
21B
100
AcDbEntity
  8
1
  6
Continuous
 62
     2
100
AcDbLine
 10
78.49999999999989
 20
261.5775295353789
 30
0.0
 11
78.49999999999989
 21
243.4620225157157
 31
0.0
  0
SOLID
  5
21F
330
21B
100
AcDbEntity
  8
1
 62
     2
100
AcDbTrace
 10
83.74999999999989
 20
245.6531981280495
 30
0.0
 11
83.74999999999989
 21
244.2708469033819
 31
0.0
 12
78.49999999999989
 22
244.9620225157157
 32
0.0
 13
78.49999999999989
 23
244.9620225157157
 33
0.0
  0
SOLID
  5
220
330
21B
100
AcDbEntity
  8
1
 62
     2
100
AcDbTrace
 10
99.2499999999999
 20
244.2708469033819
 30
0.0
 11
99.2499999999999
 21
245.6531981280495
 31
0.0
 12
104.4999999999999
 22
244.9620225157157
 32
0.0
 13
104.4999999999999
 23
244.9620225157157
 33
0.0
  0
MTEXT
  5
221
330
21B
100
AcDbEntity
  8
1
 62
     7
100
AcDbMText
 10
87.4183832374116
 20
246.4620225157157
 30
0.0
 40
5.25
 41
0.0
 71
     7
 72
     1
  1
26
  7
CONVERTER_12
 11
0.9999999999970619
 21
2.424068405545306E-6
 31
0.0
 73
     1
 44
0.60024009603842
  0
ENDBLK
  5
223
330
21B
100
AcDbEntity
  8
0
100
AcDbBlockEnd
  0
BLOCK
  5
22B
330
226
100
AcDbEntity
  8
0
100
AcDbBlockBegin
  2
*D12
 70
     1
 10
0.0
 20
0.0
 30
0.0
  3
*D12
  1

  0
LINE
  5
227
330
226
100
AcDbEntity
  8
0
  6
Continuous
 62
     2
100
AcDbLine
 10
70.2177871762434
 20
317.5755427819818
 30
0.0
 11
125.3555592096555
 21
339.3031615944993
 31
0.0
  0
SOLID
  5
228
330
226
100
AcDbEntity
  8
0
 62
     2
100
AcDbTrace
 10
110.0865914498704
 20
334.0291683556454
 30
0.0
 11
110.5933919102234
 21
332.7430703027248
 31
0.0
 12
105.4555493926273
 22
331.4613534886561
 32
0.0
 13
105.4555493926273
 23
331.4613534886561
 33
0.0
  0
SOLID
  5
229
330
226
100
AcDbEntity
  8
0
 62
     2
100
AcDbTrace
 10
72.9134085501297
 20
317.8948766757861
 30
0.0
 11
72.40660808977661
 21
319.1809747287067
 31
0.0
 12
77.54445060737274
 22
320.4626915427754
 32
0.0
 13
77.54445060737274
 23
320.4626915427754
 33
0.0
  0
MTEXT
  5
22A
330
226
100
AcDbEntity
  8
0
 62
     7
100
AcDbMText
 10
112.5945203938126
 20
335.8868019324393
 30
0.0
 40
5.25
 41
0.0
 71
     7
 72
     1
  1
{\Fgdt;n}30
  7
CONVERTER_12
 11
0.9303699595084842
 21
0.3666220648626886
 31
0.0
 73
     1
 44
0.60024009603842
  0
ENDBLK
  5
22C
330
226
100
AcDbEntity
  8
0
100
AcDbBlockEnd
  0
ENDSEC
  0
SECTION
  2
ENTITIES
  0
INSERT
  5
5C
330
1F
100
AcDbEntity
  8
1
100
AcDbBlockReference
  2
34-7-13
 10
351.6070230629777
 20
298.1253447212641
 30
0.0
  0
INSERT
  5
5D
330
1F
100
AcDbEntity
  8
1
100
AcDbBlockReference
  2
開示A4
 10
0.0
 20
0.0
 30
0.0
 41
1.5
 42
1.5
 43
1.5
  0
INSERT
  5
5E
330
1F
100
AcDbEntity
  8
1
100
AcDbBlockReference
  2
V280-0A-13-M1
 10
0.0
 20
445.5
 30
0.0
  0
INSERT
  5
5F
330
1F
100
AcDbEntity
  8
1
100
AcDbBlockReference
  2
42-1-P8
 10
311.8054388372682
 20
160.4774310210217
 30
0.0
  0
INSERT
  5
60
330
1F
100
AcDbEntity
  8
0
100
AcDbBlockReference
  2
21-1C
 10
316.9424209201352
 20
144.4399042750086
 30
0.0
  0
INSERT
  5
61
330
1F
100
AcDbEntity
  8
1
100
AcDbBlockReference
  2
37-1-13
 10
394.8685127454432
 20
153.5860408931497
 30
0.0
  0
INSERT
  5
62
330
1F
100
AcDbEntity
  8
1
100
AcDbBlockReference
  2
36-54-M11
 10
138.621582733812
 20
105.0803597122301
 30
0.0
  0
LINE
  5
1DA
330
1F
100
AcDbEntity
  8
1
  6
Continuous
 62
     7
100
AcDbLine
 10
57.08254351212832
 20
151.1205899085264
 30
0.0
 11
60.18059835357732
 21
151.1205899085264
 31
0.0
  0
LINE
  5
1DB
330
1F
100
AcDbEntity
  8
1
  6
Continuous
 62
     7
100
AcDbLine
 10
57.08254351212832
 20
151.7502725970268
 30
0.0
 11
57.08254351212832
 21
151.1205899085264
 31
0.0
  0
LINE
  5
1DC
330
1F
100
AcDbEntity
  8
1
  6
Continuous
 62
     7
100
AcDbLine
 10
57.08254351212832
 20
149.2005899085264
 30
0.0
 11
57.08254351212832
 21
148.5709072200259
 31
0.0
  0
LINE
  5
1DD
330
1F
100
AcDbEntity
  8
1
  6
Continuous
 62
     7
100
AcDbLine
 10
60.18059835357732
 20
149.2005899085264
 30
0.0
 11
57.08254351212832
 21
149.2005899085264
 31
0.0
  0
LINE
  5
1DE
330
1F
100
AcDbEntity
  8
1
  6
Continuous
 62
     7
100
AcDbLine
 10
60.18059835357732
 20
151.1205899085264
 30
0.0
 11
60.18059835357732
 21
149.2005899085264
 31
0.0
  0
LINE
  5
1DF
330
1F
100
AcDbEntity
  8
1
  6
Continuous
 62
     7
100
AcDbLine
 10
52.71492622137543
 20
150.1605899085263
 30
0.0
 11
57.08254351212832
 21
151.7502725970268
 31
0.0
  0
LINE
  5
1E0
330
1F
100
AcDbEntity
  8
1
  6
Continuous
 62
     7
100
AcDbLine
 10
57.08254351212832
 20
148.5709072200259
 30
0.0
 11
52.71492622137543
 21
150.1605899085263
 31
0.0
  0
LINE
  5
1E1
330
1F
100
AcDbEntity
  8
1
  6
DASH_CENTER
 62
     2
100
AcDbLine
 10
201.5
 20
125.4999999999999
 30
0.0
 11
201.5
 21
215.9999660184617
 31
0.0
  0
LINE
  5
1E2
330
1F
100
AcDbEntity
  8
1
  6
DASH_CENTER
 62
     2
100
AcDbLine
 10
271.7223676846584
 20
143.4999999999999
 30
0.0
 11
166.5
 21
143.4999999999999
 31
0.0
  0
LINE
  5
1E3
330
1F
100
AcDbEntity
  8
1
  6
DASH_CENTER
 62
     2
100
AcDbLine
 10
236.5
 20
182.4999999999999
 30
0.0
 11
236.5
 21
125.4999999999999
 31
0.0
  0
LINE
  5
1E4
330
1F
100
AcDbEntity
  8
1
  6
DASH_CENTER
 62
     2
100
AcDbLine
 10
123.541782293091
 20
309.4613541479474
 30
0.0
 11
72.98864338808028
 21
280.2744857927589
 31
0.0
  0
LINE
  5
1E5
330
1F
100
AcDbEntity
  8
1
  6
DASH_CENTER
 62
     2
100
AcDbLine
 10
59.45821770690898
 20
309.4613541479474
 30
0.0
 11
110.646031129406
 21
279.9080562892403
 31
0.0
  0
LINE
  5
1E6
330
1F
100
AcDbEntity
  8
1
  6
DASH_CENTER
 62
     2
100
AcDbLine
 10
70.26157833182316
 20
325.9620225157158
 30
0.0
 11
112.9595464832599
 21
325.9620225157158
 31
0.0
  0
LINE
  5
1E7
330
1F
100
AcDbEntity
  8
1
  6
DASH_CENTER
 62
     2
100
AcDbLine
 10
91.49999999999997
 20
361.1843902003743
 30
0.0
 11
91.49999999999997
 21
255.9620225157159
 31
0.0
  0
LINE
  5
1E8
330
1F
100
AcDbEntity
  8
1
  6
DASH_CENTER
 62
     2
100
AcDbLine
 10
70.26157833182316
 20
290.9620225157158
 30
0.0
 11
112.9595464832599
 21
290.9620225157158
 31
0.0
  0
LINE
  5
1E9
330
1F
100
AcDbEntity
  8
1
  6
DASH_CENTER
 62
     2
100
AcDbLine
 10
76.0
 20
143.4999999999999
 30
0.0
 11
107.0
 21
143.4999999999999
 31
0.0
  0
LINE
  5
1EA
330
1F
100
AcDbEntity
  8
1
  6
DASH_CENTER
 62
     2
100
AcDbLine
 10
91.5
 20
217.4999999999999
 30
0.0
 11
91.49999999999996
 21
124.9999999999998
 31
0.0
  0
SOLID
  5
1EB
330
1F
100
AcDbEntity
  8
1
 62
     2
100
AcDbTrace
 10
169.4735756387574
 20
128.3252265683733
 30
0.0
 11
168.2764243612426
 21
129.0164021807071
 31
0.0
 12
171.5
 22
133.2174477444085
 32
0.0
 13
171.5
 23
133.2174477444085
 33
0.0
  0
LEADER
  5
1EC
330
1F
100
AcDbEntity
  8
1
  6
Continuous
 62
     2
100
AcDbLeader
  3
Standard
 71
     0
 76
     3
 10
171.5
 20
133.2174477444085
 30
0.0
 10
163.4358902848737
 20
119.25
 30
0.0
 10
140.5375212243671
 20
119.25
 30
0.0
  0
SOLID
  5
1ED
330
1F
100
AcDbEntity
  8
1
 62
     2
100
AcDbTrace
 10
261.4764243612426
 20
158.8922211760351
 30
0.0
 11
262.6735756387573
 21
158.2010455637013
 31
0.0
 12
259.45
 22
153.9999999999999
 32
0.0
 13
259.45
 23
153.9999999999999
 33
0.0
  0
LEADER
  5
1EE
330
1F
100
AcDbEntity
  8
1
  6
Continuous
 62
     2
100
AcDbLeader
  3
Standard
 71
     0
 76
     3
 10
259.45
 20
153.9999999999999
 30
0.0
 10
276.6649579657129
 20
183.8171818467772
 30
0.0
 10
257.374154898983
 20
183.8171818467772
 30
0.0
  0
SOLID
  5
1EF
330
1F
100
AcDbEntity
  8
1
 62
     2
100
AcDbTrace
 10
72.97357563875732
 20
159.509251446152
 30
0.0
 11
71.7764243612426
 21
160.2004270584858
 31
0.0
 12
74.99999999999994
 22
164.4014726221872
 32
0.0
 13
74.99999999999994
 23
164.4014726221872
 33
0.0
  0
LEADER
  5
1F0
330
1F
100
AcDbEntity
  8
1
  6
Continuous
 62
     2
100
AcDbLeader
  3
Standard
 71
     0
 76
     3
 10
74.99999999999994
 20
164.4014726221872
 30
0.0
 10
65.04597172420108
 20
147.1605899085263
 30
0.0
 10
49.26902236040934
 20
147.1605899085263
 30
0.0
  0
MTEXT
  5
1F2
330
1F
100
AcDbEntity
  8
1
 62
     7
100
AcDbMText
 10
140.625
 20
25.5
 30
0.0
 40
5.25
 41
0.0
 71
     5
 72
     1
  1
1,5
  7
CONVERTER_12
 73
     1
 44
0.7202881152461
  0
MTEXT
  5
1F3
330
1F
100
AcDbEntity
  8
1
 62
     7
100
AcDbMText
 10
127.875
 20
25.5
 30
0.0
 40
5.25
 41
0.0
 71
     5
 72
     1
  1
1
  7
CONVERTER_12
 73
     1
 44
0.7202881152461
  0
MTEXT
  5
1F4
330
1F
100
AcDbEntity
  8
1
 62
     7
100
AcDbMText
 10
85.5
 20
21.375
 30
0.0
 40
5.25
 41
0.0
 71
     5
 72
     1
  1
V280A-13
  7
CONVERTER_12
 73
     1
 44
0.7202881152461
  0
MTEXT
  5
1F5
330
1F
100
AcDbEntity
  8
1
 62
     7
100
AcDbMText
 10
151.9867057546204
 20
123.75
 30
0.0
 40
5.25
 41
0.0
 71
     5
 72
     1
  1
Rc1/2
  7
CONVERTER_12
 73
     1
 44
1.32052821128451
  0
MTEXT
  5
1F6
330
1F
100
AcDbEntity
  8
1
 62
     7
100
AcDbMText
 10
267.0195564323479
 20
188.3171818467772
 30
0.0
 40
5.25
 41
0.0
 71
     5
 72
     1
  1
PJ1/2
  7
CONVERTER_12
 73
     1
 44
1.32052821128451
  0
MTEXT
  5
1F7
330
1F
100
AcDbEntity
  8
1
 62
     7
100
AcDbMText
 10
51.0
 20
56.25
 30
0.0
 40
5.25
 41
0.0
 71
     4
 72
     1
  1
JIS
  7
CONVERTER_12
 73
     1
 44
0.7202881152461
  0
MTEXT
  5
1F8
330
1F
100
AcDbEntity
  8
1
 62
     7
100
AcDbMText
 10
85.5
 20
34.12500000000001
 30
0.0
 40
5.25
 41
0.0
 71
     5
 72
     1
  1
ストレーナ化粧バルブ
  7
CONVERTER_11
 73
     1
 44
0.54545454545455
  0
MTEXT
  5
1F9
330
1F
100
AcDbEntity
  8
1
 62
     7
100
AcDbMText
 10
51.0
 20
45.75000000000001
 30
0.0
 40
5.25
 41
0.0
 71
     4
 72
     1
  1
共用形
  7
CONVERTER_11
 73
     1
 44
0.54545454545455
  0
DIMENSION
  5
204
330
1F
100
AcDbEntity
  8
1
100
AcDbDimension
  2
*D8
 10
171.5
 20
114.25
 30
0.0
 11
219.25
 21
118.375
 31
0.0
 70
    32
  1
96
 71
     5
 42
-1.0
 53
0.00013888888889
  3
ME10_DIM_10
100
AcDbAlignedDimension
 13
267.0
 23
134.1839999999997
 33
0.0
 14
171.5
 24
131.0
 34
0.0
100
AcDbRotatedDimension
  0
DIMENSION
  5
20F
330
1F
100
AcDbEntity
  8
0
100
AcDbDimension
  2
*D9
 10
282.0
 20
143.4999999999999
 30
0.0
 11
277.875
 21
160.4999999999999
 31
0.0
 70
    32
  1
<>
 71
     5
 42
-1.0
 53
90.0
  3
ME10_DIM_11
100
AcDbAlignedDimension
 13
250.5
 23
177.4999999999999
 33
0.0
 14
271.7223676846584
 24
143.4999999999999
 34
0.0
 50
90.0
100
AcDbRotatedDimension
  0
DIMENSION
  5
21A
330
1F
100
AcDbEntity
  8
0
100
AcDbDimension
  2
*D10
 10
155.5800501692397
 20
143.4999999999999
 30
0.0
 11
151.4550501692397
 21
178.2499999999999
 31
0.0
 70
    32
  1
70リフト6
 71
     5
 42
-1.0
 53
90.0
  3
ME10_DIM_12
100
AcDbAlignedDimension
 13
201.5
 23
212.9999999999999
 33
0.0
 14
166.5
 24
143.4999999999999
 34
0.0
 50
90.0
100
AcDbRotatedDimension
  0
DIMENSION
  5
225
330
1F
100
AcDbEntity
  8
1
100
AcDbDimension
  2
*D11
 10
78.49999999999989
 20
244.9620225157157
 30
0.0
 11
91.3558832374116
 21
249.0870225157157
 31
0.0
 70
    32
  1
<>
 71
     5
 42
-1.0
 53
0.00013888888889
  3
ME10_DIM_13
100
AcDbAlignedDimension
 13
104.4999999999999
 23
261.5775295353789
 33
0.0
 14
78.49999999999989
 24
261.5775295353789
 34
0.0
100
AcDbRotatedDimension
  0
INSERT
  5
22D
330
1F
100
AcDbEntity
  8
0
100
AcDbBlockReference
  2
*D12
 10
0.0
 20
0.0
 30
0.0
  0
ENDSEC
  0
SECTION
  2
OBJECTS
  0
DICTIONARY
  5
C
330
0
100
AcDbDictionary
281
     1
  3
ACAD_GROUP
350
D
  3
ACAD_LAYOUT
350
1A
  3
ACAD_MATERIAL
350
3B
  3
ACAD_MLEADERSTYLE
350
230
  3
ACAD_MLINESTYLE
350
17
  3
ACAD_PLOTSETTINGS
350
19
  3
ACAD_PLOTSTYLENAME
350
E
  3
ACAD_VISUALSTYLE
350
2A
  3
AcDbVariableDictionary
350
22E
  0
DICTIONARY
  5
D
102
{ACAD_REACTORS
330
C
102
}
330
C
100
AcDbDictionary
281
     1
  0
DICTIONARY
  5
1A
102
{ACAD_REACTORS
330
C
102
}
330
C
100
AcDbDictionary
281
     1
  3
Layout1
350
1E
  3
Layout2
350
26
  3
Model
350
22
  0
DICTIONARY
  5
3B
102
{ACAD_REACTORS
330
C
102
}
330
C
100
AcDbDictionary
281
     1
  3
ByBlock
350
3D
  3
ByLayer
350
3C
  3
Global
350
3E
  0
DICTIONARY
  5
230
102
{ACAD_REACTORS
330
C
102
}
330
C
100
AcDbDictionary
281
     1
  0
DICTIONARY
  5
17
102
{ACAD_REACTORS
330
C
102
}
330
C
100
AcDbDictionary
281
     1
  3
Standard
350
18
  0
DICTIONARY
  5
19
102
{ACAD_REACTORS
330
C
102
}
330
C
100
AcDbDictionary
281
     1
  0
ACDBDICTIONARYWDFLT
  5
E
102
{ACAD_REACTORS
330
C
102
}
330
C
100
AcDbDictionary
281
     1
  3
Normal
350
F
100
AcDbDictionaryWithDefault
340
F
  0
DICTIONARY
  5
2A
102
{ACAD_REACTORS
330
C
102
}
330
C
100
AcDbDictionary
281
     1
  3
2dWireframe
350
2F
  3
3D Hidden
350
31
  3
3dWireframe
350
30
  3
Basic
350
32
  3
Brighten
350
36
  3
ColorChange
350
3A
  3
Conceptual
350
34
  3
Dim
350
35
  3
Facepattern
350
39
  3
Flat
350
2B
  3
FlatWithEdges
350
2C
  3
Gouraud
350
2D
  3
GouraudWithEdges
350
2E
  3
Linepattern
350
38
  3
Realistic
350
33
  3
Thicken
350
37
  0
DICTIONARY
  5
22E
102
{ACAD_REACTORS
330
C
102
}
330
C
100
AcDbDictionary
281
     1
  3
DIMASSOC
350
231
  3
HIDETEXT
350
232
  0
LAYOUT
  5
1E
102
{ACAD_REACTORS
330
1A
102
}
330
1A
100
AcDbPlotSettings
  1

  2
none_device
  4

  6

 40
0.0
 41
0.0
 42
0.0
 43
0.0
 44
0.0
 45
0.0
 46
0.0
 47
0.0
 48
0.0
 49
0.0
140
0.0
141
0.0
142
1.0
143
1.0
 70
   688
 72
     0
 73
     0
 74
     5
  7

 75
    16
147
1.0
148
0.0
149
0.0
100
AcDbLayout
  1
Layout1
 70
     1
 71
     1
 10
0.0
 20
0.0
 11
12.0
 21
9.0
 12
0.0
 22
0.0
 32
0.0
 14
1.00000000000000E+20
 24
1.00000000000000E+20
 34
1.00000000000000E+20
 15
-1.00000000000000E+20
 25
-1.00000000000000E+20
 35
-1.00000000000000E+20
146
0.0
 13
0.0
 23
0.0
 33
0.0
 16
1.0
 26
0.0
 36
0.0
 17
0.0
 27
1.0
 37
0.0
 76
     0
330
1B
  0
LAYOUT
  5
26
102
{ACAD_REACTORS
330
1A
102
}
330
1A
100
AcDbPlotSettings
  1

  2
none_device
  4

  6

 40
0.0
 41
0.0
 42
0.0
 43
0.0
 44
0.0
 45
0.0
 46
0.0
 47
0.0
 48
0.0
 49
0.0
140
0.0
141
0.0
142
1.0
143
1.0
 70
   688
 72
     0
 73
     0
 74
     5
  7

 75
    16
147
1.0
148
0.0
149
0.0
100
AcDbLayout
  1
Layout2
 70
     1
 71
     2
 10
0.0
 20
0.0
 11
0.0
 21
0.0
 12
0.0
 22
0.0
 32
0.0
 14
0.0
 24
0.0
 34
0.0
 15
0.0
 25
0.0
 35
0.0
146
0.0
 13
0.0
 23
0.0
 33
0.0
 16
1.0
 26
0.0
 36
0.0
 17
0.0
 27
1.0
 37
0.0
 76
     0
330
23
  0
LAYOUT
  5
22
102
{ACAD_REACTORS
330
1A
102
}
330
1A
100
AcDbPlotSettings
  1

  2
none_device
  4

  6

 40
0.0
 41
0.0
 42
0.0
 43
0.0
 44
0.0
 45
0.0
 46
0.0
 47
0.0
 48
0.0
 49
0.0
140
0.0
141
0.0
142
1.0
143
1.0
 70
  1712
 72
     0
 73
     0
 74
     0
  7

 75
     0
147
1.0
148
0.0
149
0.0
100
AcDbLayout
  1
Model
 70
     1
 71
     0
 10
0.0
 20
0.0
 11
12.0
 21
9.0
 12
0.0
 22
0.0
 32
0.0
 14
0.0
 24
0.0
 34
0.0
 15
315.0
 25
445.5
 35
0.0
146
0.0
 13
0.0
 23
0.0
 33
0.0
 16
1.0
 26
0.0
 36
0.0
 17
0.0
 27
1.0
 37
0.0
 76
     0
330
1F
331
29
  0
MATERIAL
  5
3D
102
{ACAD_REACTORS
330
3B
102
}
102
{ACAD_XDICTIONARY
360
255
102
}
330
3B
100
AcDbMaterial
  1
ByBlock
  0
MATERIAL
  5
3C
102
{ACAD_REACTORS
330
3B
102
}
102
{ACAD_XDICTIONARY
360
253
102
}
330
3B
100
AcDbMaterial
  1
ByLayer
  0
MATERIAL
  5
3E
102
{ACAD_REACTORS
330
3B
102
}
102
{ACAD_XDICTIONARY
360
257
102
}
330
3B
100
AcDbMaterial
  1
Global
  0
MLINESTYLE
  5
18
102
{ACAD_REACTORS
330
17
102
}
330
17
100
AcDbMlineStyle
  2
Standard
 70
     0
  3

 62
   256
 51
90.0
 52
90.0
 71
     2
 49
0.5
 62
   256
  6
BYLAYER
 49
-0.5
 62
   256
  6
BYLAYER
  0
ACDBPLACEHOLDER
  5
F
102
{ACAD_REACTORS
330
E
102
}
330
E
  0
VISUALSTYLE
  5
2F
102
{ACAD_REACTORS
330
2A
102
}
102
{ACAD_XDICTIONARY
360
23B
102
}
330
2A
100
AcDbVisualStyle
  2
2dWireframe
 70
     4
 71
     0
 72
     2
 73
     0
 90
        0
 40
-0.6
 41
-30.0
 62
     5
 63
     7
 74
     1
 91
        4
 64
     7
 65
   257
 75
     1
175
     1
 42
1.0
 92
        0
 66
   257
 43
1.0
 76
     1
 77
     6
 78
     2
 67
     7
 79
     5
170
     0
171
     0
290
     0
174
     0
 93
        1
 44
0.0
173
     0
291
     0
 45
0.0
1001
ACAD
1000
AcDbSavedByObjectVersion
1070
     0
  0
VISUALSTYLE
  5
31
102
{ACAD_REACTORS
330
2A
102
}
102
{ACAD_XDICTIONARY
360
23F
102
}
330
2A
100
AcDbVisualStyle
  2
3D Hidden
 70
     6
 71
     1
 72
     2
 73
     2
 90
        0
 40
-0.6
 41
-30.0
 62
     5
 63
     7
 74
     2
 91
        2
 64
     7
 65
   257
 75
     2
175
     1
 42
40.0
 92
        0
 66
   257
 43
1.0
 76
     1
 77
     6
 78
     2
 67
     7
 79
     3
170
     0
171
     0
290
     0
174
     0
 93
        1
 44
0.0
173
     0
291
     0
 45
0.0
1001
ACAD
1000
AcDbSavedByObjectVersion
1070
     0
  0
VISUALSTYLE
  5
30
102
{ACAD_REACTORS
330
2A
102
}
102
{ACAD_XDICTIONARY
360
23D
102
}
330
2A
100
AcDbVisualStyle
  2
3dWireframe
 70
     5
 71
     0
 72
     2
 73
     0
 90
        0
 40
-0.6
 41
-30.0
 62
     5
 63
     7
 74
     1
 91
        4
 64
     7
 65
   257
 75
     1
175
     1
 42
1.0
 92
        0
 66
   257
 43
1.0
 76
     1
 77
     6
 78
     2
 67
     7
 79
     5
170
     0
171
     0
290
     0
174
     0
 93
        1
 44
0.0
173
     0
291
     0
 45
0.0
1001
ACAD
1000
AcDbSavedByObjectVersion
1070
     0
  0
VISUALSTYLE
  5
32
102
{ACAD_REACTORS
330
2A
102
}
102
{ACAD_XDICTIONARY
360
241
102
}
330
2A
100
AcDbVisualStyle
  2
Basic
 70
     7
 71
     1
 72
     0
 73
     1
 90
        0
 40
-0.6
 41
-30.0
 62
     5
 63
     7
 74
     0
 91
        4
 64
     7
 65
   257
 75
     1
175
     1
 42
1.0
 92
        8
 66
     7
 43
1.0
 76
     1
 77
     6
 78
     2
 67
     7
 79
     5
170
     0
171
     0
290
     0
174
     0
 93
        1
 44
0.0
173
     0
291
     1
 45
0.0
1001
ACAD
1000
AcDbSavedByObjectVersion
1070
     0
  0
VISUALSTYLE
  5
36
102
{ACAD_REACTORS
330
2A
102
}
102
{ACAD_XDICTIONARY
360
249
102
}
330
2A
100
AcDbVisualStyle
  2
Brighten
 70
    12
 71
     2
 72
     2
 73
     0
 90
        0
 40
-0.6
 41
-30.0
 62
     5
 63
     7
 74
     1
 91
        4
 64
     7
 65
   257
 75
     1
175
     1
 42
1.0
 92
        8
 66
     7
 43
1.0
 76
     1
 77
     6
 78
     2
 67
     7
 79
     5
170
     0
171
     0
290
     0
174
     0
 93
        1
 44
50.0
173
     0
291
     1
 45
0.0
1001
ACAD
1000
AcDbSavedByObjectVersion
1070
     0
  0
VISUALSTYLE
  5
3A
102
{ACAD_REACTORS
330
2A
102
}
102
{ACAD_XDICTIONARY
360
251
102
}
330
2A
100
AcDbVisualStyle
  2
ColorChange
 70
    16
 71
     2
 72
     2
 73
     3
 90
        0
 40
-0.6
 41
-30.0
 62
     5
 63
     8
 74
     1
 91
        4
 64
     7
 65
   257
 75
     1
175
     1
 42
1.0
 92
        8
 66
     8
 43
1.0
 76
     1
 77
     6
 78
     2
 67
     7
 79
     5
170
     0
171
     0
290
     0
174
     0
 93
        1
 44
0.0
173
     0
291
     1
 45
0.0
1001
ACAD
1000
AcDbSavedByObjectVersion
1070
     0
  0
VISUALSTYLE
  5
34
102
{ACAD_REACTORS
330
2A
102
}
102
{ACAD_XDICTIONARY
360
245
102
}
330
2A
100
AcDbVisualStyle
  2
Conceptual
 70
     9
 71
     3
 72
     2
 73
     0
 90
        0
 40
-0.6
 41
-30.0
 62
     5
 63
     7
 74
     2
 91
        2
 64
     7
 65
   257
 75
     1
175
     1
 42
40.0
 92
        8
 66
     7
 43
1.0
 76
     1
 77
     6
 78
     2
 67
     7
 79
     3
170
     0
171
     0
290
     0
174
     0
 93
        1
 44
0.0
173
     0
291
     0
 45
0.0
1001
ACAD
1000
AcDbSavedByObjectVersion
1070
     0
  0
VISUALSTYLE
  5
35
102
{ACAD_REACTORS
330
2A
102
}
102
{ACAD_XDICTIONARY
360
247
102
}
330
2A
100
AcDbVisualStyle
  2
Dim
 70
    11
 71
     2
 72
     2
 73
     0
 90
        0
 40
-0.6
 41
-30.0
 62
     5
 63
     7
 74
     1
 91
        4
 64
     7
 65
   257
 75
     1
175
     1
 42
1.0
 92
        8
 66
     7
 43
1.0
 76
     1
 77
     6
 78
     2
 67
     7
 79
     5
170
     0
171
     0
290
     0
174
     0
 93
        1
 44
-50.0
173
     0
291
     1
 45
0.0
1001
ACAD
1000
AcDbSavedByObjectVersion
1070
     0
  0
VISUALSTYLE
  5
39
102
{ACAD_REACTORS
330
2A
102
}
102
{ACAD_XDICTIONARY
360
24F
102
}
330
2A
100
AcDbVisualStyle
  2
Facepattern
 70
    15
 71
     2
 72
     2
 73
     0
 90
        0
 40
-0.6
 41
-30.0
 62
     5
 63
     7
 74
     1
 91
        4
 64
     7
 65
   257
 75
     1
175
     1
 42
1.0
 92
        8
 66
     7
 43
1.0
 76
     1
 77
     6
 78
     2
 67
     7
 79
     5
170
     0
171
     0
290
     0
174
     0
 93
        1
 44
0.0
173
     0
291
     1
 45
0.0
1001
ACAD
1000
AcDbSavedByObjectVersion
1070
     0
  0
VISUALSTYLE
  5
2B
102
{ACAD_REACTORS
330
2A
102
}
102
{ACAD_XDICTIONARY
360
233
102
}
330
2A
100
AcDbVisualStyle
  2
Flat
 70
     0
 71
     2
 72
     1
 73
     1
 90
        2
 40
-0.6
 41
30.0
 62
     5
 63
     7
 74
     0
 91
        4
 64
     7
 65
   257
 75
     1
175
     1
 42
1.0
 92
        8
 66
     7
 43
1.0
 76
     1
 77
     6
 78
     2
 67
     7
 79
     5
170
     0
171
     0
290
     0
174
     0
 93
       13
 44
0.0
173
     0
291
     1
 45
0.0
1001
ACAD
1000
AcDbSavedByObjectVersion
1070
     0
  0
VISUALSTYLE
  5
2C
102
{ACAD_REACTORS
330
2A
102
}
102
{ACAD_XDICTIONARY
360
235
102
}
330
2A
100
AcDbVisualStyle
  2
FlatWithEdges
 70
     1
 71
     2
 72
     1
 73
     1
 90
        2
 40
-0.6
 41
30.0
 62
     5
 63
     7
 74
     1
 91
        4
 64
     7
 65
   257
 75
     1
175
     1
 42
1.0
 92
        0
 66
   257
 43
1.0
 76
     1
 77
     6
 78
     2
 67
     7
 79
     5
170
     0
171
     0
290
     0
174
     0
 93
       13
 44
0.0
173
     0
291
     1
 45
0.0
1001
ACAD
1000
AcDbSavedByObjectVersion
1070
     0
  0
VISUALSTYLE
  5
2D
102
{ACAD_REACTORS
330
2A
102
}
102
{ACAD_XDICTIONARY
360
237
102
}
330
2A
100
AcDbVisualStyle
  2
Gouraud
 70
     2
 71
     2
 72
     2
 73
     1
 90
        2
 40
-0.6
 41
30.0
 62
     5
 63
     7
 74
     0
 91
        4
 64
     7
 65
   257
 75
     1
175
     1
 42
1.0
 92
        0
 66
     7
 43
1.0
 76
     1
 77
     6
 78
     2
 67
     7
 79
     5
170
     0
171
     0
290
     0
174
     0
 93
       13
 44
0.0
173
     0
291
     1
 45
0.0
1001
ACAD
1000
AcDbSavedByObjectVersion
1070
     0
  0
VISUALSTYLE
  5
2E
102
{ACAD_REACTORS
330
2A
102
}
102
{ACAD_XDICTIONARY
360
239
102
}
330
2A
100
AcDbVisualStyle
  2
GouraudWithEdges
 70
     3
 71
     2
 72
     2
 73
     1
 90
        2
 40
-0.6
 41
30.0
 62
     5
 63
     7
 74
     1
 91
        4
 64
     7
 65
   257
 75
     1
175
     1
 42
1.0
 92
        0
 66
   257
 43
1.0
 76
     1
 77
     6
 78
     2
 67
     7
 79
     5
170
     0
171
     0
290
     0
174
     0
 93
       13
 44
0.0
173
     0
291
     1
 45
0.0
1001
ACAD
1000
AcDbSavedByObjectVersion
1070
     0
  0
VISUALSTYLE
  5
38
102
{ACAD_REACTORS
330
2A
102
}
102
{ACAD_XDICTIONARY
360
24D
102
}
330
2A
100
AcDbVisualStyle
  2
Linepattern
 70
    14
 71
     2
 72
     2
 73
     0
 90
        0
 40
-0.6
 41
-30.0
 62
     5
 63
     7
 74
     1
 91
        4
 64
     7
 65
   257
 75
     7
175
     7
 42
1.0
 92
        8
 66
     7
 43
1.0
 76
     1
 77
     6
 78
     2
 67
     7
 79
     5
170
     0
171
     0
290
     0
174
     0
 93
        1
 44
0.0
173
     0
291
     1
 45
0.0
1001
ACAD
1000
AcDbSavedByObjectVersion
1070
     0
  0
VISUALSTYLE
  5
33
102
{ACAD_REACTORS
330
2A
102
}
102
{ACAD_XDICTIONARY
360
243
102
}
330
2A
100
AcDbVisualStyle
  2
Realistic
 70
     8
 71
     2
 72
     2
 73
     0
 90
        0
 40
-0.6
 41
-30.0
 62
     5
 63
     7
 74
     1
 91
        0
 64
     7
 65
   257
 75
     1
175
     1
 42
1.0
 92
        8
 66
     8
 43
1.0
 76
     1
 77
     6
 78
     2
 67
     7
 79
     5
170
     0
171
     0
290
     0
174
     0
 93
       13
 44
0.0
173
     0
291
     0
 45
0.0
1001
ACAD
1000
AcDbSavedByObjectVersion
1070
     0
  0
VISUALSTYLE
  5
37
102
{ACAD_REACTORS
330
2A
102
}
102
{ACAD_XDICTIONARY
360
24B
102
}
330
2A
100
AcDbVisualStyle
  2
Thicken
 70
    13
 71
     2
 72
     2
 73
     0
 90
        0
 40
-0.6
 41
-30.0
 62
     5
 63
     7
 74
     1
 91
        4
 64
     7
 65
   257
 75
     1
175
     1
 42
1.0
 92
       12
 66
     7
 43
1.0
 76
     1
 77
     6
 78
     2
 67
     7
 79
     5
170
     0
171
     0
290
     0
174
     0
 93
        1
 44
0.0
173
     0
291
     1
 45
0.0
1001
ACAD
1000
AcDbSavedByObjectVersion
1070
     0
  0
DICTIONARYVAR
  5
231
102
{ACAD_REACTORS
330
22E
102
}
330
22E
100
DictionaryVariables
280
     0
  1
2
  0
DICTIONARYVAR
  5
232
102
{ACAD_REACTORS
330
22E
102
}
330
22E
100
DictionaryVariables
280
     0
  1
1
  0
DICTIONARY
  5
255
330
3D
100
AcDbDictionary
280
     1
281
     1
  3
ACAD_XREC_ROUNDTRIP
360
256
  0
DICTIONARY
  5
253
330
3C
100
AcDbDictionary
280
     1
281
     1
  3
ACAD_XREC_ROUNDTRIP
360
254
  0
DICTIONARY
  5
257
330
3E
100
AcDbDictionary
280
     1
281
     1
  3
ACAD_XREC_ROUNDTRIP
360
258
  0
DICTIONARY
  5
23B
330
2F
100
AcDbDictionary
280
     1
281
     1
  3
ACAD_XREC_ROUNDTRIP
360
23C
  0
DICTIONARY
  5
23F
330
31
100
AcDbDictionary
280
     1
281
     1
  3
ACAD_XREC_ROUNDTRIP
360
240
  0
DICTIONARY
  5
23D
330
30
100
AcDbDictionary
280
     1
281
     1
  3
ACAD_XREC_ROUNDTRIP
360
23E
  0
DICTIONARY
  5
241
330
32
100
AcDbDictionary
280
     1
281
     1
  3
ACAD_XREC_ROUNDTRIP
360
242
  0
DICTIONARY
  5
249
330
36
100
AcDbDictionary
280
     1
281
     1
  3
ACAD_XREC_ROUNDTRIP
360
24A
  0
DICTIONARY
  5
251
330
3A
100
AcDbDictionary
280
     1
281
     1
  3
ACAD_XREC_ROUNDTRIP
360
252
  0
DICTIONARY
  5
245
330
34
100
AcDbDictionary
280
     1
281
     1
  3
ACAD_XREC_ROUNDTRIP
360
246
  0
DICTIONARY
  5
247
330
35
100
AcDbDictionary
280
     1
281
     1
  3
ACAD_XREC_ROUNDTRIP
360
248
  0
DICTIONARY
  5
24F
330
39
100
AcDbDictionary
280
     1
281
     1
  3
ACAD_XREC_ROUNDTRIP
360
250
  0
DICTIONARY
  5
233
330
2B
100
AcDbDictionary
280
     1
281
     1
  3
ACAD_XREC_ROUNDTRIP
360
234
  0
DICTIONARY
  5
235
330
2C
100
AcDbDictionary
280
     1
281
     1
  3
ACAD_XREC_ROUNDTRIP
360
236
  0
DICTIONARY
  5
237
330
2D
100
AcDbDictionary
280
     1
281
     1
  3
ACAD_XREC_ROUNDTRIP
360
238
  0
DICTIONARY
  5
239
330
2E
100
AcDbDictionary
280
     1
281
     1
  3
ACAD_XREC_ROUNDTRIP
360
23A
  0
DICTIONARY
  5
24D
330
38
100
AcDbDictionary
280
     1
281
     1
  3
ACAD_XREC_ROUNDTRIP
360
24E
  0
DICTIONARY
  5
243
330
33
100
AcDbDictionary
280
     1
281
     1
  3
ACAD_XREC_ROUNDTRIP
360
244
  0
DICTIONARY
  5
24B
330
37
100
AcDbDictionary
280
     1
281
     1
  3
ACAD_XREC_ROUNDTRIP
360
24C
  0
XRECORD
  5
256
102
{ACAD_REACTORS
330
255
102
}
330
255
100
AcDbXrecord
280
     1
102
MATERIAL
148
0.0
149
0.0
149
0.0
 93
        0
 94
      127
282
     0
 72
     1
 77
     1
171
     1
175
     1
179
     1
273
     0
  0
XRECORD
  5
254
102
{ACAD_REACTORS
330
253
102
}
330
253
100
AcDbXrecord
280
     1
102
MATERIAL
148
0.0
149
0.0
149
0.0
 93
        0
 94
      127
282
     0
 72
     1
 77
     1
171
     1
175
     1
179
     1
273
     0
  0
XRECORD
  5
258
102
{ACAD_REACTORS
330
257
102
}
330
257
100
AcDbXrecord
280
     1
102
MATERIAL
148
0.0
149
0.0
149
0.0
 93
        0
 94
      127
282
     0
 72
     1
 77
     1
171
     1
175
     1
179
     1
273
     0
  0
XRECORD
  5
23C
102
{ACAD_REACTORS
330
23B
102
}
330
23B
100
AcDbXrecord
280
     1
102
RTVSPropertyOp0
 70
     1
102
RTVSPropertyOp1
 70
     1
102
RTVSPropertyOp2
 70
     1
102
RTVSPropertyOp3
 70
     1
102
RTVSPropertyOp4
 70
     1
102
RTVSPropertyOp5
 70
     1
102
RTVSPropertyOp6
 70
     1
102
RTVSPropertyOp7
 70
     1
102
RTVSPropertyOp8
 70
     1
102
RTVSPropertyOp9
 70
     1
102
RTVSPropertyOp10
 70
     1
102
RTVSPropertyOp11
 70
     1
102
RTVSPropertyOp12
 70
     1
102
RTVSPropertyOp13
 70
     1
102
RTVSPropertyOp14
 70
     1
102
RTVSPropertyOp15
 70
     1
102
RTVSPropertyOp16
 70
     1
102
RTVSPropertyOp17
 70
     1
102
RTVSPropertyOp18
 70
     1
102
RTVSPropertyOp19
 70
     1
102
RTVSPropertyOp20
 70
     1
102
RTVSPropertyOp21
 70
     1
102
RTVSPropertyOp22
 70
     1
102
RTVSPropertyOp23
 70
     1
102
RTVSPropertyOp24
 70
     1
102
RTVSPropertyOp25
 70
     1
102
RTVSPropertyOp26
 70
     1
102
RTVSPropertyOp27
 70
     1
102
RTVSPropertyOp28
 70
     1
102
RTVSPropertyOp29
 70
     1
102
RTVSPropertyOp30
 70
     1
102
RTVSPropertyOp31
 70
     1
102
RTVSPropertyOp32
 70
     1
  0
XRECORD
  5
240
102
{ACAD_REACTORS
330
23F
102
}
330
23F
100
AcDbXrecord
280
     1
102
RTVSPropertyOp0
 70
     1
102
RTVSPropertyOp1
 70
     1
102
RTVSPropertyOp2
 70
     1
102
RTVSPropertyOp3
 70
     1
102
RTVSPropertyOp4
 70
     1
102
RTVSPropertyOp5
 70
     1
102
RTVSPropertyOp6
 70
     1
102
RTVSPropertyOp7
 70
     1
102
RTVSPropertyOp8
 70
     1
102
RTVSPropertyOp9
 70
     1
102
RTVSPropertyOp10
 70
     1
102
RTVSPropertyOp11
 70
     1
102
RTVSPropertyOp12
 70
     1
102
RTVSPropertyOp13
 70
     1
102
RTVSPropertyOp14
 70
     1
102
RTVSPropertyOp15
 70
     1
102
RTVSPropertyOp16
 70
     1
102
RTVSPropertyOp17
 70
     1
102
RTVSPropertyOp18
 70
     1
102
RTVSPropertyOp19
 70
     1
102
RTVSPropertyOp20
 70
     1
102
RTVSPropertyOp21
 70
     1
102
RTVSPropertyOp22
 70
     1
102
RTVSPropertyOp23
 70
     1
102
RTVSPropertyOp24
 70
     1
102
RTVSPropertyOp25
 70
     1
102
RTVSPropertyOp26
 70
     1
102
RTVSPropertyOp27
 70
     1
102
RTVSPropertyOp28
 70
     1
102
RTVSPropertyOp29
 70
     1
102
RTVSPropertyOp30
 70
     1
102
RTVSPropertyOp31
 70
     1
102
RTVSPropertyOp32
 70
     1
  0
XRECORD
  5
23E
102
{ACAD_REACTORS
330
23D
102
}
330
23D
100
AcDbXrecord
280
     1
102
RTVSPropertyOp0
 70
     1
102
RTVSPropertyOp1
 70
     1
102
RTVSPropertyOp2
 70
     1
102
RTVSPropertyOp3
 70
     1
102
RTVSPropertyOp4
 70
     1
102
RTVSPropertyOp5
 70
     1
102
RTVSPropertyOp6
 70
     1
102
RTVSPropertyOp7
 70
     1
102
RTVSPropertyOp8
 70
     1
102
RTVSPropertyOp9
 70
     1
102
RTVSPropertyOp10
 70
     1
102
RTVSPropertyOp11
 70
     1
102
RTVSPropertyOp12
 70
     1
102
RTVSPropertyOp13
 70
     1
102
RTVSPropertyOp14
 70
     1
102
RTVSPropertyOp15
 70
     1
102
RTVSPropertyOp16
 70
     1
102
RTVSPropertyOp17
 70
     1
102
RTVSPropertyOp18
 70
     1
102
RTVSPropertyOp19
 70
     1
102
RTVSPropertyOp20
 70
     1
102
RTVSPropertyOp21
 70
     1
102
RTVSPropertyOp22
 70
     1
102
RTVSPropertyOp23
 70
     1
102
RTVSPropertyOp24
 70
     1
102
RTVSPropertyOp25
 70
     1
102
RTVSPropertyOp26
 70
     1
102
RTVSPropertyOp27
 70
     1
102
RTVSPropertyOp28
 70
     1
102
RTVSPropertyOp29
 70
     1
102
RTVSPropertyOp30
 70
     1
102
RTVSPropertyOp31
 70
     1
102
RTVSPropertyOp32
 70
     1
  0
XRECORD
  5
242
102
{ACAD_REACTORS
330
241
102
}
330
241
100
AcDbXrecord
280
     1
102
RTVSPropertyOp0
 70
     1
102
RTVSPropertyOp1
 70
     1
102
RTVSPropertyOp2
 70
     1
102
RTVSPropertyOp3
 70
     1
102
RTVSPropertyOp4
 70
     1
102
RTVSPropertyOp5
 70
     1
102
RTVSPropertyOp6
 70
     1
102
RTVSPropertyOp7
 70
     1
102
RTVSPropertyOp8
 70
     1
102
RTVSPropertyOp9
 70
     1
102
RTVSPropertyOp10
 70
     1
102
RTVSPropertyOp11
 70
     1
102
RTVSPropertyOp12
 70
     1
102
RTVSPropertyOp13
 70
     1
102
RTVSPropertyOp14
 70
     1
102
RTVSPropertyOp15
 70
     1
102
RTVSPropertyOp16
 70
     1
102
RTVSPropertyOp17
 70
     1
102
RTVSPropertyOp18
 70
     1
102
RTVSPropertyOp19
 70
     1
102
RTVSPropertyOp20
 70
     1
102
RTVSPropertyOp21
 70
     1
102
RTVSPropertyOp22
 70
     1
102
RTVSPropertyOp23
 70
     1
102
RTVSPropertyOp24
 70
     1
102
RTVSPropertyOp25
 70
     1
102
RTVSPropertyOp26
 70
     1
102
RTVSPropertyOp27
 70
     1
102
RTVSPropertyOp28
 70
     1
102
RTVSPropertyOp29
 70
     1
102
RTVSPropertyOp30
 70
     1
102
RTVSPropertyOp31
 70
     1
102
RTVSPropertyOp32
 70
     1
  0
XRECORD
  5
24A
102
{ACAD_REACTORS
330
249
102
}
330
249
100
AcDbXrecord
280
     1
102
RTVSPropertyOp0
 70
     1
102
RTVSPropertyOp1
 70
     1
102
RTVSPropertyOp2
 70
     1
102
RTVSPropertyOp3
 70
     1
102
RTVSPropertyOp4
 70
     1
102
RTVSPropertyOp5
 70
     1
102
RTVSPropertyOp6
 70
     1
102
RTVSPropertyOp7
 70
     1
102
RTVSPropertyOp8
 70
     1
102
RTVSPropertyOp9
 70
     1
102
RTVSPropertyOp10
 70
     1
102
RTVSPropertyOp11
 70
     1
102
RTVSPropertyOp12
 70
     1
102
RTVSPropertyOp13
 70
     1
102
RTVSPropertyOp14
 70
     1
102
RTVSPropertyOp15
 70
     1
102
RTVSPropertyOp16
 70
     1
102
RTVSPropertyOp17
 70
     1
102
RTVSPropertyOp18
 70
     1
102
RTVSPropertyOp19
 70
     1
102
RTVSPropertyOp20
 70
     1
102
RTVSPropertyOp21
 70
     1
102
RTVSPropertyOp22
 70
     1
102
RTVSPropertyOp23
 70
     1
102
RTVSPropertyOp24
 70
     1
102
RTVSPropertyOp25
 70
     1
102
RTVSPropertyOp26
 70
     1
102
RTVSPropertyOp27
 70
     1
102
RTVSPropertyOp28
 70
     1
102
RTVSPropertyOp29
 70
     1
102
RTVSPropertyOp30
 70
     1
102
RTVSPropertyOp31
 70
     1
102
RTVSPropertyOp32
 70
     1
  0
XRECORD
  5
252
102
{ACAD_REACTORS
330
251
102
}
330
251
100
AcDbXrecord
280
     1
102
RTVSPropertyOp0
 70
     1
102
RTVSPropertyOp1
 70
     1
102
RTVSPropertyOp2
 70
     1
102
RTVSPropertyOp3
 70
     1
102
RTVSPropertyOp4
 70
     1
102
RTVSPropertyOp5
 70
     1
102
RTVSPropertyOp6
 70
     1
102
RTVSPropertyOp7
 70
     1
102
RTVSPropertyOp8
 70
     1
102
RTVSPropertyOp9
 70
     1
102
RTVSPropertyOp10
 70
     1
102
RTVSPropertyOp11
 70
     1
102
RTVSPropertyOp12
 70
     1
102
RTVSPropertyOp13
 70
     1
102
RTVSPropertyOp14
 70
     1
102
RTVSPropertyOp15
 70
     1
102
RTVSPropertyOp16
 70
     1
102
RTVSPropertyOp17
 70
     1
102
RTVSPropertyOp18
 70
     1
102
RTVSPropertyOp19
 70
     1
102
RTVSPropertyOp20
 70
     1
102
RTVSPropertyOp21
 70
     1
102
RTVSPropertyOp22
 70
     1
102
RTVSPropertyOp23
 70
     1
102
RTVSPropertyOp24
 70
     1
102
RTVSPropertyOp25
 70
     1
102
RTVSPropertyOp26
 70
     1
102
RTVSPropertyOp27
 70
     1
102
RTVSPropertyOp28
 70
     1
102
RTVSPropertyOp29
 70
     1
102
RTVSPropertyOp30
 70
     1
102
RTVSPropertyOp31
 70
     1
102
RTVSPropertyOp32
 70
     1
  0
XRECORD
  5
246
102
{ACAD_REACTORS
330
245
102
}
330
245
100
AcDbXrecord
280
     1
102
RTVSPropertyOp0
 70
     1
102
RTVSPropertyOp1
 70
     1
102
RTVSPropertyOp2
 70
     1
102
RTVSPropertyOp3
 70
     1
102
RTVSPropertyOp4
 70
     1
102
RTVSPropertyOp5
 70
     1
102
RTVSPropertyOp6
 70
     1
102
RTVSPropertyOp7
 70
     1
102
RTVSPropertyOp8
 70
     1
102
RTVSPropertyOp9
 70
     1
102
RTVSPropertyOp10
 70
     1
102
RTVSPropertyOp11
 70
     1
102
RTVSPropertyOp12
 70
     1
102
RTVSPropertyOp13
 70
     1
102
RTVSPropertyOp14
 70
     1
102
RTVSPropertyOp15
 70
     1
102
RTVSPropertyOp16
 70
     1
102
RTVSPropertyOp17
 70
     1
102
RTVSPropertyOp18
 70
     1
102
RTVSPropertyOp19
 70
     1
102
RTVSPropertyOp20
 70
     1
102
RTVSPropertyOp21
 70
     1
102
RTVSPropertyOp22
 70
     1
102
RTVSPropertyOp23
 70
     1
102
RTVSPropertyOp24
 70
     1
102
RTVSPropertyOp25
 70
     1
102
RTVSPropertyOp26
 70
     1
102
RTVSPropertyOp27
 70
     1
102
RTVSPropertyOp28
 70
     1
102
RTVSPropertyOp29
 70
     1
102
RTVSPropertyOp30
 70
     1
102
RTVSPropertyOp31
 70
     1
102
RTVSPropertyOp32
 70
     1
  0
XRECORD
  5
248
102
{ACAD_REACTORS
330
247
102
}
330
247
100
AcDbXrecord
280
     1
102
RTVSPropertyOp0
 70
     1
102
RTVSPropertyOp1
 70
     1
102
RTVSPropertyOp2
 70
     1
102
RTVSPropertyOp3
 70
     1
102
RTVSPropertyOp4
 70
     1
102
RTVSPropertyOp5
 70
     1
102
RTVSPropertyOp6
 70
     1
102
RTVSPropertyOp7
 70
     1
102
RTVSPropertyOp8
 70
     1
102
RTVSPropertyOp9
 70
     1
102
RTVSPropertyOp10
 70
     1
102
RTVSPropertyOp11
 70
     1
102
RTVSPropertyOp12
 70
     1
102
RTVSPropertyOp13
 70
     1
102
RTVSPropertyOp14
 70
     1
102
RTVSPropertyOp15
 70
     1
102
RTVSPropertyOp16
 70
     1
102
RTVSPropertyOp17
 70
     1
102
RTVSPropertyOp18
 70
     1
102
RTVSPropertyOp19
 70
     1
102
RTVSPropertyOp20
 70
     1
102
RTVSPropertyOp21
 70
     1
102
RTVSPropertyOp22
 70
     1
102
RTVSPropertyOp23
 70
     1
102
RTVSPropertyOp24
 70
     1
102
RTVSPropertyOp25
 70
     1
102
RTVSPropertyOp26
 70
     1
102
RTVSPropertyOp27
 70
     1
102
RTVSPropertyOp28
 70
     1
102
RTVSPropertyOp29
 70
     1
102
RTVSPropertyOp30
 70
     1
102
RTVSPropertyOp31
 70
     1
102
RTVSPropertyOp32
 70
     1
  0
XRECORD
  5
250
102
{ACAD_REACTORS
330
24F
102
}
330
24F
100
AcDbXrecord
280
     1
102
RTVSPropertyOp0
 70
     1
102
RTVSPropertyOp1
 70
     1
102
RTVSPropertyOp2
 70
     1
102
RTVSPropertyOp3
 70
     1
102
RTVSPropertyOp4
 70
     1
102
RTVSPropertyOp5
 70
     1
102
RTVSPropertyOp6
 70
     1
102
RTVSPropertyOp7
 70
     1
102
RTVSPropertyOp8
 70
     1
102
RTVSPropertyOp9
 70
     1
102
RTVSPropertyOp10
 70
     1
102
RTVSPropertyOp11
 70
     1
102
RTVSPropertyOp12
 70
     1
102
RTVSPropertyOp13
 70
     1
102
RTVSPropertyOp14
 70
     1
102
RTVSPropertyOp15
 70
     1
102
RTVSPropertyOp16
 70
     1
102
RTVSPropertyOp17
 70
     1
102
RTVSPropertyOp18
 70
     1
102
RTVSPropertyOp19
 70
     1
102
RTVSPropertyOp20
 70
     1
102
RTVSPropertyOp21
 70
     1
102
RTVSPropertyOp22
 70
     1
102
RTVSPropertyOp23
 70
     1
102
RTVSPropertyOp24
 70
     1
102
RTVSPropertyOp25
 70
     1
102
RTVSPropertyOp26
 70
     1
102
RTVSPropertyOp27
 70
     1
102
RTVSPropertyOp28
 70
     1
102
RTVSPropertyOp29
 70
     1
102
RTVSPropertyOp30
 70
     1
102
RTVSPropertyOp31
 70
     1
102
RTVSPropertyOp32
 70
     1
  0
XRECORD
  5
234
102
{ACAD_REACTORS
330
233
102
}
330
233
100
AcDbXrecord
280
     1
102
RTVSPropertyOp0
 70
     1
102
RTVSPropertyOp1
 70
     1
102
RTVSPropertyOp2
 70
     1
102
RTVSPropertyOp3
 70
     1
102
RTVSPropertyOp4
 70
     1
102
RTVSPropertyOp5
 70
     1
102
RTVSPropertyOp6
 70
     1
102
RTVSPropertyOp7
 70
     1
102
RTVSPropertyOp8
 70
     1
102
RTVSPropertyOp9
 70
     1
102
RTVSPropertyOp10
 70
     1
102
RTVSPropertyOp11
 70
     1
102
RTVSPropertyOp12
 70
     1
102
RTVSPropertyOp13
 70
     1
102
RTVSPropertyOp14
 70
     1
102
RTVSPropertyOp15
 70
     1
102
RTVSPropertyOp16
 70
     1
102
RTVSPropertyOp17
 70
     1
102
RTVSPropertyOp18
 70
     1
102
RTVSPropertyOp19
 70
     1
102
RTVSPropertyOp20
 70
     1
102
RTVSPropertyOp21
 70
     1
102
RTVSPropertyOp22
 70
     1
102
RTVSPropertyOp23
 70
     1
102
RTVSPropertyOp24
 70
     1
102
RTVSPropertyOp25
 70
     1
102
RTVSPropertyOp26
 70
     1
102
RTVSPropertyOp27
 70
     1
102
RTVSPropertyOp28
 70
     1
102
RTVSPropertyOp29
 70
     1
102
RTVSPropertyOp30
 70
     1
102
RTVSPropertyOp31
 70
     1
102
RTVSPropertyOp32
 70
     1
  0
XRECORD
  5
236
102
{ACAD_REACTORS
330
235
102
}
330
235
100
AcDbXrecord
280
     1
102
RTVSPropertyOp0
 70
     1
102
RTVSPropertyOp1
 70
     1
102
RTVSPropertyOp2
 70
     1
102
RTVSPropertyOp3
 70
     1
102
RTVSPropertyOp4
 70
     1
102
RTVSPropertyOp5
 70
     1
102
RTVSPropertyOp6
 70
     1
102
RTVSPropertyOp7
 70
     1
102
RTVSPropertyOp8
 70
     1
102
RTVSPropertyOp9
 70
     1
102
RTVSPropertyOp10
 70
     1
102
RTVSPropertyOp11
 70
     1
102
RTVSPropertyOp12
 70
     1
102
RTVSPropertyOp13
 70
     1
102
RTVSPropertyOp14
 70
     1
102
RTVSPropertyOp15
 70
     1
102
RTVSPropertyOp16
 70
     1
102
RTVSPropertyOp17
 70
     1
102
RTVSPropertyOp18
 70
     1
102
RTVSPropertyOp19
 70
     1
102
RTVSPropertyOp20
 70
     1
102
RTVSPropertyOp21
 70
     1
102
RTVSPropertyOp22
 70
     1
102
RTVSPropertyOp23
 70
     1
102
RTVSPropertyOp24
 70
     1
102
RTVSPropertyOp25
 70
     1
102
RTVSPropertyOp26
 70
     1
102
RTVSPropertyOp27
 70
     1
102
RTVSPropertyOp28
 70
     1
102
RTVSPropertyOp29
 70
     1
102
RTVSPropertyOp30
 70
     1
102
RTVSPropertyOp31
 70
     1
102
RTVSPropertyOp32
 70
     1
  0
XRECORD
  5
238
102
{ACAD_REACTORS
330
237
102
}
330
237
100
AcDbXrecord
280
     1
102
RTVSPropertyOp0
 70
     1
102
RTVSPropertyOp1
 70
     1
102
RTVSPropertyOp2
 70
     1
102
RTVSPropertyOp3
 70
     1
102
RTVSPropertyOp4
 70
     1
102
RTVSPropertyOp5
 70
     1
102
RTVSPropertyOp6
 70
     1
102
RTVSPropertyOp7
 70
     1
102
RTVSPropertyOp8
 70
     1
102
RTVSPropertyOp9
 70
     1
102
RTVSPropertyOp10
 70
     1
102
RTVSPropertyOp11
 70
     1
102
RTVSPropertyOp12
 70
     1
102
RTVSPropertyOp13
 70
     1
102
RTVSPropertyOp14
 70
     1
102
RTVSPropertyOp15
 70
     1
102
RTVSPropertyOp16
 70
     1
102
RTVSPropertyOp17
 70
     1
102
RTVSPropertyOp18
 70
     1
102
RTVSPropertyOp19
 70
     1
102
RTVSPropertyOp20
 70
     1
102
RTVSPropertyOp21
 70
     1
102
RTVSPropertyOp22
 70
     1
102
RTVSPropertyOp23
 70
     1
102
RTVSPropertyOp24
 70
     1
102
RTVSPropertyOp25
 70
     1
102
RTVSPropertyOp26
 70
     1
102
RTVSPropertyOp27
 70
     1
102
RTVSPropertyOp28
 70
     1
102
RTVSPropertyOp29
 70
     1
102
RTVSPropertyOp30
 70
     1
102
RTVSPropertyOp31
 70
     1
102
RTVSPropertyOp32
 70
     1
  0
XRECORD
  5
23A
102
{ACAD_REACTORS
330
239
102
}
330
239
100
AcDbXrecord
280
     1
102
RTVSPropertyOp0
 70
     1
102
RTVSPropertyOp1
 70
     1
102
RTVSPropertyOp2
 70
     1
102
RTVSPropertyOp3
 70
     1
102
RTVSPropertyOp4
 70
     1
102
RTVSPropertyOp5
 70
     1
102
RTVSPropertyOp6
 70
     1
102
RTVSPropertyOp7
 70
     1
102
RTVSPropertyOp8
 70
     1
102
RTVSPropertyOp9
 70
     1
102
RTVSPropertyOp10
 70
     1
102
RTVSPropertyOp11
 70
     1
102
RTVSPropertyOp12
 70
     1
102
RTVSPropertyOp13
 70
     1
102
RTVSPropertyOp14
 70
     1
102
RTVSPropertyOp15
 70
     1
102
RTVSPropertyOp16
 70
     1
102
RTVSPropertyOp17
 70
     1
102
RTVSPropertyOp18
 70
     1
102
RTVSPropertyOp19
 70
     1
102
RTVSPropertyOp20
 70
     1
102
RTVSPropertyOp21
 70
     1
102
RTVSPropertyOp22
 70
     1
102
RTVSPropertyOp23
 70
     1
102
RTVSPropertyOp24
 70
     1
102
RTVSPropertyOp25
 70
     1
102
RTVSPropertyOp26
 70
     1
102
RTVSPropertyOp27
 70
     1
102
RTVSPropertyOp28
 70
     1
102
RTVSPropertyOp29
 70
     1
102
RTVSPropertyOp30
 70
     1
102
RTVSPropertyOp31
 70
     1
102
RTVSPropertyOp32
 70
     1
  0
XRECORD
  5
24E
102
{ACAD_REACTORS
330
24D
102
}
330
24D
100
AcDbXrecord
280
     1
102
RTVSPropertyOp0
 70
     1
102
RTVSPropertyOp1
 70
     1
102
RTVSPropertyOp2
 70
     1
102
RTVSPropertyOp3
 70
     1
102
RTVSPropertyOp4
 70
     1
102
RTVSPropertyOp5
 70
     1
102
RTVSPropertyOp6
 70
     1
102
RTVSPropertyOp7
 70
     1
102
RTVSPropertyOp8
 70
     1
102
RTVSPropertyOp9
 70
     1
102
RTVSPropertyOp10
 70
     1
102
RTVSPropertyOp11
 70
     1
102
RTVSPropertyOp12
 70
     1
102
RTVSPropertyOp13
 70
     1
102
RTVSPropertyOp14
 70
     1
102
RTVSPropertyOp15
 70
     1
102
RTVSPropertyOp16
 70
     1
102
RTVSPropertyOp17
 70
     1
102
RTVSPropertyOp18
 70
     1
102
RTVSPropertyOp19
 70
     1
102
RTVSPropertyOp20
 70
     1
102
RTVSPropertyOp21
 70
     1
102
RTVSPropertyOp22
 70
     1
102
RTVSPropertyOp23
 70
     1
102
RTVSPropertyOp24
 70
     1
102
RTVSPropertyOp25
 70
     1
102
RTVSPropertyOp26
 70
     1
102
RTVSPropertyOp27
 70
     1
102
RTVSPropertyOp28
 70
     1
102
RTVSPropertyOp29
 70
     1
102
RTVSPropertyOp30
 70
     1
102
RTVSPropertyOp31
 70
     1
102
RTVSPropertyOp32
 70
     1
  0
XRECORD
  5
244
102
{ACAD_REACTORS
330
243
102
}
330
243
100
AcDbXrecord
280
     1
102
RTVSPropertyOp0
 70
     1
102
RTVSPropertyOp1
 70
     1
102
RTVSPropertyOp2
 70
     1
102
RTVSPropertyOp3
 70
     1
102
RTVSPropertyOp4
 70
     1
102
RTVSPropertyOp5
 70
     1
102
RTVSPropertyOp6
 70
     1
102
RTVSPropertyOp7
 70
     1
102
RTVSPropertyOp8
 70
     1
102
RTVSPropertyOp9
 70
     1
102
RTVSPropertyOp10
 70
     1
102
RTVSPropertyOp11
 70
     1
102
RTVSPropertyOp12
 70
     1
102
RTVSPropertyOp13
 70
     1
102
RTVSPropertyOp14
 70
     1
102
RTVSPropertyOp15
 70
     1
102
RTVSPropertyOp16
 70
     1
102
RTVSPropertyOp17
 70
     1
102
RTVSPropertyOp18
 70
     1
102
RTVSPropertyOp19
 70
     1
102
RTVSPropertyOp20
 70
     1
102
RTVSPropertyOp21
 70
     1
102
RTVSPropertyOp22
 70
     1
102
RTVSPropertyOp23
 70
     1
102
RTVSPropertyOp24
 70
     1
102
RTVSPropertyOp25
 70
     1
102
RTVSPropertyOp26
 70
     1
102
RTVSPropertyOp27
 70
     1
102
RTVSPropertyOp28
 70
     1
102
RTVSPropertyOp29
 70
     1
102
RTVSPropertyOp30
 70
     1
102
RTVSPropertyOp31
 70
     1
102
RTVSPropertyOp32
 70
     1
  0
XRECORD
  5
24C
102
{ACAD_REACTORS
330
24B
102
}
330
24B
100
AcDbXrecord
280
     1
102
RTVSPropertyOp0
 70
     1
102
RTVSPropertyOp1
 70
     1
102
RTVSPropertyOp2
 70
     1
102
RTVSPropertyOp3
 70
     1
102
RTVSPropertyOp4
 70
     1
102
RTVSPropertyOp5
 70
     1
102
RTVSPropertyOp6
 70
     1
102
RTVSPropertyOp7
 70
     1
102
RTVSPropertyOp8
 70
     1
102
RTVSPropertyOp9
 70
     1
102
RTVSPropertyOp10
 70
     1
102
RTVSPropertyOp11
 70
     1
102
RTVSPropertyOp12
 70
     1
102
RTVSPropertyOp13
 70
     1
102
RTVSPropertyOp14
 70
     1
102
RTVSPropertyOp15
 70
     1
102
RTVSPropertyOp16
 70
     1
102
RTVSPropertyOp17
 70
     1
102
RTVSPropertyOp18
 70
     1
102
RTVSPropertyOp19
 70
     1
102
RTVSPropertyOp20
 70
     1
102
RTVSPropertyOp21
 70
     1
102
RTVSPropertyOp22
 70
     1
102
RTVSPropertyOp23
 70
     1
102
RTVSPropertyOp24
 70
     1
102
RTVSPropertyOp25
 70
     1
102
RTVSPropertyOp26
 70
     1
102
RTVSPropertyOp27
 70
     1
102
RTVSPropertyOp28
 70
     1
102
RTVSPropertyOp29
 70
     1
102
RTVSPropertyOp30
 70
     1
102
RTVSPropertyOp31
 70
     1
102
RTVSPropertyOp32
 70
     1
  0
ENDSEC
  0
EOF
