  0
SECTION
  2
HEADER
  9
$ACADVER
  1
AC1015
  9
$ACADMAINTVER
 70
     6
  9
$DWGCODEPAGE
  3
ANSI_932
  9
$INSBASE
 10
0.0
 20
0.0
 30
0.0
  9
$EXTMIN
 10
0.0
 20
0.0
 30
0.0
  9
$EXTMAX
 10
210.0
 20
297.0
 30
0.0
  9
$LIMMIN
 10
0.0
 20
0.0
  9
$LIMMAX
 10
12.0
 20
9.0
  9
$ORTHOMODE
 70
     0
  9
$REGENMODE
 70
     1
  9
$FILLMODE
 70
     1
  9
$QTEXTMODE
 70
     0
  9
$MIRRTEXT
 70
     1
  9
$LTSCALE
 40
1.0
  9
$ATTMODE
 70
     1
  9
$TEXTSIZE
 40
0.2
  9
$TRACEWID
 40
0.05
  9
$TEXTSTYLE
  7
Standard
  9
$CLAYER
  8
0
  9
$CELTYPE
  6
ByLayer
  9
$CECOLOR
 62
   256
  9
$CELTSCALE
 40
1.0
  9
$DISPSILH
 70
     0
  9
$DIMSCALE
 40
1.0
  9
$DIMASZ
 40
0.18
  9
$DIMEXO
 40
0.0625
  9
$DIMDLI
 40
0.38
  9
$DIMRND
 40
0.0
  9
$DIMDLE
 40
0.0
  9
$DIMEXE
 40
0.18
  9
$DIMTP
 40
0.0
  9
$DIMTM
 40
0.0
  9
$DIMTXT
 40
0.18
  9
$DIMCEN
 40
0.09
  9
$DIMTSZ
 40
0.0
  9
$DIMTOL
 70
     0
  9
$DIMLIM
 70
     0
  9
$DIMTIH
 70
     1
  9
$DIMTOH
 70
     1
  9
$DIMSE1
 70
     0
  9
$DIMSE2
 70
     0
  9
$DIMTAD
 70
     0
  9
$DIMZIN
 70
     0
  9
$DIMBLK
  1

  9
$DIMASO
 70
     1
  9
$DIMSHO
 70
     1
  9
$DIMPOST
  1

  9
$DIMAPOST
  1

  9
$DIMALT
 70
     0
  9
$DIMALTD
 70
     2
  9
$DIMALTF
 40
25.4
  9
$DIMLFAC
 40
1.0
  9
$DIMTOFL
 70
     0
  9
$DIMTVP
 40
0.0
  9
$DIMTIX
 70
     0
  9
$DIMSOXD
 70
     0
  9
$DIMSAH
 70
     0
  9
$DIMBLK1
  1

  9
$DIMBLK2
  1

  9
$DIMSTYLE
  2
Standard
  9
$DIMCLRD
 70
     0
  9
$DIMCLRE
 70
     0
  9
$DIMCLRT
 70
     0
  9
$DIMTFAC
 40
1.0
  9
$DIMGAP
 40
0.09
  9
$DIMJUST
 70
     0
  9
$DIMSD1
 70
     0
  9
$DIMSD2
 70
     0
  9
$DIMTOLJ
 70
     1
  9
$DIMTZIN
 70
     0
  9
$DIMALTZ
 70
     0
  9
$DIMALTTZ
 70
     0
  9
$DIMUPT
 70
     0
  9
$DIMDEC
 70
     4
  9
$DIMTDEC
 70
     4
  9
$DIMALTU
 70
     2
  9
$DIMALTTD
 70
     2
  9
$DIMTXSTY
  7
Standard
  9
$DIMAUNIT
 70
     0
  9
$DIMADEC
 70
     0
  9
$DIMALTRND
 40
0.0
  9
$DIMAZIN
 70
     0
  9
$DIMDSEP
 70
    46
  9
$DIMATFIT
 70
     3
  9
$DIMFRAC
 70
     0
  9
$DIMLDRBLK
  1

  9
$DIMLUNIT
 70
     2
  9
$DIMLWD
 70
    -2
  9
$DIMLWE
 70
    -2
  9
$DIMTMOVE
 70
     0
  9
$LUNITS
 70
     2
  9
$LUPREC
 70
     4
  9
$SKETCHINC
 40
0.1
  9
$FILLETRAD
 40
0.5
  9
$AUNITS
 70
     0
  9
$AUPREC
 70
     0
  9
$MENU
  1
.
  9
$ELEVATION
 40
0.0
  9
$PELEVATION
 40
0.0
  9
$THICKNESS
 40
0.0
  9
$LIMCHECK
 70
     0
  9
$CHAMFERA
 40
0.5
  9
$CHAMFERB
 40
0.5
  9
$CHAMFERC
 40
1.0
  9
$CHAMFERD
 40
0.0
  9
$SKPOLY
 70
     0
  9
$TDCREATE
 40
2456673.472237824
  9
$TDUCREATE
 40
2456673.097237824
  9
$TDUPDATE
 40
2456673.472238912
  9
$TDUUPDATE
 40
2456673.097238912
  9
$TDINDWG
 40
0.0000000116
  9
$TDUSRTIMER
 40
0.0000000116
  9
$USRTIMER
 70
     1
  9
$ANGBASE
 50
0.0
  9
$ANGDIR
 70
     0
  9
$PDMODE
 70
     0
  9
$PDSIZE
 40
0.0
  9
$PLINEWID
 40
0.0
  9
$SPLFRAME
 70
     0
  9
$SPLINETYPE
 70
     6
  9
$SPLINESEGS
 70
     8
  9
$HANDSEED
  5
3DD
  9
$SURFTAB1
 70
     6
  9
$SURFTAB2
 70
     6
  9
$SURFTYPE
 70
     6
  9
$SURFU
 70
     6
  9
$SURFV
 70
     6
  9
$UCSBASE
  2

  9
$UCSNAME
  2

  9
$UCSORG
 10
0.0
 20
0.0
 30
0.0
  9
$UCSXDIR
 10
1.0
 20
0.0
 30
0.0
  9
$UCSYDIR
 10
0.0
 20
1.0
 30
0.0
  9
$UCSORTHOREF
  2

  9
$UCSORTHOVIEW
 70
     0
  9
$UCSORGTOP
 10
0.0
 20
0.0
 30
0.0
  9
$UCSORGBOTTOM
 10
0.0
 20
0.0
 30
0.0
  9
$UCSORGLEFT
 10
0.0
 20
0.0
 30
0.0
  9
$UCSORGRIGHT
 10
0.0
 20
0.0
 30
0.0
  9
$UCSORGFRONT
 10
0.0
 20
0.0
 30
0.0
  9
$UCSORGBACK
 10
0.0
 20
0.0
 30
0.0
  9
$PUCSBASE
  2

  9
$PUCSNAME
  2

  9
$PUCSORG
 10
0.0
 20
0.0
 30
0.0
  9
$PUCSXDIR
 10
1.0
 20
0.0
 30
0.0
  9
$PUCSYDIR
 10
0.0
 20
1.0
 30
0.0
  9
$PUCSORTHOREF
  2

  9
$PUCSORTHOVIEW
 70
     0
  9
$PUCSORGTOP
 10
0.0
 20
0.0
 30
0.0
  9
$PUCSORGBOTTOM
 10
0.0
 20
0.0
 30
0.0
  9
$PUCSORGLEFT
 10
0.0
 20
0.0
 30
0.0
  9
$PUCSORGRIGHT
 10
0.0
 20
0.0
 30
0.0
  9
$PUCSORGFRONT
 10
0.0
 20
0.0
 30
0.0
  9
$PUCSORGBACK
 10
0.0
 20
0.0
 30
0.0
  9
$USERI1
 70
     0
  9
$USERI2
 70
     0
  9
$USERI3
 70
     0
  9
$USERI4
 70
     0
  9
$USERI5
 70
     0
  9
$USERR1
 40
18.1
  9
$USERR2
 40
0.0
  9
$USERR3
 40
0.0
  9
$USERR4
 40
0.0
  9
$USERR5
 40
0.0
  9
$WORLDVIEW
 70
     1
  9
$SHADEDGE
 70
     3
  9
$SHADEDIF
 70
    70
  9
$TILEMODE
 70
     1
  9
$MAXACTVP
 70
    64
  9
$PINSBASE
 10
0.0
 20
0.0
 30
0.0
  9
$PLIMCHECK
 70
     0
  9
$PEXTMIN
 10
1.00000000000000E+20
 20
1.00000000000000E+20
 30
1.00000000000000E+20
  9
$PEXTMAX
 10
-1.00000000000000E+20
 20
-1.00000000000000E+20
 30
-1.00000000000000E+20
  9
$PLIMMIN
 10
0.0
 20
0.0
  9
$PLIMMAX
 10
12.0
 20
9.0
  9
$UNITMODE
 70
     0
  9
$VISRETAIN
 70
     1
  9
$PLINEGEN
 70
     0
  9
$PSLTSCALE
 70
     1
  9
$TREEDEPTH
 70
  3020
  9
$CMLSTYLE
  2
Standard
  9
$CMLJUST
 70
     0
  9
$CMLSCALE
 40
1.0
  9
$PROXYGRAPHICS
 70
     1
  9
$MEASUREMENT
 70
     1
  9
$CELWEIGHT
370
    -1
  9
$ENDCAPS
280
     0
  9
$JOINSTYLE
280
     0
  9
$LWDISPLAY
290
     0
  9
$INSUNITS
 70
     4
  9
$HYPERLINKBASE
  1

  9
$STYLESHEET
  1

  9
$XEDIT
290
     1
  9
$CEPSNTYPE
380
     0
  9
$PSTYLEMODE
290
     1
  9
$FINGERPRINTGUID
  2
{664E6122-F078-4214-B4A9-BD79972C03DD}
  9
$VERSIONGUID
  2
{FAEB1C32-E019-11D5-929B-00C0DF256EC4}
  9
$EXTNAMES
290
     1
  9
$PSVPSCALE
 40
0.0
  9
$OLESTARTUP
290
     0
  0
ENDSEC
  0
SECTION
  2
CLASSES
  0
CLASS
  1
ACDBDICTIONARYWDFLT
  2
AcDbDictionaryWithDefault
  3
ObjectDBX Classes
 90
        0
280
     0
281
     0
  0
CLASS
  1
VISUALSTYLE
  2
AcDbVisualStyle
  3
ObjectDBX Classes
 90
     4095
280
     0
281
     0
  0
CLASS
  1
MATERIAL
  2
AcDbMaterial
  3
ObjectDBX Classes
 90
     1153
280
     0
281
     0
  0
CLASS
  1
DICTIONARYVAR
  2
AcDbDictionaryVar
  3
ObjectDBX Classes
 90
        0
280
     0
281
     0
  0
CLASS
  1
ACDBPLACEHOLDER
  2
AcDbPlaceHolder
  3
ObjectDBX Classes
 90
        0
280
     0
281
     0
  0
CLASS
  1
LAYOUT
  2
AcDbLayout
  3
ObjectDBX Classes
 90
        0
280
     0
281
     0
  0
ENDSEC
  0
SECTION
  2
TABLES
  0
TABLE
  2
VPORT
  5
8
330
0
100
AcDbSymbolTable
 70
     1
  0
VPORT
  5
29
330
8
100
AcDbSymbolTableRecord
100
AcDbViewportTableRecord
  2
*Active
 70
     0
 10
0.0
 20
0.0
 11
1.0
 21
1.0
 12
105.0
 22
148.5
 13
0.0
 23
0.0
 14
0.5
 24
0.5
 15
0.5
 25
0.5
 16
0.0
 26
0.0
 36
1.0
 17
0.0
 27
0.0
 37
0.0
 40
326.7
 41
1.60267857142857
 42
50.0
 43
0.0
 44
0.0
 50
0.0
 51
0.0
 71
     0
 72
   100
 73
     1
 74
     3
 75
     0
 76
     0
 77
     0
 78
     0
281
     0
 65
     1
110
0.0
120
0.0
130
0.0
111
1.0
121
0.0
131
0.0
112
0.0
122
1.0
132
0.0
 79
     0
146
0.0
  0
ENDTAB
  0
TABLE
  2
LTYPE
  5
5
330
0
100
AcDbSymbolTable
 70
     8
  0
LTYPE
  5
14
330
5
100
AcDbSymbolTableRecord
100
AcDbLinetypeTableRecord
  2
ByBlock
 70
     0
  3

 72
    65
 73
     0
 40
0.0
  0
LTYPE
  5
15
330
5
100
AcDbSymbolTableRecord
100
AcDbLinetypeTableRecord
  2
ByLayer
 70
     0
  3

 72
    65
 73
     0
 40
0.0
  0
LTYPE
  5
16
330
5
100
AcDbSymbolTableRecord
100
AcDbLinetypeTableRecord
  2
Continuous
 70
     0
  3
Solid line
 72
    65
 73
     0
 40
0.0
  0
LTYPE
  5
3F
330
5
100
AcDbSymbolTableRecord
100
AcDbLinetypeTableRecord
  2
DASHED
 70
     0
  3
Dashed
 72
    65
 73
     2
 40
15.0
 49
7.0
 74
     0
 49
-8.0
 74
     0
  0
LTYPE
  5
40
330
5
100
AcDbSymbolTableRecord
100
AcDbLinetypeTableRecord
  2
DOTTED
 70
     0
  3
Dotted
 72
    65
 73
     2
 40
1.0
 49
0.0
 74
     0
 49
-1.0
 74
     0
  0
LTYPE
  5
41
330
5
100
AcDbSymbolTableRecord
100
AcDbLinetypeTableRecord
  2
DOT_CENTER
 70
     0
  3
Dot_Center
 72
    65
 73
     4
 40
14.0
 49
12.0
 74
     0
 49
-1.0
 74
     0
 49
0.0
 74
     0
 49
-1.0
 74
     0
  0
LTYPE
  5
42
330
5
100
AcDbSymbolTableRecord
100
AcDbLinetypeTableRecord
  2
LONG_DASHED
 70
     0
  3
Long_Dashed
 72
    65
 73
     2
 40
15.0
 49
10.0
 74
     0
 49
-5.0
 74
     0
  0
LTYPE
  5
43
330
5
100
AcDbSymbolTableRecord
100
AcDbLinetypeTableRecord
  2
DASH_CENTER
 70
     0
  3
Dash_Center
 72
    65
 73
     4
 40
14.0
 49
11.0
 74
     0
 49
-1.0
 74
     0
 49
1.0
 74
     0
 49
-1.0
 74
     0
  0
LTYPE
  5
44
330
5
100
AcDbSymbolTableRecord
100
AcDbLinetypeTableRecord
  2
PHANTOM
 70
     0
  3
Phantom
 72
    65
 73
     6
 40
13.0
 49
10.0
 74
     0
 49
-1.0
 74
     0
 49
0.0
 74
     0
 49
-1.0
 74
     0
 49
0.0
 74
     0
 49
-1.0
 74
     0
  0
LTYPE
  5
45
330
5
100
AcDbSymbolTableRecord
100
AcDbLinetypeTableRecord
  2
CENTER_DASH_DASH
 70
     0
  3
Center_Dash_Dash
 72
    65
 73
     6
 40
14.0
 49
9.0
 74
     0
 49
-1.0
 74
     0
 49
1.0
 74
     0
 49
-1.0
 74
     0
 49
1.0
 74
     0
 49
-1.0
 74
     0
  0
ENDTAB
  0
TABLE
  2
LAYER
  5
2
330
0
100
AcDbSymbolTable
 70
     2
  0
LAYER
  5
10
330
2
100
AcDbSymbolTableRecord
100
AcDbLayerTableRecord
  2
0
 70
     0
 62
     7
  6
Continuous
370
    -3
390
F
  0
LAYER
  5
46
330
2
100
AcDbSymbolTableRecord
100
AcDbLayerTableRecord
  2
1
 70
     0
 62
     7
  6
Continuous
370
    -3
390
F
  0
ENDTAB
  0
TABLE
  2
STYLE
  5
3
330
0
100
AcDbSymbolTable
 70
     3
  0
STYLE
  5
11
330
3
100
AcDbSymbolTableRecord
100
AcDbTextStyleTableRecord
  2
Standard
 70
     0
 40
0.0
 41
1.0
 50
0.0
 71
     0
 42
0.2
  3
txt
  4

  0
STYLE
  5
332
330
3
100
AcDbSymbolTableRecord
100
AcDbTextStyleTableRecord
  2
CONVERTER_11
 70
     0
 40
0.0
 41
0.89
 50
0.0
 71
     0
 42
0.2
  3
MS Mincho.ttf
  4

1001
ACAD
1000
MS Mincho
1071
    32785
  0
STYLE
  5
374
330
3
100
AcDbSymbolTableRecord
100
AcDbTextStyleTableRecord
  2
CONVERTER_12
 70
     0
 40
0.0
 41
0.9
 50
0.0
 71
     0
 42
0.2
  3
txt.shx
  4

  0
ENDTAB
  0
TABLE
  2
VIEW
  5
6
330
0
100
AcDbSymbolTable
 70
     0
  0
ENDTAB
  0
TABLE
  2
UCS
  5
7
330
0
100
AcDbSymbolTable
 70
     0
  0
ENDTAB
  0
TABLE
  2
APPID
  5
9
330
0
100
AcDbSymbolTable
 70
     1
  0
APPID
  5
12
330
9
100
AcDbSymbolTableRecord
100
AcDbRegAppTableRecord
  2
ACAD
 70
     0
  0
ENDTAB
  0
TABLE
  2
DIMSTYLE
  5
A
330
0
100
AcDbSymbolTable
 70
     6
100
AcDbDimStyleTable
  0
DIMSTYLE
105
27
330
A
100
AcDbSymbolTableRecord
100
AcDbDimStyleTableRecord
  2
Standard
 70
     0
178
     0
340
11
  0
DIMSTYLE
105
384
102
{ACAD_REACTORS
330
385
102
}
330
A
100
AcDbSymbolTableRecord
100
AcDbDimStyleTableRecord
  2
ME10_DIM_10
 70
     0
 41
3.5
 42
0.0
 44
1.0
 73
     0
 74
     0
 77
     1
 78
     8
140
3.5
147
1.0
172
     1
173
     1
174
     1
175
     1
176
     2
177
     2
271
     2
178
     7
271
     2
340
374
  0
DIMSTYLE
105
38F
102
{ACAD_REACTORS
330
390
102
}
330
A
100
AcDbSymbolTableRecord
100
AcDbDimStyleTableRecord
  2
ME10_DIM_11
 70
     0
 41
3.5
 42
0.0
 44
1.0
 73
     0
 74
     0
 77
     1
 78
     8
140
3.5
147
1.0
172
     1
173
     1
174
     1
175
     1
176
     2
177
     2
271
     2
178
     7
271
     2
340
374
  0
DIMSTYLE
105
39A
102
{ACAD_REACTORS
330
39B
102
}
330
A
100
AcDbSymbolTableRecord
100
AcDbDimStyleTableRecord
  2
ME10_DIM_12
 70
     0
 41
3.5
 42
0.0
 44
1.0
 73
     0
 74
     0
 77
     1
 78
     8
140
3.5
147
1.0
172
     1
173
     1
174
     1
175
     1
176
     2
177
     2
271
     2
178
     7
271
     2
340
374
  0
DIMSTYLE
105
3A5
102
{ACAD_REACTORS
330
3A6
102
}
330
A
100
AcDbSymbolTableRecord
100
AcDbDimStyleTableRecord
  2
ME10_DIM_13
 70
     0
 41
3.5
 42
0.0
 44
1.0
 73
     0
 74
     0
 77
     1
 78
     8
140
3.5
147
1.0
172
     1
173
     1
174
     1
175
     1
176
     2
177
     2
271
     2
178
     7
271
     2
340
332
  0
DIMSTYLE
105
3B0
102
{ACAD_REACTORS
330
3B1
102
}
330
A
100
AcDbSymbolTableRecord
100
AcDbDimStyleTableRecord
  2
ME10_DIM_14
 70
     0
 41
3.5
 42
0.0
 44
1.0
 73
     0
 74
     0
 77
     1
 78
     8
140
3.5
147
1.0
172
     1
173
     1
174
     1
175
     1
176
     2
177
     2
271
     2
178
     7
271
     2
340
374
  0
ENDTAB
  0
TABLE
  2
BLOCK_RECORD
  5
1
330
0
100
AcDbSymbolTable
 70
    18
  0
BLOCK_RECORD
  5
1F
330
1
100
AcDbSymbolTableRecord
100
AcDbBlockTableRecord
  2
*Model_Space
340
22
  0
BLOCK_RECORD
  5
1B
330
1
100
AcDbSymbolTableRecord
100
AcDbBlockTableRecord
  2
*Paper_Space
340
1E
  0
BLOCK_RECORD
  5
23
330
1
100
AcDbSymbolTableRecord
100
AcDbBlockTableRecord
  2
*Paper_Space0
340
26
  0
BLOCK_RECORD
  5
47
330
1
100
AcDbSymbolTableRecord
100
AcDbBlockTableRecord
  2
37-32-13__1
340
0
102
{BLKREFS
331
6B
102
}
  0
BLOCK_RECORD
  5
4A
330
1
100
AcDbSymbolTableRecord
100
AcDbBlockTableRecord
  2
21-2
340
0
102
{BLKREFS
331
6C
102
}
  0
BLOCK_RECORD
  5
4D
330
1
100
AcDbSymbolTableRecord
100
AcDbBlockTableRecord
  2
72-1
340
0
102
{BLKREFS
331
6D
102
}
  0
BLOCK_RECORD
  5
50
330
1
100
AcDbSymbolTableRecord
100
AcDbBlockTableRecord
  2
36-39-13
340
0
102
{BLKREFS
331
6E
102
}
  0
BLOCK_RECORD
  5
53
330
1
100
AcDbSymbolTableRecord
100
AcDbBlockTableRecord
  2
32-48-13
340
0
102
{BLKREFS
331
6F
102
}
  0
BLOCK_RECORD
  5
56
330
1
100
AcDbSymbolTableRecord
100
AcDbBlockTableRecord
  2
37-32-13__2
340
0
102
{BLKREFS
331
70
102
}
  0
BLOCK_RECORD
  5
59
330
1
100
AcDbSymbolTableRecord
100
AcDbBlockTableRecord
  2
31-26-13
340
0
102
{BLKREFS
331
71
102
}
  0
BLOCK_RECORD
  5
5C
330
1
100
AcDbSymbolTableRecord
100
AcDbBlockTableRecord
  2
73-4
340
0
102
{BLKREFS
331
72
102
}
  0
BLOCK_RECORD
  5
5F
330
1
100
AcDbSymbolTableRecord
100
AcDbBlockTableRecord
  2
V30-0-13
340
0
102
{BLKREFS
331
73
102
}
  0
BLOCK_RECORD
  5
62
330
1
100
AcDbSymbolTableRecord
100
AcDbBlockTableRecord
  2
88-15
340
0
102
{BLKREFS
331
74
102
}
  0
BLOCK_RECORD
  5
65
330
1
100
AcDbSymbolTableRecord
100
AcDbBlockTableRecord
  2
開示A4
340
0
102
{BLKREFS
331
75
102
}
  0
BLOCK_RECORD
  5
68
330
1
100
AcDbSymbolTableRecord
100
AcDbBlockTableRecord
  2
91-24K
340
0
102
{BLKREFS
331
76
102
}
  0
BLOCK_RECORD
  5
37B
330
1
100
AcDbSymbolTableRecord
100
AcDbBlockTableRecord
  2
*D13
340
0
  0
BLOCK_RECORD
  5
386
330
1
100
AcDbSymbolTableRecord
100
AcDbBlockTableRecord
  2
*D14
340
0
  0
BLOCK_RECORD
  5
391
330
1
100
AcDbSymbolTableRecord
100
AcDbBlockTableRecord
  2
*D15
340
0
  0
BLOCK_RECORD
  5
39C
330
1
100
AcDbSymbolTableRecord
100
AcDbBlockTableRecord
  2
*D16
340
0
  0
BLOCK_RECORD
  5
3A7
330
1
100
AcDbSymbolTableRecord
100
AcDbBlockTableRecord
  2
*D17
340
0
  0
ENDTAB
  0
ENDSEC
  0
SECTION
  2
BLOCKS
  0
BLOCK
  5
20
330
1F
100
AcDbEntity
  8
0
100
AcDbBlockBegin
  2
*Model_Space
 70
     0
 10
0.0
 20
0.0
 30
0.0
  3
*Model_Space
  1

  0
ENDBLK
  5
21
330
1F
100
AcDbEntity
  8
0
100
AcDbBlockEnd
  0
BLOCK
  5
1C
330
1B
100
AcDbEntity
 67
     1
  8
0
100
AcDbBlockBegin
  2
*Paper_Space
 70
     0
 10
0.0
 20
0.0
 30
0.0
  3
*Paper_Space
  1

  0
ENDBLK
  5
1D
330
1B
100
AcDbEntity
 67
     1
  8
0
100
AcDbBlockEnd
  0
BLOCK
  5
24
330
23
100
AcDbEntity
  8
0
100
AcDbBlockBegin
  2
*Paper_Space0
 70
     0
 10
0.0
 20
0.0
 30
0.0
  3
*Paper_Space0
  1

  0
ENDBLK
  5
25
330
23
100
AcDbEntity
  8
0
100
AcDbBlockEnd
  0
BLOCK
  5
48
330
47
100
AcDbEntity
  8
0
100
AcDbBlockBegin
  2
37-32-13__1
 70
     0
 10
429.6643273320476
 20
37.168794404381
 30
0.0
  3
37-32-13__1
  1

  0
LINE
  5
77
330
47
100
AcDbEntity
  8
1
  6
Continuous
 62
     7
100
AcDbLine
 10
150.8125508837339
 20
113.9150646516489
 30
0.0
 11
161.8125508837339
 21
113.9150646516489
 31
0.0
  0
LINE
  5
78
330
47
100
AcDbEntity
  8
0
  6
Continuous
 62
     7
100
AcDbLine
 10
138.8125508837375
 20
118.9150646516498
 30
0.0
 11
138.8125508837375
 21
118.9150646516486
 31
0.0
  0
LINE
  5
79
330
47
100
AcDbEntity
  8
0
  6
Continuous
 62
     7
100
AcDbLine
 10
138.8125508837375
 20
118.9150646516486
 30
0.0
 11
138.8125508837375
 21
118.9150646516498
 31
0.0
  0
LINE
  5
7A
330
47
100
AcDbEntity
  8
0
  6
Continuous
 62
     7
100
AcDbLine
 10
146.01671936041
 20
118.9150646516486
 30
0.0
 11
146.0167193604248
 21
118.915064651649
 31
0.0
  0
LINE
  5
7B
330
47
100
AcDbEntity
  8
0
  6
Continuous
 62
     7
100
AcDbLine
 10
146.01671936041
 20
118.9150646516486
 30
0.0
 11
146.0167193604248
 21
118.915064651649
 31
0.0
  0
LINE
  5
7C
330
47
100
AcDbEntity
  8
0
  6
Continuous
 62
     7
100
AcDbLine
 10
138.8125508837375
 20
118.9150646516486
 30
0.0
 11
138.8125508837375
 21
118.9150646516498
 31
0.0
  0
LINE
  5
7D
330
47
100
AcDbEntity
  8
0
  6
Continuous
 62
     2
100
AcDbLine
 10
138.8125508837375
 20
118.9150646516486
 30
0.0
 11
138.8125508837375
 21
118.9150646516498
 31
0.0
  0
LINE
  5
7E
330
47
100
AcDbEntity
  8
0
  6
Continuous
 62
     7
100
AcDbLine
 10
138.8125508837375
 20
118.9150646516486
 30
0.0
 11
138.8125508837375
 21
118.9150646516498
 31
0.0
  0
LINE
  5
7F
330
47
100
AcDbEntity
  8
0
  6
Continuous
 62
     7
100
AcDbLine
 10
138.8125508837375
 20
118.9150646516486
 30
0.0
 11
138.8125508837375
 21
118.9150646516498
 31
0.0
  0
LINE
  5
80
330
47
100
AcDbEntity
  8
0
  6
Continuous
 62
     7
100
AcDbLine
 10
138.8125508837375
 20
118.9150646516498
 30
0.0
 11
138.8125508837375
 21
118.9150646516486
 31
0.0
  0
LINE
  5
81
330
47
100
AcDbEntity
  8
0
  6
Continuous
 62
     7
100
AcDbLine
 10
138.8125508837375
 20
118.9150646516498
 30
0.0
 11
138.8125508837375
 21
118.9150646516486
 31
0.0
  0
LINE
  5
82
330
47
100
AcDbEntity
  8
0
  6
Continuous
 62
     7
100
AcDbLine
 10
138.8125508837375
 20
118.9150646516498
 30
0.0
 11
138.8125508837375
 21
118.9150646516486
 31
0.0
  0
LINE
  5
83
330
47
100
AcDbEntity
  8
0
  6
Continuous
 62
     7
100
AcDbLine
 10
143.6841872037586
 20
118.9150646516489
 30
0.0
 11
143.6841872037651
 21
118.9150646516489
 31
0.0
  0
LINE
  5
84
330
47
100
AcDbEntity
  8
0
  6
Continuous
 62
     7
100
AcDbLine
 10
143.6841872037651
 20
118.9150646516489
 30
0.0
 11
143.6841872037586
 21
118.9150646516489
 31
0.0
  0
LINE
  5
85
330
47
100
AcDbEntity
  8
0
  6
Continuous
 62
     7
100
AcDbLine
 10
159.3125508837375
 20
113.9150646516489
 30
0.0
 11
161.8125508837376
 21
113.9150646516489
 31
0.0
  0
ENDBLK
  5
49
330
47
100
AcDbEntity
  8
0
100
AcDbBlockEnd
  0
BLOCK
  5
4B
330
4A
100
AcDbEntity
  8
0
100
AcDbBlockBegin
  2
21-2
 70
     0
 10
207.8125508837339
 20
103.9119942270019
 30
0.0
  3
21-2
  1

  0
LINE
  5
86
330
4A
100
AcDbEntity
  8
1
  6
DASHED
 62
     2
100
AcDbLine
 10
150.8125508837339
 20
226.5081883047146
 30
0.0
 11
155.4087449614465
 21
221.9119942270019
 31
0.0
  0
LINE
  5
87
330
4A
100
AcDbEntity
  8
1
  6
DASHED
 62
     2
100
AcDbLine
 10
155.4087449614465
 20
221.9119942270019
 30
0.0
 11
150.8125508837339
 21
217.3158001492895
 31
0.0
  0
LINE
  5
88
330
4A
100
AcDbEntity
  8
1
  6
DASHED
 62
     2
100
AcDbLine
 10
150.8125508837339
 20
217.3158001492895
 30
0.0
 11
146.2163568060214
 21
221.9119942270019
 31
0.0
  0
LINE
  5
89
330
4A
100
AcDbEntity
  8
1
  6
DASHED
 62
     2
100
AcDbLine
 10
146.2163568060214
 20
221.9119942270019
 30
0.0
 11
150.8125508837339
 21
226.5081883047146
 31
0.0
  0
LINE
  5
8A
330
4A
100
AcDbEntity
  8
1
  6
Continuous
 62
     7
100
AcDbLine
 10
158.3125508837339
 20
218.9119942270019
 30
0.0
 11
161.0595016496935
 21
218.9119942270019
 31
0.0
  0
LINE
  5
8B
330
4A
100
AcDbEntity
  8
1
  6
Continuous
 62
     7
100
AcDbLine
 10
158.3125508837339
 20
224.9119942270019
 30
0.0
 11
161.0595016496935
 21
224.9119942270019
 31
0.0
  0
LINE
  5
8C
330
4A
100
AcDbEntity
  8
1
  6
Continuous
 62
     7
100
AcDbLine
 10
149.6606270950873
 20
229.9071847553852
 30
0.0
 11
148.2871517121075
 21
232.2861139016513
 31
0.0
  0
LINE
  5
8D
330
4A
100
AcDbEntity
  8
1
  6
Continuous
 62
     7
100
AcDbLine
 10
144.4644746723806
 20
226.9071847553852
 30
0.0
 11
143.0909992894008
 21
229.2861139016515
 31
0.0
  0
LINE
  5
8E
330
4A
100
AcDbEntity
  8
1
  6
Continuous
 62
     7
100
AcDbLine
 10
144.4644746723806
 20
216.9168036986186
 30
0.0
 11
143.0909992894008
 21
214.5378745523526
 31
0.0
  0
LINE
  5
8F
330
4A
100
AcDbEntity
  8
1
  6
Continuous
 62
     7
100
AcDbLine
 10
149.6606270950873
 20
213.9168036986186
 30
0.0
 11
148.2871517121075
 21
211.5378745523526
 31
0.0
  0
LINE
  5
90
330
4A
100
AcDbEntity
  8
1
  6
Continuous
 62
     7
100
AcDbLine
 10
148.3125508837339
 20
245.7282476515124
 30
0.0
 11
148.3125508837339
 21
245.2897589020362
 31
0.0
  0
LINE
  5
91
330
4A
100
AcDbEntity
  8
1
  6
Continuous
 62
     7
100
AcDbLine
 10
174.6288043082444
 20
224.4119942270019
 30
0.0
 11
174.1903155587681
 21
224.4119942270019
 31
0.0
  0
LINE
  5
92
330
4A
100
AcDbEntity
  8
1
  6
Continuous
 62
     7
100
AcDbLine
 10
148.3125508837339
 20
198.0957408024914
 30
0.0
 11
148.3125508837339
 21
198.5342295519678
 31
0.0
  0
LINE
  5
93
330
4A
100
AcDbEntity
  8
1
  6
Continuous
 62
     7
100
AcDbLine
 10
137.037573569778
 20
224.4119942270019
 30
0.0
 11
126.9962974592234
 21
224.4119942270019
 31
0.0
  0
LINE
  5
94
330
4A
100
AcDbEntity
  8
1
  6
Continuous
 62
     7
100
AcDbLine
 10
139.3044040613785
 20
229.8846071434247
 30
0.0
 11
132.2041496318388
 21
236.9848615729642
 31
0.0
  0
LINE
  5
95
330
4A
100
AcDbEntity
  8
1
  6
Continuous
 62
     7
100
AcDbLine
 10
135.7396835377716
 20
240.5203954788971
 30
0.0
 11
136.0497419060003
 21
240.2103371106684
 31
0.0
  0
LINE
  5
96
330
4A
100
AcDbEntity
  8
1
  6
Continuous
 62
     7
100
AcDbLine
 10
165.8854182296963
 20
240.5203954788971
 30
0.0
 11
165.5753598614676
 21
240.2103371106684
 31
0.0
  0
LINE
  5
97
330
4A
100
AcDbEntity
  8
1
  6
Continuous
 62
     7
100
AcDbLine
 10
153.3125508837339
 20
245.7282476515124
 30
0.0
 11
153.3125508837339
 21
245.2897589020362
 31
0.0
  0
LINE
  5
98
330
4A
100
AcDbEntity
  8
1
  6
Continuous
 62
     7
100
AcDbLine
 10
169.420952135629
 20
236.9848615729642
 30
0.0
 11
169.1108937674003
 21
236.6748032047355
 31
0.0
  0
LINE
  5
99
330
4A
100
AcDbEntity
  8
1
  6
Continuous
 62
     7
100
AcDbLine
 10
169.420952135629
 20
206.8391268810396
 30
0.0
 11
169.1108937674003
 21
207.1491852492683
 31
0.0
  0
LINE
  5
9A
330
4A
100
AcDbEntity
  8
1
  6
Continuous
 62
     7
100
AcDbLine
 10
153.3125508837339
 20
198.0957408024914
 30
0.0
 11
153.3125508837339
 21
198.5342295519678
 31
0.0
  0
LINE
  5
9B
330
4A
100
AcDbEntity
  8
1
  6
Continuous
 62
     7
100
AcDbLine
 10
174.6288043082444
 20
219.4119942270019
 30
0.0
 11
174.1903155587681
 21
219.4119942270019
 31
0.0
  0
LINE
  5
9C
330
4A
100
AcDbEntity
  8
1
  6
Continuous
 62
     7
100
AcDbLine
 10
165.8854182296963
 20
203.3035929751069
 30
0.0
 11
165.5753598614676
 21
203.6136513433357
 31
0.0
  0
LINE
  5
9D
330
4A
100
AcDbEntity
  8
1
  6
Continuous
 62
     7
100
AcDbLine
 10
135.7396835377716
 20
203.3035929751069
 30
0.0
 11
136.0497419060003
 21
203.6136513433357
 31
0.0
  0
LINE
  5
9E
330
4A
100
AcDbEntity
  8
1
  6
Continuous
 62
     7
100
AcDbLine
 10
126.9962974592234
 20
219.4119942270019
 30
0.0
 11
127.4347862086997
 21
219.4119942270019
 31
0.0
  0
LINE
  5
9F
330
4A
100
AcDbEntity
  8
1
  6
Continuous
 62
     7
100
AcDbLine
 10
132.2041496318388
 20
206.8391268810396
 30
0.0
 11
132.5142080000675
 21
207.1491852492683
 31
0.0
  0
LINE
  5
A0
330
4A
100
AcDbEntity
  8
1
  6
Continuous
 62
     7
100
AcDbLine
 10
132.5142080000675
 20
207.1491852492683
 30
0.0
 11
139.3079511798923
 21
213.9429284290931
 31
0.0
  0
LINE
  5
A1
330
4A
100
AcDbEntity
  8
1
  6
Continuous
 62
     7
100
AcDbLine
 10
148.3125508837339
 20
198.5342295519678
 30
0.0
 11
148.3125508837339
 21
208.1420332961558
 31
0.0
  0
LINE
  5
A2
330
4A
100
AcDbEntity
  8
1
  6
Continuous
 62
     7
100
AcDbLine
 10
165.5753598614676
 20
203.6136513433357
 30
0.0
 11
158.7816166816427
 21
210.4073945231605
 31
0.0
  0
LINE
  5
A3
330
4A
100
AcDbEntity
  8
1
  6
Continuous
 62
     7
100
AcDbLine
 10
174.1903155587681
 20
219.4119942270019
 30
0.0
 11
164.5825118145801
 21
219.4119942270019
 31
0.0
  0
LINE
  5
A4
330
4A
100
AcDbEntity
  8
1
  6
Continuous
 62
     7
100
AcDbLine
 10
169.1108937674003
 20
236.6748032047355
 30
0.0
 11
162.3171505875755
 21
229.8810600249107
 31
0.0
  0
LINE
  5
A5
330
4A
100
AcDbEntity
  8
1
  6
Continuous
 62
     7
100
AcDbLine
 10
153.3125508837339
 20
245.2897589020362
 30
0.0
 11
153.3125508837339
 21
235.6819551578482
 31
0.0
  0
LINE
  5
A6
330
4A
100
AcDbEntity
  8
1
  6
Continuous
 62
     7
100
AcDbLine
 10
136.0497419060003
 20
240.2103371106684
 30
0.0
 11
142.8434850858251
 21
233.4165939308436
 31
0.0
  0
LINE
  5
A7
330
4A
100
AcDbEntity
  8
1
  6
Continuous
 62
     7
100
AcDbLine
 10
127.4347862086997
 20
219.4119942270019
 30
0.0
 11
137.0425899528877
 21
219.4119942270019
 31
0.0
  0
LINE
  5
A8
330
4A
100
AcDbEntity
  8
1
  6
Continuous
 62
     7
100
AcDbLine
 10
136.0497419060003
 20
203.6136513433357
 30
0.0
 11
142.8434850858251
 21
210.4073945231605
 31
0.0
  0
LINE
  5
A9
330
4A
100
AcDbEntity
  8
1
  6
Continuous
 62
     7
100
AcDbLine
 10
153.3125508837339
 20
198.5342295519678
 30
0.0
 11
153.3125508837339
 21
208.1420332961558
 31
0.0
  0
LINE
  5
AA
330
4A
100
AcDbEntity
  8
1
  6
Continuous
 62
     7
100
AcDbLine
 10
169.1108937674003
 20
207.1491852492683
 30
0.0
 11
162.3171505875755
 21
213.9429284290931
 31
0.0
  0
LINE
  5
AB
330
4A
100
AcDbEntity
  8
1
  6
Continuous
 62
     7
100
AcDbLine
 10
174.1903155587681
 20
224.4119942270019
 30
0.0
 11
164.5825118145801
 21
224.4119942270019
 31
0.0
  0
LINE
  5
AC
330
4A
100
AcDbEntity
  8
1
  6
Continuous
 62
     7
100
AcDbLine
 10
165.5753598614676
 20
240.2103371106684
 30
0.0
 11
158.7816166816427
 21
233.4165939308436
 31
0.0
  0
LINE
  5
AD
330
4A
100
AcDbEntity
  8
1
  6
Continuous
 62
     7
100
AcDbLine
 10
148.3125508837339
 20
245.2897589020362
 30
0.0
 11
148.3125508837339
 21
235.6819551578482
 31
0.0
  0
LINE
  5
AE
330
4A
100
AcDbEntity
  8
1
  6
Continuous
 62
     7
100
AcDbLine
 10
139.3044040613785
 20
229.8846071434247
 30
0.0
 11
139.3079511798923
 21
229.8810600249107
 31
0.0
  0
LINE
  5
AF
330
4A
100
AcDbEntity
  8
1
  6
Continuous
 62
     7
100
AcDbLine
 10
137.037573569778
 20
224.4119942270019
 30
0.0
 11
137.0425899528877
 21
224.4119942270019
 31
0.0
  0
LINE
  5
B0
330
4A
100
AcDbEntity
  8
1
  6
Continuous
 62
     7
100
AcDbLine
 10
126.9962974592234
 20
224.4119942270019
 30
0.0
 11
127.4347862086997
 21
224.4119942270019
 31
0.0
  0
LINE
  5
B1
330
4A
100
AcDbEntity
  8
1
  6
Continuous
 62
     7
100
AcDbLine
 10
75.80734425054061
 20
153.7119942270019
 30
0.0
 11
77.32480395714632
 21
156.2659744798227
 31
0.0
  0
LINE
  5
B2
330
4A
100
AcDbEntity
  8
1
  6
Continuous
 62
     7
100
AcDbLine
 10
81.82303621350641
 20
153.7119942270019
 30
0.0
 11
75.80734425054061
 21
153.7119942270019
 31
0.0
  0
LINE
  5
B3
330
4A
100
AcDbEntity
  8
1
  6
Continuous
 62
     7
100
AcDbLine
 10
81.83473133411792
 20
148.7119942270019
 30
0.0
 11
75.33473133411792
 21
148.7119942270019
 31
0.0
  0
LINE
  5
B4
330
4A
100
AcDbEntity
  8
1
  6
Continuous
 62
     7
100
AcDbLine
 10
70.24954589984063
 20
156.8590418397582
 30
0.0
 11
71.09279476622092
 21
153.7119942270019
 31
0.0
  0
LINE
  5
B5
330
4A
100
AcDbEntity
  8
1
  6
Continuous
 62
     7
100
AcDbLine
 10
91.53318988639111
 20
153.7119942270019
 30
0.0
 11
86.62331356725551
 21
153.7119942270019
 31
0.0
  0
LINE
  5
B6
330
4A
100
AcDbEntity
  8
1
  6
Continuous
 62
     7
100
AcDbLine
 10
86.62331356725551
 20
148.7119942270019
 30
0.0
 11
94.33321243218293
 21
148.7119942270019
 31
0.0
  0
LINE
  5
B7
330
4A
100
AcDbEntity
  8
1
  6
Continuous
 62
     7
100
AcDbLine
 10
75.33473133411792
 20
148.7119942270019
 30
0.0
 11
75.33473133411792
 21
144.7119942270019
 31
0.0
  0
LINE
  5
B8
330
4A
100
AcDbEntity
  8
1
  6
Continuous
 62
     7
100
AcDbLine
 10
67.83473133411792
 20
144.7119942270019
 30
0.0
 11
75.33473133411792
 21
144.7119942270019
 31
0.0
  0
LINE
  5
B9
330
4A
100
AcDbEntity
  8
1
  6
Continuous
 62
     7
100
AcDbLine
 10
87.06833838130453
 20
149.2617460865125
 30
0.0
 11
86.62331356725551
 21
153.7119942270019
 31
0.0
  0
LINE
  5
BA
330
4A
100
AcDbEntity
  8
1
  6
Continuous
 62
     7
100
AcDbLine
 10
81.83473133411792
 20
148.7119942270019
 30
0.0
 11
86.57081978619951
 21
148.7119942270019
 31
0.0
  0
LINE
  5
BB
330
4A
100
AcDbEntity
  8
1
  6
Continuous
 62
     7
100
AcDbLine
 10
72.01972776287292
 20
150.2526331882846
 30
0.0
 11
71.09279476622092
 21
153.7119942270019
 31
0.0
  0
LINE
  5
BC
330
4A
100
AcDbEntity
  8
1
  6
Continuous
 62
     7
100
AcDbLine
 10
75.80734425054061
 20
153.7119942270019
 30
0.0
 11
71.09279476622092
 21
153.7119942270019
 31
0.0
  0
LINE
  5
BD
330
4A
100
AcDbEntity
  8
1
  6
Continuous
 62
     7
100
AcDbLine
 10
75.33473133411792
 20
148.7119942270019
 30
0.0
 11
67.83473133411792
 21
148.7119942270019
 31
0.0
  0
LINE
  5
BE
330
4A
100
AcDbEntity
  8
1
  6
Continuous
 62
     7
100
AcDbLine
 10
58.34465871108952
 20
156.2659744798227
 30
0.0
 11
59.86211841769523
 21
153.7119942270019
 31
0.0
  0
LINE
  5
BF
330
4A
100
AcDbEntity
  8
1
  6
Continuous
 62
     7
100
AcDbLine
 10
59.86211841769523
 20
153.7119942270019
 30
0.0
 11
53.84642645472943
 21
153.7119942270019
 31
0.0
  0
LINE
  5
C0
330
4A
100
AcDbEntity
  8
1
  6
Continuous
 62
     7
100
AcDbLine
 10
60.33473133411792
 20
148.7119942270019
 30
0.0
 11
53.83473133411792
 21
148.7119942270019
 31
0.0
  0
LINE
  5
C1
330
4A
100
AcDbEntity
  8
1
  6
Continuous
 62
     7
100
AcDbLine
 10
64.57666790201492
 20
153.7119942270019
 30
0.0
 11
65.41991676839521
 21
156.8590418397582
 31
0.0
  0
LINE
  5
C2
330
4A
100
AcDbEntity
  8
1
  6
Continuous
 62
     7
100
AcDbLine
 10
49.04614910098022
 20
153.7119942270019
 30
0.0
 11
44.13627278184461
 21
153.7119942270019
 31
0.0
  0
LINE
  5
C3
330
4A
100
AcDbEntity
  8
1
  6
Continuous
 62
     7
100
AcDbLine
 10
41.33625023605282
 20
148.7119942270019
 30
0.0
 11
49.04614910098022
 21
148.7119942270019
 31
0.0
  0
LINE
  5
C4
330
4A
100
AcDbEntity
  8
1
  6
Continuous
 62
     7
100
AcDbLine
 10
60.33473133411792
 20
144.7119942270019
 30
0.0
 11
60.33473133411792
 21
148.7119942270019
 31
0.0
  0
LINE
  5
C5
330
4A
100
AcDbEntity
  8
1
  6
Continuous
 62
     7
100
AcDbLine
 10
60.33473133411792
 20
144.7119942270019
 30
0.0
 11
67.83473133411792
 21
144.7119942270019
 31
0.0
  0
LINE
  5
C6
330
4A
100
AcDbEntity
  8
1
  6
Continuous
 62
     7
100
AcDbLine
 10
49.04614910098022
 20
153.7119942270019
 30
0.0
 11
48.60112428693131
 21
149.2617460865125
 31
0.0
  0
LINE
  5
C7
330
4A
100
AcDbEntity
  8
1
  6
Continuous
 62
     7
100
AcDbLine
 10
49.09864288203633
 20
148.7119942270019
 30
0.0
 11
53.83473133411792
 21
148.7119942270019
 31
0.0
  0
LINE
  5
C8
330
4A
100
AcDbEntity
  8
1
  6
Continuous
 62
     7
100
AcDbLine
 10
64.57666790201492
 20
153.7119942270019
 30
0.0
 11
63.64973490536292
 21
150.2526331882846
 31
0.0
  0
LINE
  5
C9
330
4A
100
AcDbEntity
  8
1
  6
Continuous
 62
     7
100
AcDbLine
 10
64.57666790201492
 20
153.7119942270019
 30
0.0
 11
59.86211841769523
 21
153.7119942270019
 31
0.0
  0
LINE
  5
CA
330
4A
100
AcDbEntity
  8
1
  6
Continuous
 62
     7
100
AcDbLine
 10
67.83473133411792
 20
148.7119942270019
 30
0.0
 11
60.33473133411792
 21
148.7119942270019
 31
0.0
  0
LINE
  5
CB
330
4A
100
AcDbEntity
  8
1
  6
Continuous
 62
     7
100
AcDbLine
 10
158.7851638001538
 20
153.7119942270019
 30
0.0
 11
160.3026235067595
 21
156.2659744798227
 31
0.0
  0
LINE
  5
CC
330
4A
100
AcDbEntity
  8
1
  6
Continuous
 62
     7
100
AcDbLine
 10
164.8008557631196
 20
153.7119942270019
 30
0.0
 11
158.7851638001538
 21
153.7119942270019
 31
0.0
  0
LINE
  5
CD
330
4A
100
AcDbEntity
  8
1
  6
Continuous
 62
     7
100
AcDbLine
 10
164.8125508837311
 20
148.7119942270019
 30
0.0
 11
158.312550883731
 21
148.7119942270019
 31
0.0
  0
LINE
  5
CE
330
4A
100
AcDbEntity
  8
1
  6
Continuous
 62
     7
100
AcDbLine
 10
153.2273654494537
 20
156.8590418397582
 30
0.0
 11
154.070614315834
 21
153.7119942270019
 31
0.0
  0
LINE
  5
CF
330
4A
100
AcDbEntity
  8
1
  6
Continuous
 62
     7
100
AcDbLine
 10
174.5110094360043
 20
153.7119942270019
 30
0.0
 11
169.6011331168687
 21
153.7119942270019
 31
0.0
  0
LINE
  5
D0
330
4A
100
AcDbEntity
  8
1
  6
Continuous
 62
     7
100
AcDbLine
 10
169.6011331168687
 20
148.7119942270019
 30
0.0
 11
177.3110319817961
 21
148.7119942270019
 31
0.0
  0
LINE
  5
D1
330
4A
100
AcDbEntity
  8
1
  6
Continuous
 62
     7
100
AcDbLine
 10
158.312550883731
 20
148.7119942270019
 30
0.0
 11
158.312550883731
 21
144.7119942270019
 31
0.0
  0
LINE
  5
D2
330
4A
100
AcDbEntity
  8
1
  6
Continuous
 62
     7
100
AcDbLine
 10
150.812550883731
 20
144.7119942270019
 30
0.0
 11
158.312550883731
 21
144.7119942270019
 31
0.0
  0
LINE
  5
D3
330
4A
100
AcDbEntity
  8
1
  6
Continuous
 62
     7
100
AcDbLine
 10
170.0461579309177
 20
149.2617460865125
 30
0.0
 11
169.6011331168687
 21
153.7119942270019
 31
0.0
  0
LINE
  5
D4
330
4A
100
AcDbEntity
  8
1
  6
Continuous
 62
     7
100
AcDbLine
 10
164.8125508837311
 20
148.7119942270019
 30
0.0
 11
169.5486393358127
 21
148.7119942270019
 31
0.0
  0
LINE
  5
D5
330
4A
100
AcDbEntity
  8
1
  6
Continuous
 62
     7
100
AcDbLine
 10
154.997547312486
 20
150.2526331882846
 30
0.0
 11
154.070614315834
 21
153.7119942270019
 31
0.0
  0
LINE
  5
D6
330
4A
100
AcDbEntity
  8
1
  6
Continuous
 62
     7
100
AcDbLine
 10
158.7851638001538
 20
153.7119942270019
 30
0.0
 11
154.070614315834
 21
153.7119942270019
 31
0.0
  0
LINE
  5
D7
330
4A
100
AcDbEntity
  8
1
  6
Continuous
 62
     7
100
AcDbLine
 10
158.312550883731
 20
148.7119942270019
 30
0.0
 11
150.812550883731
 21
148.7119942270019
 31
0.0
  0
LINE
  5
D8
330
4A
100
AcDbEntity
  8
1
  6
Continuous
 62
     7
100
AcDbLine
 10
141.3224782607026
 20
156.2659744798227
 30
0.0
 11
142.8399379673083
 21
153.7119942270019
 31
0.0
  0
LINE
  5
D9
330
4A
100
AcDbEntity
  8
1
  6
Continuous
 62
     7
100
AcDbLine
 10
142.8399379673083
 20
153.7119942270019
 30
0.0
 11
136.8242460043425
 21
153.7119942270019
 31
0.0
  0
LINE
  5
DA
330
4A
100
AcDbEntity
  8
1
  6
Continuous
 62
     7
100
AcDbLine
 10
143.312550883731
 20
148.7119942270019
 30
0.0
 11
136.812550883731
 21
148.7119942270019
 31
0.0
  0
LINE
  5
DB
330
4A
100
AcDbEntity
  8
1
  6
Continuous
 62
     7
100
AcDbLine
 10
147.554487451628
 20
153.7119942270019
 30
0.0
 11
148.3977363180084
 21
156.8590418397582
 31
0.0
  0
LINE
  5
DC
330
4A
100
AcDbEntity
  8
1
  6
Continuous
 62
     7
100
AcDbLine
 10
132.0239686505933
 20
153.7119942270019
 30
0.0
 11
127.1140923314577
 21
153.7119942270019
 31
0.0
  0
LINE
  5
DD
330
4A
100
AcDbEntity
  8
1
  6
Continuous
 62
     7
100
AcDbLine
 10
124.3140697856659
 20
148.7119942270019
 30
0.0
 11
132.0239686505933
 21
148.7119942270019
 31
0.0
  0
LINE
  5
DE
330
4A
100
AcDbEntity
  8
1
  6
Continuous
 62
     7
100
AcDbLine
 10
143.312550883731
 20
144.7119942270019
 30
0.0
 11
143.312550883731
 21
148.7119942270019
 31
0.0
  0
LINE
  5
DF
330
4A
100
AcDbEntity
  8
1
  6
Continuous
 62
     7
100
AcDbLine
 10
143.312550883731
 20
144.7119942270019
 30
0.0
 11
150.812550883731
 21
144.7119942270019
 31
0.0
  0
LINE
  5
E0
330
4A
100
AcDbEntity
  8
1
  6
Continuous
 62
     7
100
AcDbLine
 10
132.0239686505933
 20
153.7119942270019
 30
0.0
 11
131.5789438365444
 21
149.2617460865125
 31
0.0
  0
LINE
  5
E1
330
4A
100
AcDbEntity
  8
1
  6
Continuous
 62
     7
100
AcDbLine
 10
132.0764624316494
 20
148.7119942270019
 30
0.0
 11
136.812550883731
 21
148.7119942270019
 31
0.0
  0
LINE
  5
E2
330
4A
100
AcDbEntity
  8
1
  6
Continuous
 62
     7
100
AcDbLine
 10
147.554487451628
 20
153.7119942270019
 30
0.0
 11
146.627554454976
 21
150.2526331882846
 31
0.0
  0
LINE
  5
E3
330
4A
100
AcDbEntity
  8
1
  6
Continuous
 62
     7
100
AcDbLine
 10
147.554487451628
 20
153.7119942270019
 30
0.0
 11
142.8399379673083
 21
153.7119942270019
 31
0.0
  0
LINE
  5
E4
330
4A
100
AcDbEntity
  8
1
  6
Continuous
 62
     7
100
AcDbLine
 10
150.812550883731
 20
148.7119942270019
 30
0.0
 11
143.312550883731
 21
148.7119942270019
 31
0.0
  0
ARC
  5
E5
330
4A
100
AcDbEntity
  8
1
  6
Continuous
 62
     7
100
AcDbCircle
 10
150.8125508837339
 20
221.9119942270019
 30
0.0
 40
7.500000000000187
100
AcDbArc
 50
91.92751306414708
 51
148.0724869358529
  0
ARC
  5
E6
330
4A
100
AcDbEntity
  8
1
  6
Continuous
 62
     7
100
AcDbCircle
 10
150.8125508837339
 20
221.9119942270019
 30
0.0
 40
7.499999999999921
100
AcDbArc
 50
211.9275130641465
 51
268.0724869358529
  0
ARC
  5
E7
330
4A
100
AcDbEntity
  8
1
  6
Continuous
 62
     7
100
AcDbCircle
 10
150.8125508837339
 20
221.9119942270019
 30
0.0
 40
7.500000000000017
100
AcDbArc
 50
331.9275130641478
 51
28.07248693585274
  0
ARC
  5
E8
330
4A
100
AcDbEntity
  8
1
  6
Continuous
 62
     7
100
AcDbCircle
 10
150.8125508837339
 20
221.9119942270019
 30
0.0
 40
11.99999999999993
100
AcDbArc
 50
338.6763137365028
 51
21.3236862634985
  0
ARC
  5
E9
330
4A
100
AcDbEntity
  8
1
  6
Continuous
 62
     7
100
AcDbCircle
 10
150.8125508837339
 20
221.9119942270019
 30
0.0
 40
11.99999999999998
100
AcDbArc
 50
218.6763137365023
 51
261.3236862634982
  0
ARC
  5
EA
330
4A
100
AcDbEntity
  8
1
  6
Continuous
 62
     7
100
AcDbCircle
 10
150.8125508837339
 20
221.9119942270019
 30
0.0
 40
12.0000000000001
100
AcDbArc
 50
98.67631373650173
 51
141.3236862634978
  0
ARC
  5
EB
330
4A
100
AcDbEntity
  8
1
  6
Continuous
 62
     7
100
AcDbCircle
 10
150.8125508837339
 20
221.9119942270019
 30
0.0
 40
7.500000000000057
100
AcDbArc
 50
28.07248693585274
 51
91.92751306414708
  0
ARC
  5
EC
330
4A
100
AcDbEntity
  8
1
  6
Continuous
 62
     7
100
AcDbCircle
 10
150.8125508837339
 20
221.9119942270019
 30
0.0
 40
12.00000000000003
100
AcDbArc
 50
21.3236862634985
 51
98.67631373650173
  0
ARC
  5
ED
330
4A
100
AcDbEntity
  8
1
  6
Continuous
 62
     7
100
AcDbCircle
 10
150.8125508837339
 20
221.9119942270019
 30
0.0
 40
7.499999999999966
100
AcDbArc
 50
148.0724869358529
 51
211.9275130641465
  0
ARC
  5
EE
330
4A
100
AcDbEntity
  8
1
  6
Continuous
 62
     7
100
AcDbCircle
 10
150.8125508837339
 20
221.9119942270019
 30
0.0
 40
7.499999999999932
100
AcDbArc
 50
268.0724869358529
 51
331.9275130641478
  0
ARC
  5
EF
330
4A
100
AcDbEntity
  8
1
  6
Continuous
 62
     7
100
AcDbCircle
 10
150.8125508837339
 20
221.9119942270019
 30
0.0
 40
11.99999999999996
100
AcDbArc
 50
141.3236862634978
 51
218.6763137365023
  0
ARC
  5
F0
330
4A
100
AcDbEntity
  8
1
  6
Continuous
 62
     7
100
AcDbCircle
 10
150.8125508837339
 20
221.9119942270019
 30
0.0
 40
11.99999999999993
100
AcDbArc
 50
261.3236862634982
 51
338.6763137365028
  0
ARC
  5
F1
330
4A
100
AcDbEntity
  8
1
  6
Continuous
 62
     7
100
AcDbCircle
 10
150.8125508837339
 20
221.9119942270019
 30
0.0
 40
13.99999999999999
100
AcDbArc
 50
190.2865606114749
 51
214.7134393885248
  0
ARC
  5
F2
330
4A
100
AcDbEntity
  8
1
  6
Continuous
 62
     7
100
AcDbCircle
 10
150.8125508837339
 20
221.9119942270019
 30
0.0
 40
13.99999999999997
100
AcDbArc
 50
235.2865606114748
 51
259.7134393885249
  0
ARC
  5
F3
330
4A
100
AcDbEntity
  8
1
  6
Continuous
 62
     7
100
AcDbCircle
 10
150.8125508837339
 20
221.9119942270019
 30
0.0
 40
13.99999999999991
100
AcDbArc
 50
280.286560611475
 51
304.7134393885251
  0
ARC
  5
F4
330
4A
100
AcDbEntity
  8
1
  6
Continuous
 62
     7
100
AcDbCircle
 10
150.8125508837339
 20
221.9119942270019
 30
0.0
 40
13.99999999999997
100
AcDbArc
 50
325.2865606114754
 51
349.7134393885251
  0
ARC
  5
F5
330
4A
100
AcDbEntity
  8
1
  6
Continuous
 62
     7
100
AcDbCircle
 10
150.8125508837339
 20
221.9119942270019
 30
0.0
 40
13.99999999999999
100
AcDbArc
 50
10.28656061147495
 51
34.7134393885252
  0
ARC
  5
F6
330
4A
100
AcDbEntity
  8
1
  6
Continuous
 62
     7
100
AcDbCircle
 10
150.8125508837339
 20
221.9119942270019
 30
0.0
 40
14.00000000000002
100
AcDbArc
 50
55.28656061147509
 51
79.71343938852513
  0
ARC
  5
F7
330
4A
100
AcDbEntity
  8
1
  6
Continuous
 62
     7
100
AcDbCircle
 10
150.8125508837339
 20
221.9119942270019
 30
0.0
 40
14.00000000000007
100
AcDbArc
 50
100.2865606114749
 51
124.713439388525
  0
ARC
  5
F8
330
4A
100
AcDbEntity
  8
1
  6
Continuous
 62
     7
100
AcDbCircle
 10
150.8125508837339
 20
240.5786608936687
 30
0.0
 40
5.3333333333333
100
AcDbArc
 50
117.9531868833813
 51
128.5881292115626
  0
ARC
  5
F9
330
4A
100
AcDbEntity
  8
1
  6
Continuous
 62
     7
100
AcDbCircle
 10
169.4792175504006
 20
221.9119942270019
 30
0.0
 40
5.333333333333326
100
AcDbArc
 50
27.95318688338118
 51
38.58812921156312
  0
ARC
  5
FA
330
4A
100
AcDbEntity
  8
1
  6
Continuous
 62
     7
100
AcDbCircle
 10
164.0118774658828
 20
235.1113208091508
 30
0.0
 40
5.333333333333455
100
AcDbArc
 50
72.95318688338094
 51
83.5881292115628
  0
ARC
  5
FB
330
4A
100
AcDbEntity
  8
1
  6
Continuous
 62
     7
100
AcDbCircle
 10
164.0118774658828
 20
208.7126676448531
 30
0.0
 40
5.333333333333374
100
AcDbArc
 50
342.9531868833806
 51
353.5881292115616
  0
ARC
  5
FC
330
4A
100
AcDbEntity
  8
1
  6
Continuous
 62
     7
100
AcDbCircle
 10
150.8125508837339
 20
203.2453275603354
 30
0.0
 40
5.333333333333401
100
AcDbArc
 50
297.9531868833807
 51
308.5881292115633
  0
ARC
  5
FD
330
4A
100
AcDbEntity
  8
1
  6
Continuous
 62
     7
100
AcDbCircle
 10
137.613224301585
 20
208.7126676448531
 30
0.0
 40
5.33333333333324
100
AcDbArc
 50
252.9531868833812
 51
263.5881292115628
  0
ARC
  5
FE
330
4A
100
AcDbEntity
  8
1
  6
Continuous
 62
     7
100
AcDbCircle
 10
132.1458842170672
 20
221.9119942270019
 30
0.0
 40
5.3333333333333
100
AcDbArc
 50
207.9531868833813
 51
218.5881292115619
  0
ARC
  5
FF
330
4A
100
AcDbEntity
  8
1
  6
Continuous
 62
     7
100
AcDbCircle
 10
150.8125508837339
 20
221.9119942270019
 30
0.0
 40
14.0
100
AcDbArc
 50
145.2865606114746
 51
169.7134393885251
  0
ARC
  5
100
330
4A
100
AcDbEntity
  8
1
  6
Continuous
 62
     7
100
AcDbCircle
 10
137.613224301585
 20
208.7126676448531
 30
0.0
 40
5.333333333333348
100
AcDbArc
 50
186.4118707884384
 51
197.0468131166193
  0
ARC
  5
101
330
4A
100
AcDbEntity
  8
1
  6
Continuous
 62
     7
100
AcDbCircle
 10
150.8125508837339
 20
203.2453275603354
 30
0.0
 40
5.333333333333298
100
AcDbArc
 50
231.4118707884374
 51
242.0468131166192
  0
ARC
  5
102
330
4A
100
AcDbEntity
  8
1
  6
Continuous
 62
     7
100
AcDbCircle
 10
164.0118774658828
 20
208.7126676448531
 30
0.0
 40
5.333333333333336
100
AcDbArc
 50
276.4118707884372
 51
287.0468131166197
  0
ARC
  5
103
330
4A
100
AcDbEntity
  8
1
  6
Continuous
 62
     7
100
AcDbCircle
 10
169.4792175504006
 20
221.9119942270019
 30
0.0
 40
5.333333333333267
100
AcDbArc
 50
321.4118707884383
 51
332.0468131166189
  0
ARC
  5
104
330
4A
100
AcDbEntity
  8
1
  6
Continuous
 62
     7
100
AcDbCircle
 10
164.0118774658828
 20
235.1113208091508
 30
0.0
 40
5.333333333333336
100
AcDbArc
 50
6.41187078843721
 51
17.04681311661817
  0
ARC
  5
105
330
4A
100
AcDbEntity
  8
1
  6
Continuous
 62
     7
100
AcDbCircle
 10
150.8125508837339
 20
240.5786608936687
 30
0.0
 40
5.333333333333352
100
AcDbArc
 50
51.41187078843669
 51
62.04681311661869
  0
ARC
  5
106
330
4A
100
AcDbEntity
  8
1
  6
Continuous
 62
     7
100
AcDbCircle
 10
137.613224301585
 20
235.1113208091508
 30
0.0
 40
5.333333333333336
100
AcDbArc
 50
96.41187078843721
 51
107.0468131166182
  0
ARC
  5
107
330
4A
100
AcDbEntity
  8
1
  6
Continuous
 62
     7
100
AcDbCircle
 10
111.9966915965039
 20
205.8339388750657
 30
0.0
 40
20.44444444444439
100
AcDbArc
 50
6.41187078843666
 51
38.58812921156292
  0
ARC
  5
108
330
4A
100
AcDbEntity
  8
1
  6
Continuous
 62
     7
100
AcDbCircle
 10
134.7344955317976
 20
183.0961349397718
 30
0.0
 40
20.44444444444466
100
AcDbArc
 50
51.41187078843757
 51
83.58812921156301
  0
ARC
  5
109
330
4A
100
AcDbEntity
  8
1
  6
Continuous
 62
     7
100
AcDbCircle
 10
166.8906062356703
 20
183.0961349397718
 30
0.0
 40
20.44444444444461
100
AcDbArc
 50
96.41187078843723
 51
128.5881292115624
  0
ARC
  5
10A
330
4A
100
AcDbEntity
  8
1
  6
Continuous
 62
     7
100
AcDbCircle
 10
189.628410170964
 20
205.8339388750657
 30
0.0
 40
20.44444444444446
100
AcDbArc
 50
141.4118707884372
 51
173.5881292115634
  0
ARC
  5
10B
330
4A
100
AcDbEntity
  8
1
  6
Continuous
 62
     7
100
AcDbCircle
 10
189.628410170964
 20
237.9900495789383
 30
0.0
 40
20.4444444444445
100
AcDbArc
 50
186.4118707884373
 51
218.5881292115628
  0
ARC
  5
10C
330
4A
100
AcDbEntity
  8
1
  6
Continuous
 62
     7
100
AcDbCircle
 10
166.8906062356703
 20
260.727853514232
 30
0.0
 40
20.44444444444439
100
AcDbArc
 50
231.4118707884369
 51
263.5881292115627
  0
ARC
  5
10D
330
4A
100
AcDbEntity
  8
1
  6
Continuous
 62
     7
100
AcDbCircle
 10
134.7344955317976
 20
260.727853514232
 30
0.0
 40
20.44444444444446
100
AcDbArc
 50
276.4118707884371
 51
308.588129211563
  0
ARC
  5
10E
330
4A
100
AcDbEntity
  8
1
  6
Continuous
 62
     7
100
AcDbCircle
 10
132.1458842170672
 20
221.9119942270019
 30
0.0
 40
5.333333333333352
100
AcDbArc
 50
141.4118707884367
 51
152.0468131166187
  0
ARC
  5
10F
330
4A
100
AcDbEntity
  8
1
  6
Continuous
 62
     7
100
AcDbCircle
 10
111.9966915965038
 20
237.9900495789383
 30
0.0
 40
20.44444444444449
100
AcDbArc
 50
321.4118707884372
 51
353.5881292115628
  0
ARC
  5
110
330
4A
100
AcDbEntity
  8
1
  6
Continuous
 62
     7
100
AcDbCircle
 10
137.613224301585
 20
235.1113208091508
 30
0.0
 40
5.33333333333334
100
AcDbArc
 50
162.9531868833818
 51
173.5881292115628
  0
ARC
  5
111
330
4A
100
AcDbEntity
  8
1
  6
Continuous
 62
     7
100
AcDbCircle
 10
81.62331356725551
 20
153.7119942270019
 30
0.0
 40
5.000000000000111
100
AcDbArc
 50
55.17011625037834
 51
149.2831311713263
  0
ARC
  5
112
330
4A
100
AcDbEntity
  8
1
  6
Continuous
 62
     7
100
AcDbCircle
 10
67.83473133411792
 20
156.2119942270019
 30
0.0
 40
2.500000000000034
100
AcDbArc
 50
14.99999999999965
 51
90.0
  0
ARC
  5
113
330
4A
100
AcDbEntity
  8
1
  6
Continuous
 62
     7
100
AcDbCircle
 10
87.33473133411792
 20
153.7119942270019
 30
0.0
 40
5.000000000000146
100
AcDbArc
 50
60.0000000000021
 51
124.8298837496214
  0
ARC
  5
114
330
4A
100
AcDbEntity
  8
1
  6
Continuous
 62
     7
100
AcDbCircle
 10
84.83473133411792
 20
149.3818672080797
 30
0.0
 40
10.0
100
AcDbArc
 50
0.0
 51
60.00000000000102
  0
ARC
  5
115
330
4A
100
AcDbEntity
  8
1
  6
Continuous
 62
     7
100
AcDbCircle
 10
84.83473133411792
 20
149.3818672080797
 30
0.0
 40
9.999999999999902
100
AcDbArc
 50
358.9754185662287
 51
0.0
  0
ARC
  5
116
330
4A
100
AcDbEntity
  8
1
  6
Continuous
 62
     7
100
AcDbCircle
 10
81.62331356725551
 20
153.7119942270019
 30
0.0
 40
5.0
100
AcDbArc
 50
0.0
 51
55.17011625037834
  0
ARC
  5
117
330
4A
100
AcDbEntity
  8
1
  6
Continuous
 62
     7
100
AcDbCircle
 10
54.04614910098022
 20
153.7119942270019
 30
0.0
 40
5.000000000000056
100
AcDbArc
 50
30.7168688286731
 51
124.8298837496214
  0
ARC
  5
118
330
4A
100
AcDbEntity
  8
1
  6
Continuous
 62
     7
100
AcDbCircle
 10
67.83473133411792
 20
156.2119942270019
 30
0.0
 40
2.5
100
AcDbArc
 50
90.0
 51
165.0000000000003
  0
ARC
  5
119
330
4A
100
AcDbEntity
  8
1
  6
Continuous
 62
     7
100
AcDbCircle
 10
48.33473133411792
 20
153.7119942270019
 30
0.0
 40
5.00000000000005
100
AcDbArc
 50
55.17011625037934
 51
119.9999999999987
  0
ARC
  5
11A
330
4A
100
AcDbEntity
  8
1
  6
Continuous
 62
     7
100
AcDbCircle
 10
50.83473133411792
 20
149.3818672080797
 30
0.0
 40
10.00000000000018
100
AcDbArc
 50
119.9999999999994
 51
180.0
  0
ARC
  5
11B
330
4A
100
AcDbEntity
  8
1
  6
Continuous
 62
     7
100
AcDbCircle
 10
50.83473133411792
 20
149.3818672080797
 30
0.0
 40
10.0
100
AcDbArc
 50
180.0
 51
181.0245814337713
  0
ARC
  5
11C
330
4A
100
AcDbEntity
  8
1
  6
Continuous
 62
     7
100
AcDbCircle
 10
54.04614910098022
 20
153.7119942270019
 30
0.0
 40
5.000000000000094
100
AcDbArc
 50
124.8298837496214
 51
180.0
  0
ARC
  5
11D
330
4A
100
AcDbEntity
  8
0
  6
Continuous
 62
     7
100
AcDbCircle
 10
150.8125508837337
 20
240.4119942270174
 30
0.0
 40
7.999999999992709
100
AcDbArc
 50
56.30453830434998
 51
123.6954616956004
  0
ARC
  5
11E
330
4A
100
AcDbEntity
  8
0
  6
Continuous
 62
     7
100
AcDbCircle
 10
163.8940263356957
 20
234.9934696789641
 30
0.0
 40
7.999999999992751
100
AcDbArc
 50
11.30453830435051
 51
78.69546169559939
  0
ARC
  5
11F
330
4A
100
AcDbEntity
  8
0
  6
Continuous
 62
     7
100
AcDbCircle
 10
169.3125508837493
 20
221.9119942270024
 30
0.0
 40
7.999999999992772
100
AcDbArc
 50
326.3045383043493
 51
33.69546169559916
  0
ARC
  5
120
330
4A
100
AcDbEntity
  8
1
  6
Continuous
 62
     7
100
AcDbCircle
 10
168.9003631546623
 20
265.5798359251357
 30
0.0
 40
22.99999999999988
100
AcDbArc
 50
233.5970607918654
 51
261.4029392081509
  0
ARC
  5
121
330
4A
100
AcDbEntity
  8
1
  6
Continuous
 62
     7
100
AcDbCircle
 10
194.4803925818677
 20
239.9998064979304
 30
0.0
 40
23.00000000000001
100
AcDbArc
 50
188.5970607918656
 51
216.4029392081509
  0
ARC
  5
122
330
4A
100
AcDbEntity
  8
1
  6
Continuous
 62
     7
100
AcDbCircle
 10
194.4803925818677
 20
203.8241819560737
 30
0.0
 40
22.99999999999985
100
AcDbArc
 50
143.5970607918493
 51
171.4029392081346
  0
ARC
  5
123
330
4A
100
AcDbEntity
  8
0
  6
Continuous
 62
     7
100
AcDbCircle
 10
163.8940263356961
 20
208.8305187750402
 30
0.0
 40
7.99999999999324
100
AcDbArc
 50
281.3045383043971
 51
348.6954616956469
  0
ARC
  5
124
330
4A
100
AcDbEntity
  8
1
  6
Continuous
 62
     7
100
AcDbCircle
 10
168.9003631546623
 20
178.2441525288681
 30
0.0
 40
22.9999999999999
100
AcDbArc
 50
98.59706079184905
 51
126.4029392081341
  0
ARC
  5
125
330
4A
100
AcDbEntity
  8
0
  6
Continuous
 62
     7
100
AcDbCircle
 10
150.8125508837337
 20
203.4119942269867
 30
0.0
 40
7.999999999992897
100
AcDbArc
 50
236.3045383044008
 51
303.69546169565
  0
ARC
  5
126
330
4A
100
AcDbEntity
  8
1
  6
Continuous
 62
     7
100
AcDbCircle
 10
132.7247386128055
 20
265.5798359251357
 30
0.0
 40
22.99999999999991
100
AcDbArc
 50
278.5970607918493
 51
306.4029392081348
  0
ARC
  5
127
330
4A
100
AcDbEntity
  8
0
  6
Continuous
 62
     7
100
AcDbCircle
 10
137.7310754317718
 20
234.9934696789639
 30
0.0
 40
7.999999999992967
100
AcDbArc
 50
101.3045383043977
 51
168.6954616956476
  0
ARC
  5
128
330
4A
100
AcDbEntity
  8
1
  6
Continuous
 62
     7
100
AcDbCircle
 10
107.1447091856001
 20
239.9998064979304
 30
0.0
 40
22.99999999999998
100
AcDbArc
 50
323.5970607918493
 51
351.4029392081345
  0
ARC
  5
129
330
4A
100
AcDbEntity
  8
0
  6
Continuous
 62
     7
100
AcDbCircle
 10
132.3125508837186
 20
221.9119942270024
 30
0.0
 40
7.999999999992755
100
AcDbArc
 50
146.3045383044008
 51
213.6954616956507
  0
ARC
  5
12A
330
4A
100
AcDbEntity
  8
1
  6
Continuous
 62
     7
100
AcDbCircle
 10
107.1447091856001
 20
203.8241819560735
 30
0.0
 40
23.00000000000011
100
AcDbArc
 50
8.59706079186586
 51
36.40293920815098
  0
ARC
  5
12B
330
4A
100
AcDbEntity
  8
0
  6
Continuous
 62
     7
100
AcDbCircle
 10
137.7310754317717
 20
208.8305187750402
 30
0.0
 40
7.999999999992332
100
AcDbArc
 50
191.3045383043532
 51
258.6954616956035
  0
ARC
  5
12C
330
4A
100
AcDbEntity
  8
1
  6
Continuous
 62
     7
100
AcDbCircle
 10
132.7247386128055
 20
178.2441525288681
 30
0.0
 40
23.00000000000018
100
AcDbArc
 50
53.59706079186573
 51
81.40293920815076
  0
ARC
  5
12D
330
4A
100
AcDbEntity
  8
1
  6
Continuous
 62
     7
100
AcDbCircle
 10
164.6011331168687
 20
153.7119942270019
 30
0.0
 40
5.000000000000094
100
AcDbArc
 50
55.17011625037861
 51
149.2831311713265
  0
ARC
  5
12E
330
4A
100
AcDbEntity
  8
1
  6
Continuous
 62
     7
100
AcDbCircle
 10
150.812550883731
 20
156.2119942270019
 30
0.0
 40
2.500000000000034
100
AcDbArc
 50
14.99999999999965
 51
90.0
  0
ARC
  5
12F
330
4A
100
AcDbEntity
  8
1
  6
Continuous
 62
     7
100
AcDbCircle
 10
170.3125508837311
 20
153.7119942270019
 30
0.0
 40
5.000000000000146
100
AcDbArc
 50
60.0000000000021
 51
124.8298837496214
  0
ARC
  5
130
330
4A
100
AcDbEntity
  8
1
  6
Continuous
 62
     7
100
AcDbCircle
 10
167.8125508837311
 20
149.3818672080797
 30
0.0
 40
10.0
100
AcDbArc
 50
0.0
 51
60.00000000000102
  0
ARC
  5
131
330
4A
100
AcDbEntity
  8
1
  6
Continuous
 62
     7
100
AcDbCircle
 10
167.8125508837311
 20
149.3818672080797
 30
0.0
 40
9.99999999999993
100
AcDbArc
 50
358.9754185662287
 51
0.0
  0
ARC
  5
132
330
4A
100
AcDbEntity
  8
1
  6
Continuous
 62
     7
100
AcDbCircle
 10
164.6011331168687
 20
153.7119942270019
 30
0.0
 40
5.0
100
AcDbArc
 50
0.0
 51
55.17011625037861
  0
ARC
  5
133
330
4A
100
AcDbEntity
  8
1
  6
Continuous
 62
     7
100
AcDbCircle
 10
137.0239686505933
 20
153.7119942270019
 30
0.0
 40
5.000000000000062
100
AcDbArc
 50
30.71686882867306
 51
124.8298837496214
  0
ARC
  5
134
330
4A
100
AcDbEntity
  8
1
  6
Continuous
 62
     7
100
AcDbCircle
 10
150.812550883731
 20
156.2119942270019
 30
0.0
 40
2.5
100
AcDbArc
 50
90.0
 51
164.9999999999997
  0
ARC
  5
135
330
4A
100
AcDbEntity
  8
1
  6
Continuous
 62
     7
100
AcDbCircle
 10
131.312550883731
 20
153.7119942270019
 30
0.0
 40
5.000000000000046
100
AcDbArc
 50
55.17011625037942
 51
119.9999999999987
  0
ARC
  5
136
330
4A
100
AcDbEntity
  8
1
  6
Continuous
 62
     7
100
AcDbCircle
 10
133.812550883731
 20
149.3818672080797
 30
0.0
 40
10.00000000000018
100
AcDbArc
 50
119.9999999999994
 51
180.0
  0
ARC
  5
137
330
4A
100
AcDbEntity
  8
1
  6
Continuous
 62
     7
100
AcDbCircle
 10
133.812550883731
 20
149.3818672080797
 30
0.0
 40
10.0
100
AcDbArc
 50
180.0
 51
181.0245814337713
  0
ARC
  5
138
330
4A
100
AcDbEntity
  8
1
  6
Continuous
 62
     7
100
AcDbCircle
 10
137.0239686505933
 20
153.7119942270019
 30
0.0
 40
5.000000000000094
100
AcDbArc
 50
124.8298837496214
 51
180.0
  0
ARC
  5
139
330
4A
100
AcDbEntity
  8
1
  6
Continuous
 62
     7
100
AcDbCircle
 10
150.5266524988717
 20
230.4071847553852
 30
0.0
 40
0.9999999999999589
100
AcDbArc
 50
210.0000000000013
 51
271.9275130641446
  0
ARC
  5
13A
330
4A
100
AcDbEntity
  8
1
  6
Continuous
 62
     7
100
AcDbCircle
 10
143.5984492685962
 20
226.4071847553852
 30
0.0
 40
0.9999999999999939
100
AcDbArc
 50
328.0724869358518
 51
30.00000000000136
  0
ARC
  5
13B
330
4A
100
AcDbEntity
  8
1
  6
Continuous
 62
     7
100
AcDbCircle
 10
143.5984492685962
 20
217.4168036986186
 30
0.0
 40
0.9999999999999589
100
AcDbArc
 50
329.9999999999987
 51
31.92751306415369
  0
ARC
  5
13C
330
4A
100
AcDbEntity
  8
1
  6
Continuous
 62
     7
100
AcDbCircle
 10
150.5266524988717
 20
213.4168036986186
 30
0.0
 40
1.000000000000095
100
AcDbArc
 50
88.07248693585589
 51
149.9999999999987
  0
ARC
  5
13D
330
4A
100
AcDbEntity
  8
1
  6
Continuous
 62
     7
100
AcDbCircle
 10
158.3125508837339
 20
217.9119942270019
 30
0.0
 40
1.0
100
AcDbArc
 50
90.0
 51
151.9275130641411
  0
ARC
  5
13E
330
4A
100
AcDbEntity
  8
1
  6
Continuous
 62
     7
100
AcDbCircle
 10
158.3125508837339
 20
225.9119942270019
 30
0.0
 40
0.9999999999999432
100
AcDbArc
 50
208.0724869358546
 51
270.0
  0
ARC
  5
13F
330
4A
100
AcDbEntity
  8
1
  6
Continuous
 62
     7
100
AcDbCircle
 10
161.0595016496935
 20
225.9119942270019
 30
0.0
 40
1.0
100
AcDbArc
 50
270.0
 51
21.32368626350447
  0
ARC
  5
140
330
4A
100
AcDbEntity
  8
1
  6
Continuous
 62
     7
100
AcDbCircle
 10
161.0595016496935
 20
217.9119942270019
 30
0.0
 40
0.9999999999999452
100
AcDbArc
 50
338.6763137365107
 51
90.0
  0
ARC
  5
141
330
4A
100
AcDbEntity
  8
1
  6
Continuous
 62
     7
100
AcDbCircle
 10
149.1531771158919
 20
211.0378745523526
 30
0.0
 40
0.9999999999999836
100
AcDbArc
 50
149.9999999999995
 51
261.3236862634992
  0
ARC
  5
142
330
4A
100
AcDbEntity
  8
1
  6
Continuous
 62
     7
100
AcDbCircle
 10
142.2249738856164
 20
215.0378745523526
 30
0.0
 40
1.000000000000096
100
AcDbArc
 50
218.6763137365075
 51
329.9999999999987
  0
ARC
  5
143
330
4A
100
AcDbEntity
  8
1
  6
Continuous
 62
     7
100
AcDbCircle
 10
142.2249738856164
 20
228.7861139016515
 30
0.0
 40
0.9999999999999589
100
AcDbArc
 50
30.00000000000136
 51
141.3236862635065
  0
ARC
  5
144
330
4A
100
AcDbEntity
  8
1
  6
Continuous
 62
     7
100
AcDbCircle
 10
149.1531771158919
 20
232.7861139016513
 30
0.0
 40
1.000000000000141
100
AcDbArc
 50
98.67631373650016
 51
210.0000000000005
  0
ARC
  5
145
330
4A
100
AcDbEntity
  8
1
  6
Continuous
 62
     7
100
AcDbCircle
 10
131.4970428506523
 20
207.5462336622263
 30
0.0
 40
1.000000000000088
100
AcDbArc
 50
225.0000000000092
 51
314.9999999999908
  0
ARC
  5
146
330
4A
100
AcDbEntity
  8
1
  6
Continuous
 62
     7
100
AcDbCircle
 10
147.3125508837339
 20
198.0957408024914
 30
0.0
 40
1.0
100
AcDbArc
 50
270.0
 51
0.0
  0
ARC
  5
147
330
4A
100
AcDbEntity
  8
1
  6
Continuous
 62
     7
100
AcDbCircle
 10
165.1783114485097
 20
202.5964861939203
 30
0.0
 40
1.000000000000008
100
AcDbArc
 50
315.0000000000047
 51
45.0
  0
ARC
  5
148
330
4A
100
AcDbEntity
  8
1
  6
Continuous
 62
     7
100
AcDbCircle
 10
174.6288043082444
 20
218.4119942270019
 30
0.0
 40
1.0
100
AcDbArc
 50
0.0
 51
90.0
  0
ARC
  5
149
330
4A
100
AcDbEntity
  8
1
  6
Continuous
 62
     7
100
AcDbCircle
 10
170.1280589168156
 20
236.2777547917778
 30
0.0
 40
0.9999999999998673
100
AcDbArc
 50
44.99999999999655
 51
135.0000000000081
  0
ARC
  5
14A
330
4A
100
AcDbEntity
  8
1
  6
Continuous
 62
     7
100
AcDbCircle
 10
154.3125508837339
 20
245.7282476515124
 30
0.0
 40
1.0
100
AcDbArc
 50
90.0
 51
180.0
  0
ARC
  5
14B
330
4A
100
AcDbEntity
  8
1
  6
Continuous
 62
     7
100
AcDbCircle
 10
136.4467903189581
 20
241.2275022600836
 30
0.0
 40
0.999999999999988
100
AcDbArc
 50
134.9999999999965
 51
225.0000000000012
  0
ARC
  5
14C
330
4A
100
AcDbEntity
  8
1
  6
Continuous
 62
     7
100
AcDbCircle
 10
138.6008443987058
 20
214.6500352102798
 30
0.0
 40
1.000000000000109
100
AcDbArc
 50
314.999999999992
 51
44.99999999999424
  0
ARC
  5
14D
330
4A
100
AcDbEntity
  8
1
  6
Continuous
 62
     7
100
AcDbCircle
 10
147.3125508837339
 20
208.1420332961558
 30
0.0
 40
1.0
100
AcDbArc
 50
0.0
 51
90.0
  0
ARC
  5
14E
330
4A
100
AcDbEntity
  8
1
  6
Continuous
 62
     7
100
AcDbCircle
 10
158.0745099004562
 20
209.7002877419738
 30
0.0
 40
1.000000000000068
100
AcDbArc
 50
45.00000000000806
 51
134.9999999999919
  0
ARC
  5
14F
330
4A
100
AcDbEntity
  8
1
  6
Continuous
 62
     7
100
AcDbCircle
 10
164.5825118145801
 20
218.4119942270019
 30
0.0
 40
1.0
100
AcDbArc
 50
90.0
 51
180.0
  0
ARC
  5
150
330
4A
100
AcDbEntity
  8
1
  6
Continuous
 62
     7
100
AcDbCircle
 10
163.0242573687621
 20
229.1739532437243
 30
0.0
 40
0.9999999999999478
100
AcDbArc
 50
135.0000000000081
 51
225.0000000000035
  0
ARC
  5
151
330
4A
100
AcDbEntity
  8
1
  6
Continuous
 62
     7
100
AcDbCircle
 10
154.3125508837339
 20
235.6819551578482
 30
0.0
 40
1.0
100
AcDbArc
 50
180.0
 51
270.0
  0
ARC
  5
152
330
4A
100
AcDbEntity
  8
1
  6
Continuous
 62
     7
100
AcDbCircle
 10
143.5505918670117
 20
234.12370071203
 30
0.0
 40
0.9999999999999277
100
AcDbArc
 50
224.9999999999931
 51
315.0000000000035
  0
ARC
  5
153
330
4A
100
AcDbEntity
  8
1
  6
Continuous
 62
     7
100
AcDbCircle
 10
137.0425899528877
 20
218.4119942270019
 30
0.0
 40
1.0
100
AcDbArc
 50
0.0
 51
90.0
  0
ARC
  5
154
330
4A
100
AcDbEntity
  8
1
  6
Continuous
 62
     7
100
AcDbCircle
 10
143.5505918670117
 20
209.7002877419738
 30
0.0
 40
1.000000000000068
100
AcDbArc
 50
45.00000000000806
 51
134.9999999999954
  0
ARC
  5
155
330
4A
100
AcDbEntity
  8
1
  6
Continuous
 62
     7
100
AcDbCircle
 10
154.3125508837339
 20
208.1420332961558
 30
0.0
 40
1.0
100
AcDbArc
 50
90.0
 51
180.0
  0
ARC
  5
156
330
4A
100
AcDbEntity
  8
1
  6
Continuous
 62
     7
100
AcDbCircle
 10
163.0242573687621
 20
214.6500352102798
 30
0.0
 40
0.9999999999999277
100
AcDbArc
 50
135.0000000000092
 51
225.0000000000046
  0
ARC
  5
157
330
4A
100
AcDbEntity
  8
1
  6
Continuous
 62
     7
100
AcDbCircle
 10
164.5825118145801
 20
225.4119942270019
 30
0.0
 40
1.0
100
AcDbArc
 50
180.0
 51
270.0
  0
ARC
  5
158
330
4A
100
AcDbEntity
  8
1
  6
Continuous
 62
     7
100
AcDbCircle
 10
158.0745099004562
 20
234.12370071203
 30
0.0
 40
0.9999999999999478
100
AcDbArc
 50
224.9999999999919
 51
315.0000000000035
  0
ARC
  5
159
330
4A
100
AcDbEntity
  8
1
  6
Continuous
 62
     7
100
AcDbCircle
 10
147.3125508837339
 20
235.6819551578482
 30
0.0
 40
1.0
100
AcDbArc
 50
270.0
 51
0.0
  0
ARC
  5
15A
330
4A
100
AcDbEntity
  8
1
  6
Continuous
 62
     7
100
AcDbCircle
 10
126.9962974592234
 20
218.4119942270019
 30
0.0
 40
1.0
100
AcDbArc
 50
90.0
 51
180.0
  0
ARC
  5
15B
330
4A
100
AcDbEntity
  8
1
  6
Continuous
 62
     7
100
AcDbCircle
 10
136.4467903189581
 20
202.5964861939203
 30
0.0
 40
1.000000000000008
100
AcDbArc
 50
134.9999999999954
 51
225.0
  0
ARC
  5
15C
330
4A
100
AcDbEntity
  8
1
  6
Continuous
 62
     7
100
AcDbCircle
 10
154.3125508837339
 20
198.0957408024914
 30
0.0
 40
1.0
100
AcDbArc
 50
180.0
 51
270.0
  0
ARC
  5
15D
330
4A
100
AcDbEntity
  8
1
  6
Continuous
 62
     7
100
AcDbCircle
 10
170.1280589168156
 20
207.5462336622263
 30
0.0
 40
1.000000000000169
100
AcDbArc
 50
225.0000000000046
 51
314.9999999999908
  0
ARC
  5
15E
330
4A
100
AcDbEntity
  8
1
  6
Continuous
 62
     7
100
AcDbCircle
 10
174.6288043082444
 20
225.4119942270019
 30
0.0
 40
1.0
100
AcDbArc
 50
270.0
 51
0.0
  0
ARC
  5
15F
330
4A
100
AcDbEntity
  8
1
  6
Continuous
 62
     7
100
AcDbCircle
 10
165.1783114485097
 20
241.2275022600836
 30
0.0
 40
1.000000000000028
100
AcDbArc
 50
315.0000000000035
 51
44.99999999999885
  0
ARC
  5
160
330
4A
100
AcDbEntity
  8
1
  6
Continuous
 62
     7
100
AcDbCircle
 10
147.3125508837339
 20
245.7282476515124
 30
0.0
 40
1.0
100
AcDbArc
 50
0.0
 51
90.0
  0
ARC
  5
161
330
4A
100
AcDbEntity
  8
1
  6
Continuous
 62
     7
100
AcDbCircle
 10
131.4970428506523
 20
236.2777547917778
 30
0.0
 40
0.9999999999998673
100
AcDbArc
 50
44.99999999999655
 51
135.0000000000069
  0
ARC
  5
162
330
4A
100
AcDbEntity
  8
1
  6
Continuous
 62
     7
100
AcDbCircle
 10
138.6008443987058
 20
229.1739532437243
 30
0.0
 40
1.000000000000088
100
AcDbArc
 50
314.9999999999931
 51
44.9999999999954
  0
ARC
  5
163
330
4A
100
AcDbEntity
  8
1
  6
Continuous
 62
     7
100
AcDbCircle
 10
126.9962974592234
 20
225.4119942270019
 30
0.0
 40
1.0
100
AcDbArc
 50
180.0
 51
270.0
  0
ARC
  5
164
330
4A
100
AcDbEntity
  8
1
  6
Continuous
 62
     7
100
AcDbCircle
 10
137.0425899528877
 20
225.4119942270019
 30
0.0
 40
1.0
100
AcDbArc
 50
270.0
 51
0.0
  0
ARC
  5
165
330
4A
100
AcDbEntity
  8
1
  6
Continuous
 62
     7
100
AcDbCircle
 10
86.57081978619951
 20
149.2119942270019
 30
0.0
 40
0.5
100
AcDbArc
 50
270.0
 51
5.71059313751001
  0
ARC
  5
166
330
4A
100
AcDbEntity
  8
1
  6
Continuous
 62
     7
100
AcDbCircle
 10
94.33321243218293
 20
149.2119942270019
 30
0.0
 40
0.5
100
AcDbArc
 50
270.0
 51
358.975418566243
  0
ARC
  5
167
330
4A
100
AcDbEntity
  8
1
  6
Continuous
 62
     7
100
AcDbCircle
 10
49.09864288203633
 20
149.2119942270019
 30
0.0
 40
0.5000000000000353
100
AcDbArc
 50
174.28940686249
 51
270.0
  0
ARC
  5
168
330
4A
100
AcDbEntity
  8
1
  6
Continuous
 62
     7
100
AcDbCircle
 10
41.33625023605282
 20
149.2119942270019
 30
0.0
 40
0.5000000000000113
100
AcDbArc
 50
181.024581433757
 51
270.0
  0
ARC
  5
169
330
4A
100
AcDbEntity
  8
1
  6
Continuous
 62
     7
100
AcDbCircle
 10
169.5486393358127
 20
149.2119942270019
 30
0.0
 40
0.5
100
AcDbArc
 50
270.0
 51
5.71059313751034
  0
ARC
  5
16A
330
4A
100
AcDbEntity
  8
1
  6
Continuous
 62
     7
100
AcDbCircle
 10
177.3110319817961
 20
149.2119942270019
 30
0.0
 40
0.5
100
AcDbArc
 50
270.0
 51
358.975418566243
  0
ARC
  5
16B
330
4A
100
AcDbEntity
  8
1
  6
Continuous
 62
     7
100
AcDbCircle
 10
132.0764624316494
 20
149.2119942270019
 30
0.0
 40
0.500000000000007
100
AcDbArc
 50
174.2894068624897
 51
270.0
  0
ARC
  5
16C
330
4A
100
AcDbEntity
  8
1
  6
Continuous
 62
     7
100
AcDbCircle
 10
124.3140697856659
 20
149.2119942270019
 30
0.0
 40
0.4999999999999901
100
AcDbArc
 50
181.024581433757
 51
270.0
  0
ENDBLK
  5
4C
330
4A
100
AcDbEntity
  8
0
100
AcDbBlockEnd
  0
BLOCK
  5
4E
330
4D
100
AcDbEntity
  8
0
100
AcDbBlockBegin
  2
72-1
 70
     0
 10
225.6614195430176
 20
57.14281888804391
 30
0.0
  3
72-1
  1

  0
LINE
  5
16D
330
4D
100
AcDbEntity
  8
1
  6
Continuous
 62
     7
100
AcDbLine
 10
150.812550883734
 20
159.2119942270019
 30
0.0
 11
146.481300883734
 21
159.2119942270019
 31
0.0
  0
LINE
  5
16E
330
4D
100
AcDbEntity
  8
1
  6
Continuous
 62
     7
100
AcDbLine
 10
72.16598133411793
 20
159.2119942270019
 30
0.0
 11
67.83473133411792
 21
159.2119942270019
 31
0.0
  0
LINE
  5
16F
330
4D
100
AcDbEntity
  8
1
  6
Continuous
 62
     7
100
AcDbLine
 10
70.72223133411791
 20
156.611994227002
 30
0.0
 11
70.72223133411791
 21
155.0949557830374
 31
0.0
  0
LINE
  5
170
330
4D
100
AcDbEntity
  8
1
  6
Continuous
 62
     7
100
AcDbLine
 10
73.60973133411781
 20
156.611994227002
 30
0.0
 11
73.60973133411781
 21
154.2119942270019
 31
0.0
  0
LINE
  5
171
330
4D
100
AcDbEntity
  8
1
  6
Continuous
 62
     7
100
AcDbLine
 10
73.60973133411781
 20
158.7743045510535
 30
0.0
 11
73.60973133411781
 21
156.611994227002
 31
0.0
  0
LINE
  5
172
330
4D
100
AcDbEntity
  8
1
  6
Continuous
 62
     7
100
AcDbLine
 10
70.72223133411791
 20
158.7743045510535
 30
0.0
 11
70.72223133411791
 21
156.611994227002
 31
0.0
  0
LINE
  5
173
330
4D
100
AcDbEntity
  8
1
  6
Continuous
 62
     7
100
AcDbLine
 10
155.143800883734
 20
159.2119942270019
 30
0.0
 11
150.812550883734
 21
159.2119942270019
 31
0.0
  0
LINE
  5
174
330
4D
100
AcDbEntity
  8
1
  6
Continuous
 62
     7
100
AcDbLine
 10
67.83473133411792
 20
159.2119942270019
 30
0.0
 11
63.50348133411791
 21
159.2119942270019
 31
0.0
  0
LINE
  5
175
330
4D
100
AcDbEntity
  8
1
  6
Continuous
 62
     7
100
AcDbLine
 10
62.05973133411791
 20
154.2119942270019
 30
0.0
 11
62.05973133411791
 21
156.611994227002
 31
0.0
  0
LINE
  5
176
330
4D
100
AcDbEntity
  8
1
  6
Continuous
 62
     7
100
AcDbLine
 10
62.05973133411791
 20
154.2119942270019
 30
0.0
 11
64.71064249823041
 21
154.2119942270019
 31
0.0
  0
LINE
  5
177
330
4D
100
AcDbEntity
  8
1
  6
Continuous
 62
     7
100
AcDbLine
 10
62.05973133411791
 20
156.611994227002
 30
0.0
 11
62.05973133411791
 21
158.7743045510535
 31
0.0
  0
LINE
  5
178
330
4D
100
AcDbEntity
  8
1
  6
Continuous
 62
     7
100
AcDbLine
 10
64.94723133411793
 20
156.611994227002
 30
0.0
 11
64.94723133411793
 21
158.7743045510535
 31
0.0
  0
LINE
  5
179
330
4D
100
AcDbEntity
  8
1
  6
Continuous
 62
     7
100
AcDbLine
 10
145.8112541768787
 20
219.0244942270019
 30
0.0
 11
150.8125508837338
 21
216.1369942270021
 31
0.0
  0
LINE
  5
17A
330
4D
100
AcDbEntity
  8
1
  6
Continuous
 62
     7
100
AcDbLine
 10
150.8125508837338
 20
216.1369942270021
 30
0.0
 11
155.813847590589
 21
219.0244942270021
 31
0.0
  0
LINE
  5
17B
330
4D
100
AcDbEntity
  8
1
  6
Continuous
 62
     7
100
AcDbLine
 10
155.813847590589
 20
219.0244942270021
 30
0.0
 11
155.813847590589
 21
224.799494227002
 31
0.0
  0
LINE
  5
17C
330
4D
100
AcDbEntity
  8
1
  6
Continuous
 62
     7
100
AcDbLine
 10
155.813847590589
 20
224.799494227002
 30
0.0
 11
150.812550883734
 21
227.686994227002
 31
0.0
  0
LINE
  5
17D
330
4D
100
AcDbEntity
  8
1
  6
Continuous
 62
     7
100
AcDbLine
 10
150.812550883734
 20
227.686994227002
 30
0.0
 11
145.8112541768787
 21
224.799494227002
 31
0.0
  0
LINE
  5
17E
330
4D
100
AcDbEntity
  8
1
  6
Continuous
 62
     7
100
AcDbLine
 10
145.8112541768787
 20
224.799494227002
 30
0.0
 11
145.8112541768787
 21
219.0244942270019
 31
0.0
  0
LINE
  5
17F
330
4D
100
AcDbEntity
  8
1
  6
Continuous
 62
     7
100
AcDbLine
 10
155.8125508837339
 20
159.1245175477893
 30
0.0
 11
155.8125508837339
 21
154.2119942270019
 31
0.0
  0
LINE
  5
180
330
4D
100
AcDbEntity
  8
1
  6
Continuous
 62
     7
100
AcDbLine
 10
145.8125508837339
 20
159.1245175477893
 30
0.0
 11
145.8125508837339
 21
158.7743045510535
 31
0.0
  0
LINE
  5
181
330
4D
100
AcDbEntity
  8
1
  6
Continuous
 62
     7
100
AcDbLine
 10
70.95882017000531
 20
154.2119942270019
 30
0.0
 11
73.60973133411781
 21
154.2119942270019
 31
0.0
  0
LINE
  5
182
330
4D
100
AcDbEntity
  8
1
  6
Continuous
 62
     7
100
AcDbLine
 10
64.94723133411793
 20
155.0949557830374
 30
0.0
 11
64.94723133411793
 21
156.611994227002
 31
0.0
  0
LINE
  5
183
330
4D
100
AcDbEntity
  8
1
  6
Continuous
 62
     7
100
AcDbLine
 10
155.8125508837339
 20
154.2119942270019
 30
0.0
 11
153.9366397196185
 21
154.2119942270019
 31
0.0
  0
LINE
  5
184
330
4D
100
AcDbEntity
  8
1
  6
Continuous
 62
     7
100
AcDbLine
 10
145.8125508837339
 20
158.7743045510535
 30
0.0
 11
145.8125508837339
 21
154.2119942270019
 31
0.0
  0
LINE
  5
185
330
4D
100
AcDbEntity
  8
1
  6
Continuous
 62
     7
100
AcDbLine
 10
150.8125508837339
 20
158.7743045510535
 30
0.0
 11
150.8125508837339
 21
158.7119942270019
 31
0.0
  0
LINE
  5
186
330
4D
100
AcDbEntity
  8
1
  6
Continuous
 62
     7
100
AcDbLine
 10
147.6884620478436
 20
154.2119942270019
 30
0.0
 11
145.8125508837339
 21
154.2119942270019
 31
0.0
  0
ARC
  5
187
330
4D
100
AcDbEntity
  8
1
  6
Continuous
 62
     7
100
AcDbCircle
 10
72.16598133411793
 20
156.611994227002
 30
0.0
 40
2.59999999999988
100
AcDbArc
 50
56.26941440712155
 51
123.7305855928811
  0
ARC
  5
188
330
4D
100
AcDbEntity
  8
1
  6
Continuous
 62
     7
100
AcDbCircle
 10
67.83473133411792
 20
149.4685287409246
 30
0.0
 40
9.743465486077323
100
AcDbArc
 50
72.76134526606393
 51
90.0
  0
ARC
  5
189
330
4D
100
AcDbEntity
  8
1
  6
Continuous
 62
     7
100
AcDbCircle
 10
155.143800883734
 20
156.611994227002
 30
0.0
 40
2.600000000000006
100
AcDbArc
 50
75.0953311937764
 51
90.0
  0
ARC
  5
18A
330
4D
100
AcDbEntity
  8
1
  6
Continuous
 62
     7
100
AcDbCircle
 10
63.50348133411791
 20
156.611994227002
 30
0.0
 40
2.599999999999959
100
AcDbArc
 50
56.26941440711896
 51
123.7305855928805
  0
ARC
  5
18B
330
4D
100
AcDbEntity
  8
1
  6
Continuous
 62
     7
100
AcDbCircle
 10
67.83473133411792
 20
149.4685287409246
 30
0.0
 40
9.743465486077298
100
AcDbArc
 50
90.0
 51
107.2386547339361
  0
ARC
  5
18C
330
4D
100
AcDbEntity
  8
1
  6
Continuous
 62
     7
100
AcDbCircle
 10
146.481300883734
 20
156.611994227002
 30
0.0
 40
2.599999999999909
100
AcDbArc
 50
90.0
 51
104.9046688062279
  0
ARC
  5
18D
330
4D
100
AcDbEntity
  8
1
  6
Continuous
 62
     7
100
AcDbCircle
 10
148.3125508837339
 20
151.8534266523201
 30
0.0
 40
7.3585698942917
100
AcDbArc
 50
70.13897017445515
 51
109.8610298255448
  0
ARC
  5
18E
330
4D
100
AcDbEntity
  8
1
  6
Continuous
 62
     7
100
AcDbCircle
 10
153.3125508837339
 20
151.8534266523201
 30
0.0
 40
7.3585698942917
100
AcDbArc
 50
70.13897017445515
 51
109.8610298255448
  0
CIRCLE
  5
18F
330
4D
100
AcDbEntity
  8
1
  6
Continuous
 62
     7
100
AcDbCircle
 10
150.8125508837339
 20
221.9119942270019
 30
0.0
 40
2.499999999999915
  0
CIRCLE
  5
190
330
4D
100
AcDbEntity
  8
1
  6
Continuous
 62
     2
100
AcDbCircle
 10
150.8125508837339
 20
221.9119942270019
 30
0.0
 40
2.999999999999915
  0
ENDBLK
  5
4F
330
4D
100
AcDbEntity
  8
0
100
AcDbBlockEnd
  0
BLOCK
  5
51
330
50
100
AcDbEntity
  8
0
100
AcDbBlockBegin
  2
36-39-13
 70
     0
 10
318.1945729106195
 20
122.889077599358
 30
0.0
  3
36-39-13
  1

  0
LINE
  5
191
330
50
100
AcDbEntity
  8
0
  6
PHANTOM
 62
     4
100
AcDbLine
 10
63.83473133411792
 20
144.7119942270019
 30
0.0
 11
71.83473133411792
 21
144.7119942270019
 31
0.0
  0
LINE
  5
192
330
50
100
AcDbEntity
  8
0
  6
PHANTOM
 62
     4
100
AcDbLine
 10
64.58473133411792
 20
152.2119942270019
 30
0.0
 11
65.50288657084553
 21
152.2119942270019
 31
0.0
  0
LINE
  5
193
330
50
100
AcDbEntity
  8
0
  6
PHANTOM
 62
     4
100
AcDbLine
 10
71.08473133411783
 20
152.2119942270019
 30
0.0
 11
70.16657609739002
 21
152.2119942270019
 31
0.0
  0
LINE
  5
194
330
50
100
AcDbEntity
  8
1
  6
PHANTOM
 62
     4
100
AcDbLine
 10
70.83473133411783
 20
153.1490337138968
 30
0.0
 11
70.83473133411783
 21
152.2119942270019
 31
0.0
  0
LINE
  5
195
330
50
100
AcDbEntity
  8
1
  6
PHANTOM
 62
     4
100
AcDbLine
 10
70.29373133411792
 20
153.1490337138968
 30
0.0
 11
70.83473133411783
 21
152.2119942270019
 31
0.0
  0
LINE
  5
196
330
50
100
AcDbEntity
  8
1
  6
PHANTOM
 62
     4
100
AcDbLine
 10
64.83473133411792
 20
152.2119942270019
 30
0.0
 11
65.37573133411783
 21
153.1490337138968
 31
0.0
  0
LINE
  5
197
330
50
100
AcDbEntity
  8
1
  6
PHANTOM
 62
     4
100
AcDbLine
 10
64.83473133411792
 20
152.2119942270019
 30
0.0
 11
64.83473133411792
 21
153.1490337138968
 31
0.0
  0
LINE
  5
198
330
50
100
AcDbEntity
  8
1
  6
PHANTOM
 62
     4
100
AcDbLine
 10
64.83473133411792
 20
153.1490337138968
 30
0.0
 11
65.37573133411783
 21
153.1490337138968
 31
0.0
  0
LINE
  5
199
330
50
100
AcDbEntity
  8
1
  6
PHANTOM
 62
     4
100
AcDbLine
 10
64.83473133411792
 20
153.1490337138968
 30
0.0
 11
64.83473133411792
 21
158.4119942270019
 31
0.0
  0
LINE
  5
19A
330
50
100
AcDbEntity
  8
1
  6
PHANTOM
 62
     4
100
AcDbLine
 10
67.83473133411792
 20
159.2119942270019
 30
0.0
 11
65.63473133411782
 21
159.2119942270019
 31
0.0
  0
LINE
  5
19B
330
50
100
AcDbEntity
  8
1
  6
PHANTOM
 62
     4
100
AcDbLine
 10
65.63473133411782
 20
159.2119942270019
 30
0.0
 11
65.37573133411783
 21
158.9529942270019
 31
0.0
  0
LINE
  5
19C
330
50
100
AcDbEntity
  8
1
  6
PHANTOM
 62
     4
100
AcDbLine
 10
65.37573133411783
 20
153.1490337138968
 30
0.0
 11
65.37573133411783
 21
158.9529942270019
 31
0.0
  0
LINE
  5
19D
330
50
100
AcDbEntity
  8
1
  6
PHANTOM
 62
     4
100
AcDbLine
 10
65.37573133411783
 20
158.9529942270019
 30
0.0
 11
64.83473133411792
 21
158.4119942270019
 31
0.0
  0
LINE
  5
19E
330
50
100
AcDbEntity
  8
1
  6
PHANTOM
 62
     4
100
AcDbLine
 10
70.83473133411783
 20
158.4119942270019
 30
0.0
 11
64.83473133411792
 21
158.4119942270019
 31
0.0
  0
LINE
  5
19F
330
50
100
AcDbEntity
  8
1
  6
PHANTOM
 62
     4
100
AcDbLine
 10
70.83473133411783
 20
158.4119942270019
 30
0.0
 11
70.29373133411792
 21
158.9529942270019
 31
0.0
  0
LINE
  5
1A0
330
50
100
AcDbEntity
  8
1
  6
PHANTOM
 62
     4
100
AcDbLine
 10
70.29373133411792
 20
153.1490337138968
 30
0.0
 11
65.37573133411783
 21
153.1490337138968
 31
0.0
  0
LINE
  5
1A1
330
50
100
AcDbEntity
  8
1
  6
PHANTOM
 62
     4
100
AcDbLine
 10
70.29373133411792
 20
158.9529942270019
 30
0.0
 11
70.29373133411792
 21
153.1490337138968
 31
0.0
  0
LINE
  5
1A2
330
50
100
AcDbEntity
  8
1
  6
PHANTOM
 62
     4
100
AcDbLine
 10
70.29373133411792
 20
158.9529942270019
 30
0.0
 11
70.03473133411791
 21
159.2119942270019
 31
0.0
  0
LINE
  5
1A3
330
50
100
AcDbEntity
  8
1
  6
PHANTOM
 62
     4
100
AcDbLine
 10
70.03473133411791
 20
159.2119942270019
 30
0.0
 11
67.83473133411792
 21
159.2119942270019
 31
0.0
  0
LINE
  5
1A4
330
50
100
AcDbEntity
  8
1
  6
PHANTOM
 62
     4
100
AcDbLine
 10
70.83473133411783
 20
158.4119942270019
 30
0.0
 11
70.83473133411783
 21
153.1490337138968
 31
0.0
  0
LINE
  5
1A5
330
50
100
AcDbEntity
  8
1
  6
PHANTOM
 62
     4
100
AcDbLine
 10
70.29373133411792
 20
153.1490337138968
 30
0.0
 11
70.83473133411783
 21
153.1490337138968
 31
0.0
  0
LINE
  5
1A6
330
50
100
AcDbEntity
  8
0
  6
PHANTOM
 62
     4
100
AcDbLine
 10
154.7595111673743
 20
152.2119942270019
 30
0.0
 11
151.9181182241239
 21
144.7119942270018
 31
0.0
  0
LINE
  5
1A7
330
50
100
AcDbEntity
  8
0
  6
PHANTOM
 62
     4
100
AcDbLine
 10
151.461784677806
 20
152.2119942270019
 30
0.0
 11
154.6567310116497
 21
144.7119942270019
 31
0.0
  0
LINE
  5
1A8
330
50
100
AcDbEntity
  8
0
  6
PHANTOM
 62
     4
100
AcDbLine
 10
151.9181182241239
 20
144.7119942270018
 30
0.0
 11
151.461784677806
 21
152.2119942270019
 31
0.0
  0
LINE
  5
1A9
330
50
100
AcDbEntity
  8
0
  6
PHANTOM
 62
     4
100
AcDbLine
 10
150.1633170896618
 20
152.2119942270019
 30
0.0
 11
149.706983543344
 21
144.7119942270018
 31
0.0
  0
LINE
  5
1AA
330
50
100
AcDbEntity
  8
1
  6
Continuous
 62
     4
100
AcDbLine
 10
149.706983543344
 20
144.7119942270018
 30
0.0
 11
148.8760592106301
 21
144.7119942270019
 31
0.0
  0
LINE
  5
1AB
330
50
100
AcDbEntity
  8
0
  6
PHANTOM
 62
     4
100
AcDbLine
 10
149.706983543344
 20
144.7119942270018
 30
0.0
 11
146.8655906000936
 21
152.2119942270019
 31
0.0
  0
LINE
  5
1AC
330
50
100
AcDbEntity
  8
0
  6
PHANTOM
 62
     4
100
AcDbLine
 10
146.9683707558181
 20
144.7119942270019
 30
0.0
 11
150.1633170896618
 21
152.2119942270019
 31
0.0
  0
LINE
  5
1AD
330
50
100
AcDbEntity
  8
1
  6
PHANTOM
 62
     4
100
AcDbLine
 10
147.3125508837339
 20
152.2119942270019
 30
0.0
 11
150.1633170896618
 21
152.2119942270019
 31
0.0
  0
LINE
  5
1AE
330
50
100
AcDbEntity
  8
1
  6
Continuous
 62
     7
100
AcDbLine
 10
146.9683707558181
 20
144.7119942270019
 30
0.0
 11
146.8655906000936
 21
144.7119942270019
 31
0.0
  0
LINE
  5
1AF
330
50
100
AcDbEntity
  8
1
  6
PHANTOM
 62
     4
100
AcDbLine
 10
65.50288657084553
 20
152.2119942270019
 30
0.0
 11
69.77122300722161
 21
144.7119942270009
 31
0.0
  0
LINE
  5
1B0
330
50
100
AcDbEntity
  8
1
  6
PHANTOM
 62
     4
100
AcDbLine
 10
70.16657609739002
 20
152.2119942270019
 30
0.0
 11
65.89823966101412
 21
144.7119942270019
 31
0.0
  0
LINE
  5
1B1
330
50
100
AcDbEntity
  8
1
  6
PHANTOM
 62
     4
100
AcDbLine
 10
64.33473133411792
 20
144.7119942270019
 30
0.0
 11
64.58473133411792
 21
152.2119942270019
 31
0.0
  0
LINE
  5
1B2
330
50
100
AcDbEntity
  8
1
  6
PHANTOM
 62
     4
100
AcDbLine
 10
148.8760592106301
 20
144.7119942270019
 30
0.0
 11
148.8760592106301
 21
144.7119942270019
 31
0.0
  0
LINE
  5
1B3
330
50
100
AcDbEntity
  8
1
  6
PHANTOM
 62
     4
100
AcDbLine
 10
147.8125508837339
 20
152.2119942270019
 30
0.0
 11
147.8125508837339
 21
153.1490337138968
 31
0.0
  0
LINE
  5
1B4
330
50
100
AcDbEntity
  8
1
  6
PHANTOM
 62
     4
100
AcDbLine
 10
148.8760592106301
 20
144.7119942270019
 30
0.0
 11
148.8760592106301
 21
144.7119942270019
 31
0.0
  0
LINE
  5
1B5
330
50
100
AcDbEntity
  8
1
  6
PHANTOM
 62
     4
100
AcDbLine
 10
147.8125508837339
 20
152.2119942270019
 30
0.0
 11
148.3535508837339
 21
153.1490337138968
 31
0.0
  0
LINE
  5
1B6
330
50
100
AcDbEntity
  8
1
  6
PHANTOM
 62
     4
100
AcDbLine
 10
147.8125508837339
 20
153.1490337138968
 30
0.0
 11
148.3535508837339
 21
153.1490337138968
 31
0.0
  0
LINE
  5
1B7
330
50
100
AcDbEntity
  8
1
  6
PHANTOM
 62
     4
100
AcDbLine
 10
147.8125508837339
 20
153.1490337138968
 30
0.0
 11
147.8125508837339
 21
158.4119942270019
 31
0.0
  0
LINE
  5
1B8
330
50
100
AcDbEntity
  8
1
  6
PHANTOM
 62
     4
100
AcDbLine
 10
150.8125508837339
 20
159.2119942270019
 30
0.0
 11
148.6125508837339
 21
159.2119942270019
 31
0.0
  0
LINE
  5
1B9
330
50
100
AcDbEntity
  8
1
  6
PHANTOM
 62
     4
100
AcDbLine
 10
148.6125508837339
 20
159.2119942270019
 30
0.0
 11
148.3535508837339
 21
158.9529942270019
 31
0.0
  0
LINE
  5
1BA
330
50
100
AcDbEntity
  8
1
  6
PHANTOM
 62
     4
100
AcDbLine
 10
148.3535508837339
 20
153.1490337138968
 30
0.0
 11
148.3535508837339
 21
158.9529942270019
 31
0.0
  0
LINE
  5
1BB
330
50
100
AcDbEntity
  8
1
  6
PHANTOM
 62
     4
100
AcDbLine
 10
148.3535508837339
 20
158.9529942270019
 30
0.0
 11
147.8125508837339
 21
158.4119942270019
 31
0.0
  0
LINE
  5
1BC
330
50
100
AcDbEntity
  8
1
  6
PHANTOM
 62
     4
100
AcDbLine
 10
153.8125508837339
 20
158.4119942270019
 30
0.0
 11
147.8125508837339
 21
158.4119942270019
 31
0.0
  0
LINE
  5
1BD
330
50
100
AcDbEntity
  8
1
  6
PHANTOM
 62
     4
100
AcDbLine
 10
153.8125508837339
 20
158.4119942270019
 30
0.0
 11
153.271550883734
 21
158.9529942270019
 31
0.0
  0
LINE
  5
1BE
330
50
100
AcDbEntity
  8
1
  6
PHANTOM
 62
     4
100
AcDbLine
 10
153.271550883734
 20
153.1490337138968
 30
0.0
 11
148.3535508837339
 21
153.1490337138968
 31
0.0
  0
LINE
  5
1BF
330
50
100
AcDbEntity
  8
1
  6
PHANTOM
 62
     4
100
AcDbLine
 10
153.271550883734
 20
158.9529942270019
 30
0.0
 11
153.271550883734
 21
153.1490337138968
 31
0.0
  0
LINE
  5
1C0
330
50
100
AcDbEntity
  8
1
  6
PHANTOM
 62
     4
100
AcDbLine
 10
153.271550883734
 20
158.9529942270019
 30
0.0
 11
153.012550883734
 21
159.2119942270019
 31
0.0
  0
LINE
  5
1C1
330
50
100
AcDbEntity
  8
1
  6
PHANTOM
 62
     4
100
AcDbLine
 10
153.012550883734
 20
159.2119942270019
 30
0.0
 11
150.8125508837339
 21
159.2119942270019
 31
0.0
  0
LINE
  5
1C2
330
50
100
AcDbEntity
  8
1
  6
PHANTOM
 62
     4
100
AcDbLine
 10
153.8125508837339
 20
158.4119942270019
 30
0.0
 11
153.8125508837339
 21
153.1490337138968
 31
0.0
  0
LINE
  5
1C3
330
50
100
AcDbEntity
  8
1
  6
PHANTOM
 62
     4
100
AcDbLine
 10
153.271550883734
 20
153.1490337138968
 30
0.0
 11
153.8125508837339
 21
153.1490337138968
 31
0.0
  0
LINE
  5
1C4
330
50
100
AcDbEntity
  8
1
  6
PHANTOM
 62
     4
100
AcDbLine
 10
153.271550883734
 20
153.1490337138968
 30
0.0
 11
153.8125508837339
 21
152.2119942270019
 31
0.0
  0
LINE
  5
1C5
330
50
100
AcDbEntity
  8
1
  6
PHANTOM
 62
     4
100
AcDbLine
 10
70.16657609739002
 20
152.2119942270019
 30
0.0
 11
65.50288657084553
 21
152.2119942270019
 31
0.0
  0
LINE
  5
1C6
330
50
100
AcDbEntity
  8
1
  6
PHANTOM
 62
     4
100
AcDbLine
 10
153.8125508837339
 20
153.1490337138968
 30
0.0
 11
153.8125508837339
 21
152.2119942270019
 31
0.0
  0
LINE
  5
1C7
330
50
100
AcDbEntity
  8
1
  6
PHANTOM
 62
     4
100
AcDbLine
 10
71.08473133411783
 20
152.2119942270019
 30
0.0
 11
71.33473133411783
 21
144.7119942270019
 31
0.0
  0
LINE
  5
1C8
330
50
100
AcDbEntity
  8
1
  6
Continuous
 62
     7
100
AcDbLine
 10
63.83473133411792
 20
144.7119942270019
 30
0.0
 11
63.83473133411792
 21
136.4330708324986
 31
0.0
  0
LINE
  5
1C9
330
50
100
AcDbEntity
  8
1
  6
Continuous
 62
     7
100
AcDbLine
 10
71.83473133411792
 20
136.4330708324986
 30
0.0
 11
71.83473133411792
 21
144.7119942270019
 31
0.0
  0
LINE
  5
1CA
330
50
100
AcDbEntity
  8
1
  6
PHANTOM
 62
     4
100
AcDbLine
 10
154.3125508837339
 20
152.2119942270019
 30
0.0
 11
150.1633170896618
 21
152.2119942270019
 31
0.0
  0
LINE
  5
1CB
330
50
100
AcDbEntity
  8
1
  6
PHANTOM
 62
     4
100
AcDbLine
 10
146.8655906000936
 20
152.2119942270019
 30
0.0
 11
147.3125508837339
 21
152.2119942270019
 31
0.0
  0
LINE
  5
1CC
330
50
100
AcDbEntity
  8
1
  6
PHANTOM
 62
     4
100
AcDbLine
 10
154.3125508837339
 20
152.2119942270019
 30
0.0
 11
154.7595111673743
 21
152.2119942270019
 31
0.0
  0
LINE
  5
1CD
330
50
100
AcDbEntity
  8
1
  6
PHANTOM
 62
     4
100
AcDbLine
 10
146.8655906000936
 20
152.2119942270019
 30
0.0
 11
146.9683707558181
 21
144.7119942270019
 31
0.0
  0
LINE
  5
1CE
330
50
100
AcDbEntity
  8
1
  6
PHANTOM
 62
     4
100
AcDbLine
 10
154.7595111673743
 20
152.2119942270019
 30
0.0
 11
154.6567310116497
 21
144.7119942270019
 31
0.0
  0
LINE
  5
1CF
330
50
100
AcDbEntity
  8
1
  6
PHANTOM
 62
     4
100
AcDbLine
 10
151.9181182241239
 20
144.7119942270018
 30
0.0
 11
154.8125508837339
 21
144.7119942270009
 31
0.0
  0
LINE
  5
1D0
330
50
100
AcDbEntity
  8
1
  6
Continuous
 62
     7
100
AcDbLine
 10
154.8125508837339
 20
144.7119942270009
 30
0.0
 11
154.8125508837339
 21
136.4150646516489
 31
0.0
  0
LINE
  5
1D1
330
50
100
AcDbEntity
  8
1
  6
PHANTOM
 62
     4
100
AcDbLine
 10
148.8760592106301
 20
144.7119942270019
 30
0.0
 11
146.9683707558181
 21
144.7119942270019
 31
0.0
  0
LINE
  5
1D2
330
50
100
AcDbEntity
  8
1
  6
Continuous
 62
     7
100
AcDbLine
 10
146.8125508837339
 20
144.7119942270019
 30
0.0
 11
146.8125508837339
 21
136.4150646516489
 31
0.0
  0
LINE
  5
1D3
330
50
100
AcDbEntity
  8
0
  6
PHANTOM
 62
     4
100
AcDbLine
 10
146.8655906000936
 20
152.2119942270019
 30
0.0
 11
146.8655906000936
 21
144.7119942270019
 31
0.0
  0
LINE
  5
1D4
330
50
100
AcDbEntity
  8
1
  6
Continuous
 62
     7
100
AcDbLine
 10
146.8655906000936
 20
144.7119942270019
 30
0.0
 11
146.8125508837339
 21
144.7119942270019
 31
0.0
  0
LINE
  5
1D5
330
50
100
AcDbEntity
  8
0
  6
PHANTOM
 62
     4
100
AcDbLine
 10
154.7595111673743
 20
144.7119942270019
 30
0.0
 11
154.7595111673743
 21
152.2119942270019
 31
0.0
  0
ARC
  5
1D6
330
50
100
AcDbEntity
  8
1
  6
PHANTOM
 62
     4
100
AcDbCircle
 10
617.5161924784715
 20
177.5502627965688
 30
0.0
 40
552.5945328657981
100
AcDbArc
 50
182.6281205779632
 51
183.40684395685
  0
ARC
  5
1D7
330
50
100
AcDbEntity
  8
1
  6
PHANTOM
 62
     4
100
AcDbCircle
 10
-481.8467298102355
 20
177.5502627965684
 30
0.0
 40
552.5945328657978
100
AcDbArc
 50
356.59315604315
 51
357.3718794220368
  0
ENDBLK
  5
52
330
50
100
AcDbEntity
  8
0
100
AcDbBlockEnd
  0
BLOCK
  5
54
330
53
100
AcDbEntity
  8
0
100
AcDbBlockBegin
  2
32-48-13
 70
     0
 10
473.6324317702582
 20
125.8298431803122
 30
0.0
  3
32-48-13
  1

  0
LINE
  5
1D8
330
53
100
AcDbEntity
  8
0
  6
Continuous
 62
     7
100
AcDbLine
 10
67.83473133412082
 20
135.655875273094
 30
0.0
 11
67.83473133412082
 21
126.1742540302037
 31
0.0
  0
LINE
  5
1D9
330
53
100
AcDbEntity
  8
0
  6
Continuous
 62
     7
100
AcDbLine
 10
67.83473133411792
 20
136.4150646516489
 30
0.0
 11
75.01977675789422
 21
136.4150646516489
 31
0.0
  0
LINE
  5
1DA
330
53
100
AcDbEntity
  8
0
  6
Continuous
 62
     7
100
AcDbLine
 10
76.33473133411792
 20
126.1742540302037
 30
0.0
 11
76.33473133411502
 21
126.1742540302037
 31
0.0
  0
LINE
  5
1DB
330
53
100
AcDbEntity
  8
1
  6
Continuous
 62
     7
100
AcDbLine
 10
75.01977675789422
 20
125.4150646516489
 30
0.0
 11
76.33473133411502
 21
126.1742540302037
 31
0.0
  0
LINE
  5
1DC
330
53
100
AcDbEntity
  8
0
  6
Continuous
 62
     7
100
AcDbLine
 10
76.33473133411502
 20
126.1742540302037
 30
0.0
 11
76.33473133411792
 21
135.655875273094
 31
0.0
  0
LINE
  5
1DD
330
53
100
AcDbEntity
  8
1
  6
Continuous
 62
     7
100
AcDbLine
 10
60.64968591034153
 20
125.4150646516489
 30
0.0
 11
75.01977675789422
 21
125.4150646516489
 31
0.0
  0
LINE
  5
1DE
330
53
100
AcDbEntity
  8
1
  6
Continuous
 62
     7
100
AcDbLine
 10
76.33473133411792
 20
135.655875273094
 30
0.0
 11
75.01977675789422
 21
136.4150646516489
 31
0.0
  0
LINE
  5
1DF
330
53
100
AcDbEntity
  8
1
  6
Continuous
 62
     7
100
AcDbLine
 10
76.33473133411502
 20
126.1742540302037
 30
0.0
 11
76.33473133411792
 21
126.1742540302037
 31
0.0
  0
LINE
  5
1E0
330
53
100
AcDbEntity
  8
0
  6
Continuous
 62
     7
100
AcDbLine
 10
60.64968591034153
 20
136.4150646516489
 30
0.0
 11
67.83473133411792
 21
136.4150646516489
 31
0.0
  0
LINE
  5
1E1
330
53
100
AcDbEntity
  8
0
  6
Continuous
 62
     7
100
AcDbLine
 10
59.33473133412082
 20
126.1742540302037
 30
0.0
 11
59.33473133411792
 21
126.1742540302037
 31
0.0
  0
LINE
  5
1E2
330
53
100
AcDbEntity
  8
1
  6
Continuous
 62
     7
100
AcDbLine
 10
59.33473133412082
 20
126.1742540302037
 30
0.0
 11
60.64968591034153
 21
125.4150646516489
 31
0.0
  0
LINE
  5
1E3
330
53
100
AcDbEntity
  8
0
  6
Continuous
 62
     7
100
AcDbLine
 10
59.33473133411792
 20
135.655875273094
 30
0.0
 11
59.33473133412082
 21
126.1742540302037
 31
0.0
  0
LINE
  5
1E4
330
53
100
AcDbEntity
  8
1
  6
Continuous
 62
     7
100
AcDbLine
 10
60.64968591034153
 20
136.4150646516489
 30
0.0
 11
59.33473133411792
 21
135.655875273094
 31
0.0
  0
LINE
  5
1E5
330
53
100
AcDbEntity
  8
1
  6
Continuous
 62
     7
100
AcDbLine
 10
59.33473133411792
 20
126.1742540302037
 30
0.0
 11
59.33473133412082
 21
126.1742540302037
 31
0.0
  0
LINE
  5
1E6
330
53
100
AcDbEntity
  8
1
  6
Continuous
 62
     7
100
AcDbLine
 10
159.3125508837339
 20
125.4150646516489
 30
0.0
 11
160.6275054599576
 21
126.1742540302037
 31
0.0
  0
LINE
  5
1E7
330
53
100
AcDbEntity
  8
1
  6
Continuous
 62
     7
100
AcDbLine
 10
160.6275054599576
 20
126.1742540302037
 30
0.0
 11
160.6275054599576
 21
135.655875273094
 31
0.0
  0
LINE
  5
1E8
330
53
100
AcDbEntity
  8
1
  6
Continuous
 62
     7
100
AcDbLine
 10
160.6275054599576
 20
135.655875273094
 30
0.0
 11
159.3125508837339
 21
136.4150646516489
 31
0.0
  0
LINE
  5
1E9
330
53
100
AcDbEntity
  8
1
  6
Continuous
 62
     7
100
AcDbLine
 10
159.3125508837339
 20
136.4150646516489
 30
0.0
 11
146.8125508837339
 21
136.4150646516489
 31
0.0
  0
LINE
  5
1EA
330
53
100
AcDbEntity
  8
1
  6
Continuous
 62
     7
100
AcDbLine
 10
155.7200281718458
 20
213.4119942270017
 30
0.0
 11
158.8954546523889
 21
218.9119942270019
 31
0.0
  0
LINE
  5
1EB
330
53
100
AcDbEntity
  8
1
  6
Continuous
 62
     7
100
AcDbLine
 10
140.9975963075104
 20
221.9119942270017
 30
0.0
 11
144.1730227880532
 21
216.4119942270019
 31
0.0
  0
LINE
  5
1EC
330
53
100
AcDbEntity
  8
1
  6
Continuous
 62
     7
100
AcDbLine
 10
155.7200281718458
 20
230.4119942270017
 30
0.0
 11
149.36917521076
 21
230.4119942270017
 31
0.0
  0
LINE
  5
1ED
330
53
100
AcDbEntity
  8
1
  6
Continuous
 62
     7
100
AcDbLine
 10
142.3125508837339
 20
125.4150646516489
 30
0.0
 11
143.312550883734
 21
125.4150646516489
 31
0.0
  0
LINE
  5
1EE
330
53
100
AcDbEntity
  8
1
  6
Continuous
 62
     7
100
AcDbLine
 10
140.9975963075103
 20
126.1742540302037
 30
0.0
 11
142.3125508837339
 21
125.4150646516489
 31
0.0
  0
LINE
  5
1EF
330
53
100
AcDbEntity
  8
1
  6
Continuous
 62
     7
100
AcDbLine
 10
140.9975963075103
 20
135.655875273094
 30
0.0
 11
140.9975963075103
 21
126.1742540302037
 31
0.0
  0
LINE
  5
1F0
330
53
100
AcDbEntity
  8
1
  6
Continuous
 62
     7
100
AcDbLine
 10
142.3125508837339
 20
136.4150646516489
 30
0.0
 11
140.9975963075103
 21
135.655875273094
 31
0.0
  0
LINE
  5
1F1
330
53
100
AcDbEntity
  8
1
  6
Continuous
 62
     7
100
AcDbLine
 10
143.312550883734
 20
125.4150646516489
 30
0.0
 11
159.3125508837339
 21
125.4150646516489
 31
0.0
  0
LINE
  5
1F2
330
53
100
AcDbEntity
  8
1
  6
Continuous
 62
     7
100
AcDbLine
 10
146.8125508837339
 20
136.4150646516489
 30
0.0
 11
142.3125508837339
 21
136.4150646516489
 31
0.0
  0
LINE
  5
1F3
330
53
100
AcDbEntity
  8
1
  6
Continuous
 62
     7
100
AcDbLine
 10
153.8125508837339
 20
213.4119942270019
 30
0.0
 11
155.7200281718458
 21
213.4119942270017
 31
0.0
  0
LINE
  5
1F4
330
53
100
AcDbEntity
  8
1
  6
Continuous
 62
     7
100
AcDbLine
 10
155.7200281718458
 20
135.655875273094
 30
0.0
 11
155.7200281718458
 21
126.1742540302037
 31
0.0
  0
LINE
  5
1F5
330
53
100
AcDbEntity
  8
1
  6
Continuous
 62
     7
100
AcDbLine
 10
145.9050735956221
 20
135.655875273094
 30
0.0
 11
145.9050735956221
 21
126.1742540302037
 31
0.0
  0
LINE
  5
1F6
330
53
100
AcDbEntity
  8
1
  6
Continuous
 62
     7
100
AcDbLine
 10
158.8954546523886
 20
224.9119942270019
 30
0.0
 11
155.7200281718458
 21
230.4119942270017
 31
0.0
  0
LINE
  5
1F7
330
53
100
AcDbEntity
  8
1
  6
Continuous
 62
     7
100
AcDbLine
 10
144.1730227880533
 20
227.4119942270019
 30
0.0
 11
140.9975963075104
 21
221.9119942270017
 31
0.0
  0
LINE
  5
1F8
330
53
100
AcDbEntity
  8
1
  6
Continuous
 62
     7
100
AcDbLine
 10
149.3691752107598
 20
213.4119942270017
 30
0.0
 11
153.8125508837339
 21
213.4119942270019
 31
0.0
  0
ARC
  5
1F9
330
53
100
AcDbEntity
  8
0
  6
Continuous
 62
     7
100
AcDbCircle
 10
72.08473133411792
 20
124.4242540302042
 30
0.0
 40
12.00882241286418
100
AcDbArc
 50
69.27356040499026
 51
110.7264395950097
  0
ARC
  5
1FA
330
53
100
AcDbEntity
  8
0
  6
Continuous
 62
     7
100
AcDbCircle
 10
72.08473133411792
 20
137.4058752730935
 30
0.0
 40
12.00882241286417
100
AcDbArc
 50
249.2735604049902
 51
290.7264395950098
  0
ARC
  5
1FB
330
53
100
AcDbEntity
  8
0
  6
Continuous
 62
     7
100
AcDbCircle
 10
63.58473133411792
 20
124.4242540302042
 30
0.0
 40
12.00882241286418
100
AcDbArc
 50
69.27356040499026
 51
110.7264395950097
  0
ARC
  5
1FC
330
53
100
AcDbEntity
  8
0
  6
Continuous
 62
     7
100
AcDbCircle
 10
63.58473133411792
 20
137.4058752730935
 30
0.0
 40
12.00882241286417
100
AcDbArc
 50
249.2735604049902
 51
290.7264395950098
  0
ARC
  5
1FD
330
53
100
AcDbEntity
  8
1
  6
Continuous
 62
     7
100
AcDbCircle
 10
150.812550883734
 20
120.1742540302053
 30
0.0
 40
16.24081062144363
100
AcDbArc
 50
72.41204622600456
 51
107.5879537739957
  0
ARC
  5
1FE
330
53
100
AcDbEntity
  8
1
  6
Continuous
 62
     7
100
AcDbCircle
 10
158.1737668159017
 20
132.0701659793297
 30
0.0
 40
4.344898672319201
100
AcDbArc
 50
55.61575253195674
 51
124.3842474680433
  0
ARC
  5
1FF
330
53
100
AcDbEntity
  8
1
  6
Continuous
 62
     7
100
AcDbCircle
 10
158.1737668159017
 20
129.7599633239679
 30
0.0
 40
4.344898672319095
100
AcDbArc
 50
235.6157525319557
 51
304.3842474680442
  0
ARC
  5
200
330
53
100
AcDbEntity
  8
1
  6
Continuous
 62
     7
100
AcDbCircle
 10
150.812550883734
 20
141.6558752730923
 30
0.0
 40
16.24081062144356
100
AcDbArc
 50
252.4120462260042
 51
287.5879537739956
  0
ARC
  5
201
330
53
100
AcDbEntity
  8
1
  6
Continuous
 62
     7
100
AcDbCircle
 10
143.4513349515662
 20
132.0701659793297
 30
0.0
 40
4.344898672319201
100
AcDbArc
 50
55.61575253195674
 51
124.3842474680433
  0
ARC
  5
202
330
53
100
AcDbEntity
  8
1
  6
Continuous
 62
     7
100
AcDbCircle
 10
143.4513349515662
 20
129.7599633239679
 30
0.0
 40
4.344898672319095
100
AcDbArc
 50
235.6157525319557
 51
304.3842474680442
  0
ENDBLK
  5
55
330
53
100
AcDbEntity
  8
0
100
AcDbBlockEnd
  0
BLOCK
  5
57
330
56
100
AcDbEntity
  8
0
100
AcDbBlockBegin
  2
37-32-13__2
 70
     0
 10
284.7315460811155
 20
101.5505472027755
 30
0.0
  3
37-32-13__2
  1

  0
LINE
  5
203
330
56
100
AcDbEntity
  8
0
  6
Continuous
 62
     7
100
AcDbLine
 10
161.8125508837376
 20
114.4150646516489
 30
0.0
 11
161.8125508837376
 21
113.9150646516489
 31
0.0
  0
LINE
  5
204
330
56
100
AcDbEntity
  8
1
  6
Continuous
 62
     7
100
AcDbLine
 10
143.312550883734
 20
125.4150646516489
 30
0.0
 11
143.3125508837375
 21
123.4150646516489
 31
0.0
  0
LINE
  5
205
330
56
100
AcDbEntity
  8
1
  6
Continuous
 62
     2
100
AcDbLine
 10
157.7125508837375
 20
125.4150646516489
 30
0.0
 11
157.7125508837375
 21
123.4150646516489
 31
0.0
  0
LINE
  5
206
330
56
100
AcDbEntity
  8
0
  6
Continuous
 62
     7
100
AcDbLine
 10
139.8125508837375
 20
113.9150646516489
 30
0.0
 11
139.8125508837375
 21
114.4150646516489
 31
0.0
  0
LINE
  5
207
330
56
100
AcDbEntity
  8
0
  6
Continuous
 62
     7
100
AcDbLine
 10
150.8125508837339
 20
114.4150646516489
 30
0.0
 11
155.6083824070467
 21
114.4150646516489
 31
0.0
  0
LINE
  5
208
330
56
100
AcDbEntity
  8
0
  6
Continuous
 62
     7
100
AcDbLine
 10
143.6841872037651
 20
114.4150646516489
 30
0.0
 11
146.0167193604248
 21
114.4150646516489
 31
0.0
  0
LINE
  5
209
330
56
100
AcDbEntity
  8
0
  6
Continuous
 62
     7
100
AcDbLine
 10
146.0167193604248
 20
114.4150646516489
 30
0.0
 11
150.8125508837376
 21
114.4150646516489
 31
0.0
  0
LINE
  5
20A
330
56
100
AcDbEntity
  8
0
  6
Continuous
 62
     7
100
AcDbLine
 10
138.8125508837375
 20
114.4150646516489
 30
0.0
 11
138.8125508837375
 21
118.9150646516498
 31
0.0
  0
LINE
  5
20B
330
56
100
AcDbEntity
  8
0
  6
Continuous
 62
     7
100
AcDbLine
 10
138.8125508837375
 20
114.4150646516489
 30
0.0
 11
143.6841872037651
 21
114.4150646516489
 31
0.0
  0
LINE
  5
20C
330
56
100
AcDbEntity
  8
0
  6
Continuous
 62
     7
100
AcDbLine
 10
143.6841872037651
 20
114.4150646516489
 30
0.0
 11
143.6841872037651
 21
118.9150646516489
 31
0.0
  0
LINE
  5
20D
330
56
100
AcDbEntity
  8
0
  6
Continuous
 62
     7
100
AcDbLine
 10
143.6841872037651
 20
118.9150646516489
 30
0.0
 11
146.01671936041
 21
118.9150646516486
 31
0.0
  0
LINE
  5
20E
330
56
100
AcDbEntity
  8
0
  6
Continuous
 62
     7
100
AcDbLine
 10
146.0167193604248
 20
114.4150646516489
 30
0.0
 11
146.01671936041
 21
118.9150646516486
 31
0.0
  0
LINE
  5
20F
330
56
100
AcDbEntity
  8
0
  6
Continuous
 62
     7
100
AcDbLine
 10
155.6083824070615
 20
118.9150646516486
 30
0.0
 11
157.9409145637064
 21
118.9150646516489
 31
0.0
  0
LINE
  5
210
330
56
100
AcDbEntity
  8
0
  6
Continuous
 62
     7
100
AcDbLine
 10
155.6083824070615
 20
118.9150646516486
 30
0.0
 11
155.6083824070467
 21
114.4150646516489
 31
0.0
  0
LINE
  5
211
330
56
100
AcDbEntity
  8
0
  6
Continuous
 62
     7
100
AcDbLine
 10
155.6083824070467
 20
114.4150646516489
 30
0.0
 11
157.9409145637064
 21
114.4150646516489
 31
0.0
  0
LINE
  5
212
330
56
100
AcDbEntity
  8
0
  6
Continuous
 62
     7
100
AcDbLine
 10
157.9409145637064
 20
118.9150646516489
 30
0.0
 11
157.9409145637064
 21
114.4150646516489
 31
0.0
  0
LINE
  5
213
330
56
100
AcDbEntity
  8
0
  6
Continuous
 62
     7
100
AcDbLine
 10
157.9409145637064
 20
114.4150646516489
 30
0.0
 11
162.8125508837339
 21
114.4150646516489
 31
0.0
  0
LINE
  5
214
330
56
100
AcDbEntity
  8
0
  6
Continuous
 62
     7
100
AcDbLine
 10
161.8125508837376
 20
114.4150646516489
 30
0.0
 11
162.8125508837375
 21
114.4150646516489
 31
0.0
  0
LINE
  5
215
330
56
100
AcDbEntity
  8
1
  6
Continuous
 62
     7
100
AcDbLine
 10
162.8125508837375
 20
114.4150646516489
 30
0.0
 11
162.8125508837375
 21
118.9150646516498
 31
0.0
  0
LINE
  5
216
330
56
100
AcDbEntity
  8
1
  6
Continuous
 62
     7
100
AcDbLine
 10
158.3125508837375
 20
121.6554899935478
 30
0.0
 11
158.3125508837375
 21
122.3758341671076
 31
0.0
  0
LINE
  5
217
330
56
100
AcDbEntity
  8
0
  6
Continuous
 62
     7
100
AcDbLine
 10
159.7949127935325
 20
119.7236383409695
 30
0.0
 11
162.8125508837375
 21
118.9150646516498
 31
0.0
  0
LINE
  5
218
330
56
100
AcDbEntity
  8
1
  6
Continuous
 62
     7
100
AcDbLine
 10
150.8125508837339
 20
123.4150646516489
 30
0.0
 11
158.3125508837339
 21
123.4150646516489
 31
0.0
  0
LINE
  5
219
330
56
100
AcDbEntity
  8
1
  6
Continuous
 62
     7
100
AcDbLine
 10
157.7125508837375
 20
123.4150646516489
 30
0.0
 11
158.3125508837375
 21
123.4150646516489
 31
0.0
  0
LINE
  5
21A
330
56
100
AcDbEntity
  8
1
  6
Continuous
 62
     2
100
AcDbLine
 10
157.7125508837375
 20
123.4150646516489
 30
0.0
 11
158.3125508837375
 21
122.3758341671076
 31
0.0
  0
LINE
  5
21B
330
56
100
AcDbEntity
  8
1
  6
Continuous
 62
     7
100
AcDbLine
 10
158.3125508837375
 20
122.3758341671076
 30
0.0
 11
158.3125508837375
 21
123.4150646516489
 31
0.0
  0
LINE
  5
21C
330
56
100
AcDbEntity
  8
1
  6
Continuous
 62
     7
100
AcDbLine
 10
158.3125508837375
 20
123.4150646516489
 30
0.0
 11
158.3125508837375
 21
125.4150646516489
 31
0.0
  0
LINE
  5
21D
330
56
100
AcDbEntity
  8
1
  6
Continuous
 62
     2
100
AcDbLine
 10
143.9125508837375
 20
123.4150646516489
 30
0.0
 11
143.9125508837375
 21
125.4150646516489
 31
0.0
  0
LINE
  5
21E
330
56
100
AcDbEntity
  8
1
  6
Continuous
 62
     7
100
AcDbLine
 10
143.3125508837375
 20
123.4150646516489
 30
0.0
 11
143.3125508837375
 21
122.3758341671076
 31
0.0
  0
LINE
  5
21F
330
56
100
AcDbEntity
  8
1
  6
Continuous
 62
     7
100
AcDbLine
 10
143.3125508837375
 20
123.4150646516489
 30
0.0
 11
150.8125508837375
 21
123.4150646516489
 31
0.0
  0
LINE
  5
220
330
56
100
AcDbEntity
  8
1
  6
Continuous
 62
     2
100
AcDbLine
 10
143.3125508837375
 20
122.3758341671076
 30
0.0
 11
143.9125508837375
 21
123.4150646516489
 31
0.0
  0
LINE
  5
221
330
56
100
AcDbEntity
  8
1
  6
Continuous
 62
     7
100
AcDbLine
 10
143.3125508837375
 20
122.3758341671076
 30
0.0
 11
143.3125508837375
 21
121.655489993547
 31
0.0
  0
LINE
  5
222
330
56
100
AcDbEntity
  8
0
  6
Continuous
 62
     7
100
AcDbLine
 10
138.8125508837375
 20
118.9150646516498
 30
0.0
 11
141.8301889739421
 21
119.7236383409687
 31
0.0
  0
LINE
  5
223
330
56
100
AcDbEntity
  8
1
  6
Continuous
 62
     2
100
AcDbLine
 10
74.73473133411792
 20
125.4150646516489
 30
0.0
 11
74.73473133411792
 21
123.4150646516489
 31
0.0
  0
LINE
  5
224
330
56
100
AcDbEntity
  8
1
  6
Continuous
 62
     7
100
AcDbLine
 10
60.33473133411792
 20
125.5969037610144
 30
0.0
 11
60.33473133411792
 21
123.4150646516489
 31
0.0
  0
LINE
  5
225
330
56
100
AcDbEntity
  8
0
  6
Continuous
 62
     7
100
AcDbLine
 10
66.61098115034451
 20
118.7092932857087
 30
0.0
 11
69.05848151789121
 21
118.7092932857087
 31
0.0
  0
LINE
  5
226
330
56
100
AcDbEntity
  8
0
  6
Continuous
 62
     7
100
AcDbLine
 10
58.10848151788741
 20
118.7092932857087
 30
0.0
 11
56.88473133411793
 21
118.7092932857087
 31
0.0
  0
LINE
  5
227
330
56
100
AcDbEntity
  8
0
  6
Continuous
 62
     7
100
AcDbLine
 10
58.10848151788741
 20
113.9150646516489
 30
0.0
 11
58.10848151788741
 21
118.7092932857087
 31
0.0
  0
LINE
  5
228
330
56
100
AcDbEntity
  8
0
  6
Continuous
 62
     7
100
AcDbLine
 10
66.61098115034841
 20
113.9150646516489
 30
0.0
 11
66.61098115034451
 21
118.7092932857087
 31
0.0
  0
LINE
  5
229
330
56
100
AcDbEntity
  8
1
  6
Continuous
 62
     7
100
AcDbLine
 10
56.88473133411793
 20
113.9150646516489
 30
0.0
 11
67.83473133411792
 21
113.9150646516489
 31
0.0
  0
LINE
  5
22A
330
56
100
AcDbEntity
  8
0
  6
Continuous
 62
     7
100
AcDbLine
 10
56.88473133411793
 20
113.9150646516489
 30
0.0
 11
56.88473133411793
 21
118.9906399377615
 31
0.0
  0
LINE
  5
22B
330
56
100
AcDbEntity
  8
0
  6
Continuous
 62
     7
100
AcDbLine
 10
78.78473133411791
 20
118.7092932857087
 30
0.0
 11
77.56098115034843
 21
118.7092932857087
 31
0.0
  0
LINE
  5
22C
330
56
100
AcDbEntity
  8
0
  6
Continuous
 62
     7
100
AcDbLine
 10
78.78473133411791
 20
118.7092932857087
 30
0.0
 11
78.78473133411791
 21
113.9150646516489
 31
0.0
  0
LINE
  5
22D
330
56
100
AcDbEntity
  8
0
  6
Continuous
 62
     7
100
AcDbLine
 10
78.78473133411791
 20
118.9906399377583
 30
0.0
 11
78.78473133411791
 21
118.7092932857087
 31
0.0
  0
LINE
  5
22E
330
56
100
AcDbEntity
  8
1
  6
Continuous
 62
     7
100
AcDbLine
 10
78.78473133411791
 20
118.9906399377583
 30
0.0
 11
77.18768372136162
 21
119.4185675558736
 31
0.0
  0
LINE
  5
22F
330
56
100
AcDbEntity
  8
0
  6
Continuous
 62
     7
100
AcDbLine
 10
78.78473133411791
 20
118.7092932857036
 30
0.0
 11
78.78473133411791
 21
118.7092932857087
 31
0.0
  0
LINE
  5
230
330
56
100
AcDbEntity
  8
0
  6
Continuous
 62
     7
100
AcDbLine
 10
78.78473133411791
 20
118.7092932857036
 30
0.0
 11
78.78473133411791
 21
118.7092932857087
 31
0.0
  0
LINE
  5
231
330
56
100
AcDbEntity
  8
0
  6
Continuous
 62
     7
100
AcDbLine
 10
69.05848151789121
 20
118.7092932857087
 30
0.0
 11
69.05848151788732
 21
113.9150646516489
 31
0.0
  0
LINE
  5
232
330
56
100
AcDbEntity
  8
0
  6
Continuous
 62
     7
100
AcDbLine
 10
78.78473133411791
 20
118.7092932857087
 30
0.0
 11
78.78473133411791
 21
118.7092932857036
 31
0.0
  0
LINE
  5
233
330
56
100
AcDbEntity
  8
0
  6
Continuous
 62
     7
100
AcDbLine
 10
78.78473133411791
 20
118.7092932857087
 30
0.0
 11
78.78473133411791
 21
118.7092932857036
 31
0.0
  0
LINE
  5
234
330
56
100
AcDbEntity
  8
1
  6
Continuous
 62
     7
100
AcDbLine
 10
77.56098115034843
 20
113.9150646516489
 30
0.0
 11
78.78473133411791
 21
113.9150646516489
 31
0.0
  0
LINE
  5
235
330
56
100
AcDbEntity
  8
0
  6
Continuous
 62
     7
100
AcDbLine
 10
77.56098115034843
 20
118.7092932857087
 30
0.0
 11
77.56098115034843
 21
113.9150646516489
 31
0.0
  0
LINE
  5
236
330
56
100
AcDbEntity
  8
1
  6
Continuous
 62
     7
100
AcDbLine
 10
69.05848151788732
 20
113.9150646516489
 30
0.0
 11
77.56098115034843
 21
113.9150646516489
 31
0.0
  0
LINE
  5
237
330
56
100
AcDbEntity
  8
0
  6
Continuous
 62
     7
100
AcDbLine
 10
69.05848151788732
 20
118.7092932857087
 30
0.0
 11
69.05848151789121
 21
118.7092932857087
 31
0.0
  0
LINE
  5
238
330
56
100
AcDbEntity
  8
1
  6
Continuous
 62
     7
100
AcDbLine
 10
138.8177453392169
 20
221.5589503922872
 30
0.0
 11
142.9686634116193
 21
214.3693493928308
 31
0.0
  0
LINE
  5
239
330
56
100
AcDbEntity
  8
1
  6
Continuous
 62
     7
100
AcDbLine
 10
155.6083824070465
 20
232.9119942270017
 30
0.0
 11
148.1611316816049
 21
232.9119942270017
 31
0.0
  0
LINE
  5
23A
330
56
100
AcDbEntity
  8
1
  6
Continuous
 62
     7
100
AcDbLine
 10
58.48177894687422
 20
119.4185675558736
 30
0.0
 11
56.88473133411793
 21
118.9906399377615
 31
0.0
  0
LINE
  5
23B
330
56
100
AcDbEntity
  8
1
  6
Continuous
 62
     2
100
AcDbLine
 10
60.33473133411792
 20
122.3758341671076
 30
0.0
 11
60.93473133411783
 21
123.4150646516489
 31
0.0
  0
LINE
  5
23C
330
56
100
AcDbEntity
  8
1
  6
Continuous
 62
     7
100
AcDbLine
 10
60.33473133411792
 20
122.3758341671076
 30
0.0
 11
60.33473133411792
 21
121.8333821215962
 31
0.0
  0
LINE
  5
23D
330
56
100
AcDbEntity
  8
1
  6
Continuous
 62
     2
100
AcDbLine
 10
60.93473133411783
 20
123.4150646516489
 30
0.0
 11
60.93473133411783
 21
125.4150646516489
 31
0.0
  0
LINE
  5
23E
330
56
100
AcDbEntity
  8
1
  6
Continuous
 62
     7
100
AcDbLine
 10
60.33473133411792
 20
123.4150646516489
 30
0.0
 11
67.83473133411792
 21
123.4150646516489
 31
0.0
  0
LINE
  5
23F
330
56
100
AcDbEntity
  8
1
  6
Continuous
 62
     7
100
AcDbLine
 10
60.33473133411792
 20
123.4150646516489
 30
0.0
 11
60.33473133411792
 21
122.3758341671076
 31
0.0
  0
LINE
  5
240
330
56
100
AcDbEntity
  8
1
  6
Continuous
 62
     7
100
AcDbLine
 10
67.83473133411792
 20
113.9150646516489
 30
0.0
 11
69.05848151788732
 21
113.9150646516489
 31
0.0
  0
LINE
  5
241
330
56
100
AcDbEntity
  8
1
  6
Continuous
 62
     7
100
AcDbLine
 10
75.33473133411792
 20
123.4150646516489
 30
0.0
 11
75.33473133411792
 21
125.5969037610144
 31
0.0
  0
LINE
  5
242
330
56
100
AcDbEntity
  8
1
  6
Continuous
 62
     2
100
AcDbLine
 10
74.73473133411792
 20
123.4150646516489
 30
0.0
 11
75.33473133411792
 21
122.3758341671076
 31
0.0
  0
LINE
  5
243
330
56
100
AcDbEntity
  8
1
  6
Continuous
 62
     7
100
AcDbLine
 10
75.33473133411792
 20
121.8333821215962
 30
0.0
 11
75.33473133411792
 21
122.3758341671076
 31
0.0
  0
LINE
  5
244
330
56
100
AcDbEntity
  8
1
  6
Continuous
 62
     7
100
AcDbLine
 10
67.83473133411792
 20
123.4150646516489
 30
0.0
 11
75.33473133411792
 21
123.4150646516489
 31
0.0
  0
LINE
  5
245
330
56
100
AcDbEntity
  8
1
  6
Continuous
 62
     7
100
AcDbLine
 10
75.33473133411792
 20
122.3758341671076
 30
0.0
 11
75.33473133411792
 21
123.4150646516489
 31
0.0
  0
LINE
  5
246
330
56
100
AcDbEntity
  8
1
  6
Continuous
 62
     7
100
AcDbLine
 10
138.8177453392169
 20
222.265038061716
 30
0.0
 11
142.9686634116197
 21
229.4546390611728
 31
0.0
  0
LINE
  5
247
330
56
100
AcDbEntity
  8
1
  6
Continuous
 62
     7
100
AcDbLine
 10
155.6083824070464
 20
210.9119942270017
 30
0.0
 11
148.161131681605
 21
210.9119942270017
 31
0.0
  0
LINE
  5
248
330
56
100
AcDbEntity
  8
1
  6
Continuous
 62
     7
100
AcDbLine
 10
157.1156985855034
 20
211.7007098293527
 30
0.0
 11
161.2666166579063
 21
218.89031082881
 31
0.0
  0
LINE
  5
249
330
56
100
AcDbEntity
  8
1
  6
Continuous
 62
     7
100
AcDbLine
 10
158.4356771519834
 20
229.8370086826052
 30
0.0
 11
161.2666166579058
 21
224.9336776251939
 31
0.0
  0
LINE
  5
24A
330
56
100
AcDbEntity
  8
1
  6
Continuous
 62
     7
100
AcDbLine
 10
157.1156985855032
 20
232.1232786246507
 30
0.0
 11
158.4356771519834
 21
229.8370086826052
 31
0.0
  0
ARC
  5
24B
330
56
100
AcDbEntity
  8
0
  6
Continuous
 62
     7
100
AcDbCircle
 10
141.2483690437494
 20
91.0735356827019
 30
0.0
 40
27.94787908656715
100
AcDbArc
 50
84.99999999999135
 51
95.00000000000094
  0
ARC
  5
24C
330
56
100
AcDbEntity
  8
0
  6
Continuous
 62
     7
100
AcDbCircle
 10
150.8125508837375
 20
10.83483791066351
 30
0.0
 40
108.1865768586049
100
AcDbArc
 50
90.000000000001
 51
92.54071242276865
  0
ARC
  5
24D
330
56
100
AcDbEntity
  8
0
  6
Continuous
 62
     7
100
AcDbCircle
 10
150.8125508837339
 20
10.83483791066351
 30
0.0
 40
108.1865768586052
100
AcDbArc
 50
87.4592875772313
 51
89.9999999999991
  0
ARC
  5
24E
330
56
100
AcDbEntity
  8
0
  6
Continuous
 62
     7
100
AcDbCircle
 10
160.3767327237221
 20
91.0735356827019
 30
0.0
 40
27.94787908656651
100
AcDbArc
 50
84.99999999999929
 51
95.00000000000867
  0
ARC
  5
24F
330
56
100
AcDbEntity
  8
0
  6
Continuous
 62
     7
100
AcDbCircle
 10
62.35973133411792
 20
85.5959538316842
 30
0.0
 40
33.38512205754866
100
AcDbArc
 50
82.68411212860778
 51
97.31588787139886
  0
ARC
  5
250
330
56
100
AcDbEntity
  8
0
  6
Continuous
 62
     7
100
AcDbCircle
 10
73.30973133411791
 20
85.5959538316842
 30
0.0
 40
33.38512205754916
100
AcDbArc
 50
82.68411212860111
 51
97.3158878713924
  0
ARC
  5
251
330
56
100
AcDbEntity
  8
1
  6
Continuous
 62
     7
100
AcDbCircle
 10
57.83473133411792
 20
121.8333821215962
 30
0.0
 40
2.49999999999994
100
AcDbArc
 50
285.0000000000004
 51
0.0
  0
ARC
  5
252
330
56
100
AcDbEntity
  8
1
  6
Continuous
 62
     7
100
AcDbCircle
 10
77.83473133411792
 20
121.8333821215962
 30
0.0
 40
2.5
100
AcDbArc
 50
180.0
 51
254.9999999999998
  0
ARC
  5
253
330
56
100
AcDbEntity
  8
1
  6
Continuous
 62
     7
100
AcDbCircle
 10
160.3125508837375
 20
121.6554899935478
 30
0.0
 40
2.0
100
AcDbArc
 50
180.0
 51
255.0000000000024
  0
ARC
  5
254
330
56
100
AcDbEntity
  8
1
  6
Continuous
 62
     7
100
AcDbCircle
 10
141.3125508837375
 20
121.655489993547
 30
0.0
 40
2.000000000000032
100
AcDbArc
 50
284.9999999999866
 51
0.0
  0
ENDBLK
  5
58
330
56
100
AcDbEntity
  8
0
100
AcDbBlockEnd
  0
BLOCK
  5
5A
330
59
100
AcDbEntity
  8
0
100
AcDbBlockBegin
  2
31-26-13
 70
     0
 10
328.3629051430391
 20
104.6851485973301
 30
0.0
  3
31-26-13
  1

  0
LINE
  5
255
330
59
100
AcDbEntity
  8
1
  6
Continuous
 62
     7
100
AcDbLine
 10
61.87970652161272
 20
99.71199422700187
 30
0.0
 11
73.78975614662303
 21
99.71199422700187
 31
0.0
  0
LINE
  5
256
330
59
100
AcDbEntity
  8
1
  6
Continuous
 62
     7
100
AcDbLine
 10
60.12434620632021
 20
97.71199422700187
 30
0.0
 11
75.54511646191551
 21
97.71199422700187
 31
0.0
  0
ENDBLK
  5
5B
330
59
100
AcDbEntity
  8
0
100
AcDbBlockEnd
  0
BLOCK
  5
5D
330
5C
100
AcDbEntity
  8
0
100
AcDbBlockBegin
  2
73-4
 70
     0
 10
298.6324317702582
 20
73.03366930738952
 30
0.0
  3
73-4
  1

  0
LINE
  5
257
330
5C
100
AcDbEntity
  8
1
  6
Continuous
 62
     7
100
AcDbLine
 10
147.5625508837339
 20
154.2119942270019
 30
0.0
 11
144.8125508837339
 21
154.2119942270019
 31
0.0
  0
LINE
  5
258
330
5C
100
AcDbEntity
  8
1
  6
Continuous
 62
     7
100
AcDbLine
 10
144.8125508837339
 20
154.2119942270019
 30
0.0
 11
144.8125508837339
 21
153.7119942270019
 31
0.0
  0
LINE
  5
259
330
5C
100
AcDbEntity
  8
1
  6
Continuous
 62
     7
100
AcDbLine
 10
156.8125508837339
 20
154.2119942270019
 30
0.0
 11
154.0625508837339
 21
154.2119942270019
 31
0.0
  0
LINE
  5
25A
330
5C
100
AcDbEntity
  8
1
  6
Continuous
 62
     7
100
AcDbLine
 10
64.7106424982305
 20
154.2119942270019
 30
0.0
 11
61.83473133411792
 21
154.2119942270019
 31
0.0
  0
LINE
  5
25B
330
5C
100
AcDbEntity
  8
1
  6
Continuous
 62
     7
100
AcDbLine
 10
61.83473133411792
 20
154.2119942270019
 30
0.0
 11
61.83473133411792
 21
153.7119942270019
 31
0.0
  0
LINE
  5
25C
330
5C
100
AcDbEntity
  8
1
  6
Continuous
 62
     7
100
AcDbLine
 10
73.83473133411792
 20
154.2119942270019
 30
0.0
 11
70.9588201700054
 21
154.2119942270019
 31
0.0
  0
LINE
  5
25D
330
5C
100
AcDbEntity
  8
1
  6
Continuous
 62
     7
100
AcDbLine
 10
73.83473133411792
 20
153.7119942270019
 30
0.0
 11
73.83473133411792
 21
154.2119942270019
 31
0.0
  0
LINE
  5
25E
330
5C
100
AcDbEntity
  8
1
  6
Continuous
 62
     7
100
AcDbLine
 10
156.8125508837339
 20
153.7119942270019
 30
0.0
 11
156.8125508837339
 21
154.2119942270019
 31
0.0
  0
CIRCLE
  5
25F
330
5C
100
AcDbEntity
  8
0
  6
Continuous
 62
     7
100
AcDbCircle
 10
150.8125508837339
 20
221.9119942270019
 30
0.0
 40
6.0
  0
ENDBLK
  5
5E
330
5C
100
AcDbEntity
  8
0
100
AcDbBlockEnd
  0
BLOCK
  5
60
330
5F
100
AcDbEntity
  8
0
100
AcDbBlockBegin
  2
V30-0-13
 70
     0
 10
154.5545803113722
 20
249.0655936677896
 30
0.0
  3
V30-0-13
  1

  0
LINE
  5
260
330
5F
100
AcDbEntity
  8
1
  6
Continuous
 62
     7
100
AcDbLine
 10
136.3125508837342
 20
100.5092932857092
 30
0.0
 11
130.0956725188637
 21
100.5092932857092
 31
0.0
  0
LINE
  5
261
330
5F
100
AcDbEntity
  8
1
  6
Continuous
 62
     7
100
AcDbLine
 10
171.5294292486041
 20
100.5092932857092
 30
0.0
 11
165.3125508837336
 21
100.5092932857092
 31
0.0
  0
LINE
  5
262
330
5F
100
AcDbEntity
  8
0
  6
Continuous
 62
     7
100
AcDbLine
 10
128.3125508837339
 20
80.2150646516491
 30
0.0
 11
130.0956725188637
 21
77.12660738352932
 31
0.0
  0
LINE
  5
263
330
5F
100
AcDbEntity
  8
0
  6
Continuous
 62
     7
100
AcDbLine
 10
130.0956725188637
 20
108.3035219197691
 30
0.0
 11
128.3125508837339
 21
105.2150646516491
 31
0.0
  0
LINE
  5
264
330
5F
100
AcDbEntity
  8
0
  6
Continuous
 62
     7
100
AcDbLine
 10
171.5294292486042
 20
77.12660738352932
 30
0.0
 11
173.3125508837338
 21
80.2150646516491
 31
0.0
  0
LINE
  5
265
330
5F
100
AcDbEntity
  8
0
  6
Continuous
 62
     7
100
AcDbLine
 10
173.3125508837337
 20
105.2150646516491
 30
0.0
 11
171.5294292486042
 21
108.3035219197691
 31
0.0
  0
LINE
  5
266
330
5F
100
AcDbEntity
  8
1
  6
Continuous
 62
     7
100
AcDbLine
 10
139.3125508837339
 20
109.715064651649
 30
0.0
 11
162.3125508837339
 21
109.715064651649
 31
0.0
  0
LINE
  5
267
330
5F
100
AcDbEntity
  8
0
  6
Continuous
 62
     7
100
AcDbLine
 10
173.3125508837339
 20
82.23806465164921
 30
0.0
 11
173.3125508837337
 21
92.71506465164902
 31
0.0
  0
LINE
  5
268
330
5F
100
AcDbEntity
  8
0
  6
Continuous
 62
     7
100
AcDbLine
 10
128.312550883734
 20
82.23806465164921
 30
0.0
 11
128.3125508837339
 21
80.2150646516491
 31
0.0
  0
LINE
  5
269
330
5F
100
AcDbEntity
  8
0
  6
Continuous
 62
     7
100
AcDbLine
 10
165.3125508837337
 20
77.12660738352929
 30
0.0
 11
164.7307230110465
 21
78.7251663257473
 31
0.0
  0
LINE
  5
26A
330
5F
100
AcDbEntity
  8
0
  6
Continuous
 62
     7
100
AcDbLine
 10
136.8943787564213
 20
78.7251663257473
 30
0.0
 11
136.3125508837339
 21
77.12660738352929
 31
0.0
  0
LINE
  5
26B
330
5F
100
AcDbEntity
  8
0
  6
Continuous
 62
     7
100
AcDbLine
 10
164.7307230110465
 20
106.7049629775509
 30
0.0
 11
165.3125508837337
 21
108.303521919769
 31
0.0
  0
LINE
  5
26C
330
5F
100
AcDbEntity
  8
0
  6
Continuous
 62
     7
100
AcDbLine
 10
161.8125508837339
 20
109.215064651649
 30
0.0
 11
161.8125508837339
 21
107.3699968226001
 31
0.0
  0
LINE
  5
26D
330
5F
100
AcDbEntity
  8
0
  6
Continuous
 62
     7
100
AcDbLine
 10
136.3125508837339
 20
108.303521919769
 30
0.0
 11
136.8943787564213
 21
106.7049629775509
 31
0.0
  0
LINE
  5
26E
330
5F
100
AcDbEntity
  8
0
  6
Continuous
 62
     7
100
AcDbLine
 10
139.8125508837339
 20
107.3699968226001
 30
0.0
 11
139.8125508837339
 21
109.215064651649
 31
0.0
  0
LINE
  5
26F
330
5F
100
AcDbEntity
  8
0
  6
Continuous
 62
     7
100
AcDbLine
 10
159.8125508837339
 20
112.715064651649
 30
0.0
 11
162.3125508837339
 21
112.715064651649
 31
0.0
  0
LINE
  5
270
330
5F
100
AcDbEntity
  8
1
  6
Continuous
 62
     7
100
AcDbLine
 10
79.33473133411783
 20
112.715064651649
 30
0.0
 11
79.33473133411783
 21
109.7150646516493
 31
0.0
  0
LINE
  5
271
330
5F
100
AcDbEntity
  8
1
  6
Continuous
 62
     7
100
AcDbLine
 10
56.33473133411764
 20
109.715064651649
 30
0.0
 11
56.33473133411792
 21
112.715064651649
 31
0.0
  0
LINE
  5
272
330
5F
100
AcDbEntity
  8
0
  6
Continuous
 62
     7
100
AcDbLine
 10
81.33473133411783
 20
84.92083601758907
 30
0.0
 11
81.33473133411783
 21
92.71506465164902
 31
0.0
  0
LINE
  5
273
330
5F
100
AcDbEntity
  8
0
  6
Continuous
 62
     7
100
AcDbLine
 10
67.83473133411792
 20
77.12660738352929
 30
0.0
 11
81.33473133411783
 21
84.92083601758907
 31
0.0
  0
LINE
  5
274
330
5F
100
AcDbEntity
  8
0
  6
Continuous
 62
     7
100
AcDbLine
 10
54.33473133411792
 20
84.92083601758907
 30
0.0
 11
67.83473133411792
 21
77.12660738352929
 31
0.0
  0
LINE
  5
275
330
5F
100
AcDbEntity
  8
0
  6
Continuous
 62
     7
100
AcDbLine
 10
54.33473133411792
 20
92.71506465164902
 30
0.0
 11
54.33473133411792
 21
84.92083601758907
 31
0.0
  0
LINE
  5
276
330
5F
100
AcDbEntity
  8
0
  6
Continuous
 62
     7
100
AcDbLine
 10
54.33473133411792
 20
100.5092932857092
 30
0.0
 11
54.33473133411792
 21
92.71506465164902
 31
0.0
  0
LINE
  5
277
330
5F
100
AcDbEntity
  8
0
  6
Continuous
 62
     7
100
AcDbLine
 10
67.83473133411792
 20
108.303521919769
 30
0.0
 11
54.33473133411792
 21
100.5092932857092
 31
0.0
  0
LINE
  5
278
330
5F
100
AcDbEntity
  8
0
  6
Continuous
 62
     7
100
AcDbLine
 10
81.33473133411783
 20
100.5092932857092
 30
0.0
 11
67.83473133411792
 21
108.303521919769
 31
0.0
  0
LINE
  5
279
330
5F
100
AcDbEntity
  8
0
  6
Continuous
 62
     7
100
AcDbLine
 10
81.33473133411783
 20
92.71506465164902
 30
0.0
 11
81.33473133411783
 21
100.5092932857092
 31
0.0
  0
LINE
  5
27A
330
5F
100
AcDbEntity
  8
0
  6
Continuous
 62
     7
100
AcDbLine
 10
128.3125508837339
 20
92.71506465164902
 30
0.0
 11
128.312550883734
 21
82.23806465164921
 31
0.0
  0
LINE
  5
27B
330
5F
100
AcDbEntity
  8
0
  6
Continuous
 62
     7
100
AcDbLine
 10
130.0956725188637
 20
77.12660738352932
 30
0.0
 11
136.3125508837339
 21
77.12660738352929
 31
0.0
  0
LINE
  5
27C
330
5F
100
AcDbEntity
  8
0
  6
Continuous
 62
     7
100
AcDbLine
 10
173.3125508837338
 20
80.2150646516491
 30
0.0
 11
173.3125508837339
 21
82.23806465164921
 31
0.0
  0
LINE
  5
27D
330
5F
100
AcDbEntity
  8
0
  6
Continuous
 62
     7
100
AcDbLine
 10
165.3125508837337
 20
77.12660738352929
 30
0.0
 11
171.5294292486042
 21
77.12660738352932
 31
0.0
  0
LINE
  5
27E
330
5F
100
AcDbEntity
  8
0
  6
Continuous
 62
     7
100
AcDbLine
 10
128.3125508837339
 20
105.2150646516491
 30
0.0
 11
128.3125508837339
 21
92.71506465164902
 31
0.0
  0
LINE
  5
27F
330
5F
100
AcDbEntity
  8
0
  6
Continuous
 62
     7
100
AcDbLine
 10
136.3125508837339
 20
108.303521919769
 30
0.0
 11
130.0956725188637
 21
108.3035219197691
 31
0.0
  0
LINE
  5
280
330
5F
100
AcDbEntity
  8
0
  6
Continuous
 62
     7
100
AcDbLine
 10
173.3125508837337
 20
92.71506465164902
 30
0.0
 11
173.3125508837337
 21
105.2150646516491
 31
0.0
  0
LINE
  5
281
330
5F
100
AcDbEntity
  8
0
  6
Continuous
 62
     7
100
AcDbLine
 10
171.5294292486042
 20
108.3035219197691
 30
0.0
 11
165.3125508837337
 21
108.303521919769
 31
0.0
  0
LINE
  5
282
330
5F
100
AcDbEntity
  8
0
  6
Continuous
 62
     7
100
AcDbLine
 10
139.3125508837339
 20
109.715064651649
 30
0.0
 11
139.3125508837339
 21
112.715064651649
 31
0.0
  0
LINE
  5
283
330
5F
100
AcDbEntity
  8
0
  6
Continuous
 62
     7
100
AcDbLine
 10
139.3125508837339
 20
112.715064651649
 30
0.0
 11
159.8125508837339
 21
112.715064651649
 31
0.0
  0
LINE
  5
284
330
5F
100
AcDbEntity
  8
0
  6
Continuous
 62
     7
100
AcDbLine
 10
162.3125508837339
 20
112.715064651649
 30
0.0
 11
162.3125508837339
 21
109.715064651649
 31
0.0
  0
LINE
  5
285
330
5F
100
AcDbEntity
  8
1
  6
Continuous
 62
     7
100
AcDbLine
 10
67.83473133411792
 20
112.715064651649
 30
0.0
 11
79.33473133411783
 21
112.715064651649
 31
0.0
  0
LINE
  5
286
330
5F
100
AcDbEntity
  8
1
  6
Continuous
 62
     7
100
AcDbLine
 10
56.33473133411792
 20
112.715064651649
 30
0.0
 11
67.83473133411792
 21
112.715064651649
 31
0.0
  0
LINE
  5
287
330
5F
100
AcDbEntity
  8
1
  6
Continuous
 62
     7
100
AcDbLine
 10
67.83473133411792
 20
109.715064651649
 30
0.0
 11
79.33473133411783
 21
109.7150646516493
 31
0.0
  0
LINE
  5
288
330
5F
100
AcDbEntity
  8
1
  6
Continuous
 62
     7
100
AcDbLine
 10
56.33473133411764
 20
109.715064651649
 30
0.0
 11
67.83473133411792
 21
109.715064651649
 31
0.0
  0
LINE
  5
289
330
5F
100
AcDbEntity
  8
1
  6
Continuous
 62
     7
100
AcDbLine
 10
81.22471747271203
 20
100.5728098182064
 30
0.0
 11
78.83473133411783
 21
109.215064651649
 31
0.0
  0
LINE
  5
28A
330
5F
100
AcDbEntity
  8
1
  6
Continuous
 62
     7
100
AcDbLine
 10
82.2920807005274
 20
96.71319537707296
 30
0.0
 11
81.33473133411783
 21
100.1749967053488
 31
0.0
  0
LINE
  5
28B
330
5F
100
AcDbEntity
  8
1
  6
Continuous
 62
     7
100
AcDbLine
 10
56.83473133411792
 20
109.215064651649
 30
0.0
 11
54.44474519552372
 21
100.5728098182064
 31
0.0
  0
LINE
  5
28C
330
5F
100
AcDbEntity
  8
1
  6
Continuous
 62
     7
100
AcDbLine
 10
54.33473133411792
 20
100.1749967053488
 30
0.0
 11
53.37738196770832
 21
96.71319537707296
 31
0.0
  0
LINE
  5
28D
330
5F
100
AcDbEntity
  8
1
  6
Continuous
 62
     7
100
AcDbLine
 10
59.15030020709523
 20
95.71506465164902
 30
0.0
 11
76.51916246114052
 21
95.71506465164902
 31
0.0
  0
LINE
  5
28E
330
5F
100
AcDbEntity
  8
1
  6
Continuous
 62
     7
100
AcDbLine
 10
165.3125508837337
 20
84.92083601758907
 30
0.0
 11
171.5294292486041
 21
84.92083601758907
 31
0.0
  0
LINE
  5
28F
330
5F
100
AcDbEntity
  8
1
  6
Continuous
 62
     7
100
AcDbLine
 10
130.0956725188637
 20
84.92083601758907
 30
0.0
 11
136.3125508837342
 21
84.92083601758907
 31
0.0
  0
LINE
  5
290
330
5F
100
AcDbEntity
  8
1
  6
Continuous
 62
     7
100
AcDbLine
 10
128.3125508837337
 20
209.4119942270019
 30
0.0
 11
128.8899011529234
 21
208.4119942270018
 31
0.0
  0
LINE
  5
291
330
5F
100
AcDbEntity
  8
1
  6
Continuous
 62
     7
100
AcDbLine
 10
128.8899011529234
 20
208.4119942270018
 30
0.0
 11
129.6824991963071
 21
208.4119942270018
 31
0.0
  0
LINE
  5
292
330
5F
100
AcDbEntity
  8
0
  6
Continuous
 62
     7
100
AcDbLine
 10
128.3125508837339
 20
234.411994227002
 30
0.0
 11
128.3125508837339
 21
231.0041143154048
 31
0.0
  0
LINE
  5
293
330
5F
100
AcDbEntity
  8
1
  6
Continuous
 62
     7
100
AcDbLine
 10
128.3125508837339
 20
234.411994227002
 30
0.0
 11
128.8899011529236
 21
235.411994227002
 31
0.0
  0
LINE
  5
294
330
5F
100
AcDbEntity
  8
1
  6
Continuous
 62
     7
100
AcDbLine
 10
128.8899011529236
 20
235.411994227002
 30
0.0
 11
129.6824991963071
 21
235.411994227002
 31
0.0
  0
LINE
  5
295
330
5F
100
AcDbEntity
  8
1
  6
Continuous
 62
     7
100
AcDbLine
 10
172.735200614544
 20
208.4119942270018
 30
0.0
 11
173.3125508837337
 21
209.4119942270019
 31
0.0
  0
LINE
  5
296
330
5F
100
AcDbEntity
  8
1
  6
Continuous
 62
     7
100
AcDbLine
 10
172.7352006145439
 20
235.411994227002
 30
0.0
 11
173.3125508837335
 21
234.411994227002
 31
0.0
  0
LINE
  5
297
330
5F
100
AcDbEntity
  8
0
  6
Continuous
 62
     7
100
AcDbLine
 10
173.3125508837337
 20
209.4119942270019
 30
0.0
 11
173.3125508837337
 21
212.8198741385985
 31
0.0
  0
LINE
  5
298
330
5F
100
AcDbEntity
  8
1
  6
PHANTOM
 62
     4
100
AcDbLine
 10
150.8125508837337
 20
239.911994227002
 30
0.0
 11
150.8125508837337
 21
203.9119942270019
 31
0.0
  0
LINE
  5
299
330
5F
100
AcDbEntity
  8
1
  6
PHANTOM
 62
     4
100
AcDbLine
 10
125.3125508837338
 20
221.911994227002
 30
0.0
 11
176.3125508837336
 21
221.911994227002
 31
0.0
  0
LINE
  5
29A
330
5F
100
AcDbEntity
  8
0
  6
Continuous
 62
     7
100
AcDbLine
 10
128.3125508837339
 20
231.0041143154048
 30
0.0
 11
128.3125508837339
 21
225.6706322079225
 31
0.0
  0
LINE
  5
29B
330
5F
100
AcDbEntity
  8
0
  6
Continuous
 62
     7
100
AcDbLine
 10
128.3125508837338
 20
219.4119942270019
 30
0.0
 11
128.3125508837338
 21
218.1533562460816
 31
0.0
  0
LINE
  5
29C
330
5F
100
AcDbEntity
  8
0
  6
Continuous
 62
     7
100
AcDbLine
 10
128.3125508837337
 20
212.8198741385994
 30
0.0
 11
128.3125508837337
 21
209.4119942270019
 31
0.0
  0
LINE
  5
29D
330
5F
100
AcDbEntity
  8
1
  6
Continuous
 62
     7
100
AcDbLine
 10
133.7770169778011
 20
208.4119942270019
 30
0.0
 11
132.2779375948228
 21
208.4119942270018
 31
0.0
  0
LINE
  5
29E
330
5F
100
AcDbEntity
  8
1
  6
Continuous
 62
     7
100
AcDbLine
 10
136.3125508837338
 20
219.4119942270019
 30
0.0
 11
136.3125508837339
 21
210.9475281329347
 31
0.0
  0
LINE
  5
29F
330
5F
100
AcDbEntity
  8
1
  6
Continuous
 62
     7
100
AcDbLine
 10
136.3125508837339
 20
232.8764603210692
 30
0.0
 11
136.3125508837337
 21
224.4119942270019
 31
0.0
  0
LINE
  5
2A0
330
5F
100
AcDbEntity
  8
1
  6
Continuous
 62
     7
100
AcDbLine
 10
132.2779375948228
 20
235.411994227002
 30
0.0
 11
133.7770169778011
 21
235.411994227002
 31
0.0
  0
LINE
  5
2A1
330
5F
100
AcDbEntity
  8
0
  6
Continuous
 62
     7
100
AcDbLine
 10
128.3125508837339
 20
225.6706322079225
 30
0.0
 11
128.3125508837339
 21
224.4119942270019
 31
0.0
  0
LINE
  5
2A2
330
5F
100
AcDbEntity
  8
1
  6
Continuous
 62
     7
100
AcDbLine
 10
165.3125508837335
 20
210.9475281329351
 30
0.0
 11
165.3125508837335
 21
219.4119942270019
 31
0.0
  0
LINE
  5
2A3
330
5F
100
AcDbEntity
  8
1
  6
Continuous
 62
     7
100
AcDbLine
 10
167.8480847896668
 20
235.411994227002
 30
0.0
 11
169.347164172645
 21
235.411994227002
 31
0.0
  0
LINE
  5
2A4
330
5F
100
AcDbEntity
  8
1
  6
Continuous
 62
     7
100
AcDbLine
 10
165.3125508837335
 20
224.4119942270019
 30
0.0
 11
165.3125508837335
 21
232.8764603210688
 31
0.0
  0
LINE
  5
2A5
330
5F
100
AcDbEntity
  8
1
  6
Continuous
 62
     7
100
AcDbLine
 10
169.347164172645
 20
208.4119942270018
 30
0.0
 11
167.8480847896668
 21
208.4119942270019
 31
0.0
  0
LINE
  5
2A6
330
5F
100
AcDbEntity
  8
1
  6
Continuous
 62
     7
100
AcDbLine
 10
171.9426025711608
 20
208.4119942270018
 30
0.0
 11
172.735200614544
 21
208.4119942270018
 31
0.0
  0
LINE
  5
2A7
330
5F
100
AcDbEntity
  8
0
  6
Continuous
 62
     7
100
AcDbLine
 10
173.3125508837336
 20
218.1533562460811
 30
0.0
 11
173.3125508837336
 21
219.4119942270019
 31
0.0
  0
LINE
  5
2A8
330
5F
100
AcDbEntity
  8
0
  6
Continuous
 62
     7
100
AcDbLine
 10
173.3125508837336
 20
224.4119942270019
 30
0.0
 11
173.3125508837336
 21
225.6706322079231
 31
0.0
  0
LINE
  5
2A9
330
5F
100
AcDbEntity
  8
0
  6
Continuous
 62
     7
100
AcDbLine
 10
173.3125508837335
 20
231.0041143154062
 30
0.0
 11
173.3125508837335
 21
234.411994227002
 31
0.0
  0
LINE
  5
2AA
330
5F
100
AcDbEntity
  8
1
  6
Continuous
 62
     7
100
AcDbLine
 10
171.9426025711609
 20
235.411994227002
 30
0.0
 11
172.7352006145439
 21
235.411994227002
 31
0.0
  0
ARC
  5
2AB
330
5F
100
AcDbEntity
  8
1
  6
Continuous
 62
     7
100
AcDbCircle
 10
154.6845447179759
 20
92.71506465164914
 30
0.0
 40
25.79462416908367
100
AcDbArc
 50
162.4123247226068
 51
197.5876752773933
  0
ARC
  5
2AC
330
5F
100
AcDbEntity
  8
1
  6
Continuous
 62
     7
100
AcDbCircle
 10
135.790733579902
 20
104.4064076027392
 30
0.0
 40
6.900813031009763
100
AcDbArc
 50
145.6162730291588
 51
214.3837269708418
  0
ARC
  5
2AD
330
5F
100
AcDbEntity
  8
1
  6
Continuous
 62
     7
100
AcDbCircle
 10
95.47116838113072
 20
92.71506465164936
 30
0.0
 40
41.57846226983352
100
AcDbArc
 50
349.1955083936617
 51
10.80449160633769
  0
ARC
  5
2AE
330
5F
100
AcDbEntity
  8
1
  6
Continuous
 62
     7
100
AcDbCircle
 10
126.3786101707946
 20
104.4064076027388
 30
0.0
 40
10.67102048016944
100
AcDbArc
 50
338.5797760037678
 51
21.42022399623575
  0
ARC
  5
2AF
330
5F
100
AcDbEntity
  8
1
  6
Continuous
 62
     7
100
AcDbCircle
 10
175.2464915966732
 20
104.4064076027388
 30
0.0
 40
10.67102048016957
100
AcDbArc
 50
158.5797760037646
 51
201.4202239962321
  0
ARC
  5
2B0
330
5F
100
AcDbEntity
  8
1
  6
Continuous
 62
     7
100
AcDbCircle
 10
165.8343681875658
 20
104.4064076027392
 30
0.0
 40
6.900813031009812
100
AcDbArc
 50
325.6162730291582
 51
34.38372697084071
  0
ARC
  5
2B1
330
5F
100
AcDbEntity
  8
1
  6
Continuous
 62
     7
100
AcDbCircle
 10
146.9405570494919
 20
92.71506465164914
 30
0.0
 40
25.79462416908365
100
AcDbArc
 50
342.4123247226067
 51
17.58767527739327
  0
ARC
  5
2B2
330
5F
100
AcDbEntity
  8
1
  6
Continuous
 62
     7
100
AcDbCircle
 10
206.1539333863371
 20
92.71506465164936
 30
0.0
 40
41.57846226983347
100
AcDbArc
 50
169.1955083936623
 51
190.8044916063383
  0
ARC
  5
2B3
330
5F
100
AcDbEntity
  8
1
  6
Continuous
 62
     7
100
AcDbCircle
 10
135.6883964768906
 20
81.05547996680761
 30
0.0
 40
6.798495323966988
100
AcDbArc
 50
145.3500925385982
 51
214.6499074614003
  0
ARC
  5
2B4
330
5F
100
AcDbEntity
  8
1
  6
Continuous
 62
     7
100
AcDbCircle
 10
165.9367052905772
 20
81.05547996680761
 30
0.0
 40
6.798495323966937
100
AcDbArc
 50
325.3500925386001
 51
34.64990746140194
  0
ARC
  5
2B5
330
5F
100
AcDbEntity
  8
0
  6
Continuous
 62
     7
100
AcDbCircle
 10
138.3081000774355
 20
78.21061384535051
 30
0.0
 40
1.504450806298601
100
AcDbArc
 50
71.82580931373737
 51
159.9999999999957
  0
ARC
  5
2B6
330
5F
100
AcDbEntity
  8
0
  6
Continuous
 62
     7
100
AcDbCircle
 10
163.3170016900324
 20
107.2195154579475
 30
0.0
 40
1.504450806298528
100
AcDbArc
 50
177.2017267658788
 51
340.0000000000013
  0
ARC
  5
2B7
330
5F
100
AcDbEntity
  8
0
  6
Continuous
 62
     7
100
AcDbCircle
 10
163.467483054685
 20
107.3699968226001
 30
0.0
 40
1.654932170951099
100
AcDbArc
 50
180.0
 51
182.6679954786293
  0
ARC
  5
2B8
330
5F
100
AcDbEntity
  8
0
  6
Continuous
 62
     7
100
AcDbCircle
 10
162.3125508837339
 20
109.215064651649
 30
0.0
 40
0.5
100
AcDbArc
 50
90.0
 51
180.0
  0
ARC
  5
2B9
330
5F
100
AcDbEntity
  8
0
  6
Continuous
 62
     7
100
AcDbCircle
 10
138.3081000774355
 20
107.2195154579475
 30
0.0
 40
1.504450806298577
100
AcDbArc
 50
199.9999999999972
 51
2.79827323412133
  0
ARC
  5
2BA
330
5F
100
AcDbEntity
  8
0
  6
Continuous
 62
     7
100
AcDbCircle
 10
138.1576187127828
 20
107.3699968226001
 30
0.0
 40
1.654932170951104
100
AcDbArc
 50
357.3320045213708
 51
0.0
  0
ARC
  5
2BB
330
5F
100
AcDbEntity
  8
0
  6
Continuous
 62
     7
100
AcDbCircle
 10
139.3125508837339
 20
109.215064651649
 30
0.0
 40
0.5
100
AcDbArc
 50
0.0
 51
90.0
  0
ARC
  5
2BC
330
5F
100
AcDbEntity
  8
0
  6
Continuous
 62
     7
100
AcDbCircle
 10
163.3170016900324
 20
78.21061384535051
 30
0.0
 40
1.504450806298538
100
AcDbArc
 50
20.00000000000582
 51
108.1741906862637
  0
ARC
  5
2BD
330
5F
100
AcDbEntity
  8
1
  6
Continuous
 62
     7
100
AcDbCircle
 10
150.8125508837339
 20
116.3009363371347
 30
0.0
 40
38.58587168548559
100
AcDbArc
 50
251.8258093137351
 51
288.174190686265
  0
ARC
  5
2BE
330
5F
100
AcDbEntity
  8
0
  6
Continuous
 62
     7
100
AcDbCircle
 10
79.33473133411783
 20
109.215064651649
 30
0.0
 40
0.5000000000002984
100
AcDbArc
 50
90.0
 51
180.0
  0
ARC
  5
2BF
330
5F
100
AcDbEntity
  8
0
  6
Continuous
 62
     7
100
AcDbCircle
 10
56.33473133411792
 20
109.215064651649
 30
0.0
 40
0.5
100
AcDbArc
 50
0.0
 51
90.00000000003176
  0
ARC
  5
2C0
330
5F
100
AcDbEntity
  8
1
  6
Continuous
 62
     7
100
AcDbCircle
 10
67.83473133411792
 20
92.71506465164902
 30
0.0
 40
14.99999999999998
100
AcDbArc
 50
274.1580672368328
 51
325.8419327631678
  0
ARC
  5
2C1
330
5F
100
AcDbEntity
  8
1
  6
Continuous
 62
     7
100
AcDbCircle
 10
67.83473133411792
 20
92.71506465164902
 30
0.0
 40
14.99999999999988
100
AcDbArc
 50
334.1580672368331
 51
15.45860171720868
  0
ARC
  5
2C2
330
5F
100
AcDbEntity
  8
1
  6
Continuous
 62
     7
100
AcDbCircle
 10
67.83473133411792
 20
92.71506465164902
 30
0.0
 40
15.0000000000001
100
AcDbArc
 50
164.5413982827914
 51
205.8419327631668
  0
ARC
  5
2C3
330
5F
100
AcDbEntity
  8
1
  6
Continuous
 62
     7
100
AcDbCircle
 10
67.83473133411792
 20
92.71506465164902
 30
0.0
 40
15.0
100
AcDbArc
 50
214.1580672368319
 51
265.8419327631669
  0
ARC
  5
2C4
330
5F
100
AcDbEntity
  8
1
  6
Continuous
 62
     7
100
AcDbCircle
 10
67.83473133411792
 20
92.71506465164902
 30
0.0
 40
9.188000000000033
100
AcDbArc
 50
160.9427446680709
 51
19.05725533192925
  0
ARC
  5
2C5
330
5F
100
AcDbEntity
  8
1
  6
Continuous
 62
     7
100
AcDbCircle
 10
67.83473133411792
 20
92.71506465164902
 30
0.0
 40
9.187999999999953
100
AcDbArc
 50
19.05725533192925
 51
160.9427446680709
  0
ARC
  5
2C6
330
5F
100
AcDbEntity
  8
1
  6
Continuous
 62
     7
100
AcDbCircle
 10
175.2464915966722
 20
81.02372170055929
 30
0.0
 40
10.67102048016849
100
AcDbArc
 50
158.5797760037648
 51
201.4202239962364
  0
ARC
  5
2C7
330
5F
100
AcDbEntity
  8
1
  6
Continuous
 62
     7
100
AcDbCircle
 10
126.3786101707957
 20
81.02372170055929
 30
0.0
 40
10.67102048016831
100
AcDbArc
 50
338.5797760037631
 51
21.4202239962352
  0
ARC
  5
2C8
330
5F
100
AcDbEntity
  8
1
  6
Continuous
 62
     7
100
AcDbCircle
 10
507.3597369508225
 20
94.58633540530741
 30
0.0
 40
345.0
100
AcDbArc
 50
178.3851176950874
 51
182.2811047927535
  0
ARC
  5
2C9
330
5F
100
AcDbEntity
  8
1
  6
Continuous
 62
     7
100
AcDbCircle
 10
-205.7346351833547
 20
94.58633540530741
 30
0.0
 40
345.0000000000002
100
AcDbArc
 50
357.7188952072465
 51
1.61488230491259
  0
ARC
  5
2CA
330
5F
100
AcDbEntity
  8
1
  6
Continuous
 62
     7
100
AcDbCircle
 10
133.0569260045285
 20
93.11726442061212
 30
0.0
 40
14.50000000000042
100
AcDbArc
 50
25.04036596640637
 51
59.17709484115427
  0
ARC
  5
2CB
330
5F
100
AcDbEntity
  8
1
  6
Continuous
 62
     7
100
AcDbCircle
 10
168.5681757629395
 20
93.11726442061212
 30
0.0
 40
14.50000000000044
100
AcDbArc
 50
120.8229051588459
 51
154.9596340335938
  0
ARC
  5
2CC
330
5F
100
AcDbEntity
  8
1
  6
Continuous
 62
     7
100
AcDbCircle
 10
148.3862940492131
 20
215.1619942270017
 30
0.0
 40
19.4963928962895
100
AcDbArc
 50
167.4090528702231
 51
174.023682306691
  0
ARC
  5
2CD
330
5F
100
AcDbEntity
  8
1
  6
Continuous
 62
     7
100
AcDbCircle
 10
148.3862940492127
 20
228.661994227002
 30
0.0
 40
19.49639289628915
100
AcDbArc
 50
185.9763176933085
 51
192.5909471297768
  0
ARC
  5
2CE
330
5F
100
AcDbEntity
  8
1
  6
Continuous
 62
     7
100
AcDbCircle
 10
150.8125508837337
 20
198.3261225415162
 30
0.0
 40
38.58587168548573
100
AcDbArc
 50
93.71482741678732
 51
105.1973368476234
  0
ARC
  5
2CF
330
5F
100
AcDbEntity
  8
1
  6
Continuous
 62
     7
100
AcDbCircle
 10
150.8125508837337
 20
245.4978659124877
 30
0.0
 40
38.58587168548571
100
AcDbArc
 50
254.8026631523763
 51
266.2851725832127
  0
ARC
  5
2D0
330
5F
100
AcDbEntity
  8
1
  6
Continuous
 62
     7
100
AcDbCircle
 10
150.8125508837337
 20
245.4978659124877
 30
0.0
 40
38.58587168548567
100
AcDbArc
 50
273.7148274167879
 51
285.1973368476242
  0
ARC
  5
2D1
330
5F
100
AcDbEntity
  8
1
  6
Continuous
 62
     7
100
AcDbCircle
 10
150.8125508837337
 20
198.3261225415162
 30
0.0
 40
38.58587168548575
100
AcDbArc
 50
74.80266315237604
 51
86.28517258321209
  0
ARC
  5
2D2
330
5F
100
AcDbEntity
  8
1
  6
Continuous
 62
     7
100
AcDbCircle
 10
153.2388077182544
 20
215.1619942270017
 30
0.0
 40
19.49639289628952
100
AcDbArc
 50
5.97631769330784
 51
12.5909471297769
  0
ARC
  5
2D3
330
5F
100
AcDbEntity
  8
1
  6
Continuous
 62
     7
100
AcDbCircle
 10
153.2388077182548
 20
228.661994227002
 30
0.0
 40
19.49639289628901
100
AcDbArc
 50
347.4090528702231
 51
354.0236823066929
  0
ARC
  5
2D4
330
5F
100
AcDbEntity
  8
1
  6
Continuous
 62
     7
100
AcDbCircle
 10
150.8125508837337
 20
221.911994227002
 30
0.0
 40
11.49999999999996
100
AcDbArc
 50
73.04257370582347
 51
103.089124927621
  0
ARC
  5
2D5
330
5F
100
AcDbEntity
  8
1
  6
Continuous
 62
     7
100
AcDbCircle
 10
150.8125508837337
 20
221.911994227002
 30
0.0
 40
11.50000000000002
100
AcDbArc
 50
136.910875072377
 51
173.2723384770976
  0
ARC
  5
2D6
330
5F
100
AcDbEntity
  8
1
  6
Continuous
 62
     7
100
AcDbCircle
 10
150.8125508837337
 20
221.911994227002
 30
0.0
 40
11.49999999999996
100
AcDbArc
 50
186.7276615229075
 51
223.0891249276229
  0
ARC
  5
2D7
330
5F
100
AcDbEntity
  8
1
  6
Continuous
 62
     7
100
AcDbCircle
 10
150.8125508837337
 20
221.911994227002
 30
0.0
 40
11.50000000000004
100
AcDbArc
 50
256.9108750723787
 51
286.9574262941678
  0
ARC
  5
2D8
330
5F
100
AcDbEntity
  8
1
  6
Continuous
 62
     7
100
AcDbCircle
 10
150.8125508837337
 20
221.911994227002
 30
0.0
 40
11.50000000000001
100
AcDbArc
 50
306.7276615228996
 51
343.0891249276233
  0
ARC
  5
2D9
330
5F
100
AcDbEntity
  8
1
  6
Continuous
 62
     7
100
AcDbCircle
 10
150.8125508837337
 20
221.911994227002
 30
0.0
 40
11.50000000000001
100
AcDbArc
 50
16.9108750723756
 51
53.27233847710583
  0
CIRCLE
  5
2DA
330
5F
100
AcDbEntity
  8
1
  6
Continuous
 62
     2
100
AcDbCircle
 10
67.83473133411792
 20
92.71506465164902
 30
0.0
 40
10.35000000000018
  0
ENDBLK
  5
61
330
5F
100
AcDbEntity
  8
0
100
AcDbBlockEnd
  0
BLOCK
  5
63
330
62
100
AcDbEntity
  8
0
100
AcDbBlockBegin
  2
88-15
 70
     0
 10
277.0982307217616
 20
212.7960244477521
 30
0.0
  3
88-15
  1

  0
LINE
  5
2DB
330
62
100
AcDbEntity
  8
1
  6
Continuous
 62
     7
100
AcDbLine
 10
142.312550883734
 20
113.9150646516489
 30
0.0
 11
139.3125508837339
 21
113.9150646516489
 31
0.0
  0
LINE
  5
2DC
330
62
100
AcDbEntity
  8
1
  6
Continuous
 62
     7
100
AcDbLine
 10
139.8125508837375
 20
113.9150646516489
 30
0.0
 11
150.8125508837375
 21
113.9150646516489
 31
0.0
  0
LINE
  5
2DD
330
62
100
AcDbEntity
  8
1
  6
Continuous
 62
     7
100
AcDbLine
 10
79.33473133411792
 20
112.715064651649
 30
0.0
 11
79.33473133411792
 21
113.9150646516489
 31
0.0
  0
LINE
  5
2DE
330
62
100
AcDbEntity
  8
1
  6
Continuous
 62
     7
100
AcDbLine
 10
56.33473133411792
 20
113.9150646516489
 30
0.0
 11
56.33473133411792
 21
112.715064651649
 31
0.0
  0
LINE
  5
2DF
330
62
100
AcDbEntity
  8
1
  6
Continuous
 62
     7
100
AcDbLine
 10
139.3125508837339
 20
112.715064651649
 30
0.0
 11
159.312550883734
 21
112.715064651649
 31
0.0
  0
LINE
  5
2E0
330
62
100
AcDbEntity
  8
1
  6
Continuous
 62
     7
100
AcDbLine
 10
162.312550883734
 20
112.715064651649
 30
0.0
 11
162.312550883734
 21
113.9150646516489
 31
0.0
  0
LINE
  5
2E1
330
62
100
AcDbEntity
  8
1
  6
Continuous
 62
     7
100
AcDbLine
 10
162.312550883734
 20
113.9150646516489
 30
0.0
 11
142.312550883734
 21
113.9150646516489
 31
0.0
  0
LINE
  5
2E2
330
62
100
AcDbEntity
  8
1
  6
Continuous
 62
     7
100
AcDbLine
 10
139.3125508837339
 20
113.9150646516489
 30
0.0
 11
139.3125508837339
 21
112.715064651649
 31
0.0
  0
LINE
  5
2E3
330
62
100
AcDbEntity
  8
1
  6
Continuous
 62
     7
100
AcDbLine
 10
159.312550883734
 20
112.715064651649
 30
0.0
 11
162.312550883734
 21
112.715064651649
 31
0.0
  0
LINE
  5
2E4
330
62
100
AcDbEntity
  8
1
  6
Continuous
 62
     7
100
AcDbLine
 10
56.33473133411792
 20
113.9150646516489
 30
0.0
 11
56.88473133411793
 21
113.9150646516489
 31
0.0
  0
LINE
  5
2E5
330
62
100
AcDbEntity
  8
1
  6
Continuous
 62
     7
100
AcDbLine
 10
79.33473133411792
 20
113.9150646516489
 30
0.0
 11
56.88473133411793
 21
113.9150646516489
 31
0.0
  0
LINE
  5
2E6
330
62
100
AcDbEntity
  8
1
  6
Continuous
 62
     7
100
AcDbLine
 10
56.33473133411792
 20
112.715064651649
 30
0.0
 11
79.33473133411792
 21
112.715064651649
 31
0.0
  0
ENDBLK
  5
64
330
62
100
AcDbEntity
  8
0
100
AcDbBlockEnd
  0
BLOCK
  5
66
330
65
100
AcDbEntity
  8
0
100
AcDbBlockBegin
  2
開示A4
 70
     0
 10
0.0
 20
0.0
 30
0.0
  3
開示A4
  1

  0
POINT
  5
2E7
330
65
100
AcDbEntity
  8
1
 62
     4
100
AcDbPoint
 10
93.75
 20
17.0
 30
0.0
  0
POINT
  5
2E8
330
65
100
AcDbEntity
  8
1
 62
     4
100
AcDbPoint
 10
85.25
 20
17.0
 30
0.0
  0
POINT
  5
2E9
330
65
100
AcDbEntity
  8
1
 62
     4
100
AcDbPoint
 10
106.5
 20
19.00000000000001
 30
0.0
  0
POINT
  5
2EA
330
65
100
AcDbEntity
  8
1
 62
     4
100
AcDbPoint
 10
106.5
 20
12.5
 30
0.0
  0
POINT
  5
2EB
330
65
100
AcDbEntity
  8
1
 62
     4
100
AcDbPoint
 10
112.25
 20
12.5
 30
0.0
  0
POINT
  5
2EC
330
65
100
AcDbEntity
  8
1
 62
     4
100
AcDbPoint
 10
100.75
 20
12.5
 30
0.0
  0
POINT
  5
2ED
330
65
100
AcDbEntity
  8
1
 62
     4
100
AcDbPoint
 10
123.5
 20
19.00000000000001
 30
0.0
  0
POINT
  5
2EE
330
65
100
AcDbEntity
  8
1
 62
     4
100
AcDbPoint
 10
123.5
 20
12.5
 30
0.0
  0
POINT
  5
2EF
330
65
100
AcDbEntity
  8
1
 62
     4
100
AcDbPoint
 10
129.25
 20
12.5
 30
0.0
  0
POINT
  5
2F0
330
65
100
AcDbEntity
  8
1
 62
     4
100
AcDbPoint
 10
117.75
 20
12.5
 30
0.0
  0
POINT
  5
2F1
330
65
100
AcDbEntity
  8
1
 62
     4
100
AcDbPoint
 10
140.5
 20
19.00000000000001
 30
0.0
  0
POINT
  5
2F2
330
65
100
AcDbEntity
  8
1
 62
     4
100
AcDbPoint
 10
140.5
 20
12.5
 30
0.0
  0
POINT
  5
2F3
330
65
100
AcDbEntity
  8
1
 62
     4
100
AcDbPoint
 10
146.25
 20
12.5
 30
0.0
  0
POINT
  5
2F4
330
65
100
AcDbEntity
  8
1
 62
     4
100
AcDbPoint
 10
134.75
 20
12.5
 30
0.0
  0
POINT
  5
2F5
330
65
100
AcDbEntity
  8
1
 62
     4
100
AcDbPoint
 10
151.75
 20
12.5
 30
0.0
  0
POINT
  5
2F6
330
65
100
AcDbEntity
  8
1
 62
     4
100
AcDbPoint
 10
163.25
 20
12.5
 30
0.0
  0
POINT
  5
2F7
330
65
100
AcDbEntity
  8
1
 62
     4
100
AcDbPoint
 10
157.5
 20
12.5
 30
0.0
  0
POINT
  5
2F8
330
65
100
AcDbEntity
  8
1
 62
     4
100
AcDbPoint
 10
57.0
 20
14.25
 30
0.0
  0
POINT
  5
2F9
330
65
100
AcDbEntity
  8
1
 62
     4
100
AcDbPoint
 10
57.0
 20
22.75000000000001
 30
0.0
  0
POINT
  5
2FA
330
65
100
AcDbEntity
  8
1
 62
     4
100
AcDbPoint
 10
47.5
 20
282.0000000000003
 30
0.0
  0
POINT
  5
2FB
330
65
100
AcDbEntity
  8
1
 62
     4
100
AcDbPoint
 10
157.5
 20
19.00000000000001
 30
0.0
  0
POINT
  5
2FC
330
65
100
AcDbEntity
  8
1
 62
     4
100
AcDbPoint
 10
57.0
 20
16.25
 30
0.0
  0
POINT
  5
2FD
330
65
100
AcDbEntity
  8
1
 62
     4
100
AcDbPoint
 10
57.0
 20
24.75000000000001
 30
0.0
  0
POINT
  5
2FE
330
65
100
AcDbEntity
  8
1
 62
     4
100
AcDbPoint
 10
57.0
 20
20.75000000000001
 30
0.0
  0
POINT
  5
2FF
330
65
100
AcDbEntity
  8
1
 62
     4
100
AcDbPoint
 10
57.0
 20
12.25
 30
0.0
  0
POINT
  5
300
330
65
100
AcDbEntity
  8
1
 62
     4
100
AcDbPoint
 10
34.0
 20
34.00000000000001
 30
0.0
  0
LINE
  5
301
330
65
100
AcDbEntity
  8
1
  6
Continuous
 62
     7
100
AcDbLine
 10
105.0
 20
10.0
 30
0.0
 11
200.0
 21
10.0
 31
0.0
  0
LINE
  5
302
330
65
100
AcDbEntity
  8
1
  6
Continuous
 62
     2
100
AcDbLine
 10
105.0
 20
10.0
 30
0.0
 11
105.0
 21
5.0
 31
0.0
  0
LINE
  5
303
330
65
100
AcDbEntity
  8
1
  6
Continuous
 62
     7
100
AcDbLine
 10
200.0
 20
148.5
 30
0.0
 11
200.0
 21
287.0000000000003
 31
0.0
  0
LINE
  5
304
330
65
100
AcDbEntity
  8
1
  6
Continuous
 62
     2
100
AcDbLine
 10
200.0
 20
148.5
 30
0.0
 11
205.0
 21
148.5
 31
0.0
  0
LINE
  5
305
330
65
100
AcDbEntity
  8
1
  6
Continuous
 62
     7
100
AcDbLine
 10
25.0
 20
148.5
 30
0.0
 11
25.0
 21
287.0000000000003
 31
0.0
  0
LINE
  5
306
330
65
100
AcDbEntity
  8
1
  6
Continuous
 62
     2
100
AcDbLine
 10
25.0
 20
148.5
 30
0.0
 11
20.0
 21
148.5
 31
0.0
  0
LINE
  5
307
330
65
100
AcDbEntity
  8
1
  6
Continuous
 62
     7
100
AcDbLine
 10
105.0
 20
287.0000000000003
 30
0.0
 11
25.0
 21
287.0000000000003
 31
0.0
  0
LINE
  5
308
330
65
100
AcDbEntity
  8
1
  6
Continuous
 62
     2
100
AcDbLine
 10
105.0
 20
287.0000000000003
 30
0.0
 11
105.0
 21
292.0000000000003
 31
0.0
  0
LINE
  5
309
330
65
100
AcDbEntity
  8
1
  6
Continuous
 62
     2
100
AcDbLine
 10
166.0
 20
20.00000000000001
 30
0.0
 11
200.0
 21
20.00000000000001
 31
0.0
  0
LINE
  5
30A
330
65
100
AcDbEntity
  8
1
  6
Continuous
 62
     2
100
AcDbLine
 10
98.0
 20
27.00000000000001
 30
0.0
 11
98.0
 21
9.99999999999999
 31
0.0
  0
LINE
  5
30B
330
65
100
AcDbEntity
  8
1
  6
Continuous
 62
     2
100
AcDbLine
 10
115.0
 20
27.00000000000001
 30
0.0
 11
115.0
 21
9.99999999999999
 31
0.0
  0
LINE
  5
30C
330
65
100
AcDbEntity
  8
1
  6
Continuous
 62
     2
100
AcDbLine
 10
149.0
 20
27.00000000000001
 30
0.0
 11
149.0
 21
10.0
 31
0.0
  0
LINE
  5
30D
330
65
100
AcDbEntity
  8
1
  6
Continuous
 62
     2
100
AcDbLine
 10
132.0
 20
27.00000000000001
 30
0.0
 11
132.0
 21
9.99999999999999
 31
0.0
  0
LINE
  5
30E
330
65
100
AcDbEntity
  8
1
  6
Continuous
 62
     2
100
AcDbLine
 10
166.0
 20
27.00000000000001
 30
0.0
 11
166.0
 21
10.0
 31
0.0
  0
LINE
  5
30F
330
65
100
AcDbEntity
  8
1
  6
Continuous
 62
     2
100
AcDbLine
 10
55.0
 20
277.0000000000003
 30
0.0
 11
25.0
 21
277.0000000000003
 31
0.0
  0
LINE
  5
310
330
65
100
AcDbEntity
  8
1
  6
Continuous
 62
     7
100
AcDbLine
 10
25.0
 20
10.0
 30
0.0
 11
25.0
 21
148.5
 31
0.0
  0
LINE
  5
311
330
65
100
AcDbEntity
  8
1
  6
Continuous
 62
     2
100
AcDbLine
 10
40.0
 20
287.0000000000003
 30
0.0
 11
40.0
 21
277.0000000000003
 31
0.0
  0
LINE
  5
312
330
65
100
AcDbEntity
  8
1
  6
Continuous
 62
     2
100
AcDbLine
 10
55.0
 20
287.0000000000003
 30
0.0
 11
55.0
 21
277.0000000000003
 31
0.0
  0
LINE
  5
313
330
65
100
AcDbEntity
  8
1
  6
Continuous
 62
     2
100
AcDbLine
 10
33.0
 20
41.00000000000001
 30
0.0
 11
33.0
 21
27.0
 31
0.0
  0
LINE
  5
314
330
65
100
AcDbEntity
  8
1
  6
Continuous
 62
     7
100
AcDbLine
 10
200.0
 20
27.00000000000001
 30
0.0
 11
25.0
 21
27.00000000000001
 31
0.0
  0
LINE
  5
315
330
65
100
AcDbEntity
  8
1
  6
Continuous
 62
     7
100
AcDbLine
 10
25.0
 20
41.0
 30
0.0
 11
200.0
 21
41.0
 31
0.0
  0
LINE
  5
316
330
65
100
AcDbEntity
  8
1
  6
PHANTOM
 62
     4
100
AcDbLine
 10
0.0
 20
0.0
 30
0.0
 11
210.0
 21
0.0
 31
0.0
  0
LINE
  5
317
330
65
100
AcDbEntity
  8
1
  6
PHANTOM
 62
     4
100
AcDbLine
 10
210.0
 20
0.0
 30
0.0
 11
210.0
 21
297.0
 31
0.0
  0
LINE
  5
318
330
65
100
AcDbEntity
  8
1
  6
PHANTOM
 62
     4
100
AcDbLine
 10
210.0
 20
297.0
 30
0.0
 11
0.0
 21
297.0
 31
0.0
  0
LINE
  5
319
330
65
100
AcDbEntity
  8
1
  6
PHANTOM
 62
     4
100
AcDbLine
 10
0.0
 20
297.0
 30
0.0
 11
0.0
 21
0.0
 31
0.0
  0
LINE
  5
31A
330
65
100
AcDbEntity
  8
1
  6
Continuous
 62
     7
100
AcDbLine
 10
25.0
 20
10.0
 30
0.0
 11
105.0
 21
10.0
 31
0.0
  0
LINE
  5
31B
330
65
100
AcDbEntity
  8
1
  6
Continuous
 62
     7
100
AcDbLine
 10
200.0
 20
10.0
 30
0.0
 11
200.0
 21
148.5
 31
0.0
  0
LINE
  5
31C
330
65
100
AcDbEntity
  8
1
  6
Continuous
 62
     7
100
AcDbLine
 10
200.0
 20
287.0000000000003
 30
0.0
 11
105.0
 21
287.0000000000003
 31
0.0
  0
LINE
  5
31D
330
65
100
AcDbEntity
  8
1
  6
Continuous
 62
     2
100
AcDbLine
 10
25.0
 20
18.50000000000001
 30
0.0
 11
81.0
 21
18.50000000000001
 31
0.0
  0
LINE
  5
31E
330
65
100
AcDbEntity
  8
1
  6
Continuous
 62
     2
100
AcDbLine
 10
33.0
 20
27.0
 30
0.0
 11
33.0
 21
10.0
 31
0.0
  0
LINE
  5
31F
330
65
100
AcDbEntity
  8
1
  6
Continuous
 62
     7
100
AcDbLine
 10
191.0
 20
24.70000000000001
 30
0.0
 11
191.0
 21
22.30000000000001
 31
0.0
  0
LINE
  5
320
330
65
100
AcDbEntity
  8
1
  6
Continuous
 62
     7
100
AcDbLine
 10
191.0
 20
24.70000000000001
 30
0.0
 11
196.0
 21
25.50000000000001
 31
0.0
  0
LINE
  5
321
330
65
100
AcDbEntity
  8
1
  6
Continuous
 62
     7
100
AcDbLine
 10
196.0
 20
25.50000000000001
 30
0.0
 11
196.0
 21
21.50000000000001
 31
0.0
  0
LINE
  5
322
330
65
100
AcDbEntity
  8
1
  6
Continuous
 62
     7
100
AcDbLine
 10
196.0
 20
21.50000000000001
 30
0.0
 11
191.0
 21
22.30000000000001
 31
0.0
  0
LINE
  5
323
330
65
100
AcDbEntity
  8
1
  6
DOT_CENTER
 62
     2
100
AcDbLine
 10
184.0
 20
23.50000000000001
 30
0.0
 11
197.0
 21
23.50000000000001
 31
0.0
  0
LINE
  5
324
330
65
100
AcDbEntity
  8
1
  6
DOT_CENTER
 62
     2
100
AcDbLine
 10
187.0
 20
26.50000000000001
 30
0.0
 11
187.0
 21
20.50000000000001
 31
0.0
  0
LINE
  5
325
330
65
100
AcDbEntity
  8
1
  6
Continuous
 62
     2
100
AcDbLine
 10
81.0
 20
27.00000000000001
 30
0.0
 11
81.0
 21
10.0
 31
0.0
  0
CIRCLE
  5
326
330
65
100
AcDbEntity
  8
1
  6
Continuous
 62
     7
100
AcDbCircle
 10
103.5
 20
12.5
 30
0.0
 40
0.2999999999999972
  0
CIRCLE
  5
327
330
65
100
AcDbEntity
  8
1
  6
Continuous
 62
     7
100
AcDbCircle
 10
109.5
 20
12.5
 30
0.0
 40
0.2999999999999972
  0
CIRCLE
  5
328
330
65
100
AcDbEntity
  8
1
  6
Continuous
 62
     7
100
AcDbCircle
 10
120.5
 20
12.5
 30
0.0
 40
0.2999999999999972
  0
CIRCLE
  5
329
330
65
100
AcDbEntity
  8
1
  6
Continuous
 62
     7
100
AcDbCircle
 10
126.5
 20
12.5
 30
0.0
 40
0.2999999999999972
  0
CIRCLE
  5
32A
330
65
100
AcDbEntity
  8
1
  6
Continuous
 62
     7
100
AcDbCircle
 10
137.5
 20
12.5
 30
0.0
 40
0.3000000000000114
  0
CIRCLE
  5
32B
330
65
100
AcDbEntity
  8
1
  6
Continuous
 62
     7
100
AcDbCircle
 10
143.5
 20
12.5
 30
0.0
 40
0.3000000000000114
  0
CIRCLE
  5
32C
330
65
100
AcDbEntity
  8
1
  6
Continuous
 62
     7
100
AcDbCircle
 10
160.5
 20
12.5
 30
0.0
 40
0.3000000000000114
  0
CIRCLE
  5
32D
330
65
100
AcDbEntity
  8
1
  6
Continuous
 62
     7
100
AcDbCircle
 10
154.5
 20
12.5
 30
0.0
 40
0.3000000000000114
  0
CIRCLE
  5
32E
330
65
100
AcDbEntity
  8
1
  6
Continuous
 62
     7
100
AcDbCircle
 10
187.0
 20
23.50000000000001
 30
0.0
 40
1.200000000000102
  0
CIRCLE
  5
32F
330
65
100
AcDbEntity
  8
1
  6
Continuous
 62
     7
100
AcDbCircle
 10
187.0
 20
23.50000000000001
 30
0.0
 40
2.0
  0
CIRCLE
  5
330
330
65
100
AcDbEntity
  8
1
  6
DOT_CENTER
 62
     7
100
AcDbCircle
 10
89.5
 20
16.0
 30
0.0
 40
0.1000000000000227
  0
CIRCLE
  5
331
330
65
100
AcDbEntity
  8
1
  6
DOT_CENTER
 62
     7
100
AcDbCircle
 10
89.5
 20
18.0
 30
0.0
 40
0.1000000000000227
  0
MTEXT
  5
333
330
65
100
AcDbEntity
  8
1
 62
     7
100
AcDbMText
 10
188.5
 20
15.0
 30
0.0
 40
3.0
 41
0.0
 71
     5
 72
     1
  1
三栄水栓製作所
  7
CONVERTER_11
 73
     1
 44
1.0
  0
MTEXT
  5
334
330
65
100
AcDbEntity
  8
1
 62
     7
100
AcDbMText
 10
171.5
 20
15.0
 30
0.0
 40
2.5
 41
0.0
 71
     5
 72
     1
  1
株式会社
  7
CONVERTER_11
 73
     1
 44
1.0
  0
MTEXT
  5
335
330
65
100
AcDbEntity
  8
1
 62
     2
100
AcDbMText
 10
32.5
 20
282.0000000000003
 30
0.0
 40
5.0
 41
0.0
 71
     5
 72
     1
  1
図番
  7
CONVERTER_11
 73
     1
 44
0.45454545454545
  0
MTEXT
  5
336
330
65
100
AcDbEntity
  8
1
 62
     2
100
AcDbMText
 10
29.0
 20
34.00000000000001
 30
0.0
 40
3.5
 41
0.0
 71
     5
 72
     1
  1
備考
  7
CONVERTER_11
 73
     1
 44
0.45454545454545
  0
MTEXT
  5
337
330
65
100
AcDbEntity
  8
1
 62
     2
100
AcDbMText
 10
29.0
 20
22.75
 30
0.0
 40
3.5
 41
0.0
 71
     5
 72
     1
  1
品名
  7
CONVERTER_11
 73
     1
 44
0.72727272727273
  0
MTEXT
  5
338
330
65
100
AcDbEntity
  8
1
 62
     2
100
AcDbMText
 10
29.0
 20
14.25
 30
0.0
 40
3.5
 41
0.0
 71
     5
 72
     1
  1
品番
  7
CONVERTER_11
 73
     1
 44
0.72727272727273
  0
MTEXT
  5
339
330
65
100
AcDbEntity
  8
1
 62
     2
100
AcDbMText
 10
101.5
 20
25.00000000000001
 30
0.0
 40
3.0
 41
0.0
 71
     5
 72
     1
  1
承認
  7
CONVERTER_11
 73
     1
 44
0.59090909090909
  0
MTEXT
  5
33A
330
65
100
AcDbEntity
  8
1
 62
     2
100
AcDbMText
 10
175.0
 20
23.50000000000001
 30
0.0
 40
3.5
 41
0.0
 71
     5
 72
     1
  1
第三角法
  7
CONVERTER_11
 73
     1
 44
0.54545454545455
  0
MTEXT
  5
33B
330
65
100
AcDbEntity
  8
1
 62
     2
100
AcDbMText
 10
118.5
 20
25.00000000000001
 30
0.0
 40
3.0
 41
0.0
 71
     5
 72
     1
  1
検図
  7
CONVERTER_11
 73
     1
 44
0.59090909090909
  0
MTEXT
  5
33C
330
65
100
AcDbEntity
  8
1
 62
     2
100
AcDbMText
 10
152.5
 20
25.00000000000001
 30
0.0
 40
3.0
 41
0.0
 71
     5
 72
     1
  1
設計
  7
CONVERTER_11
 73
     1
 44
0.59090909090909
  0
MTEXT
  5
33D
330
65
100
AcDbEntity
  8
1
 62
     2
100
AcDbMText
 10
135.5
 20
25.00000000000001
 30
0.0
 40
3.0
 41
0.0
 71
     5
 72
     1
  1
製図
  7
CONVERTER_11
 73
     1
 44
0.59090909090909
  0
MTEXT
  5
33E
330
65
100
AcDbEntity
  8
1
 62
     2
100
AcDbMText
 10
89.5
 20
24.00000000000001
 30
0.0
 40
3.5
 41
0.0
 71
     5
 72
     1
  1
尺度
  7
CONVERTER_11
 73
     1
 44
0.54545454545455
  0
MTEXT
  5
33F
330
65
100
AcDbEntity
  8
1
 62
   250
100
AcDbMText
 10
25.0
 20
5.0
 30
0.0
 40
3.5
 41
0.0
 71
     4
 72
     1
  1
備考欄の文字列 原点位置=4
  7
CONVERTER_11
 73
     1
 44
0.54545454545455
  0
ENDBLK
  5
67
330
65
100
AcDbEntity
  8
0
100
AcDbBlockEnd
  0
BLOCK
  5
69
330
68
100
AcDbEntity
  8
0
100
AcDbBlockBegin
  2
91-24K
 70
     0
 10
334.4
 20
95.6969295753529
 30
0.0
  3
91-24K
  1

  0
LINE
  5
340
330
68
100
AcDbEntity
  8
1
  6
Continuous
 62
     7
100
AcDbLine
 10
60.83473133411792
 20
97.71199422700191
 30
0.0
 11
74.83473133411792
 21
97.71199422700191
 31
0.0
  0
LINE
  5
341
330
68
100
AcDbEntity
  8
1
  6
Continuous
 62
     7
100
AcDbLine
 10
60.83473133411792
 20
95.71506465164902
 30
0.0
 11
60.83473133411792
 21
97.71199422700191
 31
0.0
  0
LINE
  5
342
330
68
100
AcDbEntity
  8
1
  6
Continuous
 62
     7
100
AcDbLine
 10
74.83473133411792
 20
97.71199422700191
 30
0.0
 11
74.83473133411792
 21
95.71506465164902
 31
0.0
  0
ENDBLK
  5
6A
330
68
100
AcDbEntity
  8
0
100
AcDbBlockEnd
  0
BLOCK
  5
382
330
37B
100
AcDbEntity
  8
0
100
AcDbBlockBegin
  2
*D13
 70
     1
 10
0.0
 20
0.0
 30
0.0
  3
*D13
  1

  0
LINE
  5
37C
330
37B
100
AcDbEntity
  8
1
  6
Continuous
 62
     2
100
AcDbLine
 10
128.3125508837339
 20
60.70918414093684
 30
0.0
 11
173.3125508837338
 21
60.70918414093684
 31
0.0
  0
LINE
  5
37D
330
37B
100
AcDbEntity
  8
1
  6
Continuous
 62
     2
100
AcDbLine
 10
173.3125508837338
 20
80.2150646516491
 30
0.0
 11
173.3125508837338
 21
59.70918414093684
 31
0.0
  0
LINE
  5
37E
330
37B
100
AcDbEntity
  8
1
  6
Continuous
 62
     2
100
AcDbLine
 10
128.3125508837339
 20
80.2150646516491
 30
0.0
 11
128.3125508837339
 21
59.70918414093684
 31
0.0
  0
SOLID
  5
37F
330
37B
100
AcDbEntity
  8
1
 62
     2
100
AcDbTrace
 10
131.8125508837339
 20
61.16996788249273
 30
0.0
 11
131.8125508837339
 21
60.24840039938096
 31
0.0
 12
128.3125508837339
 22
60.70918414093684
 32
0.0
 13
128.3125508837339
 23
60.70918414093684
 33
0.0
  0
SOLID
  5
380
330
37B
100
AcDbEntity
  8
1
 62
     2
100
AcDbTrace
 10
169.8125508837338
 20
60.24840039938096
 30
0.0
 11
169.8125508837338
 21
61.16996788249273
 31
0.0
 12
173.3125508837338
 22
60.70918414093684
 32
0.0
 13
173.3125508837338
 23
60.70918414093684
 33
0.0
  0
MTEXT
  5
381
330
37B
100
AcDbEntity
  8
1
 62
     7
100
AcDbMText
 10
150.1536931734854
 20
61.70918414093684
 30
0.0
 40
3.5
 41
0.0
 71
     7
 72
     1
  1
45
  7
CONVERTER_12
 11
0.9999999999970619
 21
2.424068405545306E-6
 31
0.0
 73
     1
 44
0.60024009603842
  0
ENDBLK
  5
383
330
37B
100
AcDbEntity
  8
0
100
AcDbBlockEnd
  0
BLOCK
  5
38D
330
386
100
AcDbEntity
  8
0
100
AcDbBlockBegin
  2
*D14
 70
     1
 10
0.0
 20
0.0
 30
0.0
  3
*D14
  1

  0
LINE
  5
387
330
386
100
AcDbEntity
  8
0
  6
Continuous
 62
     2
100
AcDbLine
 10
187.3125508837421
 20
195.411994226994
 30
0.0
 11
187.3125508837421
 21
248.4119942270101
 31
0.0
  0
LINE
  5
388
330
386
100
AcDbEntity
  8
0
  6
Continuous
 62
     2
100
AcDbLine
 10
150.8125508837336
 20
248.4119942270101
 30
0.0
 11
188.3125508837421
 21
248.4119942270101
 31
0.0
  0
LINE
  5
389
330
386
100
AcDbEntity
  8
0
  6
Continuous
 62
     2
100
AcDbLine
 10
150.8125508837337
 20
195.411994226994
 30
0.0
 11
188.3125508837421
 21
195.411994226994
 31
0.0
  0
SOLID
  5
38A
330
386
100
AcDbEntity
  8
0
 62
     2
100
AcDbTrace
 10
186.8517671421862
 20
198.911994226994
 30
0.0
 11
187.773334625298
 21
198.911994226994
 31
0.0
 12
187.3125508837421
 22
195.411994226994
 32
0.0
 13
187.3125508837421
 23
195.411994226994
 33
0.0
  0
SOLID
  5
38B
330
386
100
AcDbEntity
  8
0
 62
     2
100
AcDbTrace
 10
187.773334625298
 20
244.9119942270101
 30
0.0
 11
186.8517671421862
 21
244.9119942270101
 31
0.0
 12
187.3125508837421
 22
248.4119942270101
 32
0.0
 13
187.3125508837421
 23
248.4119942270101
 33
0.0
  0
MTEXT
  5
38C
330
386
100
AcDbEntity
  8
0
 62
     7
100
AcDbMText
 10
186.3125508837421
 20
219.2869942270024
 30
0.0
 40
3.5
 41
0.0
 71
     7
 72
     1
  1
53
  7
CONVERTER_12
 11
0.0
 21
1.0
 31
0.0
 73
     1
 44
0.60024009603842
  0
ENDBLK
  5
38E
330
386
100
AcDbEntity
  8
0
100
AcDbBlockEnd
  0
BLOCK
  5
398
330
391
100
AcDbEntity
  8
0
100
AcDbBlockBegin
  2
*D15
 70
     1
 10
0.0
 20
0.0
 30
0.0
  3
*D15
  1

  0
LINE
  5
392
330
391
100
AcDbEntity
  8
0
  6
Continuous
 62
     2
100
AcDbLine
 10
54.33473133411792
 20
67.12660738352929
 30
0.0
 11
81.33473133411783
 21
67.12660738352929
 31
0.0
  0
LINE
  5
393
330
391
100
AcDbEntity
  8
0
  6
Continuous
 62
     2
100
AcDbLine
 10
81.33473133411783
 20
84.92083601758907
 30
0.0
 11
81.33473133411783
 21
66.12660738352929
 31
0.0
  0
LINE
  5
394
330
391
100
AcDbEntity
  8
0
  6
Continuous
 62
     2
100
AcDbLine
 10
54.33473133411792
 20
84.92083601758907
 30
0.0
 11
54.33473133411792
 21
66.12660738352929
 31
0.0
  0
SOLID
  5
395
330
391
100
AcDbEntity
  8
0
 62
     2
100
AcDbTrace
 10
57.83473133411792
 20
67.58739112508518
 30
0.0
 11
57.83473133411792
 21
66.6658236419734
 31
0.0
 12
54.33473133411792
 22
67.12660738352929
 32
0.0
 13
54.33473133411792
 23
67.12660738352929
 33
0.0
  0
SOLID
  5
396
330
391
100
AcDbEntity
  8
0
 62
     2
100
AcDbTrace
 10
77.83473133411783
 20
66.6658236419734
 30
0.0
 11
77.83473133411783
 21
67.58739112508518
 31
0.0
 12
81.33473133411783
 22
67.12660738352929
 32
0.0
 13
81.33473133411783
 23
67.12660738352929
 33
0.0
  0
MTEXT
  5
397
330
391
100
AcDbEntity
  8
0
 62
     7
100
AcDbMText
 10
65.20973133411788
 20
68.12660738352929
 30
0.0
 40
3.5
 41
0.0
 71
     7
 72
     1
  1
27
  7
CONVERTER_12
 11
0.9999999999970619
 21
2.424068405545306E-6
 31
0.0
 73
     1
 44
0.60024009603842
  0
ENDBLK
  5
399
330
391
100
AcDbEntity
  8
0
100
AcDbBlockEnd
  0
BLOCK
  5
3A3
330
39C
100
AcDbEntity
  8
0
100
AcDbBlockBegin
  2
*D16
 70
     1
 10
0.0
 20
0.0
 30
0.0
  3
*D16
  1

  0
LINE
  5
39D
330
39C
100
AcDbEntity
  8
1
  6
Continuous
 62
     2
100
AcDbLine
 10
187.810952039589
 20
92.7150646516491
 30
0.0
 11
187.810952039589
 21
159.2119942270019
 31
0.0
  0
LINE
  5
39E
330
39C
100
AcDbEntity
  8
1
  6
Continuous
 62
     2
100
AcDbLine
 10
155.143800883734
 20
159.2119942270019
 30
0.0
 11
188.810952039589
 21
159.2119942270019
 31
0.0
  0
LINE
  5
39F
330
39C
100
AcDbEntity
  8
1
  6
Continuous
 62
     2
100
AcDbLine
 10
175.8136962891077
 20
92.7150646516491
 30
0.0
 11
188.810952039589
 21
92.7150646516491
 31
0.0
  0
SOLID
  5
3A0
330
39C
100
AcDbEntity
  8
1
 62
     2
100
AcDbTrace
 10
187.3501682980331
 20
96.2150646516491
 30
0.0
 11
188.2717357811449
 21
96.2150646516491
 31
0.0
 12
187.810952039589
 22
92.7150646516491
 32
0.0
 13
187.810952039589
 23
92.7150646516491
 33
0.0
  0
SOLID
  5
3A1
330
39C
100
AcDbEntity
  8
1
 62
     2
100
AcDbTrace
 10
188.2717357811449
 20
155.7119942270019
 30
0.0
 11
187.3501682980331
 21
155.7119942270019
 31
0.0
 12
187.810952039589
 22
159.2119942270019
 32
0.0
 13
187.810952039589
 23
159.2119942270019
 33
0.0
  0
MTEXT
  5
3A2
330
39C
100
AcDbEntity
  8
1
 62
     7
100
AcDbMText
 10
186.810952039589
 20
116.5135294393255
 30
0.0
 40
3.5
 41
0.0
 71
     7
 72
     1
  1
67リフト5
  7
CONVERTER_11
 11
0.0
 21
1.0
 31
0.0
 73
     1
 44
0.45454545454545
  0
ENDBLK
  5
3A4
330
39C
100
AcDbEntity
  8
0
100
AcDbBlockEnd
  0
BLOCK
  5
3AE
330
3A7
100
AcDbEntity
  8
0
100
AcDbBlockBegin
  2
*D17
 70
     1
 10
0.0
 20
0.0
 30
0.0
  3
*D17
  1

  0
LINE
  5
3A8
330
3A7
100
AcDbEntity
  8
1
  6
Continuous
 62
     2
100
AcDbLine
 10
128.3125508837339
 20
67.12660738352929
 30
0.0
 11
150.8125508837339
 21
67.12660738352929
 31
0.0
  0
LINE
  5
3A9
330
3A7
100
AcDbEntity
  8
1
  6
Continuous
 62
     2
100
AcDbLine
 10
150.8125508837339
 20
75.50713586815897
 30
0.0
 11
150.8125508837339
 21
66.12660738352929
 31
0.0
  0
LINE
  5
3AA
330
3A7
100
AcDbEntity
  8
1
  6
Continuous
 62
     2
100
AcDbLine
 10
128.3125508837339
 20
80.2150646516491
 30
0.0
 11
128.3125508837339
 21
66.12660738352929
 31
0.0
  0
SOLID
  5
3AB
330
3A7
100
AcDbEntity
  8
1
 62
     2
100
AcDbTrace
 10
131.8125508837339
 20
67.58739112508518
 30
0.0
 11
131.8125508837339
 21
66.6658236419734
 31
0.0
 12
128.3125508837339
 22
67.12660738352929
 32
0.0
 13
128.3125508837339
 23
67.12660738352929
 33
0.0
  0
SOLID
  5
3AC
330
3A7
100
AcDbEntity
  8
1
 62
     2
100
AcDbTrace
 10
147.3125508837339
 20
66.6658236419734
 30
0.0
 11
147.3125508837339
 21
67.58739112508518
 31
0.0
 12
150.8125508837339
 22
67.12660738352929
 32
0.0
 13
150.8125508837339
 23
67.12660738352929
 33
0.0
  0
MTEXT
  5
3AD
330
3A7
100
AcDbEntity
  8
1
 62
     7
100
AcDbMText
 10
137.8291117012988
 20
68.12660738352929
 30
0.0
 40
3.5
 41
0.0
 71
     7
 72
     1
  1
23
  7
CONVERTER_12
 11
0.9999999999970619
 21
2.424068405545306E-6
 31
0.0
 73
     1
 44
0.60024009603842
  0
ENDBLK
  5
3AF
330
3A7
100
AcDbEntity
  8
0
100
AcDbBlockEnd
  0
ENDSEC
  0
SECTION
  2
ENTITIES
  0
INSERT
  5
6B
330
1F
100
AcDbEntity
  8
0
100
AcDbBlockReference
  2
37-32-13__1
 10
429.6643273320476
 20
37.168794404381
 30
0.0
  0
INSERT
  5
6C
330
1F
100
AcDbEntity
  8
1
100
AcDbBlockReference
  2
21-2
 10
207.8125508837339
 20
103.9119942270019
 30
0.0
  0
INSERT
  5
6D
330
1F
100
AcDbEntity
  8
0
100
AcDbBlockReference
  2
72-1
 10
225.6614195430176
 20
57.14281888804391
 30
0.0
  0
INSERT
  5
6E
330
1F
100
AcDbEntity
  8
1
100
AcDbBlockReference
  2
36-39-13
 10
318.1945729106195
 20
122.889077599358
 30
0.0
  0
INSERT
  5
6F
330
1F
100
AcDbEntity
  8
0
100
AcDbBlockReference
  2
32-48-13
 10
473.6324317702582
 20
125.8298431803122
 30
0.0
  0
INSERT
  5
70
330
1F
100
AcDbEntity
  8
0
100
AcDbBlockReference
  2
37-32-13__2
 10
284.7315460811155
 20
101.5505472027755
 30
0.0
  0
INSERT
  5
71
330
1F
100
AcDbEntity
  8
0
100
AcDbBlockReference
  2
31-26-13
 10
328.3629051430391
 20
104.6851485973301
 30
0.0
  0
INSERT
  5
72
330
1F
100
AcDbEntity
  8
0
100
AcDbBlockReference
  2
73-4
 10
298.6324317702582
 20
73.03366930738952
 30
0.0
  0
INSERT
  5
73
330
1F
100
AcDbEntity
  8
0
100
AcDbBlockReference
  2
V30-0-13
 10
154.5545803113722
 20
249.0655936677896
 30
0.0
  0
INSERT
  5
74
330
1F
100
AcDbEntity
  8
0
100
AcDbBlockReference
  2
88-15
 10
277.0982307217616
 20
212.7960244477521
 30
0.0
  0
INSERT
  5
75
330
1F
100
AcDbEntity
  8
1
100
AcDbBlockReference
  2
開示A4
 10
0.0
 20
0.0
 30
0.0
  0
INSERT
  5
76
330
1F
100
AcDbEntity
  8
1
100
AcDbBlockReference
  2
91-24K
 10
334.4
 20
95.6969295753529
 30
0.0
  0
LINE
  5
343
330
1F
100
AcDbEntity
  8
1
  6
DASH_CENTER
 62
     2
100
AcDbLine
 10
52.83473133411783
 20
92.71506465164902
 30
0.0
 11
82.83473133411792
 21
92.71506465164902
 31
0.0
  0
LINE
  5
344
330
1F
100
AcDbEntity
  8
1
  6
DASH_CENTER
 62
     2
100
AcDbLine
 10
82.83473133411792
 20
92.71506465164902
 30
0.0
 11
84.94853676665952
 21
92.71506465164907
 31
0.0
  0
LINE
  5
345
330
1F
100
AcDbEntity
  8
1
  6
DASH_CENTER
 62
     2
100
AcDbLine
 10
150.8125508837339
 20
75.50713586815897
 30
0.0
 11
150.8125508837339
 21
161.2119942270019
 31
0.0
  0
LINE
  5
346
330
1F
100
AcDbEntity
  8
1
  6
DASH_CENTER
 62
     2
100
AcDbLine
 10
67.83473133411792
 20
75.50713586815897
 30
0.0
 11
67.83473133411792
 21
161.2119942270019
 31
0.0
  0
LINE
  5
347
330
1F
100
AcDbEntity
  8
1
  6
DASH_CENTER
 62
     2
100
AcDbLine
 10
150.8125508837339
 20
191.9119942270019
 30
0.0
 11
150.8125508837337
 21
195.411994226994
 31
0.0
  0
LINE
  5
348
330
1F
100
AcDbEntity
  8
1
  6
DASH_CENTER
 62
     2
100
AcDbLine
 10
180.812550883734
 20
221.9119942270019
 30
0.0
 11
120.8125508837339
 21
221.9119942270019
 31
0.0
  0
LINE
  5
349
330
1F
100
AcDbEntity
  8
1
  6
DASH_CENTER
 62
     2
100
AcDbLine
 10
150.8125508837337
 20
248.4119942270101
 30
0.0
 11
150.8125508837339
 21
251.9119942270019
 31
0.0
  0
LINE
  5
34A
330
1F
100
AcDbEntity
  8
1
  6
DASH_CENTER
 62
     2
100
AcDbLine
 10
150.8125508837337
 20
195.411994226994
 30
0.0
 11
150.8125508837337
 21
248.4119942270101
 31
0.0
  0
LINE
  5
34B
330
1F
100
AcDbEntity
  8
1
  6
DASH_CENTER
 62
     2
100
AcDbLine
 10
125.8136962891076
 20
92.71506465164907
 30
0.0
 11
175.8136962891076
 21
92.71506465164907
 31
0.0
  0
LINE
  5
34C
330
1F
100
AcDbEntity
  8
1
  6
DASH_CENTER
 62
     2
100
AcDbLine
 10
49.94853676665952
 20
92.71506465164907
 30
0.0
 11
52.83473133411783
 21
92.71506465164902
 31
0.0
  0
LINE
  5
34D
330
1F
100
AcDbEntity
  8
1
  6
Continuous
 62
     7
100
AcDbLine
 10
32.43336037205849
 20
79.94559789475682
 30
0.0
 11
30.99086253843799
 21
79.94559789475682
 31
0.0
  0
LINE
  5
34E
330
1F
100
AcDbEntity
  8
1
  6
Continuous
 62
     7
100
AcDbLine
 10
29.55586253843807
 20
78.5105978947567
 30
0.0
 11
30.99086253843799
 21
79.94559789475682
 31
0.0
  0
LINE
  5
34F
330
1F
100
AcDbEntity
  8
1
  6
Continuous
 62
     7
100
AcDbLine
 10
32.43336037205849
 20
79.94559789475682
 30
0.0
 11
31.08336037205857
 21
78.59559789475679
 31
0.0
  0
LINE
  5
350
330
1F
100
AcDbEntity
  8
1
  6
Continuous
 62
     7
100
AcDbLine
 10
29.55586253843807
 20
78.5105978947567
 30
0.0
 11
31.08336037205857
 21
78.59559789475679
 31
0.0
  0
LINE
  5
351
330
1F
100
AcDbEntity
  8
1
  6
Continuous
 62
     7
100
AcDbLine
 10
31.08336037205857
 20
82.19559789475682
 30
0.0
 11
29.55586253843807
 21
82.28059789475668
 31
0.0
  0
LINE
  5
352
330
1F
100
AcDbEntity
  8
1
  6
Continuous
 62
     7
100
AcDbLine
 10
32.43336037205849
 20
80.84559789475679
 30
0.0
 11
30.99086253843799
 21
80.84559789475679
 31
0.0
  0
LINE
  5
353
330
1F
100
AcDbEntity
  8
1
  6
Continuous
 62
     7
100
AcDbLine
 10
29.55586253843807
 20
82.28059789475668
 30
0.0
 11
30.99086253843799
 21
80.84559789475679
 31
0.0
  0
LINE
  5
354
330
1F
100
AcDbEntity
  8
1
  6
Continuous
 62
     7
100
AcDbLine
 10
31.08336037205857
 20
82.19559789475682
 30
0.0
 11
32.43336037205849
 21
80.84559789475679
 31
0.0
  0
LINE
  5
355
330
1F
100
AcDbEntity
  8
1
  6
Continuous
 62
     7
100
AcDbLine
 10
34.38497508813339
 20
79.94559789475682
 30
0.0
 11
32.94247725451279
 21
79.94559789475682
 31
0.0
  0
LINE
  5
356
330
1F
100
AcDbEntity
  8
1
  6
Continuous
 62
     7
100
AcDbLine
 10
31.50747725451287
 20
78.5105978947567
 30
0.0
 11
32.94247725451279
 21
79.94559789475682
 31
0.0
  0
LINE
  5
357
330
1F
100
AcDbEntity
  8
1
  6
Continuous
 62
     7
100
AcDbLine
 10
34.38497508813339
 20
79.94559789475682
 30
0.0
 11
33.03497508813339
 21
78.59559789475674
 31
0.0
  0
LINE
  5
358
330
1F
100
AcDbEntity
  8
1
  6
Continuous
 62
     7
100
AcDbLine
 10
31.50747725451287
 20
78.5105978947567
 30
0.0
 11
33.03497508813339
 21
78.59559789475674
 31
0.0
  0
LINE
  5
359
330
1F
100
AcDbEntity
  8
1
  6
Continuous
 62
     7
100
AcDbLine
 10
33.03497508813339
 20
82.19559789475682
 30
0.0
 11
31.50747725451287
 21
82.28059789475668
 31
0.0
  0
LINE
  5
35A
330
1F
100
AcDbEntity
  8
1
  6
Continuous
 62
     7
100
AcDbLine
 10
34.38497508813339
 20
80.84559789475674
 30
0.0
 11
32.94247725451279
 21
80.84559789475674
 31
0.0
  0
LINE
  5
35B
330
1F
100
AcDbEntity
  8
1
  6
Continuous
 62
     7
100
AcDbLine
 10
31.50747725451287
 20
82.28059789475668
 30
0.0
 11
32.94247725451279
 21
80.84559789475674
 31
0.0
  0
LINE
  5
35C
330
1F
100
AcDbEntity
  8
1
  6
Continuous
 62
     7
100
AcDbLine
 10
33.03497508813339
 20
82.19559789475682
 30
0.0
 11
34.38497508813339
 21
80.84559789475674
 31
0.0
  0
LINE
  5
35D
330
1F
100
AcDbEntity
  8
1
  6
Continuous
 62
     7
100
AcDbLine
 10
30.33658980420819
 20
80.84559789475679
 30
0.0
 11
34.89409197058769
 21
80.84559789475674
 31
0.0
  0
LINE
  5
35E
330
1F
100
AcDbEntity
  8
1
  6
Continuous
 62
     7
100
AcDbLine
 10
34.89409197058769
 20
79.94559789475682
 30
0.0
 11
30.33658980420819
 21
79.94559789475682
 31
0.0
  0
LINE
  5
35F
330
1F
100
AcDbEntity
  8
1
  6
Continuous
 62
     7
100
AcDbLine
 10
36.33658980420818
 20
79.94559789475682
 30
0.0
 11
34.89409197058769
 21
79.94559789475682
 31
0.0
  0
LINE
  5
360
330
1F
100
AcDbEntity
  8
1
  6
Continuous
 62
     7
100
AcDbLine
 10
33.45909197058767
 20
78.5105978947567
 30
0.0
 11
34.89409197058769
 21
79.94559789475682
 31
0.0
  0
LINE
  5
361
330
1F
100
AcDbEntity
  8
1
  6
Continuous
 62
     7
100
AcDbLine
 10
34.98658980420819
 20
82.19559789475682
 30
0.0
 11
33.45909197058767
 21
82.28059789475668
 31
0.0
  0
LINE
  5
362
330
1F
100
AcDbEntity
  8
1
  6
Continuous
 62
     7
100
AcDbLine
 10
36.33658980420818
 20
80.84559789475674
 30
0.0
 11
34.89409197058769
 21
80.84559789475674
 31
0.0
  0
LINE
  5
363
330
1F
100
AcDbEntity
  8
1
  6
Continuous
 62
     7
100
AcDbLine
 10
33.45909197058767
 20
82.28059789475668
 30
0.0
 11
34.89409197058769
 21
80.84559789475674
 31
0.0
  0
LINE
  5
364
330
1F
100
AcDbEntity
  8
1
  6
Continuous
 62
     7
100
AcDbLine
 10
39.93658980420822
 20
79.94559789475682
 30
0.0
 11
36.33658980420818
 21
79.94559789475682
 31
0.0
  0
LINE
  5
365
330
1F
100
AcDbEntity
  8
1
  6
Continuous
 62
     7
100
AcDbLine
 10
36.33658980420818
 20
79.94559789475682
 30
0.0
 11
34.98658980420819
 21
78.59559789475679
 31
0.0
  0
LINE
  5
366
330
1F
100
AcDbEntity
  8
1
  6
Continuous
 62
     7
100
AcDbLine
 10
33.45909197058767
 20
78.5105978947567
 30
0.0
 11
34.98658980420819
 21
78.59559789475679
 31
0.0
  0
LINE
  5
367
330
1F
100
AcDbEntity
  8
1
  6
Continuous
 62
     7
100
AcDbLine
 10
39.93658980420822
 20
80.84559789475674
 30
0.0
 11
36.33658980420818
 21
80.84559789475674
 31
0.0
  0
LINE
  5
368
330
1F
100
AcDbEntity
  8
1
  6
Continuous
 62
     7
100
AcDbLine
 10
34.98658980420819
 20
82.19559789475682
 30
0.0
 11
36.33658980420818
 21
80.84559789475674
 31
0.0
  0
LINE
  5
369
330
1F
100
AcDbEntity
  8
1
  6
Continuous
 62
     7
100
AcDbLine
 10
39.93658980420822
 20
79.00995724870171
 30
0.0
 11
39.93658980420822
 21
79.94559789475682
 31
0.0
  0
LINE
  5
36A
330
1F
100
AcDbEntity
  8
1
  6
Continuous
 62
     7
100
AcDbLine
 10
30.33658980420819
 20
79.94559789475682
 30
0.0
 11
30.33658980420819
 21
80.84559789475679
 31
0.0
  0
LINE
  5
36B
330
1F
100
AcDbEntity
  8
1
  6
Continuous
 62
     7
100
AcDbLine
 10
42.33658980420818
 20
80.39559789475669
 30
0.0
 11
39.93658980420822
 21
79.00995724870171
 31
0.0
  0
LINE
  5
36C
330
1F
100
AcDbEntity
  8
1
  6
Continuous
 62
     7
100
AcDbLine
 10
39.93658980420822
 20
80.84559789475674
 30
0.0
 11
39.93658980420822
 21
81.78123854081178
 31
0.0
  0
LINE
  5
36D
330
1F
100
AcDbEntity
  8
1
  6
Continuous
 62
     7
100
AcDbLine
 10
39.93658980420822
 20
81.78123854081178
 30
0.0
 11
42.33658980420818
 21
80.39559789475669
 31
0.0
  0
SOLID
  5
36E
330
1F
100
AcDbEntity
  8
1
 62
     2
100
AcDbTrace
 10
51.48378175995605
 20
89.45358386762555
 30
0.0
 11
50.68568090827957
 21
89.91436760918144
 31
0.0
 12
52.83473133411783
 22
92.71506465164902
 32
0.0
 13
52.83473133411783
 23
92.71506465164902
 33
0.0
  0
LEADER
  5
36F
330
1F
100
AcDbEntity
  8
1
  6
Continuous
 62
     2
100
AcDbLeader
  3
Standard
 71
     0
 76
     3
 10
52.83473133411783
 20
92.71506465164902
 30
0.0
 10
43.83473133411783
 20
77.12660738352929
 30
0.0
 10
28.80899655991018
 20
77.12660738352929
 30
0.0
  0
SOLID
  5
370
330
1F
100
AcDbEntity
  8
1
 62
     2
100
AcDbTrace
 10
126.9616013095722
 20
78.97658386762573
 30
0.0
 11
126.1635004578958
 21
79.43736760918162
 31
0.0
 12
128.312550883734
 22
82.23806465164921
 32
0.0
 13
128.312550883734
 23
82.23806465164921
 33
0.0
  0
LEADER
  5
371
330
1F
100
AcDbEntity
  8
1
  6
Continuous
 62
     2
100
AcDbLeader
  3
Standard
 71
     0
 76
     3
 10
128.312550883734
 20
82.23806465164921
 30
0.0
 10
119.5879469621373
 20
67.12660738352908
 30
0.0
 10
104.1473675071254
 20
67.12660738352908
 30
0.0
  0
SOLID
  5
372
330
1F
100
AcDbEntity
  8
1
 62
     2
100
AcDbTrace
 10
175.4616013095722
 20
79.43736760918162
 30
0.0
 11
174.6635004578957
 21
78.97658386762573
 31
0.0
 12
173.3125508837339
 22
82.23806465164921
 32
0.0
 13
173.3125508837339
 23
82.23806465164921
 33
0.0
  0
LEADER
  5
373
330
1F
100
AcDbEntity
  8
1
  6
Continuous
 62
     2
100
AcDbLeader
  3
Standard
 71
     0
 76
     3
 10
173.3125508837339
 20
82.23806465164921
 30
0.0
 10
182.0371548053304
 20
67.12660738352936
 30
0.0
 10
197.8032414827249
 20
67.12660738352936
 30
0.0
  0
MTEXT
  5
375
330
1F
100
AcDbEntity
  8
0
 62
     7
100
AcDbMText
 10
111.7870652168935
 20
70.12660738352908
 30
0.0
 40
3.5
 41
0.0
 71
     5
 72
     1
  1
Rc1/2
  7
CONVERTER_12
 73
     1
 44
1.32052821128451
  0
MTEXT
  5
376
330
1F
100
AcDbEntity
  8
0
 62
     7
100
AcDbMText
 10
190.1596314222442
 20
70.12660738352936
 30
0.0
 40
3.5
 41
0.0
 71
     5
 72
     1
  1
Rc1/2
  7
CONVERTER_12
 73
     1
 44
1.32052821128451
  0
MTEXT
  5
377
330
1F
100
AcDbEntity
  8
0
 62
     7
100
AcDbMText
 10
57.0
 20
14.25
 30
0.0
 40
3.5
 41
0.0
 71
     5
 72
     1
  1
V30-13
  7
CONVERTER_12
 73
     1
 44
1.32052821128451
  0
MTEXT
  5
378
330
1F
100
AcDbEntity
  8
0
 62
     7
100
AcDbMText
 10
57.0
 20
22.75000000000001
 30
0.0
 40
3.5
 41
0.0
 71
     5
 72
     1
  1
ストップバルブ
  7
CONVERTER_11
 73
     1
 44
1.0
  0
MTEXT
  5
379
330
1F
100
AcDbEntity
  8
1
 62
     7
100
AcDbMText
 10
85.25
 20
17.0
 30
0.0
 40
3.5
 41
0.0
 71
     5
 72
     1
  1
1
  7
CONVERTER_12
 73
     1
 44
0.7202881152461
  0
MTEXT
  5
37A
330
1F
100
AcDbEntity
  8
1
 62
     7
100
AcDbMText
 10
93.75
 20
17.0
 30
0.0
 40
3.5
 41
0.0
 71
     5
 72
     1
  1
1
  7
CONVERTER_12
 73
     1
 44
0.7202881152461
  0
DIMENSION
  5
385
330
1F
100
AcDbEntity
  8
1
100
AcDbDimension
  2
*D13
 10
128.3125508837339
 20
60.70918414093684
 30
0.0
 11
152.7786931734854
 21
63.45918414093684
 31
0.0
 70
    33
  1
<>
 71
     5
 42
-1.0
 53
0.00013888888889
  3
ME10_DIM_10
100
AcDbAlignedDimension
 13
173.3125508837338
 23
80.2150646516491
 33
0.0
 14
128.3125508837339
 24
80.2150646516491
 34
0.0
  0
DIMENSION
  5
390
330
1F
100
AcDbEntity
  8
0
100
AcDbDimension
  2
*D14
 10
187.3125508837421
 20
195.411994226994
 30
0.0
 11
184.5625508837421
 21
221.9119942270024
 31
0.0
 70
    33
  1
<>
 71
     5
 42
-1.0
 53
90.0
  3
ME10_DIM_11
100
AcDbAlignedDimension
 13
150.8125508837337
 23
248.4119942270101
 33
0.0
 14
150.8125508837337
 24
195.411994226994
 34
0.0
  0
DIMENSION
  5
39B
330
1F
100
AcDbEntity
  8
0
100
AcDbDimension
  2
*D15
 10
54.33473133411792
 20
67.12660738352929
 30
0.0
 11
67.83473133411788
 21
69.87660738352929
 31
0.0
 70
    32
  1
<>
 71
     5
 42
-1.0
 53
0.00013888888889
  3
ME10_DIM_12
100
AcDbAlignedDimension
 13
81.33473133411783
 23
84.92083601758907
 33
0.0
 14
54.33473133411792
 24
84.92083601758907
 34
0.0
100
AcDbRotatedDimension
  0
DIMENSION
  5
3A6
330
1F
100
AcDbEntity
  8
1
100
AcDbDimension
  2
*D16
 10
187.810952039589
 20
92.7150646516491
 30
0.0
 11
185.060952039589
 21
125.9635294393255
 31
0.0
 70
    32
  1
67リフト5
 71
     5
 42
-1.0
 53
90.0
  3
ME10_DIM_13
100
AcDbAlignedDimension
 13
155.143800883734
 23
159.2119942270019
 33
0.0
 14
175.8136962891076
 24
92.71506465164907
 34
0.0
 50
90.0
100
AcDbRotatedDimension
  0
DIMENSION
  5
3B1
330
1F
100
AcDbEntity
  8
1
100
AcDbDimension
  2
*D17
 10
128.3125508837339
 20
67.12660738352929
 30
0.0
 11
140.4541117012988
 21
69.87660738352929
 31
0.0
 70
    32
  1
23
 71
     5
 42
-1.0
 53
0.00013888888889
  3
ME10_DIM_14
100
AcDbAlignedDimension
 13
150.8125508837339
 23
75.50713586815897
 33
0.0
 14
128.3125508837339
 24
80.2150646516491
 34
0.0
100
AcDbRotatedDimension
  0
ENDSEC
  0
SECTION
  2
OBJECTS
  0
DICTIONARY
  5
C
330
0
100
AcDbDictionary
281
     1
  3
ACAD_GROUP
350
D
  3
ACAD_LAYOUT
350
1A
  3
ACAD_MATERIAL
350
3B
  3
ACAD_MLEADERSTYLE
350
3B4
  3
ACAD_MLINESTYLE
350
17
  3
ACAD_PLOTSETTINGS
350
19
  3
ACAD_PLOTSTYLENAME
350
E
  3
ACAD_VISUALSTYLE
350
2A
  3
AcDbVariableDictionary
350
3B2
  0
DICTIONARY
  5
D
102
{ACAD_REACTORS
330
C
102
}
330
C
100
AcDbDictionary
281
     1
  0
DICTIONARY
  5
1A
102
{ACAD_REACTORS
330
C
102
}
330
C
100
AcDbDictionary
281
     1
  3
Layout1
350
1E
  3
Layout2
350
26
  3
Model
350
22
  0
DICTIONARY
  5
3B
102
{ACAD_REACTORS
330
C
102
}
330
C
100
AcDbDictionary
281
     1
  3
ByBlock
350
3D
  3
ByLayer
350
3C
  3
Global
350
3E
  0
DICTIONARY
  5
3B4
102
{ACAD_REACTORS
330
C
102
}
330
C
100
AcDbDictionary
281
     1
  0
DICTIONARY
  5
17
102
{ACAD_REACTORS
330
C
102
}
330
C
100
AcDbDictionary
281
     1
  3
Standard
350
18
  0
DICTIONARY
  5
19
102
{ACAD_REACTORS
330
C
102
}
330
C
100
AcDbDictionary
281
     1
  0
ACDBDICTIONARYWDFLT
  5
E
102
{ACAD_REACTORS
330
C
102
}
330
C
100
AcDbDictionary
281
     1
  3
Normal
350
F
100
AcDbDictionaryWithDefault
340
F
  0
DICTIONARY
  5
2A
102
{ACAD_REACTORS
330
C
102
}
330
C
100
AcDbDictionary
281
     1
  3
2dWireframe
350
2F
  3
3D Hidden
350
31
  3
3dWireframe
350
30
  3
Basic
350
32
  3
Brighten
350
36
  3
ColorChange
350
3A
  3
Conceptual
350
34
  3
Dim
350
35
  3
Facepattern
350
39
  3
Flat
350
2B
  3
FlatWithEdges
350
2C
  3
Gouraud
350
2D
  3
GouraudWithEdges
350
2E
  3
Linepattern
350
38
  3
Realistic
350
33
  3
Thicken
350
37
  0
DICTIONARY
  5
3B2
102
{ACAD_REACTORS
330
C
102
}
330
C
100
AcDbDictionary
281
     1
  3
DIMASSOC
350
3B5
  3
HIDETEXT
350
3B6
  0
LAYOUT
  5
1E
102
{ACAD_REACTORS
330
1A
102
}
330
1A
100
AcDbPlotSettings
  1

  2
none_device
  4

  6

 40
0.0
 41
0.0
 42
0.0
 43
0.0
 44
0.0
 45
0.0
 46
0.0
 47
0.0
 48
0.0
 49
0.0
140
0.0
141
0.0
142
1.0
143
1.0
 70
   688
 72
     0
 73
     0
 74
     5
  7

 75
    16
147
1.0
148
0.0
149
0.0
100
AcDbLayout
  1
Layout1
 70
     1
 71
     1
 10
0.0
 20
0.0
 11
12.0
 21
9.0
 12
0.0
 22
0.0
 32
0.0
 14
1.00000000000000E+20
 24
1.00000000000000E+20
 34
1.00000000000000E+20
 15
-1.00000000000000E+20
 25
-1.00000000000000E+20
 35
-1.00000000000000E+20
146
0.0
 13
0.0
 23
0.0
 33
0.0
 16
1.0
 26
0.0
 36
0.0
 17
0.0
 27
1.0
 37
0.0
 76
     0
330
1B
  0
LAYOUT
  5
26
102
{ACAD_REACTORS
330
1A
102
}
330
1A
100
AcDbPlotSettings
  1

  2
none_device
  4

  6

 40
0.0
 41
0.0
 42
0.0
 43
0.0
 44
0.0
 45
0.0
 46
0.0
 47
0.0
 48
0.0
 49
0.0
140
0.0
141
0.0
142
1.0
143
1.0
 70
   688
 72
     0
 73
     0
 74
     5
  7

 75
    16
147
1.0
148
0.0
149
0.0
100
AcDbLayout
  1
Layout2
 70
     1
 71
     2
 10
0.0
 20
0.0
 11
0.0
 21
0.0
 12
0.0
 22
0.0
 32
0.0
 14
0.0
 24
0.0
 34
0.0
 15
0.0
 25
0.0
 35
0.0
146
0.0
 13
0.0
 23
0.0
 33
0.0
 16
1.0
 26
0.0
 36
0.0
 17
0.0
 27
1.0
 37
0.0
 76
     0
330
23
  0
LAYOUT
  5
22
102
{ACAD_REACTORS
330
1A
102
}
330
1A
100
AcDbPlotSettings
  1

  2
none_device
  4

  6

 40
0.0
 41
0.0
 42
0.0
 43
0.0
 44
0.0
 45
0.0
 46
0.0
 47
0.0
 48
0.0
 49
0.0
140
0.0
141
0.0
142
1.0
143
1.0
 70
  1712
 72
     0
 73
     0
 74
     0
  7

 75
     0
147
1.0
148
0.0
149
0.0
100
AcDbLayout
  1
Model
 70
     1
 71
     0
 10
0.0
 20
0.0
 11
12.0
 21
9.0
 12
0.0
 22
0.0
 32
0.0
 14
0.0
 24
0.0
 34
0.0
 15
210.0
 25
297.0
 35
0.0
146
0.0
 13
0.0
 23
0.0
 33
0.0
 16
1.0
 26
0.0
 36
0.0
 17
0.0
 27
1.0
 37
0.0
 76
     0
330
1F
331
29
  0
MATERIAL
  5
3D
102
{ACAD_REACTORS
330
3B
102
}
102
{ACAD_XDICTIONARY
360
3D9
102
}
330
3B
100
AcDbMaterial
  1
ByBlock
  0
MATERIAL
  5
3C
102
{ACAD_REACTORS
330
3B
102
}
102
{ACAD_XDICTIONARY
360
3D7
102
}
330
3B
100
AcDbMaterial
  1
ByLayer
  0
MATERIAL
  5
3E
102
{ACAD_REACTORS
330
3B
102
}
102
{ACAD_XDICTIONARY
360
3DB
102
}
330
3B
100
AcDbMaterial
  1
Global
  0
MLINESTYLE
  5
18
102
{ACAD_REACTORS
330
17
102
}
330
17
100
AcDbMlineStyle
  2
Standard
 70
     0
  3

 62
   256
 51
90.0
 52
90.0
 71
     2
 49
0.5
 62
   256
  6
BYLAYER
 49
-0.5
 62
   256
  6
BYLAYER
  0
ACDBPLACEHOLDER
  5
F
102
{ACAD_REACTORS
330
E
102
}
330
E
  0
VISUALSTYLE
  5
2F
102
{ACAD_REACTORS
330
2A
102
}
102
{ACAD_XDICTIONARY
360
3BF
102
}
330
2A
100
AcDbVisualStyle
  2
2dWireframe
 70
     4
 71
     0
 72
     2
 73
     0
 90
        0
 40
-0.6
 41
-30.0
 62
     5
 63
     7
 74
     1
 91
        4
 64
     7
 65
   257
 75
     1
175
     1
 42
1.0
 92
        0
 66
   257
 43
1.0
 76
     1
 77
     6
 78
     2
 67
     7
 79
     5
170
     0
171
     0
290
     0
174
     0
 93
        1
 44
0.0
173
     0
291
     0
 45
0.0
1001
ACAD
1000
AcDbSavedByObjectVersion
1070
     0
  0
VISUALSTYLE
  5
31
102
{ACAD_REACTORS
330
2A
102
}
102
{ACAD_XDICTIONARY
360
3C3
102
}
330
2A
100
AcDbVisualStyle
  2
3D Hidden
 70
     6
 71
     1
 72
     2
 73
     2
 90
        0
 40
-0.6
 41
-30.0
 62
     5
 63
     7
 74
     2
 91
        2
 64
     7
 65
   257
 75
     2
175
     1
 42
40.0
 92
        0
 66
   257
 43
1.0
 76
     1
 77
     6
 78
     2
 67
     7
 79
     3
170
     0
171
     0
290
     0
174
     0
 93
        1
 44
0.0
173
     0
291
     0
 45
0.0
1001
ACAD
1000
AcDbSavedByObjectVersion
1070
     0
  0
VISUALSTYLE
  5
30
102
{ACAD_REACTORS
330
2A
102
}
102
{ACAD_XDICTIONARY
360
3C1
102
}
330
2A
100
AcDbVisualStyle
  2
3dWireframe
 70
     5
 71
     0
 72
     2
 73
     0
 90
        0
 40
-0.6
 41
-30.0
 62
     5
 63
     7
 74
     1
 91
        4
 64
     7
 65
   257
 75
     1
175
     1
 42
1.0
 92
        0
 66
   257
 43
1.0
 76
     1
 77
     6
 78
     2
 67
     7
 79
     5
170
     0
171
     0
290
     0
174
     0
 93
        1
 44
0.0
173
     0
291
     0
 45
0.0
1001
ACAD
1000
AcDbSavedByObjectVersion
1070
     0
  0
VISUALSTYLE
  5
32
102
{ACAD_REACTORS
330
2A
102
}
102
{ACAD_XDICTIONARY
360
3C5
102
}
330
2A
100
AcDbVisualStyle
  2
Basic
 70
     7
 71
     1
 72
     0
 73
     1
 90
        0
 40
-0.6
 41
-30.0
 62
     5
 63
     7
 74
     0
 91
        4
 64
     7
 65
   257
 75
     1
175
     1
 42
1.0
 92
        8
 66
     7
 43
1.0
 76
     1
 77
     6
 78
     2
 67
     7
 79
     5
170
     0
171
     0
290
     0
174
     0
 93
        1
 44
0.0
173
     0
291
     1
 45
0.0
1001
ACAD
1000
AcDbSavedByObjectVersion
1070
     0
  0
VISUALSTYLE
  5
36
102
{ACAD_REACTORS
330
2A
102
}
102
{ACAD_XDICTIONARY
360
3CD
102
}
330
2A
100
AcDbVisualStyle
  2
Brighten
 70
    12
 71
     2
 72
     2
 73
     0
 90
        0
 40
-0.6
 41
-30.0
 62
     5
 63
     7
 74
     1
 91
        4
 64
     7
 65
   257
 75
     1
175
     1
 42
1.0
 92
        8
 66
     7
 43
1.0
 76
     1
 77
     6
 78
     2
 67
     7
 79
     5
170
     0
171
     0
290
     0
174
     0
 93
        1
 44
50.0
173
     0
291
     1
 45
0.0
1001
ACAD
1000
AcDbSavedByObjectVersion
1070
     0
  0
VISUALSTYLE
  5
3A
102
{ACAD_REACTORS
330
2A
102
}
102
{ACAD_XDICTIONARY
360
3D5
102
}
330
2A
100
AcDbVisualStyle
  2
ColorChange
 70
    16
 71
     2
 72
     2
 73
     3
 90
        0
 40
-0.6
 41
-30.0
 62
     5
 63
     8
 74
     1
 91
        4
 64
     7
 65
   257
 75
     1
175
     1
 42
1.0
 92
        8
 66
     8
 43
1.0
 76
     1
 77
     6
 78
     2
 67
     7
 79
     5
170
     0
171
     0
290
     0
174
     0
 93
        1
 44
0.0
173
     0
291
     1
 45
0.0
1001
ACAD
1000
AcDbSavedByObjectVersion
1070
     0
  0
VISUALSTYLE
  5
34
102
{ACAD_REACTORS
330
2A
102
}
102
{ACAD_XDICTIONARY
360
3C9
102
}
330
2A
100
AcDbVisualStyle
  2
Conceptual
 70
     9
 71
     3
 72
     2
 73
     0
 90
        0
 40
-0.6
 41
-30.0
 62
     5
 63
     7
 74
     2
 91
        2
 64
     7
 65
   257
 75
     1
175
     1
 42
40.0
 92
        8
 66
     7
 43
1.0
 76
     1
 77
     6
 78
     2
 67
     7
 79
     3
170
     0
171
     0
290
     0
174
     0
 93
        1
 44
0.0
173
     0
291
     0
 45
0.0
1001
ACAD
1000
AcDbSavedByObjectVersion
1070
     0
  0
VISUALSTYLE
  5
35
102
{ACAD_REACTORS
330
2A
102
}
102
{ACAD_XDICTIONARY
360
3CB
102
}
330
2A
100
AcDbVisualStyle
  2
Dim
 70
    11
 71
     2
 72
     2
 73
     0
 90
        0
 40
-0.6
 41
-30.0
 62
     5
 63
     7
 74
     1
 91
        4
 64
     7
 65
   257
 75
     1
175
     1
 42
1.0
 92
        8
 66
     7
 43
1.0
 76
     1
 77
     6
 78
     2
 67
     7
 79
     5
170
     0
171
     0
290
     0
174
     0
 93
        1
 44
-50.0
173
     0
291
     1
 45
0.0
1001
ACAD
1000
AcDbSavedByObjectVersion
1070
     0
  0
VISUALSTYLE
  5
39
102
{ACAD_REACTORS
330
2A
102
}
102
{ACAD_XDICTIONARY
360
3D3
102
}
330
2A
100
AcDbVisualStyle
  2
Facepattern
 70
    15
 71
     2
 72
     2
 73
     0
 90
        0
 40
-0.6
 41
-30.0
 62
     5
 63
     7
 74
     1
 91
        4
 64
     7
 65
   257
 75
     1
175
     1
 42
1.0
 92
        8
 66
     7
 43
1.0
 76
     1
 77
     6
 78
     2
 67
     7
 79
     5
170
     0
171
     0
290
     0
174
     0
 93
        1
 44
0.0
173
     0
291
     1
 45
0.0
1001
ACAD
1000
AcDbSavedByObjectVersion
1070
     0
  0
VISUALSTYLE
  5
2B
102
{ACAD_REACTORS
330
2A
102
}
102
{ACAD_XDICTIONARY
360
3B7
102
}
330
2A
100
AcDbVisualStyle
  2
Flat
 70
     0
 71
     2
 72
     1
 73
     1
 90
        2
 40
-0.6
 41
30.0
 62
     5
 63
     7
 74
     0
 91
        4
 64
     7
 65
   257
 75
     1
175
     1
 42
1.0
 92
        8
 66
     7
 43
1.0
 76
     1
 77
     6
 78
     2
 67
     7
 79
     5
170
     0
171
     0
290
     0
174
     0
 93
       13
 44
0.0
173
     0
291
     1
 45
0.0
1001
ACAD
1000
AcDbSavedByObjectVersion
1070
     0
  0
VISUALSTYLE
  5
2C
102
{ACAD_REACTORS
330
2A
102
}
102
{ACAD_XDICTIONARY
360
3B9
102
}
330
2A
100
AcDbVisualStyle
  2
FlatWithEdges
 70
     1
 71
     2
 72
     1
 73
     1
 90
        2
 40
-0.6
 41
30.0
 62
     5
 63
     7
 74
     1
 91
        4
 64
     7
 65
   257
 75
     1
175
     1
 42
1.0
 92
        0
 66
   257
 43
1.0
 76
     1
 77
     6
 78
     2
 67
     7
 79
     5
170
     0
171
     0
290
     0
174
     0
 93
       13
 44
0.0
173
     0
291
     1
 45
0.0
1001
ACAD
1000
AcDbSavedByObjectVersion
1070
     0
  0
VISUALSTYLE
  5
2D
102
{ACAD_REACTORS
330
2A
102
}
102
{ACAD_XDICTIONARY
360
3BB
102
}
330
2A
100
AcDbVisualStyle
  2
Gouraud
 70
     2
 71
     2
 72
     2
 73
     1
 90
        2
 40
-0.6
 41
30.0
 62
     5
 63
     7
 74
     0
 91
        4
 64
     7
 65
   257
 75
     1
175
     1
 42
1.0
 92
        0
 66
     7
 43
1.0
 76
     1
 77
     6
 78
     2
 67
     7
 79
     5
170
     0
171
     0
290
     0
174
     0
 93
       13
 44
0.0
173
     0
291
     1
 45
0.0
1001
ACAD
1000
AcDbSavedByObjectVersion
1070
     0
  0
VISUALSTYLE
  5
2E
102
{ACAD_REACTORS
330
2A
102
}
102
{ACAD_XDICTIONARY
360
3BD
102
}
330
2A
100
AcDbVisualStyle
  2
GouraudWithEdges
 70
     3
 71
     2
 72
     2
 73
     1
 90
        2
 40
-0.6
 41
30.0
 62
     5
 63
     7
 74
     1
 91
        4
 64
     7
 65
   257
 75
     1
175
     1
 42
1.0
 92
        0
 66
   257
 43
1.0
 76
     1
 77
     6
 78
     2
 67
     7
 79
     5
170
     0
171
     0
290
     0
174
     0
 93
       13
 44
0.0
173
     0
291
     1
 45
0.0
1001
ACAD
1000
AcDbSavedByObjectVersion
1070
     0
  0
VISUALSTYLE
  5
38
102
{ACAD_REACTORS
330
2A
102
}
102
{ACAD_XDICTIONARY
360
3D1
102
}
330
2A
100
AcDbVisualStyle
  2
Linepattern
 70
    14
 71
     2
 72
     2
 73
     0
 90
        0
 40
-0.6
 41
-30.0
 62
     5
 63
     7
 74
     1
 91
        4
 64
     7
 65
   257
 75
     7
175
     7
 42
1.0
 92
        8
 66
     7
 43
1.0
 76
     1
 77
     6
 78
     2
 67
     7
 79
     5
170
     0
171
     0
290
     0
174
     0
 93
        1
 44
0.0
173
     0
291
     1
 45
0.0
1001
ACAD
1000
AcDbSavedByObjectVersion
1070
     0
  0
VISUALSTYLE
  5
33
102
{ACAD_REACTORS
330
2A
102
}
102
{ACAD_XDICTIONARY
360
3C7
102
}
330
2A
100
AcDbVisualStyle
  2
Realistic
 70
     8
 71
     2
 72
     2
 73
     0
 90
        0
 40
-0.6
 41
-30.0
 62
     5
 63
     7
 74
     1
 91
        0
 64
     7
 65
   257
 75
     1
175
     1
 42
1.0
 92
        8
 66
     8
 43
1.0
 76
     1
 77
     6
 78
     2
 67
     7
 79
     5
170
     0
171
     0
290
     0
174
     0
 93
       13
 44
0.0
173
     0
291
     0
 45
0.0
1001
ACAD
1000
AcDbSavedByObjectVersion
1070
     0
  0
VISUALSTYLE
  5
37
102
{ACAD_REACTORS
330
2A
102
}
102
{ACAD_XDICTIONARY
360
3CF
102
}
330
2A
100
AcDbVisualStyle
  2
Thicken
 70
    13
 71
     2
 72
     2
 73
     0
 90
        0
 40
-0.6
 41
-30.0
 62
     5
 63
     7
 74
     1
 91
        4
 64
     7
 65
   257
 75
     1
175
     1
 42
1.0
 92
       12
 66
     7
 43
1.0
 76
     1
 77
     6
 78
     2
 67
     7
 79
     5
170
     0
171
     0
290
     0
174
     0
 93
        1
 44
0.0
173
     0
291
     1
 45
0.0
1001
ACAD
1000
AcDbSavedByObjectVersion
1070
     0
  0
DICTIONARYVAR
  5
3B5
102
{ACAD_REACTORS
330
3B2
102
}
330
3B2
100
DictionaryVariables
280
     0
  1
2
  0
DICTIONARYVAR
  5
3B6
102
{ACAD_REACTORS
330
3B2
102
}
330
3B2
100
DictionaryVariables
280
     0
  1
1
  0
DICTIONARY
  5
3D9
330
3D
100
AcDbDictionary
280
     1
281
     1
  3
ACAD_XREC_ROUNDTRIP
360
3DA
  0
DICTIONARY
  5
3D7
330
3C
100
AcDbDictionary
280
     1
281
     1
  3
ACAD_XREC_ROUNDTRIP
360
3D8
  0
DICTIONARY
  5
3DB
330
3E
100
AcDbDictionary
280
     1
281
     1
  3
ACAD_XREC_ROUNDTRIP
360
3DC
  0
DICTIONARY
  5
3BF
330
2F
100
AcDbDictionary
280
     1
281
     1
  3
ACAD_XREC_ROUNDTRIP
360
3C0
  0
DICTIONARY
  5
3C3
330
31
100
AcDbDictionary
280
     1
281
     1
  3
ACAD_XREC_ROUNDTRIP
360
3C4
  0
DICTIONARY
  5
3C1
330
30
100
AcDbDictionary
280
     1
281
     1
  3
ACAD_XREC_ROUNDTRIP
360
3C2
  0
DICTIONARY
  5
3C5
330
32
100
AcDbDictionary
280
     1
281
     1
  3
ACAD_XREC_ROUNDTRIP
360
3C6
  0
DICTIONARY
  5
3CD
330
36
100
AcDbDictionary
280
     1
281
     1
  3
ACAD_XREC_ROUNDTRIP
360
3CE
  0
DICTIONARY
  5
3D5
330
3A
100
AcDbDictionary
280
     1
281
     1
  3
ACAD_XREC_ROUNDTRIP
360
3D6
  0
DICTIONARY
  5
3C9
330
34
100
AcDbDictionary
280
     1
281
     1
  3
ACAD_XREC_ROUNDTRIP
360
3CA
  0
DICTIONARY
  5
3CB
330
35
100
AcDbDictionary
280
     1
281
     1
  3
ACAD_XREC_ROUNDTRIP
360
3CC
  0
DICTIONARY
  5
3D3
330
39
100
AcDbDictionary
280
     1
281
     1
  3
ACAD_XREC_ROUNDTRIP
360
3D4
  0
DICTIONARY
  5
3B7
330
2B
100
AcDbDictionary
280
     1
281
     1
  3
ACAD_XREC_ROUNDTRIP
360
3B8
  0
DICTIONARY
  5
3B9
330
2C
100
AcDbDictionary
280
     1
281
     1
  3
ACAD_XREC_ROUNDTRIP
360
3BA
  0
DICTIONARY
  5
3BB
330
2D
100
AcDbDictionary
280
     1
281
     1
  3
ACAD_XREC_ROUNDTRIP
360
3BC
  0
DICTIONARY
  5
3BD
330
2E
100
AcDbDictionary
280
     1
281
     1
  3
ACAD_XREC_ROUNDTRIP
360
3BE
  0
DICTIONARY
  5
3D1
330
38
100
AcDbDictionary
280
     1
281
     1
  3
ACAD_XREC_ROUNDTRIP
360
3D2
  0
DICTIONARY
  5
3C7
330
33
100
AcDbDictionary
280
     1
281
     1
  3
ACAD_XREC_ROUNDTRIP
360
3C8
  0
DICTIONARY
  5
3CF
330
37
100
AcDbDictionary
280
     1
281
     1
  3
ACAD_XREC_ROUNDTRIP
360
3D0
  0
XRECORD
  5
3DA
102
{ACAD_REACTORS
330
3D9
102
}
330
3D9
100
AcDbXrecord
280
     1
102
MATERIAL
148
0.0
149
0.0
149
0.0
 93
        0
 94
      127
282
     0
 72
     1
 77
     1
171
     1
175
     1
179
     1
273
     0
  0
XRECORD
  5
3D8
102
{ACAD_REACTORS
330
3D7
102
}
330
3D7
100
AcDbXrecord
280
     1
102
MATERIAL
148
0.0
149
0.0
149
0.0
 93
        0
 94
      127
282
     0
 72
     1
 77
     1
171
     1
175
     1
179
     1
273
     0
  0
XRECORD
  5
3DC
102
{ACAD_REACTORS
330
3DB
102
}
330
3DB
100
AcDbXrecord
280
     1
102
MATERIAL
148
0.0
149
0.0
149
0.0
 93
        0
 94
      127
282
     0
 72
     1
 77
     1
171
     1
175
     1
179
     1
273
     0
  0
XRECORD
  5
3C0
102
{ACAD_REACTORS
330
3BF
102
}
330
3BF
100
AcDbXrecord
280
     1
102
RTVSPropertyOp0
 70
     1
102
RTVSPropertyOp1
 70
     1
102
RTVSPropertyOp2
 70
     1
102
RTVSPropertyOp3
 70
     1
102
RTVSPropertyOp4
 70
     1
102
RTVSPropertyOp5
 70
     1
102
RTVSPropertyOp6
 70
     1
102
RTVSPropertyOp7
 70
     1
102
RTVSPropertyOp8
 70
     1
102
RTVSPropertyOp9
 70
     1
102
RTVSPropertyOp10
 70
     1
102
RTVSPropertyOp11
 70
     1
102
RTVSPropertyOp12
 70
     1
102
RTVSPropertyOp13
 70
     1
102
RTVSPropertyOp14
 70
     1
102
RTVSPropertyOp15
 70
     1
102
RTVSPropertyOp16
 70
     1
102
RTVSPropertyOp17
 70
     1
102
RTVSPropertyOp18
 70
     1
102
RTVSPropertyOp19
 70
     1
102
RTVSPropertyOp20
 70
     1
102
RTVSPropertyOp21
 70
     1
102
RTVSPropertyOp22
 70
     1
102
RTVSPropertyOp23
 70
     1
102
RTVSPropertyOp24
 70
     1
102
RTVSPropertyOp25
 70
     1
102
RTVSPropertyOp26
 70
     1
102
RTVSPropertyOp27
 70
     1
102
RTVSPropertyOp28
 70
     1
102
RTVSPropertyOp29
 70
     1
102
RTVSPropertyOp30
 70
     1
102
RTVSPropertyOp31
 70
     1
102
RTVSPropertyOp32
 70
     1
  0
XRECORD
  5
3C4
102
{ACAD_REACTORS
330
3C3
102
}
330
3C3
100
AcDbXrecord
280
     1
102
RTVSPropertyOp0
 70
     1
102
RTVSPropertyOp1
 70
     1
102
RTVSPropertyOp2
 70
     1
102
RTVSPropertyOp3
 70
     1
102
RTVSPropertyOp4
 70
     1
102
RTVSPropertyOp5
 70
     1
102
RTVSPropertyOp6
 70
     1
102
RTVSPropertyOp7
 70
     1
102
RTVSPropertyOp8
 70
     1
102
RTVSPropertyOp9
 70
     1
102
RTVSPropertyOp10
 70
     1
102
RTVSPropertyOp11
 70
     1
102
RTVSPropertyOp12
 70
     1
102
RTVSPropertyOp13
 70
     1
102
RTVSPropertyOp14
 70
     1
102
RTVSPropertyOp15
 70
     1
102
RTVSPropertyOp16
 70
     1
102
RTVSPropertyOp17
 70
     1
102
RTVSPropertyOp18
 70
     1
102
RTVSPropertyOp19
 70
     1
102
RTVSPropertyOp20
 70
     1
102
RTVSPropertyOp21
 70
     1
102
RTVSPropertyOp22
 70
     1
102
RTVSPropertyOp23
 70
     1
102
RTVSPropertyOp24
 70
     1
102
RTVSPropertyOp25
 70
     1
102
RTVSPropertyOp26
 70
     1
102
RTVSPropertyOp27
 70
     1
102
RTVSPropertyOp28
 70
     1
102
RTVSPropertyOp29
 70
     1
102
RTVSPropertyOp30
 70
     1
102
RTVSPropertyOp31
 70
     1
102
RTVSPropertyOp32
 70
     1
  0
XRECORD
  5
3C2
102
{ACAD_REACTORS
330
3C1
102
}
330
3C1
100
AcDbXrecord
280
     1
102
RTVSPropertyOp0
 70
     1
102
RTVSPropertyOp1
 70
     1
102
RTVSPropertyOp2
 70
     1
102
RTVSPropertyOp3
 70
     1
102
RTVSPropertyOp4
 70
     1
102
RTVSPropertyOp5
 70
     1
102
RTVSPropertyOp6
 70
     1
102
RTVSPropertyOp7
 70
     1
102
RTVSPropertyOp8
 70
     1
102
RTVSPropertyOp9
 70
     1
102
RTVSPropertyOp10
 70
     1
102
RTVSPropertyOp11
 70
     1
102
RTVSPropertyOp12
 70
     1
102
RTVSPropertyOp13
 70
     1
102
RTVSPropertyOp14
 70
     1
102
RTVSPropertyOp15
 70
     1
102
RTVSPropertyOp16
 70
     1
102
RTVSPropertyOp17
 70
     1
102
RTVSPropertyOp18
 70
     1
102
RTVSPropertyOp19
 70
     1
102
RTVSPropertyOp20
 70
     1
102
RTVSPropertyOp21
 70
     1
102
RTVSPropertyOp22
 70
     1
102
RTVSPropertyOp23
 70
     1
102
RTVSPropertyOp24
 70
     1
102
RTVSPropertyOp25
 70
     1
102
RTVSPropertyOp26
 70
     1
102
RTVSPropertyOp27
 70
     1
102
RTVSPropertyOp28
 70
     1
102
RTVSPropertyOp29
 70
     1
102
RTVSPropertyOp30
 70
     1
102
RTVSPropertyOp31
 70
     1
102
RTVSPropertyOp32
 70
     1
  0
XRECORD
  5
3C6
102
{ACAD_REACTORS
330
3C5
102
}
330
3C5
100
AcDbXrecord
280
     1
102
RTVSPropertyOp0
 70
     1
102
RTVSPropertyOp1
 70
     1
102
RTVSPropertyOp2
 70
     1
102
RTVSPropertyOp3
 70
     1
102
RTVSPropertyOp4
 70
     1
102
RTVSPropertyOp5
 70
     1
102
RTVSPropertyOp6
 70
     1
102
RTVSPropertyOp7
 70
     1
102
RTVSPropertyOp8
 70
     1
102
RTVSPropertyOp9
 70
     1
102
RTVSPropertyOp10
 70
     1
102
RTVSPropertyOp11
 70
     1
102
RTVSPropertyOp12
 70
     1
102
RTVSPropertyOp13
 70
     1
102
RTVSPropertyOp14
 70
     1
102
RTVSPropertyOp15
 70
     1
102
RTVSPropertyOp16
 70
     1
102
RTVSPropertyOp17
 70
     1
102
RTVSPropertyOp18
 70
     1
102
RTVSPropertyOp19
 70
     1
102
RTVSPropertyOp20
 70
     1
102
RTVSPropertyOp21
 70
     1
102
RTVSPropertyOp22
 70
     1
102
RTVSPropertyOp23
 70
     1
102
RTVSPropertyOp24
 70
     1
102
RTVSPropertyOp25
 70
     1
102
RTVSPropertyOp26
 70
     1
102
RTVSPropertyOp27
 70
     1
102
RTVSPropertyOp28
 70
     1
102
RTVSPropertyOp29
 70
     1
102
RTVSPropertyOp30
 70
     1
102
RTVSPropertyOp31
 70
     1
102
RTVSPropertyOp32
 70
     1
  0
XRECORD
  5
3CE
102
{ACAD_REACTORS
330
3CD
102
}
330
3CD
100
AcDbXrecord
280
     1
102
RTVSPropertyOp0
 70
     1
102
RTVSPropertyOp1
 70
     1
102
RTVSPropertyOp2
 70
     1
102
RTVSPropertyOp3
 70
     1
102
RTVSPropertyOp4
 70
     1
102
RTVSPropertyOp5
 70
     1
102
RTVSPropertyOp6
 70
     1
102
RTVSPropertyOp7
 70
     1
102
RTVSPropertyOp8
 70
     1
102
RTVSPropertyOp9
 70
     1
102
RTVSPropertyOp10
 70
     1
102
RTVSPropertyOp11
 70
     1
102
RTVSPropertyOp12
 70
     1
102
RTVSPropertyOp13
 70
     1
102
RTVSPropertyOp14
 70
     1
102
RTVSPropertyOp15
 70
     1
102
RTVSPropertyOp16
 70
     1
102
RTVSPropertyOp17
 70
     1
102
RTVSPropertyOp18
 70
     1
102
RTVSPropertyOp19
 70
     1
102
RTVSPropertyOp20
 70
     1
102
RTVSPropertyOp21
 70
     1
102
RTVSPropertyOp22
 70
     1
102
RTVSPropertyOp23
 70
     1
102
RTVSPropertyOp24
 70
     1
102
RTVSPropertyOp25
 70
     1
102
RTVSPropertyOp26
 70
     1
102
RTVSPropertyOp27
 70
     1
102
RTVSPropertyOp28
 70
     1
102
RTVSPropertyOp29
 70
     1
102
RTVSPropertyOp30
 70
     1
102
RTVSPropertyOp31
 70
     1
102
RTVSPropertyOp32
 70
     1
  0
XRECORD
  5
3D6
102
{ACAD_REACTORS
330
3D5
102
}
330
3D5
100
AcDbXrecord
280
     1
102
RTVSPropertyOp0
 70
     1
102
RTVSPropertyOp1
 70
     1
102
RTVSPropertyOp2
 70
     1
102
RTVSPropertyOp3
 70
     1
102
RTVSPropertyOp4
 70
     1
102
RTVSPropertyOp5
 70
     1
102
RTVSPropertyOp6
 70
     1
102
RTVSPropertyOp7
 70
     1
102
RTVSPropertyOp8
 70
     1
102
RTVSPropertyOp9
 70
     1
102
RTVSPropertyOp10
 70
     1
102
RTVSPropertyOp11
 70
     1
102
RTVSPropertyOp12
 70
     1
102
RTVSPropertyOp13
 70
     1
102
RTVSPropertyOp14
 70
     1
102
RTVSPropertyOp15
 70
     1
102
RTVSPropertyOp16
 70
     1
102
RTVSPropertyOp17
 70
     1
102
RTVSPropertyOp18
 70
     1
102
RTVSPropertyOp19
 70
     1
102
RTVSPropertyOp20
 70
     1
102
RTVSPropertyOp21
 70
     1
102
RTVSPropertyOp22
 70
     1
102
RTVSPropertyOp23
 70
     1
102
RTVSPropertyOp24
 70
     1
102
RTVSPropertyOp25
 70
     1
102
RTVSPropertyOp26
 70
     1
102
RTVSPropertyOp27
 70
     1
102
RTVSPropertyOp28
 70
     1
102
RTVSPropertyOp29
 70
     1
102
RTVSPropertyOp30
 70
     1
102
RTVSPropertyOp31
 70
     1
102
RTVSPropertyOp32
 70
     1
  0
XRECORD
  5
3CA
102
{ACAD_REACTORS
330
3C9
102
}
330
3C9
100
AcDbXrecord
280
     1
102
RTVSPropertyOp0
 70
     1
102
RTVSPropertyOp1
 70
     1
102
RTVSPropertyOp2
 70
     1
102
RTVSPropertyOp3
 70
     1
102
RTVSPropertyOp4
 70
     1
102
RTVSPropertyOp5
 70
     1
102
RTVSPropertyOp6
 70
     1
102
RTVSPropertyOp7
 70
     1
102
RTVSPropertyOp8
 70
     1
102
RTVSPropertyOp9
 70
     1
102
RTVSPropertyOp10
 70
     1
102
RTVSPropertyOp11
 70
     1
102
RTVSPropertyOp12
 70
     1
102
RTVSPropertyOp13
 70
     1
102
RTVSPropertyOp14
 70
     1
102
RTVSPropertyOp15
 70
     1
102
RTVSPropertyOp16
 70
     1
102
RTVSPropertyOp17
 70
     1
102
RTVSPropertyOp18
 70
     1
102
RTVSPropertyOp19
 70
     1
102
RTVSPropertyOp20
 70
     1
102
RTVSPropertyOp21
 70
     1
102
RTVSPropertyOp22
 70
     1
102
RTVSPropertyOp23
 70
     1
102
RTVSPropertyOp24
 70
     1
102
RTVSPropertyOp25
 70
     1
102
RTVSPropertyOp26
 70
     1
102
RTVSPropertyOp27
 70
     1
102
RTVSPropertyOp28
 70
     1
102
RTVSPropertyOp29
 70
     1
102
RTVSPropertyOp30
 70
     1
102
RTVSPropertyOp31
 70
     1
102
RTVSPropertyOp32
 70
     1
  0
XRECORD
  5
3CC
102
{ACAD_REACTORS
330
3CB
102
}
330
3CB
100
AcDbXrecord
280
     1
102
RTVSPropertyOp0
 70
     1
102
RTVSPropertyOp1
 70
     1
102
RTVSPropertyOp2
 70
     1
102
RTVSPropertyOp3
 70
     1
102
RTVSPropertyOp4
 70
     1
102
RTVSPropertyOp5
 70
     1
102
RTVSPropertyOp6
 70
     1
102
RTVSPropertyOp7
 70
     1
102
RTVSPropertyOp8
 70
     1
102
RTVSPropertyOp9
 70
     1
102
RTVSPropertyOp10
 70
     1
102
RTVSPropertyOp11
 70
     1
102
RTVSPropertyOp12
 70
     1
102
RTVSPropertyOp13
 70
     1
102
RTVSPropertyOp14
 70
     1
102
RTVSPropertyOp15
 70
     1
102
RTVSPropertyOp16
 70
     1
102
RTVSPropertyOp17
 70
     1
102
RTVSPropertyOp18
 70
     1
102
RTVSPropertyOp19
 70
     1
102
RTVSPropertyOp20
 70
     1
102
RTVSPropertyOp21
 70
     1
102
RTVSPropertyOp22
 70
     1
102
RTVSPropertyOp23
 70
     1
102
RTVSPropertyOp24
 70
     1
102
RTVSPropertyOp25
 70
     1
102
RTVSPropertyOp26
 70
     1
102
RTVSPropertyOp27
 70
     1
102
RTVSPropertyOp28
 70
     1
102
RTVSPropertyOp29
 70
     1
102
RTVSPropertyOp30
 70
     1
102
RTVSPropertyOp31
 70
     1
102
RTVSPropertyOp32
 70
     1
  0
XRECORD
  5
3D4
102
{ACAD_REACTORS
330
3D3
102
}
330
3D3
100
AcDbXrecord
280
     1
102
RTVSPropertyOp0
 70
     1
102
RTVSPropertyOp1
 70
     1
102
RTVSPropertyOp2
 70
     1
102
RTVSPropertyOp3
 70
     1
102
RTVSPropertyOp4
 70
     1
102
RTVSPropertyOp5
 70
     1
102
RTVSPropertyOp6
 70
     1
102
RTVSPropertyOp7
 70
     1
102
RTVSPropertyOp8
 70
     1
102
RTVSPropertyOp9
 70
     1
102
RTVSPropertyOp10
 70
     1
102
RTVSPropertyOp11
 70
     1
102
RTVSPropertyOp12
 70
     1
102
RTVSPropertyOp13
 70
     1
102
RTVSPropertyOp14
 70
     1
102
RTVSPropertyOp15
 70
     1
102
RTVSPropertyOp16
 70
     1
102
RTVSPropertyOp17
 70
     1
102
RTVSPropertyOp18
 70
     1
102
RTVSPropertyOp19
 70
     1
102
RTVSPropertyOp20
 70
     1
102
RTVSPropertyOp21
 70
     1
102
RTVSPropertyOp22
 70
     1
102
RTVSPropertyOp23
 70
     1
102
RTVSPropertyOp24
 70
     1
102
RTVSPropertyOp25
 70
     1
102
RTVSPropertyOp26
 70
     1
102
RTVSPropertyOp27
 70
     1
102
RTVSPropertyOp28
 70
     1
102
RTVSPropertyOp29
 70
     1
102
RTVSPropertyOp30
 70
     1
102
RTVSPropertyOp31
 70
     1
102
RTVSPropertyOp32
 70
     1
  0
XRECORD
  5
3B8
102
{ACAD_REACTORS
330
3B7
102
}
330
3B7
100
AcDbXrecord
280
     1
102
RTVSPropertyOp0
 70
     1
102
RTVSPropertyOp1
 70
     1
102
RTVSPropertyOp2
 70
     1
102
RTVSPropertyOp3
 70
     1
102
RTVSPropertyOp4
 70
     1
102
RTVSPropertyOp5
 70
     1
102
RTVSPropertyOp6
 70
     1
102
RTVSPropertyOp7
 70
     1
102
RTVSPropertyOp8
 70
     1
102
RTVSPropertyOp9
 70
     1
102
RTVSPropertyOp10
 70
     1
102
RTVSPropertyOp11
 70
     1
102
RTVSPropertyOp12
 70
     1
102
RTVSPropertyOp13
 70
     1
102
RTVSPropertyOp14
 70
     1
102
RTVSPropertyOp15
 70
     1
102
RTVSPropertyOp16
 70
     1
102
RTVSPropertyOp17
 70
     1
102
RTVSPropertyOp18
 70
     1
102
RTVSPropertyOp19
 70
     1
102
RTVSPropertyOp20
 70
     1
102
RTVSPropertyOp21
 70
     1
102
RTVSPropertyOp22
 70
     1
102
RTVSPropertyOp23
 70
     1
102
RTVSPropertyOp24
 70
     1
102
RTVSPropertyOp25
 70
     1
102
RTVSPropertyOp26
 70
     1
102
RTVSPropertyOp27
 70
     1
102
RTVSPropertyOp28
 70
     1
102
RTVSPropertyOp29
 70
     1
102
RTVSPropertyOp30
 70
     1
102
RTVSPropertyOp31
 70
     1
102
RTVSPropertyOp32
 70
     1
  0
XRECORD
  5
3BA
102
{ACAD_REACTORS
330
3B9
102
}
330
3B9
100
AcDbXrecord
280
     1
102
RTVSPropertyOp0
 70
     1
102
RTVSPropertyOp1
 70
     1
102
RTVSPropertyOp2
 70
     1
102
RTVSPropertyOp3
 70
     1
102
RTVSPropertyOp4
 70
     1
102
RTVSPropertyOp5
 70
     1
102
RTVSPropertyOp6
 70
     1
102
RTVSPropertyOp7
 70
     1
102
RTVSPropertyOp8
 70
     1
102
RTVSPropertyOp9
 70
     1
102
RTVSPropertyOp10
 70
     1
102
RTVSPropertyOp11
 70
     1
102
RTVSPropertyOp12
 70
     1
102
RTVSPropertyOp13
 70
     1
102
RTVSPropertyOp14
 70
     1
102
RTVSPropertyOp15
 70
     1
102
RTVSPropertyOp16
 70
     1
102
RTVSPropertyOp17
 70
     1
102
RTVSPropertyOp18
 70
     1
102
RTVSPropertyOp19
 70
     1
102
RTVSPropertyOp20
 70
     1
102
RTVSPropertyOp21
 70
     1
102
RTVSPropertyOp22
 70
     1
102
RTVSPropertyOp23
 70
     1
102
RTVSPropertyOp24
 70
     1
102
RTVSPropertyOp25
 70
     1
102
RTVSPropertyOp26
 70
     1
102
RTVSPropertyOp27
 70
     1
102
RTVSPropertyOp28
 70
     1
102
RTVSPropertyOp29
 70
     1
102
RTVSPropertyOp30
 70
     1
102
RTVSPropertyOp31
 70
     1
102
RTVSPropertyOp32
 70
     1
  0
XRECORD
  5
3BC
102
{ACAD_REACTORS
330
3BB
102
}
330
3BB
100
AcDbXrecord
280
     1
102
RTVSPropertyOp0
 70
     1
102
RTVSPropertyOp1
 70
     1
102
RTVSPropertyOp2
 70
     1
102
RTVSPropertyOp3
 70
     1
102
RTVSPropertyOp4
 70
     1
102
RTVSPropertyOp5
 70
     1
102
RTVSPropertyOp6
 70
     1
102
RTVSPropertyOp7
 70
     1
102
RTVSPropertyOp8
 70
     1
102
RTVSPropertyOp9
 70
     1
102
RTVSPropertyOp10
 70
     1
102
RTVSPropertyOp11
 70
     1
102
RTVSPropertyOp12
 70
     1
102
RTVSPropertyOp13
 70
     1
102
RTVSPropertyOp14
 70
     1
102
RTVSPropertyOp15
 70
     1
102
RTVSPropertyOp16
 70
     1
102
RTVSPropertyOp17
 70
     1
102
RTVSPropertyOp18
 70
     1
102
RTVSPropertyOp19
 70
     1
102
RTVSPropertyOp20
 70
     1
102
RTVSPropertyOp21
 70
     1
102
RTVSPropertyOp22
 70
     1
102
RTVSPropertyOp23
 70
     1
102
RTVSPropertyOp24
 70
     1
102
RTVSPropertyOp25
 70
     1
102
RTVSPropertyOp26
 70
     1
102
RTVSPropertyOp27
 70
     1
102
RTVSPropertyOp28
 70
     1
102
RTVSPropertyOp29
 70
     1
102
RTVSPropertyOp30
 70
     1
102
RTVSPropertyOp31
 70
     1
102
RTVSPropertyOp32
 70
     1
  0
XRECORD
  5
3BE
102
{ACAD_REACTORS
330
3BD
102
}
330
3BD
100
AcDbXrecord
280
     1
102
RTVSPropertyOp0
 70
     1
102
RTVSPropertyOp1
 70
     1
102
RTVSPropertyOp2
 70
     1
102
RTVSPropertyOp3
 70
     1
102
RTVSPropertyOp4
 70
     1
102
RTVSPropertyOp5
 70
     1
102
RTVSPropertyOp6
 70
     1
102
RTVSPropertyOp7
 70
     1
102
RTVSPropertyOp8
 70
     1
102
RTVSPropertyOp9
 70
     1
102
RTVSPropertyOp10
 70
     1
102
RTVSPropertyOp11
 70
     1
102
RTVSPropertyOp12
 70
     1
102
RTVSPropertyOp13
 70
     1
102
RTVSPropertyOp14
 70
     1
102
RTVSPropertyOp15
 70
     1
102
RTVSPropertyOp16
 70
     1
102
RTVSPropertyOp17
 70
     1
102
RTVSPropertyOp18
 70
     1
102
RTVSPropertyOp19
 70
     1
102
RTVSPropertyOp20
 70
     1
102
RTVSPropertyOp21
 70
     1
102
RTVSPropertyOp22
 70
     1
102
RTVSPropertyOp23
 70
     1
102
RTVSPropertyOp24
 70
     1
102
RTVSPropertyOp25
 70
     1
102
RTVSPropertyOp26
 70
     1
102
RTVSPropertyOp27
 70
     1
102
RTVSPropertyOp28
 70
     1
102
RTVSPropertyOp29
 70
     1
102
RTVSPropertyOp30
 70
     1
102
RTVSPropertyOp31
 70
     1
102
RTVSPropertyOp32
 70
     1
  0
XRECORD
  5
3D2
102
{ACAD_REACTORS
330
3D1
102
}
330
3D1
100
AcDbXrecord
280
     1
102
RTVSPropertyOp0
 70
     1
102
RTVSPropertyOp1
 70
     1
102
RTVSPropertyOp2
 70
     1
102
RTVSPropertyOp3
 70
     1
102
RTVSPropertyOp4
 70
     1
102
RTVSPropertyOp5
 70
     1
102
RTVSPropertyOp6
 70
     1
102
RTVSPropertyOp7
 70
     1
102
RTVSPropertyOp8
 70
     1
102
RTVSPropertyOp9
 70
     1
102
RTVSPropertyOp10
 70
     1
102
RTVSPropertyOp11
 70
     1
102
RTVSPropertyOp12
 70
     1
102
RTVSPropertyOp13
 70
     1
102
RTVSPropertyOp14
 70
     1
102
RTVSPropertyOp15
 70
     1
102
RTVSPropertyOp16
 70
     1
102
RTVSPropertyOp17
 70
     1
102
RTVSPropertyOp18
 70
     1
102
RTVSPropertyOp19
 70
     1
102
RTVSPropertyOp20
 70
     1
102
RTVSPropertyOp21
 70
     1
102
RTVSPropertyOp22
 70
     1
102
RTVSPropertyOp23
 70
     1
102
RTVSPropertyOp24
 70
     1
102
RTVSPropertyOp25
 70
     1
102
RTVSPropertyOp26
 70
     1
102
RTVSPropertyOp27
 70
     1
102
RTVSPropertyOp28
 70
     1
102
RTVSPropertyOp29
 70
     1
102
RTVSPropertyOp30
 70
     1
102
RTVSPropertyOp31
 70
     1
102
RTVSPropertyOp32
 70
     1
  0
XRECORD
  5
3C8
102
{ACAD_REACTORS
330
3C7
102
}
330
3C7
100
AcDbXrecord
280
     1
102
RTVSPropertyOp0
 70
     1
102
RTVSPropertyOp1
 70
     1
102
RTVSPropertyOp2
 70
     1
102
RTVSPropertyOp3
 70
     1
102
RTVSPropertyOp4
 70
     1
102
RTVSPropertyOp5
 70
     1
102
RTVSPropertyOp6
 70
     1
102
RTVSPropertyOp7
 70
     1
102
RTVSPropertyOp8
 70
     1
102
RTVSPropertyOp9
 70
     1
102
RTVSPropertyOp10
 70
     1
102
RTVSPropertyOp11
 70
     1
102
RTVSPropertyOp12
 70
     1
102
RTVSPropertyOp13
 70
     1
102
RTVSPropertyOp14
 70
     1
102
RTVSPropertyOp15
 70
     1
102
RTVSPropertyOp16
 70
     1
102
RTVSPropertyOp17
 70
     1
102
RTVSPropertyOp18
 70
     1
102
RTVSPropertyOp19
 70
     1
102
RTVSPropertyOp20
 70
     1
102
RTVSPropertyOp21
 70
     1
102
RTVSPropertyOp22
 70
     1
102
RTVSPropertyOp23
 70
     1
102
RTVSPropertyOp24
 70
     1
102
RTVSPropertyOp25
 70
     1
102
RTVSPropertyOp26
 70
     1
102
RTVSPropertyOp27
 70
     1
102
RTVSPropertyOp28
 70
     1
102
RTVSPropertyOp29
 70
     1
102
RTVSPropertyOp30
 70
     1
102
RTVSPropertyOp31
 70
     1
102
RTVSPropertyOp32
 70
     1
  0
XRECORD
  5
3D0
102
{ACAD_REACTORS
330
3CF
102
}
330
3CF
100
AcDbXrecord
280
     1
102
RTVSPropertyOp0
 70
     1
102
RTVSPropertyOp1
 70
     1
102
RTVSPropertyOp2
 70
     1
102
RTVSPropertyOp3
 70
     1
102
RTVSPropertyOp4
 70
     1
102
RTVSPropertyOp5
 70
     1
102
RTVSPropertyOp6
 70
     1
102
RTVSPropertyOp7
 70
     1
102
RTVSPropertyOp8
 70
     1
102
RTVSPropertyOp9
 70
     1
102
RTVSPropertyOp10
 70
     1
102
RTVSPropertyOp11
 70
     1
102
RTVSPropertyOp12
 70
     1
102
RTVSPropertyOp13
 70
     1
102
RTVSPropertyOp14
 70
     1
102
RTVSPropertyOp15
 70
     1
102
RTVSPropertyOp16
 70
     1
102
RTVSPropertyOp17
 70
     1
102
RTVSPropertyOp18
 70
     1
102
RTVSPropertyOp19
 70
     1
102
RTVSPropertyOp20
 70
     1
102
RTVSPropertyOp21
 70
     1
102
RTVSPropertyOp22
 70
     1
102
RTVSPropertyOp23
 70
     1
102
RTVSPropertyOp24
 70
     1
102
RTVSPropertyOp25
 70
     1
102
RTVSPropertyOp26
 70
     1
102
RTVSPropertyOp27
 70
     1
102
RTVSPropertyOp28
 70
     1
102
RTVSPropertyOp29
 70
     1
102
RTVSPropertyOp30
 70
     1
102
RTVSPropertyOp31
 70
     1
102
RTVSPropertyOp32
 70
     1
  0
ENDSEC
  0
EOF
