  0
SECTION
  2
HEADER
  9
$ACADVER
  1
AC1015
  9
$ACADMAINTVER
 70
     6
  9
$DWGCODEPAGE
  3
ANSI_932
  9
$INSBASE
 10
0.0
 20
0.0
 30
0.0
  9
$EXTMIN
 10
0.0
 20
0.0
 30
0.0
  9
$EXTMAX
 10
210.0
 20
297.0
 30
0.0
  9
$LIMMIN
 10
0.0
 20
0.0
  9
$LIMMAX
 10
12.0
 20
9.0
  9
$ORTHOMODE
 70
     0
  9
$REGENMODE
 70
     1
  9
$FILLMODE
 70
     1
  9
$QTEXTMODE
 70
     0
  9
$MIRRTEXT
 70
     1
  9
$LTSCALE
 40
1.0
  9
$ATTMODE
 70
     1
  9
$TEXTSIZE
 40
0.2
  9
$TRACEWID
 40
0.05
  9
$TEXTSTYLE
  7
Standard
  9
$CLAYER
  8
0
  9
$CELTYPE
  6
ByLayer
  9
$CECOLOR
 62
   256
  9
$CELTSCALE
 40
1.0
  9
$DISPSILH
 70
     0
  9
$DIMSCALE
 40
1.0
  9
$DIMASZ
 40
0.18
  9
$DIMEXO
 40
0.0625
  9
$DIMDLI
 40
0.38
  9
$DIMRND
 40
0.0
  9
$DIMDLE
 40
0.0
  9
$DIMEXE
 40
0.18
  9
$DIMTP
 40
0.0
  9
$DIMTM
 40
0.0
  9
$DIMTXT
 40
0.18
  9
$DIMCEN
 40
0.09
  9
$DIMTSZ
 40
0.0
  9
$DIMTOL
 70
     0
  9
$DIMLIM
 70
     0
  9
$DIMTIH
 70
     1
  9
$DIMTOH
 70
     1
  9
$DIMSE1
 70
     0
  9
$DIMSE2
 70
     0
  9
$DIMTAD
 70
     0
  9
$DIMZIN
 70
     0
  9
$DIMBLK
  1

  9
$DIMASO
 70
     1
  9
$DIMSHO
 70
     1
  9
$DIMPOST
  1

  9
$DIMAPOST
  1

  9
$DIMALT
 70
     0
  9
$DIMALTD
 70
     2
  9
$DIMALTF
 40
25.4
  9
$DIMLFAC
 40
1.0
  9
$DIMTOFL
 70
     0
  9
$DIMTVP
 40
0.0
  9
$DIMTIX
 70
     0
  9
$DIMSOXD
 70
     0
  9
$DIMSAH
 70
     0
  9
$DIMBLK1
  1

  9
$DIMBLK2
  1

  9
$DIMSTYLE
  2
Standard
  9
$DIMCLRD
 70
     0
  9
$DIMCLRE
 70
     0
  9
$DIMCLRT
 70
     0
  9
$DIMTFAC
 40
1.0
  9
$DIMGAP
 40
0.09
  9
$DIMJUST
 70
     0
  9
$DIMSD1
 70
     0
  9
$DIMSD2
 70
     0
  9
$DIMTOLJ
 70
     1
  9
$DIMTZIN
 70
     0
  9
$DIMALTZ
 70
     0
  9
$DIMALTTZ
 70
     0
  9
$DIMUPT
 70
     0
  9
$DIMDEC
 70
     4
  9
$DIMTDEC
 70
     4
  9
$DIMALTU
 70
     2
  9
$DIMALTTD
 70
     2
  9
$DIMTXSTY
  7
Standard
  9
$DIMAUNIT
 70
     0
  9
$DIMADEC
 70
     0
  9
$DIMALTRND
 40
0.0
  9
$DIMAZIN
 70
     0
  9
$DIMDSEP
 70
    46
  9
$DIMATFIT
 70
     3
  9
$DIMFRAC
 70
     0
  9
$DIMLDRBLK
  1

  9
$DIMLUNIT
 70
     2
  9
$DIMLWD
 70
    -2
  9
$DIMLWE
 70
    -2
  9
$DIMTMOVE
 70
     0
  9
$LUNITS
 70
     2
  9
$LUPREC
 70
     4
  9
$SKETCHINC
 40
0.1
  9
$FILLETRAD
 40
0.5
  9
$AUNITS
 70
     0
  9
$AUPREC
 70
     0
  9
$MENU
  1
.
  9
$ELEVATION
 40
0.0
  9
$PELEVATION
 40
0.0
  9
$THICKNESS
 40
0.0
  9
$LIMCHECK
 70
     0
  9
$CHAMFERA
 40
0.5
  9
$CHAMFERB
 40
0.5
  9
$CHAMFERC
 40
1.0
  9
$CHAMFERD
 40
0.0
  9
$SKPOLY
 70
     0
  9
$TDCREATE
 40
2456575.568879317
  9
$TDUCREATE
 40
2456575.193879317
  9
$TDUPDATE
 40
2456575.56888022
  9
$TDUUPDATE
 40
2456575.19388022
  9
$TDINDWG
 40
0.0000000116
  9
$TDUSRTIMER
 40
0.0000000116
  9
$USRTIMER
 70
     1
  9
$ANGBASE
 50
0.0
  9
$ANGDIR
 70
     0
  9
$PDMODE
 70
     0
  9
$PDSIZE
 40
0.0
  9
$PLINEWID
 40
0.0
  9
$SPLFRAME
 70
     0
  9
$SPLINETYPE
 70
     6
  9
$SPLINESEGS
 70
     8
  9
$HANDSEED
  5
3D8
  9
$SURFTAB1
 70
     6
  9
$SURFTAB2
 70
     6
  9
$SURFTYPE
 70
     6
  9
$SURFU
 70
     6
  9
$SURFV
 70
     6
  9
$UCSBASE
  2

  9
$UCSNAME
  2

  9
$UCSORG
 10
0.0
 20
0.0
 30
0.0
  9
$UCSXDIR
 10
1.0
 20
0.0
 30
0.0
  9
$UCSYDIR
 10
0.0
 20
1.0
 30
0.0
  9
$UCSORTHOREF
  2

  9
$UCSORTHOVIEW
 70
     0
  9
$UCSORGTOP
 10
0.0
 20
0.0
 30
0.0
  9
$UCSORGBOTTOM
 10
0.0
 20
0.0
 30
0.0
  9
$UCSORGLEFT
 10
0.0
 20
0.0
 30
0.0
  9
$UCSORGRIGHT
 10
0.0
 20
0.0
 30
0.0
  9
$UCSORGFRONT
 10
0.0
 20
0.0
 30
0.0
  9
$UCSORGBACK
 10
0.0
 20
0.0
 30
0.0
  9
$PUCSBASE
  2

  9
$PUCSNAME
  2

  9
$PUCSORG
 10
0.0
 20
0.0
 30
0.0
  9
$PUCSXDIR
 10
1.0
 20
0.0
 30
0.0
  9
$PUCSYDIR
 10
0.0
 20
1.0
 30
0.0
  9
$PUCSORTHOREF
  2

  9
$PUCSORTHOVIEW
 70
     0
  9
$PUCSORGTOP
 10
0.0
 20
0.0
 30
0.0
  9
$PUCSORGBOTTOM
 10
0.0
 20
0.0
 30
0.0
  9
$PUCSORGLEFT
 10
0.0
 20
0.0
 30
0.0
  9
$PUCSORGRIGHT
 10
0.0
 20
0.0
 30
0.0
  9
$PUCSORGFRONT
 10
0.0
 20
0.0
 30
0.0
  9
$PUCSORGBACK
 10
0.0
 20
0.0
 30
0.0
  9
$USERI1
 70
     0
  9
$USERI2
 70
     0
  9
$USERI3
 70
     0
  9
$USERI4
 70
     0
  9
$USERI5
 70
     0
  9
$USERR1
 40
18.1
  9
$USERR2
 40
0.0
  9
$USERR3
 40
0.0
  9
$USERR4
 40
0.0
  9
$USERR5
 40
0.0
  9
$WORLDVIEW
 70
     1
  9
$SHADEDGE
 70
     3
  9
$SHADEDIF
 70
    70
  9
$TILEMODE
 70
     1
  9
$MAXACTVP
 70
    64
  9
$PINSBASE
 10
0.0
 20
0.0
 30
0.0
  9
$PLIMCHECK
 70
     0
  9
$PEXTMIN
 10
1.00000000000000E+20
 20
1.00000000000000E+20
 30
1.00000000000000E+20
  9
$PEXTMAX
 10
-1.00000000000000E+20
 20
-1.00000000000000E+20
 30
-1.00000000000000E+20
  9
$PLIMMIN
 10
0.0
 20
0.0
  9
$PLIMMAX
 10
12.0
 20
9.0
  9
$UNITMODE
 70
     0
  9
$VISRETAIN
 70
     1
  9
$PLINEGEN
 70
     0
  9
$PSLTSCALE
 70
     1
  9
$TREEDEPTH
 70
  3020
  9
$CMLSTYLE
  2
Standard
  9
$CMLJUST
 70
     0
  9
$CMLSCALE
 40
1.0
  9
$PROXYGRAPHICS
 70
     1
  9
$MEASUREMENT
 70
     1
  9
$CELWEIGHT
370
    -1
  9
$ENDCAPS
280
     0
  9
$JOINSTYLE
280
     0
  9
$LWDISPLAY
290
     0
  9
$INSUNITS
 70
     4
  9
$HYPERLINKBASE
  1

  9
$STYLESHEET
  1

  9
$XEDIT
290
     1
  9
$CEPSNTYPE
380
     0
  9
$PSTYLEMODE
290
     1
  9
$FINGERPRINTGUID
  2
{A5BF5C9F-ACAC-485B-9BCE-369D997D5DCE}
  9
$VERSIONGUID
  2
{FAEB1C32-E019-11D5-929B-00C0DF256EC4}
  9
$EXTNAMES
290
     1
  9
$PSVPSCALE
 40
0.0
  9
$OLESTARTUP
290
     0
  0
ENDSEC
  0
SECTION
  2
CLASSES
  0
CLASS
  1
ACDBDICTIONARYWDFLT
  2
AcDbDictionaryWithDefault
  3
ObjectDBX Classes
 90
        0
280
     0
281
     0
  0
CLASS
  1
VISUALSTYLE
  2
AcDbVisualStyle
  3
ObjectDBX Classes
 90
     4095
280
     0
281
     0
  0
CLASS
  1
MATERIAL
  2
AcDbMaterial
  3
ObjectDBX Classes
 90
     1153
280
     0
281
     0
  0
CLASS
  1
DICTIONARYVAR
  2
AcDbDictionaryVar
  3
ObjectDBX Classes
 90
        0
280
     0
281
     0
  0
CLASS
  1
ACDBPLACEHOLDER
  2
AcDbPlaceHolder
  3
ObjectDBX Classes
 90
        0
280
     0
281
     0
  0
CLASS
  1
LAYOUT
  2
AcDbLayout
  3
ObjectDBX Classes
 90
        0
280
     0
281
     0
  0
ENDSEC
  0
SECTION
  2
TABLES
  0
TABLE
  2
VPORT
  5
8
330
0
100
AcDbSymbolTable
 70
     1
  0
VPORT
  5
29
330
8
100
AcDbSymbolTableRecord
100
AcDbViewportTableRecord
  2
*Active
 70
     0
 10
0.0
 20
0.0
 11
1.0
 21
1.0
 12
105.0
 22
148.5
 13
0.0
 23
0.0
 14
0.5
 24
0.5
 15
0.5
 25
0.5
 16
0.0
 26
0.0
 36
1.0
 17
0.0
 27
0.0
 37
0.0
 40
326.7
 41
1.60267857142857
 42
50.0
 43
0.0
 44
0.0
 50
0.0
 51
0.0
 71
     0
 72
   100
 73
     1
 74
     3
 75
     0
 76
     0
 77
     0
 78
     0
281
     0
 65
     1
110
0.0
120
0.0
130
0.0
111
1.0
121
0.0
131
0.0
112
0.0
122
1.0
132
0.0
 79
     0
146
0.0
  0
ENDTAB
  0
TABLE
  2
LTYPE
  5
5
330
0
100
AcDbSymbolTable
 70
     8
  0
LTYPE
  5
14
330
5
100
AcDbSymbolTableRecord
100
AcDbLinetypeTableRecord
  2
ByBlock
 70
     0
  3

 72
    65
 73
     0
 40
0.0
  0
LTYPE
  5
15
330
5
100
AcDbSymbolTableRecord
100
AcDbLinetypeTableRecord
  2
ByLayer
 70
     0
  3

 72
    65
 73
     0
 40
0.0
  0
LTYPE
  5
16
330
5
100
AcDbSymbolTableRecord
100
AcDbLinetypeTableRecord
  2
Continuous
 70
     0
  3
Solid line
 72
    65
 73
     0
 40
0.0
  0
LTYPE
  5
3F
330
5
100
AcDbSymbolTableRecord
100
AcDbLinetypeTableRecord
  2
DASHED
 70
     0
  3
Dashed
 72
    65
 73
     2
 40
15.0
 49
7.0
 74
     0
 49
-8.0
 74
     0
  0
LTYPE
  5
40
330
5
100
AcDbSymbolTableRecord
100
AcDbLinetypeTableRecord
  2
DOTTED
 70
     0
  3
Dotted
 72
    65
 73
     2
 40
1.0
 49
0.0
 74
     0
 49
-1.0
 74
     0
  0
LTYPE
  5
41
330
5
100
AcDbSymbolTableRecord
100
AcDbLinetypeTableRecord
  2
DOT_CENTER
 70
     0
  3
Dot_Center
 72
    65
 73
     4
 40
14.0
 49
12.0
 74
     0
 49
-1.0
 74
     0
 49
0.0
 74
     0
 49
-1.0
 74
     0
  0
LTYPE
  5
42
330
5
100
AcDbSymbolTableRecord
100
AcDbLinetypeTableRecord
  2
LONG_DASHED
 70
     0
  3
Long_Dashed
 72
    65
 73
     2
 40
15.0
 49
10.0
 74
     0
 49
-5.0
 74
     0
  0
LTYPE
  5
43
330
5
100
AcDbSymbolTableRecord
100
AcDbLinetypeTableRecord
  2
DASH_CENTER
 70
     0
  3
Dash_Center
 72
    65
 73
     4
 40
14.0
 49
11.0
 74
     0
 49
-1.0
 74
     0
 49
1.0
 74
     0
 49
-1.0
 74
     0
  0
LTYPE
  5
44
330
5
100
AcDbSymbolTableRecord
100
AcDbLinetypeTableRecord
  2
PHANTOM
 70
     0
  3
Phantom
 72
    65
 73
     6
 40
13.0
 49
10.0
 74
     0
 49
-1.0
 74
     0
 49
0.0
 74
     0
 49
-1.0
 74
     0
 49
0.0
 74
     0
 49
-1.0
 74
     0
  0
LTYPE
  5
45
330
5
100
AcDbSymbolTableRecord
100
AcDbLinetypeTableRecord
  2
CENTER_DASH_DASH
 70
     0
  3
Center_Dash_Dash
 72
    65
 73
     6
 40
14.0
 49
9.0
 74
     0
 49
-1.0
 74
     0
 49
1.0
 74
     0
 49
-1.0
 74
     0
 49
1.0
 74
     0
 49
-1.0
 74
     0
  0
ENDTAB
  0
TABLE
  2
LAYER
  5
2
330
0
100
AcDbSymbolTable
 70
     2
  0
LAYER
  5
10
330
2
100
AcDbSymbolTableRecord
100
AcDbLayerTableRecord
  2
0
 70
     0
 62
     7
  6
Continuous
370
    -3
390
F
  0
LAYER
  5
46
330
2
100
AcDbSymbolTableRecord
100
AcDbLayerTableRecord
  2
1
 70
     0
 62
     7
  6
Continuous
370
    -3
390
F
  0
ENDTAB
  0
TABLE
  2
STYLE
  5
3
330
0
100
AcDbSymbolTable
 70
     3
  0
STYLE
  5
11
330
3
100
AcDbSymbolTableRecord
100
AcDbTextStyleTableRecord
  2
Standard
 70
     0
 40
0.0
 41
1.0
 50
0.0
 71
     0
 42
0.2
  3
txt
  4

  0
STYLE
  5
BE
330
3
100
AcDbSymbolTableRecord
100
AcDbTextStyleTableRecord
  2
CONVERTER_11
 70
     0
 40
0.0
 41
0.89
 50
0.0
 71
     0
 42
0.2
  3
MS Mincho.ttf
  4

1001
ACAD
1000
MS Mincho
1071
    32785
  0
STYLE
  5
36F
330
3
100
AcDbSymbolTableRecord
100
AcDbTextStyleTableRecord
  2
CONVERTER_12
 70
     0
 40
0.0
 41
0.9
 50
0.0
 71
     0
 42
0.2
  3
txt.shx
  4

  0
ENDTAB
  0
TABLE
  2
VIEW
  5
6
330
0
100
AcDbSymbolTable
 70
     0
  0
ENDTAB
  0
TABLE
  2
UCS
  5
7
330
0
100
AcDbSymbolTable
 70
     0
  0
ENDTAB
  0
TABLE
  2
APPID
  5
9
330
0
100
AcDbSymbolTable
 70
     1
  0
APPID
  5
12
330
9
100
AcDbSymbolTableRecord
100
AcDbRegAppTableRecord
  2
ACAD
 70
     0
  0
ENDTAB
  0
TABLE
  2
DIMSTYLE
  5
A
330
0
100
AcDbSymbolTable
 70
     6
100
AcDbDimStyleTable
  0
DIMSTYLE
105
27
330
A
100
AcDbSymbolTableRecord
100
AcDbDimStyleTableRecord
  2
Standard
 70
     0
178
     0
340
11
  0
DIMSTYLE
105
37F
102
{ACAD_REACTORS
330
380
102
}
330
A
100
AcDbSymbolTableRecord
100
AcDbDimStyleTableRecord
  2
ME10_DIM_10
 70
     0
 41
3.5
 42
0.0
 44
1.0
 73
     0
 74
     0
 77
     1
 78
     8
140
3.5
147
1.0
172
     1
173
     1
174
     1
175
     1
176
     2
177
     2
271
     2
178
     7
271
     2
340
36F
  0
DIMSTYLE
105
38A
102
{ACAD_REACTORS
330
38B
102
}
330
A
100
AcDbSymbolTableRecord
100
AcDbDimStyleTableRecord
  2
ME10_DIM_11
 70
     0
 41
3.5
 42
0.0
 44
1.0
 73
     0
 74
     0
 77
     1
 78
     8
140
3.5
147
1.0
172
     1
173
     1
174
     1
175
     1
176
     2
177
     2
271
     2
178
     7
271
     2
340
36F
  0
DIMSTYLE
105
395
102
{ACAD_REACTORS
330
396
102
}
330
A
100
AcDbSymbolTableRecord
100
AcDbDimStyleTableRecord
  2
ME10_DIM_12
 70
     0
 41
3.5
 42
0.0
 44
1.0
 73
     0
 74
     0
 77
     1
 78
     8
140
3.5
147
1.0
172
     1
173
     1
174
     1
175
     1
176
     2
177
     2
271
     2
178
     7
271
     2
340
36F
  0
DIMSTYLE
105
3A0
102
{ACAD_REACTORS
330
3A1
102
}
330
A
100
AcDbSymbolTableRecord
100
AcDbDimStyleTableRecord
  2
ME10_DIM_13
 70
     0
 41
3.5
 42
0.0
 44
1.0
 73
     0
 74
     0
 77
     1
 78
     8
140
3.5
147
1.0
172
     1
173
     1
174
     1
175
     1
176
     2
177
     2
271
     2
178
     7
271
     2
340
BE
  0
DIMSTYLE
105
3AB
102
{ACAD_REACTORS
330
3AC
102
}
330
A
100
AcDbSymbolTableRecord
100
AcDbDimStyleTableRecord
  2
ME10_DIM_14
 70
     0
 41
3.5
 42
0.0
 44
1.0
 73
     0
 74
     0
 77
     1
 78
     8
140
3.5
147
1.0
172
     1
173
     1
174
     1
175
     1
176
     2
177
     2
271
     2
178
     7
271
     2
340
36F
  0
ENDTAB
  0
TABLE
  2
BLOCK_RECORD
  5
1
330
0
100
AcDbSymbolTable
 70
    17
  0
BLOCK_RECORD
  5
1F
330
1
100
AcDbSymbolTableRecord
100
AcDbBlockTableRecord
  2
*Model_Space
340
22
  0
BLOCK_RECORD
  5
1B
330
1
100
AcDbSymbolTableRecord
100
AcDbBlockTableRecord
  2
*Paper_Space
340
1E
  0
BLOCK_RECORD
  5
23
330
1
100
AcDbSymbolTableRecord
100
AcDbBlockTableRecord
  2
*Paper_Space0
340
26
  0
BLOCK_RECORD
  5
47
330
1
100
AcDbSymbolTableRecord
100
AcDbBlockTableRecord
  2
開示A4
340
0
102
{BLKREFS
331
68
102
}
  0
BLOCK_RECORD
  5
4A
330
1
100
AcDbSymbolTableRecord
100
AcDbBlockTableRecord
  2
21-2
340
0
102
{BLKREFS
331
69
102
}
  0
BLOCK_RECORD
  5
4D
330
1
100
AcDbSymbolTableRecord
100
AcDbBlockTableRecord
  2
32-48-13
340
0
102
{BLKREFS
331
6A
102
}
  0
BLOCK_RECORD
  5
50
330
1
100
AcDbSymbolTableRecord
100
AcDbBlockTableRecord
  2
73-4
340
0
102
{BLKREFS
331
6B
102
}
  0
BLOCK_RECORD
  5
53
330
1
100
AcDbSymbolTableRecord
100
AcDbBlockTableRecord
  2
37-32-20
340
0
102
{BLKREFS
331
6C
102
}
  0
BLOCK_RECORD
  5
56
330
1
100
AcDbSymbolTableRecord
100
AcDbBlockTableRecord
  2
72-1
340
0
102
{BLKREFS
331
6D
102
}
  0
BLOCK_RECORD
  5
59
330
1
100
AcDbSymbolTableRecord
100
AcDbBlockTableRecord
  2
36-39-20
340
0
102
{BLKREFS
331
6E
102
}
  0
BLOCK_RECORD
  5
5C
330
1
100
AcDbSymbolTableRecord
100
AcDbBlockTableRecord
  2
31-26-20
340
0
102
{BLKREFS
331
6F
102
}
  0
BLOCK_RECORD
  5
5F
330
1
100
AcDbSymbolTableRecord
100
AcDbBlockTableRecord
  2
V30-0-20
340
0
102
{BLKREFS
331
70
102
}
  0
BLOCK_RECORD
  5
62
330
1
100
AcDbSymbolTableRecord
100
AcDbBlockTableRecord
  2
88-16
340
0
102
{BLKREFS
331
71
102
}
  0
BLOCK_RECORD
  5
65
330
1
100
AcDbSymbolTableRecord
100
AcDbBlockTableRecord
  2
91-25K
340
0
102
{BLKREFS
331
72
102
}
  0
BLOCK_RECORD
  5
376
330
1
100
AcDbSymbolTableRecord
100
AcDbBlockTableRecord
  2
*D12
340
0
  0
BLOCK_RECORD
  5
381
330
1
100
AcDbSymbolTableRecord
100
AcDbBlockTableRecord
  2
*D13
340
0
  0
BLOCK_RECORD
  5
38C
330
1
100
AcDbSymbolTableRecord
100
AcDbBlockTableRecord
  2
*D14
340
0
  0
BLOCK_RECORD
  5
397
330
1
100
AcDbSymbolTableRecord
100
AcDbBlockTableRecord
  2
*D15
340
0
  0
BLOCK_RECORD
  5
3A2
330
1
100
AcDbSymbolTableRecord
100
AcDbBlockTableRecord
  2
*D16
340
0
  0
ENDTAB
  0
ENDSEC
  0
SECTION
  2
BLOCKS
  0
BLOCK
  5
20
330
1F
100
AcDbEntity
  8
0
100
AcDbBlockBegin
  2
*Model_Space
 70
     0
 10
0.0
 20
0.0
 30
0.0
  3
*Model_Space
  1

  0
ENDBLK
  5
21
330
1F
100
AcDbEntity
  8
0
100
AcDbBlockEnd
  0
BLOCK
  5
1C
330
1B
100
AcDbEntity
 67
     1
  8
0
100
AcDbBlockBegin
  2
*Paper_Space
 70
     0
 10
0.0
 20
0.0
 30
0.0
  3
*Paper_Space
  1

  0
ENDBLK
  5
1D
330
1B
100
AcDbEntity
 67
     1
  8
0
100
AcDbBlockEnd
  0
BLOCK
  5
24
330
23
100
AcDbEntity
  8
0
100
AcDbBlockBegin
  2
*Paper_Space0
 70
     0
 10
0.0
 20
0.0
 30
0.0
  3
*Paper_Space0
  1

  0
ENDBLK
  5
25
330
23
100
AcDbEntity
  8
0
100
AcDbBlockEnd
  0
BLOCK
  5
48
330
47
100
AcDbEntity
  8
0
100
AcDbBlockBegin
  2
開示A4
 70
     0
 10
0.0
 20
0.0
 30
0.0
  3
開示A4
  1

  0
POINT
  5
73
330
47
100
AcDbEntity
  8
1
 62
     4
100
AcDbPoint
 10
93.75
 20
17.0
 30
0.0
  0
POINT
  5
74
330
47
100
AcDbEntity
  8
1
 62
     4
100
AcDbPoint
 10
85.25
 20
17.0
 30
0.0
  0
POINT
  5
75
330
47
100
AcDbEntity
  8
1
 62
     4
100
AcDbPoint
 10
106.5
 20
19.00000000000001
 30
0.0
  0
POINT
  5
76
330
47
100
AcDbEntity
  8
1
 62
     4
100
AcDbPoint
 10
106.5
 20
12.5
 30
0.0
  0
POINT
  5
77
330
47
100
AcDbEntity
  8
1
 62
     4
100
AcDbPoint
 10
112.25
 20
12.5
 30
0.0
  0
POINT
  5
78
330
47
100
AcDbEntity
  8
1
 62
     4
100
AcDbPoint
 10
100.75
 20
12.5
 30
0.0
  0
POINT
  5
79
330
47
100
AcDbEntity
  8
1
 62
     4
100
AcDbPoint
 10
123.5
 20
19.00000000000001
 30
0.0
  0
POINT
  5
7A
330
47
100
AcDbEntity
  8
1
 62
     4
100
AcDbPoint
 10
123.5
 20
12.5
 30
0.0
  0
POINT
  5
7B
330
47
100
AcDbEntity
  8
1
 62
     4
100
AcDbPoint
 10
129.25
 20
12.5
 30
0.0
  0
POINT
  5
7C
330
47
100
AcDbEntity
  8
1
 62
     4
100
AcDbPoint
 10
117.75
 20
12.5
 30
0.0
  0
POINT
  5
7D
330
47
100
AcDbEntity
  8
1
 62
     4
100
AcDbPoint
 10
140.5
 20
19.00000000000001
 30
0.0
  0
POINT
  5
7E
330
47
100
AcDbEntity
  8
1
 62
     4
100
AcDbPoint
 10
140.5
 20
12.5
 30
0.0
  0
POINT
  5
7F
330
47
100
AcDbEntity
  8
1
 62
     4
100
AcDbPoint
 10
146.25
 20
12.5
 30
0.0
  0
POINT
  5
80
330
47
100
AcDbEntity
  8
1
 62
     4
100
AcDbPoint
 10
134.75
 20
12.5
 30
0.0
  0
POINT
  5
81
330
47
100
AcDbEntity
  8
1
 62
     4
100
AcDbPoint
 10
151.75
 20
12.5
 30
0.0
  0
POINT
  5
82
330
47
100
AcDbEntity
  8
1
 62
     4
100
AcDbPoint
 10
163.25
 20
12.5
 30
0.0
  0
POINT
  5
83
330
47
100
AcDbEntity
  8
1
 62
     4
100
AcDbPoint
 10
157.5
 20
12.5
 30
0.0
  0
POINT
  5
84
330
47
100
AcDbEntity
  8
1
 62
     4
100
AcDbPoint
 10
57.0
 20
14.25
 30
0.0
  0
POINT
  5
85
330
47
100
AcDbEntity
  8
1
 62
     4
100
AcDbPoint
 10
57.0
 20
22.75000000000001
 30
0.0
  0
POINT
  5
86
330
47
100
AcDbEntity
  8
1
 62
     4
100
AcDbPoint
 10
47.5
 20
282.0000000000003
 30
0.0
  0
POINT
  5
87
330
47
100
AcDbEntity
  8
1
 62
     4
100
AcDbPoint
 10
157.5
 20
19.00000000000001
 30
0.0
  0
POINT
  5
88
330
47
100
AcDbEntity
  8
1
 62
     4
100
AcDbPoint
 10
57.0
 20
16.25
 30
0.0
  0
POINT
  5
89
330
47
100
AcDbEntity
  8
1
 62
     4
100
AcDbPoint
 10
57.0
 20
24.75000000000001
 30
0.0
  0
POINT
  5
8A
330
47
100
AcDbEntity
  8
1
 62
     4
100
AcDbPoint
 10
57.0
 20
20.75000000000001
 30
0.0
  0
POINT
  5
8B
330
47
100
AcDbEntity
  8
1
 62
     4
100
AcDbPoint
 10
57.0
 20
12.25
 30
0.0
  0
POINT
  5
8C
330
47
100
AcDbEntity
  8
1
 62
     4
100
AcDbPoint
 10
34.0
 20
34.00000000000001
 30
0.0
  0
LINE
  5
8D
330
47
100
AcDbEntity
  8
1
  6
Continuous
 62
     7
100
AcDbLine
 10
105.0
 20
10.0
 30
0.0
 11
200.0
 21
10.0
 31
0.0
  0
LINE
  5
8E
330
47
100
AcDbEntity
  8
1
  6
Continuous
 62
     2
100
AcDbLine
 10
105.0
 20
10.0
 30
0.0
 11
105.0
 21
5.0
 31
0.0
  0
LINE
  5
8F
330
47
100
AcDbEntity
  8
1
  6
Continuous
 62
     7
100
AcDbLine
 10
200.0
 20
148.5
 30
0.0
 11
200.0
 21
287.0000000000003
 31
0.0
  0
LINE
  5
90
330
47
100
AcDbEntity
  8
1
  6
Continuous
 62
     2
100
AcDbLine
 10
200.0
 20
148.5
 30
0.0
 11
205.0
 21
148.5
 31
0.0
  0
LINE
  5
91
330
47
100
AcDbEntity
  8
1
  6
Continuous
 62
     7
100
AcDbLine
 10
25.0
 20
148.5
 30
0.0
 11
25.0
 21
287.0000000000003
 31
0.0
  0
LINE
  5
92
330
47
100
AcDbEntity
  8
1
  6
Continuous
 62
     2
100
AcDbLine
 10
25.0
 20
148.5
 30
0.0
 11
20.0
 21
148.5
 31
0.0
  0
LINE
  5
93
330
47
100
AcDbEntity
  8
1
  6
Continuous
 62
     7
100
AcDbLine
 10
105.0
 20
287.0000000000003
 30
0.0
 11
25.0
 21
287.0000000000003
 31
0.0
  0
LINE
  5
94
330
47
100
AcDbEntity
  8
1
  6
Continuous
 62
     2
100
AcDbLine
 10
105.0
 20
287.0000000000003
 30
0.0
 11
105.0
 21
292.0000000000003
 31
0.0
  0
LINE
  5
95
330
47
100
AcDbEntity
  8
1
  6
Continuous
 62
     2
100
AcDbLine
 10
166.0
 20
20.00000000000001
 30
0.0
 11
200.0
 21
20.00000000000001
 31
0.0
  0
LINE
  5
96
330
47
100
AcDbEntity
  8
1
  6
Continuous
 62
     2
100
AcDbLine
 10
98.0
 20
27.00000000000001
 30
0.0
 11
98.0
 21
9.99999999999999
 31
0.0
  0
LINE
  5
97
330
47
100
AcDbEntity
  8
1
  6
Continuous
 62
     2
100
AcDbLine
 10
115.0
 20
27.00000000000001
 30
0.0
 11
115.0
 21
9.99999999999999
 31
0.0
  0
LINE
  5
98
330
47
100
AcDbEntity
  8
1
  6
Continuous
 62
     2
100
AcDbLine
 10
149.0
 20
27.00000000000001
 30
0.0
 11
149.0
 21
10.0
 31
0.0
  0
LINE
  5
99
330
47
100
AcDbEntity
  8
1
  6
Continuous
 62
     2
100
AcDbLine
 10
132.0
 20
27.00000000000001
 30
0.0
 11
132.0
 21
9.99999999999999
 31
0.0
  0
LINE
  5
9A
330
47
100
AcDbEntity
  8
1
  6
Continuous
 62
     2
100
AcDbLine
 10
166.0
 20
27.00000000000001
 30
0.0
 11
166.0
 21
10.0
 31
0.0
  0
LINE
  5
9B
330
47
100
AcDbEntity
  8
1
  6
Continuous
 62
     2
100
AcDbLine
 10
55.0
 20
277.0000000000003
 30
0.0
 11
25.0
 21
277.0000000000003
 31
0.0
  0
LINE
  5
9C
330
47
100
AcDbEntity
  8
1
  6
Continuous
 62
     7
100
AcDbLine
 10
25.0
 20
10.0
 30
0.0
 11
25.0
 21
148.5
 31
0.0
  0
LINE
  5
9D
330
47
100
AcDbEntity
  8
1
  6
Continuous
 62
     2
100
AcDbLine
 10
40.0
 20
287.0000000000003
 30
0.0
 11
40.0
 21
277.0000000000003
 31
0.0
  0
LINE
  5
9E
330
47
100
AcDbEntity
  8
1
  6
Continuous
 62
     2
100
AcDbLine
 10
55.0
 20
287.0000000000003
 30
0.0
 11
55.0
 21
277.0000000000003
 31
0.0
  0
LINE
  5
9F
330
47
100
AcDbEntity
  8
1
  6
Continuous
 62
     2
100
AcDbLine
 10
33.0
 20
41.00000000000001
 30
0.0
 11
33.0
 21
27.0
 31
0.0
  0
LINE
  5
A0
330
47
100
AcDbEntity
  8
1
  6
Continuous
 62
     7
100
AcDbLine
 10
200.0
 20
27.00000000000001
 30
0.0
 11
25.0
 21
27.00000000000001
 31
0.0
  0
LINE
  5
A1
330
47
100
AcDbEntity
  8
1
  6
Continuous
 62
     7
100
AcDbLine
 10
25.0
 20
41.0
 30
0.0
 11
200.0
 21
41.0
 31
0.0
  0
LINE
  5
A2
330
47
100
AcDbEntity
  8
1
  6
PHANTOM
 62
     4
100
AcDbLine
 10
0.0
 20
0.0
 30
0.0
 11
210.0
 21
0.0
 31
0.0
  0
LINE
  5
A3
330
47
100
AcDbEntity
  8
1
  6
PHANTOM
 62
     4
100
AcDbLine
 10
210.0
 20
0.0
 30
0.0
 11
210.0
 21
297.0
 31
0.0
  0
LINE
  5
A4
330
47
100
AcDbEntity
  8
1
  6
PHANTOM
 62
     4
100
AcDbLine
 10
210.0
 20
297.0
 30
0.0
 11
0.0
 21
297.0
 31
0.0
  0
LINE
  5
A5
330
47
100
AcDbEntity
  8
1
  6
PHANTOM
 62
     4
100
AcDbLine
 10
0.0
 20
297.0
 30
0.0
 11
0.0
 21
0.0
 31
0.0
  0
LINE
  5
A6
330
47
100
AcDbEntity
  8
1
  6
Continuous
 62
     7
100
AcDbLine
 10
25.0
 20
10.0
 30
0.0
 11
105.0
 21
10.0
 31
0.0
  0
LINE
  5
A7
330
47
100
AcDbEntity
  8
1
  6
Continuous
 62
     7
100
AcDbLine
 10
200.0
 20
10.0
 30
0.0
 11
200.0
 21
148.5
 31
0.0
  0
LINE
  5
A8
330
47
100
AcDbEntity
  8
1
  6
Continuous
 62
     7
100
AcDbLine
 10
200.0
 20
287.0000000000003
 30
0.0
 11
105.0
 21
287.0000000000003
 31
0.0
  0
LINE
  5
A9
330
47
100
AcDbEntity
  8
1
  6
Continuous
 62
     2
100
AcDbLine
 10
25.0
 20
18.50000000000001
 30
0.0
 11
81.0
 21
18.50000000000001
 31
0.0
  0
LINE
  5
AA
330
47
100
AcDbEntity
  8
1
  6
Continuous
 62
     2
100
AcDbLine
 10
33.0
 20
27.0
 30
0.0
 11
33.0
 21
10.0
 31
0.0
  0
LINE
  5
AB
330
47
100
AcDbEntity
  8
1
  6
Continuous
 62
     7
100
AcDbLine
 10
191.0
 20
24.70000000000001
 30
0.0
 11
191.0
 21
22.30000000000001
 31
0.0
  0
LINE
  5
AC
330
47
100
AcDbEntity
  8
1
  6
Continuous
 62
     7
100
AcDbLine
 10
191.0
 20
24.70000000000001
 30
0.0
 11
196.0
 21
25.50000000000001
 31
0.0
  0
LINE
  5
AD
330
47
100
AcDbEntity
  8
1
  6
Continuous
 62
     7
100
AcDbLine
 10
196.0
 20
25.50000000000001
 30
0.0
 11
196.0
 21
21.50000000000001
 31
0.0
  0
LINE
  5
AE
330
47
100
AcDbEntity
  8
1
  6
Continuous
 62
     7
100
AcDbLine
 10
196.0
 20
21.50000000000001
 30
0.0
 11
191.0
 21
22.30000000000001
 31
0.0
  0
LINE
  5
AF
330
47
100
AcDbEntity
  8
1
  6
DOT_CENTER
 62
     2
100
AcDbLine
 10
184.0
 20
23.50000000000001
 30
0.0
 11
197.0
 21
23.50000000000001
 31
0.0
  0
LINE
  5
B0
330
47
100
AcDbEntity
  8
1
  6
DOT_CENTER
 62
     2
100
AcDbLine
 10
187.0
 20
26.50000000000001
 30
0.0
 11
187.0
 21
20.50000000000001
 31
0.0
  0
LINE
  5
B1
330
47
100
AcDbEntity
  8
1
  6
Continuous
 62
     2
100
AcDbLine
 10
81.0
 20
27.00000000000001
 30
0.0
 11
81.0
 21
10.0
 31
0.0
  0
CIRCLE
  5
B2
330
47
100
AcDbEntity
  8
1
  6
Continuous
 62
     7
100
AcDbCircle
 10
103.5
 20
12.5
 30
0.0
 40
0.2999999999999972
  0
CIRCLE
  5
B3
330
47
100
AcDbEntity
  8
1
  6
Continuous
 62
     7
100
AcDbCircle
 10
109.5
 20
12.5
 30
0.0
 40
0.2999999999999972
  0
CIRCLE
  5
B4
330
47
100
AcDbEntity
  8
1
  6
Continuous
 62
     7
100
AcDbCircle
 10
120.5
 20
12.5
 30
0.0
 40
0.2999999999999972
  0
CIRCLE
  5
B5
330
47
100
AcDbEntity
  8
1
  6
Continuous
 62
     7
100
AcDbCircle
 10
126.5
 20
12.5
 30
0.0
 40
0.2999999999999972
  0
CIRCLE
  5
B6
330
47
100
AcDbEntity
  8
1
  6
Continuous
 62
     7
100
AcDbCircle
 10
137.5
 20
12.5
 30
0.0
 40
0.3000000000000114
  0
CIRCLE
  5
B7
330
47
100
AcDbEntity
  8
1
  6
Continuous
 62
     7
100
AcDbCircle
 10
143.5
 20
12.5
 30
0.0
 40
0.3000000000000114
  0
CIRCLE
  5
B8
330
47
100
AcDbEntity
  8
1
  6
Continuous
 62
     7
100
AcDbCircle
 10
160.5
 20
12.5
 30
0.0
 40
0.3000000000000114
  0
CIRCLE
  5
B9
330
47
100
AcDbEntity
  8
1
  6
Continuous
 62
     7
100
AcDbCircle
 10
154.5
 20
12.5
 30
0.0
 40
0.3000000000000114
  0
CIRCLE
  5
BA
330
47
100
AcDbEntity
  8
1
  6
Continuous
 62
     7
100
AcDbCircle
 10
187.0
 20
23.50000000000001
 30
0.0
 40
1.200000000000102
  0
CIRCLE
  5
BB
330
47
100
AcDbEntity
  8
1
  6
Continuous
 62
     7
100
AcDbCircle
 10
187.0
 20
23.50000000000001
 30
0.0
 40
2.0
  0
CIRCLE
  5
BC
330
47
100
AcDbEntity
  8
1
  6
DOT_CENTER
 62
     7
100
AcDbCircle
 10
89.5
 20
16.0
 30
0.0
 40
0.1000000000000227
  0
CIRCLE
  5
BD
330
47
100
AcDbEntity
  8
1
  6
DOT_CENTER
 62
     7
100
AcDbCircle
 10
89.5
 20
18.0
 30
0.0
 40
0.1000000000000227
  0
MTEXT
  5
BF
330
47
100
AcDbEntity
  8
1
 62
     7
100
AcDbMText
 10
188.5
 20
15.0
 30
0.0
 40
3.0
 41
0.0
 71
     5
 72
     1
  1
三栄水栓製作所
  7
CONVERTER_11
 73
     1
 44
1.0
  0
MTEXT
  5
C0
330
47
100
AcDbEntity
  8
1
 62
     7
100
AcDbMText
 10
171.5
 20
15.0
 30
0.0
 40
2.5
 41
0.0
 71
     5
 72
     1
  1
株式会社
  7
CONVERTER_11
 73
     1
 44
1.0
  0
MTEXT
  5
C1
330
47
100
AcDbEntity
  8
1
 62
     2
100
AcDbMText
 10
32.5
 20
282.0000000000003
 30
0.0
 40
5.0
 41
0.0
 71
     5
 72
     1
  1
図番
  7
CONVERTER_11
 73
     1
 44
0.45454545454545
  0
MTEXT
  5
C2
330
47
100
AcDbEntity
  8
1
 62
     2
100
AcDbMText
 10
29.0
 20
34.00000000000001
 30
0.0
 40
3.5
 41
0.0
 71
     5
 72
     1
  1
備考
  7
CONVERTER_11
 73
     1
 44
0.45454545454545
  0
MTEXT
  5
C3
330
47
100
AcDbEntity
  8
1
 62
     2
100
AcDbMText
 10
29.0
 20
22.75
 30
0.0
 40
3.5
 41
0.0
 71
     5
 72
     1
  1
品名
  7
CONVERTER_11
 73
     1
 44
0.72727272727273
  0
MTEXT
  5
C4
330
47
100
AcDbEntity
  8
1
 62
     2
100
AcDbMText
 10
29.0
 20
14.25
 30
0.0
 40
3.5
 41
0.0
 71
     5
 72
     1
  1
品番
  7
CONVERTER_11
 73
     1
 44
0.72727272727273
  0
MTEXT
  5
C5
330
47
100
AcDbEntity
  8
1
 62
     2
100
AcDbMText
 10
101.5
 20
25.00000000000001
 30
0.0
 40
3.0
 41
0.0
 71
     5
 72
     1
  1
承認
  7
CONVERTER_11
 73
     1
 44
0.59090909090909
  0
MTEXT
  5
C6
330
47
100
AcDbEntity
  8
1
 62
     2
100
AcDbMText
 10
175.0
 20
23.50000000000001
 30
0.0
 40
3.5
 41
0.0
 71
     5
 72
     1
  1
第三角法
  7
CONVERTER_11
 73
     1
 44
0.54545454545455
  0
MTEXT
  5
C7
330
47
100
AcDbEntity
  8
1
 62
     2
100
AcDbMText
 10
118.5
 20
25.00000000000001
 30
0.0
 40
3.0
 41
0.0
 71
     5
 72
     1
  1
検図
  7
CONVERTER_11
 73
     1
 44
0.59090909090909
  0
MTEXT
  5
C8
330
47
100
AcDbEntity
  8
1
 62
     2
100
AcDbMText
 10
152.5
 20
25.00000000000001
 30
0.0
 40
3.0
 41
0.0
 71
     5
 72
     1
  1
設計
  7
CONVERTER_11
 73
     1
 44
0.59090909090909
  0
MTEXT
  5
C9
330
47
100
AcDbEntity
  8
1
 62
     2
100
AcDbMText
 10
135.5
 20
25.00000000000001
 30
0.0
 40
3.0
 41
0.0
 71
     5
 72
     1
  1
製図
  7
CONVERTER_11
 73
     1
 44
0.59090909090909
  0
MTEXT
  5
CA
330
47
100
AcDbEntity
  8
1
 62
     2
100
AcDbMText
 10
89.5
 20
24.00000000000001
 30
0.0
 40
3.5
 41
0.0
 71
     5
 72
     1
  1
尺度
  7
CONVERTER_11
 73
     1
 44
0.54545454545455
  0
MTEXT
  5
CB
330
47
100
AcDbEntity
  8
1
 62
   250
100
AcDbMText
 10
25.0
 20
5.0
 30
0.0
 40
3.5
 41
0.0
 71
     4
 72
     1
  1
備考欄の文字列 原点位置=4
  7
CONVERTER_11
 73
     1
 44
0.54545454545455
  0
ENDBLK
  5
49
330
47
100
AcDbEntity
  8
0
100
AcDbBlockEnd
  0
BLOCK
  5
4B
330
4A
100
AcDbEntity
  8
0
100
AcDbBlockBegin
  2
21-2
 70
     0
 10
208.4648651867397
 20
107.7940077036114
 30
0.0
  3
21-2
  1

  0
LINE
  5
CC
330
4A
100
AcDbEntity
  8
1
  6
Continuous
 62
     7
100
AcDbLine
 10
151.4648651867397
 20
156.0940077036104
 30
0.0
 11
143.9648651867397
 21
156.0940077036104
 31
0.0
  0
LINE
  5
CD
330
4A
100
AcDbEntity
  8
1
  6
Continuous
 62
     7
100
AcDbLine
 10
148.2068017546367
 20
161.0940077036104
 30
0.0
 11
143.492252270317
 21
161.0940077036104
 31
0.0
  0
LINE
  5
CE
330
4A
100
AcDbEntity
  8
1
  6
Continuous
 62
     7
100
AcDbLine
 10
148.2068017546367
 20
161.0940077036104
 30
0.0
 11
147.2798687579847
 21
157.6346466648931
 31
0.0
  0
LINE
  5
CF
330
4A
100
AcDbEntity
  8
1
  6
Continuous
 62
     7
100
AcDbLine
 10
132.7287767346581
 20
156.0940077036104
 30
0.0
 11
137.4648651867397
 21
156.0940077036104
 31
0.0
  0
LINE
  5
D0
330
4A
100
AcDbEntity
  8
1
  6
Continuous
 62
     7
100
AcDbLine
 10
132.676282953602
 20
161.0940077036104
 30
0.0
 11
132.2312581395531
 21
156.643759563121
 31
0.0
  0
LINE
  5
D1
330
4A
100
AcDbEntity
  8
1
  6
Continuous
 62
     7
100
AcDbLine
 10
143.9648651867397
 20
152.0940077036104
 30
0.0
 11
151.4648651867397
 21
152.0940077036104
 31
0.0
  0
LINE
  5
D2
330
4A
100
AcDbEntity
  8
1
  6
Continuous
 62
     7
100
AcDbLine
 10
143.9648651867397
 20
152.0940077036104
 30
0.0
 11
143.9648651867397
 21
156.0940077036104
 31
0.0
  0
LINE
  5
D3
330
4A
100
AcDbEntity
  8
1
  6
Continuous
 62
     7
100
AcDbLine
 10
124.9663840886746
 20
156.0940077036104
 30
0.0
 11
132.676282953602
 21
156.0940077036104
 31
0.0
  0
LINE
  5
D4
330
4A
100
AcDbEntity
  8
1
  6
Continuous
 62
     7
100
AcDbLine
 10
132.676282953602
 20
161.0940077036104
 30
0.0
 11
127.7664066344664
 21
161.0940077036104
 31
0.0
  0
LINE
  5
D5
330
4A
100
AcDbEntity
  8
1
  6
Continuous
 62
     7
100
AcDbLine
 10
148.2068017546367
 20
161.0940077036104
 30
0.0
 11
149.050050621017
 21
164.2410553163667
 31
0.0
  0
LINE
  5
D6
330
4A
100
AcDbEntity
  8
1
  6
Continuous
 62
     7
100
AcDbLine
 10
143.9648651867397
 20
156.0940077036104
 30
0.0
 11
137.4648651867397
 21
156.0940077036104
 31
0.0
  0
LINE
  5
D7
330
4A
100
AcDbEntity
  8
1
  6
Continuous
 62
     7
100
AcDbLine
 10
143.492252270317
 20
161.0940077036104
 30
0.0
 11
137.4765603073512
 21
161.0940077036104
 31
0.0
  0
LINE
  5
D8
330
4A
100
AcDbEntity
  8
1
  6
Continuous
 62
     7
100
AcDbLine
 10
141.9747925637113
 20
163.6479879564312
 30
0.0
 11
143.492252270317
 21
161.0940077036104
 31
0.0
  0
LINE
  5
D9
330
4A
100
AcDbEntity
  8
1
  6
Continuous
 62
     7
100
AcDbLine
 10
158.9648651867397
 20
156.0940077036104
 30
0.0
 11
151.4648651867397
 21
156.0940077036104
 31
0.0
  0
LINE
  5
DA
330
4A
100
AcDbEntity
  8
1
  6
Continuous
 62
     7
100
AcDbLine
 10
159.4374781031624
 20
161.0940077036104
 30
0.0
 11
154.7229286188427
 21
161.0940077036104
 31
0.0
  0
LINE
  5
DB
330
4A
100
AcDbEntity
  8
1
  6
Continuous
 62
     7
100
AcDbLine
 10
155.6498616154947
 20
157.6346466648931
 30
0.0
 11
154.7229286188427
 21
161.0940077036104
 31
0.0
  0
LINE
  5
DC
330
4A
100
AcDbEntity
  8
1
  6
Continuous
 62
     7
100
AcDbLine
 10
165.4648651867397
 20
156.0940077036104
 30
0.0
 11
170.2009536388213
 21
156.0940077036104
 31
0.0
  0
LINE
  5
DD
330
4A
100
AcDbEntity
  8
1
  6
Continuous
 62
     7
100
AcDbLine
 10
170.6984722339263
 20
156.643759563121
 30
0.0
 11
170.2534474198773
 21
161.0940077036104
 31
0.0
  0
LINE
  5
DE
330
4A
100
AcDbEntity
  8
1
  6
Continuous
 62
     7
100
AcDbLine
 10
151.4648651867397
 20
152.0940077036104
 30
0.0
 11
158.9648651867397
 21
152.0940077036104
 31
0.0
  0
LINE
  5
DF
330
4A
100
AcDbEntity
  8
1
  6
Continuous
 62
     7
100
AcDbLine
 10
158.9648651867397
 20
156.0940077036104
 30
0.0
 11
158.9648651867397
 21
152.0940077036104
 31
0.0
  0
LINE
  5
E0
330
4A
100
AcDbEntity
  8
1
  6
Continuous
 62
     7
100
AcDbLine
 10
170.2534474198773
 20
156.0940077036104
 30
0.0
 11
177.9633462848047
 21
156.0940077036104
 31
0.0
  0
LINE
  5
E1
330
4A
100
AcDbEntity
  8
1
  6
Continuous
 62
     7
100
AcDbLine
 10
175.1633237390129
 20
161.0940077036104
 30
0.0
 11
170.2534474198773
 21
161.0940077036104
 31
0.0
  0
LINE
  5
E2
330
4A
100
AcDbEntity
  8
1
  6
Continuous
 62
     7
100
AcDbLine
 10
153.8796797524624
 20
164.2410553163667
 30
0.0
 11
154.7229286188427
 21
161.0940077036104
 31
0.0
  0
LINE
  5
E3
330
4A
100
AcDbEntity
  8
1
  6
Continuous
 62
     7
100
AcDbLine
 10
165.4648651867397
 20
156.0940077036104
 30
0.0
 11
158.9648651867397
 21
156.0940077036104
 31
0.0
  0
LINE
  5
E4
330
4A
100
AcDbEntity
  8
1
  6
Continuous
 62
     7
100
AcDbLine
 10
165.4531700661282
 20
161.0940077036104
 30
0.0
 11
159.4374781031624
 21
161.0940077036104
 31
0.0
  0
LINE
  5
E5
330
4A
100
AcDbEntity
  8
1
  6
Continuous
 62
     7
100
AcDbLine
 10
159.4374781031624
 20
161.0940077036104
 30
0.0
 11
160.9549378097681
 21
163.6479879564312
 31
0.0
  0
LINE
  5
E6
330
4A
100
AcDbEntity
  8
1
  6
DASHED
 62
     2
100
AcDbLine
 10
151.46486518674
 20
220.3902017813242
 30
0.0
 11
156.0610592644522
 21
215.7940077036115
 31
0.0
  0
LINE
  5
E7
330
4A
100
AcDbEntity
  8
1
  6
DASHED
 62
     2
100
AcDbLine
 10
156.0610592644522
 20
215.7940077036115
 30
0.0
 11
151.46486518674
 21
211.1978136258989
 31
0.0
  0
LINE
  5
E8
330
4A
100
AcDbEntity
  8
1
  6
DASHED
 62
     2
100
AcDbLine
 10
151.46486518674
 20
211.1978136258989
 30
0.0
 11
146.8686711090272
 21
215.7940077036115
 31
0.0
  0
LINE
  5
E9
330
4A
100
AcDbEntity
  8
1
  6
DASHED
 62
     2
100
AcDbLine
 10
146.8686711090272
 20
215.7940077036115
 30
0.0
 11
151.46486518674
 21
220.3902017813242
 31
0.0
  0
LINE
  5
EA
330
4A
100
AcDbEntity
  8
1
  6
Continuous
 62
     7
100
AcDbLine
 10
158.96486518674
 20
212.7940077036115
 30
0.0
 11
161.7118159526996
 21
212.7940077036115
 31
0.0
  0
LINE
  5
EB
330
4A
100
AcDbEntity
  8
1
  6
Continuous
 62
     7
100
AcDbLine
 10
158.96486518674
 20
218.7940077036115
 30
0.0
 11
161.7118159526996
 21
218.7940077036115
 31
0.0
  0
LINE
  5
EC
330
4A
100
AcDbEntity
  8
1
  6
Continuous
 62
     7
100
AcDbLine
 10
150.3129413980933
 20
223.7891982319948
 30
0.0
 11
148.9394660151135
 21
226.1681273782609
 31
0.0
  0
LINE
  5
ED
330
4A
100
AcDbEntity
  8
1
  6
Continuous
 62
     7
100
AcDbLine
 10
145.1167889753867
 20
220.7891982319948
 30
0.0
 11
143.7433135924069
 21
223.1681273782609
 31
0.0
  0
LINE
  5
EE
330
4A
100
AcDbEntity
  8
1
  6
Continuous
 62
     7
100
AcDbLine
 10
145.1167889753867
 20
210.7988171752282
 30
0.0
 11
143.7433135924066
 21
208.419888028962
 31
0.0
  0
LINE
  5
EF
330
4A
100
AcDbEntity
  8
1
  6
Continuous
 62
     7
100
AcDbLine
 10
150.3129413980933
 20
207.7988171752282
 30
0.0
 11
148.9394660151135
 21
205.4198880289619
 31
0.0
  0
LINE
  5
F0
330
4A
100
AcDbEntity
  8
1
  6
Continuous
 62
     7
100
AcDbLine
 10
148.96486518674
 20
239.610261128122
 30
0.0
 11
148.96486518674
 21
239.1717723786456
 31
0.0
  0
LINE
  5
F1
330
4A
100
AcDbEntity
  8
1
  6
Continuous
 62
     7
100
AcDbLine
 10
175.2811186112505
 20
218.2940077036115
 30
0.0
 11
174.8426298617739
 21
218.2940077036115
 31
0.0
  0
LINE
  5
F2
330
4A
100
AcDbEntity
  8
1
  6
Continuous
 62
     7
100
AcDbLine
 10
148.96486518674
 20
191.977754279101
 30
0.0
 11
148.96486518674
 21
192.4162430285772
 31
0.0
  0
LINE
  5
F3
330
4A
100
AcDbEntity
  8
1
  6
Continuous
 62
     7
100
AcDbLine
 10
137.6898878727838
 20
218.2940077036115
 30
0.0
 11
127.6486117622295
 21
218.2940077036115
 31
0.0
  0
LINE
  5
F4
330
4A
100
AcDbEntity
  8
1
  6
Continuous
 62
     7
100
AcDbLine
 10
139.9567183643846
 20
223.7666206200341
 30
0.0
 11
132.8564639348449
 21
230.8668750495738
 31
0.0
  0
LINE
  5
F5
330
4A
100
AcDbEntity
  8
1
  6
Continuous
 62
     7
100
AcDbLine
 10
136.3919978407777
 20
234.4024089555065
 30
0.0
 11
136.7020562090064
 21
234.0923505872777
 31
0.0
  0
LINE
  5
F6
330
4A
100
AcDbEntity
  8
1
  6
Continuous
 62
     7
100
AcDbLine
 10
166.5377325327023
 20
234.4024089555065
 30
0.0
 11
166.2276741644736
 21
234.0923505872777
 31
0.0
  0
LINE
  5
F7
330
4A
100
AcDbEntity
  8
1
  6
Continuous
 62
     7
100
AcDbLine
 10
153.96486518674
 20
239.610261128122
 30
0.0
 11
153.96486518674
 21
239.1717723786456
 31
0.0
  0
LINE
  5
F8
330
4A
100
AcDbEntity
  8
1
  6
Continuous
 62
     7
100
AcDbLine
 10
170.0732664386351
 20
230.8668750495738
 30
0.0
 11
169.7632080704063
 21
230.5568166813451
 31
0.0
  0
LINE
  5
F9
330
4A
100
AcDbEntity
  8
1
  6
Continuous
 62
     7
100
AcDbLine
 10
170.0732664386351
 20
200.7211403576492
 30
0.0
 11
169.7632080704063
 21
201.0311987258779
 31
0.0
  0
LINE
  5
FA
330
4A
100
AcDbEntity
  8
1
  6
Continuous
 62
     7
100
AcDbLine
 10
153.96486518674
 20
191.977754279101
 30
0.0
 11
153.96486518674
 21
192.4162430285772
 31
0.0
  0
LINE
  5
FB
330
4A
100
AcDbEntity
  8
1
  6
Continuous
 62
     7
100
AcDbLine
 10
175.2811186112505
 20
213.2940077036115
 30
0.0
 11
174.8426298617742
 21
213.2940077036115
 31
0.0
  0
LINE
  5
FC
330
4A
100
AcDbEntity
  8
1
  6
Continuous
 62
     7
100
AcDbLine
 10
166.5377325327023
 20
197.1856064517163
 30
0.0
 11
166.2276741644736
 21
197.495664819945
 31
0.0
  0
LINE
  5
FD
330
4A
100
AcDbEntity
  8
1
  6
Continuous
 62
     7
100
AcDbLine
 10
136.3919978407777
 20
197.1856064517163
 30
0.0
 11
136.7020562090064
 21
197.495664819945
 31
0.0
  0
LINE
  5
FE
330
4A
100
AcDbEntity
  8
1
  6
Continuous
 62
     7
100
AcDbLine
 10
127.6486117622295
 20
213.2940077036115
 30
0.0
 11
128.0871005117058
 21
213.2940077036115
 31
0.0
  0
LINE
  5
FF
330
4A
100
AcDbEntity
  8
1
  6
Continuous
 62
     7
100
AcDbLine
 10
132.8564639348449
 20
200.7211403576492
 30
0.0
 11
133.1665223030736
 21
201.0311987258779
 31
0.0
  0
LINE
  5
100
330
4A
100
AcDbEntity
  8
1
  6
Continuous
 62
     7
100
AcDbLine
 10
133.1665223030736
 20
201.0311987258779
 30
0.0
 11
139.9602654828984
 21
207.8249419057027
 31
0.0
  0
LINE
  5
101
330
4A
100
AcDbEntity
  8
1
  6
Continuous
 62
     7
100
AcDbLine
 10
148.96486518674
 20
192.4162430285772
 30
0.0
 11
148.96486518674
 21
202.0240467727652
 31
0.0
  0
LINE
  5
102
330
4A
100
AcDbEntity
  8
1
  6
Continuous
 62
     7
100
AcDbLine
 10
166.2276741644736
 20
197.495664819945
 30
0.0
 11
159.4339309846488
 21
204.2894079997698
 31
0.0
  0
LINE
  5
103
330
4A
100
AcDbEntity
  8
1
  6
Continuous
 62
     7
100
AcDbLine
 10
174.8426298617742
 20
213.2940077036115
 30
0.0
 11
165.2348261175862
 21
213.2940077036115
 31
0.0
  0
LINE
  5
104
330
4A
100
AcDbEntity
  8
1
  6
Continuous
 62
     7
100
AcDbLine
 10
169.7632080704063
 20
230.5568166813451
 30
0.0
 11
162.9694648905816
 21
223.7630735015203
 31
0.0
  0
LINE
  5
105
330
4A
100
AcDbEntity
  8
1
  6
Continuous
 62
     7
100
AcDbLine
 10
153.96486518674
 20
239.1717723786456
 30
0.0
 11
153.96486518674
 21
229.5639686344576
 31
0.0
  0
LINE
  5
106
330
4A
100
AcDbEntity
  8
1
  6
Continuous
 62
     7
100
AcDbLine
 10
136.7020562090064
 20
234.0923505872777
 30
0.0
 11
143.4957993888312
 21
227.298607407453
 31
0.0
  0
LINE
  5
107
330
4A
100
AcDbEntity
  8
1
  6
Continuous
 62
     7
100
AcDbLine
 10
128.0871005117058
 20
213.2940077036115
 30
0.0
 11
137.6949042558938
 21
213.2940077036115
 31
0.0
  0
LINE
  5
108
330
4A
100
AcDbEntity
  8
1
  6
Continuous
 62
     7
100
AcDbLine
 10
136.7020562090064
 20
197.495664819945
 30
0.0
 11
143.4957993888312
 21
204.2894079997698
 31
0.0
  0
LINE
  5
109
330
4A
100
AcDbEntity
  8
1
  6
Continuous
 62
     7
100
AcDbLine
 10
153.96486518674
 20
192.4162430285772
 30
0.0
 11
153.96486518674
 21
202.0240467727652
 31
0.0
  0
LINE
  5
10A
330
4A
100
AcDbEntity
  8
1
  6
Continuous
 62
     7
100
AcDbLine
 10
169.7632080704063
 20
201.0311987258779
 30
0.0
 11
162.9694648905816
 21
207.8249419057027
 31
0.0
  0
LINE
  5
10B
330
4A
100
AcDbEntity
  8
1
  6
Continuous
 62
     7
100
AcDbLine
 10
174.8426298617739
 20
218.2940077036115
 30
0.0
 11
165.2348261175862
 21
218.2940077036115
 31
0.0
  0
LINE
  5
10C
330
4A
100
AcDbEntity
  8
1
  6
Continuous
 62
     7
100
AcDbLine
 10
166.2276741644736
 20
234.0923505872777
 30
0.0
 11
159.4339309846488
 21
227.298607407453
 31
0.0
  0
LINE
  5
10D
330
4A
100
AcDbEntity
  8
1
  6
Continuous
 62
     7
100
AcDbLine
 10
148.96486518674
 20
239.1717723786456
 30
0.0
 11
148.96486518674
 21
229.5639686344576
 31
0.0
  0
LINE
  5
10E
330
4A
100
AcDbEntity
  8
1
  6
Continuous
 62
     7
100
AcDbLine
 10
139.9567183643846
 20
223.7666206200341
 30
0.0
 11
139.9602654828984
 21
223.7630735015203
 31
0.0
  0
LINE
  5
10F
330
4A
100
AcDbEntity
  8
1
  6
Continuous
 62
     7
100
AcDbLine
 10
137.6898878727838
 20
218.2940077036115
 30
0.0
 11
137.6949042558938
 21
218.2940077036115
 31
0.0
  0
LINE
  5
110
330
4A
100
AcDbEntity
  8
1
  6
Continuous
 62
     7
100
AcDbLine
 10
127.6486117622295
 20
218.2940077036115
 30
0.0
 11
128.0871005117058
 21
218.2940077036115
 31
0.0
  0
LINE
  5
111
330
4A
100
AcDbEntity
  8
1
  6
Continuous
 62
     7
100
AcDbLine
 10
69.48704563712369
 20
156.0940077036104
 30
0.0
 11
61.98704563712369
 21
156.0940077036104
 31
0.0
  0
LINE
  5
112
330
4A
100
AcDbEntity
  8
1
  6
Continuous
 62
     7
100
AcDbLine
 10
66.22898220502069
 20
161.0940077036104
 30
0.0
 11
61.514432720701
 21
161.0940077036104
 31
0.0
  0
LINE
  5
113
330
4A
100
AcDbEntity
  8
1
  6
Continuous
 62
     7
100
AcDbLine
 10
66.22898220502069
 20
161.0940077036104
 30
0.0
 11
65.30204920836869
 21
157.6346466648931
 31
0.0
  0
LINE
  5
114
330
4A
100
AcDbEntity
  8
1
  6
Continuous
 62
     7
100
AcDbLine
 10
50.7509571850421
 20
156.0940077036104
 30
0.0
 11
55.48704563712369
 21
156.0940077036104
 31
0.0
  0
LINE
  5
115
330
4A
100
AcDbEntity
  8
1
  6
Continuous
 62
     7
100
AcDbLine
 10
50.69846340398598
 20
161.0940077036104
 30
0.0
 11
50.25343858993708
 21
156.643759563121
 31
0.0
  0
LINE
  5
116
330
4A
100
AcDbEntity
  8
1
  6
Continuous
 62
     7
100
AcDbLine
 10
61.98704563712369
 20
152.0940077036104
 30
0.0
 11
69.48704563712369
 21
152.0940077036104
 31
0.0
  0
LINE
  5
117
330
4A
100
AcDbEntity
  8
1
  6
Continuous
 62
     7
100
AcDbLine
 10
61.98704563712369
 20
152.0940077036104
 30
0.0
 11
61.98704563712369
 21
156.0940077036104
 31
0.0
  0
LINE
  5
118
330
4A
100
AcDbEntity
  8
1
  6
Continuous
 62
     7
100
AcDbLine
 10
42.98856453905859
 20
156.0940077036104
 30
0.0
 11
50.69846340398598
 21
156.0940077036104
 31
0.0
  0
LINE
  5
119
330
4A
100
AcDbEntity
  8
1
  6
Continuous
 62
     7
100
AcDbLine
 10
50.69846340398598
 20
161.0940077036104
 30
0.0
 11
45.78858708485038
 21
161.0940077036104
 31
0.0
  0
LINE
  5
11A
330
4A
100
AcDbEntity
  8
1
  6
Continuous
 62
     7
100
AcDbLine
 10
66.22898220502069
 20
161.0940077036104
 30
0.0
 11
67.07223107140098
 21
164.2410553163667
 31
0.0
  0
LINE
  5
11B
330
4A
100
AcDbEntity
  8
1
  6
Continuous
 62
     7
100
AcDbLine
 10
61.98704563712369
 20
156.0940077036104
 30
0.0
 11
55.48704563712369
 21
156.0940077036104
 31
0.0
  0
LINE
  5
11C
330
4A
100
AcDbEntity
  8
1
  6
Continuous
 62
     7
100
AcDbLine
 10
61.514432720701
 20
161.0940077036104
 30
0.0
 11
55.49874075773519
 21
161.0940077036104
 31
0.0
  0
LINE
  5
11D
330
4A
100
AcDbEntity
  8
1
  6
Continuous
 62
     7
100
AcDbLine
 10
59.99697301409529
 20
163.6479879564312
 30
0.0
 11
61.514432720701
 21
161.0940077036104
 31
0.0
  0
LINE
  5
11E
330
4A
100
AcDbEntity
  8
1
  6
Continuous
 62
     7
100
AcDbLine
 10
76.98704563712369
 20
156.0940077036104
 30
0.0
 11
69.48704563712369
 21
156.0940077036104
 31
0.0
  0
LINE
  5
11F
330
4A
100
AcDbEntity
  8
1
  6
Continuous
 62
     7
100
AcDbLine
 10
77.45965855354638
 20
161.0940077036104
 30
0.0
 11
72.74510906922669
 21
161.0940077036104
 31
0.0
  0
LINE
  5
120
330
4A
100
AcDbEntity
  8
1
  6
Continuous
 62
     7
100
AcDbLine
 10
73.67204206587868
 20
157.6346466648931
 30
0.0
 11
72.74510906922669
 21
161.0940077036104
 31
0.0
  0
LINE
  5
121
330
4A
100
AcDbEntity
  8
1
  6
Continuous
 62
     7
100
AcDbLine
 10
83.48704563712369
 20
156.0940077036104
 30
0.0
 11
88.22313408920527
 21
156.0940077036104
 31
0.0
  0
LINE
  5
122
330
4A
100
AcDbEntity
  8
1
  6
Continuous
 62
     7
100
AcDbLine
 10
88.7206526843103
 20
156.643759563121
 30
0.0
 11
88.27562787026127
 21
161.0940077036104
 31
0.0
  0
LINE
  5
123
330
4A
100
AcDbEntity
  8
1
  6
Continuous
 62
     7
100
AcDbLine
 10
69.48704563712369
 20
152.0940077036104
 30
0.0
 11
76.98704563712369
 21
152.0940077036104
 31
0.0
  0
LINE
  5
124
330
4A
100
AcDbEntity
  8
1
  6
Continuous
 62
     7
100
AcDbLine
 10
76.98704563712369
 20
156.0940077036104
 30
0.0
 11
76.98704563712369
 21
152.0940077036104
 31
0.0
  0
LINE
  5
125
330
4A
100
AcDbEntity
  8
1
  6
Continuous
 62
     7
100
AcDbLine
 10
88.27562787026127
 20
156.0940077036104
 30
0.0
 11
95.9855267351887
 21
156.0940077036104
 31
0.0
  0
LINE
  5
126
330
4A
100
AcDbEntity
  8
1
  6
Continuous
 62
     7
100
AcDbLine
 10
93.18550418939688
 20
161.0940077036104
 30
0.0
 11
88.27562787026127
 21
161.0940077036104
 31
0.0
  0
LINE
  5
127
330
4A
100
AcDbEntity
  8
1
  6
Continuous
 62
     7
100
AcDbLine
 10
71.9018602028464
 20
164.2410553163667
 30
0.0
 11
72.74510906922669
 21
161.0940077036104
 31
0.0
  0
LINE
  5
128
330
4A
100
AcDbEntity
  8
1
  6
Continuous
 62
     7
100
AcDbLine
 10
83.48704563712369
 20
156.0940077036104
 30
0.0
 11
76.98704563712369
 21
156.0940077036104
 31
0.0
  0
LINE
  5
129
330
4A
100
AcDbEntity
  8
1
  6
Continuous
 62
     7
100
AcDbLine
 10
83.47535051651218
 20
161.0940077036104
 30
0.0
 11
77.45965855354638
 21
161.0940077036104
 31
0.0
  0
LINE
  5
12A
330
4A
100
AcDbEntity
  8
1
  6
Continuous
 62
     7
100
AcDbLine
 10
77.45965855354638
 20
161.0940077036104
 30
0.0
 11
78.97711826015208
 21
163.6479879564312
 31
0.0
  0
ARC
  5
12B
330
4A
100
AcDbEntity
  8
0
  6
Continuous
 62
     7
100
AcDbCircle
 10
151.4648651867397
 20
197.294007703596
 30
0.0
 40
7.999999999992661
100
AcDbArc
 50
236.3045383043997
 51
270.0
  0
ARC
  5
12C
330
4A
100
AcDbEntity
  8
0
  6
Continuous
 62
     7
100
AcDbCircle
 10
151.4648651867397
 20
234.2940077036267
 30
0.0
 40
7.999999999992772
100
AcDbArc
 50
56.3045383043493
 51
90.0
  0
ARC
  5
12D
330
4A
100
AcDbEntity
  8
1
  6
Continuous
 62
     7
100
AcDbCircle
 10
137.676282953602
 20
161.0940077036104
 30
0.0
 40
5.000000000000094
100
AcDbArc
 50
124.8298837496214
 51
180.0
  0
ARC
  5
12E
330
4A
100
AcDbEntity
  8
1
  6
Continuous
 62
     7
100
AcDbCircle
 10
134.4648651867397
 20
156.7638806846882
 30
0.0
 40
10.0
100
AcDbArc
 50
180.0
 51
181.0245814337712
  0
ARC
  5
12F
330
4A
100
AcDbEntity
  8
1
  6
Continuous
 62
     7
100
AcDbCircle
 10
134.4648651867397
 20
156.7638806846882
 30
0.0
 40
10.00000000000021
100
AcDbArc
 50
119.9999999999993
 51
180.0
  0
ARC
  5
130
330
4A
100
AcDbEntity
  8
1
  6
Continuous
 62
     7
100
AcDbCircle
 10
131.9648651867397
 20
161.0940077036104
 30
0.0
 40
5.000000000000046
100
AcDbArc
 50
55.17011625037942
 51
119.9999999999987
  0
ARC
  5
131
330
4A
100
AcDbEntity
  8
1
  6
Continuous
 62
     7
100
AcDbCircle
 10
151.4648651867397
 20
163.5940077036104
 30
0.0
 40
2.5
100
AcDbArc
 50
90.0
 51
165.0000000000003
  0
ARC
  5
132
330
4A
100
AcDbEntity
  8
1
  6
Continuous
 62
     7
100
AcDbCircle
 10
137.676282953602
 20
161.0940077036104
 30
0.0
 40
5.000000000000062
100
AcDbArc
 50
30.71686882867306
 51
124.8298837496214
  0
ARC
  5
133
330
4A
100
AcDbEntity
  8
1
  6
Continuous
 62
     7
100
AcDbCircle
 10
165.2534474198773
 20
161.0940077036104
 30
0.0
 40
5.0
100
AcDbArc
 50
0.0
 51
55.17011625037834
  0
ARC
  5
134
330
4A
100
AcDbEntity
  8
1
  6
Continuous
 62
     7
100
AcDbCircle
 10
168.4648651867397
 20
156.7638806846882
 30
0.0
 40
9.999999999999902
100
AcDbArc
 50
358.9754185662288
 51
0.0
  0
ARC
  5
135
330
4A
100
AcDbEntity
  8
1
  6
Continuous
 62
     7
100
AcDbCircle
 10
168.4648651867397
 20
156.7638806846882
 30
0.0
 40
10.0
100
AcDbArc
 50
0.0
 51
60.00000000000124
  0
ARC
  5
136
330
4A
100
AcDbEntity
  8
1
  6
Continuous
 62
     7
100
AcDbCircle
 10
170.9648651867397
 20
161.0940077036104
 30
0.0
 40
5.000000000000131
100
AcDbArc
 50
60.00000000000237
 51
124.8298837496214
  0
ARC
  5
137
330
4A
100
AcDbEntity
  8
1
  6
Continuous
 62
     7
100
AcDbCircle
 10
151.4648651867397
 20
163.5940077036104
 30
0.0
 40
2.500000000000034
100
AcDbArc
 50
14.99999999999965
 51
90.0
  0
ARC
  5
138
330
4A
100
AcDbEntity
  8
1
  6
Continuous
 62
     7
100
AcDbCircle
 10
165.2534474198773
 20
161.0940077036104
 30
0.0
 40
5.000000000000111
100
AcDbArc
 50
55.17011625037834
 51
149.2831311713263
  0
ARC
  5
139
330
4A
100
AcDbEntity
  8
1
  6
Continuous
 62
     7
100
AcDbCircle
 10
151.46486518674
 20
215.7940077036115
 30
0.0
 40
7.499999999999903
100
AcDbArc
 50
91.92751306414716
 51
148.0724869358534
  0
ARC
  5
13A
330
4A
100
AcDbEntity
  8
1
  6
Continuous
 62
     7
100
AcDbCircle
 10
151.46486518674
 20
215.7940077036115
 30
0.0
 40
7.500000000000062
100
AcDbArc
 50
211.9275130641466
 51
268.0724869358529
  0
ARC
  5
13B
330
4A
100
AcDbEntity
  8
1
  6
Continuous
 62
     7
100
AcDbCircle
 10
151.46486518674
 20
215.7940077036115
 30
0.0
 40
7.49999999999997
100
AcDbArc
 50
331.9275130641467
 51
28.07248693585334
  0
ARC
  5
13C
330
4A
100
AcDbEntity
  8
1
  6
Continuous
 62
     7
100
AcDbCircle
 10
151.46486518674
 20
215.7940077036115
 30
0.0
 40
12.00000000000003
100
AcDbArc
 50
338.6763137365015
 51
21.32368626349762
  0
ARC
  5
13D
330
4A
100
AcDbEntity
  8
1
  6
Continuous
 62
     7
100
AcDbCircle
 10
151.46486518674
 20
215.7940077036115
 30
0.0
 40
12.00000000000005
100
AcDbArc
 50
218.6763137365018
 51
261.3236862634978
  0
ARC
  5
13E
330
4A
100
AcDbEntity
  8
1
  6
Continuous
 62
     7
100
AcDbCircle
 10
151.46486518674
 20
215.7940077036115
 30
0.0
 40
11.99999999999995
100
AcDbArc
 50
98.67631373650238
 51
141.3236862634982
  0
ARC
  5
13F
330
4A
100
AcDbEntity
  8
1
  6
Continuous
 62
     7
100
AcDbCircle
 10
151.46486518674
 20
215.7940077036115
 30
0.0
 40
7.49999999999997
100
AcDbArc
 50
28.07248693585334
 51
91.92751306414716
  0
ARC
  5
140
330
4A
100
AcDbEntity
  8
1
  6
Continuous
 62
     7
100
AcDbCircle
 10
151.46486518674
 20
215.7940077036115
 30
0.0
 40
11.99999999999996
100
AcDbArc
 50
21.32368626349762
 51
98.67631373650238
  0
ARC
  5
141
330
4A
100
AcDbEntity
  8
1
  6
Continuous
 62
     7
100
AcDbCircle
 10
151.46486518674
 20
215.7940077036115
 30
0.0
 40
7.500000000000062
100
AcDbArc
 50
148.0724869358534
 51
211.9275130641466
  0
ARC
  5
142
330
4A
100
AcDbEntity
  8
1
  6
Continuous
 62
     7
100
AcDbCircle
 10
151.46486518674
 20
215.7940077036115
 30
0.0
 40
7.500000000000102
100
AcDbArc
 50
268.0724869358529
 51
331.9275130641467
  0
ARC
  5
143
330
4A
100
AcDbEntity
  8
1
  6
Continuous
 62
     7
100
AcDbCircle
 10
151.46486518674
 20
215.7940077036115
 30
0.0
 40
12.00000000000005
100
AcDbArc
 50
141.3236862634982
 51
218.6763137365018
  0
ARC
  5
144
330
4A
100
AcDbEntity
  8
1
  6
Continuous
 62
     7
100
AcDbCircle
 10
151.46486518674
 20
215.7940077036115
 30
0.0
 40
12.00000000000015
100
AcDbArc
 50
261.3236862634978
 51
338.6763137365015
  0
ARC
  5
145
330
4A
100
AcDbEntity
  8
1
  6
Continuous
 62
     7
100
AcDbCircle
 10
151.46486518674
 20
215.7940077036115
 30
0.0
 40
13.99999999999999
100
AcDbArc
 50
190.2865606114749
 51
214.7134393885244
  0
ARC
  5
146
330
4A
100
AcDbEntity
  8
1
  6
Continuous
 62
     7
100
AcDbCircle
 10
151.46486518674
 20
215.7940077036115
 30
0.0
 40
14.00000000000004
100
AcDbArc
 50
235.286560611475
 51
259.7134393885251
  0
ARC
  5
147
330
4A
100
AcDbEntity
  8
1
  6
Continuous
 62
     7
100
AcDbCircle
 10
151.46486518674
 20
215.7940077036115
 30
0.0
 40
14.00000000000007
100
AcDbArc
 50
280.2865606114749
 51
304.7134393885249
  0
ARC
  5
148
330
4A
100
AcDbEntity
  8
1
  6
Continuous
 62
     7
100
AcDbCircle
 10
151.46486518674
 20
215.7940077036115
 30
0.0
 40
14.00000000000001
100
AcDbArc
 50
325.2865606114745
 51
349.713439388525
  0
ARC
  5
149
330
4A
100
AcDbEntity
  8
1
  6
Continuous
 62
     7
100
AcDbCircle
 10
151.46486518674
 20
215.7940077036115
 30
0.0
 40
13.99999999999996
100
AcDbArc
 50
10.28656061147497
 51
34.71343938852483
  0
ARC
  5
14A
330
4A
100
AcDbEntity
  8
1
  6
Continuous
 62
     7
100
AcDbCircle
 10
151.46486518674
 20
215.7940077036115
 30
0.0
 40
14.00000000000004
100
AcDbArc
 50
55.28656061147516
 51
79.71343938852498
  0
ARC
  5
14B
330
4A
100
AcDbEntity
  8
1
  6
Continuous
 62
     7
100
AcDbCircle
 10
151.46486518674
 20
215.7940077036115
 30
0.0
 40
13.99999999999988
100
AcDbArc
 50
100.286560611475
 51
124.7134393885249
  0
ARC
  5
14C
330
4A
100
AcDbEntity
  8
1
  6
Continuous
 62
     7
100
AcDbCircle
 10
151.46486518674
 20
234.460674370278
 30
0.0
 40
5.333333333333401
100
AcDbArc
 50
117.9531868833807
 51
128.5881292115635
  0
ARC
  5
14D
330
4A
100
AcDbEntity
  8
1
  6
Continuous
 62
     7
100
AcDbCircle
 10
170.1315318534067
 20
215.7940077036115
 30
0.0
 40
5.33333333333305
100
AcDbArc
 50
27.95318688338275
 51
38.58812921156221
  0
ARC
  5
14E
330
4A
100
AcDbEntity
  8
1
  6
Continuous
 62
     7
100
AcDbCircle
 10
164.6641917688889
 20
228.9933342857603
 30
0.0
 40
5.333333333333232
100
AcDbArc
 50
72.95318688338148
 51
83.58812921156401
  0
ARC
  5
14F
330
4A
100
AcDbEntity
  8
1
  6
Continuous
 62
     7
100
AcDbCircle
 10
164.6641917688889
 20
202.5946811214627
 30
0.0
 40
5.333333333333265
100
AcDbArc
 50
342.9531868833803
 51
353.5881292115612
  0
ARC
  5
150
330
4A
100
AcDbEntity
  8
1
  6
Continuous
 62
     7
100
AcDbCircle
 10
151.46486518674
 20
197.1273410369448
 30
0.0
 40
5.333333333333401
100
AcDbArc
 50
297.9531868833807
 51
308.5881292115625
  0
ARC
  5
151
330
4A
100
AcDbEntity
  8
1
  6
Continuous
 62
     7
100
AcDbCircle
 10
138.2655386045911
 20
202.5946811214627
 30
0.0
 40
5.33333333333353
100
AcDbArc
 50
252.9531868833824
 51
263.5881292115628
  0
ARC
  5
152
330
4A
100
AcDbEntity
  8
1
  6
Continuous
 62
     7
100
AcDbCircle
 10
132.7981985200733
 20
215.7940077036115
 30
0.0
 40
5.3333333333333
100
AcDbArc
 50
207.9531868833813
 51
218.5881292115633
  0
ARC
  5
153
330
4A
100
AcDbEntity
  8
1
  6
Continuous
 62
     7
100
AcDbCircle
 10
151.46486518674
 20
215.7940077036115
 30
0.0
 40
13.9999999999999
100
AcDbArc
 50
145.2865606114752
 51
169.7134393885253
  0
ARC
  5
154
330
4A
100
AcDbEntity
  8
1
  6
Continuous
 62
     7
100
AcDbCircle
 10
138.2655386045911
 20
202.5946811214627
 30
0.0
 40
5.333333333333348
100
AcDbArc
 50
186.4118707884384
 51
197.0468131166194
  0
ARC
  5
155
330
4A
100
AcDbEntity
  8
1
  6
Continuous
 62
     7
100
AcDbCircle
 10
151.46486518674
 20
197.1273410369448
 30
0.0
 40
5.333333333333387
100
AcDbArc
 50
231.4118707884381
 51
242.0468131166192
  0
ARC
  5
156
330
4A
100
AcDbEntity
  8
1
  6
Continuous
 62
     7
100
AcDbCircle
 10
164.6641917688889
 20
202.5946811214627
 30
0.0
 40
5.333333333333351
100
AcDbArc
 50
276.411870788436
 51
287.0468131166176
  0
ARC
  5
157
330
4A
100
AcDbEntity
  8
1
  6
Continuous
 62
     7
100
AcDbCircle
 10
170.1315318534067
 20
215.7940077036115
 30
0.0
 40
5.333333333333285
100
AcDbArc
 50
321.4118707884361
 51
332.0468131166189
  0
ARC
  5
158
330
4A
100
AcDbEntity
  8
1
  6
Continuous
 62
     7
100
AcDbCircle
 10
164.6641917688889
 20
228.9933342857603
 30
0.0
 40
5.333333333333345
100
AcDbArc
 50
6.41187078843812
 51
17.0468131166197
  0
ARC
  5
159
330
4A
100
AcDbEntity
  8
1
  6
Continuous
 62
     7
100
AcDbCircle
 10
151.46486518674
 20
234.460674370278
 30
0.0
 40
5.333333333333352
100
AcDbArc
 50
51.41187078843669
 51
62.04681311661927
  0
ARC
  5
15A
330
4A
100
AcDbEntity
  8
1
  6
Continuous
 62
     7
100
AcDbCircle
 10
138.2655386045911
 20
228.9933342857603
 30
0.0
 40
5.333333333333367
100
AcDbArc
 50
96.41187078844025
 51
107.0468131166185
  0
ARC
  5
15B
330
4A
100
AcDbEntity
  8
1
  6
Continuous
 62
     7
100
AcDbCircle
 10
112.64900589951
 20
199.7159523516751
 30
0.0
 40
20.44444444444439
100
AcDbArc
 50
6.4118707884373
 51
38.58812921156297
  0
ARC
  5
15C
330
4A
100
AcDbEntity
  8
1
  6
Continuous
 62
     7
100
AcDbCircle
 10
135.3868098348037
 20
176.9781484163814
 30
0.0
 40
20.44444444444441
100
AcDbArc
 50
51.41187078843702
 51
83.58812921156309
  0
ARC
  5
15D
330
4A
100
AcDbEntity
  8
1
  6
Continuous
 62
     7
100
AcDbCircle
 10
167.5429205386763
 20
176.9781484163814
 30
0.0
 40
20.44444444444459
100
AcDbArc
 50
96.41187078843723
 51
128.5881292115627
  0
ARC
  5
15E
330
4A
100
AcDbEntity
  8
1
  6
Continuous
 62
     7
100
AcDbCircle
 10
190.28072447397
 20
199.7159523516751
 30
0.0
 40
20.44444444444448
100
AcDbArc
 50
141.4118707884372
 51
173.5881292115628
  0
ARC
  5
15F
330
4A
100
AcDbEntity
  8
1
  6
Continuous
 62
     7
100
AcDbCircle
 10
190.2807244739697
 20
231.8720630555478
 30
0.0
 40
20.44444444444409
100
AcDbArc
 50
186.4118707884371
 51
218.5881292115636
  0
ARC
  5
160
330
4A
100
AcDbEntity
  8
1
  6
Continuous
 62
     7
100
AcDbCircle
 10
167.542920538676
 20
254.6098669908416
 30
0.0
 40
20.44444444444437
100
AcDbArc
 50
231.4118707884385
 51
263.5881292115636
  0
ARC
  5
161
330
4A
100
AcDbEntity
  8
1
  6
Continuous
 62
     7
100
AcDbCircle
 10
135.3868098348034
 20
254.6098669908416
 30
0.0
 40
20.44444444444458
100
AcDbArc
 50
276.411870788437
 51
308.5881292115629
  0
ARC
  5
162
330
4A
100
AcDbEntity
  8
1
  6
Continuous
 62
     7
100
AcDbCircle
 10
132.7981985200733
 20
215.7940077036115
 30
0.0
 40
5.333333333333543
100
AcDbArc
 50
141.4118707884395
 51
152.0468131166187
  0
ARC
  5
163
330
4A
100
AcDbEntity
  8
1
  6
Continuous
 62
     7
100
AcDbCircle
 10
112.6490058995099
 20
231.8720630555477
 30
0.0
 40
20.44444444444418
100
AcDbArc
 50
321.4118707884369
 51
353.5881292115627
  0
ARC
  5
164
330
4A
100
AcDbEntity
  8
1
  6
Continuous
 62
     7
100
AcDbCircle
 10
138.2655386045911
 20
228.9933342857603
 30
0.0
 40
5.333333333333646
100
AcDbArc
 50
162.9531868833815
 51
173.588129211564
  0
ARC
  5
165
330
4A
100
AcDbEntity
  8
0
  6
Continuous
 62
     7
100
AcDbCircle
 10
151.4648651867397
 20
234.2940077036267
 30
0.0
 40
7.999999999992895
100
AcDbArc
 50
90.0
 51
123.6954616955992
  0
ARC
  5
166
330
4A
100
AcDbEntity
  8
0
  6
Continuous
 62
     7
100
AcDbCircle
 10
164.5463406387018
 20
228.8754831555737
 30
0.0
 40
7.999999999992734
100
AcDbArc
 50
11.30453830434887
 51
78.69546169559999
  0
ARC
  5
167
330
4A
100
AcDbEntity
  8
0
  6
Continuous
 62
     7
100
AcDbCircle
 10
169.9648651867553
 20
215.7940077036117
 30
0.0
 40
7.999999999992772
100
AcDbArc
 50
326.3045383043493
 51
33.69546169559956
  0
ARC
  5
168
330
4A
100
AcDbEntity
  8
1
  6
Continuous
 62
     7
100
AcDbCircle
 10
169.5526774576684
 20
259.4618494017453
 30
0.0
 40
23.00000000000015
100
AcDbArc
 50
233.5970607918659
 51
261.4029392081507
  0
ARC
  5
169
330
4A
100
AcDbEntity
  8
1
  6
Continuous
 62
     7
100
AcDbCircle
 10
195.1327068848738
 20
233.8818199745397
 30
0.0
 40
23.0
100
AcDbArc
 50
188.5970607918654
 51
216.4029392081506
  0
ARC
  5
16A
330
4A
100
AcDbEntity
  8
1
  6
Continuous
 62
     7
100
AcDbCircle
 10
195.1327068848738
 20
197.7061954326831
 30
0.0
 40
22.99999999999992
100
AcDbArc
 50
143.5970607918494
 51
171.4029392081346
  0
ARC
  5
16B
330
4A
100
AcDbEntity
  8
0
  6
Continuous
 62
     7
100
AcDbCircle
 10
164.5463406387022
 20
202.7125322516498
 30
0.0
 40
7.999999999993252
100
AcDbArc
 50
281.3045383043965
 51
348.6954616956456
  0
ARC
  5
16C
330
4A
100
AcDbEntity
  8
1
  6
Continuous
 62
     7
100
AcDbCircle
 10
169.5526774576684
 20
172.1261660054777
 30
0.0
 40
22.99999999999991
100
AcDbArc
 50
98.59706079184932
 51
126.4029392081345
  0
ARC
  5
16D
330
4A
100
AcDbEntity
  8
0
  6
Continuous
 62
     7
100
AcDbCircle
 10
151.4648651867397
 20
197.294007703596
 30
0.0
 40
7.999999999992696
100
AcDbArc
 50
270.0
 51
303.6954616956507
  0
ARC
  5
16E
330
4A
100
AcDbEntity
  8
1
  6
Continuous
 62
     7
100
AcDbCircle
 10
133.3770529158116
 20
259.4618494017453
 30
0.0
 40
22.99999999999994
100
AcDbArc
 50
278.5970607918493
 51
306.4029392081341
  0
ARC
  5
16F
330
4A
100
AcDbEntity
  8
0
  6
Continuous
 62
     7
100
AcDbCircle
 10
138.3833897347779
 20
228.8754831555733
 30
0.0
 40
7.999999999993157
100
AcDbArc
 50
101.3045383043973
 51
168.6954616956478
  0
ARC
  5
170
330
4A
100
AcDbEntity
  8
1
  6
Continuous
 62
     7
100
AcDbCircle
 10
107.7970234886062
 20
233.8818199745397
 30
0.0
 40
22.99999999999992
100
AcDbArc
 50
323.5970607918494
 51
351.4029392081346
  0
ARC
  5
171
330
4A
100
AcDbEntity
  8
0
  6
Continuous
 62
     7
100
AcDbCircle
 10
132.9648651867247
 20
215.7940077036117
 30
0.0
 40
7.999999999992815
100
AcDbArc
 50
146.3045383044004
 51
213.6954616956507
  0
ARC
  5
172
330
4A
100
AcDbEntity
  8
1
  6
Continuous
 62
     7
100
AcDbCircle
 10
107.7970234886062
 20
197.7061954326831
 30
0.0
 40
23.0000000000001
100
AcDbArc
 50
8.59706079186536
 51
36.40293920815058
  0
ARC
  5
173
330
4A
100
AcDbEntity
  8
0
  6
Continuous
 62
     7
100
AcDbCircle
 10
138.3833897347778
 20
202.7125322516498
 30
0.0
 40
7.999999999992371
100
AcDbArc
 50
191.3045383043546
 51
258.6954616956035
  0
ARC
  5
174
330
4A
100
AcDbEntity
  8
1
  6
Continuous
 62
     7
100
AcDbCircle
 10
133.3770529158116
 20
172.1261660054777
 30
0.0
 40
22.9999999999999
100
AcDbArc
 50
53.59706079186548
 51
81.40293920815068
  0
ARC
  5
175
330
4A
100
AcDbEntity
  8
1
  6
Continuous
 62
     7
100
AcDbCircle
 10
55.69846340398598
 20
161.0940077036104
 30
0.0
 40
5.000000000000094
100
AcDbArc
 50
124.8298837496214
 51
180.0
  0
ARC
  5
176
330
4A
100
AcDbEntity
  8
1
  6
Continuous
 62
     7
100
AcDbCircle
 10
52.48704563712369
 20
156.7638806846882
 30
0.0
 40
10.0
100
AcDbArc
 50
180.0
 51
181.0245814337712
  0
ARC
  5
177
330
4A
100
AcDbEntity
  8
1
  6
Continuous
 62
     7
100
AcDbCircle
 10
52.48704563712369
 20
156.7638806846882
 30
0.0
 40
10.00000000000021
100
AcDbArc
 50
119.9999999999993
 51
180.0
  0
ARC
  5
178
330
4A
100
AcDbEntity
  8
1
  6
Continuous
 62
     7
100
AcDbCircle
 10
49.98704563712369
 20
161.0940077036104
 30
0.0
 40
5.000000000000042
100
AcDbArc
 50
55.17011625037948
 51
119.9999999999987
  0
ARC
  5
179
330
4A
100
AcDbEntity
  8
1
  6
Continuous
 62
     7
100
AcDbCircle
 10
69.48704563712369
 20
163.5940077036104
 30
0.0
 40
2.5
100
AcDbArc
 50
90.0
 51
165.0000000000003
  0
ARC
  5
17A
330
4A
100
AcDbEntity
  8
1
  6
Continuous
 62
     7
100
AcDbCircle
 10
55.69846340398598
 20
161.0940077036104
 30
0.0
 40
5.000000000000062
100
AcDbArc
 50
30.71686882867306
 51
124.8298837496214
  0
ARC
  5
17B
330
4A
100
AcDbEntity
  8
1
  6
Continuous
 62
     7
100
AcDbCircle
 10
83.27562787026127
 20
161.0940077036104
 30
0.0
 40
5.0
100
AcDbArc
 50
0.0
 51
55.17011625037834
  0
ARC
  5
17C
330
4A
100
AcDbEntity
  8
1
  6
Continuous
 62
     7
100
AcDbCircle
 10
86.48704563712369
 20
156.7638806846882
 30
0.0
 40
9.999999999999902
100
AcDbArc
 50
358.9754185662288
 51
0.0
  0
ARC
  5
17D
330
4A
100
AcDbEntity
  8
1
  6
Continuous
 62
     7
100
AcDbCircle
 10
86.48704563712369
 20
156.7638806846882
 30
0.0
 40
10.0
100
AcDbArc
 50
0.0
 51
60.00000000000111
  0
ARC
  5
17E
330
4A
100
AcDbEntity
  8
1
  6
Continuous
 62
     7
100
AcDbCircle
 10
88.98704563712369
 20
161.0940077036104
 30
0.0
 40
5.000000000000146
100
AcDbArc
 50
60.0000000000021
 51
124.8298837496214
  0
ARC
  5
17F
330
4A
100
AcDbEntity
  8
1
  6
Continuous
 62
     7
100
AcDbCircle
 10
69.48704563712369
 20
163.5940077036104
 30
0.0
 40
2.500000000000034
100
AcDbArc
 50
14.99999999999965
 51
90.0
  0
ARC
  5
180
330
4A
100
AcDbEntity
  8
1
  6
Continuous
 62
     7
100
AcDbCircle
 10
83.27562787026127
 20
161.0940077036104
 30
0.0
 40
5.000000000000111
100
AcDbArc
 50
55.17011625037834
 51
149.2831311713263
  0
ARC
  5
181
330
4A
100
AcDbEntity
  8
1
  6
Continuous
 62
     7
100
AcDbCircle
 10
124.9663840886746
 20
156.5940077036104
 30
0.0
 40
0.5000000000000042
100
AcDbArc
 50
181.024581433757
 51
270.0
  0
ARC
  5
182
330
4A
100
AcDbEntity
  8
1
  6
Continuous
 62
     7
100
AcDbCircle
 10
132.7287767346581
 20
156.5940077036104
 30
0.0
 40
0.5000000000000353
100
AcDbArc
 50
174.28940686249
 51
270.0
  0
ARC
  5
183
330
4A
100
AcDbEntity
  8
1
  6
Continuous
 62
     7
100
AcDbCircle
 10
177.9633462848047
 20
156.5940077036104
 30
0.0
 40
0.5
100
AcDbArc
 50
270.0
 51
358.975418566243
  0
ARC
  5
184
330
4A
100
AcDbEntity
  8
1
  6
Continuous
 62
     7
100
AcDbCircle
 10
170.2009536388213
 20
156.5940077036104
 30
0.0
 40
0.5
100
AcDbArc
 50
270.0
 51
5.71059313751001
  0
ARC
  5
185
330
4A
100
AcDbEntity
  8
1
  6
Continuous
 62
     7
100
AcDbCircle
 10
151.1789668018777
 20
224.2891982319948
 30
0.0
 40
0.9999999999999589
100
AcDbArc
 50
210.0000000000013
 51
271.9275130641506
  0
ARC
  5
186
330
4A
100
AcDbEntity
  8
1
  6
Continuous
 62
     7
100
AcDbCircle
 10
144.2507635716023
 20
220.2891982319948
 30
0.0
 40
0.9999999999998974
100
AcDbArc
 50
328.0724869358484
 51
30.00000000000136
  0
ARC
  5
187
330
4A
100
AcDbEntity
  8
1
  6
Continuous
 62
     7
100
AcDbCircle
 10
144.2507635716023
 20
211.2988171752282
 30
0.0
 40
0.9999999999999589
100
AcDbArc
 50
329.9999999999987
 51
31.92751306415161
  0
ARC
  5
188
330
4A
100
AcDbEntity
  8
1
  6
Continuous
 62
     7
100
AcDbCircle
 10
151.1789668018777
 20
207.2988171752282
 30
0.0
 40
0.9999999999999003
100
AcDbArc
 50
88.07248693584899
 51
149.9999999999987
  0
ARC
  5
189
330
4A
100
AcDbEntity
  8
1
  6
Continuous
 62
     7
100
AcDbCircle
 10
158.96486518674
 20
211.7940077036115
 30
0.0
 40
1.0
100
AcDbArc
 50
90.0
 51
151.9275130641499
  0
ARC
  5
18A
330
4A
100
AcDbEntity
  8
1
  6
Continuous
 62
     7
100
AcDbCircle
 10
158.96486518674
 20
219.7940077036115
 30
0.0
 40
1.00000000000003
100
AcDbArc
 50
208.0724869358501
 51
270.0
  0
ARC
  5
18B
330
4A
100
AcDbEntity
  8
1
  6
Continuous
 62
     7
100
AcDbCircle
 10
161.7118159526996
 20
219.7940077036115
 30
0.0
 40
1.0
100
AcDbArc
 50
270.0
 51
21.32368626349385
  0
ARC
  5
18C
330
4A
100
AcDbEntity
  8
1
  6
Continuous
 62
     7
100
AcDbCircle
 10
161.7118159526996
 20
211.7940077036115
 30
0.0
 40
1.000000000000048
100
AcDbArc
 50
338.6763137364955
 51
90.0
  0
ARC
  5
18D
330
4A
100
AcDbEntity
  8
1
  6
Continuous
 62
     7
100
AcDbCircle
 10
149.8054914188979
 20
204.9198880289619
 30
0.0
 40
0.9999999999999589
100
AcDbArc
 50
149.9999999999987
 51
261.3236862634984
  0
ARC
  5
18E
330
4A
100
AcDbEntity
  8
1
  6
Continuous
 62
     7
100
AcDbCircle
 10
142.8772881886222
 20
208.919888028962
 30
0.0
 40
0.9999999999997986
100
AcDbArc
 50
218.6763137365045
 51
329.9999999999987
  0
ARC
  5
18F
330
4A
100
AcDbEntity
  8
1
  6
Continuous
 62
     7
100
AcDbCircle
 10
142.8772881886225
 20
222.6681273782609
 30
0.0
 40
0.9999999999999836
100
AcDbArc
 50
30.00000000000054
 51
141.3236862635006
  0
ARC
  5
190
330
4A
100
AcDbEntity
  8
1
  6
Continuous
 62
     7
100
AcDbCircle
 10
149.8054914188979
 20
226.6681273782609
 30
0.0
 40
0.9999999999999724
100
AcDbArc
 50
98.67631373650163
 51
210.0000000000013
  0
ARC
  5
191
330
4A
100
AcDbEntity
  8
1
  6
Continuous
 62
     7
100
AcDbCircle
 10
132.1493571536584
 20
201.4282471388356
 30
0.0
 40
0.9999999999998472
100
AcDbArc
 50
224.9999999999954
 51
315.0000000000047
  0
ARC
  5
192
330
4A
100
AcDbEntity
  8
1
  6
Continuous
 62
     7
100
AcDbCircle
 10
147.96486518674
 20
191.977754279101
 30
0.0
 40
1.0
100
AcDbArc
 50
270.0
 51
0.0
  0
ARC
  5
193
330
4A
100
AcDbEntity
  8
1
  6
Continuous
 62
     7
100
AcDbCircle
 10
165.8306257515158
 20
196.4784996705299
 30
0.0
 40
1.000000000000088
100
AcDbArc
 50
314.9999999999908
 51
44.9999999999954
  0
ARC
  5
194
330
4A
100
AcDbEntity
  8
1
  6
Continuous
 62
     7
100
AcDbCircle
 10
175.2811186112505
 20
212.2940077036115
 30
0.0
 40
1.0
100
AcDbArc
 50
0.0
 51
90.0
  0
ARC
  5
195
330
4A
100
AcDbEntity
  8
1
  6
Continuous
 62
     7
100
AcDbCircle
 10
170.7803732198213
 20
230.1597682683873
 30
0.0
 40
0.999999999999988
100
AcDbArc
 50
44.99999999999655
 51
134.9999999999885
  0
ARC
  5
196
330
4A
100
AcDbEntity
  8
1
  6
Continuous
 62
     7
100
AcDbCircle
 10
154.96486518674
 20
239.610261128122
 30
0.0
 40
1.0
100
AcDbArc
 50
90.0
 51
180.0
  0
ARC
  5
197
330
4A
100
AcDbEntity
  8
1
  6
Continuous
 62
     7
100
AcDbCircle
 10
137.0991046219639
 20
235.1095157366931
 30
0.0
 40
0.9999999999997267
100
AcDbArc
 50
134.9999999999885
 51
225.0000000000161
  0
ARC
  5
198
330
4A
100
AcDbEntity
  8
1
  6
Continuous
 62
     7
100
AcDbCircle
 10
139.2531587017119
 20
208.5320486868891
 30
0.0
 40
0.9999999999998673
100
AcDbArc
 50
315.0000000000035
 51
45.00000000000806
  0
ARC
  5
199
330
4A
100
AcDbEntity
  8
1
  6
Continuous
 62
     7
100
AcDbCircle
 10
147.96486518674
 20
202.0240467727652
 30
0.0
 40
1.0
100
AcDbArc
 50
0.0
 51
90.0
  0
ARC
  5
19A
330
4A
100
AcDbEntity
  8
1
  6
Continuous
 62
     7
100
AcDbCircle
 10
158.7268242034623
 20
203.5823012185834
 30
0.0
 40
0.9999999999998673
100
AcDbArc
 50
44.99999999999424
 51
135.0000000000115
  0
ARC
  5
19B
330
4A
100
AcDbEntity
  8
1
  6
Continuous
 62
     7
100
AcDbCircle
 10
165.2348261175862
 20
212.2940077036115
 30
0.0
 40
1.0
100
AcDbArc
 50
90.0
 51
180.0
  0
ARC
  5
19C
330
4A
100
AcDbEntity
  8
1
  6
Continuous
 62
     7
100
AcDbCircle
 10
163.6765716717681
 20
223.0559667203336
 30
0.0
 40
1.000000000000068
100
AcDbArc
 50
134.9999999999919
 51
224.9999999999965
  0
ARC
  5
19D
330
4A
100
AcDbEntity
  8
1
  6
Continuous
 62
     7
100
AcDbCircle
 10
154.96486518674
 20
229.5639686344576
 30
0.0
 40
1.0
100
AcDbArc
 50
180.0
 51
270.0
  0
ARC
  5
19E
330
4A
100
AcDbEntity
  8
1
  6
Continuous
 62
     7
100
AcDbCircle
 10
144.2029061700175
 20
228.0057141886396
 30
0.0
 40
0.9999999999998674
100
AcDbArc
 50
225.0000000000103
 51
315.0000000000047
  0
ARC
  5
19F
330
4A
100
AcDbEntity
  8
1
  6
Continuous
 62
     7
100
AcDbCircle
 10
137.6949042558938
 20
212.2940077036115
 30
0.0
 40
1.0
100
AcDbArc
 50
0.0
 51
90.0
  0
ARC
  5
1A0
330
4A
100
AcDbEntity
  8
1
  6
Continuous
 62
     7
100
AcDbCircle
 10
144.2029061700177
 20
203.5823012185834
 30
0.0
 40
0.9999999999999076
100
AcDbArc
 50
44.99999999999194
 51
135.0000000000057
  0
ARC
  5
1A1
330
4A
100
AcDbEntity
  8
1
  6
Continuous
 62
     7
100
AcDbCircle
 10
154.96486518674
 20
202.0240467727652
 30
0.0
 40
1.0
100
AcDbArc
 50
90.0
 51
180.0
  0
ARC
  5
1A2
330
4A
100
AcDbEntity
  8
1
  6
Continuous
 62
     7
100
AcDbCircle
 10
163.6765716717681
 20
208.5320486868891
 30
0.0
 40
1.000000000000068
100
AcDbArc
 50
134.9999999999919
 51
224.9999999999965
  0
ARC
  5
1A3
330
4A
100
AcDbEntity
  8
1
  6
Continuous
 62
     7
100
AcDbCircle
 10
165.2348261175862
 20
219.2940077036115
 30
0.0
 40
1.0
100
AcDbArc
 50
180.0
 51
270.0
  0
ARC
  5
1A4
330
4A
100
AcDbEntity
  8
1
  6
Continuous
 62
     7
100
AcDbCircle
 10
158.7268242034622
 20
228.0057141886396
 30
0.0
 40
0.999999999999988
100
AcDbArc
 50
225.0000000000035
 51
315.0000000000011
  0
ARC
  5
1A5
330
4A
100
AcDbEntity
  8
1
  6
Continuous
 62
     7
100
AcDbCircle
 10
147.96486518674
 20
229.5639686344576
 30
0.0
 40
1.0
100
AcDbArc
 50
270.0
 51
0.0
  0
ARC
  5
1A6
330
4A
100
AcDbEntity
  8
1
  6
Continuous
 62
     7
100
AcDbCircle
 10
127.6486117622295
 20
212.2940077036115
 30
0.0
 40
1.0
100
AcDbArc
 50
90.0
 51
180.0
  0
ARC
  5
1A7
330
4A
100
AcDbEntity
  8
1
  6
Continuous
 62
     7
100
AcDbCircle
 10
137.0991046219642
 20
196.4784996705299
 30
0.0
 40
0.9999999999998472
100
AcDbArc
 50
135.0000000000046
 51
225.0000000000092
  0
ARC
  5
1A8
330
4A
100
AcDbEntity
  8
1
  6
Continuous
 62
     7
100
AcDbCircle
 10
154.96486518674
 20
191.977754279101
 30
0.0
 40
1.0
100
AcDbArc
 50
180.0
 51
270.0
  0
ARC
  5
1A9
330
4A
100
AcDbEntity
  8
1
  6
Continuous
 62
     7
100
AcDbCircle
 10
170.7803732198216
 20
201.4282471388356
 30
0.0
 40
0.9999999999998472
100
AcDbArc
 50
224.9999999999954
 51
315.0000000000092
  0
ARC
  5
1AA
330
4A
100
AcDbEntity
  8
1
  6
Continuous
 62
     7
100
AcDbCircle
 10
175.2811186112502
 20
219.2940077036115
 30
0.0
 40
1.0
100
AcDbArc
 50
270.0000000000163
 51
0.0
  0
ARC
  5
1AB
330
4A
100
AcDbEntity
  8
1
  6
Continuous
 62
     7
100
AcDbCircle
 10
165.8306257515158
 20
235.1095157366931
 30
0.0
 40
1.000000000000008
100
AcDbArc
 50
314.9999999999953
 51
45.0
  0
ARC
  5
1AC
330
4A
100
AcDbEntity
  8
1
  6
Continuous
 62
     7
100
AcDbCircle
 10
147.96486518674
 20
239.610261128122
 30
0.0
 40
1.0
100
AcDbArc
 50
0.0
 51
90.0
  0
ARC
  5
1AD
330
4A
100
AcDbEntity
  8
1
  6
Continuous
 62
     7
100
AcDbCircle
 10
132.1493571536584
 20
230.1597682683872
 30
0.0
 40
0.999999999999988
100
AcDbArc
 50
45.00000000000346
 51
135.0000000000127
  0
ARC
  5
1AE
330
4A
100
AcDbEntity
  8
1
  6
Continuous
 62
     7
100
AcDbCircle
 10
139.2531587017119
 20
223.0559667203336
 30
0.0
 40
0.9999999999998673
100
AcDbArc
 50
315.0000000000035
 51
45.00000000000806
  0
ARC
  5
1AF
330
4A
100
AcDbEntity
  8
1
  6
Continuous
 62
     7
100
AcDbCircle
 10
127.6486117622295
 20
219.2940077036115
 30
0.0
 40
1.0
100
AcDbArc
 50
180.0
 51
270.0
  0
ARC
  5
1B0
330
4A
100
AcDbEntity
  8
1
  6
Continuous
 62
     7
100
AcDbCircle
 10
137.6949042558938
 20
219.2940077036115
 30
0.0
 40
1.0
100
AcDbArc
 50
270.0
 51
0.0
  0
ARC
  5
1B1
330
4A
100
AcDbEntity
  8
1
  6
Continuous
 62
     7
100
AcDbCircle
 10
42.98856453905859
 20
156.5940077036104
 30
0.0
 40
0.5000000000000113
100
AcDbArc
 50
181.024581433757
 51
270.0
  0
ARC
  5
1B2
330
4A
100
AcDbEntity
  8
1
  6
Continuous
 62
     7
100
AcDbCircle
 10
50.7509571850421
 20
156.5940077036104
 30
0.0
 40
0.5000000000000282
100
AcDbArc
 50
174.2894068624899
 51
270.0
  0
ARC
  5
1B3
330
4A
100
AcDbEntity
  8
1
  6
Continuous
 62
     7
100
AcDbCircle
 10
95.9855267351887
 20
156.5940077036104
 30
0.0
 40
0.5
100
AcDbArc
 50
270.0
 51
358.975418566243
  0
ARC
  5
1B4
330
4A
100
AcDbEntity
  8
1
  6
Continuous
 62
     7
100
AcDbCircle
 10
88.22313408920527
 20
156.5940077036104
 30
0.0
 40
0.5
100
AcDbArc
 50
270.0
 51
5.71059313751001
  0
ENDBLK
  5
4C
330
4A
100
AcDbEntity
  8
0
100
AcDbBlockEnd
  0
BLOCK
  5
4E
330
4D
100
AcDbEntity
  8
0
100
AcDbBlockBegin
  2
32-48-13
 70
     0
 10
474.2847460732639
 20
126.2087862322746
 30
0.0
  3
32-48-13
  1

  0
LINE
  5
1B5
330
4D
100
AcDbEntity
  8
1
  6
Continuous
 62
     7
100
AcDbLine
 10
146.5573878986279
 20
140.0348183250564
 30
0.0
 11
146.5573878986279
 21
130.5531970821665
 31
0.0
  0
LINE
  5
1B6
330
4D
100
AcDbEntity
  8
1
  6
Continuous
 62
     7
100
AcDbLine
 10
156.3723424748515
 20
140.0348183250564
 30
0.0
 11
156.3723424748515
 21
130.5531970821665
 31
0.0
  0
LINE
  5
1B7
330
4D
100
AcDbEntity
  8
1
  6
Continuous
 62
     7
100
AcDbLine
 10
144.9696746583566
 20
221.0440077036117
 30
0.0
 11
141.6499106105161
 21
215.2940077036114
 31
0.0
  0
LINE
  5
1B8
330
4D
100
AcDbEntity
  8
1
  6
Continuous
 62
     7
100
AcDbLine
 10
149.7328143791711
 20
206.7940077036114
 30
0.0
 11
156.3723424748515
 21
206.7940077036114
 31
0.0
  0
LINE
  5
1B9
330
4D
100
AcDbEntity
  8
1
  6
Continuous
 62
     7
100
AcDbLine
 10
159.2590938207996
 20
218.7940077036115
 30
0.0
 11
156.3723424748515
 21
223.7940077036114
 31
0.0
  0
LINE
  5
1BA
330
4D
100
AcDbEntity
  8
1
  6
Continuous
 62
     7
100
AcDbLine
 10
156.3723424748515
 20
223.7940077036114
 30
0.0
 11
154.4648651867397
 21
223.7940077036114
 31
0.0
  0
LINE
  5
1BB
330
4D
100
AcDbEntity
  8
1
  6
Continuous
 62
     7
100
AcDbLine
 10
141.6499106105161
 20
215.2940077036114
 30
0.0
 11
144.6809995237617
 21
210.0440077036112
 31
0.0
  0
LINE
  5
1BC
330
4D
100
AcDbEntity
  8
1
  6
Continuous
 62
     7
100
AcDbLine
 10
154.9648651867397
 20
223.7940077036112
 30
0.0
 11
150.3101646483609
 21
223.7940077036113
 31
0.0
  0
LINE
  5
1BD
330
4D
100
AcDbEntity
  8
1
  6
Continuous
 62
     7
100
AcDbLine
 10
156.3723424748515
 20
206.7940077036114
 30
0.0
 11
159.8364440899893
 21
212.7940077036115
 31
0.0
  0
LINE
  5
1BE
330
4D
100
AcDbEntity
  8
1
  6
Continuous
 62
     7
100
AcDbLine
 10
159.9648651867397
 20
140.7940077036114
 30
0.0
 11
142.9648651867397
 21
140.7940077036114
 31
0.0
  0
LINE
  5
1BF
330
4D
100
AcDbEntity
  8
1
  6
Continuous
 62
     7
100
AcDbLine
 10
158.9648651867397
 20
129.7940077036114
 30
0.0
 11
159.9648651867397
 21
129.7940077036114
 31
0.0
  0
LINE
  5
1C0
330
4D
100
AcDbEntity
  8
1
  6
Continuous
 62
     7
100
AcDbLine
 10
142.9648651867397
 20
140.7940077036114
 30
0.0
 11
141.6499106105161
 21
140.0348183250566
 31
0.0
  0
LINE
  5
1C1
330
4D
100
AcDbEntity
  8
1
  6
Continuous
 62
     7
100
AcDbLine
 10
141.6499106105161
 20
140.0348183250566
 30
0.0
 11
141.6499106105161
 21
130.5531970821664
 31
0.0
  0
LINE
  5
1C2
330
4D
100
AcDbEntity
  8
1
  6
Continuous
 62
     7
100
AcDbLine
 10
141.6499106105161
 20
130.5531970821664
 30
0.0
 11
142.9648651867397
 21
129.7940077036114
 31
0.0
  0
LINE
  5
1C3
330
4D
100
AcDbEntity
  8
1
  6
Continuous
 62
     7
100
AcDbLine
 10
142.9648651867397
 20
129.7940077036114
 30
0.0
 11
158.9648651867397
 21
129.7940077036114
 31
0.0
  0
LINE
  5
1C4
330
4D
100
AcDbEntity
  8
1
  6
Continuous
 62
     7
100
AcDbLine
 10
77.9870456371236
 20
140.0348183250564
 30
0.0
 11
77.98704563711178
 21
140.0348183250633
 31
0.0
  0
LINE
  5
1C5
330
4D
100
AcDbEntity
  8
1
  6
Continuous
 62
     7
100
AcDbLine
 10
76.6720910608999
 20
129.7940077036114
 30
0.0
 11
77.9870456371236
 21
130.5531970821664
 31
0.0
  0
LINE
  5
1C6
330
4D
100
AcDbEntity
  8
1
  6
Continuous
 62
     7
100
AcDbLine
 10
159.9648651867397
 20
140.7940077036114
 30
0.0
 11
155.4648651867397
 21
140.7940077036114
 31
0.0
  0
LINE
  5
1C7
330
4D
100
AcDbEntity
  8
1
  6
Continuous
 62
     7
100
AcDbLine
 10
161.2798197629633
 20
140.0348183250566
 30
0.0
 11
159.9648651867397
 21
140.7940077036114
 31
0.0
  0
LINE
  5
1C8
330
4D
100
AcDbEntity
  8
1
  6
Continuous
 62
     7
100
AcDbLine
 10
161.2798197629633
 20
130.5531970821664
 30
0.0
 11
161.2798197629633
 21
140.0348183250566
 31
0.0
  0
LINE
  5
1C9
330
4D
100
AcDbEntity
  8
1
  6
Continuous
 62
     7
100
AcDbLine
 10
159.9648651867397
 20
129.7940077036114
 30
0.0
 11
161.2798197629633
 21
130.5531970821664
 31
0.0
  0
LINE
  5
1CA
330
4D
100
AcDbEntity
  8
0
  6
Continuous
 62
     7
100
AcDbLine
 10
77.9870456371236
 20
140.0348183250564
 30
0.0
 11
77.98704563711178
 21
140.0348183250633
 31
0.0
  0
LINE
  5
1CB
330
4D
100
AcDbEntity
  8
1
  6
Continuous
 62
     7
100
AcDbLine
 10
77.98704563711178
 20
140.0348183250633
 30
0.0
 11
76.6720910608999
 21
140.7940077036114
 31
0.0
  0
LINE
  5
1CC
330
4D
100
AcDbEntity
  8
0
  6
Continuous
 62
     7
100
AcDbLine
 10
77.98704563711178
 20
140.0348183250633
 30
0.0
 11
77.9870456371236
 21
130.5531970821664
 31
0.0
  0
LINE
  5
1CD
330
4D
100
AcDbEntity
  8
0
  6
Continuous
 62
     7
100
AcDbLine
 10
69.48704563711709
 20
140.0348183250564
 30
0.0
 11
69.48704563711709
 21
130.5531970821664
 31
0.0
  0
LINE
  5
1CE
330
4D
100
AcDbEntity
  8
0
  6
Continuous
 62
     7
100
AcDbLine
 10
76.6720910608999
 20
140.7940077036114
 30
0.0
 11
69.48704563712369
 21
140.7940077036114
 31
0.0
  0
LINE
  5
1CF
330
4D
100
AcDbEntity
  8
0
  6
Continuous
 62
     7
100
AcDbLine
 10
76.6720910608999
 20
129.7940077036114
 30
0.0
 11
69.48704563712369
 21
129.7940077036114
 31
0.0
  0
LINE
  5
1D0
330
4D
100
AcDbEntity
  8
1
  6
Continuous
 62
     7
100
AcDbLine
 10
60.98704563712238
 20
140.0348183250633
 30
0.0
 11
60.98704563711058
 21
140.0348183250564
 31
0.0
  0
LINE
  5
1D1
330
4D
100
AcDbEntity
  8
1
  6
Continuous
 62
     7
100
AcDbLine
 10
60.98704563711058
 20
130.5531970821664
 30
0.0
 11
62.30200021333428
 21
129.7940077036114
 31
0.0
  0
LINE
  5
1D2
330
4D
100
AcDbEntity
  8
0
  6
Continuous
 62
     7
100
AcDbLine
 10
60.98704563712238
 20
140.0348183250633
 30
0.0
 11
60.98704563711058
 21
140.0348183250564
 31
0.0
  0
LINE
  5
1D3
330
4D
100
AcDbEntity
  8
1
  6
Continuous
 62
     7
100
AcDbLine
 10
62.30200021333428
 20
140.7940077036114
 30
0.0
 11
60.98704563712238
 21
140.0348183250633
 31
0.0
  0
LINE
  5
1D4
330
4D
100
AcDbEntity
  8
0
  6
Continuous
 62
     7
100
AcDbLine
 10
60.98704563711058
 20
130.5531970821664
 30
0.0
 11
60.98704563712238
 21
140.0348183250633
 31
0.0
  0
LINE
  5
1D5
330
4D
100
AcDbEntity
  8
0
  6
Continuous
 62
     7
100
AcDbLine
 10
69.4870456371105
 20
140.7940077036114
 30
0.0
 11
62.30200021333428
 21
140.7940077036114
 31
0.0
  0
LINE
  5
1D6
330
4D
100
AcDbEntity
  8
0
  6
Continuous
 62
     7
100
AcDbLine
 10
69.4870456371105
 20
129.7940077036114
 30
0.0
 11
62.30200021333428
 21
129.7940077036114
 31
0.0
  0
ARC
  5
1D7
330
4D
100
AcDbEntity
  8
1
  6
Continuous
 62
     7
100
AcDbCircle
 10
144.1036492545719
 20
134.1389063759304
 30
0.0
 40
4.344898672318871
100
AcDbArc
 50
235.6157525319551
 51
304.3842474680473
  0
ARC
  5
1D8
330
4D
100
AcDbEntity
  8
1
  6
Continuous
 62
     7
100
AcDbCircle
 10
151.4648651867397
 20
146.0348183250551
 30
0.0
 40
16.24081062144354
100
AcDbArc
 50
252.4120462260045
 51
287.5879537739955
  0
ARC
  5
1D9
330
4D
100
AcDbEntity
  8
1
  6
Continuous
 62
     7
100
AcDbCircle
 10
158.8260811189075
 20
134.1389063759304
 30
0.0
 40
4.344898672318897
100
AcDbArc
 50
235.6157525319526
 51
304.3842474680449
  0
ARC
  5
1DA
330
4D
100
AcDbEntity
  8
1
  6
Continuous
 62
     7
100
AcDbCircle
 10
151.4648651867397
 20
124.5531970821679
 30
0.0
 40
16.24081062144342
100
AcDbArc
 50
72.41204622600434
 51
107.5879537739957
  0
ARC
  5
1DB
330
4D
100
AcDbEntity
  8
1
  6
Continuous
 62
     7
100
AcDbCircle
 10
144.1036492545719
 20
136.4491090312924
 30
0.0
 40
4.344898672318967
100
AcDbArc
 50
55.61575253195328
 51
124.3842474680434
  0
ARC
  5
1DC
330
4D
100
AcDbEntity
  8
1
  6
Continuous
 62
     7
100
AcDbCircle
 10
158.8260811189075
 20
136.4491090312924
 30
0.0
 40
4.344898672319036
100
AcDbArc
 50
55.61575253195662
 51
124.3842474680467
  0
ARC
  5
1DD
330
4D
100
AcDbEntity
  8
0
  6
Continuous
 62
     7
100
AcDbCircle
 10
73.7370456371236
 20
128.5596633902933
 30
0.0
 40
12.23689833155753
100
AcDbArc
 50
69.67711512534595
 51
110.3228848747458
  0
ARC
  5
1DE
330
4D
100
AcDbEntity
  8
0
  6
Continuous
 62
     7
100
AcDbCircle
 10
73.7370456371236
 20
142.0283520169295
 30
0.0
 40
12.23689833155742
100
AcDbArc
 50
249.6771151252542
 51
290.3228848746544
  0
ARC
  5
1DF
330
4D
100
AcDbEntity
  8
0
  6
Continuous
 62
     7
100
AcDbCircle
 10
65.23704563711058
 20
128.5596633902933
 30
0.0
 40
12.23689833155742
100
AcDbArc
 50
69.67711512525422
 51
110.3228848746542
  0
ARC
  5
1E0
330
4D
100
AcDbEntity
  8
0
  6
Continuous
 62
     7
100
AcDbCircle
 10
65.23704563711058
 20
142.0283520169295
 30
0.0
 40
12.23689833155736
100
AcDbArc
 50
249.6771151253454
 51
290.3228848747458
  0
ENDBLK
  5
4F
330
4D
100
AcDbEntity
  8
0
100
AcDbBlockEnd
  0
BLOCK
  5
51
330
50
100
AcDbEntity
  8
0
100
AcDbBlockBegin
  2
73-4
 70
     0
 10
299.284746073264
 20
76.91568278399899
 30
0.0
  3
73-4
  1

  0
LINE
  5
1E1
330
50
100
AcDbEntity
  8
1
  6
Continuous
 62
     7
100
AcDbLine
 10
157.4648651867397
 20
161.0940077036104
 30
0.0
 11
157.4648651867397
 21
161.5940077036104
 31
0.0
  0
LINE
  5
1E2
330
50
100
AcDbEntity
  8
1
  6
Continuous
 62
     7
100
AcDbLine
 10
75.48704563712369
 20
161.0940077036104
 30
0.0
 11
75.48704563712369
 21
161.5940077036104
 31
0.0
  0
LINE
  5
1E3
330
50
100
AcDbEntity
  8
1
  6
Continuous
 62
     7
100
AcDbLine
 10
75.48704563712369
 20
161.5940077036104
 30
0.0
 11
72.61113447301116
 21
161.5940077036104
 31
0.0
  0
LINE
  5
1E4
330
50
100
AcDbEntity
  8
1
  6
Continuous
 62
     7
100
AcDbLine
 10
63.48704563712369
 20
161.5940077036104
 30
0.0
 11
63.48704563712369
 21
161.0940077036104
 31
0.0
  0
LINE
  5
1E5
330
50
100
AcDbEntity
  8
1
  6
Continuous
 62
     7
100
AcDbLine
 10
66.36295680123627
 20
161.5940077036104
 30
0.0
 11
63.48704563712369
 21
161.5940077036104
 31
0.0
  0
LINE
  5
1E6
330
50
100
AcDbEntity
  8
1
  6
Continuous
 62
     7
100
AcDbLine
 10
157.4648651867397
 20
161.5940077036104
 30
0.0
 11
154.5889540226272
 21
161.5940077036104
 31
0.0
  0
LINE
  5
1E7
330
50
100
AcDbEntity
  8
1
  6
Continuous
 62
     7
100
AcDbLine
 10
145.4648651867397
 20
161.5940077036104
 30
0.0
 11
145.4648651867397
 21
161.0940077036104
 31
0.0
  0
LINE
  5
1E8
330
50
100
AcDbEntity
  8
1
  6
Continuous
 62
     7
100
AcDbLine
 10
148.3407763508523
 20
161.5940077036104
 30
0.0
 11
145.4648651867397
 21
161.5940077036104
 31
0.0
  0
CIRCLE
  5
1E9
330
50
100
AcDbEntity
  8
0
  6
Continuous
 62
     7
100
AcDbCircle
 10
151.4648651867397
 20
215.7940077036115
 30
0.0
 40
6.0
  0
ENDBLK
  5
52
330
50
100
AcDbEntity
  8
0
100
AcDbBlockEnd
  0
BLOCK
  5
54
330
53
100
AcDbEntity
  8
0
100
AcDbBlockBegin
  2
37-32-20
 70
     0
 10
99.46551530403298
 20
252.0231640091942
 30
0.0
  3
37-32-20
  1

  0
LINE
  5
1EA
330
53
100
AcDbEntity
  8
1
  6
Continuous
 62
     7
100
AcDbLine
 10
137.2883805550598
 20
116.5156955400985
 30
0.0
 11
137.2883805550598
 21
120.0723198671245
 31
0.0
  0
LINE
  5
1EB
330
53
100
AcDbEntity
  8
1
  6
Continuous
 62
     7
100
AcDbLine
 10
137.2883805550598
 20
116.5156955400985
 30
0.0
 11
137.2883805550598
 21
120.0723198671245
 31
0.0
  0
LINE
  5
1EC
330
53
100
AcDbEntity
  8
1
  6
Continuous
 62
     7
100
AcDbLine
 10
143.1246893200242
 20
116.5156955400985
 30
0.0
 11
145.6285564217753
 21
116.5156955400985
 31
0.0
  0
LINE
  5
1ED
330
53
100
AcDbEntity
  8
1
  6
Continuous
 62
     7
100
AcDbLine
 10
143.1246893200242
 20
120.0723198671245
 30
0.0
 11
145.6285564217753
 21
120.0723198671245
 31
0.0
  0
LINE
  5
1EE
330
53
100
AcDbEntity
  8
1
  6
Continuous
 62
     7
100
AcDbLine
 10
145.6285564217753
 20
116.5156955400985
 30
0.0
 11
145.6285564217753
 21
120.0723198671245
 31
0.0
  0
LINE
  5
1EF
330
53
100
AcDbEntity
  8
1
  6
Continuous
 62
     7
100
AcDbLine
 10
143.1246893200242
 20
116.5156955400985
 30
0.0
 11
143.1246893200242
 21
120.0723198671245
 31
0.0
  0
LINE
  5
1F0
330
53
100
AcDbEntity
  8
1
  6
Continuous
 62
     7
100
AcDbLine
 10
165.6413498184196
 20
120.0723198671245
 30
0.0
 11
165.6413498184196
 21
116.5156955400985
 31
0.0
  0
LINE
  5
1F1
330
53
100
AcDbEntity
  8
1
  6
Continuous
 62
     7
100
AcDbLine
 10
157.3011739517041
 20
116.5156955400985
 30
0.0
 11
159.8050410534552
 21
116.5156955400985
 31
0.0
  0
LINE
  5
1F2
330
53
100
AcDbEntity
  8
1
  6
Continuous
 62
     7
100
AcDbLine
 10
157.3011739517041
 20
120.0723198671245
 30
0.0
 11
159.8050410534552
 21
120.0723198671245
 31
0.0
  0
LINE
  5
1F3
330
53
100
AcDbEntity
  8
1
  6
Continuous
 62
     7
100
AcDbLine
 10
157.3011739517041
 20
120.0723198671245
 30
0.0
 11
157.3011739517041
 21
116.5156955400985
 31
0.0
  0
LINE
  5
1F4
330
53
100
AcDbEntity
  8
1
  6
Continuous
 62
     7
100
AcDbLine
 10
159.8050410534552
 20
120.0723198671245
 30
0.0
 11
159.8050410534552
 21
116.5156955400985
 31
0.0
  0
LINE
  5
1F5
330
53
100
AcDbEntity
  8
1
  6
Continuous
 62
     7
100
AcDbLine
 10
143.9648651867397
 20
129.7940077036114
 30
0.0
 11
143.9648651867397
 21
126.7940077036114
 31
0.0
  0
LINE
  5
1F6
330
53
100
AcDbEntity
  8
1
  6
Continuous
 62
     2
100
AcDbLine
 10
144.7148651867397
 20
129.7940077036114
 30
0.0
 11
144.7148651867397
 21
126.7940077036114
 31
0.0
  0
LINE
  5
1F7
330
53
100
AcDbEntity
  8
1
  6
Continuous
 62
     7
100
AcDbLine
 10
158.2148651867397
 20
126.7940077036114
 30
0.0
 11
144.7148651867397
 21
126.7940077036114
 31
0.0
  0
LINE
  5
1F8
330
53
100
AcDbEntity
  8
1
  6
Continuous
 62
     7
100
AcDbLine
 10
138.4648651867397
 20
210.5978552809049
 30
0.0
 11
138.4648651867397
 21
209.9576989386471
 31
0.0
  0
LINE
  5
1F9
330
53
100
AcDbEntity
  8
1
  6
Continuous
 62
     7
100
AcDbLine
 10
164.4648651867397
 20
220.990160126318
 30
0.0
 11
164.4648651867397
 21
221.6303164685758
 31
0.0
  0
LINE
  5
1FA
330
53
100
AcDbEntity
  8
1
  6
Continuous
 62
     7
100
AcDbLine
 10
61.98704563712369
 20
129.9631412618111
 30
0.0
 11
61.98704563712369
 21
126.7940077036114
 31
0.0
  0
LINE
  5
1FB
330
53
100
AcDbEntity
  8
1
  6
Continuous
 62
     2
100
AcDbLine
 10
62.73704563712369
 20
129.7940077036117
 30
0.0
 11
62.73704563712369
 21
126.7940077036114
 31
0.0
  0
LINE
  5
1FC
330
53
100
AcDbEntity
  8
0
  6
Continuous
 62
     7
100
AcDbLine
 10
165.7148651867397
 20
120.7940077036114
 30
0.0
 11
165.7148651867397
 21
115.7940077036114
 31
0.0
  0
LINE
  5
1FD
330
53
100
AcDbEntity
  8
0
  6
Continuous
 62
     7
100
AcDbLine
 10
137.2148651867397
 20
120.7940077036114
 30
0.0
 11
137.2148651867397
 21
115.7940077036114
 31
0.0
  0
LINE
  5
1FE
330
53
100
AcDbEntity
  8
1
  6
Continuous
 62
     7
100
AcDbLine
 10
165.7148651867397
 20
115.7940077036114
 30
0.0
 11
137.2148651867397
 21
115.7940077036114
 31
0.0
  0
LINE
  5
1FF
330
53
100
AcDbEntity
  8
1
  6
Continuous
 62
     7
100
AcDbLine
 10
143.9648651867397
 20
125.4949695979349
 30
0.0
 11
143.9648651867397
 21
122.2940077036114
 31
0.0
  0
LINE
  5
200
330
53
100
AcDbEntity
  8
1
  6
Continuous
 62
     2
100
AcDbLine
 10
144.7148651867397
 20
126.7940077036114
 30
0.0
 11
143.9648651867397
 21
125.4949695979349
 31
0.0
  0
LINE
  5
201
330
53
100
AcDbEntity
  8
1
  6
Continuous
 62
     7
100
AcDbLine
 10
143.9648651867397
 20
126.7940077036114
 30
0.0
 11
144.7148651867397
 21
126.7940077036114
 31
0.0
  0
LINE
  5
202
330
53
100
AcDbEntity
  8
1
  6
Continuous
 62
     7
100
AcDbLine
 10
143.9648651867397
 20
126.7940077036114
 30
0.0
 11
143.9648651867397
 21
125.4949695979349
 31
0.0
  0
LINE
  5
203
330
53
100
AcDbEntity
  8
1
  6
Continuous
 62
     7
100
AcDbLine
 10
137.2148651867397
 20
120.7940077036114
 30
0.0
 11
160.4648651867397
 21
120.7940077036114
 31
0.0
  0
LINE
  5
204
330
53
100
AcDbEntity
  8
1
  6
Continuous
 62
     7
100
AcDbLine
 10
76.98704563712369
 20
126.7940077036114
 30
0.0
 11
76.98704563712369
 21
129.960924186759
 31
0.0
  0
LINE
  5
205
330
53
100
AcDbEntity
  8
1
  6
Continuous
 62
     7
100
AcDbLine
 10
76.98704563712369
 20
122.2940077036114
 30
0.0
 11
76.98704563712369
 21
125.4949695979349
 31
0.0
  0
LINE
  5
206
330
53
100
AcDbEntity
  8
1
  6
Continuous
 62
     2
100
AcDbLine
 10
76.23704563712369
 20
126.7940077036114
 30
0.0
 11
76.23704563712369
 21
129.7940077036117
 31
0.0
  0
LINE
  5
207
330
53
100
AcDbEntity
  8
1
  6
Continuous
 62
     2
100
AcDbLine
 10
76.98704563712369
 20
125.4949695979349
 30
0.0
 11
76.23704563712369
 21
126.7940077036114
 31
0.0
  0
LINE
  5
208
330
53
100
AcDbEntity
  8
1
  6
Continuous
 62
     7
100
AcDbLine
 10
69.48704563712369
 20
126.7940077036114
 30
0.0
 11
76.98704563712369
 21
126.7940077036114
 31
0.0
  0
LINE
  5
209
330
53
100
AcDbEntity
  8
1
  6
Continuous
 62
     7
100
AcDbLine
 10
76.98704563712369
 20
125.4949695979349
 30
0.0
 11
76.98704563712369
 21
126.7940077036114
 31
0.0
  0
LINE
  5
20A
330
53
100
AcDbEntity
  8
1
  6
Continuous
 62
     7
100
AcDbLine
 10
78.48704563712369
 20
120.7940077036114
 30
0.0
 11
81.18704563712348
 21
120.7940077036114
 31
0.0
  0
LINE
  5
20B
330
53
100
AcDbEntity
  8
1
  6
Continuous
 62
     7
100
AcDbLine
 10
164.4648651867397
 20
209.9576989386471
 30
0.0
 11
164.4648651867397
 21
210.597855280905
 31
0.0
  0
LINE
  5
20C
330
53
100
AcDbEntity
  8
1
  6
Continuous
 62
     7
100
AcDbLine
 10
138.4648651867397
 20
221.6303164685758
 30
0.0
 11
138.4648651867397
 21
220.9901601263183
 31
0.0
  0
LINE
  5
20D
330
53
100
AcDbEntity
  8
1
  6
Continuous
 62
     7
100
AcDbLine
 10
61.98704563712369
 20
125.4949695979349
 30
0.0
 11
61.98704563712369
 21
122.2940077036114
 31
0.0
  0
LINE
  5
20E
330
53
100
AcDbEntity
  8
1
  6
Continuous
 62
     2
100
AcDbLine
 10
62.73704563712369
 20
126.7940077036114
 30
0.0
 11
61.98704563712369
 21
125.4949695979349
 31
0.0
  0
LINE
  5
20F
330
53
100
AcDbEntity
  8
1
  6
Continuous
 62
     7
100
AcDbLine
 10
61.98704563712369
 20
126.7940077036114
 30
0.0
 11
69.48704563712369
 21
126.7940077036114
 31
0.0
  0
LINE
  5
210
330
53
100
AcDbEntity
  8
1
  6
Continuous
 62
     7
100
AcDbLine
 10
61.98704563712369
 20
126.7940077036114
 30
0.0
 11
61.98704563712369
 21
125.4949695979349
 31
0.0
  0
LINE
  5
211
330
53
100
AcDbEntity
  8
1
  6
Continuous
 62
     7
100
AcDbLine
 10
56.53704563712378
 20
120.0723198671245
 30
0.0
 11
57.78704563712378
 21
120.7940077036114
 31
0.0
  0
LINE
  5
212
330
53
100
AcDbEntity
  8
1
  6
Continuous
 62
     7
100
AcDbLine
 10
57.78704563712378
 20
115.7940077036114
 30
0.0
 11
56.53704563712378
 21
116.5156955400985
 31
0.0
  0
LINE
  5
213
330
53
100
AcDbEntity
  8
1
  6
Continuous
 62
     7
100
AcDbLine
 10
60.48704563712369
 20
120.7940077036114
 30
0.0
 11
78.48704563712369
 21
120.7940077036114
 31
0.0
  0
LINE
  5
214
330
53
100
AcDbEntity
  8
1
  6
Continuous
 62
     7
100
AcDbLine
 10
158.9648651867397
 20
126.7940077036114
 30
0.0
 11
158.9648651867397
 21
129.7940077036114
 31
0.0
  0
LINE
  5
215
330
53
100
AcDbEntity
  8
1
  6
Continuous
 62
     7
100
AcDbLine
 10
158.9648651867397
 20
122.2940077036114
 30
0.0
 11
158.9648651867397
 21
125.4949695979349
 31
0.0
  0
LINE
  5
216
330
53
100
AcDbEntity
  8
1
  6
Continuous
 62
     2
100
AcDbLine
 10
158.2148651867397
 20
126.7940077036114
 30
0.0
 11
158.2148651867397
 21
129.7940077036114
 31
0.0
  0
LINE
  5
217
330
53
100
AcDbEntity
  8
1
  6
Continuous
 62
     2
100
AcDbLine
 10
158.9648651867397
 20
125.4949695979349
 30
0.0
 11
158.2148651867397
 21
126.7940077036114
 31
0.0
  0
LINE
  5
218
330
53
100
AcDbEntity
  8
1
  6
Continuous
 62
     7
100
AcDbLine
 10
158.2148651867397
 20
126.7940077036114
 30
0.0
 11
158.9648651867397
 21
126.7940077036114
 31
0.0
  0
LINE
  5
219
330
53
100
AcDbEntity
  8
1
  6
Continuous
 62
     7
100
AcDbLine
 10
158.9648651867397
 20
125.4949695979349
 30
0.0
 11
158.9648651867397
 21
126.7940077036114
 31
0.0
  0
LINE
  5
21A
330
53
100
AcDbEntity
  8
1
  6
Continuous
 62
     7
100
AcDbLine
 10
160.4648651867397
 20
120.7940077036114
 30
0.0
 11
165.7148651867397
 21
120.7940077036114
 31
0.0
  0
LINE
  5
21B
330
53
100
AcDbEntity
  8
0
  6
Continuous
 62
     7
100
AcDbLine
 10
70.81228836129009
 20
116.5156955400985
 30
0.0
 11
70.81228836129009
 21
120.0723198671245
 31
0.0
  0
LINE
  5
21C
330
53
100
AcDbEntity
  8
0
  6
Continuous
 62
     7
100
AcDbLine
 10
81.11180291295699
 20
116.5156955400985
 30
0.0
 11
81.11180291295699
 21
120.0723198671245
 31
0.0
  0
LINE
  5
21D
330
53
100
AcDbEntity
  8
0
  6
Continuous
 62
     7
100
AcDbLine
 10
81.11180291295699
 20
120.0723198671245
 30
0.0
 11
82.43704563712348
 21
120.0723198671245
 31
0.0
  0
LINE
  5
21E
330
53
100
AcDbEntity
  8
0
  6
Continuous
 62
     7
100
AcDbLine
 10
68.16180291295728
 20
120.0723198671245
 30
0.0
 11
68.16180291295728
 21
116.5156955400985
 31
0.0
  0
LINE
  5
21F
330
53
100
AcDbEntity
  8
0
  6
Continuous
 62
     7
100
AcDbLine
 10
57.8622883612903
 20
120.0723198671245
 30
0.0
 11
57.8622883612903
 21
116.5156955400985
 31
0.0
  0
LINE
  5
220
330
53
100
AcDbEntity
  8
0
  6
Continuous
 62
     7
100
AcDbLine
 10
56.53704563712378
 20
120.0723198671245
 30
0.0
 11
56.53704563712378
 21
116.5156955400985
 31
0.0
  0
LINE
  5
221
330
53
100
AcDbEntity
  8
0
  6
Continuous
 62
     7
100
AcDbLine
 10
56.53704563712378
 20
120.0723198671245
 30
0.0
 11
57.8622883612903
 21
120.0723198671245
 31
0.0
  0
LINE
  5
222
330
53
100
AcDbEntity
  8
0
  6
Continuous
 62
     7
100
AcDbLine
 10
57.78704563712378
 20
120.7940077036114
 30
0.0
 11
60.48704563712369
 21
120.7940077036114
 31
0.0
  0
LINE
  5
223
330
53
100
AcDbEntity
  8
0
  6
Continuous
 62
     7
100
AcDbLine
 10
57.8622883612903
 20
116.5156955400985
 30
0.0
 11
56.53704563712378
 21
116.5156955400985
 31
0.0
  0
LINE
  5
224
330
53
100
AcDbEntity
  8
0
  6
Continuous
 62
     7
100
AcDbLine
 10
68.16180291295728
 20
120.0723198671245
 30
0.0
 11
70.81228836129009
 21
120.0723198671245
 31
0.0
  0
LINE
  5
225
330
53
100
AcDbEntity
  8
0
  6
Continuous
 62
     7
100
AcDbLine
 10
68.16180291295728
 20
116.5156955400985
 30
0.0
 11
70.81228836129009
 21
116.5156955400985
 31
0.0
  0
LINE
  5
226
330
53
100
AcDbEntity
  8
1
  6
Continuous
 62
     7
100
AcDbLine
 10
81.18704563712348
 20
120.7940077036114
 30
0.0
 11
82.43704563712348
 21
120.0723198671245
 31
0.0
  0
LINE
  5
227
330
53
100
AcDbEntity
  8
1
  6
Continuous
 62
     7
100
AcDbLine
 10
82.43704563712348
 20
116.5156955400985
 30
0.0
 11
81.18704563712348
 21
115.7940077036114
 31
0.0
  0
LINE
  5
228
330
53
100
AcDbEntity
  8
1
  6
Continuous
 62
     7
100
AcDbLine
 10
81.18704563712348
 20
115.7940077036114
 30
0.0
 11
57.78704563712378
 21
115.7940077036114
 31
0.0
  0
LINE
  5
229
330
53
100
AcDbEntity
  8
0
  6
Continuous
 62
     7
100
AcDbLine
 10
82.43704563712348
 20
120.0723198671245
 30
0.0
 11
82.43704563712348
 21
116.5156955400985
 31
0.0
  0
LINE
  5
22A
330
53
100
AcDbEntity
  8
0
  6
Continuous
 62
     7
100
AcDbLine
 10
81.11180291295699
 20
116.5156955400985
 30
0.0
 11
82.43704563712348
 21
116.5156955400985
 31
0.0
  0
ARC
  5
22B
330
53
100
AcDbEntity
  8
1
  6
Continuous
 62
     7
100
AcDbCircle
 10
140.206534937542
 20
122.0546496851367
 30
0.0
 40
6.260641981525196
100
AcDbArc
 50
242.2178492393543
 51
297.7821507606459
  0
ARC
  5
22C
330
53
100
AcDbEntity
  8
1
  6
Continuous
 62
     7
100
AcDbCircle
 10
140.206534937542
 20
114.533365722086
 30
0.0
 40
6.260641981525485
100
AcDbArc
 50
62.21784923935543
 51
117.7821507606443
  0
ARC
  5
22D
330
53
100
AcDbEntity
  8
1
  6
Continuous
 62
     7
100
AcDbCircle
 10
162.7231954359374
 20
122.0546496851367
 30
0.0
 40
6.260641981525209
100
AcDbArc
 50
242.2178492393541
 51
297.7821507606457
  0
ARC
  5
22E
330
53
100
AcDbEntity
  8
1
  6
Continuous
 62
     7
100
AcDbCircle
 10
162.7231954359374
 20
114.533365722086
 30
0.0
 40
6.260641981525473
100
AcDbArc
 50
62.21784923935566
 51
117.7821507606446
  0
ARC
  5
22F
330
53
100
AcDbEntity
  8
1
  6
Continuous
 62
     7
100
AcDbCircle
 10
151.4648651867397
 20
139.7540438749792
 30
0.0
 40
23.96003617136779
100
AcDbArc
 50
255.9017646877116
 51
284.0982353122884
  0
ARC
  5
230
330
53
100
AcDbEntity
  8
1
  6
Continuous
 62
     7
100
AcDbCircle
 10
151.4648651867397
 20
96.83397153224132
 30
0.0
 40
23.9600361713702
100
AcDbArc
 50
75.90176468771305
 51
104.0982353122869
  0
ARC
  5
231
330
53
100
AcDbEntity
  8
1
  6
Continuous
 62
     7
100
AcDbCircle
 10
151.4648651867397
 20
215.7940077036115
 30
0.0
 40
14.25000000000001
100
AcDbArc
 50
204.1775448336354
 51
214.8958172838745
  0
ARC
  5
232
330
53
100
AcDbEntity
  8
1
  6
Continuous
 62
     7
100
AcDbCircle
 10
151.4648651867397
 20
215.7940077036115
 30
0.0
 40
14.24999999999998
100
AcDbArc
 50
24.17754483363504
 51
34.89581728387481
  0
ARC
  5
233
330
53
100
AcDbEntity
  8
1
  6
Continuous
 62
     7
100
AcDbCircle
 10
151.4648651867397
 20
215.7940077036115
 30
0.0
 40
14.25000000000003
100
AcDbArc
 50
325.1041827161254
 51
335.8224551663646
  0
ARC
  5
234
330
53
100
AcDbEntity
  8
1
  6
Continuous
 62
     7
100
AcDbCircle
 10
151.4648651867397
 20
215.7940077036115
 30
0.0
 40
14.25
100
AcDbArc
 50
145.1041827161248
 51
155.822455166365
  0
ARC
  5
235
330
53
100
AcDbEntity
  8
0
  6
Continuous
 62
     7
100
AcDbCircle
 10
75.96204563712348
 20
102.0595688186764
 30
0.0
 40
18.73443888493511
100
AcDbArc
 50
74.04502650018678
 51
105.9549734998129
  0
ARC
  5
236
330
53
100
AcDbEntity
  8
0
  6
Continuous
 62
     7
100
AcDbCircle
 10
63.01204563712378
 20
102.0595688186764
 30
0.0
 40
18.73443888493511
100
AcDbArc
 50
74.04502650018678
 51
105.9549734998131
  0
ARC
  5
237
330
53
100
AcDbEntity
  8
0
  6
Continuous
 62
     7
100
AcDbCircle
 10
63.01204563712378
 20
134.5284465885466
 30
0.0
 40
18.73443888493507
100
AcDbArc
 50
254.0450265001869
 51
285.9549734998133
  0
ARC
  5
238
330
53
100
AcDbEntity
  8
0
  6
Continuous
 62
     7
100
AcDbCircle
 10
75.96204563712348
 20
134.5284465885466
 30
0.0
 40
18.73443888493505
100
AcDbArc
 50
254.0450265001871
 51
285.9549734998133
  0
ARC
  5
239
330
53
100
AcDbEntity
  8
1
  6
Continuous
 62
     7
100
AcDbCircle
 10
142.4648651867397
 20
122.2940077036114
 30
0.0
 40
1.5
100
AcDbArc
 50
270.0
 51
0.0
  0
ARC
  5
23A
330
53
100
AcDbEntity
  8
1
  6
Continuous
 62
     7
100
AcDbCircle
 10
78.48704563712369
 20
122.2940077036114
 30
0.0
 40
1.5
100
AcDbArc
 50
180.0
 51
270.0
  0
ARC
  5
23B
330
53
100
AcDbEntity
  8
1
  6
Continuous
 62
     7
100
AcDbCircle
 10
60.48704563712369
 20
122.2940077036114
 30
0.0
 40
1.5
100
AcDbArc
 50
270.0
 51
0.0
  0
ARC
  5
23C
330
53
100
AcDbEntity
  8
1
  6
Continuous
 62
     7
100
AcDbCircle
 10
160.4648651867397
 20
122.2940077036114
 30
0.0
 40
1.5
100
AcDbArc
 50
180.0
 51
270.0
  0
ENDBLK
  5
55
330
53
100
AcDbEntity
  8
0
100
AcDbBlockEnd
  0
BLOCK
  5
57
330
56
100
AcDbEntity
  8
0
100
AcDbBlockBegin
  2
72-1
 70
     0
 10
244.2860206625269
 20
198.0539188298675
 30
0.0
  3
72-1
  1

  0
LINE
  5
23D
330
56
100
AcDbEntity
  8
1
  6
Continuous
 62
     7
100
AcDbLine
 10
148.3407763508523
 20
161.5940077036104
 30
0.0
 11
146.4648651867396
 21
161.5940077036104
 31
0.0
  0
LINE
  5
23E
330
56
100
AcDbEntity
  8
1
  6
Continuous
 62
     7
100
AcDbLine
 10
151.4648651867397
 20
166.1563180276619
 30
0.0
 11
151.4648651867397
 21
166.0940077036104
 31
0.0
  0
LINE
  5
23F
330
56
100
AcDbEntity
  8
0
  6
Continuous
 62
     7
100
AcDbLine
 10
146.4648651867396
 20
166.1563180276619
 30
0.0
 11
146.4648651867396
 21
166.5065310243976
 31
0.0
  0
LINE
  5
240
330
56
100
AcDbEntity
  8
1
  6
Continuous
 62
     7
100
AcDbLine
 10
69.48704563712369
 20
166.5940077036104
 30
0.0
 11
65.15579563712367
 21
166.5940077036104
 31
0.0
  0
LINE
  5
241
330
56
100
AcDbEntity
  8
1
  6
Continuous
 62
     7
100
AcDbLine
 10
73.8182956371237
 20
166.5940077036104
 30
0.0
 11
69.48704563712369
 21
166.5940077036104
 31
0.0
  0
LINE
  5
242
330
56
100
AcDbEntity
  8
0
  6
Continuous
 62
     7
100
AcDbLine
 10
146.4648651867396
 20
161.5940077036104
 30
0.0
 11
146.4648651867396
 21
166.1563180276619
 31
0.0
  0
LINE
  5
243
330
56
100
AcDbEntity
  8
1
  6
Continuous
 62
     7
100
AcDbLine
 10
151.4648651867397
 20
166.5940077036104
 30
0.0
 11
147.1336151867397
 21
166.5940077036104
 31
0.0
  0
LINE
  5
244
330
56
100
AcDbEntity
  8
1
  6
Continuous
 62
     7
100
AcDbLine
 10
156.4648651867397
 20
161.5940077036104
 30
0.0
 11
154.5889540226272
 21
161.5940077036104
 31
0.0
  0
LINE
  5
245
330
56
100
AcDbEntity
  8
0
  6
Continuous
 62
     7
100
AcDbLine
 10
156.4648651867397
 20
166.5065310243976
 30
0.0
 11
156.4648651867397
 21
161.5940077036104
 31
0.0
  0
LINE
  5
246
330
56
100
AcDbEntity
  8
1
  6
Continuous
 62
     7
100
AcDbLine
 10
66.5995456371237
 20
162.476969259646
 30
0.0
 11
66.5995456371237
 21
163.9940077036105
 31
0.0
  0
LINE
  5
247
330
56
100
AcDbEntity
  8
1
  6
Continuous
 62
     7
100
AcDbLine
 10
72.37454563712367
 20
163.9940077036105
 30
0.0
 11
72.37454563712367
 21
162.4769692596461
 31
0.0
  0
LINE
  5
248
330
56
100
AcDbEntity
  8
1
  6
Continuous
 62
     7
100
AcDbLine
 10
75.26204563712369
 20
163.9940077036105
 30
0.0
 11
75.26204563712369
 21
161.5940077036104
 31
0.0
  0
LINE
  5
249
330
56
100
AcDbEntity
  8
1
  6
Continuous
 62
     7
100
AcDbLine
 10
75.26204563712369
 20
166.1563180276619
 30
0.0
 11
75.26204563712369
 21
163.9940077036105
 31
0.0
  0
LINE
  5
24A
330
56
100
AcDbEntity
  8
1
  6
Continuous
 62
     7
100
AcDbLine
 10
72.37454563712367
 20
166.1563180276619
 30
0.0
 11
72.37454563712367
 21
163.9940077036105
 31
0.0
  0
LINE
  5
24B
330
56
100
AcDbEntity
  8
1
  6
Continuous
 62
     7
100
AcDbLine
 10
155.7961151867397
 20
166.5940077036104
 30
0.0
 11
151.4648651867397
 21
166.5940077036104
 31
0.0
  0
LINE
  5
24C
330
56
100
AcDbEntity
  8
1
  6
Continuous
 62
     7
100
AcDbLine
 10
63.71204563712368
 20
161.5940077036104
 30
0.0
 11
63.71204563712368
 21
163.9940077036105
 31
0.0
  0
LINE
  5
24D
330
56
100
AcDbEntity
  8
1
  6
Continuous
 62
     7
100
AcDbLine
 10
63.71204563712368
 20
163.9940077036105
 30
0.0
 11
63.71204563712368
 21
166.1563180276619
 31
0.0
  0
LINE
  5
24E
330
56
100
AcDbEntity
  8
1
  6
Continuous
 62
     7
100
AcDbLine
 10
66.5995456371237
 20
163.9940077036105
 30
0.0
 11
66.5995456371237
 21
166.1563180276619
 31
0.0
  0
LINE
  5
24F
330
56
100
AcDbEntity
  8
1
  6
Continuous
 62
     7
100
AcDbLine
 10
146.4648651867397
 20
218.6807590495596
 30
0.0
 11
146.4648651867397
 21
212.9072563576634
 31
0.0
  0
LINE
  5
250
330
56
100
AcDbEntity
  8
1
  6
Continuous
 62
     7
100
AcDbLine
 10
151.4648651867397
 20
221.5675103955077
 30
0.0
 11
146.4648651867397
 21
218.6807590495596
 31
0.0
  0
LINE
  5
251
330
56
100
AcDbEntity
  8
1
  6
Continuous
 62
     7
100
AcDbLine
 10
156.4648651867397
 20
218.6807590495596
 30
0.0
 11
151.4648651867397
 21
221.5675103955077
 31
0.0
  0
LINE
  5
252
330
56
100
AcDbEntity
  8
1
  6
Continuous
 62
     7
100
AcDbLine
 10
156.4648651867397
 20
212.9072563576634
 30
0.0
 11
156.4648651867397
 21
218.6807590495596
 31
0.0
  0
LINE
  5
253
330
56
100
AcDbEntity
  8
1
  6
Continuous
 62
     7
100
AcDbLine
 10
151.4648651867397
 20
210.0205050117152
 30
0.0
 11
156.4648651867397
 21
212.9072563576634
 31
0.0
  0
LINE
  5
254
330
56
100
AcDbEntity
  8
1
  6
Continuous
 62
     7
100
AcDbLine
 10
146.4648651867397
 20
212.9072563576634
 30
0.0
 11
151.4648651867397
 21
210.0205050117152
 31
0.0
  0
ARC
  5
255
330
56
100
AcDbEntity
  8
1
  6
Continuous
 62
     7
100
AcDbCircle
 10
153.9648651867397
 20
159.2354011309586
 30
0.0
 40
7.358606572651746
100
AcDbArc
 50
70.1390733354776
 51
109.8609266645224
  0
ARC
  5
256
330
56
100
AcDbEntity
  8
1
  6
Continuous
 62
     7
100
AcDbCircle
 10
148.9648651867397
 20
159.2354011309586
 30
0.0
 40
7.358606572651746
100
AcDbArc
 50
70.1390733354776
 51
109.8609266645232
  0
ARC
  5
257
330
56
100
AcDbEntity
  8
1
  6
Continuous
 62
     7
100
AcDbCircle
 10
65.15579563712367
 20
163.9940077036105
 30
0.0
 40
2.599999999999909
100
AcDbArc
 50
90.0
 51
104.9046688062285
  0
ARC
  5
258
330
56
100
AcDbEntity
  8
1
  6
Continuous
 62
     7
100
AcDbCircle
 10
147.1336151867397
 20
163.9940077036105
 30
0.0
 40
2.599999999999909
100
AcDbArc
 50
90.0
 51
104.9046688062291
  0
ARC
  5
259
330
56
100
AcDbEntity
  8
1
  6
Continuous
 62
     7
100
AcDbCircle
 10
73.8182956371237
 20
163.9940077036105
 30
0.0
 40
2.599999999999872
100
AcDbArc
 50
56.26941440711843
 51
123.7305855928821
  0
ARC
  5
25A
330
56
100
AcDbEntity
  8
1
  6
Continuous
 62
     7
100
AcDbCircle
 10
69.48704563712369
 20
156.8505422175331
 30
0.0
 40
9.743465486077241
100
AcDbArc
 50
72.76134526606378
 51
90.0
  0
ARC
  5
25B
330
56
100
AcDbEntity
  8
1
  6
Continuous
 62
     7
100
AcDbCircle
 10
155.7961151867397
 20
163.9940077036105
 30
0.0
 40
2.599999999999808
100
AcDbArc
 50
75.09533119377329
 51
90.0
  0
ARC
  5
25C
330
56
100
AcDbEntity
  8
1
  6
Continuous
 62
     7
100
AcDbCircle
 10
65.15579563712367
 20
163.9940077036105
 30
0.0
 40
2.599999999999888
100
AcDbArc
 50
56.26941440711791
 51
123.7305855928816
  0
ARC
  5
25D
330
56
100
AcDbEntity
  8
1
  6
Continuous
 62
     7
100
AcDbCircle
 10
69.48704563712369
 20
156.8505422175331
 30
0.0
 40
9.743465486077298
100
AcDbArc
 50
90.0
 51
107.2386547339362
  0
CIRCLE
  5
25E
330
56
100
AcDbEntity
  8
1
  6
Continuous
 62
     7
100
AcDbCircle
 10
151.4648651867397
 20
215.7940077036115
 30
0.0
 40
2.5
  0
CIRCLE
  5
25F
330
56
100
AcDbEntity
  8
1
  6
Continuous
 62
     2
100
AcDbCircle
 10
151.4648651867397
 20
215.7940077036115
 30
0.0
 40
3.0
  0
CIRCLE
  5
260
330
56
100
AcDbEntity
  8
1
  6
Continuous
 62
     7
100
AcDbCircle
 10
151.4648651867397
 20
215.7940077036115
 30
0.0
 40
5.0
  0
ENDBLK
  5
58
330
56
100
AcDbEntity
  8
0
100
AcDbBlockEnd
  0
BLOCK
  5
5A
330
59
100
AcDbEntity
  8
0
100
AcDbBlockBegin
  2
36-39-20
 70
     0
 10
186.4792211393508
 20
-97.79261419415198
 30
0.0
  3
36-39-20
  1

  0
LINE
  5
261
330
59
100
AcDbEntity
  8
1
  6
Continuous
 62
     7
100
AcDbLine
 10
155.4648651867397
 20
140.7940077036114
 30
0.0
 11
155.4648651867397
 21
152.0940077036104
 31
0.0
  0
LINE
  5
262
330
59
100
AcDbEntity
  8
1
  6
PHANTOM
 62
     4
100
AcDbLine
 10
155.4648651867397
 20
152.0940077036104
 30
0.0
 11
155.4648651867396
 21
159.4401076026995
 31
0.0
  0
LINE
  5
263
330
59
100
AcDbEntity
  8
1
  6
PHANTOM
 62
     4
100
AcDbLine
 10
154.4648651867397
 20
159.5940077036116
 30
0.0
 11
155.4648651867397
 21
159.5940077036116
 31
0.0
  0
LINE
  5
264
330
59
100
AcDbEntity
  8
1
  6
PHANTOM
 62
     4
100
AcDbLine
 10
155.4648651867397
 20
159.5940077036116
 30
0.0
 11
155.3090453146554
 21
152.0940077036115
 31
0.0
  0
LINE
  5
265
330
59
100
AcDbEntity
  8
1
  6
PHANTOM
 62
     4
100
AcDbLine
 10
152.5704325271297
 20
152.0940077036115
 30
0.0
 11
155.3090453146554
 21
152.0940077036115
 31
0.0
  0
LINE
  5
266
330
59
100
AcDbEntity
  8
1
  6
PHANTOM
 62
     4
100
AcDbLine
 10
152.5704325271297
 20
152.0940077036115
 30
0.0
 11
155.4648651867397
 21
159.5940077036116
 31
0.0
  0
LINE
  5
267
330
59
100
AcDbEntity
  8
1
  6
PHANTOM
 62
     4
100
AcDbLine
 10
155.3090453146554
 20
152.0940077036115
 30
0.0
 11
152.1140989808118
 21
159.5940077036115
 31
0.0
  0
LINE
  5
268
330
59
100
AcDbEntity
  8
0
  6
PHANTOM
 62
     4
100
AcDbLine
 10
147.4648651867396
 20
159.5940077036115
 30
0.0
 11
147.4648651867396
 21
152.0940077036115
 31
0.0
  0
LINE
  5
269
330
59
100
AcDbEntity
  8
1
  6
Continuous
 62
     7
100
AcDbLine
 10
72.02279702327158
 20
166.2582563174636
 30
0.0
 11
71.94604563712358
 21
166.3350077036114
 31
0.0
  0
LINE
  5
26A
330
59
100
AcDbEntity
  8
1
  6
PHANTOM
 62
     4
100
AcDbLine
 10
66.9512942509756
 20
166.2582563174635
 30
0.0
 11
66.4870456371236
 21
165.7940077036114
 31
0.0
  0
LINE
  5
26B
330
59
100
AcDbEntity
  8
1
  6
PHANTOM
 62
     4
100
AcDbLine
 10
72.4870456371236
 20
159.5940077036115
 30
0.0
 11
71.81889040039579
 21
159.5940077036115
 31
0.0
  0
LINE
  5
26C
330
59
100
AcDbEntity
  8
1
  6
PHANTOM
 62
     4
100
AcDbLine
 10
67.15520087385138
 20
159.5940077036115
 30
0.0
 11
66.4870456371236
 21
159.5940077036115
 31
0.0
  0
LINE
  5
26D
330
59
100
AcDbEntity
  8
1
  6
PHANTOM
 62
     4
100
AcDbLine
 10
71.42353731022737
 20
152.0940077036104
 30
0.0
 11
71.42353731022737
 21
152.0940077036115
 31
0.0
  0
LINE
  5
26E
330
59
100
AcDbEntity
  8
1
  6
PHANTOM
 62
     4
100
AcDbLine
 10
67.15520087385138
 20
159.5940077036115
 30
0.0
 11
71.42353731022737
 21
152.0940077036115
 31
0.0
  0
LINE
  5
26F
330
59
100
AcDbEntity
  8
1
  6
PHANTOM
 62
     4
100
AcDbLine
 10
67.55055396401988
 20
152.0940077036115
 30
0.0
 11
71.42353731022737
 21
152.0940077036115
 31
0.0
  0
LINE
  5
270
330
59
100
AcDbEntity
  8
1
  6
PHANTOM
 62
     4
100
AcDbLine
 10
71.81889040039579
 20
159.5940077036115
 30
0.0
 11
67.55055396401988
 21
152.0940077036115
 31
0.0
  0
LINE
  5
271
330
59
100
AcDbEntity
  8
1
  6
PHANTOM
 62
     4
100
AcDbLine
 10
65.4870456371236
 20
152.0940077036115
 30
0.0
 11
65.9870456371236
 21
152.0940077036115
 31
0.0
  0
LINE
  5
272
330
59
100
AcDbEntity
  8
1
  6
PHANTOM
 62
     4
100
AcDbLine
 10
65.9870456371236
 20
152.0940077036115
 30
0.0
 11
66.2370456371236
 21
159.5940077036115
 31
0.0
  0
LINE
  5
273
330
59
100
AcDbEntity
  8
1
  6
PHANTOM
 62
     4
100
AcDbLine
 10
67.55055396401988
 20
152.0940077036115
 30
0.0
 11
67.55055396401988
 21
152.0940077036104
 31
0.0
  0
LINE
  5
274
330
59
100
AcDbEntity
  8
1
  6
PHANTOM
 62
     4
100
AcDbLine
 10
66.4870456371236
 20
159.5940077036115
 30
0.0
 11
66.4870456371236
 21
160.5310471905063
 31
0.0
  0
LINE
  5
275
330
59
100
AcDbEntity
  8
1
  6
PHANTOM
 62
     4
100
AcDbLine
 10
66.4870456371236
 20
159.5940077036115
 30
0.0
 11
66.2370456371236
 21
159.5940077036115
 31
0.0
  0
LINE
  5
276
330
59
100
AcDbEntity
  8
1
  6
PHANTOM
 62
     4
100
AcDbLine
 10
67.15520087385138
 20
159.5940077036115
 30
0.0
 11
71.81889040039579
 21
159.5940077036115
 31
0.0
  0
LINE
  5
277
330
59
100
AcDbEntity
  8
1
  6
PHANTOM
 62
     4
100
AcDbLine
 10
67.55055396401988
 20
152.0940077036104
 30
0.0
 11
67.55055396401988
 21
152.0940077036115
 31
0.0
  0
LINE
  5
278
330
59
100
AcDbEntity
  8
1
  6
PHANTOM
 62
     4
100
AcDbLine
 10
66.4870456371236
 20
159.5940077036115
 30
0.0
 11
67.0280456371236
 21
160.5310471905063
 31
0.0
  0
LINE
  5
279
330
59
100
AcDbEntity
  8
1
  6
PHANTOM
 62
     4
100
AcDbLine
 10
66.4870456371236
 20
160.5310471905063
 30
0.0
 11
67.0280456371236
 21
160.5310471905063
 31
0.0
  0
LINE
  5
27A
330
59
100
AcDbEntity
  8
1
  6
PHANTOM
 62
     4
100
AcDbLine
 10
66.4870456371236
 20
160.5310471905063
 30
0.0
 11
66.4870456371236
 21
165.7940077036114
 31
0.0
  0
LINE
  5
27B
330
59
100
AcDbEntity
  8
1
  6
Continuous
 62
     7
100
AcDbLine
 10
69.4870456371236
 20
166.5940077036115
 30
0.0
 11
67.28704563712358
 21
166.5940077036115
 31
0.0
  0
LINE
  5
27C
330
59
100
AcDbEntity
  8
1
  6
Continuous
 62
     7
100
AcDbLine
 10
67.28704563712358
 20
166.5940077036115
 30
0.0
 11
67.0280456371236
 21
166.3350077036114
 31
0.0
  0
LINE
  5
27D
330
59
100
AcDbEntity
  8
1
  6
PHANTOM
 62
     4
100
AcDbLine
 10
67.0280456371236
 20
160.5310471905063
 30
0.0
 11
67.0280456371236
 21
166.3350077036114
 31
0.0
  0
LINE
  5
27E
330
59
100
AcDbEntity
  8
1
  6
PHANTOM
 62
     4
100
AcDbLine
 10
67.0280456371236
 20
160.5310471905063
 30
0.0
 11
71.94604563712358
 21
160.5310471905063
 31
0.0
  0
LINE
  5
27F
330
59
100
AcDbEntity
  8
1
  6
Continuous
 62
     7
100
AcDbLine
 10
67.0280456371236
 20
166.3350077036114
 30
0.0
 11
66.9512942509756
 21
166.2582563174635
 31
0.0
  0
LINE
  5
280
330
59
100
AcDbEntity
  8
1
  6
PHANTOM
 62
     4
100
AcDbLine
 10
66.4870456371236
 20
165.7940077036114
 30
0.0
 11
72.4870456371236
 21
165.7940077036114
 31
0.0
  0
LINE
  5
281
330
59
100
AcDbEntity
  8
1
  6
PHANTOM
 62
     4
100
AcDbLine
 10
72.4870456371236
 20
165.7940077036114
 30
0.0
 11
72.02279702327158
 21
166.2582563174636
 31
0.0
  0
LINE
  5
282
330
59
100
AcDbEntity
  8
1
  6
PHANTOM
 62
     4
100
AcDbLine
 10
71.94604563712358
 20
166.3350077036114
 30
0.0
 11
71.94604563712358
 21
160.5310471905063
 31
0.0
  0
LINE
  5
283
330
59
100
AcDbEntity
  8
1
  6
Continuous
 62
     7
100
AcDbLine
 10
71.94604563712358
 20
166.3350077036114
 30
0.0
 11
71.68704563712359
 21
166.5940077036115
 31
0.0
  0
LINE
  5
284
330
59
100
AcDbEntity
  8
1
  6
Continuous
 62
     7
100
AcDbLine
 10
71.68704563712359
 20
166.5940077036115
 30
0.0
 11
69.4870456371236
 21
166.5940077036115
 31
0.0
  0
LINE
  5
285
330
59
100
AcDbEntity
  8
1
  6
PHANTOM
 62
     4
100
AcDbLine
 10
72.4870456371236
 20
165.7940077036114
 30
0.0
 11
72.4870456371236
 21
160.5310471905063
 31
0.0
  0
LINE
  5
286
330
59
100
AcDbEntity
  8
1
  6
PHANTOM
 62
     4
100
AcDbLine
 10
71.94604563712358
 20
160.5310471905063
 30
0.0
 11
72.4870456371236
 21
160.5310471905063
 31
0.0
  0
LINE
  5
287
330
59
100
AcDbEntity
  8
1
  6
PHANTOM
 62
     4
100
AcDbLine
 10
71.94604563712358
 20
160.5310471905063
 30
0.0
 11
72.4870456371236
 21
159.5940077036115
 31
0.0
  0
LINE
  5
288
330
59
100
AcDbEntity
  8
1
  6
PHANTOM
 62
     4
100
AcDbLine
 10
71.42353731022737
 20
152.0940077036115
 30
0.0
 11
71.42353731022737
 21
152.0940077036104
 31
0.0
  0
LINE
  5
289
330
59
100
AcDbEntity
  8
1
  6
PHANTOM
 62
     4
100
AcDbLine
 10
72.7370456371236
 20
159.5940077036115
 30
0.0
 11
72.4870456371236
 21
159.5940077036115
 31
0.0
  0
LINE
  5
28A
330
59
100
AcDbEntity
  8
1
  6
PHANTOM
 62
     4
100
AcDbLine
 10
72.4870456371236
 20
160.5310471905063
 30
0.0
 11
72.4870456371236
 21
159.5940077036115
 31
0.0
  0
LINE
  5
28B
330
59
100
AcDbEntity
  8
1
  6
PHANTOM
 62
     4
100
AcDbLine
 10
72.7370456371236
 20
159.5940077036115
 30
0.0
 11
72.9870456371236
 21
152.0940077036115
 31
0.0
  0
LINE
  5
28C
330
59
100
AcDbEntity
  8
1
  6
PHANTOM
 62
     4
100
AcDbLine
 10
72.9870456371236
 20
152.0940077036115
 30
0.0
 11
73.4870456371236
 21
152.0940077036115
 31
0.0
  0
LINE
  5
28D
330
59
100
AcDbEntity
  8
1
  6
Continuous
 62
     7
100
AcDbLine
 10
65.4870456371236
 20
152.0940077036104
 30
0.0
 11
65.4870456371236
 21
140.7940077036114
 31
0.0
  0
LINE
  5
28E
330
59
100
AcDbEntity
  8
1
  6
Continuous
 62
     7
100
AcDbLine
 10
73.4870456371236
 20
140.7940077036114
 30
0.0
 11
73.4870456371236
 21
152.0940077036104
 31
0.0
  0
LINE
  5
28F
330
59
100
AcDbEntity
  8
1
  6
PHANTOM
 62
     4
100
AcDbLine
 10
154.4648651867397
 20
159.5940077036116
 30
0.0
 11
150.8156313926676
 21
159.5940077036115
 31
0.0
  0
LINE
  5
290
330
59
100
AcDbEntity
  8
1
  6
Continuous
 62
     7
100
AcDbLine
 10
150.3592978463497
 20
152.0940077036104
 30
0.0
 11
150.3592978463497
 21
152.0940077036115
 31
0.0
  0
LINE
  5
291
330
59
100
AcDbEntity
  8
1
  6
PHANTOM
 62
     4
100
AcDbLine
 10
147.4648651867396
 20
159.5940077036115
 30
0.0
 11
150.3592978463497
 21
152.0940077036115
 31
0.0
  0
LINE
  5
292
330
59
100
AcDbEntity
  8
1
  6
PHANTOM
 62
     4
100
AcDbLine
 10
147.6206850588239
 20
152.0940077036115
 30
0.0
 11
150.3592978463497
 21
152.0940077036115
 31
0.0
  0
LINE
  5
293
330
59
100
AcDbEntity
  8
1
  6
PHANTOM
 62
     4
100
AcDbLine
 10
150.8156313926676
 20
159.5940077036115
 30
0.0
 11
147.6206850588239
 21
152.0940077036115
 31
0.0
  0
LINE
  5
294
330
59
100
AcDbEntity
  8
1
  6
Continuous
 62
     7
100
AcDbLine
 10
147.4648651867396
 20
152.0940077036115
 30
0.0
 11
147.4648651867396
 21
140.7940077036114
 31
0.0
  0
LINE
  5
295
330
59
100
AcDbEntity
  8
1
  6
PHANTOM
 62
     4
100
AcDbLine
 10
147.6206850588239
 20
152.0940077036115
 30
0.0
 11
147.4648651867396
 21
159.5940077036115
 31
0.0
  0
LINE
  5
296
330
59
100
AcDbEntity
  8
1
  6
Continuous
 62
     7
100
AcDbLine
 10
149.528373513636
 20
152.0940077036115
 30
0.0
 11
149.528373513636
 21
152.0940077036115
 31
0.0
  0
LINE
  5
297
330
59
100
AcDbEntity
  8
1
  6
PHANTOM
 62
     4
100
AcDbLine
 10
148.4648651867396
 20
159.5940077036115
 30
0.0
 11
148.4648651867396
 21
160.5310471905063
 31
0.0
  0
LINE
  5
298
330
59
100
AcDbEntity
  8
1
  6
PHANTOM
 62
     4
100
AcDbLine
 10
147.4648651867396
 20
159.5940077036115
 30
0.0
 11
150.8156313926676
 21
159.5940077036115
 31
0.0
  0
LINE
  5
299
330
59
100
AcDbEntity
  8
1
  6
PHANTOM
 62
     4
100
AcDbLine
 10
148.4648651867396
 20
159.5940077036115
 30
0.0
 11
149.0058651867396
 21
160.5310471905063
 31
0.0
  0
LINE
  5
29A
330
59
100
AcDbEntity
  8
1
  6
PHANTOM
 62
     4
100
AcDbLine
 10
148.4648651867396
 20
160.5310471905063
 30
0.0
 11
149.0058651867396
 21
160.5310471905063
 31
0.0
  0
LINE
  5
29B
330
59
100
AcDbEntity
  8
1
  6
PHANTOM
 62
     4
100
AcDbLine
 10
148.4648651867396
 20
160.5310471905063
 30
0.0
 11
148.4648651867396
 21
165.7940077036114
 31
0.0
  0
LINE
  5
29C
330
59
100
AcDbEntity
  8
1
  6
PHANTOM
 62
     4
100
AcDbLine
 10
151.4648651867396
 20
166.5940077036115
 30
0.0
 11
149.2648651867397
 21
166.5940077036115
 31
0.0
  0
LINE
  5
29D
330
59
100
AcDbEntity
  8
1
  6
PHANTOM
 62
     4
100
AcDbLine
 10
149.2648651867397
 20
166.5940077036115
 30
0.0
 11
149.0058651867396
 21
166.3350077036114
 31
0.0
  0
LINE
  5
29E
330
59
100
AcDbEntity
  8
1
  6
PHANTOM
 62
     4
100
AcDbLine
 10
149.0058651867396
 20
160.5310471905063
 30
0.0
 11
149.0058651867396
 21
166.3350077036114
 31
0.0
  0
LINE
  5
29F
330
59
100
AcDbEntity
  8
1
  6
PHANTOM
 62
     4
100
AcDbLine
 10
149.0058651867396
 20
160.5310471905063
 30
0.0
 11
153.9238651867397
 21
160.5310471905063
 31
0.0
  0
LINE
  5
2A0
330
59
100
AcDbEntity
  8
1
  6
PHANTOM
 62
     4
100
AcDbLine
 10
149.0058651867396
 20
166.3350077036114
 30
0.0
 11
148.4648651867396
 21
165.7940077036114
 31
0.0
  0
LINE
  5
2A1
330
59
100
AcDbEntity
  8
1
  6
PHANTOM
 62
     4
100
AcDbLine
 10
148.4648651867396
 20
165.7940077036114
 30
0.0
 11
154.4648651867396
 21
165.7940077036114
 31
0.0
  0
LINE
  5
2A2
330
59
100
AcDbEntity
  8
1
  6
PHANTOM
 62
     4
100
AcDbLine
 10
154.4648651867396
 20
165.7940077036114
 30
0.0
 11
153.9238651867397
 21
166.3350077036114
 31
0.0
  0
LINE
  5
2A3
330
59
100
AcDbEntity
  8
1
  6
PHANTOM
 62
     4
100
AcDbLine
 10
153.9238651867397
 20
166.3350077036114
 30
0.0
 11
153.9238651867397
 21
160.5310471905063
 31
0.0
  0
LINE
  5
2A4
330
59
100
AcDbEntity
  8
1
  6
PHANTOM
 62
     4
100
AcDbLine
 10
153.9238651867397
 20
166.3350077036114
 30
0.0
 11
153.6648651867397
 21
166.5940077036115
 31
0.0
  0
LINE
  5
2A5
330
59
100
AcDbEntity
  8
1
  6
PHANTOM
 62
     4
100
AcDbLine
 10
153.6648651867397
 20
166.5940077036115
 30
0.0
 11
151.4648651867396
 21
166.5940077036115
 31
0.0
  0
LINE
  5
2A6
330
59
100
AcDbEntity
  8
1
  6
PHANTOM
 62
     4
100
AcDbLine
 10
154.4648651867396
 20
165.7940077036114
 30
0.0
 11
154.4648651867396
 21
160.5310471905063
 31
0.0
  0
LINE
  5
2A7
330
59
100
AcDbEntity
  8
1
  6
PHANTOM
 62
     4
100
AcDbLine
 10
153.9238651867397
 20
160.5310471905063
 30
0.0
 11
154.4648651867396
 21
160.5310471905063
 31
0.0
  0
LINE
  5
2A8
330
59
100
AcDbEntity
  8
1
  6
PHANTOM
 62
     4
100
AcDbLine
 10
153.9238651867397
 20
160.5310471905063
 30
0.0
 11
154.4648651867397
 21
159.5940077036116
 31
0.0
  0
LINE
  5
2A9
330
59
100
AcDbEntity
  8
1
  6
Continuous
 62
     7
100
AcDbLine
 10
150.3592978463497
 20
152.0940077036115
 30
0.0
 11
150.3592978463497
 21
152.0940077036104
 31
0.0
  0
LINE
  5
2AA
330
59
100
AcDbEntity
  8
1
  6
PHANTOM
 62
     4
100
AcDbLine
 10
154.4648651867396
 20
160.5310471905063
 30
0.0
 11
154.4648651867397
 21
159.5940077036116
 31
0.0
  0
ARC
  5
2AB
330
59
100
AcDbEntity
  8
1
  6
PHANTOM
 62
     4
100
AcDbCircle
 10
704.157895116513
 20
189.4189387783629
 30
0.0
 40
552.84887570251
100
AcDbArc
 50
183.092477397306
 51
183.8712007761929
  0
ARC
  5
2AC
330
59
100
AcDbEntity
  8
1
  6
PHANTOM
 62
     4
100
AcDbCircle
 10
619.168506781477
 20
184.9322762731783
 30
0.0
 40
552.5945328657979
100
AcDbArc
 50
182.6281205779632
 51
183.4068439568501
  0
ARC
  5
2AD
330
59
100
AcDbEntity
  8
1
  6
PHANTOM
 62
     4
100
AcDbCircle
 10
-480.1944155072299
 20
184.9322762731781
 30
0.0
 40
552.5945328657981
100
AcDbArc
 50
356.5931560431499
 51
357.3718794220368
  0
ARC
  5
2AE
330
59
100
AcDbEntity
  8
1
  6
PHANTOM
 62
     4
100
AcDbCircle
 10
-401.2281647430336
 20
189.4189387783629
 30
0.0
 40
552.84887570251
100
AcDbArc
 50
356.1287992238072
 51
356.907522602694
  0
ENDBLK
  5
5B
330
59
100
AcDbEntity
  8
0
100
AcDbBlockEnd
  0
BLOCK
  5
5D
330
5C
100
AcDbEntity
  8
0
100
AcDbBlockBegin
  2
31-26-20
 70
     0
 10
339.284746073264
 20
101.387391873622
 30
0.0
  3
31-26-20
  1

  0
LINE
  5
2AF
330
5C
100
AcDbEntity
  8
1
  6
Continuous
 62
     7
100
AcDbLine
 10
58.11183733133868
 20
97.09400770361151
 30
0.0
 11
80.86225394290858
 21
97.09400770361151
 31
0.0
  0
LINE
  5
2B0
330
5C
100
AcDbEntity
  8
1
  6
Continuous
 62
     7
100
AcDbLine
 10
59.3309950267732
 20
99.59400770361151
 30
0.0
 11
79.64309624747409
 21
99.59400770361151
 31
0.0
  0
LINE
  5
2B1
330
5C
100
AcDbEntity
  8
1
  6
Continuous
 62
     7
100
AcDbLine
 10
63.55869308350469
 20
103.5940077036115
 30
0.0
 11
75.4153981907426
 21
103.5940077036115
 31
0.0
  0
ENDBLK
  5
5E
330
5C
100
AcDbEntity
  8
0
100
AcDbBlockEnd
  0
BLOCK
  5
60
330
5F
100
AcDbEntity
  8
0
100
AcDbBlockBegin
  2
V30-0-20
 70
     0
 10
383.3726158957494
 20
218.4530723469947
 30
0.0
  3
V30-0-20
  1

  0
LINE
  5
2B2
330
5F
100
AcDbEntity
  8
0
  6
Continuous
 62
     7
100
AcDbLine
 10
124.9648651867398
 20
78.09400770361123
 30
0.0
 11
126.9712778155619
 21
74.61879908954353
 31
0.0
  0
LINE
  5
2B3
330
5F
100
AcDbEntity
  8
0
  6
Continuous
 62
     7
100
AcDbLine
 10
126.9712778155619
 20
111.5692163176792
 30
0.0
 11
124.9648651867398
 21
108.0940077036115
 31
0.0
  0
LINE
  5
2B4
330
5F
100
AcDbEntity
  8
0
  6
Continuous
 62
     7
100
AcDbLine
 10
175.9584525579175
 20
74.61879908954353
 30
0.0
 11
177.9648651867395
 21
78.09400770361128
 31
0.0
  0
LINE
  5
2B5
330
5F
100
AcDbEntity
  8
0
  6
Continuous
 62
     7
100
AcDbLine
 10
175.9584525579175
 20
111.5692163176792
 30
0.0
 11
167.9648651867394
 21
111.5692163176793
 31
0.0
  0
LINE
  5
2B6
330
5F
100
AcDbEntity
  8
0
  6
Continuous
 62
     7
100
AcDbLine
 10
177.9648651867396
 20
108.0940077036115
 30
0.0
 11
175.9584525579175
 21
111.5692163176792
 31
0.0
  0
LINE
  5
2B7
330
5F
100
AcDbEntity
  8
1
  6
Continuous
 62
     7
100
AcDbLine
 10
126.9712778155621
 20
83.85640339657743
 30
0.0
 11
134.9648651867399
 21
83.85640339657743
 31
0.0
  0
LINE
  5
2B8
330
5F
100
AcDbEntity
  8
1
  6
Continuous
 62
     7
100
AcDbLine
 10
126.9712778155621
 20
102.3316120106456
 30
0.0
 11
134.9648651867399
 21
102.3316120106456
 31
0.0
  0
LINE
  5
2B9
330
5F
100
AcDbEntity
  8
0
  6
Continuous
 62
     7
100
AcDbLine
 10
177.9648651867396
 20
79.87350770361172
 30
0.0
 11
177.9648651867394
 21
93.09400770361162
 31
0.0
  0
LINE
  5
2BA
330
5F
100
AcDbEntity
  8
1
  6
Continuous
 62
     7
100
AcDbLine
 10
167.9648651867394
 20
83.85640339657743
 30
0.0
 11
175.9584525579173
 21
83.85640339657743
 31
0.0
  0
LINE
  5
2BB
330
5F
100
AcDbEntity
  8
0
  6
Continuous
 62
     7
100
AcDbLine
 10
177.9648651867394
 20
93.09400770361162
 30
0.0
 11
177.9648651867396
 21
108.0940077036115
 31
0.0
  0
LINE
  5
2BC
330
5F
100
AcDbEntity
  8
1
  6
Continuous
 62
     7
100
AcDbLine
 10
167.9648651867394
 20
102.3316120106456
 30
0.0
 11
175.9584525579173
 21
102.3316120106456
 31
0.0
  0
LINE
  5
2BD
330
5F
100
AcDbEntity
  8
1
  6
Continuous
 62
     7
100
AcDbLine
 10
137.9648651867397
 20
111.5940077036116
 30
0.0
 11
164.9648651867396
 21
111.5940077036116
 31
0.0
  0
LINE
  5
2BE
330
5F
100
AcDbEntity
  8
1
  6
Continuous
 62
     7
100
AcDbLine
 10
57.59606737627399
 20
95.09400770361162
 30
0.0
 11
81.37802389797318
 21
95.09400770361162
 31
0.0
  0
LINE
  5
2BF
330
5F
100
AcDbEntity
  8
0
  6
Continuous
 62
     7
100
AcDbLine
 10
167.9648651867394
 20
74.61879908954359
 30
0.0
 11
167.4251594135383
 21
76.10162851456369
 31
0.0
  0
LINE
  5
2C0
330
5F
100
AcDbEntity
  8
0
  6
Continuous
 62
     7
100
AcDbLine
 10
135.504570959941
 20
76.10162851456369
 30
0.0
 11
135.0601843674416
 21
74.88068638616278
 31
0.0
  0
LINE
  5
2C1
330
5F
100
AcDbEntity
  8
0
  6
Continuous
 62
     7
100
AcDbLine
 10
134.9648651867397
 20
111.5692163176793
 30
0.0
 11
135.8082674804165
 21
109.2519875602858
 31
0.0
  0
LINE
  5
2C2
330
5F
100
AcDbEntity
  8
0
  6
Continuous
 62
     7
100
AcDbLine
 10
124.9648651867397
 20
93.09400770361162
 30
0.0
 11
124.9648651867401
 21
80.03600770361129
 31
0.0
  0
LINE
  5
2C3
330
5F
100
AcDbEntity
  8
0
  6
Continuous
 62
     7
100
AcDbLine
 10
126.9712778155619
 20
74.61879908954353
 30
0.0
 11
134.9648651867397
 21
74.61879908954359
 31
0.0
  0
LINE
  5
2C4
330
5F
100
AcDbEntity
  8
0
  6
Continuous
 62
     7
100
AcDbLine
 10
177.9648651867395
 20
78.09400770361128
 30
0.0
 11
177.9648651867396
 21
79.87350770361172
 31
0.0
  0
LINE
  5
2C5
330
5F
100
AcDbEntity
  8
0
  6
Continuous
 62
     7
100
AcDbLine
 10
167.9648651867394
 20
74.61879908954359
 30
0.0
 11
175.9584525579175
 21
74.61879908954353
 31
0.0
  0
LINE
  5
2C6
330
5F
100
AcDbEntity
  8
0
  6
Continuous
 62
     7
100
AcDbLine
 10
124.9648651867398
 20
108.0940077036115
 30
0.0
 11
124.9648651867398
 21
106.3145077036115
 31
0.0
  0
LINE
  5
2C7
330
5F
100
AcDbEntity
  8
0
  6
Continuous
 62
     7
100
AcDbLine
 10
134.9648651867397
 20
111.5692163176793
 30
0.0
 11
126.9712778155619
 21
111.5692163176792
 31
0.0
  0
LINE
  5
2C8
330
5F
100
AcDbEntity
  8
0
  6
Continuous
 62
     7
100
AcDbLine
 10
137.9648651867397
 20
111.5940077036116
 30
0.0
 11
137.9648651867397
 21
114.5940077036116
 31
0.0
  0
LINE
  5
2C9
330
5F
100
AcDbEntity
  8
0
  6
Continuous
 62
     7
100
AcDbLine
 10
137.9648651867397
 20
114.5940077036116
 30
0.0
 11
141.4648651867397
 21
114.5940077036116
 31
0.0
  0
LINE
  5
2CA
330
5F
100
AcDbEntity
  8
0
  6
Continuous
 62
     7
100
AcDbLine
 10
164.9648651867397
 20
114.5940077036116
 30
0.0
 11
164.9648651867396
 21
111.5940077036116
 31
0.0
  0
LINE
  5
2CB
330
5F
100
AcDbEntity
  8
1
  6
Continuous
 62
     7
100
AcDbLine
 10
53.48704563712369
 20
83.85640339657743
 30
0.0
 11
53.48704563712369
 21
102.3316120106456
 31
0.0
  0
LINE
  5
2CC
330
5F
100
AcDbEntity
  8
1
  6
Continuous
 62
     7
100
AcDbLine
 10
69.48704563712369
 20
74.61879908954359
 30
0.0
 11
53.48704563712369
 21
83.85640339657743
 31
0.0
  0
LINE
  5
2CD
330
5F
100
AcDbEntity
  8
1
  6
Continuous
 62
     7
100
AcDbLine
 10
85.4870456371236
 20
83.85640339657743
 30
0.0
 11
69.48704563712369
 21
74.61879908954359
 31
0.0
  0
LINE
  5
2CE
330
5F
100
AcDbEntity
  8
1
  6
Continuous
 62
     7
100
AcDbLine
 10
85.4870456371236
 20
102.3316120106456
 30
0.0
 11
85.4870456371236
 21
83.85640339657743
 31
0.0
  0
LINE
  5
2CF
330
5F
100
AcDbEntity
  8
1
  6
Continuous
 62
     7
100
AcDbLine
 10
69.4870456371236
 20
111.5692163176793
 30
0.0
 11
85.4870456371236
 21
102.3316120106456
 31
0.0
  0
LINE
  5
2D0
330
5F
100
AcDbEntity
  8
1
  6
Continuous
 62
     7
100
AcDbLine
 10
53.48704563712369
 20
102.3316120106456
 30
0.0
 11
69.4870456371236
 21
111.5692163176793
 31
0.0
  0
LINE
  5
2D1
330
5F
100
AcDbEntity
  8
1
  6
Continuous
 62
     7
100
AcDbLine
 10
82.9870456371236
 20
114.5940077036116
 30
0.0
 11
55.98704563712369
 21
114.5940077036116
 31
0.0
  0
LINE
  5
2D2
330
5F
100
AcDbEntity
  8
1
  6
Continuous
 62
     7
100
AcDbLine
 10
55.98704563712369
 20
114.5940077036116
 30
0.0
 11
55.98704563712369
 21
111.5940077036116
 31
0.0
  0
LINE
  5
2D3
330
5F
100
AcDbEntity
  8
1
  6
Continuous
 62
     7
100
AcDbLine
 10
55.98704563712369
 20
111.5940077036116
 30
0.0
 11
82.9870456371236
 21
111.5940077036116
 31
0.0
  0
LINE
  5
2D4
330
5F
100
AcDbEntity
  8
1
  6
Continuous
 62
     7
100
AcDbLine
 10
82.9870456371236
 20
111.5940077036116
 30
0.0
 11
82.9870456371236
 21
114.5940077036116
 31
0.0
  0
LINE
  5
2D5
330
5F
100
AcDbEntity
  8
1
  6
Continuous
 62
     7
100
AcDbLine
 10
138.9648651867397
 20
108.5940077036116
 30
0.0
 11
136.7479601012024
 21
108.5940077036116
 31
0.0
  0
LINE
  5
2D6
330
5F
100
AcDbEntity
  8
0
  6
Continuous
 62
     7
100
AcDbLine
 10
167.1214628930629
 20
109.2519875602858
 30
0.0
 11
167.9648651867394
 21
111.5692163176793
 31
0.0
  0
LINE
  5
2D7
330
5F
100
AcDbEntity
  8
1
  6
Continuous
 62
     7
100
AcDbLine
 10
166.181770272277
 20
108.5940077036116
 30
0.0
 11
163.9648651867397
 21
108.5940077036116
 31
0.0
  0
LINE
  5
2D8
330
5F
100
AcDbEntity
  8
0
  6
Continuous
 62
     7
100
AcDbLine
 10
135.0601843674416
 20
74.88068638616278
 30
0.0
 11
134.9648651867397
 21
74.61879908954359
 31
0.0
  0
LINE
  5
2D9
330
5F
100
AcDbEntity
  8
0
  6
Continuous
 62
     7
100
AcDbLine
 10
135.0601843674416
 20
74.88068638616278
 30
0.0
 11
134.9648651867397
 21
74.61879908954359
 31
0.0
  0
LINE
  5
2DA
330
5F
100
AcDbEntity
  8
0
  6
Continuous
 62
     7
100
AcDbLine
 10
141.4648651867397
 20
114.5940077036116
 30
0.0
 11
164.9648651867397
 21
114.5940077036116
 31
0.0
  0
LINE
  5
2DB
330
5F
100
AcDbEntity
  8
0
  6
Continuous
 62
     7
100
AcDbLine
 10
124.9648651867398
 20
79.87350770361172
 30
0.0
 11
124.9648651867398
 21
78.09400770361123
 31
0.0
  0
LINE
  5
2DC
330
5F
100
AcDbEntity
  8
0
  6
Continuous
 62
     7
100
AcDbLine
 10
124.9648651867401
 20
80.03600770361129
 30
0.0
 11
124.9648651867398
 21
79.87350770361172
 31
0.0
  0
LINE
  5
2DD
330
5F
100
AcDbEntity
  8
0
  6
Continuous
 62
     7
100
AcDbLine
 10
124.9648651867401
 20
106.1520077036118
 30
0.0
 11
124.9648651867397
 21
93.09400770361162
 31
0.0
  0
LINE
  5
2DE
330
5F
100
AcDbEntity
  8
1
  6
Continuous
 62
     7
100
AcDbLine
 10
124.9648651867398
 20
106.3145077036115
 30
0.0
 11
124.9648651867401
 21
106.1520077036118
 31
0.0
  0
LINE
  5
2DF
330
5F
100
AcDbEntity
  8
0
  6
Continuous
 62
     7
100
AcDbLine
 10
124.9648651867397
 20
230.7940077036117
 30
0.0
 11
124.9648651867399
 21
200.7940077036114
 31
0.0
  0
LINE
  5
2E0
330
5F
100
AcDbEntity
  8
1
  6
Continuous
 62
     7
100
AcDbLine
 10
177.3875149175501
 20
231.7940077036115
 30
0.0
 11
177.9648651867395
 21
230.7940077036117
 31
0.0
  0
LINE
  5
2E1
330
5F
100
AcDbEntity
  8
1
  6
Continuous
 62
     7
100
AcDbLine
 10
177.3875149175499
 20
199.7940077036116
 30
0.0
 11
177.9648651867395
 21
200.7940077036114
 31
0.0
  0
LINE
  5
2E2
330
5F
100
AcDbEntity
  8
1
  6
Continuous
 62
     7
100
AcDbLine
 10
175.9584525579173
 20
215.7940077036115
 30
0.0
 11
166.8255187555977
 21
215.7940077036115
 31
0.0
  0
LINE
  5
2E3
330
5F
100
AcDbEntity
  8
1
  6
PHANTOM
 62
     4
100
AcDbLine
 10
151.4648651867397
 20
237.2692163176797
 30
0.0
 11
151.4648651867397
 21
194.3187990895436
 31
0.0
  0
LINE
  5
2E4
330
5F
100
AcDbEntity
  8
0
  6
Continuous
 62
     7
100
AcDbLine
 10
177.9648651867395
 20
200.7940077036114
 30
0.0
 11
177.9648651867395
 21
230.7940077036117
 31
0.0
  0
LINE
  5
2E5
330
5F
100
AcDbEntity
  8
1
  6
Continuous
 62
     7
100
AcDbLine
 10
175.9584525579173
 20
231.7940077036115
 30
0.0
 11
177.3875149175501
 21
231.7940077036115
 31
0.0
  0
LINE
  5
2E6
330
5F
100
AcDbEntity
  8
1
  6
PHANTOM
 62
     4
100
AcDbLine
 10
121.9648651867397
 20
215.7940077036115
 30
0.0
 11
180.9648651867395
 21
215.7940077036115
 31
0.0
  0
LINE
  5
2E7
330
5F
100
AcDbEntity
  8
1
  6
Continuous
 62
     7
100
AcDbLine
 10
175.9584525579173
 20
199.7940077036116
 30
0.0
 11
177.3875149175499
 21
199.7940077036116
 31
0.0
  0
LINE
  5
2E8
330
5F
100
AcDbEntity
  8
0
  6
Continuous
 62
     7
100
AcDbLine
 10
124.9648651867397
 20
230.7940077036117
 30
0.0
 11
124.9648651867399
 21
200.7940077036114
 31
0.0
  0
LINE
  5
2E9
330
5F
100
AcDbEntity
  8
1
  6
Continuous
 62
     7
100
AcDbLine
 10
125.5422154559295
 20
199.7940077036116
 30
0.0
 11
126.971277815562
 21
199.7940077036116
 31
0.0
  0
LINE
  5
2EA
330
5F
100
AcDbEntity
  8
1
  6
Continuous
 62
     7
100
AcDbLine
 10
125.5422154559294
 20
231.7940077036115
 30
0.0
 11
126.971277815562
 21
231.7940077036115
 31
0.0
  0
LINE
  5
2EB
330
5F
100
AcDbEntity
  8
1
  6
Continuous
 62
     7
100
AcDbLine
 10
124.9648651867397
 20
230.7940077036117
 30
0.0
 11
125.5422154559294
 21
231.7940077036115
 31
0.0
  0
LINE
  5
2EC
330
5F
100
AcDbEntity
  8
1
  6
Continuous
 62
     7
100
AcDbLine
 10
124.9648651867399
 20
200.7940077036114
 30
0.0
 11
125.5422154559295
 21
199.7940077036116
 31
0.0
  0
LINE
  5
2ED
330
5F
100
AcDbEntity
  8
1
  6
Continuous
 62
     7
100
AcDbLine
 10
126.971277815562
 20
231.7940077036115
 30
0.0
 11
130.934751304677
 21
231.7940077036115
 31
0.0
  0
LINE
  5
2EE
330
5F
100
AcDbEntity
  8
1
  6
Continuous
 62
     7
100
AcDbLine
 10
126.971277815562
 20
199.7940077036116
 30
0.0
 11
130.934751304676
 21
199.7940077036116
 31
0.0
  0
LINE
  5
2EF
330
5F
100
AcDbEntity
  8
1
  6
Continuous
 62
     7
100
AcDbLine
 10
171.9949790688034
 20
231.7940077036115
 30
0.0
 11
175.9584525579173
 21
231.7940077036115
 31
0.0
  0
LINE
  5
2F0
330
5F
100
AcDbEntity
  8
1
  6
Continuous
 62
     7
100
AcDbLine
 10
171.9949790688032
 20
199.7940077036116
 30
0.0
 11
175.9584525579173
 21
199.7940077036116
 31
0.0
  0
LINE
  5
2F1
330
5F
100
AcDbEntity
  8
1
  6
Continuous
 62
     7
100
AcDbLine
 10
166.8255187555977
 20
213.2940077036115
 30
0.0
 11
166.8255187555977
 21
203.9688880406866
 31
0.0
  0
LINE
  5
2F2
330
5F
100
AcDbEntity
  8
1
  6
Continuous
 62
     7
100
AcDbLine
 10
166.8255187555977
 20
227.6191273665364
 30
0.0
 11
166.8255187555977
 21
218.2940077036115
 31
0.0
  0
LINE
  5
2F3
330
5F
100
AcDbEntity
  8
1
  6
Continuous
 62
     7
100
AcDbLine
 10
136.1042116178817
 20
203.968888040686
 30
0.0
 11
136.1042116178817
 21
213.2940077036115
 31
0.0
  0
LINE
  5
2F4
330
5F
100
AcDbEntity
  8
1
  6
Continuous
 62
     7
100
AcDbLine
 10
136.1042116178817
 20
218.2940077036115
 30
0.0
 11
136.1042116178817
 21
227.619127366537
 31
0.0
  0
ARC
  5
2F5
330
5F
100
AcDbEntity
  8
1
  6
Continuous
 62
     7
100
AcDbCircle
 10
133.9147810508819
 20
79.23760124306048
 30
0.0
 40
8.339398690087284
100
AcDbArc
 50
146.3682417788576
 51
213.6317582211417
  0
ARC
  5
2F6
330
5F
100
AcDbEntity
  8
1
  6
Continuous
 62
     7
100
AcDbCircle
 10
156.8391339389937
 20
93.09400770361151
 30
0.0
 40
31.26375157819908
100
AcDbArc
 50
162.8140784475945
 51
197.1859215524055
  0
ARC
  5
2F7
330
5F
100
AcDbEntity
  8
1
  6
Continuous
 62
     7
100
AcDbCircle
 10
133.9147810508819
 20
106.9504141641625
 30
0.0
 40
8.339398690087314
100
AcDbArc
 50
146.3682417788597
 51
213.6317582211421
  0
ARC
  5
2F8
330
5F
100
AcDbEntity
  8
1
  6
Continuous
 62
     7
100
AcDbCircle
 10
169.0149493225975
 20
106.9504141641625
 30
0.0
 40
8.339398690087252
100
AcDbArc
 50
326.3682417788579
 51
33.6317582211403
  0
ARC
  5
2F9
330
5F
100
AcDbEntity
  8
1
  6
Continuous
 62
     7
100
AcDbCircle
 10
146.0905964344857
 20
93.09400770361151
 30
0.0
 40
31.26375157819908
100
AcDbArc
 50
342.8140784475945
 51
17.18592155240554
  0
ARC
  5
2FA
330
5F
100
AcDbEntity
  8
1
  6
Continuous
 62
     7
100
AcDbCircle
 10
169.0149493225975
 20
79.23760124306048
 30
0.0
 40
8.33939869008745
100
AcDbArc
 50
326.3682417788583
 51
33.63175822114244
  0
ARC
  5
2FB
330
5F
100
AcDbEntity
  8
1
  6
Continuous
 62
     7
100
AcDbCircle
 10
342.106585840167
 20
93.20024455879462
 30
0.0
 40
176.7022200422928
100
AcDbArc
 50
175.3251345927694
 51
184.6748654072306
  0
ARC
  5
2FC
330
5F
100
AcDbEntity
  8
1
  6
Continuous
 62
     7
100
AcDbCircle
 10
-39.17685546668753
 20
93.20024455879462
 30
0.0
 40
176.7022200422927
100
AcDbArc
 50
355.3251345927694
 51
4.67486540723061
  0
ARC
  5
2FD
330
5F
100
AcDbEntity
  8
1
  6
Continuous
 62
     7
100
AcDbCircle
 10
122.7393791648449
 20
79.23760124306062
 30
0.0
 40
13.0688883155714
100
AcDbArc
 50
339.3033795444087
 51
20.69662045559005
  0
ARC
  5
2FE
330
5F
100
AcDbEntity
  8
1
  6
Continuous
 62
     7
100
AcDbCircle
 10
84.79781765864308
 20
93.09400770361162
 30
0.0
 40
51.01044982177339
100
AcDbArc
 50
349.5666050689284
 51
10.4333949310714
  0
ARC
  5
2FF
330
5F
100
AcDbEntity
  8
1
  6
Continuous
 62
     7
100
AcDbCircle
 10
122.7393791648449
 20
106.9504141641623
 30
0.0
 40
13.06888831557147
100
AcDbArc
 50
339.3033795444105
 51
20.69662045559117
  0
ARC
  5
300
330
5F
100
AcDbEntity
  8
1
  6
Continuous
 62
     7
100
AcDbCircle
 10
218.1319127148363
 20
93.09400770361162
 30
0.0
 40
51.01044982177344
100
AcDbArc
 50
169.5666050689286
 51
190.4333949310716
  0
ARC
  5
301
330
5F
100
AcDbEntity
  8
1
  6
Continuous
 62
     7
100
AcDbCircle
 10
180.1903512086345
 20
79.23760124306062
 30
0.0
 40
13.06888831557161
100
AcDbArc
 50
159.3033795444101
 51
200.6966204555908
  0
ARC
  5
302
330
5F
100
AcDbEntity
  8
1
  6
Continuous
 62
     7
100
AcDbCircle
 10
180.1903512086345
 20
106.9504141641623
 30
0.0
 40
13.06888831557168
100
AcDbArc
 50
159.3033795444093
 51
200.6966204555894
  0
ARC
  5
303
330
5F
100
AcDbEntity
  8
1
  6
Continuous
 62
     7
100
AcDbCircle
 10
69.48704563712369
 20
93.09400770361162
 30
0.0
 40
12.058
100
AcDbArc
 50
170.4525130653824
 51
9.54748693461773
  0
ARC
  5
304
330
5F
100
AcDbEntity
  8
1
  6
Continuous
 62
     7
100
AcDbCircle
 10
69.48704563712369
 20
93.09400770361162
 30
0.0
 40
12.0579999999998
100
AcDbArc
 50
9.54748693461773
 51
170.4525130653824
  0
ARC
  5
305
330
5F
100
AcDbEntity
  8
1
  6
Continuous
 62
     7
100
AcDbCircle
 10
55.1612029309953
 20
108.8915327593219
 30
0.0
 40
2.825842706128391
100
AcDbArc
 50
0.0
 51
73.00749993796285
  0
ARC
  5
306
330
5F
100
AcDbEntity
  8
1
  6
Continuous
 62
     7
100
AcDbCircle
 10
55.1612029309953
 20
108.8915327593219
 30
0.0
 40
2.825842706128467
100
AcDbArc
 50
312.2030286497164
 51
0.0
  0
ARC
  5
307
330
5F
100
AcDbEntity
  8
1
  6
Continuous
 62
     7
100
AcDbCircle
 10
69.48704563712369
 20
93.09400770361162
 30
0.0
 40
18.49999999999984
100
AcDbArc
 50
132.203028649719
 51
47.79697135028127
  0
ARC
  5
308
330
5F
100
AcDbEntity
  8
1
  6
Continuous
 62
     7
100
AcDbCircle
 10
83.81288834325198
 20
108.8915327593219
 30
0.0
 40
2.825842706128389
100
AcDbArc
 50
106.992500062037
 51
180.0
  0
ARC
  5
309
330
5F
100
AcDbEntity
  8
1
  6
Continuous
 62
     7
100
AcDbCircle
 10
83.81288834325198
 20
108.8915327593219
 30
0.0
 40
2.825842706128384
100
AcDbArc
 50
180.0
 51
227.7969713502831
  0
ARC
  5
30A
330
5F
100
AcDbEntity
  8
1
  6
Continuous
 62
     7
100
AcDbCircle
 10
137.9648651867397
 20
109.5940077036116
 30
0.0
 40
2.0
100
AcDbArc
 50
0.0
 51
90.0
  0
ARC
  5
30B
330
5F
100
AcDbEntity
  8
1
  6
Continuous
 62
     7
100
AcDbCircle
 10
164.9648651867396
 20
109.5940077036116
 30
0.0
 40
2.0
100
AcDbArc
 50
90.0
 51
180.0
  0
ARC
  5
30C
330
5F
100
AcDbEntity
  8
1
  6
Continuous
 62
     7
100
AcDbCircle
 10
151.4648651867396
 20
98.13567437027808
 30
0.0
 40
23.54166666666647
100
AcDbArc
 50
240.3225690661307
 51
270.0
  0
ARC
  5
30D
330
5F
100
AcDbEntity
  8
1
  6
Continuous
 62
     7
100
AcDbCircle
 10
151.4648651867396
 20
98.13567437027808
 30
0.0
 40
23.54166666666646
100
AcDbArc
 50
270.0
 51
299.6774309338696
  0
ARC
  5
30E
330
5F
100
AcDbEntity
  8
1
  6
Continuous
 62
     7
100
AcDbCircle
 10
151.4648651867397
 20
220.8356743702782
 30
0.0
 40
23.54166666666651
100
AcDbArc
 50
276.0960021361587
 51
299.6774309338692
  0
ARC
  5
30F
330
5F
100
AcDbEntity
  8
1
  6
Continuous
 62
     7
100
AcDbCircle
 10
151.4648651867397
 20
210.752341036945
 30
0.0
 40
23.5416666666665
100
AcDbArc
 50
96.09600213615718
 51
119.6774309338696
  0
ARC
  5
310
330
5F
100
AcDbEntity
  8
1
  6
Continuous
 62
     7
100
AcDbCircle
 10
154.2806788923198
 20
223.7940077036115
 30
0.0
 40
23.10683602523016
100
AcDbArc
 50
349.5349242039551
 51
20.25615800041588
  0
ARC
  5
311
330
5F
100
AcDbEntity
  8
1
  6
Continuous
 62
     7
100
AcDbCircle
 10
148.6490514811596
 20
207.7940077036116
 30
0.0
 40
23.10683602523018
100
AcDbArc
 50
169.5349242039521
 51
200.2561580004158
  0
ARC
  5
312
330
5F
100
AcDbEntity
  8
1
  6
Continuous
 62
     7
100
AcDbCircle
 10
154.2806788923198
 20
207.7940077036116
 30
0.0
 40
23.10683602523012
100
AcDbArc
 50
339.7438419995842
 51
10.46507579604544
  0
ARC
  5
313
330
5F
100
AcDbEntity
  8
1
  6
Continuous
 62
     7
100
AcDbCircle
 10
151.4648651867397
 20
220.8356743702782
 30
0.0
 40
23.54166666666653
100
AcDbArc
 50
263.9039978638428
 51
276.0960021361587
  0
ARC
  5
314
330
5F
100
AcDbEntity
  8
1
  6
Continuous
 62
     7
100
AcDbCircle
 10
151.4648651867397
 20
220.8356743702782
 30
0.0
 40
23.54166666666662
100
AcDbArc
 50
240.3225690661306
 51
263.9039978638428
  0
ARC
  5
315
330
5F
100
AcDbEntity
  8
1
  6
Continuous
 62
     7
100
AcDbCircle
 10
151.4648651867397
 20
210.752341036945
 30
0.0
 40
23.54166666666648
100
AcDbArc
 50
60.32256906613063
 51
83.90399786384128
  0
ARC
  5
316
330
5F
100
AcDbEntity
  8
1
  6
Continuous
 62
     7
100
AcDbCircle
 10
148.6490514811596
 20
223.7940077036115
 30
0.0
 40
23.10683602523021
100
AcDbArc
 50
159.7438419995842
 51
190.4650757960474
  0
ARC
  5
317
330
5F
100
AcDbEntity
  8
1
  6
Continuous
 62
     2
100
AcDbCircle
 10
151.4648651867397
 20
215.7940077036115
 30
0.0
 40
10.00000000000005
100
AcDbArc
 50
137.4576031237205
 51
180.0
  0
ARC
  5
318
330
5F
100
AcDbEntity
  8
1
  6
Continuous
 62
     7
100
AcDbCircle
 10
151.4648651867397
 20
215.7940077036115
 30
0.0
 40
9.28200000000001
100
AcDbArc
 50
177.2750258048478
 51
180.0
  0
ARC
  5
319
330
5F
100
AcDbEntity
  8
1
  6
Continuous
 62
     7
100
AcDbCircle
 10
151.4648651867397
 20
215.7940077036115
 30
0.0
 40
9.282000000000018
100
AcDbArc
 50
18.85693386085574
 51
57.27502580484749
  0
ARC
  5
31A
330
5F
100
AcDbEntity
  8
1
  6
Continuous
 62
     7
100
AcDbCircle
 10
151.4648651867397
 20
215.7940077036115
 30
0.0
 40
9.282000000000018
100
AcDbArc
 50
59.52869228354
 51
101.1430661391428
  0
ARC
  5
31B
330
5F
100
AcDbEntity
  8
1
  6
Continuous
 62
     2
100
AcDbCircle
 10
151.4648651867397
 20
215.7940077036115
 30
0.0
 40
10.00000000000004
100
AcDbArc
 50
17.45760312372203
 51
102.5423968762767
  0
ARC
  5
31C
330
5F
100
AcDbEntity
  8
1
  6
Continuous
 62
     7
100
AcDbCircle
 10
151.4648651867397
 20
215.7940077036115
 30
0.0
 40
10.10000000000005
100
AcDbArc
 50
17.27928723637346
 51
102.7207127636249
  0
ARC
  5
31D
330
5F
100
AcDbEntity
  8
1
  6
Continuous
 62
     7
100
AcDbCircle
 10
151.4648651867397
 20
215.7940077036115
 30
0.0
 40
9.28199999999994
100
AcDbArc
 50
138.8569338608538
 51
177.2750258048478
  0
ARC
  5
31E
330
5F
100
AcDbEntity
  8
1
  6
Continuous
 62
     7
100
AcDbCircle
 10
151.4648651867397
 20
215.7940077036115
 30
0.0
 40
9.282000000000004
100
AcDbArc
 50
190.5074292538237
 51
221.1430661391454
  0
ARC
  5
31F
330
5F
100
AcDbEntity
  8
1
  6
Continuous
 62
     2
100
AcDbCircle
 10
151.4648651867397
 20
215.7940077036115
 30
0.0
 40
10.0
100
AcDbArc
 50
180.0
 51
222.5423968762782
  0
ARC
  5
320
330
5F
100
AcDbEntity
  8
1
  6
Continuous
 62
     7
100
AcDbCircle
 10
151.4648651867397
 20
215.7940077036115
 30
0.0
 40
10.09999999999999
100
AcDbArc
 50
137.2792872363719
 51
222.7207127636271
  0
ARC
  5
321
330
5F
100
AcDbEntity
  8
1
  6
Continuous
 62
     7
100
AcDbCircle
 10
151.4648651867397
 20
215.7940077036115
 30
0.0
 40
9.281999999999972
100
AcDbArc
 50
310.5074292538238
 51
341.1430661391443
  0
ARC
  5
322
330
5F
100
AcDbEntity
  8
1
  6
Continuous
 62
     7
100
AcDbCircle
 10
151.4648651867397
 20
215.7940077036115
 30
0.0
 40
9.281999999999947
100
AcDbArc
 50
258.8569338608577
 51
284.1594739042896
  0
ARC
  5
323
330
5F
100
AcDbEntity
  8
1
  6
Continuous
 62
     2
100
AcDbCircle
 10
151.4648651867397
 20
215.7940077036115
 30
0.0
 40
10.00000000000001
100
AcDbArc
 50
301.0449756281402
 51
342.542396876278
  0
ARC
  5
324
330
5F
100
AcDbEntity
  8
1
  6
Continuous
 62
     7
100
AcDbCircle
 10
151.4648651867397
 20
215.7940077036115
 30
0.0
 40
10.1
100
AcDbArc
 50
300.0356835655255
 51
342.7207127636265
  0
ARC
  5
325
330
5F
100
AcDbEntity
  8
1
  6
Continuous
 62
     2
100
AcDbCircle
 10
151.4648651867397
 20
215.7940077036115
 30
0.0
 40
9.999999999999973
100
AcDbArc
 50
257.457603123724
 51
295.8419327631661
  0
ARC
  5
326
330
5F
100
AcDbEntity
  8
1
  6
Continuous
 62
     7
100
AcDbCircle
 10
151.4648651867397
 20
215.7940077036115
 30
0.0
 40
10.10000000000001
100
AcDbArc
 50
257.2792872363756
 51
296.989575550504
  0
CIRCLE
  5
327
330
5F
100
AcDbEntity
  8
1
  6
Continuous
 62
     2
100
AcDbCircle
 10
69.48704563712369
 20
93.09400770361162
 30
0.0
 40
13.2204999999999
  0
ARC
  5
328
330
5F
100
AcDbEntity
  8
1
  6
Continuous
 62
     7
100
AcDbCircle
 10
138.9648651867397
 20
109.5940077036116
 30
0.0
 40
1.0
100
AcDbArc
 50
270.0
 51
0.0
  0
ARC
  5
329
330
5F
100
AcDbEntity
  8
1
  6
Continuous
 62
     7
100
AcDbCircle
 10
136.7479601012024
 20
109.5940077036116
 30
0.0
 40
1.000000000000041
100
AcDbArc
 50
200.000000000007
 51
270.0
  0
ARC
  5
32A
330
5F
100
AcDbEntity
  8
1
  6
Continuous
 62
     7
100
AcDbCircle
 10
163.9648651867396
 20
109.5940077036116
 30
0.0
 40
0.9999999999998863
100
AcDbArc
 50
180.0
 51
270.0000000000065
  0
ARC
  5
32B
330
5F
100
AcDbEntity
  8
1
  6
Continuous
 62
     7
100
AcDbCircle
 10
166.181770272277
 20
109.5940077036116
 30
0.0
 40
1.0
100
AcDbArc
 50
270.0
 51
339.999999999993
  0
ARC
  5
32C
330
5F
100
AcDbEntity
  8
1
  6
Continuous
 62
     7
100
AcDbCircle
 10
138.3236488222988
 20
75.07556808458662
 30
0.0
 40
2.999999999999992
100
AcDbArc
 50
60.32256906613087
 51
159.9999999999995
  0
ARC
  5
32D
330
5F
100
AcDbEntity
  8
1
  6
Continuous
 62
     7
100
AcDbCircle
 10
164.6060815511806
 20
75.07556808458662
 30
0.0
 40
2.999999999999984
100
AcDbArc
 50
20.0000000000013
 51
119.6774309338706
  0
ARC
  5
32E
330
5F
100
AcDbEntity
  8
1
  6
Continuous
 62
     7
100
AcDbCircle
 10
138.3236488222988
 20
197.7755680845867
 30
0.0
 40
2.999999999999943
100
AcDbArc
 50
60.32256906613031
 51
63.43564011871197
  0
ENDBLK
  5
61
330
5F
100
AcDbEntity
  8
0
100
AcDbBlockEnd
  0
BLOCK
  5
63
330
62
100
AcDbEntity
  8
0
100
AcDbBlockBegin
  2
88-16
 70
     0
 10
368.0031862022055
 20
236.380983976732
 30
0.0
  3
88-16
  1

  0
LINE
  5
32F
330
62
100
AcDbEntity
  8
1
  6
Continuous
 62
     7
100
AcDbLine
 10
56.48704563712369
 20
114.5940077036116
 30
0.0
 11
59.48704563712369
 21
114.5940077036116
 31
0.0
  0
LINE
  5
330
330
62
100
AcDbEntity
  8
1
  6
Continuous
 62
     7
100
AcDbLine
 10
82.48704563712369
 20
114.5940077036116
 30
0.0
 11
82.48704563712369
 21
115.7940077036114
 31
0.0
  0
LINE
  5
331
330
62
100
AcDbEntity
  8
1
  6
Continuous
 62
     7
100
AcDbLine
 10
82.48704563712369
 20
115.7940077036114
 30
0.0
 11
79.48704563712369
 21
115.7940077036114
 31
0.0
  0
LINE
  5
332
330
62
100
AcDbEntity
  8
1
  6
Continuous
 62
     7
100
AcDbLine
 10
56.48704563712369
 20
115.7940077036114
 30
0.0
 11
56.48704563712369
 21
114.5940077036116
 31
0.0
  0
LINE
  5
333
330
62
100
AcDbEntity
  8
1
  6
Continuous
 62
     7
100
AcDbLine
 10
59.48704563712369
 20
114.5940077036116
 30
0.0
 11
82.48704563712369
 21
114.5940077036116
 31
0.0
  0
LINE
  5
334
330
62
100
AcDbEntity
  8
1
  6
Continuous
 62
     7
100
AcDbLine
 10
79.48704563712369
 20
115.7940077036114
 30
0.0
 11
56.48704563712369
 21
115.7940077036114
 31
0.0
  0
LINE
  5
335
330
62
100
AcDbEntity
  8
1
  6
Continuous
 62
     7
100
AcDbLine
 10
138.4648651867397
 20
114.5940077036116
 30
0.0
 11
141.4648651867397
 21
114.5940077036116
 31
0.0
  0
LINE
  5
336
330
62
100
AcDbEntity
  8
1
  6
Continuous
 62
     7
100
AcDbLine
 10
164.4648651867397
 20
114.5940077036116
 30
0.0
 11
164.4648651867397
 21
115.7940077036114
 31
0.0
  0
LINE
  5
337
330
62
100
AcDbEntity
  8
1
  6
Continuous
 62
     7
100
AcDbLine
 10
164.4648651867397
 20
115.7940077036114
 30
0.0
 11
161.4648651867397
 21
115.7940077036114
 31
0.0
  0
LINE
  5
338
330
62
100
AcDbEntity
  8
1
  6
Continuous
 62
     7
100
AcDbLine
 10
138.4648651867397
 20
115.7940077036114
 30
0.0
 11
138.4648651867397
 21
114.5940077036116
 31
0.0
  0
LINE
  5
339
330
62
100
AcDbEntity
  8
1
  6
Continuous
 62
     7
100
AcDbLine
 10
141.4648651867397
 20
114.5940077036116
 30
0.0
 11
164.4648651867397
 21
114.5940077036116
 31
0.0
  0
LINE
  5
33A
330
62
100
AcDbEntity
  8
1
  6
Continuous
 62
     7
100
AcDbLine
 10
161.4648651867397
 20
115.7940077036114
 30
0.0
 11
138.4648651867397
 21
115.7940077036114
 31
0.0
  0
ENDBLK
  5
64
330
62
100
AcDbEntity
  8
0
100
AcDbBlockEnd
  0
BLOCK
  5
66
330
65
100
AcDbEntity
  8
0
100
AcDbBlockBegin
  2
91-25K
 70
     0
 10
334.4
 20
95.19999999999999
 30
0.0
  3
91-25K
  1

  0
LINE
  5
33B
330
65
100
AcDbEntity
  8
1
  6
Continuous
 62
     7
100
AcDbLine
 10
61.9870456371238
 20
95.09400770361162
 30
0.0
 11
61.9870456371238
 21
97.09400770361152
 31
0.0
  0
LINE
  5
33C
330
65
100
AcDbEntity
  8
1
  6
Continuous
 62
     7
100
AcDbLine
 10
61.9870456371238
 20
97.09400770361152
 30
0.0
 11
76.9870456371238
 21
97.09400770361152
 31
0.0
  0
LINE
  5
33D
330
65
100
AcDbEntity
  8
1
  6
Continuous
 62
     7
100
AcDbLine
 10
76.9870456371238
 20
97.09400770361152
 30
0.0
 11
76.9870456371238
 21
95.09400770361162
 31
0.0
  0
ENDBLK
  5
67
330
65
100
AcDbEntity
  8
0
100
AcDbBlockEnd
  0
BLOCK
  5
37D
330
376
100
AcDbEntity
  8
0
100
AcDbBlockBegin
  2
*D12
 70
     1
 10
0.0
 20
0.0
 30
0.0
  3
*D12
  1

  0
LINE
  5
377
330
376
100
AcDbEntity
  8
1
  6
Continuous
 62
     2
100
AcDbLine
 10
124.9648651867398
 20
56.61879908954371
 30
0.0
 11
177.9648651867395
 21
56.61879908954371
 31
0.0
  0
LINE
  5
378
330
376
100
AcDbEntity
  8
1
  6
Continuous
 62
     2
100
AcDbLine
 10
177.9648651867395
 20
78.09400770361128
 30
0.0
 11
177.9648651867395
 21
55.61879908954371
 31
0.0
  0
LINE
  5
379
330
376
100
AcDbEntity
  8
1
  6
Continuous
 62
     2
100
AcDbLine
 10
124.9648651867398
 20
78.09400770361123
 30
0.0
 11
124.9648651867398
 21
55.61879908954371
 31
0.0
  0
SOLID
  5
37A
330
376
100
AcDbEntity
  8
1
 62
     2
100
AcDbTrace
 10
128.4648651867398
 20
57.07958283109959
 30
0.0
 11
128.4648651867398
 21
56.15801534798782
 31
0.0
 12
124.9648651867398
 22
56.61879908954371
 32
0.0
 13
124.9648651867398
 23
56.61879908954371
 33
0.0
  0
SOLID
  5
37B
330
376
100
AcDbEntity
  8
1
 62
     2
100
AcDbTrace
 10
174.4648651867395
 20
56.15801534798782
 30
0.0
 11
174.4648651867395
 21
57.07958283109959
 31
0.0
 12
177.9648651867395
 22
56.61879908954371
 32
0.0
 13
177.9648651867395
 23
56.61879908954371
 33
0.0
  0
MTEXT
  5
37C
330
376
100
AcDbEntity
  8
1
 62
     7
100
AcDbMText
 10
148.8398651867398
 20
57.61879908954371
 30
0.0
 40
3.5
 41
0.0
 71
     7
 72
     1
  1
53
  7
CONVERTER_12
 11
0.9999999999970619
 21
2.424068405545306E-6
 31
0.0
 73
     1
 44
0.60024009603842
  0
ENDBLK
  5
37E
330
376
100
AcDbEntity
  8
0
100
AcDbBlockEnd
  0
BLOCK
  5
388
330
381
100
AcDbEntity
  8
0
100
AcDbBlockBegin
  2
*D13
 70
     1
 10
0.0
 20
0.0
 30
0.0
  3
*D13
  1

  0
LINE
  5
382
330
381
100
AcDbEntity
  8
0
  6
Continuous
 62
     2
100
AcDbLine
 10
53.48704563712369
 20
64.61879908954359
 30
0.0
 11
85.4870456371236
 21
64.61879908954359
 31
0.0
  0
LINE
  5
383
330
381
100
AcDbEntity
  8
0
  6
Continuous
 62
     2
100
AcDbLine
 10
85.4870456371236
 20
83.85640339657743
 30
0.0
 11
85.4870456371236
 21
63.61879908954359
 31
0.0
  0
LINE
  5
384
330
381
100
AcDbEntity
  8
0
  6
Continuous
 62
     2
100
AcDbLine
 10
53.48704563712369
 20
83.85640339657743
 30
0.0
 11
53.48704563712369
 21
63.61879908954359
 31
0.0
  0
SOLID
  5
385
330
381
100
AcDbEntity
  8
0
 62
     2
100
AcDbTrace
 10
56.98704563712369
 20
65.07958283109947
 30
0.0
 11
56.98704563712369
 21
64.1580153479877
 31
0.0
 12
53.48704563712369
 22
64.61879908954359
 32
0.0
 13
53.48704563712369
 23
64.61879908954359
 33
0.0
  0
SOLID
  5
386
330
381
100
AcDbEntity
  8
0
 62
     2
100
AcDbTrace
 10
81.9870456371236
 20
64.1580153479877
 30
0.0
 11
81.9870456371236
 21
65.07958283109947
 31
0.0
 12
85.4870456371236
 22
64.61879908954359
 32
0.0
 13
85.4870456371236
 23
64.61879908954359
 33
0.0
  0
MTEXT
  5
387
330
381
100
AcDbEntity
  8
0
 62
     7
100
AcDbMText
 10
66.86204563712369
 20
65.61879908954359
 30
0.0
 40
3.5
 41
0.0
 71
     7
 72
     1
  1
32
  7
CONVERTER_12
 11
0.9999999999970619
 21
2.424068405545306E-6
 31
0.0
 73
     1
 44
0.60024009603842
  0
ENDBLK
  5
389
330
381
100
AcDbEntity
  8
0
100
AcDbBlockEnd
  0
BLOCK
  5
393
330
38C
100
AcDbEntity
  8
0
100
AcDbBlockBegin
  2
*D14
 70
     1
 10
0.0
 20
0.0
 30
0.0
  3
*D14
  1

  0
LINE
  5
38D
330
38C
100
AcDbEntity
  8
0
  6
Continuous
 62
     2
100
AcDbLine
 10
187.9648651867402
 20
189.2940077036033
 30
0.0
 11
187.9648651867402
 21
242.2940077036196
 31
0.0
  0
LINE
  5
38E
330
38C
100
AcDbEntity
  8
0
  6
Continuous
 62
     2
100
AcDbLine
 10
151.4648651867397
 20
242.2940077036196
 30
0.0
 11
188.9648651867402
 21
242.2940077036196
 31
0.0
  0
LINE
  5
38F
330
38C
100
AcDbEntity
  8
0
  6
Continuous
 62
     2
100
AcDbLine
 10
151.4648651867397
 20
189.2940077036033
 30
0.0
 11
188.9648651867402
 21
189.2940077036033
 31
0.0
  0
SOLID
  5
390
330
38C
100
AcDbEntity
  8
0
 62
     2
100
AcDbTrace
 10
187.5040814451843
 20
192.7940077036033
 30
0.0
 11
188.4256489282961
 21
192.7940077036033
 31
0.0
 12
187.9648651867402
 22
189.2940077036033
 32
0.0
 13
187.9648651867402
 23
189.2940077036033
 33
0.0
  0
SOLID
  5
391
330
38C
100
AcDbEntity
  8
0
 62
     2
100
AcDbTrace
 10
188.4256489282961
 20
238.7940077036196
 30
0.0
 11
187.5040814451843
 21
238.7940077036196
 31
0.0
 12
187.9648651867402
 22
242.2940077036196
 32
0.0
 13
187.9648651867402
 23
242.2940077036196
 33
0.0
  0
MTEXT
  5
392
330
38C
100
AcDbEntity
  8
0
 62
     7
100
AcDbMText
 10
186.9648651867402
 20
212.6690077036115
 30
0.0
 40
3.5
 41
0.0
 71
     7
 72
     1
  1
53
  7
CONVERTER_12
 11
0.0
 21
1.0
 31
0.0
 73
     1
 44
0.60024009603842
  0
ENDBLK
  5
394
330
38C
100
AcDbEntity
  8
0
100
AcDbBlockEnd
  0
BLOCK
  5
39E
330
397
100
AcDbEntity
  8
0
100
AcDbBlockBegin
  2
*D15
 70
     1
 10
0.0
 20
0.0
 30
0.0
  3
*D15
  1

  0
LINE
  5
398
330
397
100
AcDbEntity
  8
0
  6
Continuous
 62
     2
100
AcDbLine
 10
187.9648651867367
 20
93.09400770361151
 30
0.0
 11
187.9648651867367
 21
166.5940077036115
 31
0.0
  0
LINE
  5
399
330
397
100
AcDbEntity
  8
0
  6
Continuous
 62
     2
100
AcDbLine
 10
151.4648651867397
 20
166.5940077036115
 30
0.0
 11
188.9648651867367
 21
166.5940077036115
 31
0.0
  0
LINE
  5
39A
330
397
100
AcDbEntity
  8
0
  6
Continuous
 62
     2
100
AcDbLine
 10
179.5122374684444
 20
93.09400770361151
 30
0.0
 11
188.9648651867367
 21
93.09400770361151
 31
0.0
  0
SOLID
  5
39B
330
397
100
AcDbEntity
  8
0
 62
     2
100
AcDbTrace
 10
187.5040814451808
 20
96.59400770361151
 30
0.0
 11
188.4256489282926
 21
96.59400770361151
 31
0.0
 12
187.9648651867367
 22
93.09400770361151
 32
0.0
 13
187.9648651867367
 23
93.09400770361151
 33
0.0
  0
SOLID
  5
39C
330
397
100
AcDbEntity
  8
0
 62
     2
100
AcDbTrace
 10
188.4256489282926
 20
163.0940077036115
 30
0.0
 11
187.5040814451808
 21
163.0940077036115
 31
0.0
 12
187.9648651867367
 22
166.5940077036115
 32
0.0
 13
187.9648651867367
 23
166.5940077036115
 33
0.0
  0
MTEXT
  5
39D
330
397
100
AcDbEntity
  8
0
 62
     7
100
AcDbMText
 10
186.9648651867367
 20
120.3940077036115
 30
0.0
 40
3.5
 41
0.0
 71
     7
 72
     1
  1
74リフト5
  7
CONVERTER_11
 11
0.0
 21
1.0
 31
0.0
 73
     1
 44
0.45454545454545
  0
ENDBLK
  5
39F
330
397
100
AcDbEntity
  8
0
100
AcDbBlockEnd
  0
BLOCK
  5
3A9
330
3A2
100
AcDbEntity
  8
0
100
AcDbBlockBegin
  2
*D16
 70
     1
 10
0.0
 20
0.0
 30
0.0
  3
*D16
  1

  0
LINE
  5
3A3
330
3A2
100
AcDbEntity
  8
0
  6
Continuous
 62
     2
100
AcDbLine
 10
124.9648651867398
 20
64.61879908954359
 30
0.0
 11
151.4648651867397
 21
64.61879908954359
 31
0.0
  0
LINE
  5
3A4
330
3A2
100
AcDbEntity
  8
0
  6
Continuous
 62
     2
100
AcDbLine
 10
151.4648651867397
 20
71.09400770361151
 30
0.0
 11
151.4648651867397
 21
63.61879908954359
 31
0.0
  0
LINE
  5
3A5
330
3A2
100
AcDbEntity
  8
0
  6
Continuous
 62
     2
100
AcDbLine
 10
124.9648651867398
 20
78.09400770361123
 30
0.0
 11
124.9648651867398
 21
63.61879908954359
 31
0.0
  0
SOLID
  5
3A6
330
3A2
100
AcDbEntity
  8
0
 62
     2
100
AcDbTrace
 10
128.4648651867398
 20
65.07958283109947
 30
0.0
 11
128.4648651867398
 21
64.1580153479877
 31
0.0
 12
124.9648651867398
 22
64.61879908954359
 32
0.0
 13
124.9648651867398
 23
64.61879908954359
 33
0.0
  0
SOLID
  5
3A7
330
3A2
100
AcDbEntity
  8
0
 62
     2
100
AcDbTrace
 10
147.9648651867397
 20
64.1580153479877
 30
0.0
 11
147.9648651867397
 21
65.07958283109947
 31
0.0
 12
151.4648651867397
 22
64.61879908954359
 32
0.0
 13
151.4648651867397
 23
64.61879908954359
 33
0.0
  0
MTEXT
  5
3A8
330
3A2
100
AcDbEntity
  8
0
 62
     7
100
AcDbMText
 10
136.5930715011508
 20
65.61879908954359
 30
0.0
 40
3.5
 41
0.0
 71
     7
 72
     1
  1
27
  7
CONVERTER_12
 11
0.9999999999970619
 21
2.424068405545306E-6
 31
0.0
 73
     1
 44
0.60024009603842
  0
ENDBLK
  5
3AA
330
3A2
100
AcDbEntity
  8
0
100
AcDbBlockEnd
  0
ENDSEC
  0
SECTION
  2
ENTITIES
  0
INSERT
  5
68
330
1F
100
AcDbEntity
  8
1
100
AcDbBlockReference
  2
開示A4
 10
0.0
 20
0.0
 30
0.0
  0
INSERT
  5
69
330
1F
100
AcDbEntity
  8
1
100
AcDbBlockReference
  2
21-2
 10
208.4648651867397
 20
107.7940077036114
 30
0.0
  0
INSERT
  5
6A
330
1F
100
AcDbEntity
  8
0
100
AcDbBlockReference
  2
32-48-13
 10
474.2847460732639
 20
126.2087862322746
 30
0.0
  0
INSERT
  5
6B
330
1F
100
AcDbEntity
  8
0
100
AcDbBlockReference
  2
73-4
 10
299.284746073264
 20
76.91568278399899
 30
0.0
  0
INSERT
  5
6C
330
1F
100
AcDbEntity
  8
0
100
AcDbBlockReference
  2
37-32-20
 10
99.46551530403298
 20
252.0231640091942
 30
0.0
  0
INSERT
  5
6D
330
1F
100
AcDbEntity
  8
0
100
AcDbBlockReference
  2
72-1
 10
244.2860206625269
 20
198.0539188298675
 30
0.0
  0
INSERT
  5
6E
330
1F
100
AcDbEntity
  8
1
100
AcDbBlockReference
  2
36-39-20
 10
186.4792211393508
 20
-97.79261419415198
 30
0.0
  0
INSERT
  5
6F
330
1F
100
AcDbEntity
  8
0
100
AcDbBlockReference
  2
31-26-20
 10
339.284746073264
 20
101.387391873622
 30
0.0
  0
INSERT
  5
70
330
1F
100
AcDbEntity
  8
0
100
AcDbBlockReference
  2
V30-0-20
 10
383.3726158957494
 20
218.4530723469947
 30
0.0
  0
INSERT
  5
71
330
1F
100
AcDbEntity
  8
0
100
AcDbBlockReference
  2
88-16
 10
368.0031862022055
 20
236.380983976732
 30
0.0
  0
INSERT
  5
72
330
1F
100
AcDbEntity
  8
1
100
AcDbBlockReference
  2
91-25K
 10
334.4
 20
95.19999999999999
 30
0.0
  0
LINE
  5
33E
330
1F
100
AcDbEntity
  8
1
  6
Continuous
 62
     7
100
AcDbLine
 10
37.37510469123664
 20
78.90889105609426
 30
0.0
 11
39.77510469123662
 21
77.52325041003917
 31
0.0
  0
LINE
  5
33F
330
1F
100
AcDbEntity
  8
1
  6
Continuous
 62
     7
100
AcDbLine
 10
37.37510469123664
 20
77.97325041003916
 30
0.0
 11
37.37510469123664
 21
78.90889105609426
 31
0.0
  0
LINE
  5
340
330
1F
100
AcDbEntity
  8
1
  6
Continuous
 62
     7
100
AcDbLine
 10
39.77510469123662
 20
77.52325041003917
 30
0.0
 11
37.37510469123664
 21
76.13760976398419
 31
0.0
  0
LINE
  5
341
330
1F
100
AcDbEntity
  8
1
  6
Continuous
 62
     7
100
AcDbLine
 10
27.77510469123668
 20
77.0732504100393
 30
0.0
 11
27.77510469123668
 21
77.97325041003927
 31
0.0
  0
LINE
  5
342
330
1F
100
AcDbEntity
  8
1
  6
Continuous
 62
     7
100
AcDbLine
 10
37.37510469123664
 20
76.13760976398419
 30
0.0
 11
37.37510469123664
 21
77.0732504100393
 31
0.0
  0
LINE
  5
343
330
1F
100
AcDbEntity
  8
1
  6
Continuous
 62
     7
100
AcDbLine
 10
32.42510469123663
 20
79.3232504100393
 30
0.0
 11
33.77510469123665
 21
77.97325041003927
 31
0.0
  0
LINE
  5
344
330
1F
100
AcDbEntity
  8
1
  6
Continuous
 62
     7
100
AcDbLine
 10
37.37510469123664
 20
77.97325041003916
 30
0.0
 11
33.77510469123665
 21
77.97325041003927
 31
0.0
  0
LINE
  5
345
330
1F
100
AcDbEntity
  8
1
  6
Continuous
 62
     7
100
AcDbLine
 10
30.89760685761608
 20
75.63825041003918
 30
0.0
 11
32.42510469123663
 21
75.72325041003927
 31
0.0
  0
LINE
  5
346
330
1F
100
AcDbEntity
  8
1
  6
Continuous
 62
     7
100
AcDbLine
 10
33.77510469123665
 20
77.0732504100393
 30
0.0
 11
32.42510469123663
 21
75.72325041003927
 31
0.0
  0
LINE
  5
347
330
1F
100
AcDbEntity
  8
1
  6
Continuous
 62
     7
100
AcDbLine
 10
37.37510469123664
 20
77.0732504100393
 30
0.0
 11
33.77510469123665
 21
77.0732504100393
 31
0.0
  0
LINE
  5
348
330
1F
100
AcDbEntity
  8
1
  6
Continuous
 62
     7
100
AcDbLine
 10
30.89760685761608
 20
79.40825041003916
 30
0.0
 11
32.33260685761614
 21
77.97325041003916
 31
0.0
  0
LINE
  5
349
330
1F
100
AcDbEntity
  8
1
  6
Continuous
 62
     7
100
AcDbLine
 10
33.77510469123665
 20
77.97325041003927
 30
0.0
 11
32.33260685761614
 21
77.97325041003916
 31
0.0
  0
LINE
  5
34A
330
1F
100
AcDbEntity
  8
1
  6
Continuous
 62
     7
100
AcDbLine
 10
32.42510469123663
 20
79.3232504100393
 30
0.0
 11
30.89760685761608
 21
79.40825041003916
 31
0.0
  0
LINE
  5
34B
330
1F
100
AcDbEntity
  8
1
  6
Continuous
 62
     7
100
AcDbLine
 10
30.89760685761608
 20
75.63825041003918
 30
0.0
 11
32.33260685761614
 21
77.0732504100393
 31
0.0
  0
LINE
  5
34C
330
1F
100
AcDbEntity
  8
1
  6
Continuous
 62
     7
100
AcDbLine
 10
33.77510469123665
 20
77.0732504100393
 30
0.0
 11
32.33260685761614
 21
77.0732504100393
 31
0.0
  0
LINE
  5
34D
330
1F
100
AcDbEntity
  8
1
  6
Continuous
 62
     7
100
AcDbLine
 10
32.33260685761614
 20
77.0732504100393
 30
0.0
 11
27.77510469123668
 21
77.0732504100393
 31
0.0
  0
LINE
  5
34E
330
1F
100
AcDbEntity
  8
1
  6
Continuous
 62
     7
100
AcDbLine
 10
27.77510469123668
 20
77.97325041003927
 30
0.0
 11
32.33260685761614
 21
77.97325041003916
 31
0.0
  0
LINE
  5
34F
330
1F
100
AcDbEntity
  8
1
  6
Continuous
 62
     7
100
AcDbLine
 10
30.47348997516177
 20
79.3232504100393
 30
0.0
 11
31.82348997516188
 21
77.97325041003916
 31
0.0
  0
LINE
  5
350
330
1F
100
AcDbEntity
  8
1
  6
Continuous
 62
     7
100
AcDbLine
 10
28.94599214154128
 20
79.40825041003916
 30
0.0
 11
30.38099214154117
 21
77.97325041003916
 31
0.0
  0
LINE
  5
351
330
1F
100
AcDbEntity
  8
1
  6
Continuous
 62
     7
100
AcDbLine
 10
31.82348997516188
 20
77.97325041003916
 30
0.0
 11
30.38099214154117
 21
77.97325041003916
 31
0.0
  0
LINE
  5
352
330
1F
100
AcDbEntity
  8
1
  6
Continuous
 62
     7
100
AcDbLine
 10
30.47348997516177
 20
79.3232504100393
 30
0.0
 11
28.94599214154128
 21
79.40825041003916
 31
0.0
  0
LINE
  5
353
330
1F
100
AcDbEntity
  8
1
  6
Continuous
 62
     7
100
AcDbLine
 10
28.94599214154128
 20
75.63825041003918
 30
0.0
 11
30.47348997516177
 21
75.72325041003916
 31
0.0
  0
LINE
  5
354
330
1F
100
AcDbEntity
  8
1
  6
Continuous
 62
     7
100
AcDbLine
 10
31.82348997516188
 20
77.0732504100393
 30
0.0
 11
30.47348997516177
 21
75.72325041003916
 31
0.0
  0
LINE
  5
355
330
1F
100
AcDbEntity
  8
1
  6
Continuous
 62
     7
100
AcDbLine
 10
28.94599214154128
 20
75.63825041003918
 30
0.0
 11
30.38099214154117
 21
77.0732504100393
 31
0.0
  0
LINE
  5
356
330
1F
100
AcDbEntity
  8
1
  6
Continuous
 62
     7
100
AcDbLine
 10
31.82348997516188
 20
77.0732504100393
 30
0.0
 11
30.38099214154117
 21
77.0732504100393
 31
0.0
  0
LINE
  5
357
330
1F
100
AcDbEntity
  8
1
  6
Continuous
 62
     7
100
AcDbLine
 10
28.52187525908697
 20
79.3232504100393
 30
0.0
 11
29.87187525908699
 21
77.97325041003927
 31
0.0
  0
LINE
  5
358
330
1F
100
AcDbEntity
  8
1
  6
Continuous
 62
     7
100
AcDbLine
 10
26.99437742546648
 20
79.40825041003916
 30
0.0
 11
28.42937742546637
 21
77.97325041003927
 31
0.0
  0
LINE
  5
359
330
1F
100
AcDbEntity
  8
1
  6
Continuous
 62
     7
100
AcDbLine
 10
29.87187525908699
 20
77.97325041003927
 30
0.0
 11
28.42937742546637
 21
77.97325041003927
 31
0.0
  0
LINE
  5
35A
330
1F
100
AcDbEntity
  8
1
  6
Continuous
 62
     7
100
AcDbLine
 10
28.52187525908697
 20
79.3232504100393
 30
0.0
 11
26.99437742546648
 21
79.40825041003916
 31
0.0
  0
LINE
  5
35B
330
1F
100
AcDbEntity
  8
1
  6
Continuous
 62
     7
100
AcDbLine
 10
26.99437742546648
 20
75.63825041003918
 30
0.0
 11
28.52187525908697
 21
75.72325041003927
 31
0.0
  0
LINE
  5
35C
330
1F
100
AcDbEntity
  8
1
  6
Continuous
 62
     7
100
AcDbLine
 10
29.87187525908699
 20
77.0732504100393
 30
0.0
 11
28.52187525908697
 21
75.72325041003927
 31
0.0
  0
LINE
  5
35D
330
1F
100
AcDbEntity
  8
1
  6
Continuous
 62
     7
100
AcDbLine
 10
26.99437742546648
 20
75.63825041003918
 30
0.0
 11
28.42937742546637
 21
77.0732504100393
 31
0.0
  0
LINE
  5
35E
330
1F
100
AcDbEntity
  8
1
  6
Continuous
 62
     7
100
AcDbLine
 10
29.87187525908699
 20
77.0732504100393
 30
0.0
 11
28.42937742546637
 21
77.0732504100393
 31
0.0
  0
LINE
  5
35F
330
1F
100
AcDbEntity
  8
1
  6
DASH_CENTER
 62
     2
100
AcDbLine
 10
151.4648651867397
 20
188.7940077036033
 30
0.0
 11
151.4648651867397
 21
241.7940077036196
 31
0.0
  0
LINE
  5
360
330
1F
100
AcDbEntity
  8
1
  6
DASH_CENTER
 62
     2
100
AcDbLine
 10
151.4648651867397
 20
241.7940077036196
 30
0.0
 11
151.4648651867397
 21
245.2940077036196
 31
0.0
  0
LINE
  5
361
330
1F
100
AcDbEntity
  8
1
  6
DASH_CENTER
 62
     2
100
AcDbLine
 10
151.4648651867397
 20
71.09400770361151
 30
0.0
 11
151.4648651867397
 21
169.5940077036104
 31
0.0
  0
LINE
  5
362
330
1F
100
AcDbEntity
  8
1
  6
DASH_CENTER
 62
     2
100
AcDbLine
 10
69.48704563712369
 20
72.09400770361151
 30
0.0
 11
69.48704563712369
 21
169.5940077036104
 31
0.0
  0
LINE
  5
363
330
1F
100
AcDbEntity
  8
1
  6
DASH_CENTER
 62
     2
100
AcDbLine
 10
180.9492248980838
 20
215.7940077036115
 30
0.0
 11
121.9805054753963
 21
215.7940077036115
 31
0.0
  0
LINE
  5
364
330
1F
100
AcDbEntity
  8
1
  6
DASH_CENTER
 62
     2
100
AcDbLine
 10
151.4648651867397
 20
186.2940077036032
 30
0.0
 11
151.4648651867397
 21
188.7940077036033
 31
0.0
  0
LINE
  5
365
330
1F
100
AcDbEntity
  8
0
  6
DASH_CENTER
 62
     2
100
AcDbLine
 10
47.50252357625789
 20
93.09400770361151
 30
0.0
 11
50.9870456371236
 21
93.09400770361162
 31
0.0
  0
LINE
  5
366
330
1F
100
AcDbEntity
  8
0
  6
DASH_CENTER
 62
     2
100
AcDbLine
 10
122.5122374684444
 20
93.09400770361151
 30
0.0
 11
179.5122374684444
 21
93.09400770361151
 31
0.0
  0
LINE
  5
367
330
1F
100
AcDbEntity
  8
0
  6
DASH_CENTER
 62
     2
100
AcDbLine
 10
87.98704563712369
 20
93.09400770361162
 30
0.0
 11
91.50252357625789
 21
93.09400770361151
 31
0.0
  0
LINE
  5
368
330
1F
100
AcDbEntity
  8
0
  6
DASH_CENTER
 62
     2
100
AcDbLine
 10
50.9870456371236
 20
93.09400770361162
 30
0.0
 11
87.98704563712369
 21
93.09400770361162
 31
0.0
  0
SOLID
  5
369
330
1F
100
AcDbEntity
  8
1
 62
     2
100
AcDbTrace
 10
49.63609606296183
 20
89.83252691958815
 30
0.0
 11
48.83799521128535
 21
90.29331066114403
 31
0.0
 12
50.9870456371236
 22
93.09400770361162
 32
0.0
 13
50.9870456371236
 23
93.09400770361162
 33
0.0
  0
LEADER
  5
36A
330
1F
100
AcDbEntity
  8
1
  6
Continuous
 62
     2
100
AcDbLeader
  3
Standard
 71
     0
 76
     3
 10
50.9870456371236
 20
93.09400770361162
 30
0.0
 10
40.32037897045693
 20
74.61879908954359
 30
0.0
 10
26.85388671026889
 20
74.61879908954359
 30
0.0
  0
SOLID
  5
36B
330
1F
100
AcDbEntity
  8
1
 62
     2
100
AcDbTrace
 10
179.3158147609013
 20
76.61202691958823
 30
0.0
 11
178.4256489282955
 21
76.37350770361172
 31
0.0
 12
177.9648651867396
 22
79.87350770361172
 32
0.0
 13
177.9648651867396
 23
79.87350770361172
 33
0.0
  0
LEADER
  5
36C
330
1F
100
AcDbEntity
  8
1
  6
Continuous
 62
     2
100
AcDbLeader
  3
Standard
 71
     0
 76
     3
 10
177.9648651867396
 20
79.87350770361172
 30
0.0
 10
182.0523520406507
 20
64.6187990895458
 30
0.0
 10
198.1953255535547
 20
64.6187990895458
 30
0.0
  0
SOLID
  5
36D
330
1F
100
AcDbEntity
  8
1
 62
     2
100
AcDbTrace
 10
123.613915612578
 20
77.1468452527214
 30
0.0
 11
122.8158147609016
 21
77.60762899427729
 31
0.0
 12
124.9648651867398
 22
80.40832603674488
 32
0.0
 13
124.9648651867398
 23
80.40832603674488
 33
0.0
  0
LEADER
  5
36E
330
1F
100
AcDbEntity
  8
1
  6
Continuous
 62
     2
100
AcDbLeader
  3
Standard
 71
     0
 76
     3
 10
124.9648651867398
 20
80.40832603674488
 30
0.0
 10
115.8487775533976
 20
64.6187990895458
 30
0.0
 10
99.82186580106985
 20
64.6187990895458
 30
0.0
  0
MTEXT
  5
370
330
1F
100
AcDbEntity
  8
0
 62
     7
100
AcDbMText
 10
191.1749747710849
 20
67.6187990895458
 30
0.0
 40
3.5
 41
0.0
 71
     5
 72
     1
  1
Rc3/4
  7
CONVERTER_12
 73
     1
 44
1.32052821128451
  0
MTEXT
  5
371
330
1F
100
AcDbEntity
  8
0
 62
     7
100
AcDbMText
 10
108.0036522844905
 20
67.6187990895458
 30
0.0
 40
3.5
 41
0.0
 71
     5
 72
     1
  1
Rc3/4
  7
CONVERTER_12
 73
     1
 44
1.32052821128451
  0
MTEXT
  5
372
330
1F
100
AcDbEntity
  8
0
 62
     7
100
AcDbMText
 10
57.0
 20
22.75
 30
0.0
 40
3.5
 41
0.0
 71
     5
 72
     1
  1
ストップバルブ
  7
CONVERTER_11
 73
     1
 44
1.0
  0
MTEXT
  5
373
330
1F
100
AcDbEntity
  8
0
 62
     7
100
AcDbMText
 10
57.0
 20
14.25
 30
0.0
 40
3.5
 41
0.0
 71
     5
 72
     1
  1
V30-20
  7
CONVERTER_12
 73
     1
 44
1.32052821128451
  0
MTEXT
  5
374
330
1F
100
AcDbEntity
  8
0
 62
     7
100
AcDbMText
 10
85.25
 20
17.0
 30
0.0
 40
3.5
 41
0.0
 71
     5
 72
     1
  1
1
  7
CONVERTER_12
 73
     1
 44
1.32052821128451
  0
MTEXT
  5
375
330
1F
100
AcDbEntity
  8
0
 62
     7
100
AcDbMText
 10
93.75
 20
17.0
 30
0.0
 40
3.5
 41
0.0
 71
     5
 72
     1
  1
1
  7
CONVERTER_12
 73
     1
 44
1.32052821128451
  0
DIMENSION
  5
380
330
1F
100
AcDbEntity
  8
1
100
AcDbDimension
  2
*D12
 10
124.9648651867398
 20
56.61879908954371
 30
0.0
 11
151.4648651867398
 21
59.36879908954371
 31
0.0
 70
    32
  1
<>
 71
     5
 42
-1.0
 53
0.00013888888889
  3
ME10_DIM_10
100
AcDbAlignedDimension
 13
177.9648651867395
 23
78.09400770361128
 33
0.0
 14
124.9648651867398
 24
78.09400770361123
 34
0.0
100
AcDbRotatedDimension
  0
DIMENSION
  5
38B
330
1F
100
AcDbEntity
  8
0
100
AcDbDimension
  2
*D13
 10
53.48704563712369
 20
64.61879908954359
 30
0.0
 11
69.48704563712369
 21
67.36879908954359
 31
0.0
 70
    32
  1
<>
 71
     5
 42
-1.0
 53
0.00013888888889
  3
ME10_DIM_11
100
AcDbAlignedDimension
 13
85.4870456371236
 23
83.85640339657743
 33
0.0
 14
53.48704563712369
 24
83.85640339657743
 34
0.0
100
AcDbRotatedDimension
  0
DIMENSION
  5
396
330
1F
100
AcDbEntity
  8
0
100
AcDbDimension
  2
*D14
 10
187.9648651867402
 20
189.2940077036033
 30
0.0
 11
185.2148651867402
 21
215.2940077036115
 31
0.0
 70
    32
  1
<>
 71
     5
 42
-1.0
 53
90.0
  3
ME10_DIM_12
100
AcDbAlignedDimension
 13
151.4648651867397
 23
242.2940077036196
 33
0.0
 14
151.4648651867397
 24
189.2940077036033
 34
0.0
 50
90.0
100
AcDbRotatedDimension
  0
DIMENSION
  5
3A1
330
1F
100
AcDbEntity
  8
0
100
AcDbDimension
  2
*D15
 10
187.9648651867367
 20
93.09400770361151
 30
0.0
 11
185.2148651867367
 21
129.8440077036115
 31
0.0
 70
    32
  1
74リフト5
 71
     5
 42
-1.0
 53
90.0
  3
ME10_DIM_13
100
AcDbAlignedDimension
 13
151.4648651867396
 23
166.5940077036115
 33
0.0
 14
179.5122374684444
 24
93.09400770361151
 34
0.0
 50
90.0
100
AcDbRotatedDimension
  0
DIMENSION
  5
3AC
330
1F
100
AcDbEntity
  8
0
100
AcDbDimension
  2
*D16
 10
124.9648651867398
 20
64.61879908954359
 30
0.0
 11
139.2180715011508
 21
67.36879908954359
 31
0.0
 70
    32
  1
27
 71
     5
 42
-1.0
 53
0.00013888888889
  3
ME10_DIM_14
100
AcDbAlignedDimension
 13
151.4648651867397
 23
71.09400770361151
 33
0.0
 14
124.9648651867398
 24
78.09400770361123
 34
0.0
100
AcDbRotatedDimension
  0
ENDSEC
  0
SECTION
  2
OBJECTS
  0
DICTIONARY
  5
C
330
0
100
AcDbDictionary
281
     1
  3
ACAD_GROUP
350
D
  3
ACAD_LAYOUT
350
1A
  3
ACAD_MATERIAL
350
3B
  3
ACAD_MLEADERSTYLE
350
3AF
  3
ACAD_MLINESTYLE
350
17
  3
ACAD_PLOTSETTINGS
350
19
  3
ACAD_PLOTSTYLENAME
350
E
  3
ACAD_VISUALSTYLE
350
2A
  3
AcDbVariableDictionary
350
3AD
  0
DICTIONARY
  5
D
102
{ACAD_REACTORS
330
C
102
}
330
C
100
AcDbDictionary
281
     1
  0
DICTIONARY
  5
1A
102
{ACAD_REACTORS
330
C
102
}
330
C
100
AcDbDictionary
281
     1
  3
Layout1
350
1E
  3
Layout2
350
26
  3
Model
350
22
  0
DICTIONARY
  5
3B
102
{ACAD_REACTORS
330
C
102
}
330
C
100
AcDbDictionary
281
     1
  3
ByBlock
350
3D
  3
ByLayer
350
3C
  3
Global
350
3E
  0
DICTIONARY
  5
3AF
102
{ACAD_REACTORS
330
C
102
}
330
C
100
AcDbDictionary
281
     1
  0
DICTIONARY
  5
17
102
{ACAD_REACTORS
330
C
102
}
330
C
100
AcDbDictionary
281
     1
  3
Standard
350
18
  0
DICTIONARY
  5
19
102
{ACAD_REACTORS
330
C
102
}
330
C
100
AcDbDictionary
281
     1
  0
ACDBDICTIONARYWDFLT
  5
E
102
{ACAD_REACTORS
330
C
102
}
330
C
100
AcDbDictionary
281
     1
  3
Normal
350
F
100
AcDbDictionaryWithDefault
340
F
  0
DICTIONARY
  5
2A
102
{ACAD_REACTORS
330
C
102
}
330
C
100
AcDbDictionary
281
     1
  3
2dWireframe
350
2F
  3
3D Hidden
350
31
  3
3dWireframe
350
30
  3
Basic
350
32
  3
Brighten
350
36
  3
ColorChange
350
3A
  3
Conceptual
350
34
  3
Dim
350
35
  3
Facepattern
350
39
  3
Flat
350
2B
  3
FlatWithEdges
350
2C
  3
Gouraud
350
2D
  3
GouraudWithEdges
350
2E
  3
Linepattern
350
38
  3
Realistic
350
33
  3
Thicken
350
37
  0
DICTIONARY
  5
3AD
102
{ACAD_REACTORS
330
C
102
}
330
C
100
AcDbDictionary
281
     1
  3
DIMASSOC
350
3B0
  3
HIDETEXT
350
3B1
  0
LAYOUT
  5
1E
102
{ACAD_REACTORS
330
1A
102
}
330
1A
100
AcDbPlotSettings
  1

  2
none_device
  4

  6

 40
0.0
 41
0.0
 42
0.0
 43
0.0
 44
0.0
 45
0.0
 46
0.0
 47
0.0
 48
0.0
 49
0.0
140
0.0
141
0.0
142
1.0
143
1.0
 70
   688
 72
     0
 73
     0
 74
     5
  7

 75
    16
147
1.0
148
0.0
149
0.0
100
AcDbLayout
  1
Layout1
 70
     1
 71
     1
 10
0.0
 20
0.0
 11
12.0
 21
9.0
 12
0.0
 22
0.0
 32
0.0
 14
1.00000000000000E+20
 24
1.00000000000000E+20
 34
1.00000000000000E+20
 15
-1.00000000000000E+20
 25
-1.00000000000000E+20
 35
-1.00000000000000E+20
146
0.0
 13
0.0
 23
0.0
 33
0.0
 16
1.0
 26
0.0
 36
0.0
 17
0.0
 27
1.0
 37
0.0
 76
     0
330
1B
  0
LAYOUT
  5
26
102
{ACAD_REACTORS
330
1A
102
}
330
1A
100
AcDbPlotSettings
  1

  2
none_device
  4

  6

 40
0.0
 41
0.0
 42
0.0
 43
0.0
 44
0.0
 45
0.0
 46
0.0
 47
0.0
 48
0.0
 49
0.0
140
0.0
141
0.0
142
1.0
143
1.0
 70
   688
 72
     0
 73
     0
 74
     5
  7

 75
    16
147
1.0
148
0.0
149
0.0
100
AcDbLayout
  1
Layout2
 70
     1
 71
     2
 10
0.0
 20
0.0
 11
0.0
 21
0.0
 12
0.0
 22
0.0
 32
0.0
 14
0.0
 24
0.0
 34
0.0
 15
0.0
 25
0.0
 35
0.0
146
0.0
 13
0.0
 23
0.0
 33
0.0
 16
1.0
 26
0.0
 36
0.0
 17
0.0
 27
1.0
 37
0.0
 76
     0
330
23
  0
LAYOUT
  5
22
102
{ACAD_REACTORS
330
1A
102
}
330
1A
100
AcDbPlotSettings
  1

  2
none_device
  4

  6

 40
0.0
 41
0.0
 42
0.0
 43
0.0
 44
0.0
 45
0.0
 46
0.0
 47
0.0
 48
0.0
 49
0.0
140
0.0
141
0.0
142
1.0
143
1.0
 70
  1712
 72
     0
 73
     0
 74
     0
  7

 75
     0
147
1.0
148
0.0
149
0.0
100
AcDbLayout
  1
Model
 70
     1
 71
     0
 10
0.0
 20
0.0
 11
12.0
 21
9.0
 12
0.0
 22
0.0
 32
0.0
 14
0.0
 24
0.0
 34
0.0
 15
210.0
 25
297.0
 35
0.0
146
0.0
 13
0.0
 23
0.0
 33
0.0
 16
1.0
 26
0.0
 36
0.0
 17
0.0
 27
1.0
 37
0.0
 76
     0
330
1F
331
29
  0
MATERIAL
  5
3D
102
{ACAD_REACTORS
330
3B
102
}
102
{ACAD_XDICTIONARY
360
3D4
102
}
330
3B
100
AcDbMaterial
  1
ByBlock
  0
MATERIAL
  5
3C
102
{ACAD_REACTORS
330
3B
102
}
102
{ACAD_XDICTIONARY
360
3D2
102
}
330
3B
100
AcDbMaterial
  1
ByLayer
  0
MATERIAL
  5
3E
102
{ACAD_REACTORS
330
3B
102
}
102
{ACAD_XDICTIONARY
360
3D6
102
}
330
3B
100
AcDbMaterial
  1
Global
  0
MLINESTYLE
  5
18
102
{ACAD_REACTORS
330
17
102
}
330
17
100
AcDbMlineStyle
  2
Standard
 70
     0
  3

 62
   256
 51
90.0
 52
90.0
 71
     2
 49
0.5
 62
   256
  6
BYLAYER
 49
-0.5
 62
   256
  6
BYLAYER
  0
ACDBPLACEHOLDER
  5
F
102
{ACAD_REACTORS
330
E
102
}
330
E
  0
VISUALSTYLE
  5
2F
102
{ACAD_REACTORS
330
2A
102
}
102
{ACAD_XDICTIONARY
360
3BA
102
}
330
2A
100
AcDbVisualStyle
  2
2dWireframe
 70
     4
 71
     0
 72
     2
 73
     0
 90
        0
 40
-0.6
 41
-30.0
 62
     5
 63
     7
 74
     1
 91
        4
 64
     7
 65
   257
 75
     1
175
     1
 42
1.0
 92
        0
 66
   257
 43
1.0
 76
     1
 77
     6
 78
     2
 67
     7
 79
     5
170
     0
171
     0
290
     0
174
     0
 93
        1
 44
0.0
173
     0
291
     0
 45
0.0
1001
ACAD
1000
AcDbSavedByObjectVersion
1070
     0
  0
VISUALSTYLE
  5
31
102
{ACAD_REACTORS
330
2A
102
}
102
{ACAD_XDICTIONARY
360
3BE
102
}
330
2A
100
AcDbVisualStyle
  2
3D Hidden
 70
     6
 71
     1
 72
     2
 73
     2
 90
        0
 40
-0.6
 41
-30.0
 62
     5
 63
     7
 74
     2
 91
        2
 64
     7
 65
   257
 75
     2
175
     1
 42
40.0
 92
        0
 66
   257
 43
1.0
 76
     1
 77
     6
 78
     2
 67
     7
 79
     3
170
     0
171
     0
290
     0
174
     0
 93
        1
 44
0.0
173
     0
291
     0
 45
0.0
1001
ACAD
1000
AcDbSavedByObjectVersion
1070
     0
  0
VISUALSTYLE
  5
30
102
{ACAD_REACTORS
330
2A
102
}
102
{ACAD_XDICTIONARY
360
3BC
102
}
330
2A
100
AcDbVisualStyle
  2
3dWireframe
 70
     5
 71
     0
 72
     2
 73
     0
 90
        0
 40
-0.6
 41
-30.0
 62
     5
 63
     7
 74
     1
 91
        4
 64
     7
 65
   257
 75
     1
175
     1
 42
1.0
 92
        0
 66
   257
 43
1.0
 76
     1
 77
     6
 78
     2
 67
     7
 79
     5
170
     0
171
     0
290
     0
174
     0
 93
        1
 44
0.0
173
     0
291
     0
 45
0.0
1001
ACAD
1000
AcDbSavedByObjectVersion
1070
     0
  0
VISUALSTYLE
  5
32
102
{ACAD_REACTORS
330
2A
102
}
102
{ACAD_XDICTIONARY
360
3C0
102
}
330
2A
100
AcDbVisualStyle
  2
Basic
 70
     7
 71
     1
 72
     0
 73
     1
 90
        0
 40
-0.6
 41
-30.0
 62
     5
 63
     7
 74
     0
 91
        4
 64
     7
 65
   257
 75
     1
175
     1
 42
1.0
 92
        8
 66
     7
 43
1.0
 76
     1
 77
     6
 78
     2
 67
     7
 79
     5
170
     0
171
     0
290
     0
174
     0
 93
        1
 44
0.0
173
     0
291
     1
 45
0.0
1001
ACAD
1000
AcDbSavedByObjectVersion
1070
     0
  0
VISUALSTYLE
  5
36
102
{ACAD_REACTORS
330
2A
102
}
102
{ACAD_XDICTIONARY
360
3C8
102
}
330
2A
100
AcDbVisualStyle
  2
Brighten
 70
    12
 71
     2
 72
     2
 73
     0
 90
        0
 40
-0.6
 41
-30.0
 62
     5
 63
     7
 74
     1
 91
        4
 64
     7
 65
   257
 75
     1
175
     1
 42
1.0
 92
        8
 66
     7
 43
1.0
 76
     1
 77
     6
 78
     2
 67
     7
 79
     5
170
     0
171
     0
290
     0
174
     0
 93
        1
 44
50.0
173
     0
291
     1
 45
0.0
1001
ACAD
1000
AcDbSavedByObjectVersion
1070
     0
  0
VISUALSTYLE
  5
3A
102
{ACAD_REACTORS
330
2A
102
}
102
{ACAD_XDICTIONARY
360
3D0
102
}
330
2A
100
AcDbVisualStyle
  2
ColorChange
 70
    16
 71
     2
 72
     2
 73
     3
 90
        0
 40
-0.6
 41
-30.0
 62
     5
 63
     8
 74
     1
 91
        4
 64
     7
 65
   257
 75
     1
175
     1
 42
1.0
 92
        8
 66
     8
 43
1.0
 76
     1
 77
     6
 78
     2
 67
     7
 79
     5
170
     0
171
     0
290
     0
174
     0
 93
        1
 44
0.0
173
     0
291
     1
 45
0.0
1001
ACAD
1000
AcDbSavedByObjectVersion
1070
     0
  0
VISUALSTYLE
  5
34
102
{ACAD_REACTORS
330
2A
102
}
102
{ACAD_XDICTIONARY
360
3C4
102
}
330
2A
100
AcDbVisualStyle
  2
Conceptual
 70
     9
 71
     3
 72
     2
 73
     0
 90
        0
 40
-0.6
 41
-30.0
 62
     5
 63
     7
 74
     2
 91
        2
 64
     7
 65
   257
 75
     1
175
     1
 42
40.0
 92
        8
 66
     7
 43
1.0
 76
     1
 77
     6
 78
     2
 67
     7
 79
     3
170
     0
171
     0
290
     0
174
     0
 93
        1
 44
0.0
173
     0
291
     0
 45
0.0
1001
ACAD
1000
AcDbSavedByObjectVersion
1070
     0
  0
VISUALSTYLE
  5
35
102
{ACAD_REACTORS
330
2A
102
}
102
{ACAD_XDICTIONARY
360
3C6
102
}
330
2A
100
AcDbVisualStyle
  2
Dim
 70
    11
 71
     2
 72
     2
 73
     0
 90
        0
 40
-0.6
 41
-30.0
 62
     5
 63
     7
 74
     1
 91
        4
 64
     7
 65
   257
 75
     1
175
     1
 42
1.0
 92
        8
 66
     7
 43
1.0
 76
     1
 77
     6
 78
     2
 67
     7
 79
     5
170
     0
171
     0
290
     0
174
     0
 93
        1
 44
-50.0
173
     0
291
     1
 45
0.0
1001
ACAD
1000
AcDbSavedByObjectVersion
1070
     0
  0
VISUALSTYLE
  5
39
102
{ACAD_REACTORS
330
2A
102
}
102
{ACAD_XDICTIONARY
360
3CE
102
}
330
2A
100
AcDbVisualStyle
  2
Facepattern
 70
    15
 71
     2
 72
     2
 73
     0
 90
        0
 40
-0.6
 41
-30.0
 62
     5
 63
     7
 74
     1
 91
        4
 64
     7
 65
   257
 75
     1
175
     1
 42
1.0
 92
        8
 66
     7
 43
1.0
 76
     1
 77
     6
 78
     2
 67
     7
 79
     5
170
     0
171
     0
290
     0
174
     0
 93
        1
 44
0.0
173
     0
291
     1
 45
0.0
1001
ACAD
1000
AcDbSavedByObjectVersion
1070
     0
  0
VISUALSTYLE
  5
2B
102
{ACAD_REACTORS
330
2A
102
}
102
{ACAD_XDICTIONARY
360
3B2
102
}
330
2A
100
AcDbVisualStyle
  2
Flat
 70
     0
 71
     2
 72
     1
 73
     1
 90
        2
 40
-0.6
 41
30.0
 62
     5
 63
     7
 74
     0
 91
        4
 64
     7
 65
   257
 75
     1
175
     1
 42
1.0
 92
        8
 66
     7
 43
1.0
 76
     1
 77
     6
 78
     2
 67
     7
 79
     5
170
     0
171
     0
290
     0
174
     0
 93
       13
 44
0.0
173
     0
291
     1
 45
0.0
1001
ACAD
1000
AcDbSavedByObjectVersion
1070
     0
  0
VISUALSTYLE
  5
2C
102
{ACAD_REACTORS
330
2A
102
}
102
{ACAD_XDICTIONARY
360
3B4
102
}
330
2A
100
AcDbVisualStyle
  2
FlatWithEdges
 70
     1
 71
     2
 72
     1
 73
     1
 90
        2
 40
-0.6
 41
30.0
 62
     5
 63
     7
 74
     1
 91
        4
 64
     7
 65
   257
 75
     1
175
     1
 42
1.0
 92
        0
 66
   257
 43
1.0
 76
     1
 77
     6
 78
     2
 67
     7
 79
     5
170
     0
171
     0
290
     0
174
     0
 93
       13
 44
0.0
173
     0
291
     1
 45
0.0
1001
ACAD
1000
AcDbSavedByObjectVersion
1070
     0
  0
VISUALSTYLE
  5
2D
102
{ACAD_REACTORS
330
2A
102
}
102
{ACAD_XDICTIONARY
360
3B6
102
}
330
2A
100
AcDbVisualStyle
  2
Gouraud
 70
     2
 71
     2
 72
     2
 73
     1
 90
        2
 40
-0.6
 41
30.0
 62
     5
 63
     7
 74
     0
 91
        4
 64
     7
 65
   257
 75
     1
175
     1
 42
1.0
 92
        0
 66
     7
 43
1.0
 76
     1
 77
     6
 78
     2
 67
     7
 79
     5
170
     0
171
     0
290
     0
174
     0
 93
       13
 44
0.0
173
     0
291
     1
 45
0.0
1001
ACAD
1000
AcDbSavedByObjectVersion
1070
     0
  0
VISUALSTYLE
  5
2E
102
{ACAD_REACTORS
330
2A
102
}
102
{ACAD_XDICTIONARY
360
3B8
102
}
330
2A
100
AcDbVisualStyle
  2
GouraudWithEdges
 70
     3
 71
     2
 72
     2
 73
     1
 90
        2
 40
-0.6
 41
30.0
 62
     5
 63
     7
 74
     1
 91
        4
 64
     7
 65
   257
 75
     1
175
     1
 42
1.0
 92
        0
 66
   257
 43
1.0
 76
     1
 77
     6
 78
     2
 67
     7
 79
     5
170
     0
171
     0
290
     0
174
     0
 93
       13
 44
0.0
173
     0
291
     1
 45
0.0
1001
ACAD
1000
AcDbSavedByObjectVersion
1070
     0
  0
VISUALSTYLE
  5
38
102
{ACAD_REACTORS
330
2A
102
}
102
{ACAD_XDICTIONARY
360
3CC
102
}
330
2A
100
AcDbVisualStyle
  2
Linepattern
 70
    14
 71
     2
 72
     2
 73
     0
 90
        0
 40
-0.6
 41
-30.0
 62
     5
 63
     7
 74
     1
 91
        4
 64
     7
 65
   257
 75
     7
175
     7
 42
1.0
 92
        8
 66
     7
 43
1.0
 76
     1
 77
     6
 78
     2
 67
     7
 79
     5
170
     0
171
     0
290
     0
174
     0
 93
        1
 44
0.0
173
     0
291
     1
 45
0.0
1001
ACAD
1000
AcDbSavedByObjectVersion
1070
     0
  0
VISUALSTYLE
  5
33
102
{ACAD_REACTORS
330
2A
102
}
102
{ACAD_XDICTIONARY
360
3C2
102
}
330
2A
100
AcDbVisualStyle
  2
Realistic
 70
     8
 71
     2
 72
     2
 73
     0
 90
        0
 40
-0.6
 41
-30.0
 62
     5
 63
     7
 74
     1
 91
        0
 64
     7
 65
   257
 75
     1
175
     1
 42
1.0
 92
        8
 66
     8
 43
1.0
 76
     1
 77
     6
 78
     2
 67
     7
 79
     5
170
     0
171
     0
290
     0
174
     0
 93
       13
 44
0.0
173
     0
291
     0
 45
0.0
1001
ACAD
1000
AcDbSavedByObjectVersion
1070
     0
  0
VISUALSTYLE
  5
37
102
{ACAD_REACTORS
330
2A
102
}
102
{ACAD_XDICTIONARY
360
3CA
102
}
330
2A
100
AcDbVisualStyle
  2
Thicken
 70
    13
 71
     2
 72
     2
 73
     0
 90
        0
 40
-0.6
 41
-30.0
 62
     5
 63
     7
 74
     1
 91
        4
 64
     7
 65
   257
 75
     1
175
     1
 42
1.0
 92
       12
 66
     7
 43
1.0
 76
     1
 77
     6
 78
     2
 67
     7
 79
     5
170
     0
171
     0
290
     0
174
     0
 93
        1
 44
0.0
173
     0
291
     1
 45
0.0
1001
ACAD
1000
AcDbSavedByObjectVersion
1070
     0
  0
DICTIONARYVAR
  5
3B0
102
{ACAD_REACTORS
330
3AD
102
}
330
3AD
100
DictionaryVariables
280
     0
  1
2
  0
DICTIONARYVAR
  5
3B1
102
{ACAD_REACTORS
330
3AD
102
}
330
3AD
100
DictionaryVariables
280
     0
  1
1
  0
DICTIONARY
  5
3D4
330
3D
100
AcDbDictionary
280
     1
281
     1
  3
ACAD_XREC_ROUNDTRIP
360
3D5
  0
DICTIONARY
  5
3D2
330
3C
100
AcDbDictionary
280
     1
281
     1
  3
ACAD_XREC_ROUNDTRIP
360
3D3
  0
DICTIONARY
  5
3D6
330
3E
100
AcDbDictionary
280
     1
281
     1
  3
ACAD_XREC_ROUNDTRIP
360
3D7
  0
DICTIONARY
  5
3BA
330
2F
100
AcDbDictionary
280
     1
281
     1
  3
ACAD_XREC_ROUNDTRIP
360
3BB
  0
DICTIONARY
  5
3BE
330
31
100
AcDbDictionary
280
     1
281
     1
  3
ACAD_XREC_ROUNDTRIP
360
3BF
  0
DICTIONARY
  5
3BC
330
30
100
AcDbDictionary
280
     1
281
     1
  3
ACAD_XREC_ROUNDTRIP
360
3BD
  0
DICTIONARY
  5
3C0
330
32
100
AcDbDictionary
280
     1
281
     1
  3
ACAD_XREC_ROUNDTRIP
360
3C1
  0
DICTIONARY
  5
3C8
330
36
100
AcDbDictionary
280
     1
281
     1
  3
ACAD_XREC_ROUNDTRIP
360
3C9
  0
DICTIONARY
  5
3D0
330
3A
100
AcDbDictionary
280
     1
281
     1
  3
ACAD_XREC_ROUNDTRIP
360
3D1
  0
DICTIONARY
  5
3C4
330
34
100
AcDbDictionary
280
     1
281
     1
  3
ACAD_XREC_ROUNDTRIP
360
3C5
  0
DICTIONARY
  5
3C6
330
35
100
AcDbDictionary
280
     1
281
     1
  3
ACAD_XREC_ROUNDTRIP
360
3C7
  0
DICTIONARY
  5
3CE
330
39
100
AcDbDictionary
280
     1
281
     1
  3
ACAD_XREC_ROUNDTRIP
360
3CF
  0
DICTIONARY
  5
3B2
330
2B
100
AcDbDictionary
280
     1
281
     1
  3
ACAD_XREC_ROUNDTRIP
360
3B3
  0
DICTIONARY
  5
3B4
330
2C
100
AcDbDictionary
280
     1
281
     1
  3
ACAD_XREC_ROUNDTRIP
360
3B5
  0
DICTIONARY
  5
3B6
330
2D
100
AcDbDictionary
280
     1
281
     1
  3
ACAD_XREC_ROUNDTRIP
360
3B7
  0
DICTIONARY
  5
3B8
330
2E
100
AcDbDictionary
280
     1
281
     1
  3
ACAD_XREC_ROUNDTRIP
360
3B9
  0
DICTIONARY
  5
3CC
330
38
100
AcDbDictionary
280
     1
281
     1
  3
ACAD_XREC_ROUNDTRIP
360
3CD
  0
DICTIONARY
  5
3C2
330
33
100
AcDbDictionary
280
     1
281
     1
  3
ACAD_XREC_ROUNDTRIP
360
3C3
  0
DICTIONARY
  5
3CA
330
37
100
AcDbDictionary
280
     1
281
     1
  3
ACAD_XREC_ROUNDTRIP
360
3CB
  0
XRECORD
  5
3D5
102
{ACAD_REACTORS
330
3D4
102
}
330
3D4
100
AcDbXrecord
280
     1
102
MATERIAL
148
0.0
149
0.0
149
0.0
 93
        0
 94
      127
282
     0
 72
     1
 77
     1
171
     1
175
     1
179
     1
273
     0
  0
XRECORD
  5
3D3
102
{ACAD_REACTORS
330
3D2
102
}
330
3D2
100
AcDbXrecord
280
     1
102
MATERIAL
148
0.0
149
0.0
149
0.0
 93
        0
 94
      127
282
     0
 72
     1
 77
     1
171
     1
175
     1
179
     1
273
     0
  0
XRECORD
  5
3D7
102
{ACAD_REACTORS
330
3D6
102
}
330
3D6
100
AcDbXrecord
280
     1
102
MATERIAL
148
0.0
149
0.0
149
0.0
 93
        0
 94
      127
282
     0
 72
     1
 77
     1
171
     1
175
     1
179
     1
273
     0
  0
XRECORD
  5
3BB
102
{ACAD_REACTORS
330
3BA
102
}
330
3BA
100
AcDbXrecord
280
     1
102
RTVSPropertyOp0
 70
     1
102
RTVSPropertyOp1
 70
     1
102
RTVSPropertyOp2
 70
     1
102
RTVSPropertyOp3
 70
     1
102
RTVSPropertyOp4
 70
     1
102
RTVSPropertyOp5
 70
     1
102
RTVSPropertyOp6
 70
     1
102
RTVSPropertyOp7
 70
     1
102
RTVSPropertyOp8
 70
     1
102
RTVSPropertyOp9
 70
     1
102
RTVSPropertyOp10
 70
     1
102
RTVSPropertyOp11
 70
     1
102
RTVSPropertyOp12
 70
     1
102
RTVSPropertyOp13
 70
     1
102
RTVSPropertyOp14
 70
     1
102
RTVSPropertyOp15
 70
     1
102
RTVSPropertyOp16
 70
     1
102
RTVSPropertyOp17
 70
     1
102
RTVSPropertyOp18
 70
     1
102
RTVSPropertyOp19
 70
     1
102
RTVSPropertyOp20
 70
     1
102
RTVSPropertyOp21
 70
     1
102
RTVSPropertyOp22
 70
     1
102
RTVSPropertyOp23
 70
     1
102
RTVSPropertyOp24
 70
     1
102
RTVSPropertyOp25
 70
     1
102
RTVSPropertyOp26
 70
     1
102
RTVSPropertyOp27
 70
     1
102
RTVSPropertyOp28
 70
     1
102
RTVSPropertyOp29
 70
     1
102
RTVSPropertyOp30
 70
     1
102
RTVSPropertyOp31
 70
     1
102
RTVSPropertyOp32
 70
     1
  0
XRECORD
  5
3BF
102
{ACAD_REACTORS
330
3BE
102
}
330
3BE
100
AcDbXrecord
280
     1
102
RTVSPropertyOp0
 70
     1
102
RTVSPropertyOp1
 70
     1
102
RTVSPropertyOp2
 70
     1
102
RTVSPropertyOp3
 70
     1
102
RTVSPropertyOp4
 70
     1
102
RTVSPropertyOp5
 70
     1
102
RTVSPropertyOp6
 70
     1
102
RTVSPropertyOp7
 70
     1
102
RTVSPropertyOp8
 70
     1
102
RTVSPropertyOp9
 70
     1
102
RTVSPropertyOp10
 70
     1
102
RTVSPropertyOp11
 70
     1
102
RTVSPropertyOp12
 70
     1
102
RTVSPropertyOp13
 70
     1
102
RTVSPropertyOp14
 70
     1
102
RTVSPropertyOp15
 70
     1
102
RTVSPropertyOp16
 70
     1
102
RTVSPropertyOp17
 70
     1
102
RTVSPropertyOp18
 70
     1
102
RTVSPropertyOp19
 70
     1
102
RTVSPropertyOp20
 70
     1
102
RTVSPropertyOp21
 70
     1
102
RTVSPropertyOp22
 70
     1
102
RTVSPropertyOp23
 70
     1
102
RTVSPropertyOp24
 70
     1
102
RTVSPropertyOp25
 70
     1
102
RTVSPropertyOp26
 70
     1
102
RTVSPropertyOp27
 70
     1
102
RTVSPropertyOp28
 70
     1
102
RTVSPropertyOp29
 70
     1
102
RTVSPropertyOp30
 70
     1
102
RTVSPropertyOp31
 70
     1
102
RTVSPropertyOp32
 70
     1
  0
XRECORD
  5
3BD
102
{ACAD_REACTORS
330
3BC
102
}
330
3BC
100
AcDbXrecord
280
     1
102
RTVSPropertyOp0
 70
     1
102
RTVSPropertyOp1
 70
     1
102
RTVSPropertyOp2
 70
     1
102
RTVSPropertyOp3
 70
     1
102
RTVSPropertyOp4
 70
     1
102
RTVSPropertyOp5
 70
     1
102
RTVSPropertyOp6
 70
     1
102
RTVSPropertyOp7
 70
     1
102
RTVSPropertyOp8
 70
     1
102
RTVSPropertyOp9
 70
     1
102
RTVSPropertyOp10
 70
     1
102
RTVSPropertyOp11
 70
     1
102
RTVSPropertyOp12
 70
     1
102
RTVSPropertyOp13
 70
     1
102
RTVSPropertyOp14
 70
     1
102
RTVSPropertyOp15
 70
     1
102
RTVSPropertyOp16
 70
     1
102
RTVSPropertyOp17
 70
     1
102
RTVSPropertyOp18
 70
     1
102
RTVSPropertyOp19
 70
     1
102
RTVSPropertyOp20
 70
     1
102
RTVSPropertyOp21
 70
     1
102
RTVSPropertyOp22
 70
     1
102
RTVSPropertyOp23
 70
     1
102
RTVSPropertyOp24
 70
     1
102
RTVSPropertyOp25
 70
     1
102
RTVSPropertyOp26
 70
     1
102
RTVSPropertyOp27
 70
     1
102
RTVSPropertyOp28
 70
     1
102
RTVSPropertyOp29
 70
     1
102
RTVSPropertyOp30
 70
     1
102
RTVSPropertyOp31
 70
     1
102
RTVSPropertyOp32
 70
     1
  0
XRECORD
  5
3C1
102
{ACAD_REACTORS
330
3C0
102
}
330
3C0
100
AcDbXrecord
280
     1
102
RTVSPropertyOp0
 70
     1
102
RTVSPropertyOp1
 70
     1
102
RTVSPropertyOp2
 70
     1
102
RTVSPropertyOp3
 70
     1
102
RTVSPropertyOp4
 70
     1
102
RTVSPropertyOp5
 70
     1
102
RTVSPropertyOp6
 70
     1
102
RTVSPropertyOp7
 70
     1
102
RTVSPropertyOp8
 70
     1
102
RTVSPropertyOp9
 70
     1
102
RTVSPropertyOp10
 70
     1
102
RTVSPropertyOp11
 70
     1
102
RTVSPropertyOp12
 70
     1
102
RTVSPropertyOp13
 70
     1
102
RTVSPropertyOp14
 70
     1
102
RTVSPropertyOp15
 70
     1
102
RTVSPropertyOp16
 70
     1
102
RTVSPropertyOp17
 70
     1
102
RTVSPropertyOp18
 70
     1
102
RTVSPropertyOp19
 70
     1
102
RTVSPropertyOp20
 70
     1
102
RTVSPropertyOp21
 70
     1
102
RTVSPropertyOp22
 70
     1
102
RTVSPropertyOp23
 70
     1
102
RTVSPropertyOp24
 70
     1
102
RTVSPropertyOp25
 70
     1
102
RTVSPropertyOp26
 70
     1
102
RTVSPropertyOp27
 70
     1
102
RTVSPropertyOp28
 70
     1
102
RTVSPropertyOp29
 70
     1
102
RTVSPropertyOp30
 70
     1
102
RTVSPropertyOp31
 70
     1
102
RTVSPropertyOp32
 70
     1
  0
XRECORD
  5
3C9
102
{ACAD_REACTORS
330
3C8
102
}
330
3C8
100
AcDbXrecord
280
     1
102
RTVSPropertyOp0
 70
     1
102
RTVSPropertyOp1
 70
     1
102
RTVSPropertyOp2
 70
     1
102
RTVSPropertyOp3
 70
     1
102
RTVSPropertyOp4
 70
     1
102
RTVSPropertyOp5
 70
     1
102
RTVSPropertyOp6
 70
     1
102
RTVSPropertyOp7
 70
     1
102
RTVSPropertyOp8
 70
     1
102
RTVSPropertyOp9
 70
     1
102
RTVSPropertyOp10
 70
     1
102
RTVSPropertyOp11
 70
     1
102
RTVSPropertyOp12
 70
     1
102
RTVSPropertyOp13
 70
     1
102
RTVSPropertyOp14
 70
     1
102
RTVSPropertyOp15
 70
     1
102
RTVSPropertyOp16
 70
     1
102
RTVSPropertyOp17
 70
     1
102
RTVSPropertyOp18
 70
     1
102
RTVSPropertyOp19
 70
     1
102
RTVSPropertyOp20
 70
     1
102
RTVSPropertyOp21
 70
     1
102
RTVSPropertyOp22
 70
     1
102
RTVSPropertyOp23
 70
     1
102
RTVSPropertyOp24
 70
     1
102
RTVSPropertyOp25
 70
     1
102
RTVSPropertyOp26
 70
     1
102
RTVSPropertyOp27
 70
     1
102
RTVSPropertyOp28
 70
     1
102
RTVSPropertyOp29
 70
     1
102
RTVSPropertyOp30
 70
     1
102
RTVSPropertyOp31
 70
     1
102
RTVSPropertyOp32
 70
     1
  0
XRECORD
  5
3D1
102
{ACAD_REACTORS
330
3D0
102
}
330
3D0
100
AcDbXrecord
280
     1
102
RTVSPropertyOp0
 70
     1
102
RTVSPropertyOp1
 70
     1
102
RTVSPropertyOp2
 70
     1
102
RTVSPropertyOp3
 70
     1
102
RTVSPropertyOp4
 70
     1
102
RTVSPropertyOp5
 70
     1
102
RTVSPropertyOp6
 70
     1
102
RTVSPropertyOp7
 70
     1
102
RTVSPropertyOp8
 70
     1
102
RTVSPropertyOp9
 70
     1
102
RTVSPropertyOp10
 70
     1
102
RTVSPropertyOp11
 70
     1
102
RTVSPropertyOp12
 70
     1
102
RTVSPropertyOp13
 70
     1
102
RTVSPropertyOp14
 70
     1
102
RTVSPropertyOp15
 70
     1
102
RTVSPropertyOp16
 70
     1
102
RTVSPropertyOp17
 70
     1
102
RTVSPropertyOp18
 70
     1
102
RTVSPropertyOp19
 70
     1
102
RTVSPropertyOp20
 70
     1
102
RTVSPropertyOp21
 70
     1
102
RTVSPropertyOp22
 70
     1
102
RTVSPropertyOp23
 70
     1
102
RTVSPropertyOp24
 70
     1
102
RTVSPropertyOp25
 70
     1
102
RTVSPropertyOp26
 70
     1
102
RTVSPropertyOp27
 70
     1
102
RTVSPropertyOp28
 70
     1
102
RTVSPropertyOp29
 70
     1
102
RTVSPropertyOp30
 70
     1
102
RTVSPropertyOp31
 70
     1
102
RTVSPropertyOp32
 70
     1
  0
XRECORD
  5
3C5
102
{ACAD_REACTORS
330
3C4
102
}
330
3C4
100
AcDbXrecord
280
     1
102
RTVSPropertyOp0
 70
     1
102
RTVSPropertyOp1
 70
     1
102
RTVSPropertyOp2
 70
     1
102
RTVSPropertyOp3
 70
     1
102
RTVSPropertyOp4
 70
     1
102
RTVSPropertyOp5
 70
     1
102
RTVSPropertyOp6
 70
     1
102
RTVSPropertyOp7
 70
     1
102
RTVSPropertyOp8
 70
     1
102
RTVSPropertyOp9
 70
     1
102
RTVSPropertyOp10
 70
     1
102
RTVSPropertyOp11
 70
     1
102
RTVSPropertyOp12
 70
     1
102
RTVSPropertyOp13
 70
     1
102
RTVSPropertyOp14
 70
     1
102
RTVSPropertyOp15
 70
     1
102
RTVSPropertyOp16
 70
     1
102
RTVSPropertyOp17
 70
     1
102
RTVSPropertyOp18
 70
     1
102
RTVSPropertyOp19
 70
     1
102
RTVSPropertyOp20
 70
     1
102
RTVSPropertyOp21
 70
     1
102
RTVSPropertyOp22
 70
     1
102
RTVSPropertyOp23
 70
     1
102
RTVSPropertyOp24
 70
     1
102
RTVSPropertyOp25
 70
     1
102
RTVSPropertyOp26
 70
     1
102
RTVSPropertyOp27
 70
     1
102
RTVSPropertyOp28
 70
     1
102
RTVSPropertyOp29
 70
     1
102
RTVSPropertyOp30
 70
     1
102
RTVSPropertyOp31
 70
     1
102
RTVSPropertyOp32
 70
     1
  0
XRECORD
  5
3C7
102
{ACAD_REACTORS
330
3C6
102
}
330
3C6
100
AcDbXrecord
280
     1
102
RTVSPropertyOp0
 70
     1
102
RTVSPropertyOp1
 70
     1
102
RTVSPropertyOp2
 70
     1
102
RTVSPropertyOp3
 70
     1
102
RTVSPropertyOp4
 70
     1
102
RTVSPropertyOp5
 70
     1
102
RTVSPropertyOp6
 70
     1
102
RTVSPropertyOp7
 70
     1
102
RTVSPropertyOp8
 70
     1
102
RTVSPropertyOp9
 70
     1
102
RTVSPropertyOp10
 70
     1
102
RTVSPropertyOp11
 70
     1
102
RTVSPropertyOp12
 70
     1
102
RTVSPropertyOp13
 70
     1
102
RTVSPropertyOp14
 70
     1
102
RTVSPropertyOp15
 70
     1
102
RTVSPropertyOp16
 70
     1
102
RTVSPropertyOp17
 70
     1
102
RTVSPropertyOp18
 70
     1
102
RTVSPropertyOp19
 70
     1
102
RTVSPropertyOp20
 70
     1
102
RTVSPropertyOp21
 70
     1
102
RTVSPropertyOp22
 70
     1
102
RTVSPropertyOp23
 70
     1
102
RTVSPropertyOp24
 70
     1
102
RTVSPropertyOp25
 70
     1
102
RTVSPropertyOp26
 70
     1
102
RTVSPropertyOp27
 70
     1
102
RTVSPropertyOp28
 70
     1
102
RTVSPropertyOp29
 70
     1
102
RTVSPropertyOp30
 70
     1
102
RTVSPropertyOp31
 70
     1
102
RTVSPropertyOp32
 70
     1
  0
XRECORD
  5
3CF
102
{ACAD_REACTORS
330
3CE
102
}
330
3CE
100
AcDbXrecord
280
     1
102
RTVSPropertyOp0
 70
     1
102
RTVSPropertyOp1
 70
     1
102
RTVSPropertyOp2
 70
     1
102
RTVSPropertyOp3
 70
     1
102
RTVSPropertyOp4
 70
     1
102
RTVSPropertyOp5
 70
     1
102
RTVSPropertyOp6
 70
     1
102
RTVSPropertyOp7
 70
     1
102
RTVSPropertyOp8
 70
     1
102
RTVSPropertyOp9
 70
     1
102
RTVSPropertyOp10
 70
     1
102
RTVSPropertyOp11
 70
     1
102
RTVSPropertyOp12
 70
     1
102
RTVSPropertyOp13
 70
     1
102
RTVSPropertyOp14
 70
     1
102
RTVSPropertyOp15
 70
     1
102
RTVSPropertyOp16
 70
     1
102
RTVSPropertyOp17
 70
     1
102
RTVSPropertyOp18
 70
     1
102
RTVSPropertyOp19
 70
     1
102
RTVSPropertyOp20
 70
     1
102
RTVSPropertyOp21
 70
     1
102
RTVSPropertyOp22
 70
     1
102
RTVSPropertyOp23
 70
     1
102
RTVSPropertyOp24
 70
     1
102
RTVSPropertyOp25
 70
     1
102
RTVSPropertyOp26
 70
     1
102
RTVSPropertyOp27
 70
     1
102
RTVSPropertyOp28
 70
     1
102
RTVSPropertyOp29
 70
     1
102
RTVSPropertyOp30
 70
     1
102
RTVSPropertyOp31
 70
     1
102
RTVSPropertyOp32
 70
     1
  0
XRECORD
  5
3B3
102
{ACAD_REACTORS
330
3B2
102
}
330
3B2
100
AcDbXrecord
280
     1
102
RTVSPropertyOp0
 70
     1
102
RTVSPropertyOp1
 70
     1
102
RTVSPropertyOp2
 70
     1
102
RTVSPropertyOp3
 70
     1
102
RTVSPropertyOp4
 70
     1
102
RTVSPropertyOp5
 70
     1
102
RTVSPropertyOp6
 70
     1
102
RTVSPropertyOp7
 70
     1
102
RTVSPropertyOp8
 70
     1
102
RTVSPropertyOp9
 70
     1
102
RTVSPropertyOp10
 70
     1
102
RTVSPropertyOp11
 70
     1
102
RTVSPropertyOp12
 70
     1
102
RTVSPropertyOp13
 70
     1
102
RTVSPropertyOp14
 70
     1
102
RTVSPropertyOp15
 70
     1
102
RTVSPropertyOp16
 70
     1
102
RTVSPropertyOp17
 70
     1
102
RTVSPropertyOp18
 70
     1
102
RTVSPropertyOp19
 70
     1
102
RTVSPropertyOp20
 70
     1
102
RTVSPropertyOp21
 70
     1
102
RTVSPropertyOp22
 70
     1
102
RTVSPropertyOp23
 70
     1
102
RTVSPropertyOp24
 70
     1
102
RTVSPropertyOp25
 70
     1
102
RTVSPropertyOp26
 70
     1
102
RTVSPropertyOp27
 70
     1
102
RTVSPropertyOp28
 70
     1
102
RTVSPropertyOp29
 70
     1
102
RTVSPropertyOp30
 70
     1
102
RTVSPropertyOp31
 70
     1
102
RTVSPropertyOp32
 70
     1
  0
XRECORD
  5
3B5
102
{ACAD_REACTORS
330
3B4
102
}
330
3B4
100
AcDbXrecord
280
     1
102
RTVSPropertyOp0
 70
     1
102
RTVSPropertyOp1
 70
     1
102
RTVSPropertyOp2
 70
     1
102
RTVSPropertyOp3
 70
     1
102
RTVSPropertyOp4
 70
     1
102
RTVSPropertyOp5
 70
     1
102
RTVSPropertyOp6
 70
     1
102
RTVSPropertyOp7
 70
     1
102
RTVSPropertyOp8
 70
     1
102
RTVSPropertyOp9
 70
     1
102
RTVSPropertyOp10
 70
     1
102
RTVSPropertyOp11
 70
     1
102
RTVSPropertyOp12
 70
     1
102
RTVSPropertyOp13
 70
     1
102
RTVSPropertyOp14
 70
     1
102
RTVSPropertyOp15
 70
     1
102
RTVSPropertyOp16
 70
     1
102
RTVSPropertyOp17
 70
     1
102
RTVSPropertyOp18
 70
     1
102
RTVSPropertyOp19
 70
     1
102
RTVSPropertyOp20
 70
     1
102
RTVSPropertyOp21
 70
     1
102
RTVSPropertyOp22
 70
     1
102
RTVSPropertyOp23
 70
     1
102
RTVSPropertyOp24
 70
     1
102
RTVSPropertyOp25
 70
     1
102
RTVSPropertyOp26
 70
     1
102
RTVSPropertyOp27
 70
     1
102
RTVSPropertyOp28
 70
     1
102
RTVSPropertyOp29
 70
     1
102
RTVSPropertyOp30
 70
     1
102
RTVSPropertyOp31
 70
     1
102
RTVSPropertyOp32
 70
     1
  0
XRECORD
  5
3B7
102
{ACAD_REACTORS
330
3B6
102
}
330
3B6
100
AcDbXrecord
280
     1
102
RTVSPropertyOp0
 70
     1
102
RTVSPropertyOp1
 70
     1
102
RTVSPropertyOp2
 70
     1
102
RTVSPropertyOp3
 70
     1
102
RTVSPropertyOp4
 70
     1
102
RTVSPropertyOp5
 70
     1
102
RTVSPropertyOp6
 70
     1
102
RTVSPropertyOp7
 70
     1
102
RTVSPropertyOp8
 70
     1
102
RTVSPropertyOp9
 70
     1
102
RTVSPropertyOp10
 70
     1
102
RTVSPropertyOp11
 70
     1
102
RTVSPropertyOp12
 70
     1
102
RTVSPropertyOp13
 70
     1
102
RTVSPropertyOp14
 70
     1
102
RTVSPropertyOp15
 70
     1
102
RTVSPropertyOp16
 70
     1
102
RTVSPropertyOp17
 70
     1
102
RTVSPropertyOp18
 70
     1
102
RTVSPropertyOp19
 70
     1
102
RTVSPropertyOp20
 70
     1
102
RTVSPropertyOp21
 70
     1
102
RTVSPropertyOp22
 70
     1
102
RTVSPropertyOp23
 70
     1
102
RTVSPropertyOp24
 70
     1
102
RTVSPropertyOp25
 70
     1
102
RTVSPropertyOp26
 70
     1
102
RTVSPropertyOp27
 70
     1
102
RTVSPropertyOp28
 70
     1
102
RTVSPropertyOp29
 70
     1
102
RTVSPropertyOp30
 70
     1
102
RTVSPropertyOp31
 70
     1
102
RTVSPropertyOp32
 70
     1
  0
XRECORD
  5
3B9
102
{ACAD_REACTORS
330
3B8
102
}
330
3B8
100
AcDbXrecord
280
     1
102
RTVSPropertyOp0
 70
     1
102
RTVSPropertyOp1
 70
     1
102
RTVSPropertyOp2
 70
     1
102
RTVSPropertyOp3
 70
     1
102
RTVSPropertyOp4
 70
     1
102
RTVSPropertyOp5
 70
     1
102
RTVSPropertyOp6
 70
     1
102
RTVSPropertyOp7
 70
     1
102
RTVSPropertyOp8
 70
     1
102
RTVSPropertyOp9
 70
     1
102
RTVSPropertyOp10
 70
     1
102
RTVSPropertyOp11
 70
     1
102
RTVSPropertyOp12
 70
     1
102
RTVSPropertyOp13
 70
     1
102
RTVSPropertyOp14
 70
     1
102
RTVSPropertyOp15
 70
     1
102
RTVSPropertyOp16
 70
     1
102
RTVSPropertyOp17
 70
     1
102
RTVSPropertyOp18
 70
     1
102
RTVSPropertyOp19
 70
     1
102
RTVSPropertyOp20
 70
     1
102
RTVSPropertyOp21
 70
     1
102
RTVSPropertyOp22
 70
     1
102
RTVSPropertyOp23
 70
     1
102
RTVSPropertyOp24
 70
     1
102
RTVSPropertyOp25
 70
     1
102
RTVSPropertyOp26
 70
     1
102
RTVSPropertyOp27
 70
     1
102
RTVSPropertyOp28
 70
     1
102
RTVSPropertyOp29
 70
     1
102
RTVSPropertyOp30
 70
     1
102
RTVSPropertyOp31
 70
     1
102
RTVSPropertyOp32
 70
     1
  0
XRECORD
  5
3CD
102
{ACAD_REACTORS
330
3CC
102
}
330
3CC
100
AcDbXrecord
280
     1
102
RTVSPropertyOp0
 70
     1
102
RTVSPropertyOp1
 70
     1
102
RTVSPropertyOp2
 70
     1
102
RTVSPropertyOp3
 70
     1
102
RTVSPropertyOp4
 70
     1
102
RTVSPropertyOp5
 70
     1
102
RTVSPropertyOp6
 70
     1
102
RTVSPropertyOp7
 70
     1
102
RTVSPropertyOp8
 70
     1
102
RTVSPropertyOp9
 70
     1
102
RTVSPropertyOp10
 70
     1
102
RTVSPropertyOp11
 70
     1
102
RTVSPropertyOp12
 70
     1
102
RTVSPropertyOp13
 70
     1
102
RTVSPropertyOp14
 70
     1
102
RTVSPropertyOp15
 70
     1
102
RTVSPropertyOp16
 70
     1
102
RTVSPropertyOp17
 70
     1
102
RTVSPropertyOp18
 70
     1
102
RTVSPropertyOp19
 70
     1
102
RTVSPropertyOp20
 70
     1
102
RTVSPropertyOp21
 70
     1
102
RTVSPropertyOp22
 70
     1
102
RTVSPropertyOp23
 70
     1
102
RTVSPropertyOp24
 70
     1
102
RTVSPropertyOp25
 70
     1
102
RTVSPropertyOp26
 70
     1
102
RTVSPropertyOp27
 70
     1
102
RTVSPropertyOp28
 70
     1
102
RTVSPropertyOp29
 70
     1
102
RTVSPropertyOp30
 70
     1
102
RTVSPropertyOp31
 70
     1
102
RTVSPropertyOp32
 70
     1
  0
XRECORD
  5
3C3
102
{ACAD_REACTORS
330
3C2
102
}
330
3C2
100
AcDbXrecord
280
     1
102
RTVSPropertyOp0
 70
     1
102
RTVSPropertyOp1
 70
     1
102
RTVSPropertyOp2
 70
     1
102
RTVSPropertyOp3
 70
     1
102
RTVSPropertyOp4
 70
     1
102
RTVSPropertyOp5
 70
     1
102
RTVSPropertyOp6
 70
     1
102
RTVSPropertyOp7
 70
     1
102
RTVSPropertyOp8
 70
     1
102
RTVSPropertyOp9
 70
     1
102
RTVSPropertyOp10
 70
     1
102
RTVSPropertyOp11
 70
     1
102
RTVSPropertyOp12
 70
     1
102
RTVSPropertyOp13
 70
     1
102
RTVSPropertyOp14
 70
     1
102
RTVSPropertyOp15
 70
     1
102
RTVSPropertyOp16
 70
     1
102
RTVSPropertyOp17
 70
     1
102
RTVSPropertyOp18
 70
     1
102
RTVSPropertyOp19
 70
     1
102
RTVSPropertyOp20
 70
     1
102
RTVSPropertyOp21
 70
     1
102
RTVSPropertyOp22
 70
     1
102
RTVSPropertyOp23
 70
     1
102
RTVSPropertyOp24
 70
     1
102
RTVSPropertyOp25
 70
     1
102
RTVSPropertyOp26
 70
     1
102
RTVSPropertyOp27
 70
     1
102
RTVSPropertyOp28
 70
     1
102
RTVSPropertyOp29
 70
     1
102
RTVSPropertyOp30
 70
     1
102
RTVSPropertyOp31
 70
     1
102
RTVSPropertyOp32
 70
     1
  0
XRECORD
  5
3CB
102
{ACAD_REACTORS
330
3CA
102
}
330
3CA
100
AcDbXrecord
280
     1
102
RTVSPropertyOp0
 70
     1
102
RTVSPropertyOp1
 70
     1
102
RTVSPropertyOp2
 70
     1
102
RTVSPropertyOp3
 70
     1
102
RTVSPropertyOp4
 70
     1
102
RTVSPropertyOp5
 70
     1
102
RTVSPropertyOp6
 70
     1
102
RTVSPropertyOp7
 70
     1
102
RTVSPropertyOp8
 70
     1
102
RTVSPropertyOp9
 70
     1
102
RTVSPropertyOp10
 70
     1
102
RTVSPropertyOp11
 70
     1
102
RTVSPropertyOp12
 70
     1
102
RTVSPropertyOp13
 70
     1
102
RTVSPropertyOp14
 70
     1
102
RTVSPropertyOp15
 70
     1
102
RTVSPropertyOp16
 70
     1
102
RTVSPropertyOp17
 70
     1
102
RTVSPropertyOp18
 70
     1
102
RTVSPropertyOp19
 70
     1
102
RTVSPropertyOp20
 70
     1
102
RTVSPropertyOp21
 70
     1
102
RTVSPropertyOp22
 70
     1
102
RTVSPropertyOp23
 70
     1
102
RTVSPropertyOp24
 70
     1
102
RTVSPropertyOp25
 70
     1
102
RTVSPropertyOp26
 70
     1
102
RTVSPropertyOp27
 70
     1
102
RTVSPropertyOp28
 70
     1
102
RTVSPropertyOp29
 70
     1
102
RTVSPropertyOp30
 70
     1
102
RTVSPropertyOp31
 70
     1
102
RTVSPropertyOp32
 70
     1
  0
ENDSEC
  0
EOF
