  0
SECTION
  2
HEADER
  9
$ACADVER
  1
AC1015
  9
$ACADMAINTVER
 70
     6
  9
$DWGCODEPAGE
  3
ANSI_932
  9
$INSBASE
 10
0.0
 20
0.0
 30
0.0
  9
$EXTMIN
 10
0.0
 20
0.0
 30
0.0
  9
$EXTMAX
 10
630.0
 20
891.0
 30
0.0
  9
$LIMMIN
 10
0.0
 20
0.0
  9
$LIMMAX
 10
12.0
 20
9.0
  9
$ORTHOMODE
 70
     0
  9
$REGENMODE
 70
     1
  9
$FILLMODE
 70
     1
  9
$QTEXTMODE
 70
     0
  9
$MIRRTEXT
 70
     1
  9
$LTSCALE
 40
1.0
  9
$ATTMODE
 70
     1
  9
$TEXTSIZE
 40
0.2
  9
$TRACEWID
 40
0.05
  9
$TEXTSTYLE
  7
Standard
  9
$CLAYER
  8
0
  9
$CELTYPE
  6
ByLayer
  9
$CECOLOR
 62
   256
  9
$CELTSCALE
 40
1.0
  9
$DISPSILH
 70
     0
  9
$DIMSCALE
 40
1.0
  9
$DIMASZ
 40
0.18
  9
$DIMEXO
 40
0.0625
  9
$DIMDLI
 40
0.38
  9
$DIMRND
 40
0.0
  9
$DIMDLE
 40
0.0
  9
$DIMEXE
 40
0.18
  9
$DIMTP
 40
0.0
  9
$DIMTM
 40
0.0
  9
$DIMTXT
 40
0.18
  9
$DIMCEN
 40
0.09
  9
$DIMTSZ
 40
0.0
  9
$DIMTOL
 70
     0
  9
$DIMLIM
 70
     0
  9
$DIMTIH
 70
     1
  9
$DIMTOH
 70
     1
  9
$DIMSE1
 70
     0
  9
$DIMSE2
 70
     0
  9
$DIMTAD
 70
     0
  9
$DIMZIN
 70
     0
  9
$DIMBLK
  1

  9
$DIMASO
 70
     1
  9
$DIMSHO
 70
     1
  9
$DIMPOST
  1

  9
$DIMAPOST
  1

  9
$DIMALT
 70
     0
  9
$DIMALTD
 70
     2
  9
$DIMALTF
 40
25.4
  9
$DIMLFAC
 40
1.0
  9
$DIMTOFL
 70
     0
  9
$DIMTVP
 40
0.0
  9
$DIMTIX
 70
     0
  9
$DIMSOXD
 70
     0
  9
$DIMSAH
 70
     0
  9
$DIMBLK1
  1

  9
$DIMBLK2
  1

  9
$DIMSTYLE
  2
Standard
  9
$DIMCLRD
 70
     0
  9
$DIMCLRE
 70
     0
  9
$DIMCLRT
 70
     0
  9
$DIMTFAC
 40
1.0
  9
$DIMGAP
 40
0.09
  9
$DIMJUST
 70
     0
  9
$DIMSD1
 70
     0
  9
$DIMSD2
 70
     0
  9
$DIMTOLJ
 70
     1
  9
$DIMTZIN
 70
     0
  9
$DIMALTZ
 70
     0
  9
$DIMALTTZ
 70
     0
  9
$DIMUPT
 70
     0
  9
$DIMDEC
 70
     4
  9
$DIMTDEC
 70
     4
  9
$DIMALTU
 70
     2
  9
$DIMALTTD
 70
     2
  9
$DIMTXSTY
  7
Standard
  9
$DIMAUNIT
 70
     0
  9
$DIMADEC
 70
     0
  9
$DIMALTRND
 40
0.0
  9
$DIMAZIN
 70
     0
  9
$DIMDSEP
 70
    46
  9
$DIMATFIT
 70
     3
  9
$DIMFRAC
 70
     0
  9
$DIMLDRBLK
  1

  9
$DIMLUNIT
 70
     2
  9
$DIMLWD
 70
    -2
  9
$DIMLWE
 70
    -2
  9
$DIMTMOVE
 70
     0
  9
$LUNITS
 70
     2
  9
$LUPREC
 70
     4
  9
$SKETCHINC
 40
0.1
  9
$FILLETRAD
 40
0.5
  9
$AUNITS
 70
     0
  9
$AUPREC
 70
     0
  9
$MENU
  1
.
  9
$ELEVATION
 40
0.0
  9
$PELEVATION
 40
0.0
  9
$THICKNESS
 40
0.0
  9
$LIMCHECK
 70
     0
  9
$CHAMFERA
 40
0.5
  9
$CHAMFERB
 40
0.5
  9
$CHAMFERC
 40
1.0
  9
$CHAMFERD
 40
0.0
  9
$SKPOLY
 70
     0
  9
$TDCREATE
 40
2457540.559714583
  9
$TDUCREATE
 40
2457540.184714583
  9
$TDUPDATE
 40
2457540.55971603
  9
$TDUUPDATE
 40
2457540.18471603
  9
$TDINDWG
 40
0.0000000116
  9
$TDUSRTIMER
 40
0.0000000116
  9
$USRTIMER
 70
     1
  9
$ANGBASE
 50
0.0
  9
$ANGDIR
 70
     0
  9
$PDMODE
 70
     0
  9
$PDSIZE
 40
0.0
  9
$PLINEWID
 40
0.0
  9
$SPLFRAME
 70
     0
  9
$SPLINETYPE
 70
     6
  9
$SPLINESEGS
 70
     8
  9
$HANDSEED
  5
552
  9
$SURFTAB1
 70
     6
  9
$SURFTAB2
 70
     6
  9
$SURFTYPE
 70
     6
  9
$SURFU
 70
     6
  9
$SURFV
 70
     6
  9
$UCSBASE
  2

  9
$UCSNAME
  2

  9
$UCSORG
 10
0.0
 20
0.0
 30
0.0
  9
$UCSXDIR
 10
1.0
 20
0.0
 30
0.0
  9
$UCSYDIR
 10
0.0
 20
1.0
 30
0.0
  9
$UCSORTHOREF
  2

  9
$UCSORTHOVIEW
 70
     0
  9
$UCSORGTOP
 10
0.0
 20
0.0
 30
0.0
  9
$UCSORGBOTTOM
 10
0.0
 20
0.0
 30
0.0
  9
$UCSORGLEFT
 10
0.0
 20
0.0
 30
0.0
  9
$UCSORGRIGHT
 10
0.0
 20
0.0
 30
0.0
  9
$UCSORGFRONT
 10
0.0
 20
0.0
 30
0.0
  9
$UCSORGBACK
 10
0.0
 20
0.0
 30
0.0
  9
$PUCSBASE
  2

  9
$PUCSNAME
  2

  9
$PUCSORG
 10
0.0
 20
0.0
 30
0.0
  9
$PUCSXDIR
 10
1.0
 20
0.0
 30
0.0
  9
$PUCSYDIR
 10
0.0
 20
1.0
 30
0.0
  9
$PUCSORTHOREF
  2

  9
$PUCSORTHOVIEW
 70
     0
  9
$PUCSORGTOP
 10
0.0
 20
0.0
 30
0.0
  9
$PUCSORGBOTTOM
 10
0.0
 20
0.0
 30
0.0
  9
$PUCSORGLEFT
 10
0.0
 20
0.0
 30
0.0
  9
$PUCSORGRIGHT
 10
0.0
 20
0.0
 30
0.0
  9
$PUCSORGFRONT
 10
0.0
 20
0.0
 30
0.0
  9
$PUCSORGBACK
 10
0.0
 20
0.0
 30
0.0
  9
$USERI1
 70
     0
  9
$USERI2
 70
     0
  9
$USERI3
 70
     0
  9
$USERI4
 70
     0
  9
$USERI5
 70
     0
  9
$USERR1
 40
18.1
  9
$USERR2
 40
0.0
  9
$USERR3
 40
0.0
  9
$USERR4
 40
0.0
  9
$USERR5
 40
0.0
  9
$WORLDVIEW
 70
     1
  9
$SHADEDGE
 70
     3
  9
$SHADEDIF
 70
    70
  9
$TILEMODE
 70
     1
  9
$MAXACTVP
 70
    64
  9
$PINSBASE
 10
0.0
 20
0.0
 30
0.0
  9
$PLIMCHECK
 70
     0
  9
$PEXTMIN
 10
1.00000000000000E+20
 20
1.00000000000000E+20
 30
1.00000000000000E+20
  9
$PEXTMAX
 10
-1.00000000000000E+20
 20
-1.00000000000000E+20
 30
-1.00000000000000E+20
  9
$PLIMMIN
 10
0.0
 20
0.0
  9
$PLIMMAX
 10
12.0
 20
9.0
  9
$UNITMODE
 70
     0
  9
$VISRETAIN
 70
     1
  9
$PLINEGEN
 70
     0
  9
$PSLTSCALE
 70
     1
  9
$TREEDEPTH
 70
  3020
  9
$CMLSTYLE
  2
Standard
  9
$CMLJUST
 70
     0
  9
$CMLSCALE
 40
1.0
  9
$PROXYGRAPHICS
 70
     1
  9
$MEASUREMENT
 70
     1
  9
$CELWEIGHT
370
    -1
  9
$ENDCAPS
280
     0
  9
$JOINSTYLE
280
     0
  9
$LWDISPLAY
290
     0
  9
$INSUNITS
 70
     4
  9
$HYPERLINKBASE
  1

  9
$STYLESHEET
  1

  9
$XEDIT
290
     1
  9
$CEPSNTYPE
380
     0
  9
$PSTYLEMODE
290
     1
  9
$FINGERPRINTGUID
  2
{E7A5E028-40B1-4B57-AB97-102DAD14CF6D}
  9
$VERSIONGUID
  2
{FAEB1C32-E019-11D5-929B-00C0DF256EC4}
  9
$EXTNAMES
290
     1
  9
$PSVPSCALE
 40
0.0
  9
$OLESTARTUP
290
     0
  0
ENDSEC
  0
SECTION
  2
CLASSES
  0
CLASS
  1
ACDBDICTIONARYWDFLT
  2
AcDbDictionaryWithDefault
  3
ObjectDBX Classes
 90
        0
280
     0
281
     0
  0
CLASS
  1
VISUALSTYLE
  2
AcDbVisualStyle
  3
ObjectDBX Classes
 90
     4095
280
     0
281
     0
  0
CLASS
  1
MATERIAL
  2
AcDbMaterial
  3
ObjectDBX Classes
 90
     1153
280
     0
281
     0
  0
CLASS
  1
DICTIONARYVAR
  2
AcDbDictionaryVar
  3
ObjectDBX Classes
 90
        0
280
     0
281
     0
  0
CLASS
  1
ACDBPLACEHOLDER
  2
AcDbPlaceHolder
  3
ObjectDBX Classes
 90
        0
280
     0
281
     0
  0
CLASS
  1
LAYOUT
  2
AcDbLayout
  3
ObjectDBX Classes
 90
        0
280
     0
281
     0
  0
ENDSEC
  0
SECTION
  2
TABLES
  0
TABLE
  2
VPORT
  5
8
330
0
100
AcDbSymbolTable
 70
     1
  0
VPORT
  5
29
330
8
100
AcDbSymbolTableRecord
100
AcDbViewportTableRecord
  2
*Active
 70
     0
 10
0.0
 20
0.0
 11
1.0
 21
1.0
 12
315.0
 22
445.5
 13
0.0
 23
0.0
 14
0.5
 24
0.5
 15
0.5
 25
0.5
 16
0.0
 26
0.0
 36
1.0
 17
0.0
 27
0.0
 37
0.0
 40
980.1
 41
1.60267857142857
 42
50.0
 43
0.0
 44
0.0
 50
0.0
 51
0.0
 71
     0
 72
   100
 73
     1
 74
     3
 75
     0
 76
     0
 77
     0
 78
     0
281
     0
 65
     1
110
0.0
120
0.0
130
0.0
111
1.0
121
0.0
131
0.0
112
0.0
122
1.0
132
0.0
 79
     0
146
0.0
  0
ENDTAB
  0
TABLE
  2
LTYPE
  5
5
330
0
100
AcDbSymbolTable
 70
     8
  0
LTYPE
  5
14
330
5
100
AcDbSymbolTableRecord
100
AcDbLinetypeTableRecord
  2
ByBlock
 70
     0
  3

 72
    65
 73
     0
 40
0.0
  0
LTYPE
  5
15
330
5
100
AcDbSymbolTableRecord
100
AcDbLinetypeTableRecord
  2
ByLayer
 70
     0
  3

 72
    65
 73
     0
 40
0.0
  0
LTYPE
  5
16
330
5
100
AcDbSymbolTableRecord
100
AcDbLinetypeTableRecord
  2
Continuous
 70
     0
  3
Solid line
 72
    65
 73
     0
 40
0.0
  0
LTYPE
  5
3F
330
5
100
AcDbSymbolTableRecord
100
AcDbLinetypeTableRecord
  2
DASHED
 70
     0
  3
Dashed
 72
    65
 73
     2
 40
15.0
 49
7.0
 74
     0
 49
-8.0
 74
     0
  0
LTYPE
  5
40
330
5
100
AcDbSymbolTableRecord
100
AcDbLinetypeTableRecord
  2
DOTTED
 70
     0
  3
Dotted
 72
    65
 73
     2
 40
1.0
 49
0.0
 74
     0
 49
-1.0
 74
     0
  0
LTYPE
  5
41
330
5
100
AcDbSymbolTableRecord
100
AcDbLinetypeTableRecord
  2
DOT_CENTER
 70
     0
  3
Dot_Center
 72
    65
 73
     4
 40
14.0
 49
12.0
 74
     0
 49
-1.0
 74
     0
 49
0.0
 74
     0
 49
-1.0
 74
     0
  0
LTYPE
  5
42
330
5
100
AcDbSymbolTableRecord
100
AcDbLinetypeTableRecord
  2
LONG_DASHED
 70
     0
  3
Long_Dashed
 72
    65
 73
     2
 40
15.0
 49
10.0
 74
     0
 49
-5.0
 74
     0
  0
LTYPE
  5
43
330
5
100
AcDbSymbolTableRecord
100
AcDbLinetypeTableRecord
  2
DASH_CENTER
 70
     0
  3
Dash_Center
 72
    65
 73
     4
 40
14.0
 49
11.0
 74
     0
 49
-1.0
 74
     0
 49
1.0
 74
     0
 49
-1.0
 74
     0
  0
LTYPE
  5
44
330
5
100
AcDbSymbolTableRecord
100
AcDbLinetypeTableRecord
  2
PHANTOM
 70
     0
  3
Phantom
 72
    65
 73
     6
 40
13.0
 49
10.0
 74
     0
 49
-1.0
 74
     0
 49
0.0
 74
     0
 49
-1.0
 74
     0
 49
0.0
 74
     0
 49
-1.0
 74
     0
  0
LTYPE
  5
45
330
5
100
AcDbSymbolTableRecord
100
AcDbLinetypeTableRecord
  2
CENTER_DASH_DASH
 70
     0
  3
Center_Dash_Dash
 72
    65
 73
     6
 40
14.0
 49
9.0
 74
     0
 49
-1.0
 74
     0
 49
1.0
 74
     0
 49
-1.0
 74
     0
 49
1.0
 74
     0
 49
-1.0
 74
     0
  0
ENDTAB
  0
TABLE
  2
LAYER
  5
2
330
0
100
AcDbSymbolTable
 70
     3
  0
LAYER
  5
10
330
2
100
AcDbSymbolTableRecord
100
AcDbLayerTableRecord
  2
0
 70
     0
 62
     7
  6
Continuous
370
    -3
390
F
  0
LAYER
  5
46
330
2
100
AcDbSymbolTableRecord
100
AcDbLayerTableRecord
  2
1
 70
     0
 62
     7
  6
Continuous
370
    -3
390
F
  0
LAYER
  5
47
330
2
100
AcDbSymbolTableRecord
100
AcDbLayerTableRecord
  2
CSLAYER1
 70
     0
 62
     7
  6
Continuous
370
    -3
390
F
  0
ENDTAB
  0
TABLE
  2
STYLE
  5
3
330
0
100
AcDbSymbolTable
 70
     5
  0
STYLE
  5
11
330
3
100
AcDbSymbolTableRecord
100
AcDbTextStyleTableRecord
  2
Standard
 70
     0
 40
0.0
 41
1.0
 50
0.0
 71
     0
 42
0.2
  3
txt
  4

  0
STYLE
  5
325
330
3
100
AcDbSymbolTableRecord
100
AcDbTextStyleTableRecord
  2
CONVERTER_11
 70
     0
 40
0.0
 41
0.8811
 50
0.0
 71
     0
 42
0.2
  3
MS Mincho.ttf
  4

1001
ACAD
1000
MS Mincho
1071
    32785
  0
STYLE
  5
328
330
3
100
AcDbSymbolTableRecord
100
AcDbTextStyleTableRecord
  2
CONVERTER_12
 70
     0
 40
0.0
 41
0.891
 50
10.0
 71
     0
 42
0.2
  3
txt.shx
  4

  0
STYLE
  5
402
330
3
100
AcDbSymbolTableRecord
100
AcDbTextStyleTableRecord
  2
CONVERTER_13
 70
     0
 40
0.0
 41
0.89
 50
0.0
 71
     0
 42
0.2
  3
MS Mincho.ttf
  4

1001
ACAD
1000
MS Mincho
1071
    32785
  0
STYLE
  5
4B8
330
3
100
AcDbSymbolTableRecord
100
AcDbTextStyleTableRecord
  2
CONVERTER_14
 70
     0
 40
0.0
 41
0.9
 50
0.0
 71
     0
 42
0.2
  3
txt.shx
  4

  0
ENDTAB
  0
TABLE
  2
VIEW
  5
6
330
0
100
AcDbSymbolTable
 70
     0
  0
ENDTAB
  0
TABLE
  2
UCS
  5
7
330
0
100
AcDbSymbolTable
 70
     0
  0
ENDTAB
  0
TABLE
  2
APPID
  5
9
330
0
100
AcDbSymbolTable
 70
     1
  0
APPID
  5
12
330
9
100
AcDbSymbolTableRecord
100
AcDbRegAppTableRecord
  2
ACAD
 70
     0
  0
ENDTAB
  0
TABLE
  2
DIMSTYLE
  5
A
330
0
100
AcDbSymbolTable
 70
    10
100
AcDbDimStyleTable
  0
DIMSTYLE
105
27
330
A
100
AcDbSymbolTableRecord
100
AcDbDimStyleTableRecord
  2
Standard
 70
     0
178
     0
340
11
  0
DIMSTYLE
105
4CC
102
{ACAD_REACTORS
330
4CD
102
}
330
A
100
AcDbSymbolTableRecord
100
AcDbDimStyleTableRecord
  2
ME10_DIM_10
 70
     0
 41
10.5
 42
0.0
 44
3.0
 73
     0
 74
     0
 77
     1
 78
     8
140
10.5
147
3.0
172
     1
173
     1
174
     1
175
     1
176
     2
177
     2
271
     2
178
     7
271
     2
340
4B8
  0
DIMSTYLE
105
4D7
102
{ACAD_REACTORS
330
4D8
102
}
330
A
100
AcDbSymbolTableRecord
100
AcDbDimStyleTableRecord
  2
ME10_DIM_11
 70
     0
  3
{\Fgdt;n}<>
 41
10.5
 42
0.0
 44
3.0
 73
     0
 74
     0
 77
     1
 78
     8
140
10.5
147
3.0
172
     1
173
     1
174
     1
175
     1
176
     2
177
     2
271
     2
178
     7
271
     2
340
4B8
  0
DIMSTYLE
105
4E2
102
{ACAD_REACTORS
330
4E3
102
}
330
A
100
AcDbSymbolTableRecord
100
AcDbDimStyleTableRecord
  2
ME10_DIM_12
 70
     0
 41
10.5
 42
0.0
 44
3.0
 73
     0
 74
     0
 77
     1
 78
     8
140
10.5
147
3.0
172
     1
173
     1
174
     1
175
     1
176
     2
177
     2
271
     2
178
     7
271
     2
340
4B8
  0
DIMSTYLE
105
4ED
102
{ACAD_REACTORS
330
4EE
102
}
330
A
100
AcDbSymbolTableRecord
100
AcDbDimStyleTableRecord
  2
ME10_DIM_13
 70
     0
 41
10.5
 42
0.0
 44
3.0
 73
     0
 74
     0
 77
     1
 78
     8
140
10.5
147
3.0
172
     1
173
     1
174
     1
175
     1
176
     2
177
     2
271
     2
178
     7
271
     2
340
4B8
  0
DIMSTYLE
105
4F9
102
{ACAD_REACTORS
330
4FA
102
}
330
A
100
AcDbSymbolTableRecord
100
AcDbDimStyleTableRecord
  2
ME10_DIM_14
 70
     0
  3
{\Fgdt;n}<>(開口寸法{\Fgdt;n}100)
 41
10.5
 42
0.0
 44
3.0
 73
     0
 74
     0
 77
     1
 78
     8
140
10.5
147
3.0
172
     1
173
     1
174
     1
175
     1
176
     2
177
     2
271
     2
178
     7
271
     2
340
402
  0
DIMSTYLE
105
504
102
{ACAD_REACTORS
330
505
102
}
330
A
100
AcDbSymbolTableRecord
100
AcDbDimStyleTableRecord
  2
ME10_DIM_15
 70
     0
 41
10.5
 42
0.0
 44
3.0
 73
     0
 74
     0
 77
     1
 78
     8
140
10.5
147
3.0
172
     1
173
     1
174
     1
175
     1
176
     2
177
     2
271
     2
178
     7
271
     2
340
4B8
  0
DIMSTYLE
105
50F
102
{ACAD_REACTORS
330
510
102
}
330
A
100
AcDbSymbolTableRecord
100
AcDbDimStyleTableRecord
  2
ME10_DIM_16
 70
     0
 41
10.5
 42
0.0
 44
3.0
 73
     0
 74
     0
 77
     1
 78
     8
140
10.5
147
3.0
172
     1
173
     1
174
     1
175
     1
176
     2
177
     2
271
     2
178
     7
271
     2
340
4B8
  0
DIMSTYLE
105
51A
102
{ACAD_REACTORS
330
51B
102
}
330
A
100
AcDbSymbolTableRecord
100
AcDbDimStyleTableRecord
  2
ME10_DIM_17
 70
     0
 41
10.5
 42
0.0
 44
3.0
 73
     0
 74
     0
 77
     1
 78
     8
140
10.5
147
3.0
172
     1
173
     1
174
     1
175
     1
176
     2
177
     2
271
     2
178
     7
271
     2
340
4B8
  0
DIMSTYLE
105
525
102
{ACAD_REACTORS
330
526
102
}
330
A
100
AcDbSymbolTableRecord
100
AcDbDimStyleTableRecord
  2
ME10_DIM_18
 70
     0
 41
10.5
 42
0.0
 44
3.0
 73
     0
 74
     0
 77
     1
 78
     8
140
10.5
147
3.0
172
     1
173
     1
174
     1
175
     1
176
     2
177
     2
271
     2
178
     7
271
     2
340
4B8
  0
ENDTAB
  0
TABLE
  2
BLOCK_RECORD
  5
1
330
0
100
AcDbSymbolTable
 70
    37
  0
BLOCK_RECORD
  5
1F
330
1
100
AcDbSymbolTableRecord
100
AcDbBlockTableRecord
  2
*Model_Space
340
22
  0
BLOCK_RECORD
  5
1B
330
1
100
AcDbSymbolTableRecord
100
AcDbBlockTableRecord
  2
*Paper_Space
340
1E
  0
BLOCK_RECORD
  5
23
330
1
100
AcDbSymbolTableRecord
100
AcDbBlockTableRecord
  2
*Paper_Space0
340
26
  0
BLOCK_RECORD
  5
48
330
1
100
AcDbSymbolTableRecord
100
AcDbBlockTableRecord
  2
72-108__1__1
340
0
102
{BLKREFS
331
82
102
}
  0
BLOCK_RECORD
  5
4B
330
1
100
AcDbSymbolTableRecord
100
AcDbBlockTableRecord
  2
83-34__2
340
0
102
{BLKREFS
331
83
102
}
  0
BLOCK_RECORD
  5
4E
330
1
100
AcDbSymbolTableRecord
100
AcDbBlockTableRecord
  2
72-108__1__3
340
0
102
{BLKREFS
331
84
102
}
  0
BLOCK_RECORD
  5
51
330
1
100
AcDbSymbolTableRecord
100
AcDbBlockTableRecord
  2
83-34__4
340
0
102
{BLKREFS
331
85
102
}
  0
BLOCK_RECORD
  5
54
330
1
100
AcDbSymbolTableRecord
100
AcDbBlockTableRecord
  2
72-108__1__5
340
0
102
{BLKREFS
331
86
102
}
  0
BLOCK_RECORD
  5
57
330
1
100
AcDbSymbolTableRecord
100
AcDbBlockTableRecord
  2
83-34__6
340
0
102
{BLKREFS
331
87
102
}
  0
BLOCK_RECORD
  5
5A
330
1
100
AcDbSymbolTableRecord
100
AcDbBlockTableRecord
  2
72-108__1__7
340
0
102
{BLKREFS
331
88
102
}
  0
BLOCK_RECORD
  5
5D
330
1
100
AcDbSymbolTableRecord
100
AcDbBlockTableRecord
  2
83-34__8
340
0
102
{BLKREFS
331
89
102
}
  0
BLOCK_RECORD
  5
60
330
1
100
AcDbSymbolTableRecord
100
AcDbBlockTableRecord
  2
88-279
340
0
102
{BLKREFS
331
8A
102
}
  0
BLOCK_RECORD
  5
63
330
1
100
AcDbSymbolTableRecord
100
AcDbBlockTableRecord
  2
84-187
340
0
102
{BLKREFS
331
8B
102
}
  0
BLOCK_RECORD
  5
66
330
1
100
AcDbSymbolTableRecord
100
AcDbBlockTableRecord
  2
V97D-H5__11
340
0
102
{BLKREFS
331
8C
102
}
  0
BLOCK_RECORD
  5
69
330
1
100
AcDbSymbolTableRecord
100
AcDbBlockTableRecord
  2
V97D-H4__12
340
0
102
{BLKREFS
331
8D
102
}
  0
BLOCK_RECORD
  5
6C
330
1
100
AcDbSymbolTableRecord
100
AcDbBlockTableRecord
  2
V97D-H4__13
340
0
102
{BLKREFS
331
8E
102
}
  0
BLOCK_RECORD
  5
6F
330
1
100
AcDbSymbolTableRecord
100
AcDbBlockTableRecord
  2
88-280
340
0
102
{BLKREFS
331
8F
102
}
  0
BLOCK_RECORD
  5
72
330
1
100
AcDbSymbolTableRecord
100
AcDbBlockTableRecord
  2
72-113
340
0
102
{BLKREFS
331
90
102
}
  0
BLOCK_RECORD
  5
75
330
1
100
AcDbSymbolTableRecord
100
AcDbBlockTableRecord
  2
72-112
340
0
102
{BLKREFS
331
91
102
}
  0
BLOCK_RECORD
  5
78
330
1
100
AcDbSymbolTableRecord
100
AcDbBlockTableRecord
  2
74-33
340
0
102
{BLKREFS
331
92
102
}
  0
BLOCK_RECORD
  5
7B
330
1
100
AcDbSymbolTableRecord
100
AcDbBlockTableRecord
  2
89-206
340
0
102
{BLKREFS
331
93
102
}
  0
BLOCK_RECORD
  5
7E
330
1
100
AcDbSymbolTableRecord
100
AcDbBlockTableRecord
  2
33-138
340
0
102
{BLKREFS
331
94
102
}
  0
BLOCK_RECORD
  5
81
330
1
100
AcDbSymbolTableRecord
100
AcDbBlockTableRecord
  2
V963AD-0AX
340
0
102
{BLKREFS
331
B0
102
}
  0
BLOCK_RECORD
  5
97
330
1
100
AcDbSymbolTableRecord
100
AcDbBlockTableRecord
  2
開示A4
340
0
102
{BLKREFS
331
B1
102
}
  0
BLOCK_RECORD
  5
9A
330
1
100
AcDbSymbolTableRecord
100
AcDbBlockTableRecord
  2
89-218A
340
0
102
{BLKREFS
331
9E
102
}
  0
BLOCK_RECORD
  5
9D
330
1
100
AcDbSymbolTableRecord
100
AcDbBlockTableRecord
  2
89-218AX
340
0
102
{BLKREFS
331
B2
102
}
  0
BLOCK_RECORD
  5
A1
330
1
100
AcDbSymbolTableRecord
100
AcDbBlockTableRecord
  2
T17-4F-1
340
0
102
{BLKREFS
331
AB
102
}
  0
BLOCK_RECORD
  5
A4
330
1
100
AcDbSymbolTableRecord
100
AcDbBlockTableRecord
  2
T17-4F-2
340
0
102
{BLKREFS
331
AC
102
}
  0
BLOCK_RECORD
  5
A7
330
1
100
AcDbSymbolTableRecord
100
AcDbBlockTableRecord
  2
T17-4F-3
340
0
102
{BLKREFS
331
AD
102
}
  0
BLOCK_RECORD
  5
AA
330
1
100
AcDbSymbolTableRecord
100
AcDbBlockTableRecord
  2
T17-4F
340
0
102
{BLKREFS
331
B3
102
}
  0
BLOCK_RECORD
  5
4C3
330
1
100
AcDbSymbolTableRecord
100
AcDbBlockTableRecord
  2
*D28
340
0
  0
BLOCK_RECORD
  5
4CE
330
1
100
AcDbSymbolTableRecord
100
AcDbBlockTableRecord
  2
*D29
340
0
  0
BLOCK_RECORD
  5
4D9
330
1
100
AcDbSymbolTableRecord
100
AcDbBlockTableRecord
  2
*D30
340
0
  0
BLOCK_RECORD
  5
4E4
330
1
100
AcDbSymbolTableRecord
100
AcDbBlockTableRecord
  2
*D31
340
0
  0
BLOCK_RECORD
  5
4EF
330
1
100
AcDbSymbolTableRecord
100
AcDbBlockTableRecord
  2
*D32
340
0
  0
BLOCK_RECORD
  5
4FB
330
1
100
AcDbSymbolTableRecord
100
AcDbBlockTableRecord
  2
*D33
340
0
  0
BLOCK_RECORD
  5
506
330
1
100
AcDbSymbolTableRecord
100
AcDbBlockTableRecord
  2
*D34
340
0
  0
BLOCK_RECORD
  5
511
330
1
100
AcDbSymbolTableRecord
100
AcDbBlockTableRecord
  2
*D35
340
0
  0
BLOCK_RECORD
  5
51C
330
1
100
AcDbSymbolTableRecord
100
AcDbBlockTableRecord
  2
*D36
340
0
  0
ENDTAB
  0
ENDSEC
  0
SECTION
  2
BLOCKS
  0
BLOCK
  5
20
330
1F
100
AcDbEntity
  8
0
100
AcDbBlockBegin
  2
*Model_Space
 70
     0
 10
0.0
 20
0.0
 30
0.0
  3
*Model_Space
  1

  0
ENDBLK
  5
21
330
1F
100
AcDbEntity
  8
0
100
AcDbBlockEnd
  0
BLOCK
  5
1C
330
1B
100
AcDbEntity
 67
     1
  8
0
100
AcDbBlockBegin
  2
*Paper_Space
 70
     0
 10
0.0
 20
0.0
 30
0.0
  3
*Paper_Space
  1

  0
ENDBLK
  5
1D
330
1B
100
AcDbEntity
 67
     1
  8
0
100
AcDbBlockEnd
  0
BLOCK
  5
24
330
23
100
AcDbEntity
  8
0
100
AcDbBlockBegin
  2
*Paper_Space0
 70
     0
 10
0.0
 20
0.0
 30
0.0
  3
*Paper_Space0
  1

  0
ENDBLK
  5
25
330
23
100
AcDbEntity
  8
0
100
AcDbBlockEnd
  0
BLOCK
  5
49
330
48
100
AcDbEntity
  8
0
100
AcDbBlockBegin
  2
72-108__1__1
 70
     0
 10
800.9364959198291
 20
310.9044696196406
 30
0.0
  3
72-108__1__1
  1

  0
LINE
  5
B4
330
48
100
AcDbEntity
  8
1
  6
Continuous
 62
     7
100
AcDbLine
 10
224.5309839175441
 20
289.8951215480629
 30
0.0
 11
224.5309839175441
 21
288.3500000000002
 31
0.0
  0
LINE
  5
B5
330
48
100
AcDbEntity
  8
1
  6
PHANTOM
 62
     4
100
AcDbLine
 10
222.480983917543
 20
286.6081616705149
 30
0.0
 11
222.480983917543
 21
285.7388400841387
 31
0.0
  0
LINE
  5
B6
330
48
100
AcDbEntity
  8
1
  6
Continuous
 62
     7
100
AcDbLine
 10
226.5809839175428
 20
286.0
 30
0.0
 11
222.480983917543
 21
286.0
 31
0.0
  0
LINE
  5
B7
330
48
100
AcDbEntity
  8
0
  6
Continuous
 62
     7
100
AcDbLine
 10
223.6443635603072
 20
315.9849673502432
 30
0.0
 11
222.480983917543
 21
318.0
 31
0.0
  0
LINE
  5
B8
330
48
100
AcDbEntity
  8
1
  6
Continuous
 62
     7
100
AcDbLine
 10
224.5309839175441
 20
288.3500000000002
 30
0.0
 11
224.5309839175441
 21
288.3250000000001
 31
0.0
  0
LINE
  5
B9
330
48
100
AcDbEntity
  8
1
  6
Continuous
 62
     7
100
AcDbLine
 10
224.5309839175441
 20
288.3500000000002
 30
0.0
 11
222.480983917543
 21
288.3500000000002
 31
0.0
  0
LINE
  5
BA
330
48
100
AcDbEntity
  8
1
  6
Continuous
 62
     7
100
AcDbLine
 10
226.5809839175428
 20
286.3
 30
0.0
 11
224.5309839175441
 21
288.3500000000002
 31
0.0
  0
LINE
  5
BB
330
48
100
AcDbEntity
  8
1
  6
Continuous
 62
     7
100
AcDbLine
 10
226.5809839175428
 20
286.0
 30
0.0
 11
226.5809839175428
 21
286.3
 31
0.0
  0
LINE
  5
BC
330
48
100
AcDbEntity
  8
1
  6
Continuous
 62
     7
100
AcDbLine
 10
222.480983917543
 20
286.2999999999991
 30
0.0
 11
226.5809839175428
 21
286.3
 31
0.0
  0
LINE
  5
BD
330
48
100
AcDbEntity
  8
1
  6
Continuous
 62
     7
100
AcDbLine
 10
224.2123672137872
 20
315.731380985293
 30
0.0
 11
222.480983917543
 21
315.31
 31
0.0
  0
LINE
  5
BE
330
48
100
AcDbEntity
  8
1
  6
Continuous
 62
     7
100
AcDbLine
 10
223.6443635603072
 20
315.9849673502432
 30
0.0
 11
223.6676577411942
 21
314.6504446210006
 31
0.0
  0
LINE
  5
BF
330
48
100
AcDbEntity
  8
1
  6
Continuous
 62
     7
100
AcDbLine
 10
223.4090203400281
 20
317.4734475033572
 30
0.0
 11
222.480983917543
 21
317.2475836504816
 31
0.0
  0
LINE
  5
C0
330
48
100
AcDbEntity
  8
1
  6
Continuous
 62
     7
100
AcDbLine
 10
218.3809839175439
 20
286.3
 30
0.0
 11
222.480983917543
 21
286.2999999999991
 31
0.0
  0
LINE
  5
C1
330
48
100
AcDbEntity
  8
1
  6
Continuous
 62
     7
100
AcDbLine
 10
218.3809839175439
 20
286.3
 30
0.0
 11
218.3809839175439
 21
286.0
 31
0.0
  0
LINE
  5
C2
330
48
100
AcDbEntity
  8
1
  6
Continuous
 62
     7
100
AcDbLine
 10
220.4309839175426
 20
288.3500000000002
 30
0.0
 11
218.3809839175439
 21
286.3
 31
0.0
  0
LINE
  5
C3
330
48
100
AcDbEntity
  8
1
  6
Continuous
 62
     7
100
AcDbLine
 10
220.4309839175426
 20
288.3500000000002
 30
0.0
 11
220.4309839175429
 21
289.8951215480629
 31
0.0
  0
LINE
  5
C4
330
48
100
AcDbEntity
  8
1
  6
Continuous
 62
     7
100
AcDbLine
 10
222.480983917543
 20
288.3500000000002
 30
0.0
 11
220.4309839175426
 21
288.3500000000002
 31
0.0
  0
LINE
  5
C5
330
48
100
AcDbEntity
  8
1
  6
Continuous
 62
     7
100
AcDbLine
 10
220.4309839175429
 20
288.3250000000001
 30
0.0
 11
220.4309839175426
 21
288.3500000000002
 31
0.0
  0
LINE
  5
C6
330
48
100
AcDbEntity
  8
1
  6
Continuous
 62
     7
100
AcDbLine
 10
222.480983917543
 20
286.0
 30
0.0
 11
218.3809839175439
 21
286.0
 31
0.0
  0
LINE
  5
C7
330
48
100
AcDbEntity
  8
1
  6
PHANTOM
 62
     4
100
AcDbLine
 10
222.480983917543
 20
285.7388400841387
 30
0.0
 11
222.480983917543
 21
286.6081616705149
 31
0.0
  0
LINE
  5
C8
330
48
100
AcDbEntity
  8
0
  6
Continuous
 62
     7
100
AcDbLine
 10
222.480983917543
 20
318.0
 30
0.0
 11
221.3176042747799
 21
315.9849673502432
 31
0.0
  0
LINE
  5
C9
330
48
100
AcDbEntity
  8
1
  6
Continuous
 62
     7
100
AcDbLine
 10
222.480983917543
 20
317.2475836504816
 30
0.0
 11
221.6472513465029
 21
317.0759328270322
 31
0.0
  0
LINE
  5
CA
330
48
100
AcDbEntity
  8
1
  6
Continuous
 62
     7
100
AcDbLine
 10
222.480983917543
 20
315.31
 30
0.0
 11
220.7496006213002
 21
314.9535387331262
 31
0.0
  0
LINE
  5
CB
330
48
100
AcDbEntity
  8
1
  6
Continuous
 62
     7
100
AcDbLine
 10
221.2943100938932
 20
314.6504446210006
 30
0.0
 11
221.3176042747799
 21
315.9849673502432
 31
0.0
  0
LINE
  5
CC
330
48
100
AcDbEntity
  8
1
  6
Continuous
 62
     7
100
AcDbLine
 10
251.2943100938932
 20
314.6504446210006
 30
0.0
 11
251.3176042747799
 21
315.9849673502432
 31
0.0
  0
LINE
  5
CD
330
48
100
AcDbEntity
  8
1
  6
Continuous
 62
     7
100
AcDbLine
 10
252.480983917543
 20
315.31
 30
0.0
 11
250.7496006213003
 21
314.9535387331262
 31
0.0
  0
LINE
  5
CE
330
48
100
AcDbEntity
  8
1
  6
Continuous
 62
     7
100
AcDbLine
 10
252.480983917543
 20
317.2475836504816
 30
0.0
 11
251.647251346503
 21
317.0759328270322
 31
0.0
  0
LINE
  5
CF
330
48
100
AcDbEntity
  8
0
  6
Continuous
 62
     7
100
AcDbLine
 10
252.480983917543
 20
318.0
 30
0.0
 11
251.3176042747799
 21
315.9849673502432
 31
0.0
  0
LINE
  5
D0
330
48
100
AcDbEntity
  8
1
  6
PHANTOM
 62
     4
100
AcDbLine
 10
252.480983917543
 20
285.7388400841387
 30
0.0
 11
252.480983917543
 21
286.6081616705149
 31
0.0
  0
LINE
  5
D1
330
48
100
AcDbEntity
  8
1
  6
Continuous
 62
     7
100
AcDbLine
 10
252.480983917543
 20
286.0
 30
0.0
 11
248.3809839175439
 21
286.0
 31
0.0
  0
LINE
  5
D2
330
48
100
AcDbEntity
  8
1
  6
Continuous
 62
     7
100
AcDbLine
 10
250.4309839175429
 20
288.3250000000001
 30
0.0
 11
250.4309839175426
 21
288.3500000000002
 31
0.0
  0
LINE
  5
D3
330
48
100
AcDbEntity
  8
1
  6
Continuous
 62
     7
100
AcDbLine
 10
252.480983917543
 20
288.3500000000002
 30
0.0
 11
250.4309839175426
 21
288.3500000000002
 31
0.0
  0
LINE
  5
D4
330
48
100
AcDbEntity
  8
1
  6
Continuous
 62
     7
100
AcDbLine
 10
250.4309839175426
 20
288.3500000000002
 30
0.0
 11
250.4309839175429
 21
289.8951215480629
 31
0.0
  0
LINE
  5
D5
330
48
100
AcDbEntity
  8
1
  6
Continuous
 62
     7
100
AcDbLine
 10
250.4309839175426
 20
288.3500000000002
 30
0.0
 11
248.3809839175439
 21
286.3
 31
0.0
  0
LINE
  5
D6
330
48
100
AcDbEntity
  8
1
  6
Continuous
 62
     7
100
AcDbLine
 10
248.3809839175439
 20
286.3
 30
0.0
 11
248.3809839175439
 21
286.0
 31
0.0
  0
LINE
  5
D7
330
48
100
AcDbEntity
  8
1
  6
Continuous
 62
     7
100
AcDbLine
 10
248.3809839175439
 20
286.3
 30
0.0
 11
252.480983917543
 21
286.2999999999991
 31
0.0
  0
LINE
  5
D8
330
48
100
AcDbEntity
  8
1
  6
Continuous
 62
     7
100
AcDbLine
 10
253.4090203400281
 20
317.4734475033572
 30
0.0
 11
252.480983917543
 21
317.2475836504816
 31
0.0
  0
LINE
  5
D9
330
48
100
AcDbEntity
  8
1
  6
Continuous
 62
     7
100
AcDbLine
 10
253.6443635603072
 20
315.9849673502432
 30
0.0
 11
253.6676577411943
 21
314.6504446210006
 31
0.0
  0
LINE
  5
DA
330
48
100
AcDbEntity
  8
1
  6
Continuous
 62
     7
100
AcDbLine
 10
254.2123672137872
 20
315.731380985293
 30
0.0
 11
252.480983917543
 21
315.31
 31
0.0
  0
LINE
  5
DB
330
48
100
AcDbEntity
  8
1
  6
Continuous
 62
     7
100
AcDbLine
 10
252.480983917543
 20
286.2999999999991
 30
0.0
 11
256.5809839175428
 21
286.3
 31
0.0
  0
LINE
  5
DC
330
48
100
AcDbEntity
  8
1
  6
Continuous
 62
     7
100
AcDbLine
 10
256.5809839175428
 20
286.0
 30
0.0
 11
256.5809839175428
 21
286.3
 31
0.0
  0
LINE
  5
DD
330
48
100
AcDbEntity
  8
1
  6
Continuous
 62
     7
100
AcDbLine
 10
256.5809839175428
 20
286.3
 30
0.0
 11
254.5309839175441
 21
288.3500000000002
 31
0.0
  0
LINE
  5
DE
330
48
100
AcDbEntity
  8
1
  6
Continuous
 62
     7
100
AcDbLine
 10
254.5309839175441
 20
288.3500000000002
 30
0.0
 11
252.480983917543
 21
288.3500000000002
 31
0.0
  0
LINE
  5
DF
330
48
100
AcDbEntity
  8
1
  6
Continuous
 62
     7
100
AcDbLine
 10
254.5309839175441
 20
288.3500000000002
 30
0.0
 11
254.5309839175441
 21
288.3250000000001
 31
0.0
  0
LINE
  5
E0
330
48
100
AcDbEntity
  8
0
  6
Continuous
 62
     7
100
AcDbLine
 10
253.6443635603072
 20
315.9849673502432
 30
0.0
 11
252.480983917543
 21
318.0
 31
0.0
  0
LINE
  5
E1
330
48
100
AcDbEntity
  8
1
  6
Continuous
 62
     7
100
AcDbLine
 10
256.5809839175428
 20
286.0
 30
0.0
 11
252.480983917543
 21
286.0
 31
0.0
  0
LINE
  5
E2
330
48
100
AcDbEntity
  8
1
  6
PHANTOM
 62
     4
100
AcDbLine
 10
252.480983917543
 20
286.6081616705149
 30
0.0
 11
252.480983917543
 21
285.7388400841387
 31
0.0
  0
LINE
  5
E3
330
48
100
AcDbEntity
  8
1
  6
Continuous
 62
     7
100
AcDbLine
 10
254.5309839175441
 20
289.8951215480629
 30
0.0
 11
254.5309839175441
 21
288.3500000000002
 31
0.0
  0
ENDBLK
  5
4A
330
48
100
AcDbEntity
  8
0
100
AcDbBlockEnd
  0
BLOCK
  5
4C
330
4B
100
AcDbEntity
  8
0
100
AcDbBlockBegin
  2
83-34__2
 70
     0
 10
782.3364958394453
 20
252.3264972046728
 30
0.0
  3
83-34__2
  1

  0
LINE
  5
E4
330
4B
100
AcDbEntity
  8
1
  6
Continuous
 62
     7
100
AcDbLine
 10
222.980983917543
 20
295.6451215480629
 30
0.0
 11
221.980983917543
 21
295.6451215480629
 31
0.0
  0
LINE
  5
E5
330
4B
100
AcDbEntity
  8
1
  6
Continuous
 62
     7
100
AcDbLine
 10
219.480983917543
 20
294.3951215480629
 30
0.0
 11
221.980983917543
 21
295.6451215480629
 31
0.0
  0
LINE
  5
E6
330
4B
100
AcDbEntity
  8
1
  6
Continuous
 62
     7
100
AcDbLine
 10
219.480983917543
 20
297.3951215480629
 30
0.0
 11
221.980983917543
 21
296.1451215480629
 31
0.0
  0
LINE
  5
E7
330
4B
100
AcDbEntity
  8
1
  6
Continuous
 62
     7
100
AcDbLine
 10
221.980983917543
 20
299.1451215480629
 30
0.0
 11
219.480983917543
 21
300.3951215480629
 31
0.0
  0
LINE
  5
E8
330
4B
100
AcDbEntity
  8
1
  6
Continuous
 62
     7
100
AcDbLine
 10
221.980983917543
 20
298.6451215480629
 30
0.0
 11
219.480983917543
 21
297.3951215480629
 31
0.0
  0
LINE
  5
E9
330
4B
100
AcDbEntity
  8
1
  6
Continuous
 62
     7
100
AcDbLine
 10
219.480983917543
 20
300.3951215480629
 30
0.0
 11
221.980983917543
 21
301.6451215480629
 31
0.0
  0
LINE
  5
EA
330
4B
100
AcDbEntity
  8
1
  6
Continuous
 62
     7
100
AcDbLine
 10
219.480983917543
 20
303.3951215480629
 30
0.0
 11
221.980983917543
 21
302.1451215480629
 31
0.0
  0
LINE
  5
EB
330
4B
100
AcDbEntity
  8
1
  6
Continuous
 62
     7
100
AcDbLine
 10
221.980983917543
 20
304.6451215480629
 30
0.0
 11
219.480983917543
 21
303.3951215480629
 31
0.0
  0
LINE
  5
EC
330
4B
100
AcDbEntity
  8
1
  6
Continuous
 62
     7
100
AcDbLine
 10
221.980983917543
 20
305.1451215480629
 30
0.0
 11
219.480983917543
 21
306.3951215480629
 31
0.0
  0
LINE
  5
ED
330
4B
100
AcDbEntity
  8
1
  6
Continuous
 62
     7
100
AcDbLine
 10
219.480983917543
 20
306.3951215480629
 30
0.0
 11
221.980983917543
 21
307.6451215480629
 31
0.0
  0
LINE
  5
EE
330
4B
100
AcDbEntity
  8
1
  6
Continuous
 62
     7
100
AcDbLine
 10
219.480983917543
 20
309.3951215480629
 30
0.0
 11
221.980983917543
 21
308.1451215480629
 31
0.0
  0
LINE
  5
EF
330
4B
100
AcDbEntity
  8
1
  6
Continuous
 62
     7
100
AcDbLine
 10
221.980983917543
 20
310.4367882147294
 30
0.0
 11
219.480983917543
 21
309.3951215480629
 31
0.0
  0
LINE
  5
F0
330
4B
100
AcDbEntity
  8
1
  6
Continuous
 62
     7
100
AcDbLine
 10
222.980983917543
 20
296.1451215480629
 30
0.0
 11
222.980983917543
 21
295.6451215480629
 31
0.0
  0
LINE
  5
F1
330
4B
100
AcDbEntity
  8
1
  6
Continuous
 62
     7
100
AcDbLine
 10
222.980983917543
 20
298.6451215480629
 30
0.0
 11
222.980983917543
 21
296.1451215480629
 31
0.0
  0
LINE
  5
F2
330
4B
100
AcDbEntity
  8
1
  6
Continuous
 62
     7
100
AcDbLine
 10
222.980983917543
 20
299.1451215480629
 30
0.0
 11
222.980983917543
 21
298.6451215480629
 31
0.0
  0
LINE
  5
F3
330
4B
100
AcDbEntity
  8
1
  6
Continuous
 62
     7
100
AcDbLine
 10
222.980983917543
 20
301.6451215480629
 30
0.0
 11
222.980983917543
 21
299.1451215480629
 31
0.0
  0
LINE
  5
F4
330
4B
100
AcDbEntity
  8
1
  6
Continuous
 62
     7
100
AcDbLine
 10
222.980983917543
 20
302.1451215480629
 30
0.0
 11
222.980983917543
 21
301.6451215480629
 31
0.0
  0
LINE
  5
F5
330
4B
100
AcDbEntity
  8
1
  6
Continuous
 62
     7
100
AcDbLine
 10
222.980983917543
 20
304.6451215480629
 30
0.0
 11
222.980983917543
 21
302.1451215480629
 31
0.0
  0
LINE
  5
F6
330
4B
100
AcDbEntity
  8
1
  6
Continuous
 62
     7
100
AcDbLine
 10
222.980983917543
 20
305.1451215480629
 30
0.0
 11
222.980983917543
 21
304.6451215480629
 31
0.0
  0
LINE
  5
F7
330
4B
100
AcDbEntity
  8
1
  6
Continuous
 62
     7
100
AcDbLine
 10
222.980983917543
 20
307.6451215480629
 30
0.0
 11
222.980983917543
 21
305.1451215480629
 31
0.0
  0
LINE
  5
F8
330
4B
100
AcDbEntity
  8
1
  6
Continuous
 62
     7
100
AcDbLine
 10
222.980983917543
 20
308.1451215480629
 30
0.0
 11
222.980983917543
 21
307.6451215480629
 31
0.0
  0
LINE
  5
F9
330
4B
100
AcDbEntity
  8
1
  6
Continuous
 62
     7
100
AcDbLine
 10
222.980983917543
 20
310.4367882147294
 30
0.0
 11
222.980983917543
 21
308.1451215480629
 31
0.0
  0
LINE
  5
FA
330
4B
100
AcDbEntity
  8
1
  6
Continuous
 62
     7
100
AcDbLine
 10
222.980983917543
 20
310.8534548813962
 30
0.0
 11
222.980983917543
 21
310.4367882147294
 31
0.0
  0
LINE
  5
FB
330
4B
100
AcDbEntity
  8
1
  6
Continuous
 62
     7
100
AcDbLine
 10
224.466830049775
 20
311.4725574364925
 30
0.0
 11
222.980983917543
 21
310.8534548813962
 31
0.0
  0
LINE
  5
FC
330
4B
100
AcDbEntity
  8
1
  6
Continuous
 62
     7
100
AcDbLine
 10
221.980983917543
 20
314.8531614396126
 30
0.0
 11
221.980983917543
 21
295.6451215480629
 31
0.0
  0
LINE
  5
FD
330
4B
100
AcDbEntity
  8
1
  6
Continuous
 62
     7
100
AcDbLine
 10
222.980983917543
 20
314.8531614396126
 30
0.0
 11
222.980983917543
 21
310.8534548813962
 31
0.0
  0
LINE
  5
FE
330
4B
100
AcDbEntity
  8
1
  6
Continuous
 62
     7
100
AcDbLine
 10
222.980983917543
 20
295.6451215480629
 30
0.0
 11
225.480983917543
 21
294.3951215480629
 31
0.0
  0
LINE
  5
FF
330
4B
100
AcDbEntity
  8
1
  6
Continuous
 62
     7
100
AcDbLine
 10
219.480983917543
 20
297.3951215480629
 30
0.0
 11
219.480983917543
 21
300.3951215480629
 31
0.0
  0
LINE
  5
100
330
4B
100
AcDbEntity
  8
1
  6
Continuous
 62
     7
100
AcDbLine
 10
225.480983917543
 20
300.3951215480629
 30
0.0
 11
222.980983917543
 21
299.1451215480629
 31
0.0
  0
LINE
  5
101
330
4B
100
AcDbEntity
  8
1
  6
Continuous
 62
     7
100
AcDbLine
 10
225.480983917543
 20
300.3951215480629
 30
0.0
 11
225.480983917543
 21
303.3951215480629
 31
0.0
  0
LINE
  5
102
330
4B
100
AcDbEntity
  8
1
  6
Continuous
 62
     7
100
AcDbLine
 10
222.980983917543
 20
301.6451215480629
 30
0.0
 11
225.480983917543
 21
300.3951215480629
 31
0.0
  0
LINE
  5
103
330
4B
100
AcDbEntity
  8
1
  6
Continuous
 62
     7
100
AcDbLine
 10
219.480983917543
 20
303.3951215480629
 30
0.0
 11
219.480983917543
 21
306.3951215480629
 31
0.0
  0
LINE
  5
104
330
4B
100
AcDbEntity
  8
1
  6
Continuous
 62
     7
100
AcDbLine
 10
225.480983917543
 20
306.3951215480629
 30
0.0
 11
222.980983917543
 21
305.1451215480629
 31
0.0
  0
LINE
  5
105
330
4B
100
AcDbEntity
  8
1
  6
Continuous
 62
     7
100
AcDbLine
 10
225.480983917543
 20
306.3951215480629
 30
0.0
 11
225.480983917543
 21
309.3951215480629
 31
0.0
  0
LINE
  5
106
330
4B
100
AcDbEntity
  8
1
  6
Continuous
 62
     7
100
AcDbLine
 10
222.980983917543
 20
307.6451215480629
 30
0.0
 11
225.480983917543
 21
306.3951215480629
 31
0.0
  0
LINE
  5
107
330
4B
100
AcDbEntity
  8
1
  6
Continuous
 62
     7
100
AcDbLine
 10
219.480983917543
 20
309.3951215480629
 30
0.0
 11
219.480983917543
 21
311.8951215480629
 31
0.0
  0
LINE
  5
108
330
4B
100
AcDbEntity
  8
1
  6
Continuous
 62
     7
100
AcDbLine
 10
225.480983917543
 20
309.3951215480629
 30
0.0
 11
222.980983917543
 21
310.4367882147294
 31
0.0
  0
LINE
  5
109
330
4B
100
AcDbEntity
  8
1
  6
Continuous
 62
     7
100
AcDbLine
 10
225.480983917543
 20
309.3951215480629
 30
0.0
 11
225.480983917543
 21
311.8951215480629
 31
0.0
  0
LINE
  5
10A
330
4B
100
AcDbEntity
  8
1
  6
Continuous
 62
     7
100
AcDbLine
 10
222.980983917543
 20
308.1451215480629
 30
0.0
 11
225.480983917543
 21
309.3951215480629
 31
0.0
  0
LINE
  5
10B
330
4B
100
AcDbEntity
  8
1
  6
Continuous
 62
     7
100
AcDbLine
 10
219.480983917543
 20
306.3951215480629
 30
0.0
 11
219.480983917543
 21
309.3951215480629
 31
0.0
  0
LINE
  5
10C
330
4B
100
AcDbEntity
  8
1
  6
Continuous
 62
     7
100
AcDbLine
 10
225.480983917543
 20
303.3951215480629
 30
0.0
 11
222.980983917543
 21
304.6451215480629
 31
0.0
  0
LINE
  5
10D
330
4B
100
AcDbEntity
  8
1
  6
Continuous
 62
     7
100
AcDbLine
 10
225.480983917543
 20
303.3951215480629
 30
0.0
 11
225.480983917543
 21
306.3951215480629
 31
0.0
  0
LINE
  5
10E
330
4B
100
AcDbEntity
  8
1
  6
Continuous
 62
     7
100
AcDbLine
 10
222.980983917543
 20
302.1451215480629
 30
0.0
 11
225.480983917543
 21
303.3951215480629
 31
0.0
  0
LINE
  5
10F
330
4B
100
AcDbEntity
  8
1
  6
Continuous
 62
     7
100
AcDbLine
 10
219.480983917543
 20
300.3951215480629
 30
0.0
 11
219.480983917543
 21
303.3951215480629
 31
0.0
  0
LINE
  5
110
330
4B
100
AcDbEntity
  8
1
  6
Continuous
 62
     7
100
AcDbLine
 10
225.480983917543
 20
297.3951215480629
 30
0.0
 11
222.980983917543
 21
298.6451215480629
 31
0.0
  0
LINE
  5
111
330
4B
100
AcDbEntity
  8
1
  6
Continuous
 62
     7
100
AcDbLine
 10
225.480983917543
 20
297.3951215480629
 30
0.0
 11
225.480983917543
 21
300.3951215480629
 31
0.0
  0
LINE
  5
112
330
4B
100
AcDbEntity
  8
1
  6
Continuous
 62
     7
100
AcDbLine
 10
222.980983917543
 20
296.1451215480629
 30
0.0
 11
225.480983917543
 21
297.3951215480629
 31
0.0
  0
LINE
  5
113
330
4B
100
AcDbEntity
  8
1
  6
Continuous
 62
     7
100
AcDbLine
 10
225.480983917543
 20
294.3951215480629
 30
0.0
 11
219.480983917543
 21
294.3951215480629
 31
0.0
  0
LINE
  5
114
330
4B
100
AcDbEntity
  8
1
  6
Continuous
 62
     7
100
AcDbLine
 10
222.4809839175431
 20
289.8951215480629
 30
0.0
 11
221.480983917543
 21
289.8951215480629
 31
0.0
  0
LINE
  5
115
330
4B
100
AcDbEntity
  8
1
  6
Continuous
 62
     7
100
AcDbLine
 10
222.480983917543
 20
294.3951215480629
 30
0.0
 11
222.4809839175431
 21
289.8951215480629
 31
0.0
  0
LINE
  5
116
330
4B
100
AcDbEntity
  8
1
  6
Continuous
 62
     7
100
AcDbLine
 10
223.4809839175431
 20
289.8951215480629
 30
0.0
 11
222.4809839175431
 21
289.8951215480629
 31
0.0
  0
LINE
  5
117
330
4B
100
AcDbEntity
  8
1
  6
Continuous
 62
     7
100
AcDbLine
 10
223.4809839175431
 20
289.8951215480629
 30
0.0
 11
222.480983917543
 21
294.3951215480629
 31
0.0
  0
LINE
  5
118
330
4B
100
AcDbEntity
  8
1
  6
Continuous
 62
     7
100
AcDbLine
 10
221.480983917543
 20
289.8951215480629
 30
0.0
 11
219.980983917543
 21
289.8951215480629
 31
0.0
  0
LINE
  5
119
330
4B
100
AcDbEntity
  8
1
  6
Continuous
 62
     7
100
AcDbLine
 10
221.480983917543
 20
289.8951215480629
 30
0.0
 11
222.480983917543
 21
294.3951215480629
 31
0.0
  0
LINE
  5
11A
330
4B
100
AcDbEntity
  8
1
  6
Continuous
 62
     7
100
AcDbLine
 10
225.480983917543
 20
294.3951215480629
 30
0.0
 11
225.480983917543
 21
297.3951215480629
 31
0.0
  0
LINE
  5
11B
330
4B
100
AcDbEntity
  8
1
  6
Continuous
 62
     7
100
AcDbLine
 10
226.4809839175431
 20
289.8951215480629
 30
0.0
 11
225.480983917543
 21
294.3951215480629
 31
0.0
  0
LINE
  5
11C
330
4B
100
AcDbEntity
  8
1
  6
Continuous
 62
     7
100
AcDbLine
 10
226.4809839175431
 20
289.8951215480629
 30
0.0
 11
224.980983917543
 21
289.8951215480629
 31
0.0
  0
LINE
  5
11D
330
4B
100
AcDbEntity
  8
1
  6
Continuous
 62
     7
100
AcDbLine
 10
219.480983917543
 20
294.3951215480629
 30
0.0
 11
219.480983917543
 21
297.3951215480629
 31
0.0
  0
LINE
  5
11E
330
4B
100
AcDbEntity
  8
1
  6
Continuous
 62
     7
100
AcDbLine
 10
218.480983917543
 20
289.8951215480629
 30
0.0
 11
219.480983917543
 21
294.3951215480629
 31
0.0
  0
LINE
  5
11F
330
4B
100
AcDbEntity
  8
1
  6
Continuous
 62
     7
100
AcDbLine
 10
219.480983917543
 20
289.8951215480629
 30
0.0
 11
218.480983917543
 21
289.8951215480629
 31
0.0
  0
LINE
  5
120
330
4B
100
AcDbEntity
  8
1
  6
Continuous
 62
     7
100
AcDbLine
 10
219.980983917543
 20
289.8951215480629
 30
0.0
 11
219.480983917543
 21
294.3951215480629
 31
0.0
  0
LINE
  5
121
330
4B
100
AcDbEntity
  8
1
  6
Continuous
 62
     7
100
AcDbLine
 10
219.980983917543
 20
289.8951215480629
 30
0.0
 11
219.480983917543
 21
289.8951215480629
 31
0.0
  0
LINE
  5
122
330
4B
100
AcDbEntity
  8
1
  6
Continuous
 62
     7
100
AcDbLine
 10
224.980983917543
 20
289.8951215480629
 30
0.0
 11
225.480983917543
 21
294.3951215480629
 31
0.0
  0
LINE
  5
123
330
4B
100
AcDbEntity
  8
1
  6
Continuous
 62
     7
100
AcDbLine
 10
224.980983917543
 20
289.8951215480629
 30
0.0
 11
223.4809839175431
 21
289.8951215480629
 31
0.0
  0
LINE
  5
124
330
4B
100
AcDbEntity
  8
1
  6
Continuous
 62
     7
100
AcDbLine
 10
254.980983917543
 20
289.8951215480629
 30
0.0
 11
253.480983917543
 21
289.8951215480629
 31
0.0
  0
LINE
  5
125
330
4B
100
AcDbEntity
  8
1
  6
Continuous
 62
     7
100
AcDbLine
 10
254.980983917543
 20
289.8951215480629
 30
0.0
 11
255.480983917543
 21
294.3951215480629
 31
0.0
  0
LINE
  5
126
330
4B
100
AcDbEntity
  8
1
  6
Continuous
 62
     7
100
AcDbLine
 10
249.980983917543
 20
289.8951215480629
 30
0.0
 11
249.480983917543
 21
289.8951215480629
 31
0.0
  0
LINE
  5
127
330
4B
100
AcDbEntity
  8
1
  6
Continuous
 62
     7
100
AcDbLine
 10
249.980983917543
 20
289.8951215480629
 30
0.0
 11
249.480983917543
 21
294.3951215480629
 31
0.0
  0
LINE
  5
128
330
4B
100
AcDbEntity
  8
1
  6
Continuous
 62
     7
100
AcDbLine
 10
249.480983917543
 20
289.8951215480629
 30
0.0
 11
248.480983917543
 21
289.8951215480629
 31
0.0
  0
LINE
  5
129
330
4B
100
AcDbEntity
  8
1
  6
Continuous
 62
     7
100
AcDbLine
 10
248.480983917543
 20
289.8951215480629
 30
0.0
 11
249.480983917543
 21
294.3951215480629
 31
0.0
  0
LINE
  5
12A
330
4B
100
AcDbEntity
  8
1
  6
Continuous
 62
     7
100
AcDbLine
 10
249.480983917543
 20
294.3951215480629
 30
0.0
 11
249.480983917543
 21
297.3951215480629
 31
0.0
  0
LINE
  5
12B
330
4B
100
AcDbEntity
  8
1
  6
Continuous
 62
     7
100
AcDbLine
 10
256.480983917543
 20
289.8951215480629
 30
0.0
 11
254.980983917543
 21
289.8951215480629
 31
0.0
  0
LINE
  5
12C
330
4B
100
AcDbEntity
  8
1
  6
Continuous
 62
     7
100
AcDbLine
 10
256.480983917543
 20
289.8951215480629
 30
0.0
 11
255.480983917543
 21
294.3951215480629
 31
0.0
  0
LINE
  5
12D
330
4B
100
AcDbEntity
  8
1
  6
Continuous
 62
     7
100
AcDbLine
 10
255.480983917543
 20
294.3951215480629
 30
0.0
 11
255.480983917543
 21
297.3951215480629
 31
0.0
  0
LINE
  5
12E
330
4B
100
AcDbEntity
  8
1
  6
Continuous
 62
     7
100
AcDbLine
 10
251.480983917543
 20
289.8951215480629
 30
0.0
 11
252.480983917543
 21
294.3951215480629
 31
0.0
  0
LINE
  5
12F
330
4B
100
AcDbEntity
  8
1
  6
Continuous
 62
     7
100
AcDbLine
 10
251.480983917543
 20
289.8951215480629
 30
0.0
 11
249.980983917543
 21
289.8951215480629
 31
0.0
  0
LINE
  5
130
330
4B
100
AcDbEntity
  8
1
  6
Continuous
 62
     7
100
AcDbLine
 10
253.480983917543
 20
289.8951215480629
 30
0.0
 11
252.480983917543
 21
294.3951215480629
 31
0.0
  0
LINE
  5
131
330
4B
100
AcDbEntity
  8
1
  6
Continuous
 62
     7
100
AcDbLine
 10
253.480983917543
 20
289.8951215480629
 30
0.0
 11
252.480983917543
 21
289.8951215480629
 31
0.0
  0
LINE
  5
132
330
4B
100
AcDbEntity
  8
1
  6
Continuous
 62
     7
100
AcDbLine
 10
252.480983917543
 20
294.3951215480629
 30
0.0
 11
252.480983917543
 21
289.8951215480629
 31
0.0
  0
LINE
  5
133
330
4B
100
AcDbEntity
  8
1
  6
Continuous
 62
     7
100
AcDbLine
 10
252.480983917543
 20
289.8951215480629
 30
0.0
 11
251.480983917543
 21
289.8951215480629
 31
0.0
  0
LINE
  5
134
330
4B
100
AcDbEntity
  8
1
  6
Continuous
 62
     7
100
AcDbLine
 10
255.480983917543
 20
294.3951215480629
 30
0.0
 11
249.480983917543
 21
294.3951215480629
 31
0.0
  0
LINE
  5
135
330
4B
100
AcDbEntity
  8
1
  6
Continuous
 62
     7
100
AcDbLine
 10
252.980983917543
 20
296.1451215480629
 30
0.0
 11
255.480983917543
 21
297.3951215480629
 31
0.0
  0
LINE
  5
136
330
4B
100
AcDbEntity
  8
1
  6
Continuous
 62
     7
100
AcDbLine
 10
255.480983917543
 20
297.3951215480629
 30
0.0
 11
255.480983917543
 21
300.3951215480629
 31
0.0
  0
LINE
  5
137
330
4B
100
AcDbEntity
  8
1
  6
Continuous
 62
     7
100
AcDbLine
 10
255.480983917543
 20
297.3951215480629
 30
0.0
 11
252.980983917543
 21
298.6451215480629
 31
0.0
  0
LINE
  5
138
330
4B
100
AcDbEntity
  8
1
  6
Continuous
 62
     7
100
AcDbLine
 10
249.480983917543
 20
300.3951215480629
 30
0.0
 11
249.480983917543
 21
303.3951215480629
 31
0.0
  0
LINE
  5
139
330
4B
100
AcDbEntity
  8
1
  6
Continuous
 62
     7
100
AcDbLine
 10
252.980983917543
 20
302.1451215480629
 30
0.0
 11
255.480983917543
 21
303.3951215480629
 31
0.0
  0
LINE
  5
13A
330
4B
100
AcDbEntity
  8
1
  6
Continuous
 62
     7
100
AcDbLine
 10
255.480983917543
 20
303.3951215480629
 30
0.0
 11
255.480983917543
 21
306.3951215480629
 31
0.0
  0
LINE
  5
13B
330
4B
100
AcDbEntity
  8
1
  6
Continuous
 62
     7
100
AcDbLine
 10
255.480983917543
 20
303.3951215480629
 30
0.0
 11
252.980983917543
 21
304.6451215480629
 31
0.0
  0
LINE
  5
13C
330
4B
100
AcDbEntity
  8
1
  6
Continuous
 62
     7
100
AcDbLine
 10
249.480983917543
 20
306.3951215480629
 30
0.0
 11
249.480983917543
 21
309.3951215480629
 31
0.0
  0
LINE
  5
13D
330
4B
100
AcDbEntity
  8
1
  6
Continuous
 62
     7
100
AcDbLine
 10
252.980983917543
 20
308.1451215480629
 30
0.0
 11
255.480983917543
 21
309.3951215480629
 31
0.0
  0
LINE
  5
13E
330
4B
100
AcDbEntity
  8
1
  6
Continuous
 62
     7
100
AcDbLine
 10
255.480983917543
 20
309.3951215480629
 30
0.0
 11
255.480983917543
 21
311.8951215480629
 31
0.0
  0
LINE
  5
13F
330
4B
100
AcDbEntity
  8
1
  6
Continuous
 62
     7
100
AcDbLine
 10
255.480983917543
 20
309.3951215480629
 30
0.0
 11
252.980983917543
 21
310.4367882147294
 31
0.0
  0
LINE
  5
140
330
4B
100
AcDbEntity
  8
1
  6
Continuous
 62
     7
100
AcDbLine
 10
249.480983917543
 20
309.3951215480629
 30
0.0
 11
249.480983917543
 21
311.8951215480629
 31
0.0
  0
LINE
  5
141
330
4B
100
AcDbEntity
  8
1
  6
Continuous
 62
     7
100
AcDbLine
 10
252.980983917543
 20
307.6451215480629
 30
0.0
 11
255.480983917543
 21
306.3951215480629
 31
0.0
  0
LINE
  5
142
330
4B
100
AcDbEntity
  8
1
  6
Continuous
 62
     7
100
AcDbLine
 10
255.480983917543
 20
306.3951215480629
 30
0.0
 11
255.480983917543
 21
309.3951215480629
 31
0.0
  0
LINE
  5
143
330
4B
100
AcDbEntity
  8
1
  6
Continuous
 62
     7
100
AcDbLine
 10
255.480983917543
 20
306.3951215480629
 30
0.0
 11
252.980983917543
 21
305.1451215480629
 31
0.0
  0
LINE
  5
144
330
4B
100
AcDbEntity
  8
1
  6
Continuous
 62
     7
100
AcDbLine
 10
249.480983917543
 20
303.3951215480629
 30
0.0
 11
249.480983917543
 21
306.3951215480629
 31
0.0
  0
LINE
  5
145
330
4B
100
AcDbEntity
  8
1
  6
Continuous
 62
     7
100
AcDbLine
 10
252.980983917543
 20
301.6451215480629
 30
0.0
 11
255.480983917543
 21
300.3951215480629
 31
0.0
  0
LINE
  5
146
330
4B
100
AcDbEntity
  8
1
  6
Continuous
 62
     7
100
AcDbLine
 10
255.480983917543
 20
300.3951215480629
 30
0.0
 11
255.480983917543
 21
303.3951215480629
 31
0.0
  0
LINE
  5
147
330
4B
100
AcDbEntity
  8
1
  6
Continuous
 62
     7
100
AcDbLine
 10
255.480983917543
 20
300.3951215480629
 30
0.0
 11
252.980983917543
 21
299.1451215480629
 31
0.0
  0
LINE
  5
148
330
4B
100
AcDbEntity
  8
1
  6
Continuous
 62
     7
100
AcDbLine
 10
249.480983917543
 20
297.3951215480629
 30
0.0
 11
249.480983917543
 21
300.3951215480629
 31
0.0
  0
LINE
  5
149
330
4B
100
AcDbEntity
  8
1
  6
Continuous
 62
     7
100
AcDbLine
 10
252.980983917543
 20
295.6451215480629
 30
0.0
 11
255.480983917543
 21
294.3951215480629
 31
0.0
  0
LINE
  5
14A
330
4B
100
AcDbEntity
  8
1
  6
Continuous
 62
     7
100
AcDbLine
 10
252.980983917543
 20
314.8531614396126
 30
0.0
 11
252.980983917543
 21
310.8534548813962
 31
0.0
  0
LINE
  5
14B
330
4B
100
AcDbEntity
  8
1
  6
Continuous
 62
     7
100
AcDbLine
 10
251.980983917543
 20
314.8531614396126
 30
0.0
 11
251.980983917543
 21
295.6451215480629
 31
0.0
  0
LINE
  5
14C
330
4B
100
AcDbEntity
  8
1
  6
Continuous
 62
     7
100
AcDbLine
 10
254.4668300497751
 20
311.4725574364925
 30
0.0
 11
252.980983917543
 21
310.8534548813962
 31
0.0
  0
LINE
  5
14D
330
4B
100
AcDbEntity
  8
1
  6
Continuous
 62
     7
100
AcDbLine
 10
252.980983917543
 20
310.8534548813962
 30
0.0
 11
252.980983917543
 21
310.4367882147294
 31
0.0
  0
LINE
  5
14E
330
4B
100
AcDbEntity
  8
1
  6
Continuous
 62
     7
100
AcDbLine
 10
252.980983917543
 20
310.4367882147294
 30
0.0
 11
252.980983917543
 21
308.1451215480629
 31
0.0
  0
LINE
  5
14F
330
4B
100
AcDbEntity
  8
1
  6
Continuous
 62
     7
100
AcDbLine
 10
252.980983917543
 20
308.1451215480629
 30
0.0
 11
252.980983917543
 21
307.6451215480629
 31
0.0
  0
LINE
  5
150
330
4B
100
AcDbEntity
  8
1
  6
Continuous
 62
     7
100
AcDbLine
 10
252.980983917543
 20
307.6451215480629
 30
0.0
 11
252.980983917543
 21
305.1451215480629
 31
0.0
  0
LINE
  5
151
330
4B
100
AcDbEntity
  8
1
  6
Continuous
 62
     7
100
AcDbLine
 10
252.980983917543
 20
305.1451215480629
 30
0.0
 11
252.980983917543
 21
304.6451215480629
 31
0.0
  0
LINE
  5
152
330
4B
100
AcDbEntity
  8
1
  6
Continuous
 62
     7
100
AcDbLine
 10
252.980983917543
 20
304.6451215480629
 30
0.0
 11
252.980983917543
 21
302.1451215480629
 31
0.0
  0
LINE
  5
153
330
4B
100
AcDbEntity
  8
1
  6
Continuous
 62
     7
100
AcDbLine
 10
252.980983917543
 20
302.1451215480629
 30
0.0
 11
252.980983917543
 21
301.6451215480629
 31
0.0
  0
LINE
  5
154
330
4B
100
AcDbEntity
  8
1
  6
Continuous
 62
     7
100
AcDbLine
 10
252.980983917543
 20
301.6451215480629
 30
0.0
 11
252.980983917543
 21
299.1451215480629
 31
0.0
  0
LINE
  5
155
330
4B
100
AcDbEntity
  8
1
  6
Continuous
 62
     7
100
AcDbLine
 10
252.980983917543
 20
299.1451215480629
 30
0.0
 11
252.980983917543
 21
298.6451215480629
 31
0.0
  0
LINE
  5
156
330
4B
100
AcDbEntity
  8
1
  6
Continuous
 62
     7
100
AcDbLine
 10
252.980983917543
 20
298.6451215480629
 30
0.0
 11
252.980983917543
 21
296.1451215480629
 31
0.0
  0
LINE
  5
157
330
4B
100
AcDbEntity
  8
1
  6
Continuous
 62
     7
100
AcDbLine
 10
252.980983917543
 20
296.1451215480629
 30
0.0
 11
252.980983917543
 21
295.6451215480629
 31
0.0
  0
LINE
  5
158
330
4B
100
AcDbEntity
  8
1
  6
Continuous
 62
     7
100
AcDbLine
 10
251.980983917543
 20
310.4367882147294
 30
0.0
 11
249.480983917543
 21
309.3951215480629
 31
0.0
  0
LINE
  5
159
330
4B
100
AcDbEntity
  8
1
  6
Continuous
 62
     7
100
AcDbLine
 10
249.480983917543
 20
309.3951215480629
 30
0.0
 11
251.980983917543
 21
308.1451215480629
 31
0.0
  0
LINE
  5
15A
330
4B
100
AcDbEntity
  8
1
  6
Continuous
 62
     7
100
AcDbLine
 10
249.480983917543
 20
306.3951215480629
 30
0.0
 11
251.980983917543
 21
307.6451215480629
 31
0.0
  0
LINE
  5
15B
330
4B
100
AcDbEntity
  8
1
  6
Continuous
 62
     7
100
AcDbLine
 10
251.980983917543
 20
305.1451215480629
 30
0.0
 11
249.480983917543
 21
306.3951215480629
 31
0.0
  0
LINE
  5
15C
330
4B
100
AcDbEntity
  8
1
  6
Continuous
 62
     7
100
AcDbLine
 10
251.980983917543
 20
304.6451215480629
 30
0.0
 11
249.480983917543
 21
303.3951215480629
 31
0.0
  0
LINE
  5
15D
330
4B
100
AcDbEntity
  8
1
  6
Continuous
 62
     7
100
AcDbLine
 10
249.480983917543
 20
303.3951215480629
 30
0.0
 11
251.980983917543
 21
302.1451215480629
 31
0.0
  0
LINE
  5
15E
330
4B
100
AcDbEntity
  8
1
  6
Continuous
 62
     7
100
AcDbLine
 10
249.480983917543
 20
300.3951215480629
 30
0.0
 11
251.980983917543
 21
301.6451215480629
 31
0.0
  0
LINE
  5
15F
330
4B
100
AcDbEntity
  8
1
  6
Continuous
 62
     7
100
AcDbLine
 10
251.980983917543
 20
298.6451215480629
 30
0.0
 11
249.480983917543
 21
297.3951215480629
 31
0.0
  0
LINE
  5
160
330
4B
100
AcDbEntity
  8
1
  6
Continuous
 62
     7
100
AcDbLine
 10
251.980983917543
 20
299.1451215480629
 30
0.0
 11
249.480983917543
 21
300.3951215480629
 31
0.0
  0
LINE
  5
161
330
4B
100
AcDbEntity
  8
1
  6
Continuous
 62
     7
100
AcDbLine
 10
249.480983917543
 20
297.3951215480629
 30
0.0
 11
251.980983917543
 21
296.1451215480629
 31
0.0
  0
LINE
  5
162
330
4B
100
AcDbEntity
  8
1
  6
Continuous
 62
     7
100
AcDbLine
 10
249.480983917543
 20
294.3951215480629
 30
0.0
 11
251.980983917543
 21
295.6451215480629
 31
0.0
  0
LINE
  5
163
330
4B
100
AcDbEntity
  8
1
  6
Continuous
 62
     7
100
AcDbLine
 10
252.980983917543
 20
295.6451215480629
 30
0.0
 11
251.980983917543
 21
295.6451215480629
 31
0.0
  0
ARC
  5
164
330
4B
100
AcDbEntity
  8
1
  6
Continuous
 62
     7
100
AcDbCircle
 10
222.480983917543
 20
311.8951215480629
 30
0.0
 40
3.0
100
AcDbArc
 50
0.0
 51
80.4059317731393
  0
ARC
  5
165
330
4B
100
AcDbEntity
  8
1
  6
Continuous
 62
     7
100
AcDbCircle
 10
222.480983917543
 20
311.8951215480629
 30
0.0
 40
2.999999999999924
100
AcDbArc
 50
99.59406822686073
 51
180.0
  0
ARC
  5
166
330
4B
100
AcDbEntity
  8
1
  6
Continuous
 62
     7
100
AcDbCircle
 10
252.480983917543
 20
311.8951215480629
 30
0.0
 40
2.999999999999924
100
AcDbArc
 50
99.59406822686073
 51
180.0
  0
ARC
  5
167
330
4B
100
AcDbEntity
  8
1
  6
Continuous
 62
     7
100
AcDbCircle
 10
252.480983917543
 20
311.8951215480629
 30
0.0
 40
3.0
100
AcDbArc
 50
0.0
 51
80.4059317731393
  0
ENDBLK
  5
4D
330
4B
100
AcDbEntity
  8
0
100
AcDbBlockEnd
  0
BLOCK
  5
4F
330
4E
100
AcDbEntity
  8
0
100
AcDbBlockBegin
  2
72-108__1__3
 70
     0
 10
770.9364959198291
 20
310.9044696196406
 30
0.0
  3
72-108__1__3
  1

  0
LINE
  5
168
330
4E
100
AcDbEntity
  8
1
  6
Continuous
 62
     7
100
AcDbLine
 10
191.2943100938932
 20
314.6504446210006
 30
0.0
 11
191.3176042747799
 21
315.9849673502432
 31
0.0
  0
LINE
  5
169
330
4E
100
AcDbEntity
  8
1
  6
Continuous
 62
     7
100
AcDbLine
 10
192.480983917543
 20
315.31
 30
0.0
 11
190.7496006213002
 21
314.9535387331262
 31
0.0
  0
LINE
  5
16A
330
4E
100
AcDbEntity
  8
1
  6
Continuous
 62
     7
100
AcDbLine
 10
192.480983917543
 20
317.2475836504816
 30
0.0
 11
191.6472513465029
 21
317.0759328270322
 31
0.0
  0
LINE
  5
16B
330
4E
100
AcDbEntity
  8
0
  6
Continuous
 62
     7
100
AcDbLine
 10
192.480983917543
 20
318.0
 30
0.0
 11
191.3176042747799
 21
315.9849673502432
 31
0.0
  0
LINE
  5
16C
330
4E
100
AcDbEntity
  8
1
  6
PHANTOM
 62
     4
100
AcDbLine
 10
192.480983917543
 20
285.7388400841387
 30
0.0
 11
192.480983917543
 21
286.6081616705149
 31
0.0
  0
LINE
  5
16D
330
4E
100
AcDbEntity
  8
1
  6
Continuous
 62
     7
100
AcDbLine
 10
192.480983917543
 20
286.0
 30
0.0
 11
188.3809839175439
 21
286.0
 31
0.0
  0
LINE
  5
16E
330
4E
100
AcDbEntity
  8
1
  6
Continuous
 62
     7
100
AcDbLine
 10
190.4309839175429
 20
288.3250000000001
 30
0.0
 11
190.4309839175426
 21
288.3500000000002
 31
0.0
  0
LINE
  5
16F
330
4E
100
AcDbEntity
  8
1
  6
Continuous
 62
     7
100
AcDbLine
 10
192.480983917543
 20
288.3500000000002
 30
0.0
 11
190.4309839175426
 21
288.3500000000002
 31
0.0
  0
LINE
  5
170
330
4E
100
AcDbEntity
  8
1
  6
Continuous
 62
     7
100
AcDbLine
 10
190.4309839175426
 20
288.3500000000002
 30
0.0
 11
190.4309839175429
 21
289.8951215480629
 31
0.0
  0
LINE
  5
171
330
4E
100
AcDbEntity
  8
1
  6
Continuous
 62
     7
100
AcDbLine
 10
190.4309839175426
 20
288.3500000000002
 30
0.0
 11
188.3809839175439
 21
286.3
 31
0.0
  0
LINE
  5
172
330
4E
100
AcDbEntity
  8
1
  6
Continuous
 62
     7
100
AcDbLine
 10
188.3809839175439
 20
286.3
 30
0.0
 11
188.3809839175439
 21
286.0
 31
0.0
  0
LINE
  5
173
330
4E
100
AcDbEntity
  8
1
  6
Continuous
 62
     7
100
AcDbLine
 10
188.3809839175439
 20
286.3
 30
0.0
 11
192.480983917543
 21
286.2999999999991
 31
0.0
  0
LINE
  5
174
330
4E
100
AcDbEntity
  8
1
  6
Continuous
 62
     7
100
AcDbLine
 10
193.4090203400281
 20
317.4734475033572
 30
0.0
 11
192.480983917543
 21
317.2475836504816
 31
0.0
  0
LINE
  5
175
330
4E
100
AcDbEntity
  8
1
  6
Continuous
 62
     7
100
AcDbLine
 10
193.6443635603072
 20
315.9849673502432
 30
0.0
 11
193.6676577411942
 21
314.6504446210006
 31
0.0
  0
LINE
  5
176
330
4E
100
AcDbEntity
  8
1
  6
Continuous
 62
     7
100
AcDbLine
 10
194.2123672137872
 20
315.731380985293
 30
0.0
 11
192.480983917543
 21
315.31
 31
0.0
  0
LINE
  5
177
330
4E
100
AcDbEntity
  8
1
  6
Continuous
 62
     7
100
AcDbLine
 10
192.480983917543
 20
286.2999999999991
 30
0.0
 11
196.5809839175428
 21
286.3
 31
0.0
  0
LINE
  5
178
330
4E
100
AcDbEntity
  8
1
  6
Continuous
 62
     7
100
AcDbLine
 10
196.5809839175428
 20
286.0
 30
0.0
 11
196.5809839175428
 21
286.3
 31
0.0
  0
LINE
  5
179
330
4E
100
AcDbEntity
  8
1
  6
Continuous
 62
     7
100
AcDbLine
 10
196.5809839175428
 20
286.3
 30
0.0
 11
194.5309839175441
 21
288.3500000000002
 31
0.0
  0
LINE
  5
17A
330
4E
100
AcDbEntity
  8
1
  6
Continuous
 62
     7
100
AcDbLine
 10
194.5309839175441
 20
288.3500000000002
 30
0.0
 11
192.480983917543
 21
288.3500000000002
 31
0.0
  0
LINE
  5
17B
330
4E
100
AcDbEntity
  8
1
  6
Continuous
 62
     7
100
AcDbLine
 10
194.5309839175441
 20
288.3500000000002
 30
0.0
 11
194.5309839175441
 21
288.3250000000001
 31
0.0
  0
LINE
  5
17C
330
4E
100
AcDbEntity
  8
0
  6
Continuous
 62
     7
100
AcDbLine
 10
193.6443635603072
 20
315.9849673502432
 30
0.0
 11
192.480983917543
 21
318.0
 31
0.0
  0
LINE
  5
17D
330
4E
100
AcDbEntity
  8
1
  6
Continuous
 62
     7
100
AcDbLine
 10
196.5809839175428
 20
286.0
 30
0.0
 11
192.480983917543
 21
286.0
 31
0.0
  0
LINE
  5
17E
330
4E
100
AcDbEntity
  8
1
  6
PHANTOM
 62
     4
100
AcDbLine
 10
192.480983917543
 20
286.6081616705149
 30
0.0
 11
192.480983917543
 21
285.7388400841387
 31
0.0
  0
LINE
  5
17F
330
4E
100
AcDbEntity
  8
1
  6
Continuous
 62
     7
100
AcDbLine
 10
194.5309839175441
 20
289.8951215480629
 30
0.0
 11
194.5309839175441
 21
288.3500000000002
 31
0.0
  0
ENDBLK
  5
50
330
4E
100
AcDbEntity
  8
0
100
AcDbBlockEnd
  0
BLOCK
  5
52
330
51
100
AcDbEntity
  8
0
100
AcDbBlockBegin
  2
83-34__4
 70
     0
 10
752.3364958394453
 20
252.3264972046728
 30
0.0
  3
83-34__4
  1

  0
LINE
  5
180
330
51
100
AcDbEntity
  8
1
  6
Continuous
 62
     7
100
AcDbLine
 10
194.980983917543
 20
289.8951215480629
 30
0.0
 11
193.480983917543
 21
289.8951215480629
 31
0.0
  0
LINE
  5
181
330
51
100
AcDbEntity
  8
1
  6
Continuous
 62
     7
100
AcDbLine
 10
194.980983917543
 20
289.8951215480629
 30
0.0
 11
195.480983917543
 21
294.3951215480629
 31
0.0
  0
LINE
  5
182
330
51
100
AcDbEntity
  8
1
  6
Continuous
 62
     7
100
AcDbLine
 10
189.980983917543
 20
289.8951215480629
 30
0.0
 11
189.480983917543
 21
289.8951215480629
 31
0.0
  0
LINE
  5
183
330
51
100
AcDbEntity
  8
1
  6
Continuous
 62
     7
100
AcDbLine
 10
189.980983917543
 20
289.8951215480629
 30
0.0
 11
189.480983917543
 21
294.3951215480629
 31
0.0
  0
LINE
  5
184
330
51
100
AcDbEntity
  8
1
  6
Continuous
 62
     7
100
AcDbLine
 10
189.480983917543
 20
289.8951215480629
 30
0.0
 11
188.480983917543
 21
289.8951215480629
 31
0.0
  0
LINE
  5
185
330
51
100
AcDbEntity
  8
1
  6
Continuous
 62
     7
100
AcDbLine
 10
188.480983917543
 20
289.8951215480629
 30
0.0
 11
189.480983917543
 21
294.3951215480629
 31
0.0
  0
LINE
  5
186
330
51
100
AcDbEntity
  8
1
  6
Continuous
 62
     7
100
AcDbLine
 10
189.480983917543
 20
294.3951215480629
 30
0.0
 11
189.480983917543
 21
297.3951215480629
 31
0.0
  0
LINE
  5
187
330
51
100
AcDbEntity
  8
1
  6
Continuous
 62
     7
100
AcDbLine
 10
196.480983917543
 20
289.8951215480629
 30
0.0
 11
194.980983917543
 21
289.8951215480629
 31
0.0
  0
LINE
  5
188
330
51
100
AcDbEntity
  8
1
  6
Continuous
 62
     7
100
AcDbLine
 10
196.480983917543
 20
289.8951215480629
 30
0.0
 11
195.480983917543
 21
294.3951215480629
 31
0.0
  0
LINE
  5
189
330
51
100
AcDbEntity
  8
1
  6
Continuous
 62
     7
100
AcDbLine
 10
195.480983917543
 20
294.3951215480629
 30
0.0
 11
195.480983917543
 21
297.3951215480629
 31
0.0
  0
LINE
  5
18A
330
51
100
AcDbEntity
  8
1
  6
Continuous
 62
     7
100
AcDbLine
 10
191.480983917543
 20
289.8951215480629
 30
0.0
 11
192.480983917543
 21
294.3951215480629
 31
0.0
  0
LINE
  5
18B
330
51
100
AcDbEntity
  8
1
  6
Continuous
 62
     7
100
AcDbLine
 10
191.480983917543
 20
289.8951215480629
 30
0.0
 11
189.980983917543
 21
289.8951215480629
 31
0.0
  0
LINE
  5
18C
330
51
100
AcDbEntity
  8
1
  6
Continuous
 62
     7
100
AcDbLine
 10
193.480983917543
 20
289.8951215480629
 30
0.0
 11
192.480983917543
 21
294.3951215480629
 31
0.0
  0
LINE
  5
18D
330
51
100
AcDbEntity
  8
1
  6
Continuous
 62
     7
100
AcDbLine
 10
193.480983917543
 20
289.8951215480629
 30
0.0
 11
192.480983917543
 21
289.8951215480629
 31
0.0
  0
LINE
  5
18E
330
51
100
AcDbEntity
  8
1
  6
Continuous
 62
     7
100
AcDbLine
 10
192.480983917543
 20
294.3951215480629
 30
0.0
 11
192.480983917543
 21
289.8951215480629
 31
0.0
  0
LINE
  5
18F
330
51
100
AcDbEntity
  8
1
  6
Continuous
 62
     7
100
AcDbLine
 10
192.480983917543
 20
289.8951215480629
 30
0.0
 11
191.480983917543
 21
289.8951215480629
 31
0.0
  0
LINE
  5
190
330
51
100
AcDbEntity
  8
1
  6
Continuous
 62
     7
100
AcDbLine
 10
195.480983917543
 20
294.3951215480629
 30
0.0
 11
189.480983917543
 21
294.3951215480629
 31
0.0
  0
LINE
  5
191
330
51
100
AcDbEntity
  8
1
  6
Continuous
 62
     7
100
AcDbLine
 10
192.980983917543
 20
296.1451215480629
 30
0.0
 11
195.480983917543
 21
297.3951215480629
 31
0.0
  0
LINE
  5
192
330
51
100
AcDbEntity
  8
1
  6
Continuous
 62
     7
100
AcDbLine
 10
195.480983917543
 20
297.3951215480629
 30
0.0
 11
195.480983917543
 21
300.3951215480629
 31
0.0
  0
LINE
  5
193
330
51
100
AcDbEntity
  8
1
  6
Continuous
 62
     7
100
AcDbLine
 10
195.480983917543
 20
297.3951215480629
 30
0.0
 11
192.980983917543
 21
298.6451215480629
 31
0.0
  0
LINE
  5
194
330
51
100
AcDbEntity
  8
1
  6
Continuous
 62
     7
100
AcDbLine
 10
189.480983917543
 20
300.3951215480629
 30
0.0
 11
189.480983917543
 21
303.3951215480629
 31
0.0
  0
LINE
  5
195
330
51
100
AcDbEntity
  8
1
  6
Continuous
 62
     7
100
AcDbLine
 10
192.980983917543
 20
302.1451215480629
 30
0.0
 11
195.480983917543
 21
303.3951215480629
 31
0.0
  0
LINE
  5
196
330
51
100
AcDbEntity
  8
1
  6
Continuous
 62
     7
100
AcDbLine
 10
195.480983917543
 20
303.3951215480629
 30
0.0
 11
195.480983917543
 21
306.3951215480629
 31
0.0
  0
LINE
  5
197
330
51
100
AcDbEntity
  8
1
  6
Continuous
 62
     7
100
AcDbLine
 10
195.480983917543
 20
303.3951215480629
 30
0.0
 11
192.980983917543
 21
304.6451215480629
 31
0.0
  0
LINE
  5
198
330
51
100
AcDbEntity
  8
1
  6
Continuous
 62
     7
100
AcDbLine
 10
189.480983917543
 20
306.3951215480629
 30
0.0
 11
189.480983917543
 21
309.3951215480629
 31
0.0
  0
LINE
  5
199
330
51
100
AcDbEntity
  8
1
  6
Continuous
 62
     7
100
AcDbLine
 10
192.980983917543
 20
308.1451215480629
 30
0.0
 11
195.480983917543
 21
309.3951215480629
 31
0.0
  0
LINE
  5
19A
330
51
100
AcDbEntity
  8
1
  6
Continuous
 62
     7
100
AcDbLine
 10
195.480983917543
 20
309.3951215480629
 30
0.0
 11
195.480983917543
 21
311.8951215480629
 31
0.0
  0
LINE
  5
19B
330
51
100
AcDbEntity
  8
1
  6
Continuous
 62
     7
100
AcDbLine
 10
195.480983917543
 20
309.3951215480629
 30
0.0
 11
192.980983917543
 21
310.4367882147294
 31
0.0
  0
LINE
  5
19C
330
51
100
AcDbEntity
  8
1
  6
Continuous
 62
     7
100
AcDbLine
 10
189.480983917543
 20
309.3951215480629
 30
0.0
 11
189.480983917543
 21
311.8951215480629
 31
0.0
  0
LINE
  5
19D
330
51
100
AcDbEntity
  8
1
  6
Continuous
 62
     7
100
AcDbLine
 10
192.980983917543
 20
307.6451215480629
 30
0.0
 11
195.480983917543
 21
306.3951215480629
 31
0.0
  0
LINE
  5
19E
330
51
100
AcDbEntity
  8
1
  6
Continuous
 62
     7
100
AcDbLine
 10
195.480983917543
 20
306.3951215480629
 30
0.0
 11
195.480983917543
 21
309.3951215480629
 31
0.0
  0
LINE
  5
19F
330
51
100
AcDbEntity
  8
1
  6
Continuous
 62
     7
100
AcDbLine
 10
195.480983917543
 20
306.3951215480629
 30
0.0
 11
192.980983917543
 21
305.1451215480629
 31
0.0
  0
LINE
  5
1A0
330
51
100
AcDbEntity
  8
1
  6
Continuous
 62
     7
100
AcDbLine
 10
189.480983917543
 20
303.3951215480629
 30
0.0
 11
189.480983917543
 21
306.3951215480629
 31
0.0
  0
LINE
  5
1A1
330
51
100
AcDbEntity
  8
1
  6
Continuous
 62
     7
100
AcDbLine
 10
192.980983917543
 20
301.6451215480629
 30
0.0
 11
195.480983917543
 21
300.3951215480629
 31
0.0
  0
LINE
  5
1A2
330
51
100
AcDbEntity
  8
1
  6
Continuous
 62
     7
100
AcDbLine
 10
195.480983917543
 20
300.3951215480629
 30
0.0
 11
195.480983917543
 21
303.3951215480629
 31
0.0
  0
LINE
  5
1A3
330
51
100
AcDbEntity
  8
1
  6
Continuous
 62
     7
100
AcDbLine
 10
195.480983917543
 20
300.3951215480629
 30
0.0
 11
192.980983917543
 21
299.1451215480629
 31
0.0
  0
LINE
  5
1A4
330
51
100
AcDbEntity
  8
1
  6
Continuous
 62
     7
100
AcDbLine
 10
189.480983917543
 20
297.3951215480629
 30
0.0
 11
189.480983917543
 21
300.3951215480629
 31
0.0
  0
LINE
  5
1A5
330
51
100
AcDbEntity
  8
1
  6
Continuous
 62
     7
100
AcDbLine
 10
192.980983917543
 20
295.6451215480629
 30
0.0
 11
195.480983917543
 21
294.3951215480629
 31
0.0
  0
LINE
  5
1A6
330
51
100
AcDbEntity
  8
1
  6
Continuous
 62
     7
100
AcDbLine
 10
192.980983917543
 20
314.8531614396126
 30
0.0
 11
192.980983917543
 21
310.8534548813962
 31
0.0
  0
LINE
  5
1A7
330
51
100
AcDbEntity
  8
1
  6
Continuous
 62
     7
100
AcDbLine
 10
191.980983917543
 20
314.8531614396126
 30
0.0
 11
191.980983917543
 21
295.6451215480629
 31
0.0
  0
LINE
  5
1A8
330
51
100
AcDbEntity
  8
1
  6
Continuous
 62
     7
100
AcDbLine
 10
194.466830049775
 20
311.4725574364925
 30
0.0
 11
192.980983917543
 21
310.8534548813962
 31
0.0
  0
LINE
  5
1A9
330
51
100
AcDbEntity
  8
1
  6
Continuous
 62
     7
100
AcDbLine
 10
192.980983917543
 20
310.8534548813962
 30
0.0
 11
192.980983917543
 21
310.4367882147294
 31
0.0
  0
LINE
  5
1AA
330
51
100
AcDbEntity
  8
1
  6
Continuous
 62
     7
100
AcDbLine
 10
192.980983917543
 20
310.4367882147294
 30
0.0
 11
192.980983917543
 21
308.1451215480629
 31
0.0
  0
LINE
  5
1AB
330
51
100
AcDbEntity
  8
1
  6
Continuous
 62
     7
100
AcDbLine
 10
192.980983917543
 20
308.1451215480629
 30
0.0
 11
192.980983917543
 21
307.6451215480629
 31
0.0
  0
LINE
  5
1AC
330
51
100
AcDbEntity
  8
1
  6
Continuous
 62
     7
100
AcDbLine
 10
192.980983917543
 20
307.6451215480629
 30
0.0
 11
192.980983917543
 21
305.1451215480629
 31
0.0
  0
LINE
  5
1AD
330
51
100
AcDbEntity
  8
1
  6
Continuous
 62
     7
100
AcDbLine
 10
192.980983917543
 20
305.1451215480629
 30
0.0
 11
192.980983917543
 21
304.6451215480629
 31
0.0
  0
LINE
  5
1AE
330
51
100
AcDbEntity
  8
1
  6
Continuous
 62
     7
100
AcDbLine
 10
192.980983917543
 20
304.6451215480629
 30
0.0
 11
192.980983917543
 21
302.1451215480629
 31
0.0
  0
LINE
  5
1AF
330
51
100
AcDbEntity
  8
1
  6
Continuous
 62
     7
100
AcDbLine
 10
192.980983917543
 20
302.1451215480629
 30
0.0
 11
192.980983917543
 21
301.6451215480629
 31
0.0
  0
LINE
  5
1B0
330
51
100
AcDbEntity
  8
1
  6
Continuous
 62
     7
100
AcDbLine
 10
192.980983917543
 20
301.6451215480629
 30
0.0
 11
192.980983917543
 21
299.1451215480629
 31
0.0
  0
LINE
  5
1B1
330
51
100
AcDbEntity
  8
1
  6
Continuous
 62
     7
100
AcDbLine
 10
192.980983917543
 20
299.1451215480629
 30
0.0
 11
192.980983917543
 21
298.6451215480629
 31
0.0
  0
LINE
  5
1B2
330
51
100
AcDbEntity
  8
1
  6
Continuous
 62
     7
100
AcDbLine
 10
192.980983917543
 20
298.6451215480629
 30
0.0
 11
192.980983917543
 21
296.1451215480629
 31
0.0
  0
LINE
  5
1B3
330
51
100
AcDbEntity
  8
1
  6
Continuous
 62
     7
100
AcDbLine
 10
192.980983917543
 20
296.1451215480629
 30
0.0
 11
192.980983917543
 21
295.6451215480629
 31
0.0
  0
LINE
  5
1B4
330
51
100
AcDbEntity
  8
1
  6
Continuous
 62
     7
100
AcDbLine
 10
191.980983917543
 20
310.4367882147294
 30
0.0
 11
189.480983917543
 21
309.3951215480629
 31
0.0
  0
LINE
  5
1B5
330
51
100
AcDbEntity
  8
1
  6
Continuous
 62
     7
100
AcDbLine
 10
189.480983917543
 20
309.3951215480629
 30
0.0
 11
191.980983917543
 21
308.1451215480629
 31
0.0
  0
LINE
  5
1B6
330
51
100
AcDbEntity
  8
1
  6
Continuous
 62
     7
100
AcDbLine
 10
189.480983917543
 20
306.3951215480629
 30
0.0
 11
191.980983917543
 21
307.6451215480629
 31
0.0
  0
LINE
  5
1B7
330
51
100
AcDbEntity
  8
1
  6
Continuous
 62
     7
100
AcDbLine
 10
191.980983917543
 20
305.1451215480629
 30
0.0
 11
189.480983917543
 21
306.3951215480629
 31
0.0
  0
LINE
  5
1B8
330
51
100
AcDbEntity
  8
1
  6
Continuous
 62
     7
100
AcDbLine
 10
191.980983917543
 20
304.6451215480629
 30
0.0
 11
189.480983917543
 21
303.3951215480629
 31
0.0
  0
LINE
  5
1B9
330
51
100
AcDbEntity
  8
1
  6
Continuous
 62
     7
100
AcDbLine
 10
189.480983917543
 20
303.3951215480629
 30
0.0
 11
191.980983917543
 21
302.1451215480629
 31
0.0
  0
LINE
  5
1BA
330
51
100
AcDbEntity
  8
1
  6
Continuous
 62
     7
100
AcDbLine
 10
189.480983917543
 20
300.3951215480629
 30
0.0
 11
191.980983917543
 21
301.6451215480629
 31
0.0
  0
LINE
  5
1BB
330
51
100
AcDbEntity
  8
1
  6
Continuous
 62
     7
100
AcDbLine
 10
191.980983917543
 20
298.6451215480629
 30
0.0
 11
189.480983917543
 21
297.3951215480629
 31
0.0
  0
LINE
  5
1BC
330
51
100
AcDbEntity
  8
1
  6
Continuous
 62
     7
100
AcDbLine
 10
191.980983917543
 20
299.1451215480629
 30
0.0
 11
189.480983917543
 21
300.3951215480629
 31
0.0
  0
LINE
  5
1BD
330
51
100
AcDbEntity
  8
1
  6
Continuous
 62
     7
100
AcDbLine
 10
189.480983917543
 20
297.3951215480629
 30
0.0
 11
191.980983917543
 21
296.1451215480629
 31
0.0
  0
LINE
  5
1BE
330
51
100
AcDbEntity
  8
1
  6
Continuous
 62
     7
100
AcDbLine
 10
189.480983917543
 20
294.3951215480629
 30
0.0
 11
191.980983917543
 21
295.6451215480629
 31
0.0
  0
LINE
  5
1BF
330
51
100
AcDbEntity
  8
1
  6
Continuous
 62
     7
100
AcDbLine
 10
192.980983917543
 20
295.6451215480629
 30
0.0
 11
191.980983917543
 21
295.6451215480629
 31
0.0
  0
ARC
  5
1C0
330
51
100
AcDbEntity
  8
1
  6
Continuous
 62
     7
100
AcDbCircle
 10
192.480983917543
 20
311.8951215480629
 30
0.0
 40
2.999999999999924
100
AcDbArc
 50
99.59406822686073
 51
180.0
  0
ARC
  5
1C1
330
51
100
AcDbEntity
  8
1
  6
Continuous
 62
     7
100
AcDbCircle
 10
192.480983917543
 20
311.8951215480629
 30
0.0
 40
3.0
100
AcDbArc
 50
0.0
 51
80.4059317731393
  0
ENDBLK
  5
53
330
51
100
AcDbEntity
  8
0
100
AcDbBlockEnd
  0
BLOCK
  5
55
330
54
100
AcDbEntity
  8
0
100
AcDbBlockBegin
  2
72-108__1__5
 70
     0
 10
800.9364959198291
 20
250.9044696196406
 30
0.0
  3
72-108__1__5
  1

  0
LINE
  5
1C2
330
54
100
AcDbEntity
  8
1
  6
Continuous
 62
     7
100
AcDbLine
 10
254.5309839175441
 20
229.8951215480629
 30
0.0
 11
254.5309839175441
 21
228.3500000000002
 31
0.0
  0
LINE
  5
1C3
330
54
100
AcDbEntity
  8
1
  6
PHANTOM
 62
     4
100
AcDbLine
 10
252.480983917543
 20
226.6081616705149
 30
0.0
 11
252.480983917543
 21
225.7388400841387
 31
0.0
  0
LINE
  5
1C4
330
54
100
AcDbEntity
  8
1
  6
Continuous
 62
     7
100
AcDbLine
 10
256.5809839175428
 20
226.0
 30
0.0
 11
252.480983917543
 21
226.0
 31
0.0
  0
LINE
  5
1C5
330
54
100
AcDbEntity
  8
0
  6
Continuous
 62
     7
100
AcDbLine
 10
253.6443635603072
 20
255.9849673502432
 30
0.0
 11
252.480983917543
 21
258.0
 31
0.0
  0
LINE
  5
1C6
330
54
100
AcDbEntity
  8
1
  6
Continuous
 62
     7
100
AcDbLine
 10
254.5309839175441
 20
228.3500000000002
 30
0.0
 11
254.5309839175441
 21
228.3250000000001
 31
0.0
  0
LINE
  5
1C7
330
54
100
AcDbEntity
  8
1
  6
Continuous
 62
     7
100
AcDbLine
 10
254.5309839175441
 20
228.3500000000002
 30
0.0
 11
252.480983917543
 21
228.3500000000002
 31
0.0
  0
LINE
  5
1C8
330
54
100
AcDbEntity
  8
1
  6
Continuous
 62
     7
100
AcDbLine
 10
256.5809839175428
 20
226.3
 30
0.0
 11
254.5309839175441
 21
228.3500000000002
 31
0.0
  0
LINE
  5
1C9
330
54
100
AcDbEntity
  8
1
  6
Continuous
 62
     7
100
AcDbLine
 10
256.5809839175428
 20
226.0
 30
0.0
 11
256.5809839175428
 21
226.3
 31
0.0
  0
LINE
  5
1CA
330
54
100
AcDbEntity
  8
1
  6
Continuous
 62
     7
100
AcDbLine
 10
252.480983917543
 20
226.2999999999991
 30
0.0
 11
256.5809839175428
 21
226.3
 31
0.0
  0
LINE
  5
1CB
330
54
100
AcDbEntity
  8
1
  6
Continuous
 62
     7
100
AcDbLine
 10
254.2123672137872
 20
255.731380985293
 30
0.0
 11
252.480983917543
 21
255.31
 31
0.0
  0
LINE
  5
1CC
330
54
100
AcDbEntity
  8
1
  6
Continuous
 62
     7
100
AcDbLine
 10
253.6443635603072
 20
255.9849673502432
 30
0.0
 11
253.6676577411943
 21
254.6504446210006
 31
0.0
  0
LINE
  5
1CD
330
54
100
AcDbEntity
  8
1
  6
Continuous
 62
     7
100
AcDbLine
 10
253.4090203400281
 20
257.4734475033572
 30
0.0
 11
252.480983917543
 21
257.2475836504816
 31
0.0
  0
LINE
  5
1CE
330
54
100
AcDbEntity
  8
1
  6
Continuous
 62
     7
100
AcDbLine
 10
248.3809839175439
 20
226.3
 30
0.0
 11
252.480983917543
 21
226.2999999999991
 31
0.0
  0
LINE
  5
1CF
330
54
100
AcDbEntity
  8
1
  6
Continuous
 62
     7
100
AcDbLine
 10
248.3809839175439
 20
226.3
 30
0.0
 11
248.3809839175439
 21
226.0
 31
0.0
  0
LINE
  5
1D0
330
54
100
AcDbEntity
  8
1
  6
Continuous
 62
     7
100
AcDbLine
 10
250.4309839175426
 20
228.3500000000002
 30
0.0
 11
248.3809839175439
 21
226.3
 31
0.0
  0
LINE
  5
1D1
330
54
100
AcDbEntity
  8
1
  6
Continuous
 62
     7
100
AcDbLine
 10
250.4309839175426
 20
228.3500000000002
 30
0.0
 11
250.4309839175429
 21
229.8951215480629
 31
0.0
  0
LINE
  5
1D2
330
54
100
AcDbEntity
  8
1
  6
Continuous
 62
     7
100
AcDbLine
 10
252.480983917543
 20
228.3500000000002
 30
0.0
 11
250.4309839175426
 21
228.3500000000002
 31
0.0
  0
LINE
  5
1D3
330
54
100
AcDbEntity
  8
1
  6
Continuous
 62
     7
100
AcDbLine
 10
250.4309839175429
 20
228.3250000000001
 30
0.0
 11
250.4309839175426
 21
228.3500000000002
 31
0.0
  0
LINE
  5
1D4
330
54
100
AcDbEntity
  8
1
  6
Continuous
 62
     7
100
AcDbLine
 10
252.480983917543
 20
226.0
 30
0.0
 11
248.3809839175439
 21
226.0
 31
0.0
  0
LINE
  5
1D5
330
54
100
AcDbEntity
  8
1
  6
PHANTOM
 62
     4
100
AcDbLine
 10
252.480983917543
 20
225.7388400841387
 30
0.0
 11
252.480983917543
 21
226.6081616705149
 31
0.0
  0
LINE
  5
1D6
330
54
100
AcDbEntity
  8
0
  6
Continuous
 62
     7
100
AcDbLine
 10
252.480983917543
 20
258.0
 30
0.0
 11
251.3176042747799
 21
255.9849673502432
 31
0.0
  0
LINE
  5
1D7
330
54
100
AcDbEntity
  8
1
  6
Continuous
 62
     7
100
AcDbLine
 10
252.480983917543
 20
257.2475836504816
 30
0.0
 11
251.647251346503
 21
257.0759328270322
 31
0.0
  0
LINE
  5
1D8
330
54
100
AcDbEntity
  8
1
  6
Continuous
 62
     7
100
AcDbLine
 10
252.480983917543
 20
255.31
 30
0.0
 11
250.7496006213003
 21
254.9535387331262
 31
0.0
  0
LINE
  5
1D9
330
54
100
AcDbEntity
  8
1
  6
Continuous
 62
     7
100
AcDbLine
 10
251.2943100938932
 20
254.6504446210006
 30
0.0
 11
251.3176042747799
 21
255.9849673502432
 31
0.0
  0
LINE
  5
1DA
330
54
100
AcDbEntity
  8
1
  6
Continuous
 62
     7
100
AcDbLine
 10
221.2943100938932
 20
254.6504446210006
 30
0.0
 11
221.3176042747799
 21
255.9849673502432
 31
0.0
  0
LINE
  5
1DB
330
54
100
AcDbEntity
  8
1
  6
Continuous
 62
     7
100
AcDbLine
 10
222.480983917543
 20
255.31
 30
0.0
 11
220.7496006213002
 21
254.9535387331262
 31
0.0
  0
LINE
  5
1DC
330
54
100
AcDbEntity
  8
1
  6
Continuous
 62
     7
100
AcDbLine
 10
222.480983917543
 20
257.2475836504816
 30
0.0
 11
221.6472513465029
 21
257.0759328270322
 31
0.0
  0
LINE
  5
1DD
330
54
100
AcDbEntity
  8
0
  6
Continuous
 62
     7
100
AcDbLine
 10
222.480983917543
 20
258.0
 30
0.0
 11
221.3176042747799
 21
255.9849673502432
 31
0.0
  0
LINE
  5
1DE
330
54
100
AcDbEntity
  8
1
  6
PHANTOM
 62
     4
100
AcDbLine
 10
222.480983917543
 20
225.7388400841387
 30
0.0
 11
222.480983917543
 21
226.6081616705149
 31
0.0
  0
LINE
  5
1DF
330
54
100
AcDbEntity
  8
1
  6
Continuous
 62
     7
100
AcDbLine
 10
222.480983917543
 20
226.0
 30
0.0
 11
218.3809839175439
 21
226.0
 31
0.0
  0
LINE
  5
1E0
330
54
100
AcDbEntity
  8
1
  6
Continuous
 62
     7
100
AcDbLine
 10
220.4309839175429
 20
228.3250000000001
 30
0.0
 11
220.4309839175426
 21
228.3500000000002
 31
0.0
  0
LINE
  5
1E1
330
54
100
AcDbEntity
  8
1
  6
Continuous
 62
     7
100
AcDbLine
 10
222.480983917543
 20
228.3500000000002
 30
0.0
 11
220.4309839175426
 21
228.3500000000002
 31
0.0
  0
LINE
  5
1E2
330
54
100
AcDbEntity
  8
1
  6
Continuous
 62
     7
100
AcDbLine
 10
220.4309839175426
 20
228.3500000000002
 30
0.0
 11
220.4309839175429
 21
229.8951215480629
 31
0.0
  0
LINE
  5
1E3
330
54
100
AcDbEntity
  8
1
  6
Continuous
 62
     7
100
AcDbLine
 10
220.4309839175426
 20
228.3500000000002
 30
0.0
 11
218.3809839175439
 21
226.3
 31
0.0
  0
LINE
  5
1E4
330
54
100
AcDbEntity
  8
1
  6
Continuous
 62
     7
100
AcDbLine
 10
218.3809839175439
 20
226.3
 30
0.0
 11
218.3809839175439
 21
226.0
 31
0.0
  0
LINE
  5
1E5
330
54
100
AcDbEntity
  8
1
  6
Continuous
 62
     7
100
AcDbLine
 10
218.3809839175439
 20
226.3
 30
0.0
 11
222.480983917543
 21
226.2999999999991
 31
0.0
  0
LINE
  5
1E6
330
54
100
AcDbEntity
  8
1
  6
Continuous
 62
     7
100
AcDbLine
 10
223.4090203400281
 20
257.4734475033572
 30
0.0
 11
222.480983917543
 21
257.2475836504816
 31
0.0
  0
LINE
  5
1E7
330
54
100
AcDbEntity
  8
1
  6
Continuous
 62
     7
100
AcDbLine
 10
223.6443635603072
 20
255.9849673502432
 30
0.0
 11
223.6676577411942
 21
254.6504446210006
 31
0.0
  0
LINE
  5
1E8
330
54
100
AcDbEntity
  8
1
  6
Continuous
 62
     7
100
AcDbLine
 10
224.2123672137872
 20
255.731380985293
 30
0.0
 11
222.480983917543
 21
255.31
 31
0.0
  0
LINE
  5
1E9
330
54
100
AcDbEntity
  8
1
  6
Continuous
 62
     7
100
AcDbLine
 10
222.480983917543
 20
226.2999999999991
 30
0.0
 11
226.5809839175428
 21
226.3
 31
0.0
  0
LINE
  5
1EA
330
54
100
AcDbEntity
  8
1
  6
Continuous
 62
     7
100
AcDbLine
 10
226.5809839175428
 20
226.0
 30
0.0
 11
226.5809839175428
 21
226.3
 31
0.0
  0
LINE
  5
1EB
330
54
100
AcDbEntity
  8
1
  6
Continuous
 62
     7
100
AcDbLine
 10
226.5809839175428
 20
226.3
 30
0.0
 11
224.5309839175441
 21
228.3500000000002
 31
0.0
  0
LINE
  5
1EC
330
54
100
AcDbEntity
  8
1
  6
Continuous
 62
     7
100
AcDbLine
 10
224.5309839175441
 20
228.3500000000002
 30
0.0
 11
222.480983917543
 21
228.3500000000002
 31
0.0
  0
LINE
  5
1ED
330
54
100
AcDbEntity
  8
1
  6
Continuous
 62
     7
100
AcDbLine
 10
224.5309839175441
 20
228.3500000000002
 30
0.0
 11
224.5309839175441
 21
228.3250000000001
 31
0.0
  0
LINE
  5
1EE
330
54
100
AcDbEntity
  8
0
  6
Continuous
 62
     7
100
AcDbLine
 10
223.6443635603072
 20
255.9849673502432
 30
0.0
 11
222.480983917543
 21
258.0
 31
0.0
  0
LINE
  5
1EF
330
54
100
AcDbEntity
  8
1
  6
Continuous
 62
     7
100
AcDbLine
 10
226.5809839175428
 20
226.0
 30
0.0
 11
222.480983917543
 21
226.0
 31
0.0
  0
LINE
  5
1F0
330
54
100
AcDbEntity
  8
1
  6
PHANTOM
 62
     4
100
AcDbLine
 10
222.480983917543
 20
226.6081616705149
 30
0.0
 11
222.480983917543
 21
225.7388400841387
 31
0.0
  0
LINE
  5
1F1
330
54
100
AcDbEntity
  8
1
  6
Continuous
 62
     7
100
AcDbLine
 10
224.5309839175441
 20
229.8951215480629
 30
0.0
 11
224.5309839175441
 21
228.3500000000002
 31
0.0
  0
ENDBLK
  5
56
330
54
100
AcDbEntity
  8
0
100
AcDbBlockEnd
  0
BLOCK
  5
58
330
57
100
AcDbEntity
  8
0
100
AcDbBlockBegin
  2
83-34__6
 70
     0
 10
782.3364958394453
 20
192.3264972046728
 30
0.0
  3
83-34__6
  1

  0
LINE
  5
1F2
330
57
100
AcDbEntity
  8
1
  6
Continuous
 62
     7
100
AcDbLine
 10
252.980983917543
 20
235.6451215480629
 30
0.0
 11
251.980983917543
 21
235.6451215480629
 31
0.0
  0
LINE
  5
1F3
330
57
100
AcDbEntity
  8
1
  6
Continuous
 62
     7
100
AcDbLine
 10
249.480983917543
 20
234.3951215480629
 30
0.0
 11
251.980983917543
 21
235.6451215480629
 31
0.0
  0
LINE
  5
1F4
330
57
100
AcDbEntity
  8
1
  6
Continuous
 62
     7
100
AcDbLine
 10
249.480983917543
 20
237.3951215480629
 30
0.0
 11
251.980983917543
 21
236.1451215480629
 31
0.0
  0
LINE
  5
1F5
330
57
100
AcDbEntity
  8
1
  6
Continuous
 62
     7
100
AcDbLine
 10
251.980983917543
 20
239.1451215480629
 30
0.0
 11
249.480983917543
 21
240.3951215480629
 31
0.0
  0
LINE
  5
1F6
330
57
100
AcDbEntity
  8
1
  6
Continuous
 62
     7
100
AcDbLine
 10
251.980983917543
 20
238.6451215480629
 30
0.0
 11
249.480983917543
 21
237.3951215480629
 31
0.0
  0
LINE
  5
1F7
330
57
100
AcDbEntity
  8
1
  6
Continuous
 62
     7
100
AcDbLine
 10
249.480983917543
 20
240.3951215480629
 30
0.0
 11
251.980983917543
 21
241.6451215480629
 31
0.0
  0
LINE
  5
1F8
330
57
100
AcDbEntity
  8
1
  6
Continuous
 62
     7
100
AcDbLine
 10
249.480983917543
 20
243.3951215480629
 30
0.0
 11
251.980983917543
 21
242.1451215480629
 31
0.0
  0
LINE
  5
1F9
330
57
100
AcDbEntity
  8
1
  6
Continuous
 62
     7
100
AcDbLine
 10
251.980983917543
 20
244.6451215480629
 30
0.0
 11
249.480983917543
 21
243.3951215480629
 31
0.0
  0
LINE
  5
1FA
330
57
100
AcDbEntity
  8
1
  6
Continuous
 62
     7
100
AcDbLine
 10
251.980983917543
 20
245.1451215480629
 30
0.0
 11
249.480983917543
 21
246.3951215480629
 31
0.0
  0
LINE
  5
1FB
330
57
100
AcDbEntity
  8
1
  6
Continuous
 62
     7
100
AcDbLine
 10
249.480983917543
 20
246.3951215480629
 30
0.0
 11
251.980983917543
 21
247.6451215480629
 31
0.0
  0
LINE
  5
1FC
330
57
100
AcDbEntity
  8
1
  6
Continuous
 62
     7
100
AcDbLine
 10
249.480983917543
 20
249.3951215480629
 30
0.0
 11
251.980983917543
 21
248.1451215480629
 31
0.0
  0
LINE
  5
1FD
330
57
100
AcDbEntity
  8
1
  6
Continuous
 62
     7
100
AcDbLine
 10
251.980983917543
 20
250.4367882147294
 30
0.0
 11
249.480983917543
 21
249.3951215480629
 31
0.0
  0
LINE
  5
1FE
330
57
100
AcDbEntity
  8
1
  6
Continuous
 62
     7
100
AcDbLine
 10
252.980983917543
 20
236.1451215480629
 30
0.0
 11
252.980983917543
 21
235.6451215480629
 31
0.0
  0
LINE
  5
1FF
330
57
100
AcDbEntity
  8
1
  6
Continuous
 62
     7
100
AcDbLine
 10
252.980983917543
 20
238.6451215480629
 30
0.0
 11
252.980983917543
 21
236.1451215480629
 31
0.0
  0
LINE
  5
200
330
57
100
AcDbEntity
  8
1
  6
Continuous
 62
     7
100
AcDbLine
 10
252.980983917543
 20
239.1451215480629
 30
0.0
 11
252.980983917543
 21
238.6451215480629
 31
0.0
  0
LINE
  5
201
330
57
100
AcDbEntity
  8
1
  6
Continuous
 62
     7
100
AcDbLine
 10
252.980983917543
 20
241.6451215480629
 30
0.0
 11
252.980983917543
 21
239.1451215480629
 31
0.0
  0
LINE
  5
202
330
57
100
AcDbEntity
  8
1
  6
Continuous
 62
     7
100
AcDbLine
 10
252.980983917543
 20
242.1451215480629
 30
0.0
 11
252.980983917543
 21
241.6451215480629
 31
0.0
  0
LINE
  5
203
330
57
100
AcDbEntity
  8
1
  6
Continuous
 62
     7
100
AcDbLine
 10
252.980983917543
 20
244.6451215480629
 30
0.0
 11
252.980983917543
 21
242.1451215480629
 31
0.0
  0
LINE
  5
204
330
57
100
AcDbEntity
  8
1
  6
Continuous
 62
     7
100
AcDbLine
 10
252.980983917543
 20
245.1451215480629
 30
0.0
 11
252.980983917543
 21
244.6451215480629
 31
0.0
  0
LINE
  5
205
330
57
100
AcDbEntity
  8
1
  6
Continuous
 62
     7
100
AcDbLine
 10
252.980983917543
 20
247.6451215480629
 30
0.0
 11
252.980983917543
 21
245.1451215480629
 31
0.0
  0
LINE
  5
206
330
57
100
AcDbEntity
  8
1
  6
Continuous
 62
     7
100
AcDbLine
 10
252.980983917543
 20
248.1451215480629
 30
0.0
 11
252.980983917543
 21
247.6451215480629
 31
0.0
  0
LINE
  5
207
330
57
100
AcDbEntity
  8
1
  6
Continuous
 62
     7
100
AcDbLine
 10
252.980983917543
 20
250.4367882147294
 30
0.0
 11
252.980983917543
 21
248.1451215480629
 31
0.0
  0
LINE
  5
208
330
57
100
AcDbEntity
  8
1
  6
Continuous
 62
     7
100
AcDbLine
 10
252.980983917543
 20
250.8534548813962
 30
0.0
 11
252.980983917543
 21
250.4367882147294
 31
0.0
  0
LINE
  5
209
330
57
100
AcDbEntity
  8
1
  6
Continuous
 62
     7
100
AcDbLine
 10
254.4668300497751
 20
251.4725574364925
 30
0.0
 11
252.980983917543
 21
250.8534548813962
 31
0.0
  0
LINE
  5
20A
330
57
100
AcDbEntity
  8
1
  6
Continuous
 62
     7
100
AcDbLine
 10
251.980983917543
 20
254.8531614396126
 30
0.0
 11
251.980983917543
 21
235.6451215480629
 31
0.0
  0
LINE
  5
20B
330
57
100
AcDbEntity
  8
1
  6
Continuous
 62
     7
100
AcDbLine
 10
252.980983917543
 20
254.8531614396126
 30
0.0
 11
252.980983917543
 21
250.8534548813962
 31
0.0
  0
LINE
  5
20C
330
57
100
AcDbEntity
  8
1
  6
Continuous
 62
     7
100
AcDbLine
 10
252.980983917543
 20
235.6451215480629
 30
0.0
 11
255.480983917543
 21
234.3951215480629
 31
0.0
  0
LINE
  5
20D
330
57
100
AcDbEntity
  8
1
  6
Continuous
 62
     7
100
AcDbLine
 10
249.480983917543
 20
237.3951215480629
 30
0.0
 11
249.480983917543
 21
240.3951215480629
 31
0.0
  0
LINE
  5
20E
330
57
100
AcDbEntity
  8
1
  6
Continuous
 62
     7
100
AcDbLine
 10
255.480983917543
 20
240.3951215480629
 30
0.0
 11
252.980983917543
 21
239.1451215480629
 31
0.0
  0
LINE
  5
20F
330
57
100
AcDbEntity
  8
1
  6
Continuous
 62
     7
100
AcDbLine
 10
255.480983917543
 20
240.3951215480629
 30
0.0
 11
255.480983917543
 21
243.3951215480629
 31
0.0
  0
LINE
  5
210
330
57
100
AcDbEntity
  8
1
  6
Continuous
 62
     7
100
AcDbLine
 10
252.980983917543
 20
241.6451215480629
 30
0.0
 11
255.480983917543
 21
240.3951215480629
 31
0.0
  0
LINE
  5
211
330
57
100
AcDbEntity
  8
1
  6
Continuous
 62
     7
100
AcDbLine
 10
249.480983917543
 20
243.3951215480629
 30
0.0
 11
249.480983917543
 21
246.3951215480629
 31
0.0
  0
LINE
  5
212
330
57
100
AcDbEntity
  8
1
  6
Continuous
 62
     7
100
AcDbLine
 10
255.480983917543
 20
246.3951215480629
 30
0.0
 11
252.980983917543
 21
245.1451215480629
 31
0.0
  0
LINE
  5
213
330
57
100
AcDbEntity
  8
1
  6
Continuous
 62
     7
100
AcDbLine
 10
255.480983917543
 20
246.3951215480629
 30
0.0
 11
255.480983917543
 21
249.3951215480629
 31
0.0
  0
LINE
  5
214
330
57
100
AcDbEntity
  8
1
  6
Continuous
 62
     7
100
AcDbLine
 10
252.980983917543
 20
247.6451215480629
 30
0.0
 11
255.480983917543
 21
246.3951215480629
 31
0.0
  0
LINE
  5
215
330
57
100
AcDbEntity
  8
1
  6
Continuous
 62
     7
100
AcDbLine
 10
249.480983917543
 20
249.3951215480629
 30
0.0
 11
249.480983917543
 21
251.8951215480629
 31
0.0
  0
LINE
  5
216
330
57
100
AcDbEntity
  8
1
  6
Continuous
 62
     7
100
AcDbLine
 10
255.480983917543
 20
249.3951215480629
 30
0.0
 11
252.980983917543
 21
250.4367882147294
 31
0.0
  0
LINE
  5
217
330
57
100
AcDbEntity
  8
1
  6
Continuous
 62
     7
100
AcDbLine
 10
255.480983917543
 20
249.3951215480629
 30
0.0
 11
255.480983917543
 21
251.8951215480629
 31
0.0
  0
LINE
  5
218
330
57
100
AcDbEntity
  8
1
  6
Continuous
 62
     7
100
AcDbLine
 10
252.980983917543
 20
248.1451215480629
 30
0.0
 11
255.480983917543
 21
249.3951215480629
 31
0.0
  0
LINE
  5
219
330
57
100
AcDbEntity
  8
1
  6
Continuous
 62
     7
100
AcDbLine
 10
249.480983917543
 20
246.3951215480629
 30
0.0
 11
249.480983917543
 21
249.3951215480629
 31
0.0
  0
LINE
  5
21A
330
57
100
AcDbEntity
  8
1
  6
Continuous
 62
     7
100
AcDbLine
 10
255.480983917543
 20
243.3951215480629
 30
0.0
 11
252.980983917543
 21
244.6451215480629
 31
0.0
  0
LINE
  5
21B
330
57
100
AcDbEntity
  8
1
  6
Continuous
 62
     7
100
AcDbLine
 10
255.480983917543
 20
243.3951215480629
 30
0.0
 11
255.480983917543
 21
246.3951215480629
 31
0.0
  0
LINE
  5
21C
330
57
100
AcDbEntity
  8
1
  6
Continuous
 62
     7
100
AcDbLine
 10
252.980983917543
 20
242.1451215480629
 30
0.0
 11
255.480983917543
 21
243.3951215480629
 31
0.0
  0
LINE
  5
21D
330
57
100
AcDbEntity
  8
1
  6
Continuous
 62
     7
100
AcDbLine
 10
249.480983917543
 20
240.3951215480629
 30
0.0
 11
249.480983917543
 21
243.3951215480629
 31
0.0
  0
LINE
  5
21E
330
57
100
AcDbEntity
  8
1
  6
Continuous
 62
     7
100
AcDbLine
 10
255.480983917543
 20
237.3951215480629
 30
0.0
 11
252.980983917543
 21
238.6451215480629
 31
0.0
  0
LINE
  5
21F
330
57
100
AcDbEntity
  8
1
  6
Continuous
 62
     7
100
AcDbLine
 10
255.480983917543
 20
237.3951215480629
 30
0.0
 11
255.480983917543
 21
240.3951215480629
 31
0.0
  0
LINE
  5
220
330
57
100
AcDbEntity
  8
1
  6
Continuous
 62
     7
100
AcDbLine
 10
252.980983917543
 20
236.1451215480629
 30
0.0
 11
255.480983917543
 21
237.3951215480629
 31
0.0
  0
LINE
  5
221
330
57
100
AcDbEntity
  8
1
  6
Continuous
 62
     7
100
AcDbLine
 10
255.480983917543
 20
234.3951215480629
 30
0.0
 11
249.480983917543
 21
234.3951215480629
 31
0.0
  0
LINE
  5
222
330
57
100
AcDbEntity
  8
1
  6
Continuous
 62
     7
100
AcDbLine
 10
252.480983917543
 20
229.8951215480629
 30
0.0
 11
251.480983917543
 21
229.8951215480629
 31
0.0
  0
LINE
  5
223
330
57
100
AcDbEntity
  8
1
  6
Continuous
 62
     7
100
AcDbLine
 10
252.480983917543
 20
234.3951215480629
 30
0.0
 11
252.480983917543
 21
229.8951215480629
 31
0.0
  0
LINE
  5
224
330
57
100
AcDbEntity
  8
1
  6
Continuous
 62
     7
100
AcDbLine
 10
253.480983917543
 20
229.8951215480629
 30
0.0
 11
252.480983917543
 21
229.8951215480629
 31
0.0
  0
LINE
  5
225
330
57
100
AcDbEntity
  8
1
  6
Continuous
 62
     7
100
AcDbLine
 10
253.480983917543
 20
229.8951215480629
 30
0.0
 11
252.480983917543
 21
234.3951215480629
 31
0.0
  0
LINE
  5
226
330
57
100
AcDbEntity
  8
1
  6
Continuous
 62
     7
100
AcDbLine
 10
251.480983917543
 20
229.8951215480629
 30
0.0
 11
249.980983917543
 21
229.8951215480629
 31
0.0
  0
LINE
  5
227
330
57
100
AcDbEntity
  8
1
  6
Continuous
 62
     7
100
AcDbLine
 10
251.480983917543
 20
229.8951215480629
 30
0.0
 11
252.480983917543
 21
234.3951215480629
 31
0.0
  0
LINE
  5
228
330
57
100
AcDbEntity
  8
1
  6
Continuous
 62
     7
100
AcDbLine
 10
255.480983917543
 20
234.3951215480629
 30
0.0
 11
255.480983917543
 21
237.3951215480629
 31
0.0
  0
LINE
  5
229
330
57
100
AcDbEntity
  8
1
  6
Continuous
 62
     7
100
AcDbLine
 10
256.480983917543
 20
229.8951215480629
 30
0.0
 11
255.480983917543
 21
234.3951215480629
 31
0.0
  0
LINE
  5
22A
330
57
100
AcDbEntity
  8
1
  6
Continuous
 62
     7
100
AcDbLine
 10
256.480983917543
 20
229.8951215480629
 30
0.0
 11
254.980983917543
 21
229.8951215480629
 31
0.0
  0
LINE
  5
22B
330
57
100
AcDbEntity
  8
1
  6
Continuous
 62
     7
100
AcDbLine
 10
249.480983917543
 20
234.3951215480629
 30
0.0
 11
249.480983917543
 21
237.3951215480629
 31
0.0
  0
LINE
  5
22C
330
57
100
AcDbEntity
  8
1
  6
Continuous
 62
     7
100
AcDbLine
 10
248.480983917543
 20
229.8951215480629
 30
0.0
 11
249.480983917543
 21
234.3951215480629
 31
0.0
  0
LINE
  5
22D
330
57
100
AcDbEntity
  8
1
  6
Continuous
 62
     7
100
AcDbLine
 10
249.480983917543
 20
229.8951215480629
 30
0.0
 11
248.480983917543
 21
229.8951215480629
 31
0.0
  0
LINE
  5
22E
330
57
100
AcDbEntity
  8
1
  6
Continuous
 62
     7
100
AcDbLine
 10
249.980983917543
 20
229.8951215480629
 30
0.0
 11
249.480983917543
 21
234.3951215480629
 31
0.0
  0
LINE
  5
22F
330
57
100
AcDbEntity
  8
1
  6
Continuous
 62
     7
100
AcDbLine
 10
249.980983917543
 20
229.8951215480629
 30
0.0
 11
249.480983917543
 21
229.8951215480629
 31
0.0
  0
LINE
  5
230
330
57
100
AcDbEntity
  8
1
  6
Continuous
 62
     7
100
AcDbLine
 10
254.980983917543
 20
229.8951215480629
 30
0.0
 11
255.480983917543
 21
234.3951215480629
 31
0.0
  0
LINE
  5
231
330
57
100
AcDbEntity
  8
1
  6
Continuous
 62
     7
100
AcDbLine
 10
254.980983917543
 20
229.8951215480629
 30
0.0
 11
253.480983917543
 21
229.8951215480629
 31
0.0
  0
LINE
  5
232
330
57
100
AcDbEntity
  8
1
  6
Continuous
 62
     7
100
AcDbLine
 10
224.980983917543
 20
229.8951215480629
 30
0.0
 11
223.480983917543
 21
229.8951215480629
 31
0.0
  0
LINE
  5
233
330
57
100
AcDbEntity
  8
1
  6
Continuous
 62
     7
100
AcDbLine
 10
224.980983917543
 20
229.8951215480629
 30
0.0
 11
225.480983917543
 21
234.3951215480629
 31
0.0
  0
LINE
  5
234
330
57
100
AcDbEntity
  8
1
  6
Continuous
 62
     7
100
AcDbLine
 10
219.980983917543
 20
229.8951215480629
 30
0.0
 11
219.480983917543
 21
229.8951215480629
 31
0.0
  0
LINE
  5
235
330
57
100
AcDbEntity
  8
1
  6
Continuous
 62
     7
100
AcDbLine
 10
219.980983917543
 20
229.8951215480629
 30
0.0
 11
219.480983917543
 21
234.3951215480629
 31
0.0
  0
LINE
  5
236
330
57
100
AcDbEntity
  8
1
  6
Continuous
 62
     7
100
AcDbLine
 10
219.480983917543
 20
229.8951215480629
 30
0.0
 11
218.480983917543
 21
229.8951215480629
 31
0.0
  0
LINE
  5
237
330
57
100
AcDbEntity
  8
1
  6
Continuous
 62
     7
100
AcDbLine
 10
218.480983917543
 20
229.8951215480629
 30
0.0
 11
219.480983917543
 21
234.3951215480629
 31
0.0
  0
LINE
  5
238
330
57
100
AcDbEntity
  8
1
  6
Continuous
 62
     7
100
AcDbLine
 10
219.480983917543
 20
234.3951215480629
 30
0.0
 11
219.480983917543
 21
237.3951215480629
 31
0.0
  0
LINE
  5
239
330
57
100
AcDbEntity
  8
1
  6
Continuous
 62
     7
100
AcDbLine
 10
226.480983917543
 20
229.8951215480629
 30
0.0
 11
224.980983917543
 21
229.8951215480629
 31
0.0
  0
LINE
  5
23A
330
57
100
AcDbEntity
  8
1
  6
Continuous
 62
     7
100
AcDbLine
 10
226.480983917543
 20
229.8951215480629
 30
0.0
 11
225.480983917543
 21
234.3951215480629
 31
0.0
  0
LINE
  5
23B
330
57
100
AcDbEntity
  8
1
  6
Continuous
 62
     7
100
AcDbLine
 10
225.480983917543
 20
234.3951215480629
 30
0.0
 11
225.480983917543
 21
237.3951215480629
 31
0.0
  0
LINE
  5
23C
330
57
100
AcDbEntity
  8
1
  6
Continuous
 62
     7
100
AcDbLine
 10
221.480983917543
 20
229.8951215480629
 30
0.0
 11
222.480983917543
 21
234.3951215480629
 31
0.0
  0
LINE
  5
23D
330
57
100
AcDbEntity
  8
1
  6
Continuous
 62
     7
100
AcDbLine
 10
221.480983917543
 20
229.8951215480629
 30
0.0
 11
219.980983917543
 21
229.8951215480629
 31
0.0
  0
LINE
  5
23E
330
57
100
AcDbEntity
  8
1
  6
Continuous
 62
     7
100
AcDbLine
 10
223.480983917543
 20
229.8951215480629
 30
0.0
 11
222.480983917543
 21
234.3951215480629
 31
0.0
  0
LINE
  5
23F
330
57
100
AcDbEntity
  8
1
  6
Continuous
 62
     7
100
AcDbLine
 10
223.480983917543
 20
229.8951215480629
 30
0.0
 11
222.480983917543
 21
229.8951215480629
 31
0.0
  0
LINE
  5
240
330
57
100
AcDbEntity
  8
1
  6
Continuous
 62
     7
100
AcDbLine
 10
222.480983917543
 20
234.3951215480629
 30
0.0
 11
222.480983917543
 21
229.8951215480629
 31
0.0
  0
LINE
  5
241
330
57
100
AcDbEntity
  8
1
  6
Continuous
 62
     7
100
AcDbLine
 10
222.480983917543
 20
229.8951215480629
 30
0.0
 11
221.480983917543
 21
229.8951215480629
 31
0.0
  0
LINE
  5
242
330
57
100
AcDbEntity
  8
1
  6
Continuous
 62
     7
100
AcDbLine
 10
225.480983917543
 20
234.3951215480629
 30
0.0
 11
219.480983917543
 21
234.3951215480629
 31
0.0
  0
LINE
  5
243
330
57
100
AcDbEntity
  8
1
  6
Continuous
 62
     7
100
AcDbLine
 10
222.980983917543
 20
236.1451215480629
 30
0.0
 11
225.480983917543
 21
237.3951215480629
 31
0.0
  0
LINE
  5
244
330
57
100
AcDbEntity
  8
1
  6
Continuous
 62
     7
100
AcDbLine
 10
225.480983917543
 20
237.3951215480629
 30
0.0
 11
225.480983917543
 21
240.3951215480629
 31
0.0
  0
LINE
  5
245
330
57
100
AcDbEntity
  8
1
  6
Continuous
 62
     7
100
AcDbLine
 10
225.480983917543
 20
237.3951215480629
 30
0.0
 11
222.980983917543
 21
238.6451215480629
 31
0.0
  0
LINE
  5
246
330
57
100
AcDbEntity
  8
1
  6
Continuous
 62
     7
100
AcDbLine
 10
219.480983917543
 20
240.3951215480629
 30
0.0
 11
219.480983917543
 21
243.3951215480629
 31
0.0
  0
LINE
  5
247
330
57
100
AcDbEntity
  8
1
  6
Continuous
 62
     7
100
AcDbLine
 10
222.980983917543
 20
242.1451215480629
 30
0.0
 11
225.480983917543
 21
243.3951215480629
 31
0.0
  0
LINE
  5
248
330
57
100
AcDbEntity
  8
1
  6
Continuous
 62
     7
100
AcDbLine
 10
225.480983917543
 20
243.3951215480629
 30
0.0
 11
225.480983917543
 21
246.3951215480629
 31
0.0
  0
LINE
  5
249
330
57
100
AcDbEntity
  8
1
  6
Continuous
 62
     7
100
AcDbLine
 10
225.480983917543
 20
243.3951215480629
 30
0.0
 11
222.980983917543
 21
244.6451215480629
 31
0.0
  0
LINE
  5
24A
330
57
100
AcDbEntity
  8
1
  6
Continuous
 62
     7
100
AcDbLine
 10
219.480983917543
 20
246.3951215480629
 30
0.0
 11
219.480983917543
 21
249.3951215480629
 31
0.0
  0
LINE
  5
24B
330
57
100
AcDbEntity
  8
1
  6
Continuous
 62
     7
100
AcDbLine
 10
222.980983917543
 20
248.1451215480629
 30
0.0
 11
225.480983917543
 21
249.3951215480629
 31
0.0
  0
LINE
  5
24C
330
57
100
AcDbEntity
  8
1
  6
Continuous
 62
     7
100
AcDbLine
 10
225.480983917543
 20
249.3951215480629
 30
0.0
 11
225.480983917543
 21
251.8951215480629
 31
0.0
  0
LINE
  5
24D
330
57
100
AcDbEntity
  8
1
  6
Continuous
 62
     7
100
AcDbLine
 10
225.480983917543
 20
249.3951215480629
 30
0.0
 11
222.980983917543
 21
250.4367882147294
 31
0.0
  0
LINE
  5
24E
330
57
100
AcDbEntity
  8
1
  6
Continuous
 62
     7
100
AcDbLine
 10
219.480983917543
 20
249.3951215480629
 30
0.0
 11
219.480983917543
 21
251.8951215480629
 31
0.0
  0
LINE
  5
24F
330
57
100
AcDbEntity
  8
1
  6
Continuous
 62
     7
100
AcDbLine
 10
222.980983917543
 20
247.6451215480629
 30
0.0
 11
225.480983917543
 21
246.3951215480629
 31
0.0
  0
LINE
  5
250
330
57
100
AcDbEntity
  8
1
  6
Continuous
 62
     7
100
AcDbLine
 10
225.480983917543
 20
246.3951215480629
 30
0.0
 11
225.480983917543
 21
249.3951215480629
 31
0.0
  0
LINE
  5
251
330
57
100
AcDbEntity
  8
1
  6
Continuous
 62
     7
100
AcDbLine
 10
225.480983917543
 20
246.3951215480629
 30
0.0
 11
222.980983917543
 21
245.1451215480629
 31
0.0
  0
LINE
  5
252
330
57
100
AcDbEntity
  8
1
  6
Continuous
 62
     7
100
AcDbLine
 10
219.480983917543
 20
243.3951215480629
 30
0.0
 11
219.480983917543
 21
246.3951215480629
 31
0.0
  0
LINE
  5
253
330
57
100
AcDbEntity
  8
1
  6
Continuous
 62
     7
100
AcDbLine
 10
222.980983917543
 20
241.6451215480629
 30
0.0
 11
225.480983917543
 21
240.3951215480629
 31
0.0
  0
LINE
  5
254
330
57
100
AcDbEntity
  8
1
  6
Continuous
 62
     7
100
AcDbLine
 10
225.480983917543
 20
240.3951215480629
 30
0.0
 11
225.480983917543
 21
243.3951215480629
 31
0.0
  0
LINE
  5
255
330
57
100
AcDbEntity
  8
1
  6
Continuous
 62
     7
100
AcDbLine
 10
225.480983917543
 20
240.3951215480629
 30
0.0
 11
222.980983917543
 21
239.1451215480629
 31
0.0
  0
LINE
  5
256
330
57
100
AcDbEntity
  8
1
  6
Continuous
 62
     7
100
AcDbLine
 10
219.480983917543
 20
237.3951215480629
 30
0.0
 11
219.480983917543
 21
240.3951215480629
 31
0.0
  0
LINE
  5
257
330
57
100
AcDbEntity
  8
1
  6
Continuous
 62
     7
100
AcDbLine
 10
222.980983917543
 20
235.6451215480629
 30
0.0
 11
225.480983917543
 21
234.3951215480629
 31
0.0
  0
LINE
  5
258
330
57
100
AcDbEntity
  8
1
  6
Continuous
 62
     7
100
AcDbLine
 10
222.980983917543
 20
254.8531614396126
 30
0.0
 11
222.980983917543
 21
250.8534548813962
 31
0.0
  0
LINE
  5
259
330
57
100
AcDbEntity
  8
1
  6
Continuous
 62
     7
100
AcDbLine
 10
221.980983917543
 20
254.8531614396126
 30
0.0
 11
221.980983917543
 21
235.6451215480629
 31
0.0
  0
LINE
  5
25A
330
57
100
AcDbEntity
  8
1
  6
Continuous
 62
     7
100
AcDbLine
 10
224.466830049775
 20
251.4725574364925
 30
0.0
 11
222.980983917543
 21
250.8534548813962
 31
0.0
  0
LINE
  5
25B
330
57
100
AcDbEntity
  8
1
  6
Continuous
 62
     7
100
AcDbLine
 10
222.980983917543
 20
250.8534548813962
 30
0.0
 11
222.980983917543
 21
250.4367882147294
 31
0.0
  0
LINE
  5
25C
330
57
100
AcDbEntity
  8
1
  6
Continuous
 62
     7
100
AcDbLine
 10
222.980983917543
 20
250.4367882147294
 30
0.0
 11
222.980983917543
 21
248.1451215480629
 31
0.0
  0
LINE
  5
25D
330
57
100
AcDbEntity
  8
1
  6
Continuous
 62
     7
100
AcDbLine
 10
222.980983917543
 20
248.1451215480629
 30
0.0
 11
222.980983917543
 21
247.6451215480629
 31
0.0
  0
LINE
  5
25E
330
57
100
AcDbEntity
  8
1
  6
Continuous
 62
     7
100
AcDbLine
 10
222.980983917543
 20
247.6451215480629
 30
0.0
 11
222.980983917543
 21
245.1451215480629
 31
0.0
  0
LINE
  5
25F
330
57
100
AcDbEntity
  8
1
  6
Continuous
 62
     7
100
AcDbLine
 10
222.980983917543
 20
245.1451215480629
 30
0.0
 11
222.980983917543
 21
244.6451215480629
 31
0.0
  0
LINE
  5
260
330
57
100
AcDbEntity
  8
1
  6
Continuous
 62
     7
100
AcDbLine
 10
222.980983917543
 20
244.6451215480629
 30
0.0
 11
222.980983917543
 21
242.1451215480629
 31
0.0
  0
LINE
  5
261
330
57
100
AcDbEntity
  8
1
  6
Continuous
 62
     7
100
AcDbLine
 10
222.980983917543
 20
242.1451215480629
 30
0.0
 11
222.980983917543
 21
241.6451215480629
 31
0.0
  0
LINE
  5
262
330
57
100
AcDbEntity
  8
1
  6
Continuous
 62
     7
100
AcDbLine
 10
222.980983917543
 20
241.6451215480629
 30
0.0
 11
222.980983917543
 21
239.1451215480629
 31
0.0
  0
LINE
  5
263
330
57
100
AcDbEntity
  8
1
  6
Continuous
 62
     7
100
AcDbLine
 10
222.980983917543
 20
239.1451215480629
 30
0.0
 11
222.980983917543
 21
238.6451215480629
 31
0.0
  0
LINE
  5
264
330
57
100
AcDbEntity
  8
1
  6
Continuous
 62
     7
100
AcDbLine
 10
222.980983917543
 20
238.6451215480629
 30
0.0
 11
222.980983917543
 21
236.1451215480629
 31
0.0
  0
LINE
  5
265
330
57
100
AcDbEntity
  8
1
  6
Continuous
 62
     7
100
AcDbLine
 10
222.980983917543
 20
236.1451215480629
 30
0.0
 11
222.980983917543
 21
235.6451215480629
 31
0.0
  0
LINE
  5
266
330
57
100
AcDbEntity
  8
1
  6
Continuous
 62
     7
100
AcDbLine
 10
221.980983917543
 20
250.4367882147294
 30
0.0
 11
219.480983917543
 21
249.3951215480629
 31
0.0
  0
LINE
  5
267
330
57
100
AcDbEntity
  8
1
  6
Continuous
 62
     7
100
AcDbLine
 10
219.480983917543
 20
249.3951215480629
 30
0.0
 11
221.980983917543
 21
248.1451215480629
 31
0.0
  0
LINE
  5
268
330
57
100
AcDbEntity
  8
1
  6
Continuous
 62
     7
100
AcDbLine
 10
219.480983917543
 20
246.3951215480629
 30
0.0
 11
221.980983917543
 21
247.6451215480629
 31
0.0
  0
LINE
  5
269
330
57
100
AcDbEntity
  8
1
  6
Continuous
 62
     7
100
AcDbLine
 10
221.980983917543
 20
245.1451215480629
 30
0.0
 11
219.480983917543
 21
246.3951215480629
 31
0.0
  0
LINE
  5
26A
330
57
100
AcDbEntity
  8
1
  6
Continuous
 62
     7
100
AcDbLine
 10
221.980983917543
 20
244.6451215480629
 30
0.0
 11
219.480983917543
 21
243.3951215480629
 31
0.0
  0
LINE
  5
26B
330
57
100
AcDbEntity
  8
1
  6
Continuous
 62
     7
100
AcDbLine
 10
219.480983917543
 20
243.3951215480629
 30
0.0
 11
221.980983917543
 21
242.1451215480629
 31
0.0
  0
LINE
  5
26C
330
57
100
AcDbEntity
  8
1
  6
Continuous
 62
     7
100
AcDbLine
 10
219.480983917543
 20
240.3951215480629
 30
0.0
 11
221.980983917543
 21
241.6451215480629
 31
0.0
  0
LINE
  5
26D
330
57
100
AcDbEntity
  8
1
  6
Continuous
 62
     7
100
AcDbLine
 10
221.980983917543
 20
238.6451215480629
 30
0.0
 11
219.480983917543
 21
237.3951215480629
 31
0.0
  0
LINE
  5
26E
330
57
100
AcDbEntity
  8
1
  6
Continuous
 62
     7
100
AcDbLine
 10
221.980983917543
 20
239.1451215480629
 30
0.0
 11
219.480983917543
 21
240.3951215480629
 31
0.0
  0
LINE
  5
26F
330
57
100
AcDbEntity
  8
1
  6
Continuous
 62
     7
100
AcDbLine
 10
219.480983917543
 20
237.3951215480629
 30
0.0
 11
221.980983917543
 21
236.1451215480629
 31
0.0
  0
LINE
  5
270
330
57
100
AcDbEntity
  8
1
  6
Continuous
 62
     7
100
AcDbLine
 10
219.480983917543
 20
234.3951215480629
 30
0.0
 11
221.980983917543
 21
235.6451215480629
 31
0.0
  0
LINE
  5
271
330
57
100
AcDbEntity
  8
1
  6
Continuous
 62
     7
100
AcDbLine
 10
222.980983917543
 20
235.6451215480629
 30
0.0
 11
221.980983917543
 21
235.6451215480629
 31
0.0
  0
ARC
  5
272
330
57
100
AcDbEntity
  8
1
  6
Continuous
 62
     7
100
AcDbCircle
 10
252.480983917543
 20
251.8951215480629
 30
0.0
 40
3.0
100
AcDbArc
 50
0.0
 51
80.4059317731392
  0
ARC
  5
273
330
57
100
AcDbEntity
  8
1
  6
Continuous
 62
     7
100
AcDbCircle
 10
252.480983917543
 20
251.8951215480629
 30
0.0
 40
2.999999999999897
100
AcDbArc
 50
99.5940682268608
 51
180.0
  0
ARC
  5
274
330
57
100
AcDbEntity
  8
1
  6
Continuous
 62
     7
100
AcDbCircle
 10
222.480983917543
 20
251.8951215480629
 30
0.0
 40
2.999999999999897
100
AcDbArc
 50
99.5940682268608
 51
180.0
  0
ARC
  5
275
330
57
100
AcDbEntity
  8
1
  6
Continuous
 62
     7
100
AcDbCircle
 10
222.480983917543
 20
251.8951215480629
 30
0.0
 40
3.0
100
AcDbArc
 50
0.0
 51
80.4059317731392
  0
ENDBLK
  5
59
330
57
100
AcDbEntity
  8
0
100
AcDbBlockEnd
  0
BLOCK
  5
5B
330
5A
100
AcDbEntity
  8
0
100
AcDbBlockBegin
  2
72-108__1__7
 70
     0
 10
770.9364959198291
 20
250.9044696196406
 30
0.0
  3
72-108__1__7
  1

  0
LINE
  5
276
330
5A
100
AcDbEntity
  8
1
  6
Continuous
 62
     7
100
AcDbLine
 10
194.5309839175441
 20
229.8951215480629
 30
0.0
 11
194.5309839175441
 21
228.3500000000002
 31
0.0
  0
LINE
  5
277
330
5A
100
AcDbEntity
  8
1
  6
PHANTOM
 62
     4
100
AcDbLine
 10
192.480983917543
 20
226.6081616705149
 30
0.0
 11
192.480983917543
 21
225.7388400841387
 31
0.0
  0
LINE
  5
278
330
5A
100
AcDbEntity
  8
1
  6
Continuous
 62
     7
100
AcDbLine
 10
196.5809839175428
 20
226.0
 30
0.0
 11
192.480983917543
 21
226.0
 31
0.0
  0
LINE
  5
279
330
5A
100
AcDbEntity
  8
0
  6
Continuous
 62
     7
100
AcDbLine
 10
193.6443635603072
 20
255.9849673502432
 30
0.0
 11
192.480983917543
 21
258.0
 31
0.0
  0
LINE
  5
27A
330
5A
100
AcDbEntity
  8
1
  6
Continuous
 62
     7
100
AcDbLine
 10
194.5309839175441
 20
228.3500000000002
 30
0.0
 11
194.5309839175441
 21
228.3250000000001
 31
0.0
  0
LINE
  5
27B
330
5A
100
AcDbEntity
  8
1
  6
Continuous
 62
     7
100
AcDbLine
 10
194.5309839175441
 20
228.3500000000002
 30
0.0
 11
192.480983917543
 21
228.3500000000002
 31
0.0
  0
LINE
  5
27C
330
5A
100
AcDbEntity
  8
1
  6
Continuous
 62
     7
100
AcDbLine
 10
196.5809839175428
 20
226.3
 30
0.0
 11
194.5309839175441
 21
228.3500000000002
 31
0.0
  0
LINE
  5
27D
330
5A
100
AcDbEntity
  8
1
  6
Continuous
 62
     7
100
AcDbLine
 10
196.5809839175428
 20
226.0
 30
0.0
 11
196.5809839175428
 21
226.3
 31
0.0
  0
LINE
  5
27E
330
5A
100
AcDbEntity
  8
1
  6
Continuous
 62
     7
100
AcDbLine
 10
192.480983917543
 20
226.2999999999991
 30
0.0
 11
196.5809839175428
 21
226.3
 31
0.0
  0
LINE
  5
27F
330
5A
100
AcDbEntity
  8
1
  6
Continuous
 62
     7
100
AcDbLine
 10
194.2123672137872
 20
255.731380985293
 30
0.0
 11
192.480983917543
 21
255.31
 31
0.0
  0
LINE
  5
280
330
5A
100
AcDbEntity
  8
1
  6
Continuous
 62
     7
100
AcDbLine
 10
193.6443635603072
 20
255.9849673502432
 30
0.0
 11
193.6676577411942
 21
254.6504446210006
 31
0.0
  0
LINE
  5
281
330
5A
100
AcDbEntity
  8
1
  6
Continuous
 62
     7
100
AcDbLine
 10
193.4090203400281
 20
257.4734475033572
 30
0.0
 11
192.480983917543
 21
257.2475836504816
 31
0.0
  0
LINE
  5
282
330
5A
100
AcDbEntity
  8
1
  6
Continuous
 62
     7
100
AcDbLine
 10
188.3809839175439
 20
226.3
 30
0.0
 11
192.480983917543
 21
226.2999999999991
 31
0.0
  0
LINE
  5
283
330
5A
100
AcDbEntity
  8
1
  6
Continuous
 62
     7
100
AcDbLine
 10
188.3809839175439
 20
226.3
 30
0.0
 11
188.3809839175439
 21
226.0
 31
0.0
  0
LINE
  5
284
330
5A
100
AcDbEntity
  8
1
  6
Continuous
 62
     7
100
AcDbLine
 10
190.4309839175426
 20
228.3500000000002
 30
0.0
 11
188.3809839175439
 21
226.3
 31
0.0
  0
LINE
  5
285
330
5A
100
AcDbEntity
  8
1
  6
Continuous
 62
     7
100
AcDbLine
 10
190.4309839175426
 20
228.3500000000002
 30
0.0
 11
190.4309839175429
 21
229.8951215480629
 31
0.0
  0
LINE
  5
286
330
5A
100
AcDbEntity
  8
1
  6
Continuous
 62
     7
100
AcDbLine
 10
192.480983917543
 20
228.3500000000002
 30
0.0
 11
190.4309839175426
 21
228.3500000000002
 31
0.0
  0
LINE
  5
287
330
5A
100
AcDbEntity
  8
1
  6
Continuous
 62
     7
100
AcDbLine
 10
190.4309839175429
 20
228.3250000000001
 30
0.0
 11
190.4309839175426
 21
228.3500000000002
 31
0.0
  0
LINE
  5
288
330
5A
100
AcDbEntity
  8
1
  6
Continuous
 62
     7
100
AcDbLine
 10
192.480983917543
 20
226.0
 30
0.0
 11
188.3809839175439
 21
226.0
 31
0.0
  0
LINE
  5
289
330
5A
100
AcDbEntity
  8
1
  6
PHANTOM
 62
     4
100
AcDbLine
 10
192.480983917543
 20
225.7388400841387
 30
0.0
 11
192.480983917543
 21
226.6081616705149
 31
0.0
  0
LINE
  5
28A
330
5A
100
AcDbEntity
  8
0
  6
Continuous
 62
     7
100
AcDbLine
 10
192.480983917543
 20
258.0
 30
0.0
 11
191.3176042747799
 21
255.9849673502432
 31
0.0
  0
LINE
  5
28B
330
5A
100
AcDbEntity
  8
1
  6
Continuous
 62
     7
100
AcDbLine
 10
192.480983917543
 20
257.2475836504816
 30
0.0
 11
191.6472513465029
 21
257.0759328270322
 31
0.0
  0
LINE
  5
28C
330
5A
100
AcDbEntity
  8
1
  6
Continuous
 62
     7
100
AcDbLine
 10
192.480983917543
 20
255.31
 30
0.0
 11
190.7496006213002
 21
254.9535387331262
 31
0.0
  0
LINE
  5
28D
330
5A
100
AcDbEntity
  8
1
  6
Continuous
 62
     7
100
AcDbLine
 10
191.2943100938932
 20
254.6504446210006
 30
0.0
 11
191.3176042747799
 21
255.9849673502432
 31
0.0
  0
ENDBLK
  5
5C
330
5A
100
AcDbEntity
  8
0
100
AcDbBlockEnd
  0
BLOCK
  5
5E
330
5D
100
AcDbEntity
  8
0
100
AcDbBlockBegin
  2
83-34__8
 70
     0
 10
752.3364958394453
 20
192.3264972046728
 30
0.0
  3
83-34__8
  1

  0
LINE
  5
28E
330
5D
100
AcDbEntity
  8
1
  6
Continuous
 62
     7
100
AcDbLine
 10
192.980983917543
 20
235.6451215480629
 30
0.0
 11
191.980983917543
 21
235.6451215480629
 31
0.0
  0
LINE
  5
28F
330
5D
100
AcDbEntity
  8
1
  6
Continuous
 62
     7
100
AcDbLine
 10
189.480983917543
 20
234.3951215480629
 30
0.0
 11
191.980983917543
 21
235.6451215480629
 31
0.0
  0
LINE
  5
290
330
5D
100
AcDbEntity
  8
1
  6
Continuous
 62
     7
100
AcDbLine
 10
189.480983917543
 20
237.3951215480629
 30
0.0
 11
191.980983917543
 21
236.1451215480629
 31
0.0
  0
LINE
  5
291
330
5D
100
AcDbEntity
  8
1
  6
Continuous
 62
     7
100
AcDbLine
 10
191.980983917543
 20
239.1451215480629
 30
0.0
 11
189.480983917543
 21
240.3951215480629
 31
0.0
  0
LINE
  5
292
330
5D
100
AcDbEntity
  8
1
  6
Continuous
 62
     7
100
AcDbLine
 10
191.980983917543
 20
238.6451215480629
 30
0.0
 11
189.480983917543
 21
237.3951215480629
 31
0.0
  0
LINE
  5
293
330
5D
100
AcDbEntity
  8
1
  6
Continuous
 62
     7
100
AcDbLine
 10
189.480983917543
 20
240.3951215480629
 30
0.0
 11
191.980983917543
 21
241.6451215480629
 31
0.0
  0
LINE
  5
294
330
5D
100
AcDbEntity
  8
1
  6
Continuous
 62
     7
100
AcDbLine
 10
189.480983917543
 20
243.3951215480629
 30
0.0
 11
191.980983917543
 21
242.1451215480629
 31
0.0
  0
LINE
  5
295
330
5D
100
AcDbEntity
  8
1
  6
Continuous
 62
     7
100
AcDbLine
 10
191.980983917543
 20
244.6451215480629
 30
0.0
 11
189.480983917543
 21
243.3951215480629
 31
0.0
  0
LINE
  5
296
330
5D
100
AcDbEntity
  8
1
  6
Continuous
 62
     7
100
AcDbLine
 10
191.980983917543
 20
245.1451215480629
 30
0.0
 11
189.480983917543
 21
246.3951215480629
 31
0.0
  0
LINE
  5
297
330
5D
100
AcDbEntity
  8
1
  6
Continuous
 62
     7
100
AcDbLine
 10
189.480983917543
 20
246.3951215480629
 30
0.0
 11
191.980983917543
 21
247.6451215480629
 31
0.0
  0
LINE
  5
298
330
5D
100
AcDbEntity
  8
1
  6
Continuous
 62
     7
100
AcDbLine
 10
189.480983917543
 20
249.3951215480629
 30
0.0
 11
191.980983917543
 21
248.1451215480629
 31
0.0
  0
LINE
  5
299
330
5D
100
AcDbEntity
  8
1
  6
Continuous
 62
     7
100
AcDbLine
 10
191.980983917543
 20
250.4367882147294
 30
0.0
 11
189.480983917543
 21
249.3951215480629
 31
0.0
  0
LINE
  5
29A
330
5D
100
AcDbEntity
  8
1
  6
Continuous
 62
     7
100
AcDbLine
 10
192.980983917543
 20
236.1451215480629
 30
0.0
 11
192.980983917543
 21
235.6451215480629
 31
0.0
  0
LINE
  5
29B
330
5D
100
AcDbEntity
  8
1
  6
Continuous
 62
     7
100
AcDbLine
 10
192.980983917543
 20
238.6451215480629
 30
0.0
 11
192.980983917543
 21
236.1451215480629
 31
0.0
  0
LINE
  5
29C
330
5D
100
AcDbEntity
  8
1
  6
Continuous
 62
     7
100
AcDbLine
 10
192.980983917543
 20
239.1451215480629
 30
0.0
 11
192.980983917543
 21
238.6451215480629
 31
0.0
  0
LINE
  5
29D
330
5D
100
AcDbEntity
  8
1
  6
Continuous
 62
     7
100
AcDbLine
 10
192.980983917543
 20
241.6451215480629
 30
0.0
 11
192.980983917543
 21
239.1451215480629
 31
0.0
  0
LINE
  5
29E
330
5D
100
AcDbEntity
  8
1
  6
Continuous
 62
     7
100
AcDbLine
 10
192.980983917543
 20
242.1451215480629
 30
0.0
 11
192.980983917543
 21
241.6451215480629
 31
0.0
  0
LINE
  5
29F
330
5D
100
AcDbEntity
  8
1
  6
Continuous
 62
     7
100
AcDbLine
 10
192.980983917543
 20
244.6451215480629
 30
0.0
 11
192.980983917543
 21
242.1451215480629
 31
0.0
  0
LINE
  5
2A0
330
5D
100
AcDbEntity
  8
1
  6
Continuous
 62
     7
100
AcDbLine
 10
192.980983917543
 20
245.1451215480629
 30
0.0
 11
192.980983917543
 21
244.6451215480629
 31
0.0
  0
LINE
  5
2A1
330
5D
100
AcDbEntity
  8
1
  6
Continuous
 62
     7
100
AcDbLine
 10
192.980983917543
 20
247.6451215480629
 30
0.0
 11
192.980983917543
 21
245.1451215480629
 31
0.0
  0
LINE
  5
2A2
330
5D
100
AcDbEntity
  8
1
  6
Continuous
 62
     7
100
AcDbLine
 10
192.980983917543
 20
248.1451215480629
 30
0.0
 11
192.980983917543
 21
247.6451215480629
 31
0.0
  0
LINE
  5
2A3
330
5D
100
AcDbEntity
  8
1
  6
Continuous
 62
     7
100
AcDbLine
 10
192.980983917543
 20
250.4367882147294
 30
0.0
 11
192.980983917543
 21
248.1451215480629
 31
0.0
  0
LINE
  5
2A4
330
5D
100
AcDbEntity
  8
1
  6
Continuous
 62
     7
100
AcDbLine
 10
192.980983917543
 20
250.8534548813962
 30
0.0
 11
192.980983917543
 21
250.4367882147294
 31
0.0
  0
LINE
  5
2A5
330
5D
100
AcDbEntity
  8
1
  6
Continuous
 62
     7
100
AcDbLine
 10
194.466830049775
 20
251.4725574364925
 30
0.0
 11
192.980983917543
 21
250.8534548813962
 31
0.0
  0
LINE
  5
2A6
330
5D
100
AcDbEntity
  8
1
  6
Continuous
 62
     7
100
AcDbLine
 10
191.980983917543
 20
254.8531614396126
 30
0.0
 11
191.980983917543
 21
235.6451215480629
 31
0.0
  0
LINE
  5
2A7
330
5D
100
AcDbEntity
  8
1
  6
Continuous
 62
     7
100
AcDbLine
 10
192.980983917543
 20
254.8531614396126
 30
0.0
 11
192.980983917543
 21
250.8534548813962
 31
0.0
  0
LINE
  5
2A8
330
5D
100
AcDbEntity
  8
1
  6
Continuous
 62
     7
100
AcDbLine
 10
192.980983917543
 20
235.6451215480629
 30
0.0
 11
195.480983917543
 21
234.3951215480629
 31
0.0
  0
LINE
  5
2A9
330
5D
100
AcDbEntity
  8
1
  6
Continuous
 62
     7
100
AcDbLine
 10
189.480983917543
 20
237.3951215480629
 30
0.0
 11
189.480983917543
 21
240.3951215480629
 31
0.0
  0
LINE
  5
2AA
330
5D
100
AcDbEntity
  8
1
  6
Continuous
 62
     7
100
AcDbLine
 10
195.480983917543
 20
240.3951215480629
 30
0.0
 11
192.980983917543
 21
239.1451215480629
 31
0.0
  0
LINE
  5
2AB
330
5D
100
AcDbEntity
  8
1
  6
Continuous
 62
     7
100
AcDbLine
 10
195.480983917543
 20
240.3951215480629
 30
0.0
 11
195.480983917543
 21
243.3951215480629
 31
0.0
  0
LINE
  5
2AC
330
5D
100
AcDbEntity
  8
1
  6
Continuous
 62
     7
100
AcDbLine
 10
192.980983917543
 20
241.6451215480629
 30
0.0
 11
195.480983917543
 21
240.3951215480629
 31
0.0
  0
LINE
  5
2AD
330
5D
100
AcDbEntity
  8
1
  6
Continuous
 62
     7
100
AcDbLine
 10
189.480983917543
 20
243.3951215480629
 30
0.0
 11
189.480983917543
 21
246.3951215480629
 31
0.0
  0
LINE
  5
2AE
330
5D
100
AcDbEntity
  8
1
  6
Continuous
 62
     7
100
AcDbLine
 10
195.480983917543
 20
246.3951215480629
 30
0.0
 11
192.980983917543
 21
245.1451215480629
 31
0.0
  0
LINE
  5
2AF
330
5D
100
AcDbEntity
  8
1
  6
Continuous
 62
     7
100
AcDbLine
 10
195.480983917543
 20
246.3951215480629
 30
0.0
 11
195.480983917543
 21
249.3951215480629
 31
0.0
  0
LINE
  5
2B0
330
5D
100
AcDbEntity
  8
1
  6
Continuous
 62
     7
100
AcDbLine
 10
192.980983917543
 20
247.6451215480629
 30
0.0
 11
195.480983917543
 21
246.3951215480629
 31
0.0
  0
LINE
  5
2B1
330
5D
100
AcDbEntity
  8
1
  6
Continuous
 62
     7
100
AcDbLine
 10
189.480983917543
 20
249.3951215480629
 30
0.0
 11
189.480983917543
 21
251.8951215480629
 31
0.0
  0
LINE
  5
2B2
330
5D
100
AcDbEntity
  8
1
  6
Continuous
 62
     7
100
AcDbLine
 10
195.480983917543
 20
249.3951215480629
 30
0.0
 11
192.980983917543
 21
250.4367882147294
 31
0.0
  0
LINE
  5
2B3
330
5D
100
AcDbEntity
  8
1
  6
Continuous
 62
     7
100
AcDbLine
 10
195.480983917543
 20
249.3951215480629
 30
0.0
 11
195.480983917543
 21
251.8951215480629
 31
0.0
  0
LINE
  5
2B4
330
5D
100
AcDbEntity
  8
1
  6
Continuous
 62
     7
100
AcDbLine
 10
192.980983917543
 20
248.1451215480629
 30
0.0
 11
195.480983917543
 21
249.3951215480629
 31
0.0
  0
LINE
  5
2B5
330
5D
100
AcDbEntity
  8
1
  6
Continuous
 62
     7
100
AcDbLine
 10
189.480983917543
 20
246.3951215480629
 30
0.0
 11
189.480983917543
 21
249.3951215480629
 31
0.0
  0
LINE
  5
2B6
330
5D
100
AcDbEntity
  8
1
  6
Continuous
 62
     7
100
AcDbLine
 10
195.480983917543
 20
243.3951215480629
 30
0.0
 11
192.980983917543
 21
244.6451215480629
 31
0.0
  0
LINE
  5
2B7
330
5D
100
AcDbEntity
  8
1
  6
Continuous
 62
     7
100
AcDbLine
 10
195.480983917543
 20
243.3951215480629
 30
0.0
 11
195.480983917543
 21
246.3951215480629
 31
0.0
  0
LINE
  5
2B8
330
5D
100
AcDbEntity
  8
1
  6
Continuous
 62
     7
100
AcDbLine
 10
192.980983917543
 20
242.1451215480629
 30
0.0
 11
195.480983917543
 21
243.3951215480629
 31
0.0
  0
LINE
  5
2B9
330
5D
100
AcDbEntity
  8
1
  6
Continuous
 62
     7
100
AcDbLine
 10
189.480983917543
 20
240.3951215480629
 30
0.0
 11
189.480983917543
 21
243.3951215480629
 31
0.0
  0
LINE
  5
2BA
330
5D
100
AcDbEntity
  8
1
  6
Continuous
 62
     7
100
AcDbLine
 10
195.480983917543
 20
237.3951215480629
 30
0.0
 11
192.980983917543
 21
238.6451215480629
 31
0.0
  0
LINE
  5
2BB
330
5D
100
AcDbEntity
  8
1
  6
Continuous
 62
     7
100
AcDbLine
 10
195.480983917543
 20
237.3951215480629
 30
0.0
 11
195.480983917543
 21
240.3951215480629
 31
0.0
  0
LINE
  5
2BC
330
5D
100
AcDbEntity
  8
1
  6
Continuous
 62
     7
100
AcDbLine
 10
192.980983917543
 20
236.1451215480629
 30
0.0
 11
195.480983917543
 21
237.3951215480629
 31
0.0
  0
LINE
  5
2BD
330
5D
100
AcDbEntity
  8
1
  6
Continuous
 62
     7
100
AcDbLine
 10
195.480983917543
 20
234.3951215480629
 30
0.0
 11
189.480983917543
 21
234.3951215480629
 31
0.0
  0
LINE
  5
2BE
330
5D
100
AcDbEntity
  8
1
  6
Continuous
 62
     7
100
AcDbLine
 10
192.480983917543
 20
229.8951215480629
 30
0.0
 11
191.480983917543
 21
229.8951215480629
 31
0.0
  0
LINE
  5
2BF
330
5D
100
AcDbEntity
  8
1
  6
Continuous
 62
     7
100
AcDbLine
 10
192.480983917543
 20
234.3951215480629
 30
0.0
 11
192.480983917543
 21
229.8951215480629
 31
0.0
  0
LINE
  5
2C0
330
5D
100
AcDbEntity
  8
1
  6
Continuous
 62
     7
100
AcDbLine
 10
193.480983917543
 20
229.8951215480629
 30
0.0
 11
192.480983917543
 21
229.8951215480629
 31
0.0
  0
LINE
  5
2C1
330
5D
100
AcDbEntity
  8
1
  6
Continuous
 62
     7
100
AcDbLine
 10
193.480983917543
 20
229.8951215480629
 30
0.0
 11
192.480983917543
 21
234.3951215480629
 31
0.0
  0
LINE
  5
2C2
330
5D
100
AcDbEntity
  8
1
  6
Continuous
 62
     7
100
AcDbLine
 10
191.480983917543
 20
229.8951215480629
 30
0.0
 11
189.980983917543
 21
229.8951215480629
 31
0.0
  0
LINE
  5
2C3
330
5D
100
AcDbEntity
  8
1
  6
Continuous
 62
     7
100
AcDbLine
 10
191.480983917543
 20
229.8951215480629
 30
0.0
 11
192.480983917543
 21
234.3951215480629
 31
0.0
  0
LINE
  5
2C4
330
5D
100
AcDbEntity
  8
1
  6
Continuous
 62
     7
100
AcDbLine
 10
195.480983917543
 20
234.3951215480629
 30
0.0
 11
195.480983917543
 21
237.3951215480629
 31
0.0
  0
LINE
  5
2C5
330
5D
100
AcDbEntity
  8
1
  6
Continuous
 62
     7
100
AcDbLine
 10
196.480983917543
 20
229.8951215480629
 30
0.0
 11
195.480983917543
 21
234.3951215480629
 31
0.0
  0
LINE
  5
2C6
330
5D
100
AcDbEntity
  8
1
  6
Continuous
 62
     7
100
AcDbLine
 10
196.480983917543
 20
229.8951215480629
 30
0.0
 11
194.980983917543
 21
229.8951215480629
 31
0.0
  0
LINE
  5
2C7
330
5D
100
AcDbEntity
  8
1
  6
Continuous
 62
     7
100
AcDbLine
 10
189.480983917543
 20
234.3951215480629
 30
0.0
 11
189.480983917543
 21
237.3951215480629
 31
0.0
  0
LINE
  5
2C8
330
5D
100
AcDbEntity
  8
1
  6
Continuous
 62
     7
100
AcDbLine
 10
188.480983917543
 20
229.8951215480629
 30
0.0
 11
189.480983917543
 21
234.3951215480629
 31
0.0
  0
LINE
  5
2C9
330
5D
100
AcDbEntity
  8
1
  6
Continuous
 62
     7
100
AcDbLine
 10
189.480983917543
 20
229.8951215480629
 30
0.0
 11
188.480983917543
 21
229.8951215480629
 31
0.0
  0
LINE
  5
2CA
330
5D
100
AcDbEntity
  8
1
  6
Continuous
 62
     7
100
AcDbLine
 10
189.980983917543
 20
229.8951215480629
 30
0.0
 11
189.480983917543
 21
234.3951215480629
 31
0.0
  0
LINE
  5
2CB
330
5D
100
AcDbEntity
  8
1
  6
Continuous
 62
     7
100
AcDbLine
 10
189.980983917543
 20
229.8951215480629
 30
0.0
 11
189.480983917543
 21
229.8951215480629
 31
0.0
  0
LINE
  5
2CC
330
5D
100
AcDbEntity
  8
1
  6
Continuous
 62
     7
100
AcDbLine
 10
194.980983917543
 20
229.8951215480629
 30
0.0
 11
195.480983917543
 21
234.3951215480629
 31
0.0
  0
LINE
  5
2CD
330
5D
100
AcDbEntity
  8
1
  6
Continuous
 62
     7
100
AcDbLine
 10
194.980983917543
 20
229.8951215480629
 30
0.0
 11
193.480983917543
 21
229.8951215480629
 31
0.0
  0
ARC
  5
2CE
330
5D
100
AcDbEntity
  8
1
  6
Continuous
 62
     7
100
AcDbCircle
 10
192.480983917543
 20
251.8951215480629
 30
0.0
 40
3.0
100
AcDbArc
 50
0.0
 51
80.4059317731392
  0
ARC
  5
2CF
330
5D
100
AcDbEntity
  8
1
  6
Continuous
 62
     7
100
AcDbCircle
 10
192.480983917543
 20
251.8951215480629
 30
0.0
 40
2.999999999999897
100
AcDbArc
 50
99.5940682268608
 51
180.0
  0
ENDBLK
  5
5F
330
5D
100
AcDbEntity
  8
0
100
AcDbBlockEnd
  0
BLOCK
  5
61
330
60
100
AcDbEntity
  8
0
100
AcDbBlockBegin
  2
88-279
 70
     0
 10
68.87487419250189
 20
651.6343055068271
 30
0.0
  3
88-279
  1

  0
LINE
  5
2D0
330
60
100
AcDbEntity
  8
1
  6
Continuous
 62
     7
100
AcDbLine
 10
282.980983917543
 20
588.5495274089168
 30
0.0
 11
282.5309839175429
 21
588.5495274089167
 31
0.0
  0
LINE
  5
2D1
330
60
100
AcDbEntity
  8
1
  6
Continuous
 62
     7
100
AcDbLine
 10
275.0809839175428
 20
588.5495274089168
 30
0.0
 11
281.980983917543
 21
588.5495274089168
 31
0.0
  0
LINE
  5
2D2
330
60
100
AcDbEntity
  8
1
  6
Continuous
 62
     7
100
AcDbLine
 10
162.980983917543
 20
588.5495274089168
 30
0.0
 11
169.8809839175431
 21
588.5495274089168
 31
0.0
  0
LINE
  5
2D3
330
60
100
AcDbEntity
  8
1
  6
Continuous
 62
     7
100
AcDbLine
 10
411.4809839175441
 20
588.0495274089168
 30
0.0
 11
411.4809839175441
 21
557.6495274089249
 31
0.0
  0
LINE
  5
2D4
330
60
100
AcDbEntity
  8
0
  6
Continuous
 62
     7
100
AcDbLine
 10
162.430983917543
 20
588.5495274089168
 30
0.0
 11
161.980983917543
 21
588.5495274089168
 31
0.0
  0
LINE
  5
2D5
330
60
100
AcDbEntity
  8
1
  6
Continuous
 62
     7
100
AcDbLine
 10
161.980983917543
 20
579.7223224854347
 30
0.0
 11
161.980983917543
 21
453.3995274089176
 31
0.0
  0
LINE
  5
2D6
330
60
100
AcDbEntity
  8
1
  6
Continuous
 62
     7
100
AcDbLine
 10
282.980983917543
 20
587.3767323323988
 30
0.0
 11
282.980983917543
 21
588.5495274089168
 31
0.0
  0
LINE
  5
2D7
330
60
100
AcDbEntity
  8
1
  6
Continuous
 62
     7
100
AcDbLine
 10
227.480983917543
 20
449.2495274089179
 30
0.0
 11
227.480983917543
 21
449.6495274089167
 31
0.0
  0
LINE
  5
2D8
330
60
100
AcDbEntity
  8
1
  6
Continuous
 62
     7
100
AcDbLine
 10
217.480983917543
 20
449.2495274089179
 30
0.0
 11
227.480983917543
 21
449.2495274089179
 31
0.0
  0
LINE
  5
2D9
330
60
100
AcDbEntity
  8
1
  6
Continuous
 62
     7
100
AcDbLine
 10
217.480983917543
 20
449.6495274089167
 30
0.0
 11
217.480983917543
 21
449.2495274089179
 31
0.0
  0
LINE
  5
2DA
330
60
100
AcDbEntity
  8
1
  6
Continuous
 62
     7
100
AcDbLine
 10
282.980983917543
 20
453.3995274089176
 30
0.0
 11
282.980983917543
 21
579.7223224854347
 31
0.0
  0
LINE
  5
2DB
330
60
100
AcDbEntity
  8
1
  6
Continuous
 62
     7
100
AcDbLine
 10
222.480983917543
 20
447.1495274089176
 30
0.0
 11
276.730983917543
 21
447.1495274089176
 31
0.0
  0
LINE
  5
2DC
330
60
100
AcDbEntity
  8
1
  6
Continuous
 62
     7
100
AcDbLine
 10
222.480983917543
 20
449.6495274089167
 30
0.0
 11
271.6581906073927
 21
449.6495274089167
 31
0.0
  0
LINE
  5
2DD
330
60
100
AcDbEntity
  8
1
  6
Continuous
 62
     7
100
AcDbLine
 10
222.480983917543
 20
451.1478745171808
 30
0.0
 11
271.480983917543
 21
451.1478745171808
 31
0.0
  0
LINE
  5
2DE
330
60
100
AcDbEntity
  8
0
  6
Continuous
 62
     7
100
AcDbLine
 10
281.980983917543
 20
578.5495274089168
 30
0.0
 11
280.5809839175427
 21
578.5495274089168
 31
0.0
  0
LINE
  5
2DF
330
60
100
AcDbEntity
  8
1
  6
Continuous
 62
     7
100
AcDbLine
 10
222.480983917543
 20
538.5495274089176
 30
0.0
 11
242.480983917543
 21
538.5495274089176
 31
0.0
  0
LINE
  5
2E0
330
60
100
AcDbEntity
  8
1
  6
Continuous
 62
     7
100
AcDbLine
 10
242.480983917543
 20
550.5495274089176
 30
0.0
 11
242.480983917543
 21
538.5495274089176
 31
0.0
  0
LINE
  5
2E1
330
60
100
AcDbEntity
  8
1
  6
Continuous
 62
     7
100
AcDbLine
 10
202.480983917543
 20
558.5495274089168
 30
0.0
 11
242.480983917543
 21
561.0495274089168
 31
0.0
  0
LINE
  5
2E2
330
60
100
AcDbEntity
  8
1
  6
Continuous
 62
     7
100
AcDbLine
 10
242.480983917543
 20
561.0495274089168
 30
0.0
 11
242.480983917543
 21
556.0495274089168
 31
0.0
  0
LINE
  5
2E3
330
60
100
AcDbEntity
  8
1
  6
Continuous
 62
     7
100
AcDbLine
 10
242.480983917543
 20
556.0495274089168
 30
0.0
 11
202.480983917543
 21
558.5495274089168
 31
0.0
  0
LINE
  5
2E4
330
60
100
AcDbEntity
  8
0
  6
Continuous
 62
     7
100
AcDbLine
 10
281.980983917543
 20
588.5495274089168
 30
0.0
 11
281.980983917543
 21
578.5495274089168
 31
0.0
  0
LINE
  5
2E5
330
60
100
AcDbEntity
  8
0
  6
Continuous
 62
     7
100
AcDbLine
 10
280.5809839175427
 20
578.5495274089168
 30
0.0
 11
275.0809839175428
 21
578.5495274089168
 31
0.0
  0
LINE
  5
2E6
330
60
100
AcDbEntity
  8
0
  6
Continuous
 62
     7
100
AcDbLine
 10
275.0809839175428
 20
578.5495274089168
 30
0.0
 11
275.0809839175428
 21
588.5495274089168
 31
0.0
  0
LINE
  5
2E7
330
60
100
AcDbEntity
  8
1
  6
Continuous
 62
     7
100
AcDbLine
 10
222.480983917543
 20
578.5495274089168
 30
0.0
 11
275.230983917543
 21
578.5495274089168
 31
0.0
  0
LINE
  5
2E8
330
60
100
AcDbEntity
  8
1
  6
Continuous
 62
     7
100
AcDbLine
 10
279.480983917543
 20
459.1478745171808
 30
0.0
 11
279.480983917543
 21
578.5495274089168
 31
0.0
  0
LINE
  5
2E9
330
60
100
AcDbEntity
  8
1
  6
Continuous
 62
     7
100
AcDbLine
 10
280.980983917543
 20
578.5495274089168
 30
0.0
 11
280.980983917543
 21
459.1478745171808
 31
0.0
  0
LINE
  5
2EA
330
60
100
AcDbEntity
  8
1
  6
Continuous
 62
     7
100
AcDbLine
 10
222.480983917543
 20
550.5495274089176
 30
0.0
 11
242.480983917543
 21
550.5495274089176
 31
0.0
  0
LINE
  5
2EB
330
60
100
AcDbEntity
  8
0
  6
Continuous
 62
     7
100
AcDbLine
 10
192.4410105487132
 20
521.8495274089179
 30
0.0
 11
205.1685606325135
 21
521.8495274089179
 31
0.0
  0
LINE
  5
2EC
330
60
100
AcDbEntity
  8
0
  6
Continuous
 62
     7
100
AcDbLine
 10
192.4410105487131
 20
506.249527408918
 30
0.0
 11
205.1685606325135
 21
506.249527408918
 31
0.0
  0
LINE
  5
2ED
330
60
100
AcDbEntity
  8
0
  6
Continuous
 62
     7
100
AcDbLine
 10
164.3809839175435
 20
578.5495274089168
 30
0.0
 11
162.980983917543
 21
578.5495274089168
 31
0.0
  0
LINE
  5
2EE
330
60
100
AcDbEntity
  8
0
  6
Continuous
 62
     7
100
AcDbLine
 10
162.980983917543
 20
578.5495274089168
 30
0.0
 11
162.980983917543
 21
588.5495274089168
 31
0.0
  0
LINE
  5
2EF
330
60
100
AcDbEntity
  8
0
  6
Continuous
 62
     7
100
AcDbLine
 10
169.8809839175431
 20
578.5495274089168
 30
0.0
 11
164.3809839175435
 21
578.5495274089168
 31
0.0
  0
LINE
  5
2F0
330
60
100
AcDbEntity
  8
0
  6
Continuous
 62
     7
100
AcDbLine
 10
169.8809839175431
 20
588.5495274089168
 30
0.0
 11
169.8809839175431
 21
578.5495274089168
 31
0.0
  0
LINE
  5
2F1
330
60
100
AcDbEntity
  8
1
  6
Continuous
 62
     7
100
AcDbLine
 10
169.730983917543
 20
578.5495274089168
 30
0.0
 11
222.480983917543
 21
578.5495274089168
 31
0.0
  0
LINE
  5
2F2
330
60
100
AcDbEntity
  8
1
  6
Continuous
 62
     7
100
AcDbLine
 10
173.3037772276932
 20
449.6495274089167
 30
0.0
 11
222.480983917543
 21
449.6495274089167
 31
0.0
  0
LINE
  5
2F3
330
60
100
AcDbEntity
  8
1
  6
Continuous
 62
     7
100
AcDbLine
 10
173.480983917543
 20
451.1478745171808
 30
0.0
 11
222.480983917543
 21
451.1478745171808
 31
0.0
  0
LINE
  5
2F4
330
60
100
AcDbEntity
  8
1
  6
Continuous
 62
     7
100
AcDbLine
 10
168.230983917543
 20
447.1495274089176
 30
0.0
 11
222.480983917543
 21
447.1495274089176
 31
0.0
  0
LINE
  5
2F5
330
60
100
AcDbEntity
  8
1
  6
Continuous
 62
     7
100
AcDbLine
 10
165.480983917543
 20
578.5495274089168
 30
0.0
 11
165.480983917543
 21
459.1478745171808
 31
0.0
  0
LINE
  5
2F6
330
60
100
AcDbEntity
  8
1
  6
Continuous
 62
     7
100
AcDbLine
 10
161.980983917543
 20
588.5495274089168
 30
0.0
 11
161.980983917543
 21
587.3767323323988
 31
0.0
  0
LINE
  5
2F7
330
60
100
AcDbEntity
  8
1
  6
Continuous
 62
     7
100
AcDbLine
 10
163.980983917543
 20
459.1478745171808
 30
0.0
 11
163.980983917543
 21
578.5495274089168
 31
0.0
  0
LINE
  5
2F8
330
60
100
AcDbEntity
  8
1
  6
Continuous
 62
     7
100
AcDbLine
 10
202.480983917543
 20
538.5495274089176
 30
0.0
 11
222.480983917543
 21
538.5495274089176
 31
0.0
  0
LINE
  5
2F9
330
60
100
AcDbEntity
  8
1
  6
Continuous
 62
     7
100
AcDbLine
 10
202.480983917543
 20
538.5495274089176
 30
0.0
 11
202.480983917543
 21
550.5495274089176
 31
0.0
  0
LINE
  5
2FA
330
60
100
AcDbEntity
  8
1
  6
Continuous
 62
     7
100
AcDbLine
 10
202.480983917543
 20
550.5495274089176
 30
0.0
 11
222.480983917543
 21
550.5495274089176
 31
0.0
  0
LINE
  5
2FB
330
60
100
AcDbEntity
  8
0
  6
Continuous
 62
     7
100
AcDbLine
 10
387.780983917544
 20
590.0495274089176
 30
0.0
 11
399.9809839175441
 21
590.0495274089168
 31
0.0
  0
LINE
  5
2FC
330
60
100
AcDbEntity
  8
0
  6
Continuous
 62
     7
100
AcDbLine
 10
387.4809839175441
 20
589.7495274089166
 30
0.0
 11
387.4809839175441
 21
588.5495274089168
 31
0.0
  0
LINE
  5
2FD
330
60
100
AcDbEntity
  8
0
  6
Continuous
 62
     7
100
AcDbLine
 10
387.4809839175441
 20
588.5495274089168
 30
0.0
 11
378.9809839181646
 21
588.5495274089168
 31
0.0
  0
LINE
  5
2FE
330
60
100
AcDbEntity
  8
0
  6
Continuous
 62
     7
100
AcDbLine
 10
387.780983917544
 20
590.0495274089176
 30
0.0
 11
387.4809839175441
 21
589.7495274089166
 31
0.0
  0
LINE
  5
2FF
330
60
100
AcDbEntity
  8
1
  6
Continuous
 62
     7
100
AcDbLine
 10
411.4809839175441
 20
590.0495274089168
 30
0.0
 11
399.9809839175441
 21
590.0495274089168
 31
0.0
  0
LINE
  5
300
330
60
100
AcDbEntity
  8
1
  6
Continuous
 62
     7
100
AcDbLine
 10
411.4809839175441
 20
590.0495274089168
 30
0.0
 11
411.4809839175441
 21
588.5495274089168
 31
0.0
  0
LINE
  5
301
330
60
100
AcDbEntity
  8
1
  6
Continuous
 62
     7
100
AcDbLine
 10
411.4809839175439
 20
449.6495274089176
 30
0.0
 11
411.4809839175439
 21
447.1495274089176
 31
0.0
  0
LINE
  5
302
330
60
100
AcDbEntity
  8
1
  6
Continuous
 62
     7
100
AcDbLine
 10
411.4809839175439
 20
447.1495274089176
 30
0.0
 11
400.9809839175441
 21
447.1495274089176
 31
0.0
  0
LINE
  5
303
330
60
100
AcDbEntity
  8
1
  6
PHANTOM
 62
     4
100
AcDbLine
 10
222.480983917543
 20
592.0115004843815
 30
0.0
 11
222.480983917543
 21
444.1495274089176
 31
0.0
  0
LINE
  5
304
330
60
100
AcDbEntity
  8
1
  6
Continuous
 62
     7
100
AcDbLine
 10
411.4809839175441
 20
588.5495274089168
 30
0.0
 11
411.4809839175441
 21
588.0495274089168
 31
0.0
  0
LINE
  5
305
330
60
100
AcDbEntity
  8
1
  6
Continuous
 62
     7
100
AcDbLine
 10
387.4809839175441
 20
588.5495274089168
 30
0.0
 11
399.9809839175441
 21
588.5495274089168
 31
0.0
  0
LINE
  5
306
330
60
100
AcDbEntity
  8
1
  6
Continuous
 62
     7
100
AcDbLine
 10
377.4809839175439
 20
587.0495274089168
 30
0.0
 11
377.4809839175439
 21
580.0495274089168
 31
0.0
  0
LINE
  5
307
330
60
100
AcDbEntity
  8
1
  6
Continuous
 62
     7
100
AcDbLine
 10
411.4809839175441
 20
458.6495274089249
 30
0.0
 11
411.4809839175439
 21
449.6495274089176
 31
0.0
  0
LINE
  5
308
330
60
100
AcDbEntity
  8
1
  6
Continuous
 62
     7
100
AcDbLine
 10
411.4809839175441
 20
557.6495274089249
 30
0.0
 11
411.4809839175441
 21
458.6495274089249
 31
0.0
  0
LINE
  5
309
330
60
100
AcDbEntity
  8
1
  6
Continuous
 62
     7
100
AcDbLine
 10
399.9809839175441
 20
583.5167717138658
 30
0.0
 11
399.9809839175441
 21
588.5495274089168
 31
0.0
  0
ARC
  5
30A
330
60
100
AcDbEntity
  8
1
  6
Continuous
 62
     7
100
AcDbCircle
 10
281.480983917543
 20
588.5495274089168
 30
0.0
 40
1.5
100
AcDbArc
 50
0.0
 51
45.57299599919849
  0
ARC
  5
30B
330
60
100
AcDbEntity
  8
0
  6
Continuous
 62
     7
100
AcDbCircle
 10
222.980983917543
 20
514.0495274089176
 30
0.0
 40
19.1000000000007
100
AcDbArc
 50
180.0
 51
192.0886042266916
  0
ARC
  5
30C
330
60
100
AcDbEntity
  8
1
  6
Continuous
 62
     7
100
AcDbCircle
 10
276.730983917543
 20
453.3995274089176
 30
0.0
 40
6.25
100
AcDbArc
 50
270.0
 51
0.0
  0
ARC
  5
30D
330
60
100
AcDbEntity
  8
1
  6
Continuous
 62
     7
100
AcDbCircle
 10
271.480983917543
 20
459.1478745171808
 30
0.0
 40
9.499999999999828
100
AcDbArc
 50
271.0688194018549
 51
0.0
  0
ARC
  5
30E
330
60
100
AcDbEntity
  8
0
  6
Continuous
 62
     7
100
AcDbCircle
 10
222.480983917543
 20
514.0495274089176
 30
0.0
 40
17.60000000000079
100
AcDbArc
 50
180.0
 51
201.4439801599924
  0
ARC
  5
30F
330
60
100
AcDbEntity
  8
0
  6
Continuous
 62
     7
100
AcDbCircle
 10
222.480983917543
 20
514.0495274089176
 30
0.0
 40
31.8000000000001
100
AcDbArc
 50
180.0
 51
192.7548016379012
  0
ARC
  5
310
330
60
100
AcDbEntity
  8
0
  6
Continuous
 62
     7
100
AcDbCircle
 10
205.1685606325135
 20
507.249527408918
 30
0.0
 40
1.0
100
AcDbArc
 50
269.9999984647714
 51
21.44398323045122
  0
ARC
  5
311
330
60
100
AcDbEntity
  8
0
  6
Continuous
 62
     7
100
AcDbCircle
 10
205.1685606325135
 20
520.8495274089179
 30
0.0
 40
1.000000000000098
100
AcDbArc
 50
338.5560167695215
 51
90.0000015352286
  0
ARC
  5
312
330
60
100
AcDbEntity
  8
0
  6
Continuous
 62
     7
100
AcDbCircle
 10
192.4410105487132
 20
520.8495274089179
 30
0.0
 40
1.0
100
AcDbArc
 50
90.00000153523511
 51
167.2451983621384
  0
ARC
  5
313
330
60
100
AcDbEntity
  8
0
  6
Continuous
 62
     7
100
AcDbCircle
 10
192.4410105487131
 20
507.249527408918
 30
0.0
 40
1.000000000000199
100
AcDbArc
 50
192.7548016379568
 51
269.9999984647534
  0
ARC
  5
314
330
60
100
AcDbEntity
  8
1
  6
Continuous
 62
     7
100
AcDbCircle
 10
168.230983917543
 20
453.3995274089176
 30
0.0
 40
6.25
100
AcDbArc
 50
180.0
 51
270.0
  0
ARC
  5
315
330
60
100
AcDbEntity
  8
1
  6
Continuous
 62
     7
100
AcDbCircle
 10
173.480983917543
 20
459.1478745171808
 30
0.0
 40
9.5
100
AcDbArc
 50
180.0
 51
268.9311805981445
  0
ARC
  5
316
330
60
100
AcDbEntity
  8
0
  6
Continuous
 62
     7
100
AcDbCircle
 10
222.980983917543
 20
514.0495274089176
 30
0.0
 40
19.10000000000057
100
AcDbArc
 50
167.9113957733084
 51
180.0
  0
ARC
  5
317
330
60
100
AcDbEntity
  8
0
  6
Continuous
 62
     7
100
AcDbCircle
 10
222.480983917543
 20
514.0495274089176
 30
0.0
 40
31.79999999999991
100
AcDbArc
 50
167.2451983620982
 51
180.0
  0
ARC
  5
318
330
60
100
AcDbEntity
  8
0
  6
Continuous
 62
     7
100
AcDbCircle
 10
222.480983917543
 20
514.0495274089176
 30
0.0
 40
17.60000000000101
100
AcDbArc
 50
158.5560198400057
 51
180.0
  0
ARC
  5
319
330
60
100
AcDbEntity
  8
1
  6
Continuous
 62
     7
100
AcDbCircle
 10
271.480983917543
 20
459.1478745171808
 30
0.0
 40
8.0
100
AcDbArc
 50
270.0
 51
0.0
  0
ARC
  5
31A
330
60
100
AcDbEntity
  8
1
  6
Continuous
 62
     7
100
AcDbCircle
 10
163.480983917543
 20
588.5495274089168
 30
0.0
 40
1.500000000000289
100
AcDbArc
 50
134.4270040007955
 51
180.0
  0
ARC
  5
31B
330
60
100
AcDbEntity
  8
1
  6
Continuous
 62
     7
100
AcDbCircle
 10
173.480983917543
 20
459.1478745171808
 30
0.0
 40
8.0
100
AcDbArc
 50
180.0
 51
270.0
  0
ARC
  5
31C
330
60
100
AcDbEntity
  8
1
  6
Continuous
 62
     7
100
AcDbCircle
 10
378.9809839181646
 20
587.0495274082964
 30
0.0
 40
1.500000000620389
100
AcDbArc
 50
90.00000002371016
 51
179.9999999763029
  0
ARC
  5
31D
330
60
100
AcDbEntity
  8
1
  6
Continuous
 62
     7
100
AcDbCircle
 10
400.9809839175439
 20
448.6495274089176
 30
0.0
 40
1.499999999999866
100
AcDbArc
 50
221.8103148961007
 51
270.0000000000086
  0
CIRCLE
  5
31E
330
60
100
AcDbEntity
  8
1
  6
Continuous
 62
     7
100
AcDbCircle
 10
177.480983917543
 20
572.5495274089176
 30
0.0
 40
2.25
  0
CIRCLE
  5
31F
330
60
100
AcDbEntity
  8
1
  6
Continuous
 62
     7
100
AcDbCircle
 10
267.480983917543
 20
572.5495274089176
 30
0.0
 40
2.25
  0
CIRCLE
  5
320
330
60
100
AcDbEntity
  8
1
  6
Continuous
 62
     7
100
AcDbCircle
 10
267.480983917543
 20
572.5495274089176
 30
0.0
 40
4.5
  0
CIRCLE
  5
321
330
60
100
AcDbEntity
  8
1
  6
Continuous
 62
     7
100
AcDbCircle
 10
222.480983917543
 20
514.0495274089176
 30
0.0
 40
9.0
  0
CIRCLE
  5
322
330
60
100
AcDbEntity
  8
1
  6
Continuous
 62
     7
100
AcDbCircle
 10
177.480983917543
 20
572.5495274089176
 30
0.0
 40
4.5
  0
ARC
  5
324
330
60
100
AcDbEntity
  8
1
  6
Continuous
 62
     7
100
AcDbCircle
 10
378.9809839175439
 20
580.0495274089168
 30
0.0
 40
1.5
100
AcDbArc
 50
180.0
 51
270.000000000013
  0
MTEXT
  5
326
330
60
100
AcDbEntity
  8
1
 62
     7
100
AcDbMText
 10
247.3485705567023
 20
558.5495274089168
 30
0.0
 40
7.5
 41
0.0
 71
     5
 72
     1
  1
開
  7
CONVERTER_11
 73
     1
 44
0.45454545454545
  0
MTEXT
  5
327
330
60
100
AcDbEntity
  8
1
 62
     7
100
AcDbMText
 10
197.4524273634664
 20
558.5495274089168
 30
0.0
 40
7.5
 41
0.0
 71
     5
 72
     1
  1
閉
  7
CONVERTER_11
 73
     1
 44
0.45454545454545
  0
MTEXT
  5
329
330
60
100
AcDbEntity
  8
1
 62
     7
100
AcDbMText
 10
222.480983917543
 20
467.3080736547577
 30
0.0
 40
6.9
 41
0.0
 71
     5
 72
     1
  1
simplet
  7
CONVERTER_12
 73
     1
 44
0.60024009603842
  0
HATCH
  5
32A
330
60
100
AcDbEntity
  8
1
  6
Continuous
 62
     2
100
AcDbHatch
 10
0.0
 20
0.0
 30
0.0
210
0.0
220
0.0
230
1.0
  2
SOLID
 70
     1
 71
     0
 91
        1
 92
        1
 93
        3
 72
     1
 10
242.480983917543
 20
561.0495274089168
 11
242.480983917543
 21
556.0495274089168
 72
     1
 10
242.480983917543
 20
556.0495274089168
 11
202.480983917543
 21
558.5495274089168
 72
     1
 10
202.480983917543
 20
558.5495274089168
 11
242.480983917543
 21
561.0495274089168
 97
        0
 75
     0
 76
     1
 98
        1
 10
0.0
 20
0.0
  0
ENDBLK
  5
62
330
60
100
AcDbEntity
  8
0
100
AcDbBlockEnd
  0
BLOCK
  5
64
330
63
100
AcDbEntity
  8
0
100
AcDbBlockBegin
  2
84-187
 70
     0
 10
601.6969652604527
 20
522.0595952677127
 30
0.0
  3
84-187
  1

  0
LINE
  5
32B
330
63
100
AcDbEntity
  8
0
  6
DASH_CENTER
 62
     2
100
AcDbLine
 10
203.6809839175422
 20
514.0495274089176
 30
0.0
 11
204.6809839175422
 21
514.0495274089176
 31
0.0
  0
LINE
  5
32C
330
63
100
AcDbEntity
  8
0
  6
DASH_CENTER
 62
     2
100
AcDbLine
 10
204.6809839175422
 20
514.0495274089176
 30
0.0
 11
205.8796372660099
 21
514.0495274089176
 31
0.0
  0
LINE
  5
32D
330
63
100
AcDbEntity
  8
0
  6
DASH_CENTER
 62
     2
100
AcDbLine
 10
190.880983917543
 20
514.0495274089176
 30
0.0
 11
203.6809839175422
 21
514.0495274089176
 31
0.0
  0
LINE
  5
32E
330
63
100
AcDbEntity
  8
0
  6
Continuous
 62
     7
100
AcDbLine
 10
204.1114439124139
 20
510.0495274089176
 30
0.0
 11
205.1362440809231
 21
510.0495274089176
 31
0.0
  0
LINE
  5
32F
330
63
100
AcDbEntity
  8
0
  6
Continuous
 62
     7
100
AcDbLine
 10
204.1114439124139
 20
518.0495274089176
 30
0.0
 11
205.1362440809231
 21
518.0495274089176
 31
0.0
  0
LINE
  5
330
330
63
100
AcDbEntity
  8
0
  6
DASH_CENTER
 62
     2
100
AcDbLine
 10
190.002779150232
 20
514.0495274089176
 30
0.0
 11
190.880983917543
 21
514.0495274089176
 31
0.0
  0
LINE
  5
331
330
63
100
AcDbEntity
  8
0
  6
Continuous
 62
     7
100
AcDbLine
 10
192.4410105487131
 20
521.6495274089176
 30
0.0
 11
205.1785606325133
 21
521.6495274089176
 31
0.0
  0
LINE
  5
332
330
63
100
AcDbEntity
  8
0
  6
Continuous
 62
     7
100
AcDbLine
 10
192.4410105487131
 20
506.4495274089176
 30
0.0
 11
205.1785606325133
 21
506.4495274089176
 31
0.0
  0
ARC
  5
333
330
63
100
AcDbEntity
  8
0
  6
Continuous
 62
     7
100
AcDbCircle
 10
222.480983917543
 20
514.0495274089176
 30
0.0
 40
18.80000000000092
100
AcDbArc
 50
167.7155090045705
 51
180.0
  0
ARC
  5
334
330
63
100
AcDbEntity
  8
0
  6
Continuous
 62
     7
100
AcDbCircle
 10
222.4909839175429
 20
514.0495274089176
 30
0.0
 40
17.80000000000098
100
AcDbArc
 50
158.5560171353331
 51
167.0136391459366
  0
ARC
  5
335
330
63
100
AcDbEntity
  8
0
  6
Continuous
 62
     7
100
AcDbCircle
 10
205.1785606325133
 20
520.8495274089179
 30
0.0
 40
0.8000000000000811
100
AcDbArc
 50
338.5560171352926
 51
0.0
  0
ARC
  5
336
330
63
100
AcDbEntity
  8
0
  6
Continuous
 62
     7
100
AcDbCircle
 10
222.480983917543
 20
514.0495274089176
 30
0.0
 40
31.60000000000036
100
AcDbArc
 50
167.2451983620978
 51
180.0
  0
ARC
  5
337
330
63
100
AcDbEntity
  8
0
  6
Continuous
 62
     7
100
AcDbCircle
 10
222.480983917543
 20
514.0495274089176
 30
0.0
 40
18.80000000000081
100
AcDbArc
 50
180.0
 51
192.284490995429
  0
ARC
  5
338
330
63
100
AcDbEntity
  8
0
  6
Continuous
 62
     7
100
AcDbCircle
 10
222.4909839175429
 20
514.0495274089176
 30
0.0
 40
17.80000000000103
100
AcDbArc
 50
192.9863608540634
 51
201.4439828646664
  0
ARC
  5
339
330
63
100
AcDbEntity
  8
0
  6
Continuous
 62
     7
100
AcDbCircle
 10
205.1785606325133
 20
507.249527408918
 30
0.0
 40
0.8000000000004093
100
AcDbArc
 50
270.0
 51
21.44398286466895
  0
ARC
  5
33A
330
63
100
AcDbEntity
  8
0
  6
Continuous
 62
     7
100
AcDbCircle
 10
205.1785606325133
 20
520.8495274089179
 30
0.0
 40
0.7999999999998977
100
AcDbArc
 50
0.0
 51
90.0
  0
ARC
  5
33B
330
63
100
AcDbEntity
  8
0
  6
Continuous
 62
     7
100
AcDbCircle
 10
192.4410105487131
 20
507.249527408918
 30
0.0
 40
0.8000000000001385
100
AcDbArc
 50
192.7548016378896
 51
269.9999984647661
  0
ARC
  5
33C
330
63
100
AcDbEntity
  8
0
  6
Continuous
 62
     7
100
AcDbCircle
 10
192.4410105487131
 20
520.8495274089179
 30
0.0
 40
0.7999999999997275
100
AcDbArc
 50
90.0000015352339
 51
167.245198362116
  0
ARC
  5
33D
330
63
100
AcDbEntity
  8
0
  6
Continuous
 62
     7
100
AcDbCircle
 10
222.480983917543
 20
514.0495274089176
 30
0.0
 40
31.59999999999999
100
AcDbArc
 50
180.0
 51
192.7548016379035
  0
ENDBLK
  5
65
330
63
100
AcDbEntity
  8
0
100
AcDbBlockEnd
  0
BLOCK
  5
67
330
66
100
AcDbEntity
  8
0
100
AcDbBlockBegin
  2
V97D-H5__11
 70
     0
 10
220.8809841093009
 20
578.5495274089168
 30
0.0
  3
V97D-H5__11
  1

  0
LINE
  5
33E
330
66
100
AcDbEntity
  8
0
  6
Continuous
 62
     7
100
AcDbLine
 10
169.8809841093009
 20
588.5495274089168
 30
0.0
 11
170.8809841093009
 21
588.5495274089168
 31
0.0
  0
LINE
  5
33F
330
66
100
AcDbEntity
  8
0
  6
Continuous
 62
     7
100
AcDbLine
 10
169.8809841093009
 20
578.5495274089168
 30
0.0
 11
170.8809841093009
 21
578.5495274089168
 31
0.0
  0
LINE
  5
340
330
66
100
AcDbEntity
  8
0
  6
Continuous
 62
     7
100
AcDbLine
 10
170.8809841093009
 20
588.5495274089168
 30
0.0
 11
170.8809841093009
 21
578.5495274089168
 31
0.0
  0
ENDBLK
  5
68
330
66
100
AcDbEntity
  8
0
100
AcDbBlockEnd
  0
BLOCK
  5
6A
330
69
100
AcDbEntity
  8
0
100
AcDbBlockBegin
  2
V97D-H4__12
 70
     0
 10
210.9309841093008
 20
579.0495273430557
 30
0.0
  3
V97D-H4__12
  1

  0
LINE
  5
341
330
69
100
AcDbEntity
  8
0
  6
Continuous
 62
     7
100
AcDbLine
 10
178.0519841093009
 20
585.5495274089168
 30
0.0
 11
178.4309841093008
 21
585.1705274089169
 31
0.0
  0
LINE
  5
342
330
69
100
AcDbEntity
  8
0
  6
Continuous
 62
     7
100
AcDbLine
 10
178.0519841093009
 20
585.5495274089168
 30
0.0
 11
174.3809841093009
 21
585.5495274089168
 31
0.0
  0
LINE
  5
343
330
69
100
AcDbEntity
  8
0
  6
Continuous
 62
     2
100
AcDbLine
 10
178.4309841093008
 20
585.1705274089169
 30
0.0
 11
174.3809841093009
 21
585.1705274089169
 31
0.0
  0
LINE
  5
344
330
69
100
AcDbEntity
  8
0
  6
Continuous
 62
     7
100
AcDbLine
 10
178.0519841093009
 20
585.5495274089168
 30
0.0
 11
178.0519841093009
 21
581.5495274089168
 31
0.0
  0
LINE
  5
345
330
69
100
AcDbEntity
  8
0
  6
Continuous
 62
     7
100
AcDbLine
 10
178.4309841093008
 20
585.1705274089169
 30
0.0
 11
178.4309841093008
 21
581.9285274089168
 31
0.0
  0
LINE
  5
346
330
69
100
AcDbEntity
  8
0
  6
Continuous
 62
     2
100
AcDbLine
 10
174.3809841093009
 20
581.9285274089168
 30
0.0
 11
178.4309841093008
 21
581.9285274089168
 31
0.0
  0
LINE
  5
347
330
69
100
AcDbEntity
  8
0
  6
Continuous
 62
     7
100
AcDbLine
 10
178.4309841093008
 20
581.9285274089168
 30
0.0
 11
178.0519841093009
 21
581.5495274089168
 31
0.0
  0
LINE
  5
348
330
69
100
AcDbEntity
  8
0
  6
Continuous
 62
     7
100
AcDbLine
 10
174.3809841093009
 20
581.5495274089168
 30
0.0
 11
178.0519841093009
 21
581.5495274089168
 31
0.0
  0
LINE
  5
349
330
69
100
AcDbEntity
  8
0
  6
Continuous
 62
     7
100
AcDbLine
 10
266.5309837257851
 20
585.1705274089169
 30
0.0
 11
266.909983725785
 21
585.5495274089168
 31
0.0
  0
LINE
  5
34A
330
69
100
AcDbEntity
  8
0
  6
Continuous
 62
     7
100
AcDbLine
 10
270.580983725785
 20
585.5495274089168
 30
0.0
 11
266.909983725785
 21
585.5495274089168
 31
0.0
  0
LINE
  5
34B
330
69
100
AcDbEntity
  8
0
  6
Continuous
 62
     2
100
AcDbLine
 10
270.580983725785
 20
585.1705274089169
 30
0.0
 11
266.5309837257851
 21
585.1705274089169
 31
0.0
  0
LINE
  5
34C
330
69
100
AcDbEntity
  8
0
  6
Continuous
 62
     7
100
AcDbLine
 10
266.909983725785
 20
581.5495274089168
 30
0.0
 11
266.909983725785
 21
585.5495274089168
 31
0.0
  0
LINE
  5
34D
330
69
100
AcDbEntity
  8
0
  6
Continuous
 62
     7
100
AcDbLine
 10
266.5309837257851
 20
581.9285274089168
 30
0.0
 11
266.5309837257851
 21
585.1705274089169
 31
0.0
  0
LINE
  5
34E
330
69
100
AcDbEntity
  8
0
  6
Continuous
 62
     2
100
AcDbLine
 10
266.5309837257851
 20
581.9285274089168
 30
0.0
 11
270.580983725785
 21
581.9285274089168
 31
0.0
  0
LINE
  5
34F
330
69
100
AcDbEntity
  8
0
  6
Continuous
 62
     7
100
AcDbLine
 10
266.909983725785
 20
581.5495274089168
 30
0.0
 11
266.5309837257851
 21
581.9285274089168
 31
0.0
  0
LINE
  5
350
330
69
100
AcDbEntity
  8
0
  6
Continuous
 62
     7
100
AcDbLine
 10
266.909983725785
 20
581.5495274089168
 30
0.0
 11
270.580983725785
 21
581.5495274089168
 31
0.0
  0
ARC
  5
351
330
69
100
AcDbEntity
  8
0
  6
Continuous
 62
     7
100
AcDbCircle
 10
168.4309841093008
 20
583.5495274089168
 30
0.0
 40
7.500000000000029
100
AcDbArc
 50
143.130104795692
 51
216.8698952043081
  0
ARC
  5
352
330
69
100
AcDbEntity
  8
0
  6
Continuous
 62
     7
100
AcDbCircle
 10
276.5309837257851
 20
583.5495274089168
 30
0.0
 40
7.500000000000029
100
AcDbArc
 50
323.1301047956919
 51
36.86989520430804
  0
ENDBLK
  5
6B
330
69
100
AcDbEntity
  8
0
100
AcDbBlockEnd
  0
BLOCK
  5
6D
330
6C
100
AcDbEntity
  8
0
100
AcDbBlockBegin
  2
V97D-H4__13
 70
     0
 10
224.3809841093009
 20
579.5080755245896
 30
0.0
  3
V97D-H4__13
  1

  0
LINE
  5
353
330
6C
100
AcDbEntity
  8
0
  6
Continuous
 62
     7
100
AcDbLine
 10
170.8809841093009
 20
587.5909792932448
 30
0.0
 11
173.3809841093009
 21
587.5909792932448
 31
0.0
  0
LINE
  5
354
330
6C
100
AcDbEntity
  8
0
  6
Continuous
 62
     7
100
AcDbLine
 10
170.8809841093009
 20
585.5702533510809
 30
0.0
 11
173.3809841093009
 21
585.5702533510809
 31
0.0
  0
LINE
  5
355
330
6C
100
AcDbEntity
  8
0
  6
Continuous
 62
     7
100
AcDbLine
 10
170.8809841093009
 20
581.5288014667525
 30
0.0
 11
173.3809841093009
 21
581.5288014667525
 31
0.0
  0
LINE
  5
356
330
6C
100
AcDbEntity
  8
0
  6
Continuous
 62
     7
100
AcDbLine
 10
170.8809841093009
 20
579.5080755245896
 30
0.0
 11
173.3809841093009
 21
579.5080755245896
 31
0.0
  0
LINE
  5
357
330
6C
100
AcDbEntity
  8
0
  6
Continuous
 62
     7
100
AcDbLine
 10
170.8809841093009
 20
587.5909792932448
 30
0.0
 11
170.8809841093009
 21
579.5080755245896
 31
0.0
  0
LINE
  5
358
330
6C
100
AcDbEntity
  8
0
  6
Continuous
 62
     7
100
AcDbLine
 10
174.3809841093009
 20
586.0495274089168
 30
0.0
 11
174.3809841093009
 21
581.0495274089168
 31
0.0
  0
LINE
  5
359
330
6C
100
AcDbEntity
  8
0
  6
Continuous
 62
     7
100
AcDbLine
 10
173.3809841093009
 20
587.5909792932448
 30
0.0
 11
173.612400575769
 21
587.190154215613
 31
0.0
  0
LINE
  5
35A
330
6C
100
AcDbEntity
  8
0
  6
Continuous
 62
     7
100
AcDbLine
 10
173.612400575769
 20
587.190154215613
 30
0.0
 11
173.7298689580807
 21
586.9866930091666
 31
0.0
  0
LINE
  5
35B
330
6C
100
AcDbEntity
  8
0
  6
Continuous
 62
     7
100
AcDbLine
 10
173.7298689580807
 20
580.112361808667
 30
0.0
 11
173.3809841093009
 21
579.5080755245896
 31
0.0
  0
LINE
  5
35C
330
6C
100
AcDbEntity
  8
0
  6
Continuous
 62
     7
100
AcDbLine
 10
173.7298689580807
 20
586.9866930091666
 30
0.0
 11
173.7298689580807
 21
580.112361808667
 31
0.0
  0
ARC
  5
35D
330
6C
100
AcDbEntity
  8
0
  6
Continuous
 62
     7
100
AcDbCircle
 10
173.3809841093009
 20
586.0495274089168
 30
0.0
 40
1.0
100
AcDbArc
 50
0.0
 51
69.58087734935694
  0
ARC
  5
35E
330
6C
100
AcDbEntity
  8
0
  6
Continuous
 62
     7
100
AcDbCircle
 10
167.7034479401568
 20
583.5495274089168
 30
0.0
 40
6.026421017923928
100
AcDbArc
 50
340.4085422970816
 51
19.59145770291639
  0
ARC
  5
35F
330
6C
100
AcDbEntity
  8
0
  6
Continuous
 62
     7
100
AcDbCircle
 10
172.0938170422297
 20
586.5806163221639
 30
0.0
 40
1.636347271177019
100
AcDbArc
 50
321.8698263365223
 51
21.86982633623602
  0
ARC
  5
360
330
6C
100
AcDbEntity
  8
0
  6
Continuous
 62
     7
100
AcDbCircle
 10
172.0938170422297
 20
580.5184384956708
 30
0.0
 40
1.636347271177013
100
AcDbArc
 50
338.1301736637271
 51
38.13017366344013
  0
ARC
  5
361
330
6C
100
AcDbEntity
  8
0
  6
Continuous
 62
     7
100
AcDbCircle
 10
173.3809841093009
 20
581.0495274089168
 30
0.0
 40
0.9999999999998709
100
AcDbArc
 50
290.4191226506431
 51
0.0
  0
ENDBLK
  5
6E
330
6C
100
AcDbEntity
  8
0
100
AcDbBlockEnd
  0
BLOCK
  5
70
330
6F
100
AcDbEntity
  8
0
100
AcDbBlockBegin
  2
88-280
 70
     0
 10
224.0809837257853
 20
578.5495274089168
 30
0.0
  3
88-280
  1

  0
LINE
  5
362
330
6F
100
AcDbEntity
  8
0
  6
Continuous
 62
     7
100
AcDbLine
 10
274.0809839175428
 20
578.5495274089167
 30
0.0
 11
274.0809839175432
 21
588.5495274089167
 31
0.0
  0
LINE
  5
363
330
6F
100
AcDbEntity
  8
0
  6
Continuous
 62
     7
100
AcDbLine
 10
275.0809839175428
 20
588.5495274089167
 30
0.0
 11
274.0809839175432
 21
588.5495274089167
 31
0.0
  0
LINE
  5
364
330
6F
100
AcDbEntity
  8
0
  6
Continuous
 62
     7
100
AcDbLine
 10
275.0809839175428
 20
578.5495274089167
 30
0.0
 11
274.0809839175428
 21
578.5495274089167
 31
0.0
  0
ENDBLK
  5
71
330
6F
100
AcDbEntity
  8
0
100
AcDbBlockEnd
  0
BLOCK
  5
73
330
72
100
AcDbEntity
  8
0
100
AcDbBlockBegin
  2
72-113
 70
     0
 10
220.5809837257853
 20
579.5080755245896
 30
0.0
  3
72-113
  1

  0
LINE
  5
365
330
72
100
AcDbEntity
  8
0
  6
Continuous
 62
     7
100
AcDbLine
 10
271.2320990687638
 20
580.112361808667
 30
0.0
 11
271.2320990687638
 21
586.9866930091666
 31
0.0
  0
LINE
  5
366
330
72
100
AcDbEntity
  8
0
  6
Continuous
 62
     7
100
AcDbLine
 10
271.2320990687638
 20
586.9866930091666
 30
0.0
 11
271.5809839175432
 21
587.590979293244
 31
0.0
  0
LINE
  5
367
330
72
100
AcDbEntity
  8
0
  6
Continuous
 62
     7
100
AcDbLine
 10
271.349567451075
 20
579.9089006022206
 30
0.0
 11
271.2320990687638
 21
580.112361808667
 31
0.0
  0
LINE
  5
368
330
72
100
AcDbEntity
  8
0
  6
Continuous
 62
     7
100
AcDbLine
 10
271.5809839175432
 20
579.5080755245888
 30
0.0
 11
271.349567451075
 21
579.9089006022206
 31
0.0
  0
LINE
  5
369
330
72
100
AcDbEntity
  8
0
  6
Continuous
 62
     7
100
AcDbLine
 10
270.5809839175432
 20
581.0495274089168
 30
0.0
 11
270.5809839175432
 21
586.0495274089168
 31
0.0
  0
LINE
  5
36A
330
72
100
AcDbEntity
  8
0
  6
Continuous
 62
     7
100
AcDbLine
 10
274.0809839175432
 20
579.5080755245888
 30
0.0
 11
274.0809839175432
 21
587.590979293244
 31
0.0
  0
LINE
  5
36B
330
72
100
AcDbEntity
  8
0
  6
Continuous
 62
     7
100
AcDbLine
 10
274.0809839175432
 20
587.590979293244
 30
0.0
 11
271.5809839175432
 21
587.590979293244
 31
0.0
  0
LINE
  5
36C
330
72
100
AcDbEntity
  8
0
  6
Continuous
 62
     7
100
AcDbLine
 10
274.0809839175432
 20
585.5702533510811
 30
0.0
 11
271.5809839175432
 21
585.5702533510811
 31
0.0
  0
LINE
  5
36D
330
72
100
AcDbEntity
  8
0
  6
Continuous
 62
     7
100
AcDbLine
 10
274.0809839175432
 20
581.5288014667527
 30
0.0
 11
271.5809839175432
 21
581.5288014667527
 31
0.0
  0
LINE
  5
36E
330
72
100
AcDbEntity
  8
0
  6
Continuous
 62
     7
100
AcDbLine
 10
274.0809839175432
 20
579.5080755245888
 30
0.0
 11
271.5809839175432
 21
579.5080755245888
 31
0.0
  0
ARC
  5
36F
330
72
100
AcDbEntity
  8
0
  6
Continuous
 62
     7
100
AcDbCircle
 10
271.5809839175432
 20
586.0495274089168
 30
0.0
 40
0.9999999999997519
100
AcDbArc
 50
110.4191226506248
 51
180.0
  0
ARC
  5
370
330
72
100
AcDbEntity
  8
0
  6
Continuous
 62
     7
100
AcDbCircle
 10
272.8681509846143
 20
586.5806163221628
 30
0.0
 40
1.636347271175935
100
AcDbArc
 50
158.1301736637677
 51
218.1301736634426
  0
ARC
  5
371
330
72
100
AcDbEntity
  8
0
  6
Continuous
 62
     7
100
AcDbCircle
 10
272.8681509846143
 20
580.5184384956697
 30
0.0
 40
1.63634727117693
100
AcDbArc
 50
141.8698263365198
 51
201.869826336236
  0
ARC
  5
372
330
72
100
AcDbEntity
  8
0
  6
Continuous
 62
     7
100
AcDbCircle
 10
277.2585200866869
 20
583.5495274089168
 30
0.0
 40
6.0264210179235
100
AcDbArc
 50
160.4085422970801
 51
199.5914577029179
  0
ARC
  5
373
330
72
100
AcDbEntity
  8
0
  6
Continuous
 62
     7
100
AcDbCircle
 10
271.5809839175432
 20
581.0495274089168
 30
0.0
 40
1.0
100
AcDbArc
 50
180.0
 51
249.5808773493753
  0
ENDBLK
  5
74
330
72
100
AcDbEntity
  8
0
100
AcDbBlockEnd
  0
BLOCK
  5
76
330
75
100
AcDbEntity
  8
0
100
AcDbBlockBegin
  2
72-112
 70
     0
 10
234.0309837257851
 20
579.0495273430557
 30
0.0
  3
72-112
  1

  0
CIRCLE
  5
374
330
75
100
AcDbEntity
  8
1
  6
Continuous
 62
     7
100
AcDbCircle
 10
382.4809839175441
 20
583.5495274089168
 30
0.0
 40
4.499999744322906
  0
ENDBLK
  5
77
330
75
100
AcDbEntity
  8
0
100
AcDbBlockEnd
  0
BLOCK
  5
79
330
78
100
AcDbEntity
  8
0
100
AcDbBlockBegin
  2
74-33
 70
     0
 10
659.553426609769
 20
323.9564668373437
 30
0.0
  3
74-33
  1

  0
LINE
  5
375
330
78
100
AcDbEntity
  8
0
  6
PHANTOM
 62
     4
100
AcDbLine
 10
222.480983917543
 20
724.5495274089169
 30
0.0
 11
222.480983917543
 21
574.9237566710049
 31
0.0
  0
LINE
  5
376
330
78
100
AcDbEntity
  8
0
  6
Continuous
 62
     7
100
AcDbLine
 10
162.9309839175431
 20
713.5495274089169
 30
0.0
 11
162.930983917543
 21
578.5495274089168
 31
0.0
  0
LINE
  5
377
330
78
100
AcDbEntity
  8
0
  6
Continuous
 62
     7
100
AcDbLine
 10
282.0309839175432
 20
713.5495274089169
 30
0.0
 11
282.0309839175429
 21
578.5495274089168
 31
0.0
  0
LINE
  5
378
330
78
100
AcDbEntity
  8
0
  6
Continuous
 62
     7
100
AcDbLine
 10
282.5309839175429
 20
578.5495274089168
 30
0.0
 11
282.5309839175432
 21
713.5495274089169
 31
0.0
  0
LINE
  5
379
330
78
100
AcDbEntity
  8
0
  6
Continuous
 62
     7
100
AcDbLine
 10
162.430983917543
 20
578.5495274089168
 30
0.0
 11
162.4309839175431
 21
713.5495274089169
 31
0.0
  0
LINE
  5
37A
330
78
100
AcDbEntity
  8
0
  6
Continuous
 62
     7
100
AcDbLine
 10
377.4809839175439
 20
518.7681203737408
 30
0.0
 11
377.4809839175439
 21
449.1495274089114
 31
0.0
  0
LINE
  5
37B
330
78
100
AcDbEntity
  8
0
  6
Continuous
 62
     7
100
AcDbLine
 10
222.480983917543
 20
578.5495274089168
 30
0.0
 11
169.930983917543
 21
578.5495274089168
 31
0.0
  0
LINE
  5
37C
330
78
100
AcDbEntity
  8
0
  6
Continuous
 62
     7
100
AcDbLine
 10
169.930983917543
 20
589.5495274089168
 30
0.0
 11
162.930983917543
 21
589.5495274089168
 31
0.0
  0
LINE
  5
37D
330
78
100
AcDbEntity
  8
0
  6
Continuous
 62
     7
100
AcDbLine
 10
169.930983917543
 20
578.5495274089168
 30
0.0
 11
169.930983917543
 21
589.5495274089168
 31
0.0
  0
LINE
  5
37E
330
78
100
AcDbEntity
  8
0
  6
Continuous
 62
     7
100
AcDbLine
 10
162.930983917543
 20
578.5495274089168
 30
0.0
 11
162.430983917543
 21
578.5495274089168
 31
0.0
  0
LINE
  5
37F
330
78
100
AcDbEntity
  8
0
  6
Continuous
 62
     7
100
AcDbLine
 10
222.480983917543
 20
579.0495274089168
 30
0.0
 11
169.930983917543
 21
579.0495274089168
 31
0.0
  0
LINE
  5
380
330
78
100
AcDbEntity
  8
0
  6
Continuous
 62
     7
100
AcDbLine
 10
222.480983917543
 20
578.5495274089168
 30
0.0
 11
275.0309839175429
 21
578.5495274089168
 31
0.0
  0
LINE
  5
381
330
78
100
AcDbEntity
  8
0
  6
Continuous
 62
     7
100
AcDbLine
 10
275.0309839175429
 20
589.5495274089168
 30
0.0
 11
282.0309839175429
 21
589.5495274089168
 31
0.0
  0
LINE
  5
382
330
78
100
AcDbEntity
  8
0
  6
Continuous
 62
     7
100
AcDbLine
 10
275.0309839175429
 20
578.5495274089168
 30
0.0
 11
275.0309839175429
 21
589.5495274089168
 31
0.0
  0
LINE
  5
383
330
78
100
AcDbEntity
  8
0
  6
Continuous
 62
     7
100
AcDbLine
 10
282.0309839175429
 20
578.5495274089168
 30
0.0
 11
282.5309839175429
 21
578.5495274089168
 31
0.0
  0
LINE
  5
384
330
78
100
AcDbEntity
  8
0
  6
Continuous
 62
     7
100
AcDbLine
 10
222.480983917543
 20
579.0495274089168
 30
0.0
 11
275.0309839175429
 21
579.0495274089168
 31
0.0
  0
LINE
  5
385
330
78
100
AcDbEntity
  8
0
  6
Continuous
 62
     7
100
AcDbLine
 10
377.9809839175439
 20
577.5495274089168
 30
0.0
 11
378.9809839175439
 21
577.5495274089168
 31
0.0
  0
LINE
  5
386
330
78
100
AcDbEntity
  8
1
  6
Continuous
 62
     7
100
AcDbLine
 10
377.9809839175438
 20
578.9314934201675
 30
0.0
 11
377.9809839175439
 21
577.5495274089168
 31
0.0
  0
LINE
  5
387
330
78
100
AcDbEntity
  8
0
  6
Continuous
 62
     7
100
AcDbLine
 10
378.9809839175442
 20
580.7211006909504
 30
0.0
 11
378.9809839175439
 21
577.5495274089168
 31
0.0
  0
LINE
  5
388
330
78
100
AcDbEntity
  8
1
  6
Continuous
 62
     7
100
AcDbLine
 10
378.9809839175441
 20
586.3779541268831
 30
0.0
 11
378.9809839175441
 21
587.5495274089171
 31
0.0
  0
LINE
  5
389
330
78
100
AcDbEntity
  8
1
  6
Continuous
 62
     7
100
AcDbLine
 10
377.9809839175439
 20
577.5495274089168
 30
0.0
 11
377.4809839175439
 21
577.5495274089168
 31
0.0
  0
LINE
  5
38A
330
78
100
AcDbEntity
  8
0
  6
Continuous
 62
     7
100
AcDbLine
 10
377.4809839175439
 20
577.5495274089168
 30
0.0
 11
377.4809839175439
 21
518.7681203737408
 31
0.0
  0
LINE
  5
38B
330
78
100
AcDbEntity
  8
0
  6
Continuous
 62
     7
100
AcDbLine
 10
377.4809839175439
 20
580.0495274089168
 30
0.0
 11
377.4809839175439
 21
577.5495274089168
 31
0.0
  0
LINE
  5
38C
330
78
100
AcDbEntity
  8
1
  6
Continuous
 62
     7
100
AcDbLine
 10
379.9809839175441
 20
588.5495274089168
 30
0.0
 11
386.7164627644946
 21
588.5495274089168
 31
0.0
  0
LINE
  5
38D
330
78
100
AcDbEntity
  8
1
  6
Continuous
 62
     7
100
AcDbLine
 10
387.2364097113904
 20
588.4807589259582
 30
0.0
 11
398.5009308644396
 21
585.4480032309071
 31
0.0
  0
LINE
  5
38E
330
78
100
AcDbEntity
  8
0
  6
Continuous
 62
     7
100
AcDbLine
 10
378.9809839175438
 20
447.6495274089114
 30
0.0
 11
399.8629499287997
 21
447.6495274089114
 31
0.0
  0
LINE
  5
38F
330
78
100
AcDbEntity
  8
1
  6
Continuous
 62
     7
100
AcDbLine
 10
399.9809839175441
 20
576.5495274089168
 30
0.0
 11
399.9809839175441
 21
448.1495274089176
 31
0.0
  0
LINE
  5
390
330
78
100
AcDbEntity
  8
0
  6
Continuous
 62
     7
100
AcDbLine
 10
399.8629499287997
 20
447.6495274089114
 30
0.0
 11
399.9809839175441
 21
447.6495274089114
 31
0.0
  0
LINE
  5
391
330
78
100
AcDbEntity
  8
1
  6
Continuous
 62
     7
100
AcDbLine
 10
399.9809839175441
 20
447.6495274089114
 30
0.0
 11
399.9809839175441
 21
583.5167717138658
 31
0.0
  0
LINE
  5
392
330
78
100
AcDbEntity
  8
1
  6
Continuous
 62
     7
100
AcDbLine
 10
167.4309839175431
 20
718.5495274089169
 30
0.0
 11
277.5309839175432
 21
718.5495274089169
 31
0.0
  0
LINE
  5
393
330
78
100
AcDbEntity
  8
1
  6
Continuous
 62
     7
100
AcDbLine
 10
167.4309839175431
 20
718.0495274089169
 30
0.0
 11
277.5309839175432
 21
718.0495274089169
 31
0.0
  0
ARC
  5
394
330
78
100
AcDbEntity
  8
1
  6
Continuous
 62
     7
100
AcDbCircle
 10
379.9809839175441
 20
587.5495274089171
 30
0.0
 40
0.9999999999996589
100
AcDbArc
 50
90.0
 51
180.0
  0
ARC
  5
395
330
78
100
AcDbEntity
  8
0
  6
Continuous
 62
     7
100
AcDbCircle
 10
378.9809839175438
 20
449.1495274089114
 30
0.0
 40
1.500000000000002
100
AcDbArc
 50
180.0000030704398
 51
269.9999984647746
  0
ARC
  5
396
330
78
100
AcDbEntity
  8
1
  6
Continuous
 62
     7
100
AcDbCircle
 10
397.9809839175441
 20
583.5167717138658
 30
0.0
 40
2.0
100
AcDbArc
 50
0.0
 51
74.93151184051456
  0
ARC
  5
397
330
78
100
AcDbEntity
  8
1
  6
Continuous
 62
     7
100
AcDbCircle
 10
386.7164627644946
 20
586.5495274089168
 30
0.0
 40
2.00000000000007
100
AcDbArc
 50
74.9315118405067
 51
90.0
  0
ARC
  5
398
330
78
100
AcDbEntity
  8
1
  6
Continuous
 62
     7
100
AcDbCircle
 10
167.4309839175431
 20
713.5495274089169
 30
0.0
 40
5.0
100
AcDbArc
 50
90.0
 51
180.0
  0
ARC
  5
399
330
78
100
AcDbEntity
  8
1
  6
Continuous
 62
     7
100
AcDbCircle
 10
277.5309839175432
 20
713.5495274089169
 30
0.0
 40
5.0
100
AcDbArc
 50
0.0
 51
90.0
  0
ARC
  5
39A
330
78
100
AcDbEntity
  8
1
  6
Continuous
 62
     7
100
AcDbCircle
 10
277.5309839175432
 20
713.5495274089169
 30
0.0
 40
4.5
100
AcDbArc
 50
0.0
 51
90.0
  0
ARC
  5
39B
330
78
100
AcDbEntity
  8
1
  6
Continuous
 62
     7
100
AcDbCircle
 10
167.4309839175431
 20
713.5495274089169
 30
0.0
 40
4.5
100
AcDbArc
 50
90.0
 51
180.0
  0
ENDBLK
  5
7A
330
78
100
AcDbEntity
  8
0
100
AcDbBlockEnd
  0
BLOCK
  5
7C
330
7B
100
AcDbEntity
  8
0
100
AcDbBlockBegin
  2
89-206
 70
     0
 10
614.676498686326
 20
385.6889369625129
 30
0.0
  3
89-206
  1

  0
LINE
  5
39C
330
7B
100
AcDbEntity
  8
1
  6
Continuous
 62
     7
100
AcDbLine
 10
224.980983917543
 20
549.5495274089186
 30
0.0
 11
224.980983917543
 21
539.5495274089186
 31
0.0
  0
LINE
  5
39D
330
7B
100
AcDbEntity
  8
1
  6
Continuous
 62
     7
100
AcDbLine
 10
219.980983917543
 20
539.5495274089186
 30
0.0
 11
219.980983917543
 21
549.5495274089186
 31
0.0
  0
LINE
  5
39E
330
7B
100
AcDbEntity
  8
1
  6
Continuous
 62
     7
100
AcDbLine
 10
220.480983917543
 20
550.0495274089186
 30
0.0
 11
224.480983917543
 21
550.0495274089186
 31
0.0
  0
LINE
  5
39F
330
7B
100
AcDbEntity
  8
1
  6
Continuous
 62
     7
100
AcDbLine
 10
224.480983917543
 20
539.0495274089186
 30
0.0
 11
220.480983917543
 21
539.0495274089186
 31
0.0
  0
ARC
  5
3A0
330
7B
100
AcDbEntity
  8
1
  6
Continuous
 62
     7
100
AcDbCircle
 10
220.480983917543
 20
539.5495274089186
 30
0.0
 40
0.5
100
AcDbArc
 50
180.0
 51
270.0
  0
ARC
  5
3A1
330
7B
100
AcDbEntity
  8
1
  6
Continuous
 62
     7
100
AcDbCircle
 10
224.480983917543
 20
539.5495274089186
 30
0.0
 40
0.5
100
AcDbArc
 50
270.0
 51
0.0
  0
ARC
  5
3A2
330
7B
100
AcDbEntity
  8
1
  6
Continuous
 62
     7
100
AcDbCircle
 10
224.480983917543
 20
549.5495274089186
 30
0.0
 40
0.5
100
AcDbArc
 50
0.0
 51
90.0
  0
ARC
  5
3A3
330
7B
100
AcDbEntity
  8
1
  6
Continuous
 62
     7
100
AcDbCircle
 10
220.480983917543
 20
549.5495274089186
 30
0.0
 40
0.5
100
AcDbArc
 50
90.0
 51
180.0
  0
ENDBLK
  5
7D
330
7B
100
AcDbEntity
  8
0
100
AcDbBlockEnd
  0
BLOCK
  5
7F
330
7E
100
AcDbEntity
  8
0
100
AcDbBlockBegin
  2
33-138
 70
     0
 10
184.5451442923438
 20
488.0449116333208
 30
0.0
  3
33-138
  1

  0
CIRCLE
  5
3A4
330
7E
100
AcDbEntity
  8
1
  6
Continuous
 62
     7
100
AcDbCircle
 10
222.480983917543
 20
514.0495274089176
 30
0.0
 40
4.499999999997499
  0
CIRCLE
  5
3A5
330
7E
100
AcDbEntity
  8
1
  6
Continuous
 62
     7
100
AcDbCircle
 10
222.480983917543
 20
514.0495274089176
 30
0.0
 40
8.400000000000006
  0
CIRCLE
  5
3A6
330
7E
100
AcDbEntity
  8
1
  6
Continuous
 62
     7
100
AcDbCircle
 10
222.480983917543
 20
514.0495274089176
 30
0.0
 40
7.849999999999795
  0
ENDBLK
  5
80
330
7E
100
AcDbEntity
  8
0
100
AcDbBlockEnd
  0
BLOCK
  5
95
330
81
100
AcDbEntity
  8
0
100
AcDbBlockBegin
  2
V963AD-0AX
 70
     0
 10
-23.292875974687
 20
303.5495274089158
 30
0.0
  3
V963AD-0AX
  1

  0
INSERT
  5
82
330
81
100
AcDbEntity
  8
0
100
AcDbBlockReference
  2
72-108__1__1
 10
800.9364959198291
 20
310.9044696196406
 30
0.0
  0
INSERT
  5
83
330
81
100
AcDbEntity
  8
0
100
AcDbBlockReference
  2
83-34__2
 10
782.3364958394453
 20
252.3264972046728
 30
0.0
  0
INSERT
  5
84
330
81
100
AcDbEntity
  8
0
100
AcDbBlockReference
  2
72-108__1__3
 10
770.9364959198291
 20
310.9044696196406
 30
0.0
  0
INSERT
  5
85
330
81
100
AcDbEntity
  8
0
100
AcDbBlockReference
  2
83-34__4
 10
752.3364958394453
 20
252.3264972046728
 30
0.0
  0
INSERT
  5
86
330
81
100
AcDbEntity
  8
0
100
AcDbBlockReference
  2
72-108__1__5
 10
800.9364959198291
 20
250.9044696196406
 30
0.0
  0
INSERT
  5
87
330
81
100
AcDbEntity
  8
0
100
AcDbBlockReference
  2
83-34__6
 10
782.3364958394453
 20
192.3264972046728
 30
0.0
  0
INSERT
  5
88
330
81
100
AcDbEntity
  8
0
100
AcDbBlockReference
  2
72-108__1__7
 10
770.9364959198291
 20
250.9044696196406
 30
0.0
  0
INSERT
  5
89
330
81
100
AcDbEntity
  8
0
100
AcDbBlockReference
  2
83-34__8
 10
752.3364958394453
 20
192.3264972046728
 30
0.0
  0
INSERT
  5
8A
330
81
100
AcDbEntity
  8
0
100
AcDbBlockReference
  2
88-279
 10
68.87487419250189
 20
651.6343055068271
 30
0.0
  0
INSERT
  5
8B
330
81
100
AcDbEntity
  8
0
100
AcDbBlockReference
  2
84-187
 10
601.6969652604527
 20
522.0595952677127
 30
0.0
  0
INSERT
  5
8C
330
81
100
AcDbEntity
  8
0
100
AcDbBlockReference
  2
V97D-H5__11
 10
220.8809841093009
 20
578.5495274089168
 30
0.0
  0
INSERT
  5
8D
330
81
100
AcDbEntity
  8
0
100
AcDbBlockReference
  2
V97D-H4__12
 10
210.9309841093008
 20
579.0495273430557
 30
0.0
  0
INSERT
  5
8E
330
81
100
AcDbEntity
  8
0
100
AcDbBlockReference
  2
V97D-H4__13
 10
224.3809841093009
 20
579.5080755245896
 30
0.0
  0
INSERT
  5
8F
330
81
100
AcDbEntity
  8
0
100
AcDbBlockReference
  2
88-280
 10
224.0809837257853
 20
578.5495274089168
 30
0.0
  0
INSERT
  5
90
330
81
100
AcDbEntity
  8
0
100
AcDbBlockReference
  2
72-113
 10
220.5809837257853
 20
579.5080755245896
 30
0.0
  0
INSERT
  5
91
330
81
100
AcDbEntity
  8
0
100
AcDbBlockReference
  2
72-112
 10
234.0309837257851
 20
579.0495273430557
 30
0.0
  0
INSERT
  5
92
330
81
100
AcDbEntity
  8
0
100
AcDbBlockReference
  2
74-33
 10
659.553426609769
 20
323.9564668373437
 30
0.0
  0
INSERT
  5
93
330
81
100
AcDbEntity
  8
0
100
AcDbBlockReference
  2
89-206
 10
614.676498686326
 20
385.6889369625129
 30
0.0
  0
INSERT
  5
94
330
81
100
AcDbEntity
  8
0
100
AcDbBlockReference
  2
33-138
 10
184.5451442923438
 20
488.0449116333208
 30
0.0
  0
POINT
  5
3A7
330
81
100
AcDbEntity
  8
0
 62
     4
100
AcDbPoint
 10
377.4809839175439
 20
587.0495274089168
 30
0.0
  0
LINE
  5
3A8
330
81
100
AcDbEntity
  8
1
  6
PHANTOM
 62
     4
100
AcDbLine
 10
222.480983917543
 20
321.0
 30
0.0
 11
222.480983917543
 21
281.5
 31
0.0
  0
LINE
  5
3A9
330
81
100
AcDbEntity
  8
1
  6
PHANTOM
 62
     4
100
AcDbLine
 10
192.480983917543
 20
321.0
 30
0.0
 11
192.480983917543
 21
281.5
 31
0.0
  0
LINE
  5
3AA
330
81
100
AcDbEntity
  8
1
  6
PHANTOM
 62
     4
100
AcDbLine
 10
252.480983917543
 20
321.0
 30
0.0
 11
252.480983917543
 21
281.5
 31
0.0
  0
LINE
  5
3AB
330
81
100
AcDbEntity
  8
1
  6
PHANTOM
 62
     4
100
AcDbLine
 10
260.0510948550074
 20
572.5495274089176
 30
0.0
 11
276.5374003537722
 21
572.5495274089176
 31
0.0
  0
LINE
  5
3AC
330
81
100
AcDbEntity
  8
1
  6
PHANTOM
 62
     4
100
AcDbLine
 10
267.480983917543
 20
580.1925229440051
 30
0.0
 11
267.480983917543
 21
563.1334196289167
 31
0.0
  0
LINE
  5
3AD
330
81
100
AcDbEntity
  8
1
  6
PHANTOM
 62
     4
100
AcDbLine
 10
177.480983917543
 20
563.1334196289167
 30
0.0
 11
177.480983917543
 21
582.6334196289167
 31
0.0
  0
LINE
  5
3AE
330
81
100
AcDbEntity
  8
1
  6
PHANTOM
 62
     4
100
AcDbLine
 10
168.4245674813137
 20
572.5495274089176
 30
0.0
 11
187.9245674813136
 21
572.5495274089176
 31
0.0
  0
LINE
  5
3AF
330
81
100
AcDbEntity
  8
1
  6
PHANTOM
 62
     4
100
AcDbLine
 10
186.6994986921499
 20
514.0495274089176
 30
0.0
 11
235.6994986921499
 21
514.0495274089176
 31
0.0
  0
LINE
  5
3B0
330
81
100
AcDbEntity
  8
0
  6
PHANTOM
 62
     4
100
AcDbLine
 10
388.4809839175441
 20
583.5495274089168
 30
0.0
 11
376.4809839175441
 21
583.5495274089168
 31
0.0
  0
LINE
  5
3B1
330
81
100
AcDbEntity
  8
0
  6
PHANTOM
 62
     4
100
AcDbLine
 10
382.4809839175441
 20
589.5495274089168
 30
0.0
 11
382.4809839175441
 21
577.5495274089168
 31
0.0
  0
LINE
  5
3B2
330
81
100
AcDbEntity
  8
0
  6
PHANTOM
 62
     4
100
AcDbLine
 10
285.4318470772885
 20
583.5495274089168
 30
0.0
 11
258.8326230266284
 21
583.5495274089168
 31
0.0
  0
LINE
  5
3B3
330
81
100
AcDbEntity
  8
1
  6
PHANTOM
 62
     4
100
AcDbLine
 10
252.480983917543
 20
261.0
 30
0.0
 11
252.480983917543
 21
221.5
 31
0.0
  0
LINE
  5
3B4
330
81
100
AcDbEntity
  8
1
  6
PHANTOM
 62
     4
100
AcDbLine
 10
192.480983917543
 20
261.0
 30
0.0
 11
192.480983917543
 21
221.5
 31
0.0
  0
LINE
  5
3B5
330
81
100
AcDbEntity
  8
1
  6
PHANTOM
 62
     4
100
AcDbLine
 10
222.480983917543
 20
261.0
 30
0.0
 11
222.480983917543
 21
221.5
 31
0.0
  0
LINE
  5
3B6
330
81
100
AcDbEntity
  8
0
  6
PHANTOM
 62
     4
100
AcDbLine
 10
186.1293448084575
 20
583.5495274089168
 30
0.0
 11
159.5301207577974
 21
583.5495274089168
 31
0.0
  0
ENDBLK
  5
96
330
81
100
AcDbEntity
  8
0
100
AcDbBlockEnd
  0
BLOCK
  5
98
330
97
100
AcDbEntity
  8
0
100
AcDbBlockBegin
  2
開示A4
 70
     0
 10
0.0
 20
0.0
 30
0.0
  3
開示A4
  1

  0
POINT
  5
3B7
330
97
100
AcDbEntity
  8
1
 62
     4
100
AcDbPoint
 10
93.75000000000003
 20
17.00000000000001
 30
0.0
  0
POINT
  5
3B8
330
97
100
AcDbEntity
  8
1
 62
     4
100
AcDbPoint
 10
85.25
 20
17.00000000000001
 30
0.0
  0
POINT
  5
3B9
330
97
100
AcDbEntity
  8
1
 62
     4
100
AcDbPoint
 10
106.5
 20
19.00000000000001
 30
0.0
  0
POINT
  5
3BA
330
97
100
AcDbEntity
  8
1
 62
     4
100
AcDbPoint
 10
106.5
 20
12.50000000000003
 30
0.0
  0
POINT
  5
3BB
330
97
100
AcDbEntity
  8
1
 62
     4
100
AcDbPoint
 10
112.25
 20
12.50000000000003
 30
0.0
  0
POINT
  5
3BC
330
97
100
AcDbEntity
  8
1
 62
     4
100
AcDbPoint
 10
100.75
 20
12.50000000000003
 30
0.0
  0
POINT
  5
3BD
330
97
100
AcDbEntity
  8
1
 62
     4
100
AcDbPoint
 10
123.5
 20
19.00000000000001
 30
0.0
  0
POINT
  5
3BE
330
97
100
AcDbEntity
  8
1
 62
     4
100
AcDbPoint
 10
123.5
 20
12.50000000000003
 30
0.0
  0
POINT
  5
3BF
330
97
100
AcDbEntity
  8
1
 62
     4
100
AcDbPoint
 10
129.25
 20
12.50000000000003
 30
0.0
  0
POINT
  5
3C0
330
97
100
AcDbEntity
  8
1
 62
     4
100
AcDbPoint
 10
117.75
 20
12.50000000000003
 30
0.0
  0
POINT
  5
3C1
330
97
100
AcDbEntity
  8
1
 62
     4
100
AcDbPoint
 10
140.5
 20
19.00000000000001
 30
0.0
  0
POINT
  5
3C2
330
97
100
AcDbEntity
  8
1
 62
     4
100
AcDbPoint
 10
140.5
 20
12.50000000000003
 30
0.0
  0
POINT
  5
3C3
330
97
100
AcDbEntity
  8
1
 62
     4
100
AcDbPoint
 10
146.25
 20
12.50000000000003
 30
0.0
  0
POINT
  5
3C4
330
97
100
AcDbEntity
  8
1
 62
     4
100
AcDbPoint
 10
134.75
 20
12.50000000000003
 30
0.0
  0
POINT
  5
3C5
330
97
100
AcDbEntity
  8
1
 62
     4
100
AcDbPoint
 10
151.75
 20
12.50000000000003
 30
0.0
  0
POINT
  5
3C6
330
97
100
AcDbEntity
  8
1
 62
     4
100
AcDbPoint
 10
163.25
 20
12.50000000000003
 30
0.0
  0
POINT
  5
3C7
330
97
100
AcDbEntity
  8
1
 62
     4
100
AcDbPoint
 10
157.5
 20
12.50000000000003
 30
0.0
  0
POINT
  5
3C8
330
97
100
AcDbEntity
  8
1
 62
     4
100
AcDbPoint
 10
57.0
 20
14.25000000000003
 30
0.0
  0
POINT
  5
3C9
330
97
100
AcDbEntity
  8
1
 62
     4
100
AcDbPoint
 10
57.0
 20
22.75000000000001
 30
0.0
  0
POINT
  5
3CA
330
97
100
AcDbEntity
  8
1
 62
     4
100
AcDbPoint
 10
47.5
 20
282.0000000000003
 30
0.0
  0
POINT
  5
3CB
330
97
100
AcDbEntity
  8
1
 62
     4
100
AcDbPoint
 10
157.5
 20
19.00000000000001
 30
0.0
  0
POINT
  5
3CC
330
97
100
AcDbEntity
  8
1
 62
     4
100
AcDbPoint
 10
57.0
 20
16.25000000000001
 30
0.0
  0
POINT
  5
3CD
330
97
100
AcDbEntity
  8
1
 62
     4
100
AcDbPoint
 10
57.0
 20
24.75000000000001
 30
0.0
  0
POINT
  5
3CE
330
97
100
AcDbEntity
  8
1
 62
     4
100
AcDbPoint
 10
57.0
 20
20.75000000000001
 30
0.0
  0
POINT
  5
3CF
330
97
100
AcDbEntity
  8
1
 62
     4
100
AcDbPoint
 10
57.0
 20
12.25000000000003
 30
0.0
  0
POINT
  5
3D0
330
97
100
AcDbEntity
  8
1
 62
     4
100
AcDbPoint
 10
34.0
 20
34.00000000000001
 30
0.0
  0
LINE
  5
3D1
330
97
100
AcDbEntity
  8
1
  6
Continuous
 62
     7
100
AcDbLine
 10
105.0
 20
10.00000000000003
 30
0.0
 11
200.0
 21
10.00000000000003
 31
0.0
  0
LINE
  5
3D2
330
97
100
AcDbEntity
  8
1
  6
Continuous
 62
     2
100
AcDbLine
 10
105.0
 20
10.00000000000003
 30
0.0
 11
105.0
 21
5.0
 31
0.0
  0
LINE
  5
3D3
330
97
100
AcDbEntity
  8
1
  6
Continuous
 62
     7
100
AcDbLine
 10
200.0
 20
148.5
 30
0.0
 11
200.0
 21
287.0000000000003
 31
0.0
  0
LINE
  5
3D4
330
97
100
AcDbEntity
  8
1
  6
Continuous
 62
     2
100
AcDbLine
 10
200.0
 20
148.5
 30
0.0
 11
205.0
 21
148.5
 31
0.0
  0
LINE
  5
3D5
330
97
100
AcDbEntity
  8
1
  6
Continuous
 62
     7
100
AcDbLine
 10
25.0
 20
148.5
 30
0.0
 11
25.0
 21
287.0000000000003
 31
0.0
  0
LINE
  5
3D6
330
97
100
AcDbEntity
  8
1
  6
Continuous
 62
     2
100
AcDbLine
 10
25.0
 20
148.5
 30
0.0
 11
20.0
 21
148.5
 31
0.0
  0
LINE
  5
3D7
330
97
100
AcDbEntity
  8
1
  6
Continuous
 62
     7
100
AcDbLine
 10
105.0
 20
287.0000000000003
 30
0.0
 11
25.0
 21
287.0000000000003
 31
0.0
  0
LINE
  5
3D8
330
97
100
AcDbEntity
  8
1
  6
Continuous
 62
     2
100
AcDbLine
 10
105.0
 20
287.0000000000003
 30
0.0
 11
105.0
 21
292.0000000000003
 31
0.0
  0
LINE
  5
3D9
330
97
100
AcDbEntity
  8
1
  6
Continuous
 62
     2
100
AcDbLine
 10
166.0
 20
20.00000000000001
 30
0.0
 11
200.0
 21
20.00000000000001
 31
0.0
  0
LINE
  5
3DA
330
97
100
AcDbEntity
  8
1
  6
Continuous
 62
     2
100
AcDbLine
 10
98.00000000000003
 20
27.00000000000001
 30
0.0
 11
98.00000000000003
 21
10.00000000000003
 31
0.0
  0
LINE
  5
3DB
330
97
100
AcDbEntity
  8
1
  6
Continuous
 62
     2
100
AcDbLine
 10
115.0
 20
27.00000000000001
 30
0.0
 11
115.0
 21
10.00000000000003
 31
0.0
  0
LINE
  5
3DC
330
97
100
AcDbEntity
  8
1
  6
Continuous
 62
     2
100
AcDbLine
 10
149.0
 20
27.00000000000001
 30
0.0
 11
149.0
 21
10.00000000000003
 31
0.0
  0
LINE
  5
3DD
330
97
100
AcDbEntity
  8
1
  6
Continuous
 62
     2
100
AcDbLine
 10
132.0
 20
27.00000000000001
 30
0.0
 11
132.0
 21
10.00000000000003
 31
0.0
  0
LINE
  5
3DE
330
97
100
AcDbEntity
  8
1
  6
Continuous
 62
     2
100
AcDbLine
 10
166.0
 20
27.00000000000001
 30
0.0
 11
166.0
 21
10.00000000000003
 31
0.0
  0
LINE
  5
3DF
330
97
100
AcDbEntity
  8
1
  6
Continuous
 62
     2
100
AcDbLine
 10
55.0
 20
277.0000000000003
 30
0.0
 11
25.0
 21
277.0000000000003
 31
0.0
  0
LINE
  5
3E0
330
97
100
AcDbEntity
  8
1
  6
Continuous
 62
     7
100
AcDbLine
 10
25.0
 20
10.00000000000003
 30
0.0
 11
25.0
 21
148.5
 31
0.0
  0
LINE
  5
3E1
330
97
100
AcDbEntity
  8
1
  6
Continuous
 62
     2
100
AcDbLine
 10
40.0
 20
287.0000000000003
 30
0.0
 11
40.0
 21
277.0000000000003
 31
0.0
  0
LINE
  5
3E2
330
97
100
AcDbEntity
  8
1
  6
Continuous
 62
     2
100
AcDbLine
 10
55.0
 20
287.0000000000003
 30
0.0
 11
55.0
 21
277.0000000000003
 31
0.0
  0
LINE
  5
3E3
330
97
100
AcDbEntity
  8
1
  6
Continuous
 62
     2
100
AcDbLine
 10
33.0
 20
41.00000000000001
 30
0.0
 11
33.0
 21
27.00000000000001
 31
0.0
  0
LINE
  5
3E4
330
97
100
AcDbEntity
  8
1
  6
Continuous
 62
     7
100
AcDbLine
 10
200.0
 20
27.00000000000001
 30
0.0
 11
25.0
 21
27.00000000000001
 31
0.0
  0
LINE
  5
3E5
330
97
100
AcDbEntity
  8
1
  6
Continuous
 62
     7
100
AcDbLine
 10
25.0
 20
41.00000000000001
 30
0.0
 11
200.0
 21
41.00000000000001
 31
0.0
  0
LINE
  5
3E6
330
97
100
AcDbEntity
  8
1
  6
PHANTOM
 62
     4
100
AcDbLine
 10
0.0
 20
0.0
 30
0.0
 11
210.0
 21
0.0
 31
0.0
  0
LINE
  5
3E7
330
97
100
AcDbEntity
  8
1
  6
PHANTOM
 62
     4
100
AcDbLine
 10
210.0
 20
0.0
 30
0.0
 11
210.0
 21
297.0
 31
0.0
  0
LINE
  5
3E8
330
97
100
AcDbEntity
  8
1
  6
PHANTOM
 62
     4
100
AcDbLine
 10
210.0
 20
297.0
 30
0.0
 11
0.0
 21
296.9999999999999
 31
0.0
  0
LINE
  5
3E9
330
97
100
AcDbEntity
  8
1
  6
PHANTOM
 62
     4
100
AcDbLine
 10
0.0
 20
296.9999999999999
 30
0.0
 11
0.0
 21
0.0
 31
0.0
  0
LINE
  5
3EA
330
97
100
AcDbEntity
  8
1
  6
Continuous
 62
     7
100
AcDbLine
 10
25.0
 20
10.00000000000003
 30
0.0
 11
105.0
 21
10.00000000000003
 31
0.0
  0
LINE
  5
3EB
330
97
100
AcDbEntity
  8
1
  6
Continuous
 62
     7
100
AcDbLine
 10
200.0
 20
10.00000000000003
 30
0.0
 11
200.0
 21
148.5
 31
0.0
  0
LINE
  5
3EC
330
97
100
AcDbEntity
  8
1
  6
Continuous
 62
     7
100
AcDbLine
 10
200.0
 20
287.0000000000003
 30
0.0
 11
105.0
 21
287.0000000000003
 31
0.0
  0
LINE
  5
3ED
330
97
100
AcDbEntity
  8
1
  6
Continuous
 62
     2
100
AcDbLine
 10
25.0
 20
18.50000000000001
 30
0.0
 11
81.0
 21
18.50000000000001
 31
0.0
  0
LINE
  5
3EE
330
97
100
AcDbEntity
  8
1
  6
Continuous
 62
     2
100
AcDbLine
 10
33.0
 20
27.00000000000001
 30
0.0
 11
33.0
 21
10.00000000000003
 31
0.0
  0
LINE
  5
3EF
330
97
100
AcDbEntity
  8
1
  6
Continuous
 62
     7
100
AcDbLine
 10
191.0
 20
24.70000000000001
 30
0.0
 11
191.0
 21
22.29999999999997
 31
0.0
  0
LINE
  5
3F0
330
97
100
AcDbEntity
  8
1
  6
Continuous
 62
     7
100
AcDbLine
 10
191.0
 20
24.70000000000001
 30
0.0
 11
196.0
 21
25.50000000000001
 31
0.0
  0
LINE
  5
3F1
330
97
100
AcDbEntity
  8
1
  6
Continuous
 62
     7
100
AcDbLine
 10
196.0
 20
25.50000000000001
 30
0.0
 11
196.0
 21
21.50000000000001
 31
0.0
  0
LINE
  5
3F2
330
97
100
AcDbEntity
  8
1
  6
Continuous
 62
     7
100
AcDbLine
 10
196.0
 20
21.50000000000001
 30
0.0
 11
191.0
 21
22.29999999999997
 31
0.0
  0
LINE
  5
3F3
330
97
100
AcDbEntity
  8
1
  6
DOT_CENTER
 62
     2
100
AcDbLine
 10
184.0
 20
23.50000000000001
 30
0.0
 11
197.0
 21
23.50000000000001
 31
0.0
  0
LINE
  5
3F4
330
97
100
AcDbEntity
  8
1
  6
DOT_CENTER
 62
     2
100
AcDbLine
 10
187.0
 20
26.50000000000001
 30
0.0
 11
187.0
 21
20.50000000000001
 31
0.0
  0
LINE
  5
3F5
330
97
100
AcDbEntity
  8
1
  6
Continuous
 62
     2
100
AcDbLine
 10
81.0
 20
27.00000000000001
 30
0.0
 11
81.0
 21
10.00000000000003
 31
0.0
  0
CIRCLE
  5
3F6
330
97
100
AcDbEntity
  8
1
  6
Continuous
 62
     7
100
AcDbCircle
 10
103.5
 20
12.50000000000003
 30
0.0
 40
0.2999999999999972
  0
CIRCLE
  5
3F7
330
97
100
AcDbEntity
  8
1
  6
Continuous
 62
     7
100
AcDbCircle
 10
109.5
 20
12.50000000000003
 30
0.0
 40
0.2999999999999972
  0
CIRCLE
  5
3F8
330
97
100
AcDbEntity
  8
1
  6
Continuous
 62
     7
100
AcDbCircle
 10
120.5
 20
12.50000000000003
 30
0.0
 40
0.2999999999999972
  0
CIRCLE
  5
3F9
330
97
100
AcDbEntity
  8
1
  6
Continuous
 62
     7
100
AcDbCircle
 10
126.5
 20
12.50000000000003
 30
0.0
 40
0.2999999999999972
  0
CIRCLE
  5
3FA
330
97
100
AcDbEntity
  8
1
  6
Continuous
 62
     7
100
AcDbCircle
 10
137.5
 20
12.50000000000003
 30
0.0
 40
0.3000000000000114
  0
CIRCLE
  5
3FB
330
97
100
AcDbEntity
  8
1
  6
Continuous
 62
     7
100
AcDbCircle
 10
143.5
 20
12.50000000000003
 30
0.0
 40
0.3000000000000114
  0
CIRCLE
  5
3FC
330
97
100
AcDbEntity
  8
1
  6
Continuous
 62
     7
100
AcDbCircle
 10
160.5
 20
12.50000000000003
 30
0.0
 40
0.3000000000000114
  0
CIRCLE
  5
3FD
330
97
100
AcDbEntity
  8
1
  6
Continuous
 62
     7
100
AcDbCircle
 10
154.5
 20
12.50000000000003
 30
0.0
 40
0.3000000000000114
  0
CIRCLE
  5
3FE
330
97
100
AcDbEntity
  8
1
  6
Continuous
 62
     7
100
AcDbCircle
 10
187.0
 20
23.50000000000001
 30
0.0
 40
1.200000000000102
  0
CIRCLE
  5
3FF
330
97
100
AcDbEntity
  8
1
  6
Continuous
 62
     7
100
AcDbCircle
 10
187.0
 20
23.50000000000001
 30
0.0
 40
2.0
  0
CIRCLE
  5
400
330
97
100
AcDbEntity
  8
1
  6
DOT_CENTER
 62
     7
100
AcDbCircle
 10
89.5
 20
16.00000000000001
 30
0.0
 40
0.0999999999999943
  0
CIRCLE
  5
401
330
97
100
AcDbEntity
  8
1
  6
DOT_CENTER
 62
     7
100
AcDbCircle
 10
89.5
 20
18.00000000000001
 30
0.0
 40
0.0999999999999943
  0
MTEXT
  5
403
330
97
100
AcDbEntity
  8
1
 62
     7
100
AcDbMText
 10
188.5
 20
15.00000000000001
 30
0.0
 40
3.0
 41
0.0
 71
     5
 72
     1
  1
三栄水栓製作所
  7
CONVERTER_13
 73
     1
 44
1.0
  0
MTEXT
  5
404
330
97
100
AcDbEntity
  8
1
 62
     7
100
AcDbMText
 10
171.5
 20
15.00000000000001
 30
0.0
 40
2.5
 41
0.0
 71
     5
 72
     1
  1
株式会社
  7
CONVERTER_13
 73
     1
 44
1.0
  0
MTEXT
  5
405
330
97
100
AcDbEntity
  8
1
 62
     2
100
AcDbMText
 10
32.5
 20
282.0000000000003
 30
0.0
 40
5.0
 41
0.0
 71
     5
 72
     1
  1
図番
  7
CONVERTER_13
 73
     1
 44
0.45454545454545
  0
MTEXT
  5
406
330
97
100
AcDbEntity
  8
1
 62
     2
100
AcDbMText
 10
29.0
 20
34.00000000000001
 30
0.0
 40
3.5
 41
0.0
 71
     5
 72
     1
  1
備考
  7
CONVERTER_13
 73
     1
 44
0.45454545454545
  0
MTEXT
  5
407
330
97
100
AcDbEntity
  8
1
 62
     2
100
AcDbMText
 10
29.0
 20
22.75000000000001
 30
0.0
 40
3.5
 41
0.0
 71
     5
 72
     1
  1
品名
  7
CONVERTER_13
 73
     1
 44
0.72727272727273
  0
MTEXT
  5
408
330
97
100
AcDbEntity
  8
1
 62
     2
100
AcDbMText
 10
29.0
 20
14.25000000000003
 30
0.0
 40
3.5
 41
0.0
 71
     5
 72
     1
  1
品番
  7
CONVERTER_13
 73
     1
 44
0.72727272727273
  0
MTEXT
  5
409
330
97
100
AcDbEntity
  8
1
 62
     2
100
AcDbMText
 10
101.5
 20
25.00000000000001
 30
0.0
 40
3.0
 41
0.0
 71
     5
 72
     1
  1
承認
  7
CONVERTER_13
 73
     1
 44
0.59090909090909
  0
MTEXT
  5
40A
330
97
100
AcDbEntity
  8
1
 62
     2
100
AcDbMText
 10
175.0
 20
23.50000000000001
 30
0.0
 40
3.5
 41
0.0
 71
     5
 72
     1
  1
第三角法
  7
CONVERTER_13
 73
     1
 44
0.54545454545455
  0
MTEXT
  5
40B
330
97
100
AcDbEntity
  8
1
 62
     2
100
AcDbMText
 10
118.5
 20
25.00000000000001
 30
0.0
 40
3.0
 41
0.0
 71
     5
 72
     1
  1
検図
  7
CONVERTER_13
 73
     1
 44
0.59090909090909
  0
MTEXT
  5
40C
330
97
100
AcDbEntity
  8
1
 62
     2
100
AcDbMText
 10
152.5
 20
25.00000000000001
 30
0.0
 40
3.0
 41
0.0
 71
     5
 72
     1
  1
設計
  7
CONVERTER_13
 73
     1
 44
0.59090909090909
  0
MTEXT
  5
40D
330
97
100
AcDbEntity
  8
1
 62
     2
100
AcDbMText
 10
135.5
 20
25.00000000000001
 30
0.0
 40
3.0
 41
0.0
 71
     5
 72
     1
  1
製図
  7
CONVERTER_13
 73
     1
 44
0.59090909090909
  0
MTEXT
  5
40E
330
97
100
AcDbEntity
  8
1
 62
     2
100
AcDbMText
 10
89.5
 20
24.00000000000001
 30
0.0
 40
3.5
 41
0.0
 71
     5
 72
     1
  1
尺度
  7
CONVERTER_13
 73
     1
 44
0.54545454545455
  0
MTEXT
  5
40F
330
97
100
AcDbEntity
  8
1
 62
   250
100
AcDbMText
 10
25.0
 20
5.0
 30
0.0
 40
3.5
 41
0.0
 71
     4
 72
     1
  1
備考欄の文字列 原点位置=4
  7
CONVERTER_13
 73
     1
 44
0.54545454545455
  0
ENDBLK
  5
99
330
97
100
AcDbEntity
  8
0
100
AcDbBlockEnd
  0
BLOCK
  5
9B
330
9A
100
AcDbEntity
  8
0
100
AcDbBlockBegin
  2
89-218A
 70
     0
 10
633.7875695139879
 20
-433.7429287748503
 30
0.0
  3
89-218A
  1

  0
LINE
  5
410
330
9A
100
AcDbEntity
  8
1
  6
Continuous
 62
     7
100
AcDbLine
 10
411.4809839175441
 20
459.0495274089308
 30
0.0
 11
512.480983917544
 21
459.0495274089308
 31
0.0
  0
LINE
  5
411
330
9A
100
AcDbEntity
  8
1
  6
Continuous
 62
     7
100
AcDbLine
 10
513.480983917544
 20
460.0495274089308
 30
0.0
 11
513.480983917544
 21
461.5495274089308
 31
0.0
  0
LINE
  5
412
330
9A
100
AcDbEntity
  8
1
  6
Continuous
 62
     7
100
AcDbLine
 10
513.480983917544
 20
461.5495274089308
 30
0.0
 11
513.480983917544
 21
467.8463334310628
 31
0.0
  0
LINE
  5
413
330
9A
100
AcDbEntity
  8
1
  6
Continuous
 62
     7
100
AcDbLine
 10
513.480983917544
 20
467.8463334310628
 30
0.0
 11
513.4809839175439
 21
555.0495274089309
 31
0.0
  0
LINE
  5
414
330
9A
100
AcDbEntity
  8
1
  6
Continuous
 62
     7
100
AcDbLine
 10
411.4809839175441
 20
558.0495274089309
 30
0.0
 11
510.480983917544
 21
558.0495274089308
 31
0.0
  0
ARC
  5
415
330
9A
100
AcDbEntity
  8
1
  6
Continuous
 62
     7
100
AcDbCircle
 10
512.4809839175439
 20
460.0495274089308
 30
0.0
 40
1.0
100
AcDbArc
 50
270.0000000000065
 51
0.0
  0
ARC
  5
416
330
9A
100
AcDbEntity
  8
1
  6
Continuous
 62
     7
100
AcDbCircle
 10
510.4809839175439
 20
555.0495274089309
 30
0.0
 40
3.0
100
AcDbArc
 50
0.0
 51
89.99999999999784
  0
ENDBLK
  5
9C
330
9A
100
AcDbEntity
  8
0
100
AcDbBlockEnd
  0
BLOCK
  5
9F
330
9D
100
AcDbEntity
  8
0
100
AcDbBlockBegin
  2
89-218AX
 70
     0
 10
162.7641321948378
 20
-249.299526744653
 30
0.0
  3
89-218AX
  1

  0
INSERT
  5
9E
330
9D
100
AcDbEntity
  8
0
100
AcDbBlockReference
  2
89-218A
 10
633.7875695139879
 20
-433.7429287748503
 30
0.0
  0
ENDBLK
  5
A0
330
9D
100
AcDbEntity
  8
0
100
AcDbBlockEnd
  0
BLOCK
  5
A2
330
A1
100
AcDbEntity
  8
0
100
AcDbBlockBegin
  2
T17-4F-1
 70
     0
 10
353.4999999999999
 20
373.0
 30
0.0
  3
T17-4F-1
  1

  0
LINE
  5
417
330
A1
100
AcDbEntity
  8
CSLAYER1
  6
Continuous
 62
     7
100
AcDbLine
 10
455.6071499999999
 20
333.0
 30
0.0
 11
455.6071499999999
 21
326.5
 31
0.0
  0
LINE
  5
418
330
A1
100
AcDbEntity
  8
1
  6
Continuous
 62
     7
100
AcDbLine
 10
443.4999999999998
 20
327.5
 30
0.0
 11
443.4999999999998
 21
333.5
 31
0.0
  0
LINE
  5
419
330
A1
100
AcDbEntity
  8
CSLAYER1
  6
Continuous
 62
     7
100
AcDbLine
 10
458.6999999999999
 20
321.3062870566387
 30
0.0
 11
458.6999999999998
 21
316.3999999999999
 31
0.0
  0
LINE
  5
41A
330
A1
100
AcDbEntity
  8
1
  6
Continuous
 62
     7
100
AcDbLine
 10
455.8999999999999
 20
322.9603795
 30
0.0
 11
455.8999999999999
 21
326.3
 31
0.0
  0
LINE
  5
41B
330
A1
100
AcDbEntity
  8
CSLAYER1
  6
Continuous
 62
     7
100
AcDbLine
 10
458.0373210583825
 20
321.6
 30
0.0
 11
422.9626789416171
 21
321.6
 31
0.0
  0
LINE
  5
41C
330
A1
100
AcDbEntity
  8
CSLAYER1
  6
Continuous
 62
     7
100
AcDbLine
 10
455.8999999999999
 20
322.6
 30
0.0
 11
425.0999999999997
 21
322.6
 31
0.0
  0
LINE
  5
41D
330
A1
100
AcDbEntity
  8
CSLAYER1
  6
Continuous
 62
     7
100
AcDbLine
 10
458.3581138830082
 20
321.780628705664
 30
0.0
 11
456.2418859999998
 21
322.486038
 31
0.0
  0
LINE
  5
41E
330
A1
100
AcDbEntity
  8
CSLAYER1
  6
Continuous
 62
     7
100
AcDbLine
 10
458.1999999999998
 20
315.8999999999999
 30
0.0
 11
422.7999999999998
 21
315.8999999999999
 31
0.0
  0
LINE
  5
41F
330
A1
100
AcDbEntity
  8
1
  6
Continuous
 62
     7
100
AcDbLine
 10
455.6999999999999
 20
326.5
 30
0.0
 11
455.6071499999999
 21
326.5
 31
0.0
  0
LINE
  5
420
330
A1
100
AcDbEntity
  8
1
  6
Continuous
 62
     7
100
AcDbLine
 10
425.3928499999998
 20
326.5
 30
0.0
 11
425.2999999999998
 21
326.5
 31
0.0
  0
LINE
  5
421
330
A1
100
AcDbEntity
  8
CSLAYER1
  6
Continuous
 62
     7
100
AcDbLine
 10
424.7581139999998
 20
322.486038
 30
0.0
 11
422.6418861169914
 21
321.780628705664
 31
0.0
  0
LINE
  5
422
330
A1
100
AcDbEntity
  8
1
  6
Continuous
 62
     7
100
AcDbLine
 10
437.4999999999998
 20
333.5
 30
0.0
 11
437.4999999999998
 21
327.5
 31
0.0
  0
LINE
  5
423
330
A1
100
AcDbEntity
  8
1
  6
Continuous
 62
     7
100
AcDbLine
 10
438.4999999999998
 20
326.5
 30
0.0
 11
442.4999999999998
 21
326.5
 31
0.0
  0
LINE
  5
424
330
A1
100
AcDbEntity
  8
CSLAYER1
  6
Continuous
 62
     7
100
AcDbLine
 10
425.3928499999998
 20
326.5
 30
0.0
 11
425.3928499999998
 21
333.0
 31
0.0
  0
LINE
  5
425
330
A1
100
AcDbEntity
  8
1
  6
Continuous
 62
     7
100
AcDbLine
 10
425.0999999999997
 20
326.3
 30
0.0
 11
425.0999999999997
 21
322.9603795
 31
0.0
  0
LINE
  5
426
330
A1
100
AcDbEntity
  8
CSLAYER1
  6
Continuous
 62
     7
100
AcDbLine
 10
425.8928499999998
 20
333.5
 30
0.0
 11
455.1071499999999
 21
333.5
 31
0.0
  0
LINE
  5
427
330
A1
100
AcDbEntity
  8
CSLAYER1
  6
Continuous
 62
     7
100
AcDbLine
 10
422.2999999999998
 20
316.3999999999999
 30
0.0
 11
422.2999999999998
 21
321.3062870566387
 31
0.0
  0
ARC
  5
428
330
A1
100
AcDbEntity
  8
CSLAYER1
  6
Continuous
 62
     7
100
AcDbCircle
 10
456.3999999999999
 20
322.9603795
 30
0.0
 40
0.5
100
AcDbArc
 50
180.0
 51
251.5650509999917
  0
ARC
  5
429
330
A1
100
AcDbEntity
  8
CSLAYER1
  6
Continuous
 62
     7
100
AcDbCircle
 10
424.5999999999997
 20
322.9603795
 30
0.0
 40
0.500000000000102
100
AcDbArc
 50
288.4349490000083
 51
0.0
  0
ARC
  5
42A
330
A1
100
AcDbEntity
  8
1
  6
Continuous
 62
     7
100
AcDbCircle
 10
455.1071499999999
 20
333.0
 30
0.0
 40
0.5
100
AcDbArc
 50
0.0
 51
90.0
  0
ARC
  5
42B
330
A1
100
AcDbEntity
  8
1
  6
Continuous
 62
     7
100
AcDbCircle
 10
458.1999999999999
 20
321.3062870566387
 30
0.0
 40
0.5
100
AcDbArc
 50
0.0
 51
71.5650511770924
  0
ARC
  5
42C
330
A1
100
AcDbEntity
  8
1
  6
Continuous
 62
     7
100
AcDbCircle
 10
458.1999999999998
 20
316.3999999999999
 30
0.0
 40
0.5
100
AcDbArc
 50
270.0
 51
0.0
  0
ARC
  5
42D
330
A1
100
AcDbEntity
  8
1
  6
Continuous
 62
     7
100
AcDbCircle
 10
455.6999999999999
 20
326.3
 30
0.0
 40
0.2000000000000455
100
AcDbArc
 50
0.0
 51
90.0
  0
ARC
  5
42E
330
A1
100
AcDbEntity
  8
1
  6
Continuous
 62
     7
100
AcDbCircle
 10
442.4999999999998
 20
327.5
 30
0.0
 40
1.0
100
AcDbArc
 50
270.0
 51
0.0
  0
ARC
  5
42F
330
A1
100
AcDbEntity
  8
1
  6
Continuous
 62
     7
100
AcDbCircle
 10
425.8928499999998
 20
333.0
 30
0.0
 40
0.5
100
AcDbArc
 50
90.0
 51
180.0
  0
ARC
  5
430
330
A1
100
AcDbEntity
  8
1
  6
Continuous
 62
     7
100
AcDbCircle
 10
438.4999999999998
 20
327.5
 30
0.0
 40
1.0
100
AcDbArc
 50
180.0
 51
270.0
  0
ARC
  5
431
330
A1
100
AcDbEntity
  8
1
  6
Continuous
 62
     7
100
AcDbCircle
 10
425.2999999999998
 20
326.3
 30
0.0
 40
0.1999999999999886
100
AcDbArc
 50
90.0
 51
180.0
  0
ARC
  5
432
330
A1
100
AcDbEntity
  8
1
  6
Continuous
 62
     7
100
AcDbCircle
 10
422.7999999999998
 20
316.3999999999999
 30
0.0
 40
0.5
100
AcDbArc
 50
180.0
 51
270.0
  0
ARC
  5
433
330
A1
100
AcDbEntity
  8
1
  6
Continuous
 62
     7
100
AcDbCircle
 10
422.7999999999998
 20
321.3062870566387
 30
0.0
 40
0.5000000000000301
100
AcDbArc
 50
108.4349488229199
 51
180.0
  0
ENDBLK
  5
A3
330
A1
100
AcDbEntity
  8
0
100
AcDbBlockEnd
  0
BLOCK
  5
A5
330
A4
100
AcDbEntity
  8
0
100
AcDbBlockBegin
  2
T17-4F-2
 70
     0
 10
353.4999999999999
 20
373.0
 30
0.0
  3
T17-4F-2
  1

  0
LINE
  5
434
330
A4
100
AcDbEntity
  8
CSLAYER1
  6
Continuous
 62
     2
100
AcDbLine
 10
426.5824999999996
 20
308.9999999999999
 30
0.0
 11
426.5824999999996
 21
309.8999999999999
 31
0.0
  0
LINE
  5
435
330
A4
100
AcDbEntity
  8
CSLAYER1
  6
Continuous
 62
     7
100
AcDbLine
 10
425.4999999999998
 20
309.8999999999999
 30
0.0
 11
425.4999999999998
 21
308.9999999999999
 31
0.0
  0
LINE
  5
436
330
A4
100
AcDbEntity
  8
CSLAYER1
  6
PHANTOM
 62
     4
100
AcDbLine
 10
440.4999999999998
 20
280.9000000000001
 30
0.0
 11
440.4999999999998
 21
334.9
 31
0.0
  0
LINE
  5
437
330
A4
100
AcDbEntity
  8
CSLAYER1
  6
Continuous
 62
     7
100
AcDbLine
 10
427.3999999999999
 20
311.7000000000001
 30
0.0
 11
427.3999999999999
 21
315.8999999999999
 31
0.0
  0
LINE
  5
438
330
A4
100
AcDbEntity
  8
CSLAYER1
  6
Continuous
 62
     2
100
AcDbLine
 10
454.4175
 20
309.8999999999999
 30
0.0
 11
454.4175
 21
308.9999999999999
 31
0.0
  0
LINE
  5
439
330
A4
100
AcDbEntity
  8
CSLAYER1
  6
Continuous
 62
     7
100
AcDbLine
 10
424.4999999999998
 20
310.2000000000001
 30
0.0
 11
424.4999999999998
 21
311.1
 31
0.0
  0
LINE
  5
43A
330
A4
100
AcDbEntity
  8
CSLAYER1
  6
Continuous
 62
     7
100
AcDbLine
 10
453.5999999999998
 20
311.7000000000001
 30
0.0
 11
453.5999999999998
 21
315.8999999999999
 31
0.0
  0
LINE
  5
43B
330
A4
100
AcDbEntity
  8
CSLAYER1
  6
Continuous
 62
     7
100
AcDbLine
 10
456.4999999999998
 20
310.2000000000001
 30
0.0
 11
456.4999999999998
 21
311.1
 31
0.0
  0
LINE
  5
43C
330
A4
100
AcDbEntity
  8
CSLAYER1
  6
Continuous
 62
     7
100
AcDbLine
 10
455.4999999999999
 20
308.9999999999999
 30
0.0
 11
455.4999999999999
 21
309.8999999999999
 31
0.0
  0
LINE
  5
43D
330
A4
100
AcDbEntity
  8
CSLAYER1
  6
Continuous
 62
     7
100
AcDbLine
 10
424.7999999999998
 20
311.3999999999999
 30
0.0
 11
456.1999999999999
 21
311.3999999999999
 31
0.0
  0
LINE
  5
43E
330
A4
100
AcDbEntity
  8
CSLAYER1
  6
Continuous
 62
     7
100
AcDbLine
 10
424.7999999999998
 20
309.8999999999999
 30
0.0
 11
455.4999999999999
 21
309.8999999999999
 31
0.0
  0
LINE
  5
43F
330
A4
100
AcDbEntity
  8
CSLAYER1
  6
Continuous
 62
     7
100
AcDbLine
 10
455.4999999999999
 20
309.8999999999999
 30
0.0
 11
456.1999999999999
 21
309.8999999999999
 31
0.0
  0
ARC
  5
440
330
A4
100
AcDbEntity
  8
CSLAYER1
  6
Continuous
 62
     7
100
AcDbCircle
 10
427.0999999999997
 20
311.7000000000001
 30
0.0
 40
0.3000000000001819
100
AcDbArc
 50
270.0
 51
0.0
  0
ARC
  5
441
330
A4
100
AcDbEntity
  8
CSLAYER1
  6
Continuous
 62
     7
100
AcDbCircle
 10
424.7999999999998
 20
311.1
 30
0.0
 40
0.2999999999998977
100
AcDbArc
 50
90.0
 51
180.0
  0
ARC
  5
442
330
A4
100
AcDbEntity
  8
CSLAYER1
  6
Continuous
 62
     7
100
AcDbCircle
 10
424.7999999999998
 20
310.2000000000001
 30
0.0
 40
0.3000000000000114
100
AcDbArc
 50
180.0
 51
270.0
  0
ARC
  5
443
330
A4
100
AcDbEntity
  8
CSLAYER1
  6
Continuous
 62
     7
100
AcDbCircle
 10
453.8999999999999
 20
311.7000000000001
 30
0.0
 40
0.3000000000001251
100
AcDbArc
 50
180.0
 51
270.0
  0
ARC
  5
444
330
A4
100
AcDbEntity
  8
CSLAYER1
  6
Continuous
 62
     7
100
AcDbCircle
 10
456.1999999999999
 20
311.1
 30
0.0
 40
0.2999999999998977
100
AcDbArc
 50
0.0
 51
90.0
  0
ARC
  5
445
330
A4
100
AcDbEntity
  8
CSLAYER1
  6
Continuous
 62
     7
100
AcDbCircle
 10
456.1999999999999
 20
310.2000000000001
 30
0.0
 40
0.3000000000001819
100
AcDbArc
 50
270.0
 51
0.0
  0
ENDBLK
  5
A6
330
A4
100
AcDbEntity
  8
0
100
AcDbBlockEnd
  0
BLOCK
  5
A8
330
A7
100
AcDbEntity
  8
0
100
AcDbBlockBegin
  2
T17-4F-3
 70
     0
 10
353.4999999999999
 20
373.0
 30
0.0
  3
T17-4F-3
  1

  0
LINE
  5
446
330
A7
100
AcDbEntity
  8
CSLAYER1
  6
Continuous
 62
     7
100
AcDbLine
 10
440.4999999999998
 20
282.0
 30
0.0
 11
427.9999999999998
 21
282.0
 31
0.0
  0
LINE
  5
447
330
A7
100
AcDbEntity
  8
CSLAYER1
  6
Continuous
 62
     2
100
AcDbLine
 10
440.4999999999998
 20
304.9999999999999
 30
0.0
 11
440.4999999999998
 21
291.9999999999999
 31
0.0
  0
LINE
  5
448
330
A7
100
AcDbEntity
  8
CSLAYER1
  6
Continuous
 62
     7
100
AcDbLine
 10
458.8999999999999
 20
305.4999999999999
 30
0.0
 11
458.8999999999999
 21
308.4999999999999
 31
0.0
  0
LINE
  5
449
330
A7
100
AcDbEntity
  8
CSLAYER1
  6
Continuous
 62
     2
100
AcDbLine
 10
441.9685744999998
 20
304.9999999999999
 30
0.0
 11
441.9685744999998
 21
291.070486
 31
0.0
  0
LINE
  5
44A
330
A7
100
AcDbEntity
  8
CSLAYER1
  6
Continuous
 62
     2
100
AcDbLine
 10
443.5786374999998
 20
304.9999999999999
 30
0.0
 11
443.5786374999998
 21
291.9999999999999
 31
0.0
  0
LINE
  5
44B
330
A7
100
AcDbEntity
  8
CSLAYER1
  6
Continuous
 62
     2
100
AcDbLine
 10
444.8611009999998
 20
304.9999999999999
 30
0.0
 11
444.8611009999998
 21
291.070486
 31
0.0
  0
LINE
  5
44C
330
A7
100
AcDbEntity
  8
CSLAYER1
  6
Continuous
 62
     2
100
AcDbLine
 10
446.5637319999997
 20
304.9999999999999
 30
0.0
 11
446.5637319999997
 21
291.9999999999999
 31
0.0
  0
LINE
  5
44D
330
A7
100
AcDbEntity
  8
CSLAYER1
  6
Continuous
 62
     2
100
AcDbLine
 10
447.6211179999997
 20
304.9999999999999
 30
0.0
 11
447.6211179999997
 21
291.070486
 31
0.0
  0
LINE
  5
44E
330
A7
100
AcDbEntity
  8
CSLAYER1
  6
Continuous
 62
     2
100
AcDbLine
 10
449.3645829999997
 20
304.9999999999999
 30
0.0
 11
449.3645829999997
 21
291.9999999999999
 31
0.0
  0
LINE
  5
44F
330
A7
100
AcDbEntity
  8
CSLAYER1
  6
Continuous
 62
     2
100
AcDbLine
 10
450.1647634999998
 20
304.9999999999999
 30
0.0
 11
450.1647634999998
 21
291.070486
 31
0.0
  0
LINE
  5
450
330
A7
100
AcDbEntity
  8
CSLAYER1
  6
Continuous
 62
     2
100
AcDbLine
 10
454.0813289999999
 20
304.9999999999999
 30
0.0
 11
454.0813289999999
 21
291.9999999999999
 31
0.0
  0
LINE
  5
451
330
A7
100
AcDbEntity
  8
CSLAYER1
  6
Continuous
 62
     2
100
AcDbLine
 10
452.4147499999997
 20
304.9999999999999
 30
0.0
 11
452.4147499999997
 21
291.070486
 31
0.0
  0
LINE
  5
452
330
A7
100
AcDbEntity
  8
CSLAYER1
  6
Continuous
 62
     2
100
AcDbLine
 10
451.8960879999998
 20
304.9999999999999
 30
0.0
 11
451.8960879999998
 21
291.9999999999999
 31
0.0
  0
LINE
  5
453
330
A7
100
AcDbEntity
  8
CSLAYER1
  6
Continuous
 62
     2
100
AcDbLine
 10
454.3027124999999
 20
304.9999999999999
 30
0.0
 11
454.3027124999999
 21
291.070486
 31
0.0
  0
LINE
  5
454
330
A7
100
AcDbEntity
  8
CSLAYER1
  6
Continuous
 62
     2
100
AcDbLine
 10
455.8941004999999
 20
304.9999999999999
 30
0.0
 11
455.8941004999999
 21
291.9999999999999
 31
0.0
  0
LINE
  5
455
330
A7
100
AcDbEntity
  8
CSLAYER1
  6
Continuous
 62
     2
100
AcDbLine
 10
457.1780584999998
 20
304.9999999999999
 30
0.0
 11
457.1780584999998
 21
291.9999999999999
 31
0.0
  0
LINE
  5
456
330
A7
100
AcDbEntity
  8
CSLAYER1
  6
Continuous
 62
     2
100
AcDbLine
 10
457.9643774999998
 20
304.9999999999999
 30
0.0
 11
457.9643774999998
 21
291.9999999999999
 31
0.0
  0
LINE
  5
457
330
A7
100
AcDbEntity
  8
CSLAYER1
  6
Continuous
 62
     7
100
AcDbLine
 10
453.4999999999998
 20
282.5
 30
0.0
 11
453.4999999999998
 21
285.0099829999999
 31
0.0
  0
LINE
  5
458
330
A7
100
AcDbEntity
  8
CSLAYER1
  6
Continuous
 62
     7
100
AcDbLine
 10
458.0924204999998
 20
291.8554234999999
 30
0.0
 11
454.8674534999998
 21
288.4457660000001
 31
0.0
  0
LINE
  5
459
330
A7
100
AcDbEntity
  8
CSLAYER1
  6
Continuous
 62
     2
100
AcDbLine
 10
441.9685744999998
 20
291.070486
 30
0.0
 11
440.4999999999998
 21
291.9999999999999
 31
0.0
  0
LINE
  5
45A
330
A7
100
AcDbEntity
  8
CSLAYER1
  6
Continuous
 62
     2
100
AcDbLine
 10
443.5786374999998
 20
291.9999999999999
 30
0.0
 11
441.9685744999998
 21
291.070486
 31
0.0
  0
LINE
  5
45B
330
A7
100
AcDbEntity
  8
CSLAYER1
  6
Continuous
 62
     2
100
AcDbLine
 10
444.8611009999998
 20
291.070486
 30
0.0
 11
443.5786374999998
 21
291.9999999999999
 31
0.0
  0
LINE
  5
45C
330
A7
100
AcDbEntity
  8
CSLAYER1
  6
Continuous
 62
     2
100
AcDbLine
 10
446.5637319999997
 20
291.9999999999999
 30
0.0
 11
444.8611009999998
 21
291.070486
 31
0.0
  0
LINE
  5
45D
330
A7
100
AcDbEntity
  8
CSLAYER1
  6
Continuous
 62
     2
100
AcDbLine
 10
447.6211179999997
 20
291.070486
 30
0.0
 11
446.5637319999997
 21
291.9999999999999
 31
0.0
  0
LINE
  5
45E
330
A7
100
AcDbEntity
  8
CSLAYER1
  6
Continuous
 62
     2
100
AcDbLine
 10
449.3645829999997
 20
291.9999999999999
 30
0.0
 11
447.6211179999997
 21
291.070486
 31
0.0
  0
LINE
  5
45F
330
A7
100
AcDbEntity
  8
CSLAYER1
  6
Continuous
 62
     2
100
AcDbLine
 10
450.1647634999998
 20
291.070486
 30
0.0
 11
449.3645829999997
 21
291.9999999999999
 31
0.0
  0
LINE
  5
460
330
A7
100
AcDbEntity
  8
CSLAYER1
  6
Continuous
 62
     2
100
AcDbLine
 10
451.8960879999998
 20
291.9999999999999
 30
0.0
 11
450.1647634999998
 21
291.070486
 31
0.0
  0
LINE
  5
461
330
A7
100
AcDbEntity
  8
CSLAYER1
  6
Continuous
 62
     2
100
AcDbLine
 10
452.4147499999997
 20
291.070486
 30
0.0
 11
451.8960879999998
 21
291.9999999999999
 31
0.0
  0
LINE
  5
462
330
A7
100
AcDbEntity
  8
CSLAYER1
  6
Continuous
 62
     2
100
AcDbLine
 10
454.0813289999999
 20
291.9999999999999
 30
0.0
 11
452.4147499999997
 21
291.070486
 31
0.0
  0
LINE
  5
463
330
A7
100
AcDbEntity
  8
CSLAYER1
  6
Continuous
 62
     2
100
AcDbLine
 10
454.3027124999999
 20
291.070486
 30
0.0
 11
454.0813289999999
 21
291.9999999999999
 31
0.0
  0
LINE
  5
464
330
A7
100
AcDbEntity
  8
CSLAYER1
  6
Continuous
 62
     2
100
AcDbLine
 10
455.8941004999999
 20
291.9999999999999
 30
0.0
 11
454.3027124999999
 21
291.070486
 31
0.0
  0
LINE
  5
465
330
A7
100
AcDbEntity
  8
CSLAYER1
  6
Continuous
 62
     2
100
AcDbLine
 10
455.7431789999998
 20
291.070486
 30
0.0
 11
455.8941004999999
 21
291.9999999999999
 31
0.0
  0
LINE
  5
466
330
A7
100
AcDbEntity
  8
CSLAYER1
  6
Continuous
 62
     2
100
AcDbLine
 10
457.1780584999998
 20
291.9999999999999
 30
0.0
 11
455.7431789999998
 21
291.070486
 31
0.0
  0
LINE
  5
467
330
A7
100
AcDbEntity
  8
CSLAYER1
  6
Continuous
 62
     2
100
AcDbLine
 10
456.7656284999998
 20
291.070486
 30
0.0
 11
457.1780584999998
 21
291.9999999999999
 31
0.0
  0
LINE
  5
468
330
A7
100
AcDbEntity
  8
CSLAYER1
  6
Continuous
 62
     2
100
AcDbLine
 10
457.9643774999998
 20
291.9999999999999
 30
0.0
 11
456.7656284999998
 21
291.070486
 31
0.0
  0
LINE
  5
469
330
A7
100
AcDbEntity
  8
CSLAYER1
  6
Continuous
 62
     2
100
AcDbLine
 10
457.2847399999998
 20
291.070486
 30
0.0
 11
457.9643774999998
 21
291.9999999999999
 31
0.0
  0
LINE
  5
46A
330
A7
100
AcDbEntity
  8
CSLAYER1
  6
Continuous
 62
     2
100
AcDbLine
 10
458.1359234999998
 20
291.90823
 30
0.0
 11
457.2847399999998
 21
291.070486
 31
0.0
  0
LINE
  5
46B
330
A7
100
AcDbEntity
  8
CSLAYER1
  6
Continuous
 62
     7
100
AcDbLine
 10
458.2291659999997
 20
304.9999999999999
 30
0.0
 11
458.2291659999997
 21
292.1990015
 31
0.0
  0
LINE
  5
46C
330
A7
100
AcDbEntity
  8
CSLAYER1
  6
Continuous
 62
     7
100
AcDbLine
 10
452.9999999999998
 20
282.0
 30
0.0
 11
440.4999999999998
 21
282.0
 31
0.0
  0
LINE
  5
46D
330
A7
100
AcDbEntity
  8
CSLAYER1
  6
Continuous
 62
     7
100
AcDbLine
 10
458.3999999999999
 20
308.9999999999999
 30
0.0
 11
422.5999999999997
 21
308.9999999999999
 31
0.0
  0
LINE
  5
46E
330
A7
100
AcDbEntity
  8
CSLAYER1
  6
Continuous
 62
     7
100
AcDbLine
 10
422.7708339999999
 20
292.1990015
 30
0.0
 11
422.770834
 21
304.9999999999999
 31
0.0
  0
LINE
  5
46F
330
A7
100
AcDbEntity
  8
CSLAYER1
  6
Continuous
 62
     2
100
AcDbLine
 10
423.7152599999998
 20
291.070486
 30
0.0
 11
422.8640764999998
 21
291.90823
 31
0.0
  0
LINE
  5
470
330
A7
100
AcDbEntity
  8
CSLAYER1
  6
Continuous
 62
     2
100
AcDbLine
 10
423.0356224999999
 20
291.9999999999999
 30
0.0
 11
423.7152599999998
 21
291.070486
 31
0.0
  0
LINE
  5
471
330
A7
100
AcDbEntity
  8
CSLAYER1
  6
Continuous
 62
     2
100
AcDbLine
 10
424.2343714999998
 20
291.070486
 30
0.0
 11
423.0356224999999
 21
291.9999999999999
 31
0.0
  0
LINE
  5
472
330
A7
100
AcDbEntity
  8
CSLAYER1
  6
Continuous
 62
     2
100
AcDbLine
 10
423.8219414999999
 20
291.9999999999999
 30
0.0
 11
424.2343714999998
 21
291.070486
 31
0.0
  0
LINE
  5
473
330
A7
100
AcDbEntity
  8
CSLAYER1
  6
Continuous
 62
     2
100
AcDbLine
 10
425.2568209999998
 20
291.070486
 30
0.0
 11
423.8219414999999
 21
291.9999999999999
 31
0.0
  0
LINE
  5
474
330
A7
100
AcDbEntity
  8
CSLAYER1
  6
Continuous
 62
     2
100
AcDbLine
 10
425.1058994999997
 20
291.9999999999999
 30
0.0
 11
425.2568209999998
 21
291.070486
 31
0.0
  0
LINE
  5
475
330
A7
100
AcDbEntity
  8
CSLAYER1
  6
Continuous
 62
     2
100
AcDbLine
 10
426.6972874999997
 20
291.070486
 30
0.0
 11
425.1058994999997
 21
291.9999999999999
 31
0.0
  0
LINE
  5
476
330
A7
100
AcDbEntity
  8
CSLAYER1
  6
Continuous
 62
     2
100
AcDbLine
 10
426.9186709999997
 20
291.9999999999999
 30
0.0
 11
426.6972874999997
 21
291.070486
 31
0.0
  0
LINE
  5
477
330
A7
100
AcDbEntity
  8
CSLAYER1
  6
Continuous
 62
     2
100
AcDbLine
 10
428.5852499999999
 20
291.070486
 30
0.0
 11
426.9186709999997
 21
291.9999999999999
 31
0.0
  0
LINE
  5
478
330
A7
100
AcDbEntity
  8
CSLAYER1
  6
Continuous
 62
     2
100
AcDbLine
 10
429.103912
 20
291.9999999999999
 30
0.0
 11
428.5852499999999
 21
291.070486
 31
0.0
  0
LINE
  5
479
330
A7
100
AcDbEntity
  8
CSLAYER1
  6
Continuous
 62
     2
100
AcDbLine
 10
430.8352364999999
 20
291.070486
 30
0.0
 11
429.103912
 21
291.9999999999999
 31
0.0
  0
LINE
  5
47A
330
A7
100
AcDbEntity
  8
CSLAYER1
  6
Continuous
 62
     2
100
AcDbLine
 10
431.635417
 20
291.9999999999999
 30
0.0
 11
430.8352364999999
 21
291.070486
 31
0.0
  0
LINE
  5
47B
330
A7
100
AcDbEntity
  8
CSLAYER1
  6
Continuous
 62
     2
100
AcDbLine
 10
433.378882
 20
291.070486
 30
0.0
 11
431.635417
 21
291.9999999999999
 31
0.0
  0
LINE
  5
47C
330
A7
100
AcDbEntity
  8
CSLAYER1
  6
Continuous
 62
     2
100
AcDbLine
 10
434.436268
 20
291.9999999999999
 30
0.0
 11
433.378882
 21
291.070486
 31
0.0
  0
LINE
  5
47D
330
A7
100
AcDbEntity
  8
CSLAYER1
  6
Continuous
 62
     2
100
AcDbLine
 10
436.138899
 20
291.070486
 30
0.0
 11
434.436268
 21
291.9999999999999
 31
0.0
  0
LINE
  5
47E
330
A7
100
AcDbEntity
  8
CSLAYER1
  6
Continuous
 62
     2
100
AcDbLine
 10
437.4213624999998
 20
291.9999999999999
 30
0.0
 11
436.138899
 21
291.070486
 31
0.0
  0
LINE
  5
47F
330
A7
100
AcDbEntity
  8
CSLAYER1
  6
Continuous
 62
     2
100
AcDbLine
 10
439.0314254999999
 20
291.070486
 30
0.0
 11
437.4213624999998
 21
291.9999999999999
 31
0.0
  0
LINE
  5
480
330
A7
100
AcDbEntity
  8
CSLAYER1
  6
Continuous
 62
     2
100
AcDbLine
 10
440.4999999999998
 20
291.9999999999999
 30
0.0
 11
439.0314254999999
 21
291.070486
 31
0.0
  0
LINE
  5
481
330
A7
100
AcDbEntity
  8
CSLAYER1
  6
Continuous
 62
     7
100
AcDbLine
 10
426.1325464999998
 20
288.4457660000001
 30
0.0
 11
422.9075794999998
 21
291.8554234999999
 31
0.0
  0
LINE
  5
482
330
A7
100
AcDbEntity
  8
CSLAYER1
  6
Continuous
 62
     7
100
AcDbLine
 10
427.4999999999999
 20
285.0099829999999
 30
0.0
 11
427.4999999999999
 21
282.5
 31
0.0
  0
LINE
  5
483
330
A7
100
AcDbEntity
  8
CSLAYER1
  6
Continuous
 62
     2
100
AcDbLine
 10
423.0356224999999
 20
291.9999999999999
 30
0.0
 11
423.0356224999999
 21
304.9999999999999
 31
0.0
  0
LINE
  5
484
330
A7
100
AcDbEntity
  8
CSLAYER1
  6
Continuous
 62
     2
100
AcDbLine
 10
423.8219414999999
 20
291.9999999999999
 30
0.0
 11
423.8219414999999
 21
304.9999999999999
 31
0.0
  0
LINE
  5
485
330
A7
100
AcDbEntity
  8
CSLAYER1
  6
Continuous
 62
     2
100
AcDbLine
 10
425.1058994999997
 20
291.9999999999999
 30
0.0
 11
425.1058994999997
 21
304.9999999999999
 31
0.0
  0
LINE
  5
486
330
A7
100
AcDbEntity
  8
CSLAYER1
  6
Continuous
 62
     2
100
AcDbLine
 10
426.6972874999997
 20
291.070486
 30
0.0
 11
426.6972874999997
 21
304.9999999999999
 31
0.0
  0
LINE
  5
487
330
A7
100
AcDbEntity
  8
CSLAYER1
  6
Continuous
 62
     2
100
AcDbLine
 10
429.103912
 20
291.9999999999999
 30
0.0
 11
429.103912
 21
304.9999999999999
 31
0.0
  0
LINE
  5
488
330
A7
100
AcDbEntity
  8
CSLAYER1
  6
Continuous
 62
     2
100
AcDbLine
 10
428.5852499999999
 20
291.070486
 30
0.0
 11
428.5852499999999
 21
304.9999999999999
 31
0.0
  0
LINE
  5
489
330
A7
100
AcDbEntity
  8
CSLAYER1
  6
Continuous
 62
     2
100
AcDbLine
 10
426.9186709999997
 20
291.9999999999999
 30
0.0
 11
426.9186709999997
 21
304.9999999999999
 31
0.0
  0
LINE
  5
48A
330
A7
100
AcDbEntity
  8
CSLAYER1
  6
Continuous
 62
     2
100
AcDbLine
 10
430.8352364999999
 20
291.070486
 30
0.0
 11
430.8352364999999
 21
304.9999999999999
 31
0.0
  0
LINE
  5
48B
330
A7
100
AcDbEntity
  8
CSLAYER1
  6
Continuous
 62
     2
100
AcDbLine
 10
431.635417
 20
291.9999999999999
 30
0.0
 11
431.635417
 21
304.9999999999999
 31
0.0
  0
LINE
  5
48C
330
A7
100
AcDbEntity
  8
CSLAYER1
  6
Continuous
 62
     2
100
AcDbLine
 10
433.378882
 20
291.070486
 30
0.0
 11
433.378882
 21
304.9999999999999
 31
0.0
  0
LINE
  5
48D
330
A7
100
AcDbEntity
  8
CSLAYER1
  6
Continuous
 62
     2
100
AcDbLine
 10
434.436268
 20
291.9999999999999
 30
0.0
 11
434.436268
 21
304.9999999999999
 31
0.0
  0
LINE
  5
48E
330
A7
100
AcDbEntity
  8
CSLAYER1
  6
Continuous
 62
     2
100
AcDbLine
 10
436.138899
 20
291.070486
 30
0.0
 11
436.138899
 21
304.9999999999999
 31
0.0
  0
LINE
  5
48F
330
A7
100
AcDbEntity
  8
CSLAYER1
  6
Continuous
 62
     2
100
AcDbLine
 10
437.4213624999998
 20
291.9999999999999
 30
0.0
 11
437.4213624999998
 21
304.9999999999999
 31
0.0
  0
LINE
  5
490
330
A7
100
AcDbEntity
  8
CSLAYER1
  6
Continuous
 62
     2
100
AcDbLine
 10
439.0314254999999
 20
291.070486
 30
0.0
 11
439.0314254999999
 21
304.9999999999999
 31
0.0
  0
LINE
  5
491
330
A7
100
AcDbEntity
  8
CSLAYER1
  6
Continuous
 62
     7
100
AcDbLine
 10
422.0999999999997
 20
308.4999999999999
 30
0.0
 11
422.0999999999997
 21
305.4999999999999
 31
0.0
  0
LINE
  5
492
330
A7
100
AcDbEntity
  8
CSLAYER1
  6
Continuous
 62
     7
100
AcDbLine
 10
422.5999999999997
 20
304.9999999999999
 30
0.0
 11
458.3999999999999
 21
304.9999999999999
 31
0.0
  0
LINE
  5
493
330
A7
100
AcDbEntity
  8
CSLAYER1
  6
Continuous
 62
     7
100
AcDbLine
 10
452.9999999999998
 20
287.0
 30
0.0
 11
427.9999999999999
 21
287.0
 31
0.0
  0
ARC
  5
494
330
A7
100
AcDbEntity
  8
CSLAYER1
  6
Continuous
 62
     7
100
AcDbCircle
 10
452.9999999999998
 20
282.5
 30
0.0
 40
0.5
100
AcDbArc
 50
270.0
 51
0.0
  0
ARC
  5
495
330
A7
100
AcDbEntity
  8
CSLAYER1
  6
Continuous
 62
     7
100
AcDbCircle
 10
458.3999999999999
 20
308.4999999999999
 30
0.0
 40
0.5
100
AcDbArc
 50
0.0
 51
90.0
  0
ARC
  5
496
330
A7
100
AcDbEntity
  8
CSLAYER1
  6
Continuous
 62
     7
100
AcDbCircle
 10
458.3999999999999
 20
305.4999999999999
 30
0.0
 40
0.5
100
AcDbArc
 50
270.0
 51
0.0
  0
ARC
  5
497
330
A7
100
AcDbEntity
  8
CSLAYER1
  6
Continuous
 62
     7
100
AcDbCircle
 10
458.4999999999998
 20
285.0099829999999
 30
0.0
 40
4.999999999999813
100
AcDbArc
 50
136.5945499999988
 51
180.0
  0
ARC
  5
498
330
A7
100
AcDbEntity
  8
CSLAYER1
  6
Continuous
 62
     7
100
AcDbCircle
 10
457.7291659999997
 20
292.1990015
 30
0.0
 40
0.4999999999999657
100
AcDbArc
 50
316.5945500000007
 51
0.0
  0
ARC
  5
499
330
A7
100
AcDbEntity
  8
CSLAYER1
  6
Continuous
 62
     7
100
AcDbCircle
 10
423.2708339999999
 20
292.1990015
 30
0.0
 40
0.5
100
AcDbArc
 50
180.0
 51
223.4054499999993
  0
ARC
  5
49A
330
A7
100
AcDbEntity
  8
CSLAYER1
  6
Continuous
 62
     7
100
AcDbCircle
 10
422.4999999999998
 20
285.0099829999999
 30
0.0
 40
5.000000000000114
100
AcDbArc
 50
0.0
 51
43.40545000000074
  0
ARC
  5
49B
330
A7
100
AcDbEntity
  8
CSLAYER1
  6
Continuous
 62
     7
100
AcDbCircle
 10
422.5999999999997
 20
305.4999999999999
 30
0.0
 40
0.5
100
AcDbArc
 50
180.0
 51
270.0
  0
ARC
  5
49C
330
A7
100
AcDbEntity
  8
CSLAYER1
  6
Continuous
 62
     7
100
AcDbCircle
 10
422.5999999999997
 20
308.4999999999999
 30
0.0
 40
0.5
100
AcDbArc
 50
90.0
 51
180.0
  0
ARC
  5
49D
330
A7
100
AcDbEntity
  8
CSLAYER1
  6
Continuous
 62
     7
100
AcDbCircle
 10
427.9999999999999
 20
282.5
 30
0.0
 40
0.5
100
AcDbArc
 50
180.0
 51
269.999999999987
  0
ENDBLK
  5
A9
330
A7
100
AcDbEntity
  8
0
100
AcDbBlockEnd
  0
BLOCK
  5
AE
330
AA
100
AcDbEntity
  8
0
100
AcDbBlockBegin
  2
T17-4F
 70
     0
 10
785.5787646887546
 20
531.4946618709109
 30
0.0
  3
T17-4F
  1

  0
INSERT
  5
AB
330
AA
100
AcDbEntity
  8
CSLAYER1
100
AcDbBlockReference
  2
T17-4F-1
 10
353.4999999999999
 20
373.0
 30
0.0
  0
INSERT
  5
AC
330
AA
100
AcDbEntity
  8
CSLAYER1
100
AcDbBlockReference
  2
T17-4F-2
 10
353.4999999999999
 20
373.0
 30
0.0
  0
INSERT
  5
AD
330
AA
100
AcDbEntity
  8
CSLAYER1
100
AcDbBlockReference
  2
T17-4F-3
 10
353.4999999999999
 20
373.0
 30
0.0
  0
LINE
  5
49E
330
AA
100
AcDbEntity
  8
1
  6
PHANTOM
 62
     4
100
AcDbLine
 10
440.4999999999998
 20
336.5
 30
0.0
 11
440.4999999999998
 21
279.0
 31
0.0
  0
ENDBLK
  5
AF
330
AA
100
AcDbEntity
  8
0
100
AcDbBlockEnd
  0
BLOCK
  5
4CA
330
4C3
100
AcDbEntity
  8
0
100
AcDbBlockBegin
  2
*D28
 70
     1
 10
0.0
 20
0.0
 30
0.0
  3
*D28
  1

  0
LINE
  5
4C4
330
4C3
100
AcDbEntity
  8
1
  6
Continuous
 62
     2
100
AcDbLine
 10
161.980983917543
 20
417.1495274089176
 30
0.0
 11
282.9809839175431
 21
417.1495274089176
 31
0.0
  0
LINE
  5
4C5
330
4C3
100
AcDbEntity
  8
1
  6
Continuous
 62
     2
100
AcDbLine
 10
161.980983917543
 20
453.3995274089176
 30
0.0
 11
161.980983917543
 21
414.1495274089176
 31
0.0
  0
LINE
  5
4C6
330
4C3
100
AcDbEntity
  8
1
  6
Continuous
 62
     2
100
AcDbLine
 10
282.980983917543
 20
453.3995274089176
 30
0.0
 11
282.980983917543
 21
414.1495274089176
 31
0.0
  0
SOLID
  5
4C7
330
4C3
100
AcDbEntity
  8
1
 62
     2
100
AcDbTrace
 10
172.480983917543
 20
418.5318786335853
 30
0.0
 11
172.480983917543
 21
415.7671761842499
 31
0.0
 12
161.980983917543
 22
417.1495274089176
 32
0.0
 13
161.980983917543
 23
417.1495274089176
 33
0.0
  0
SOLID
  5
4C8
330
4C3
100
AcDbEntity
  8
1
 62
     2
100
AcDbTrace
 10
272.4809839175431
 20
415.7671761842499
 30
0.0
 11
272.4809839175431
 21
418.5318786335853
 31
0.0
 12
282.9809839175431
 22
417.1495274089176
 32
0.0
 13
282.9809839175431
 23
417.1495274089176
 33
0.0
  0
MTEXT
  5
4C9
330
4C3
100
AcDbEntity
  8
1
 62
     7
100
AcDbMText
 10
213.030983917543
 20
420.1495274089176
 30
0.0
 40
10.5
 41
0.0
 71
     7
 72
     1
  1
121
  7
CONVERTER_14
 11
0.9999999999970619
 21
2.424068405545306E-6
 31
0.0
 73
     1
 44
0.60024009603842
  0
ENDBLK
  5
4CB
330
4C3
100
AcDbEntity
  8
0
100
AcDbBlockEnd
  0
BLOCK
  5
4D5
330
4CE
100
AcDbEntity
  8
0
100
AcDbBlockBegin
  2
*D29
 70
     1
 10
0.0
 20
0.0
 30
0.0
  3
*D29
  1

  0
LINE
  5
4CF
330
4CE
100
AcDbEntity
  8
1
  6
Continuous
 62
     2
100
AcDbLine
 10
422.0999999999997
 20
252.0
 30
0.0
 11
458.8999999999999
 21
252.0
 31
0.0
  0
LINE
  5
4D0
330
4CE
100
AcDbEntity
  8
1
  6
Continuous
 62
     2
100
AcDbLine
 10
422.0999999999997
 20
305.5
 30
0.0
 11
422.0999999999997
 21
249.0
 31
0.0
  0
LINE
  5
4D1
330
4CE
100
AcDbEntity
  8
1
  6
Continuous
 62
     2
100
AcDbLine
 10
458.8999999999999
 20
305.5
 30
0.0
 11
458.8999999999999
 21
249.0
 31
0.0
  0
SOLID
  5
4D2
330
4CE
100
AcDbEntity
  8
1
 62
     2
100
AcDbTrace
 10
432.5999999999997
 20
253.3823512246676
 30
0.0
 11
432.5999999999997
 21
250.6176487753324
 31
0.0
 12
422.0999999999997
 22
252.0
 32
0.0
 13
422.0999999999997
 23
252.0
 33
0.0
  0
SOLID
  5
4D3
330
4CE
100
AcDbEntity
  8
1
 62
     2
100
AcDbTrace
 10
448.3999999999999
 20
250.6176487753324
 30
0.0
 11
448.3999999999999
 21
253.3823512246676
 31
0.0
 12
458.8999999999999
 22
252.0
 32
0.0
 13
458.8999999999999
 23
252.0
 33
0.0
  0
MTEXT
  5
4D4
330
4CE
100
AcDbEntity
  8
1
 62
     7
100
AcDbMText
 10
430.3150000000251
 20
254.999979128771
 30
0.0
 40
10.5
 41
0.0
 71
     7
 72
     1
  1
\C7;{\Fgdt;n}\C7;37
  7
CONVERTER_14
 11
0.9999999999970619
 21
2.424068405545306E-6
 31
0.0
 73
     1
 44
0.60024009603842
  0
ENDBLK
  5
4D6
330
4CE
100
AcDbEntity
  8
0
100
AcDbBlockEnd
  0
BLOCK
  5
4E0
330
4D9
100
AcDbEntity
  8
0
100
AcDbBlockBegin
  2
*D30
 70
     1
 10
0.0
 20
0.0
 30
0.0
  3
*D30
  1

  0
LINE
  5
4DA
330
4D9
100
AcDbEntity
  8
1
  6
Continuous
 62
     2
100
AcDbLine
 10
392.2999999999998
 20
282.0
 30
0.0
 11
392.2999999999998
 21
333.5
 31
0.0
  0
LINE
  5
4DB
330
4D9
100
AcDbEntity
  8
1
  6
Continuous
 62
     2
100
AcDbLine
 10
427.9999999999998
 20
282.0
 30
0.0
 11
389.2999999999998
 21
282.0
 31
0.0
  0
LINE
  5
4DC
330
4D9
100
AcDbEntity
  8
1
  6
Continuous
 62
     2
100
AcDbLine
 10
425.8928499999998
 20
333.5
 30
0.0
 11
389.2999999999998
 21
333.5
 31
0.0
  0
SOLID
  5
4DD
330
4D9
100
AcDbEntity
  8
1
 62
     2
100
AcDbTrace
 10
390.9176487753321
 20
292.5
 30
0.0
 11
393.6823512246675
 21
292.5
 31
0.0
 12
392.2999999999998
 22
282.0
 32
0.0
 13
392.2999999999998
 23
282.0
 33
0.0
  0
SOLID
  5
4DE
330
4D9
100
AcDbEntity
  8
1
 62
     2
100
AcDbTrace
 10
393.6823512246675
 20
323.0
 30
0.0
 11
390.9176487753321
 21
323.0
 31
0.0
 12
392.2999999999998
 22
333.5
 32
0.0
 13
392.2999999999998
 23
333.5
 33
0.0
  0
MTEXT
  5
4DF
330
4D9
100
AcDbEntity
  8
1
 62
     7
100
AcDbMText
 10
389.2999999999998
 20
301.45
 30
0.0
 40
10.5
 41
0.0
 71
     7
 72
     1
  1
51
  7
CONVERTER_14
 11
0.0
 21
1.0
 31
0.0
 73
     1
 44
0.60024009603842
  0
ENDBLK
  5
4E1
330
4D9
100
AcDbEntity
  8
0
100
AcDbBlockEnd
  0
BLOCK
  5
4EB
330
4E4
100
AcDbEntity
  8
0
100
AcDbBlockBegin
  2
*D31
 70
     1
 10
0.0
 20
0.0
 30
0.0
  3
*D31
  1

  0
LINE
  5
4E5
330
4E4
100
AcDbEntity
  8
1
  6
Continuous
 62
     2
100
AcDbLine
 10
286.5809839175428
 20
258.0
 30
0.0
 11
286.5809839175428
 21
226.0
 31
0.0
  0
LINE
  5
4E6
330
4E4
100
AcDbEntity
  8
1
  6
Continuous
 62
     2
100
AcDbLine
 10
252.480983917543
 20
258.0
 30
0.0
 11
289.5809839175428
 21
258.0
 31
0.0
  0
LINE
  5
4E7
330
4E4
100
AcDbEntity
  8
1
  6
Continuous
 62
     2
100
AcDbLine
 10
256.5809839175428
 20
226.0
 30
0.0
 11
289.5809839175428
 21
226.0
 31
0.0
  0
SOLID
  5
4E8
330
4E4
100
AcDbEntity
  8
1
 62
     2
100
AcDbTrace
 10
287.9633351422105
 20
247.5
 30
0.0
 11
285.1986326928752
 21
247.5
 31
0.0
 12
286.5809839175428
 22
258.0
 32
0.0
 13
286.5809839175428
 23
258.0
 33
0.0
  0
SOLID
  5
4E9
330
4E4
100
AcDbEntity
  8
1
 62
     2
100
AcDbTrace
 10
285.1986326928752
 20
236.5
 30
0.0
 11
287.9633351422105
 21
236.5
 31
0.0
 12
286.5809839175428
 22
226.0
 32
0.0
 13
286.5809839175428
 23
226.0
 33
0.0
  0
MTEXT
  5
4EA
330
4E4
100
AcDbEntity
  8
1
 62
     7
100
AcDbMText
 10
283.5809839175428
 20
234.125
 30
0.0
 40
10.5
 41
0.0
 71
     7
 72
     1
  1
32
  7
CONVERTER_14
 11
0.0
 21
1.0
 31
0.0
 73
     1
 44
0.60024009603842
  0
ENDBLK
  5
4EC
330
4E4
100
AcDbEntity
  8
0
100
AcDbBlockEnd
  0
BLOCK
  5
4F7
330
4EF
100
AcDbEntity
  8
0
100
AcDbBlockBegin
  2
*D32
 70
     1
 10
0.0
 20
0.0
 30
0.0
  3
*D32
  1

  0
LINE
  5
4F0
330
4EF
100
AcDbEntity
  8
1
  6
Continuous
 62
     2
100
AcDbLine
 10
543.4809839175438
 20
558.0495274089308
 30
0.0
 11
543.4809839175438
 21
459.0495274089309
 31
0.0
  0
LINE
  5
4F1
330
4EF
100
AcDbEntity
  8
1
  6
Continuous
 62
     2
100
AcDbLine
 10
543.4809839175438
 20
686.803338231738
 30
0.0
 11
543.4809839175438
 21
558.0495274089308
 31
0.0
  0
LINE
  5
4F2
330
4EF
100
AcDbEntity
  8
1
  6
Continuous
 62
     2
100
AcDbLine
 10
510.480983917544
 20
558.0495274089308
 30
0.0
 11
546.4809839175438
 21
558.0495274089308
 31
0.0
  0
LINE
  5
4F3
330
4EF
100
AcDbEntity
  8
1
  6
Continuous
 62
     2
100
AcDbLine
 10
512.480983917544
 20
459.0495274089309
 30
0.0
 11
546.4809839175438
 21
459.0495274089309
 31
0.0
  0
SOLID
  5
4F4
330
4EF
100
AcDbEntity
  8
1
 62
     2
100
AcDbTrace
 10
544.8633351422114
 20
547.5495274089308
 30
0.0
 11
542.0986326928761
 21
547.5495274089308
 31
0.0
 12
543.4809839175438
 22
558.0495274089308
 32
0.0
 13
543.4809839175438
 23
558.0495274089308
 33
0.0
  0
SOLID
  5
4F5
330
4EF
100
AcDbEntity
  8
1
 62
     2
100
AcDbTrace
 10
542.0986326928761
 20
469.5495274089309
 30
0.0
 11
544.8633351422114
 21
469.5495274089309
 31
0.0
 12
543.4809839175438
 22
459.0495274089309
 32
0.0
 13
543.4809839175438
 23
459.0495274089309
 33
0.0
  0
MTEXT
  5
4F6
330
4EF
100
AcDbEntity
  8
1
 62
     7
100
AcDbMText
 10
540.4809839175438
 20
573.1933382317379
 30
0.0
 40
10.5
 41
0.0
 71
     7
 72
     1
  1
\C7;{\Fgdt;n}\C7;99\C7;(開口寸法{\Fgdt;n}100)
  7
CONVERTER_13
 11
0.0
 21
1.0
 31
0.0
 73
     1
 44
0.45454545454545
  0
ENDBLK
  5
4F8
330
4EF
100
AcDbEntity
  8
0
100
AcDbBlockEnd
  0
BLOCK
  5
502
330
4FB
100
AcDbEntity
  8
0
100
AcDbBlockBegin
  2
*D33
 70
     1
 10
0.0
 20
0.0
 30
0.0
  3
*D33
  1

  0
LINE
  5
4FC
330
4FB
100
AcDbEntity
  8
1
  6
Continuous
 62
     2
100
AcDbLine
 10
314.0309837257852
 20
718.5495274089169
 30
0.0
 11
314.0309837257852
 21
447.1495274089176
 31
0.0
  0
LINE
  5
4FD
330
4FB
100
AcDbEntity
  8
1
  6
Continuous
 62
     2
100
AcDbLine
 10
277.5309839175431
 20
718.5495274089169
 30
0.0
 11
317.0309837257852
 21
718.5495274089169
 31
0.0
  0
LINE
  5
4FE
330
4FB
100
AcDbEntity
  8
1
  6
Continuous
 62
     2
100
AcDbLine
 10
276.730983917543
 20
447.1495274089176
 30
0.0
 11
317.0309837257852
 21
447.1495274089176
 31
0.0
  0
SOLID
  5
4FF
330
4FB
100
AcDbEntity
  8
1
 62
     2
100
AcDbTrace
 10
315.4133349504528
 20
708.0495274089169
 30
0.0
 11
312.6486325011175
 21
708.0495274089169
 31
0.0
 12
314.0309837257852
 22
718.5495274089169
 32
0.0
 13
314.0309837257852
 23
718.5495274089169
 33
0.0
  0
SOLID
  5
500
330
4FB
100
AcDbEntity
  8
1
 62
     2
100
AcDbTrace
 10
312.6486325011175
 20
457.6495274089176
 30
0.0
 11
315.4133349504528
 21
457.6495274089176
 31
0.0
 12
314.0309837257852
 22
447.1495274089176
 32
0.0
 13
314.0309837257852
 23
447.1495274089176
 33
0.0
  0
MTEXT
  5
501
330
4FB
100
AcDbEntity
  8
1
 62
     7
100
AcDbMText
 10
311.0309837257852
 20
571.8245274089172
 30
0.0
 40
10.5
 41
0.0
 71
     7
 72
     1
  1
271
  7
CONVERTER_14
 11
0.0
 21
1.0
 31
0.0
 73
     1
 44
0.60024009603842
  0
ENDBLK
  5
503
330
4FB
100
AcDbEntity
  8
0
100
AcDbBlockEnd
  0
BLOCK
  5
50D
330
506
100
AcDbEntity
  8
0
100
AcDbBlockBegin
  2
*D34
 70
     1
 10
0.0
 20
0.0
 30
0.0
  3
*D34
  1

  0
LINE
  5
507
330
506
100
AcDbEntity
  8
1
  6
Continuous
 62
     2
100
AcDbLine
 10
411.4809839175439
 20
417.1495274089176
 30
0.0
 11
513.4809839175441
 21
417.1495274089176
 31
0.0
  0
LINE
  5
508
330
506
100
AcDbEntity
  8
1
  6
Continuous
 62
     2
100
AcDbLine
 10
513.4809839175441
 20
460.0495274089309
 30
0.0
 11
513.4809839175441
 21
414.1495274089176
 31
0.0
  0
LINE
  5
509
330
506
100
AcDbEntity
  8
1
  6
Continuous
 62
     2
100
AcDbLine
 10
411.4809839175439
 20
447.1495274089176
 30
0.0
 11
411.4809839175439
 21
414.1495274089176
 31
0.0
  0
SOLID
  5
50A
330
506
100
AcDbEntity
  8
1
 62
     2
100
AcDbTrace
 10
421.9809839175439
 20
418.5318786335853
 30
0.0
 11
421.9809839175439
 21
415.7671761842499
 31
0.0
 12
411.4809839175439
 22
417.1495274089176
 32
0.0
 13
411.4809839175439
 23
417.1495274089176
 33
0.0
  0
SOLID
  5
50B
330
506
100
AcDbEntity
  8
1
 62
     2
100
AcDbTrace
 10
502.9809839175441
 20
415.7671761842499
 30
0.0
 11
502.9809839175441
 21
418.5318786335853
 31
0.0
 12
513.4809839175441
 22
417.1495274089176
 32
0.0
 13
513.4809839175441
 23
417.1495274089176
 33
0.0
  0
MTEXT
  5
50C
330
506
100
AcDbEntity
  8
1
 62
     7
100
AcDbMText
 10
446.4820535682702
 20
420.1495274089176
 30
0.0
 40
10.5
 41
0.0
 71
     7
 72
     1
  1
102
  7
CONVERTER_14
 11
0.9999999999970619
 21
2.424068405545306E-6
 31
0.0
 73
     1
 44
0.60024009603842
  0
ENDBLK
  5
50E
330
506
100
AcDbEntity
  8
0
100
AcDbBlockEnd
  0
BLOCK
  5
518
330
511
100
AcDbEntity
  8
0
100
AcDbBlockBegin
  2
*D35
 70
     1
 10
0.0
 20
0.0
 30
0.0
  3
*D35
  1

  0
LINE
  5
512
330
511
100
AcDbEntity
  8
1
  6
Continuous
 62
     2
100
AcDbLine
 10
377.4809839175438
 20
417.1495274089176
 30
0.0
 11
411.4809839175438
 21
417.1495274089176
 31
0.0
  0
LINE
  5
513
330
511
100
AcDbEntity
  8
1
  6
Continuous
 62
     2
100
AcDbLine
 10
377.4809839175439
 20
449.1495274089114
 30
0.0
 11
377.4809839175439
 21
414.1495274089176
 31
0.0
  0
LINE
  5
514
330
511
100
AcDbEntity
  8
1
  6
Continuous
 62
     2
100
AcDbLine
 10
411.4809839175439
 20
447.1495274089176
 30
0.0
 11
411.4809839175439
 21
414.1495274089176
 31
0.0
  0
SOLID
  5
515
330
511
100
AcDbEntity
  8
1
 62
     2
100
AcDbTrace
 10
387.9809839175438
 20
418.5318786335853
 30
0.0
 11
387.9809839175438
 21
415.7671761842499
 31
0.0
 12
377.4809839175438
 22
417.1495274089176
 32
0.0
 13
377.4809839175438
 23
417.1495274089176
 33
0.0
  0
SOLID
  5
516
330
511
100
AcDbEntity
  8
1
 62
     2
100
AcDbTrace
 10
400.9809839175438
 20
415.7671761842499
 30
0.0
 11
400.9809839175438
 21
418.5318786335853
 31
0.0
 12
411.4809839175438
 22
417.1495274089176
 32
0.0
 13
411.4809839175438
 23
417.1495274089176
 33
0.0
  0
MTEXT
  5
517
330
511
100
AcDbEntity
  8
1
 62
     7
100
AcDbMText
 10
386.6059839175439
 20
420.1495274089176
 30
0.0
 40
10.5
 41
0.0
 71
     7
 72
     1
  1
34
  7
CONVERTER_14
 11
0.9999999999970619
 21
2.424068405545306E-6
 31
0.0
 73
     1
 44
0.60024009603842
  0
ENDBLK
  5
519
330
511
100
AcDbEntity
  8
0
100
AcDbBlockEnd
  0
BLOCK
  5
523
330
51C
100
AcDbEntity
  8
0
100
AcDbBlockBegin
  2
*D36
 70
     1
 10
0.0
 20
0.0
 30
0.0
  3
*D36
  1

  0
LINE
  5
51D
330
51C
100
AcDbEntity
  8
1
  6
Continuous
 62
     2
100
AcDbLine
 10
361.496851447946
 20
590.0495274089176
 30
0.0
 11
361.496851447946
 21
447.1495274089175
 31
0.0
  0
LINE
  5
51E
330
51C
100
AcDbEntity
  8
1
  6
Continuous
 62
     2
100
AcDbLine
 10
387.7809839175439
 20
590.0495274089176
 30
0.0
 11
358.496851447946
 21
590.0495274089176
 31
0.0
  0
LINE
  5
51F
330
51C
100
AcDbEntity
  8
1
  6
Continuous
 62
     2
100
AcDbLine
 10
400.9809839175441
 20
447.1495274089175
 30
0.0
 11
358.496851447946
 21
447.1495274089175
 31
0.0
  0
SOLID
  5
520
330
51C
100
AcDbEntity
  8
1
 62
     2
100
AcDbTrace
 10
362.8792026726137
 20
579.5495274089176
 30
0.0
 11
360.1145002232784
 21
579.5495274089176
 31
0.0
 12
361.496851447946
 22
590.0495274089176
 32
0.0
 13
361.496851447946
 23
590.0495274089176
 33
0.0
  0
SOLID
  5
521
330
51C
100
AcDbEntity
  8
1
 62
     2
100
AcDbTrace
 10
360.1145002232784
 20
457.6495274089175
 30
0.0
 11
362.8792026726137
 21
457.6495274089175
 31
0.0
 12
361.496851447946
 22
447.1495274089175
 32
0.0
 13
361.496851447946
 23
447.1495274089175
 33
0.0
  0
MTEXT
  5
522
330
51C
100
AcDbEntity
  8
1
 62
     7
100
AcDbMText
 10
358.496851447946
 20
509.7894140754657
 30
0.0
 40
10.5
 41
0.0
 71
     7
 72
     1
  1
143
  7
CONVERTER_14
 11
0.0
 21
1.0
 31
0.0
 73
     1
 44
0.60024009603842
  0
ENDBLK
  5
524
330
51C
100
AcDbEntity
  8
0
100
AcDbBlockEnd
  0
ENDSEC
  0
SECTION
  2
ENTITIES
  0
INSERT
  5
B0
330
1F
100
AcDbEntity
  8
0
100
AcDbBlockReference
  2
V963AD-0AX
 10
-23.292875974687
 20
303.5495274089158
 30
0.0
  0
INSERT
  5
B1
330
1F
100
AcDbEntity
  8
1
100
AcDbBlockReference
  2
開示A4
 10
0.0
 20
0.0
 30
0.0
 41
3.0
 42
3.0
 43
3.0
  0
INSERT
  5
B2
330
1F
100
AcDbEntity
  8
1
100
AcDbBlockReference
  2
89-218AX
 10
162.7641321948378
 20
-249.299526744653
 30
0.0
  0
INSERT
  5
B3
330
1F
100
AcDbEntity
  8
1
100
AcDbBlockReference
  2
T17-4F
 10
785.5787646887546
 20
531.4946618709109
 30
0.0
  0
LINE
  5
49F
330
1F
100
AcDbEntity
  8
1
  6
DASH_CENTER
 62
     2
100
AcDbLine
 10
222.480983917543
 20
727.5495274089169
 30
0.0
 11
222.480983917543
 21
438.1495274089176
 31
0.0
  0
LINE
  5
4A0
330
1F
100
AcDbEntity
  8
1
  6
DASH_CENTER
 62
     2
100
AcDbLine
 10
192.480983917543
 20
277.0
 30
0.0
 11
192.480983917543
 21
327.0
 31
0.0
  0
LINE
  5
4A1
330
1F
100
AcDbEntity
  8
1
  6
DASH_CENTER
 62
     2
100
AcDbLine
 10
222.480983917543
 20
327.0
 30
0.0
 11
222.480983917543
 21
277.0
 31
0.0
  0
LINE
  5
4A2
330
1F
100
AcDbEntity
  8
1
  6
DASH_CENTER
 62
     2
100
AcDbLine
 10
252.480983917543
 20
277.0
 30
0.0
 11
252.480983917543
 21
327.0
 31
0.0
  0
LINE
  5
4A3
330
1F
100
AcDbEntity
  8
1
  6
DASH_CENTER
 62
     2
100
AcDbLine
 10
192.480983917543
 20
267.0
 30
0.0
 11
192.480983917543
 21
217.0
 31
0.0
  0
LINE
  5
4A4
330
1F
100
AcDbEntity
  8
1
  6
DASH_CENTER
 62
     2
100
AcDbLine
 10
222.480983917543
 20
267.0
 30
0.0
 11
222.480983917543
 21
217.0
 31
0.0
  0
LINE
  5
4A5
330
1F
100
AcDbEntity
  8
1
  6
DASH_CENTER
 62
     2
100
AcDbLine
 10
252.480983917543
 20
217.0
 30
0.0
 11
252.480983917543
 21
267.0
 31
0.0
  0
LINE
  5
4A6
330
1F
100
AcDbEntity
  8
1
  6
DASH_CENTER
 62
     2
100
AcDbLine
 10
440.4999999999998
 20
342.5
 30
0.0
 11
440.4999999999998
 21
273.0
 31
0.0
  0
LINE
  5
4A7
330
1F
100
AcDbEntity
  8
1
  6
DASH_CENTER
 62
     2
100
AcDbLine
 10
181.6809839175427
 20
514.0495274089176
 30
0.0
 11
240.480983917543
 21
514.0495274089176
 31
0.0
  0
LINE
  5
4A8
330
1F
100
AcDbEntity
  8
1
  6
DASH_CENTER
 62
     2
100
AcDbLine
 10
258.480983917543
 20
572.5495274089176
 30
0.0
 11
276.480983917543
 21
572.5495274089176
 31
0.0
  0
LINE
  5
4A9
330
1F
100
AcDbEntity
  8
1
  6
DASH_CENTER
 62
     2
100
AcDbLine
 10
267.480983917543
 20
563.5495274089176
 30
0.0
 11
267.480983917543
 21
581.5495274089176
 31
0.0
  0
LINE
  5
4AA
330
1F
100
AcDbEntity
  8
1
  6
DASH_CENTER
 62
     2
100
AcDbLine
 10
177.480983917543
 20
563.5495274089176
 30
0.0
 11
177.480983917543
 21
581.5495274089176
 31
0.0
  0
LINE
  5
4AB
330
1F
100
AcDbEntity
  8
1
  6
DASH_CENTER
 62
     2
100
AcDbLine
 10
168.480983917543
 20
572.5495274089176
 30
0.0
 11
186.480983917543
 21
572.5495274089176
 31
0.0
  0
LINE
  5
4AC
330
1F
100
AcDbEntity
  8
1
  6
DASH_CENTER
 62
     2
100
AcDbLine
 10
187.1809841093008
 20
583.5495274089168
 30
0.0
 11
152.1809841093008
 21
583.5495274089168
 31
0.0
  0
LINE
  5
4AD
330
1F
100
AcDbEntity
  8
1
  6
DASH_CENTER
 62
     2
100
AcDbLine
 10
260.5809835340273
 20
583.5495274089168
 30
0.0
 11
284.3809843010586
 21
583.5495274089168
 31
0.0
  0
ARC
  5
4AE
330
1F
100
AcDbEntity
  8
0
  6
Continuous
 62
     2
100
AcDbCircle
 10
350.3026563698709
 20
102.3653105885059
 30
0.0
 40
24.49440000000041
100
AcDbArc
 50
136.4098669615777
 51
227.6527776629438
  0
CIRCLE
  5
4AF
102
{ACAD_REACTORS
330
4B0
102
}
330
1F
100
AcDbEntity
  8
1
 62
     2
100
AcDbCircle
 10
247.5009839175427
 20
461.549527408918
 30
0.0
 40
2.625
  0
HATCH
  5
4B0
330
1F
100
AcDbEntity
  8
1
 62
     2
100
AcDbHatch
 10
0.0
 20
0.0
 30
0.0
210
0.0
220
0.0
230
1.0
  2
SOLID
 70
     1
 71
     1
 91
        1
 92
        1
 93
        1
 72
     2
 10
247.5009839175427
 20
461.549527408918
 40
2.625
 50
0.0
 51
360.0
 73
     1
 97
        1
330
4AF
 75
     0
 76
     1
 98
        0
  0
LEADER
  5
4B1
330
1F
100
AcDbEntity
  8
1
  6
Continuous
 62
     2
100
AcDbLeader
  3
Standard
 71
     0
 76
     3
 10
247.5009839175427
 20
461.549527408918
 30
0.0
 10
287.5690925993031
 20
392.1495274089176
 30
0.0
 10
366.2493933308166
 20
392.1495274089176
 30
0.0
  0
SOLID
  5
4B2
330
1F
100
AcDbEntity
  8
1
 62
     2
100
AcDbTrace
 10
245.4281351950578
 20
232.172192505233
 30
0.0
 11
243.0338326400283
 21
233.5545437299006
 31
0.0
 12
249.480983917543
 22
241.9566348573034
 32
0.0
 13
249.480983917543
 23
241.9566348573034
 33
0.0
  0
LEADER
  5
4B3
330
1F
100
AcDbEntity
  8
1
  6
Continuous
 62
     2
100
AcDbLeader
  3
Standard
 71
     0
 76
     3
 10
249.480983917543
 20
241.9566348573034
 30
0.0
 10
222.9479084116296
 20
196.0
 30
0.0
 10
173.9999999999999
 20
196.0
 30
0.0
  0
MTEXT
  5
4B4
330
1F
100
AcDbEntity
  8
1
 62
     7
100
AcDbMText
 10
171.0
 20
62.25000000000003
 30
0.0
 40
10.5
 41
0.0
 71
     5
 72
     1
  1
シンプレット
  7
CONVERTER_13
 73
     1
 44
0.54545454545455
  0
MTEXT
  5
4B5
330
1F
100
AcDbEntity
  8
1
 62
     7
100
AcDbMText
 10
171.0
 20
74.25000000000003
 30
0.0
 40
10.5
 41
0.0
 71
     5
 72
     1
  1
水道用コンセント
  7
CONVERTER_13
 73
     1
 44
0.54545454545455
  0
MTEXT
  5
4B6
330
1F
100
AcDbEntity
  8
1
 62
     2
100
AcDbMText
 10
336.7382639168426
 20
91.50000000000003
 30
0.0
 40
9.0
 41
0.0
 71
     4
 72
     1
  1
ポリブテン管 JIS K 6778
  7
CONVERTER_13
 73
     1
 44
0.45454545454545
  0
MTEXT
  5
4B7
330
1F
100
AcDbEntity
  8
1
 62
     2
100
AcDbMText
 10
298.4482575869895
 20
100.6946849597622
 30
0.0
 40
9.0
 41
0.0
 71
     5
 72
     1
  1
適用管種
  7
CONVERTER_13
 73
     1
 44
0.54545454545455
  0
MTEXT
  5
4B9
330
1F
100
AcDbEntity
  8
0
 62
     7
100
AcDbMText
 10
171.0000000000002
 20
42.74999999999981
 30
0.0
 40
10.5
 41
0.0
 71
     5
 72
     1
  1
V96301ADS-3
  7
CONVERTER_14
 73
     1
 44
0.7202881152461
  0
MTEXT
  5
4BA
330
1F
100
AcDbEntity
  8
1
 62
     7
100
AcDbMText
 10
255.7500000000003
 20
50.99999999999994
 30
0.0
 40
10.5
 41
0.0
 71
     5
 72
     1
  1
1
  7
CONVERTER_14
 73
     1
 44
0.7202881152461
  0
MTEXT
  5
4BB
330
1F
100
AcDbEntity
  8
1
 62
     7
100
AcDbMText
 10
281.2500000000003
 20
50.99999999999994
 30
0.0
 40
10.5
 41
0.0
 71
     5
 72
     1
  1
3
  7
CONVERTER_14
 73
     1
 44
0.7202881152461
  0
MTEXT
  5
4BC
330
1F
100
AcDbEntity
  8
1
 62
     2
100
AcDbMText
 10
336.7382639168426
 20
112.5
 30
0.0
 40
9.0
 41
0.0
 71
     4
 72
     1
  1
架橋ポリエチレン管 JIS K 6769 PN15 M種 単層
  7
CONVERTER_13
 73
     1
 44
0.45454545454545
  0
MTEXT
  5
4BD
330
1F
100
AcDbEntity
  8
1
 62
     2
100
AcDbMText
 10
336.7382639168426
 20
102.0
 30
0.0
 40
9.0
 41
0.0
 71
     4
 72
     1
  1
水道用架橋ポリエチレン管 JIS K 6787 M種 単層
  7
CONVERTER_13
 73
     1
 44
0.45454545454545
  0
MTEXT
  5
4BE
330
1F
100
AcDbEntity
  8
1
 62
     2
100
AcDbMText
 10
102.0
 20
112.5
 30
0.0
 40
9.0
 41
0.0
 71
     4
 72
     1
  1
呼び径 13A
  7
CONVERTER_13
 73
     1
 44
0.54545454545455
  0
MTEXT
  5
4BF
330
1F
100
AcDbEntity
  8
1
 62
     2
100
AcDbMText
 10
102.0
 20
102.0
 30
0.0
 40
9.0
 41
0.0
 71
     4
 72
     1
  1
日本水道協会認証登録品
  7
CONVERTER_13
 73
     1
 44
0.54545454545455
  0
MTEXT
  5
4C0
330
1F
100
AcDbEntity
  8
1
 62
     2
100
AcDbMText
 10
102.0
 20
91.50000000000003
 30
0.0
 40
9.0
 41
0.0
 71
     4
 72
     1
  1
登録番号 C-284
  7
CONVERTER_13
 73
     1
 44
0.54545454545455
  0
MTEXT
  5
4C1
330
1F
100
AcDbEntity
  8
1
 62
     7
100
AcDbMText
 10
328.14793092419
 20
402.6495274089176
 30
0.0
 40
10.5
 41
0.0
 71
     5
 72
     1
  1
JWWAシール
  7
CONVERTER_13
 73
     1
 44
0.54545454545455
  0
MTEXT
  5
4C2
330
1F
100
AcDbEntity
  8
1
 62
     7
100
AcDbMText
 10
199.9759020259349
 20
205.0
 30
0.0
 40
10.5
 41
0.0
 71
     5
 72
     1
  1
4,1X32
  7
CONVERTER_14
 73
     1
 44
0.7202881152461
  0
DIMENSION
  5
4CD
330
1F
100
AcDbEntity
  8
1
100
AcDbDimension
  2
*D28
 10
161.980983917543
 20
417.1495274089176
 30
0.0
 11
222.480983917543
 21
425.3995274089176
 31
0.0
 70
    32
  1
<>
 71
     5
 42
-1.0
 53
0.00013888888889
  3
ME10_DIM_10
100
AcDbAlignedDimension
 13
282.980983917543
 23
453.3995274089175
 33
0.0
 14
161.980983917543
 24
453.3995274089175
 34
0.0
100
AcDbRotatedDimension
  0
DIMENSION
  5
4D8
330
1F
100
AcDbEntity
  8
1
100
AcDbDimension
  2
*D29
 10
422.0999999999997
 20
252.0
 30
0.0
 11
440.4999999999998
 21
260.25
 31
0.0
 70
    32
  1
{\Fgdt;n}37
 71
     5
 42
-1.0
 53
0.00013888888889
  3
ME10_DIM_11
100
AcDbAlignedDimension
 13
458.8999999999999
 23
305.4999999999999
 33
0.0
 14
422.0999999999996
 24
305.4999999999999
 34
0.0
100
AcDbRotatedDimension
  0
DIMENSION
  5
4E3
330
1F
100
AcDbEntity
  8
1
100
AcDbDimension
  2
*D30
 10
392.2999999999998
 20
282.0
 30
0.0
 11
384.0499999999998
 21
307.75
 31
0.0
 70
    32
  1
51
 71
     5
 42
-1.0
 53
90.0
  3
ME10_DIM_12
100
AcDbAlignedDimension
 13
425.8928499999997
 23
333.5
 33
0.0
 14
427.9999999999997
 24
282.0
 34
0.0
 50
90.0
100
AcDbRotatedDimension
  0
DIMENSION
  5
4EE
330
1F
100
AcDbEntity
  8
1
100
AcDbDimension
  2
*D31
 10
286.5809839175428
 20
258.0
 30
0.0
 11
278.3309839175428
 21
242.0
 31
0.0
 70
    32
  1
<>
 71
     5
 42
-1.0
 53
90.0
  3
ME10_DIM_13
100
AcDbAlignedDimension
 13
256.5809839175428
 23
226.0
 33
0.0
 14
252.480983917543
 24
258.0
 34
0.0
 50
90.0
100
AcDbRotatedDimension
  0
DIMENSION
  5
4FA
330
1F
100
AcDbEntity
  8
1
100
AcDbDimension
  2
*D32
 10
543.4809839175438
 20
558.0495274089308
 30
0.0
 11
535.2309839175438
 21
628.003338231738
 31
0.0
 70
    32
  1
<>
 71
     5
 42
-1.0
 53
90.0
  3
ME10_DIM_14
100
AcDbAlignedDimension
 13
512.480983917544
 23
459.0495274089308
 33
0.0
 14
510.480983917544
 24
558.0495274089308
 34
0.0
 50
90.0
100
AcDbRotatedDimension
  0
DIMENSION
  5
505
330
1F
100
AcDbEntity
  8
1
100
AcDbDimension
  2
*D33
 10
314.0309837257852
 20
718.5495274089169
 30
0.0
 11
305.7809837257852
 21
582.8495274089172
 31
0.0
 70
    32
  1
271
 71
     5
 42
-1.0
 53
90.0
  3
ME10_DIM_15
100
AcDbAlignedDimension
 13
276.730983917543
 23
447.1495274089176
 33
0.0
 14
277.5309839175432
 24
718.5495274089169
 34
0.0
 50
90.0
100
AcDbRotatedDimension
  0
DIMENSION
  5
510
330
1F
100
AcDbEntity
  8
1
100
AcDbDimension
  2
*D34
 10
411.4809839175439
 20
417.1495274089176
 30
0.0
 11
457.5070535682702
 21
425.3995274089176
 31
0.0
 70
    32
  1
<>
 71
     5
 42
-1.0
 53
0.00013888888889
  3
ME10_DIM_16
100
AcDbAlignedDimension
 13
513.480983917544
 23
460.0495274089308
 33
0.0
 14
411.4809839175438
 24
447.1495274089176
 34
0.0
100
AcDbRotatedDimension
  0
DIMENSION
  5
51B
330
1F
100
AcDbEntity
  8
1
100
AcDbDimension
  2
*D35
 10
377.4809839175438
 20
417.1495274089176
 30
0.0
 11
394.4809839175439
 21
425.3995274089176
 31
0.0
 70
    32
  1
<>
 71
     5
 42
-1.0
 53
0.00013888888889
  3
ME10_DIM_17
100
AcDbAlignedDimension
 13
411.4809839175438
 23
447.1495274089176
 33
0.0
 14
377.4809839175439
 24
449.1495274089114
 34
0.0
100
AcDbRotatedDimension
  0
DIMENSION
  5
526
330
1F
100
AcDbEntity
  8
1
100
AcDbDimension
  2
*D36
 10
361.496851447946
 20
590.0495274089176
 30
0.0
 11
353.246851447946
 21
520.8144140754657
 31
0.0
 70
    32
  1
143
 71
     5
 42
-1.0
 53
90.0
  3
ME10_DIM_18
100
AcDbAlignedDimension
 13
400.9809839175441
 23
447.1495274089176
 33
0.0
 14
387.7809839175439
 24
590.0495274089176
 34
0.0
 50
90.0
100
AcDbRotatedDimension
  0
ENDSEC
  0
SECTION
  2
OBJECTS
  0
DICTIONARY
  5
C
330
0
100
AcDbDictionary
281
     1
  3
ACAD_GROUP
350
D
  3
ACAD_LAYOUT
350
1A
  3
ACAD_MATERIAL
350
3B
  3
ACAD_MLEADERSTYLE
350
529
  3
ACAD_MLINESTYLE
350
17
  3
ACAD_PLOTSETTINGS
350
19
  3
ACAD_PLOTSTYLENAME
350
E
  3
ACAD_VISUALSTYLE
350
2A
  3
AcDbVariableDictionary
350
527
  0
DICTIONARY
  5
D
102
{ACAD_REACTORS
330
C
102
}
330
C
100
AcDbDictionary
281
     1
  0
DICTIONARY
  5
1A
102
{ACAD_REACTORS
330
C
102
}
330
C
100
AcDbDictionary
281
     1
  3
Layout1
350
1E
  3
Layout2
350
26
  3
Model
350
22
  0
DICTIONARY
  5
3B
102
{ACAD_REACTORS
330
C
102
}
330
C
100
AcDbDictionary
281
     1
  3
ByBlock
350
3D
  3
ByLayer
350
3C
  3
Global
350
3E
  0
DICTIONARY
  5
529
102
{ACAD_REACTORS
330
C
102
}
330
C
100
AcDbDictionary
281
     1
  0
DICTIONARY
  5
17
102
{ACAD_REACTORS
330
C
102
}
330
C
100
AcDbDictionary
281
     1
  3
Standard
350
18
  0
DICTIONARY
  5
19
102
{ACAD_REACTORS
330
C
102
}
330
C
100
AcDbDictionary
281
     1
  0
ACDBDICTIONARYWDFLT
  5
E
102
{ACAD_REACTORS
330
C
102
}
330
C
100
AcDbDictionary
281
     1
  3
Normal
350
F
100
AcDbDictionaryWithDefault
340
F
  0
DICTIONARY
  5
2A
102
{ACAD_REACTORS
330
C
102
}
330
C
100
AcDbDictionary
281
     1
  3
2dWireframe
350
2F
  3
3D Hidden
350
31
  3
3dWireframe
350
30
  3
Basic
350
32
  3
Brighten
350
36
  3
ColorChange
350
3A
  3
Conceptual
350
34
  3
Dim
350
35
  3
Facepattern
350
39
  3
Flat
350
2B
  3
FlatWithEdges
350
2C
  3
Gouraud
350
2D
  3
GouraudWithEdges
350
2E
  3
Linepattern
350
38
  3
Realistic
350
33
  3
Thicken
350
37
  0
DICTIONARY
  5
527
102
{ACAD_REACTORS
330
C
102
}
330
C
100
AcDbDictionary
281
     1
  3
DIMASSOC
350
52A
  3
HIDETEXT
350
52B
  0
LAYOUT
  5
1E
102
{ACAD_REACTORS
330
1A
102
}
330
1A
100
AcDbPlotSettings
  1

  2
none_device
  4

  6

 40
0.0
 41
0.0
 42
0.0
 43
0.0
 44
0.0
 45
0.0
 46
0.0
 47
0.0
 48
0.0
 49
0.0
140
0.0
141
0.0
142
1.0
143
1.0
 70
   688
 72
     0
 73
     0
 74
     5
  7

 75
    16
147
1.0
148
0.0
149
0.0
100
AcDbLayout
  1
Layout1
 70
     1
 71
     1
 10
0.0
 20
0.0
 11
12.0
 21
9.0
 12
0.0
 22
0.0
 32
0.0
 14
1.00000000000000E+20
 24
1.00000000000000E+20
 34
1.00000000000000E+20
 15
-1.00000000000000E+20
 25
-1.00000000000000E+20
 35
-1.00000000000000E+20
146
0.0
 13
0.0
 23
0.0
 33
0.0
 16
1.0
 26
0.0
 36
0.0
 17
0.0
 27
1.0
 37
0.0
 76
     0
330
1B
  0
LAYOUT
  5
26
102
{ACAD_REACTORS
330
1A
102
}
330
1A
100
AcDbPlotSettings
  1

  2
none_device
  4

  6

 40
0.0
 41
0.0
 42
0.0
 43
0.0
 44
0.0
 45
0.0
 46
0.0
 47
0.0
 48
0.0
 49
0.0
140
0.0
141
0.0
142
1.0
143
1.0
 70
   688
 72
     0
 73
     0
 74
     5
  7

 75
    16
147
1.0
148
0.0
149
0.0
100
AcDbLayout
  1
Layout2
 70
     1
 71
     2
 10
0.0
 20
0.0
 11
0.0
 21
0.0
 12
0.0
 22
0.0
 32
0.0
 14
0.0
 24
0.0
 34
0.0
 15
0.0
 25
0.0
 35
0.0
146
0.0
 13
0.0
 23
0.0
 33
0.0
 16
1.0
 26
0.0
 36
0.0
 17
0.0
 27
1.0
 37
0.0
 76
     0
330
23
  0
LAYOUT
  5
22
102
{ACAD_REACTORS
330
1A
102
}
330
1A
100
AcDbPlotSettings
  1

  2
none_device
  4

  6

 40
0.0
 41
0.0
 42
0.0
 43
0.0
 44
0.0
 45
0.0
 46
0.0
 47
0.0
 48
0.0
 49
0.0
140
0.0
141
0.0
142
1.0
143
1.0
 70
  1712
 72
     0
 73
     0
 74
     0
  7

 75
     0
147
1.0
148
0.0
149
0.0
100
AcDbLayout
  1
Model
 70
     1
 71
     0
 10
0.0
 20
0.0
 11
12.0
 21
9.0
 12
0.0
 22
0.0
 32
0.0
 14
0.0
 24
0.0
 34
0.0
 15
630.0
 25
891.0
 35
0.0
146
0.0
 13
0.0
 23
0.0
 33
0.0
 16
1.0
 26
0.0
 36
0.0
 17
0.0
 27
1.0
 37
0.0
 76
     0
330
1F
331
29
  0
MATERIAL
  5
3D
102
{ACAD_REACTORS
330
3B
102
}
102
{ACAD_XDICTIONARY
360
54E
102
}
330
3B
100
AcDbMaterial
  1
ByBlock
  0
MATERIAL
  5
3C
102
{ACAD_REACTORS
330
3B
102
}
102
{ACAD_XDICTIONARY
360
54C
102
}
330
3B
100
AcDbMaterial
  1
ByLayer
  0
MATERIAL
  5
3E
102
{ACAD_REACTORS
330
3B
102
}
102
{ACAD_XDICTIONARY
360
550
102
}
330
3B
100
AcDbMaterial
  1
Global
  0
MLINESTYLE
  5
18
102
{ACAD_REACTORS
330
17
102
}
330
17
100
AcDbMlineStyle
  2
Standard
 70
     0
  3

 62
   256
 51
90.0
 52
90.0
 71
     2
 49
0.5
 62
   256
  6
BYLAYER
 49
-0.5
 62
   256
  6
BYLAYER
  0
ACDBPLACEHOLDER
  5
F
102
{ACAD_REACTORS
330
E
102
}
330
E
  0
VISUALSTYLE
  5
2F
102
{ACAD_REACTORS
330
2A
102
}
102
{ACAD_XDICTIONARY
360
534
102
}
330
2A
100
AcDbVisualStyle
  2
2dWireframe
 70
     4
 71
     0
 72
     2
 73
     0
 90
        0
 40
-0.6
 41
-30.0
 62
     5
 63
     7
 74
     1
 91
        4
 64
     7
 65
   257
 75
     1
175
     1
 42
1.0
 92
        0
 66
   257
 43
1.0
 76
     1
 77
     6
 78
     2
 67
     7
 79
     5
170
     0
171
     0
290
     0
174
     0
 93
        1
 44
0.0
173
     0
291
     0
 45
0.0
1001
ACAD
1000
AcDbSavedByObjectVersion
1070
     0
  0
VISUALSTYLE
  5
31
102
{ACAD_REACTORS
330
2A
102
}
102
{ACAD_XDICTIONARY
360
538
102
}
330
2A
100
AcDbVisualStyle
  2
3D Hidden
 70
     6
 71
     1
 72
     2
 73
     2
 90
        0
 40
-0.6
 41
-30.0
 62
     5
 63
     7
 74
     2
 91
        2
 64
     7
 65
   257
 75
     2
175
     1
 42
40.0
 92
        0
 66
   257
 43
1.0
 76
     1
 77
     6
 78
     2
 67
     7
 79
     3
170
     0
171
     0
290
     0
174
     0
 93
        1
 44
0.0
173
     0
291
     0
 45
0.0
1001
ACAD
1000
AcDbSavedByObjectVersion
1070
     0
  0
VISUALSTYLE
  5
30
102
{ACAD_REACTORS
330
2A
102
}
102
{ACAD_XDICTIONARY
360
536
102
}
330
2A
100
AcDbVisualStyle
  2
3dWireframe
 70
     5
 71
     0
 72
     2
 73
     0
 90
        0
 40
-0.6
 41
-30.0
 62
     5
 63
     7
 74
     1
 91
        4
 64
     7
 65
   257
 75
     1
175
     1
 42
1.0
 92
        0
 66
   257
 43
1.0
 76
     1
 77
     6
 78
     2
 67
     7
 79
     5
170
     0
171
     0
290
     0
174
     0
 93
        1
 44
0.0
173
     0
291
     0
 45
0.0
1001
ACAD
1000
AcDbSavedByObjectVersion
1070
     0
  0
VISUALSTYLE
  5
32
102
{ACAD_REACTORS
330
2A
102
}
102
{ACAD_XDICTIONARY
360
53A
102
}
330
2A
100
AcDbVisualStyle
  2
Basic
 70
     7
 71
     1
 72
     0
 73
     1
 90
        0
 40
-0.6
 41
-30.0
 62
     5
 63
     7
 74
     0
 91
        4
 64
     7
 65
   257
 75
     1
175
     1
 42
1.0
 92
        8
 66
     7
 43
1.0
 76
     1
 77
     6
 78
     2
 67
     7
 79
     5
170
     0
171
     0
290
     0
174
     0
 93
        1
 44
0.0
173
     0
291
     1
 45
0.0
1001
ACAD
1000
AcDbSavedByObjectVersion
1070
     0
  0
VISUALSTYLE
  5
36
102
{ACAD_REACTORS
330
2A
102
}
102
{ACAD_XDICTIONARY
360
542
102
}
330
2A
100
AcDbVisualStyle
  2
Brighten
 70
    12
 71
     2
 72
     2
 73
     0
 90
        0
 40
-0.6
 41
-30.0
 62
     5
 63
     7
 74
     1
 91
        4
 64
     7
 65
   257
 75
     1
175
     1
 42
1.0
 92
        8
 66
     7
 43
1.0
 76
     1
 77
     6
 78
     2
 67
     7
 79
     5
170
     0
171
     0
290
     0
174
     0
 93
        1
 44
50.0
173
     0
291
     1
 45
0.0
1001
ACAD
1000
AcDbSavedByObjectVersion
1070
     0
  0
VISUALSTYLE
  5
3A
102
{ACAD_REACTORS
330
2A
102
}
102
{ACAD_XDICTIONARY
360
54A
102
}
330
2A
100
AcDbVisualStyle
  2
ColorChange
 70
    16
 71
     2
 72
     2
 73
     3
 90
        0
 40
-0.6
 41
-30.0
 62
     5
 63
     8
 74
     1
 91
        4
 64
     7
 65
   257
 75
     1
175
     1
 42
1.0
 92
        8
 66
     8
 43
1.0
 76
     1
 77
     6
 78
     2
 67
     7
 79
     5
170
     0
171
     0
290
     0
174
     0
 93
        1
 44
0.0
173
     0
291
     1
 45
0.0
1001
ACAD
1000
AcDbSavedByObjectVersion
1070
     0
  0
VISUALSTYLE
  5
34
102
{ACAD_REACTORS
330
2A
102
}
102
{ACAD_XDICTIONARY
360
53E
102
}
330
2A
100
AcDbVisualStyle
  2
Conceptual
 70
     9
 71
     3
 72
     2
 73
     0
 90
        0
 40
-0.6
 41
-30.0
 62
     5
 63
     7
 74
     2
 91
        2
 64
     7
 65
   257
 75
     1
175
     1
 42
40.0
 92
        8
 66
     7
 43
1.0
 76
     1
 77
     6
 78
     2
 67
     7
 79
     3
170
     0
171
     0
290
     0
174
     0
 93
        1
 44
0.0
173
     0
291
     0
 45
0.0
1001
ACAD
1000
AcDbSavedByObjectVersion
1070
     0
  0
VISUALSTYLE
  5
35
102
{ACAD_REACTORS
330
2A
102
}
102
{ACAD_XDICTIONARY
360
540
102
}
330
2A
100
AcDbVisualStyle
  2
Dim
 70
    11
 71
     2
 72
     2
 73
     0
 90
        0
 40
-0.6
 41
-30.0
 62
     5
 63
     7
 74
     1
 91
        4
 64
     7
 65
   257
 75
     1
175
     1
 42
1.0
 92
        8
 66
     7
 43
1.0
 76
     1
 77
     6
 78
     2
 67
     7
 79
     5
170
     0
171
     0
290
     0
174
     0
 93
        1
 44
-50.0
173
     0
291
     1
 45
0.0
1001
ACAD
1000
AcDbSavedByObjectVersion
1070
     0
  0
VISUALSTYLE
  5
39
102
{ACAD_REACTORS
330
2A
102
}
102
{ACAD_XDICTIONARY
360
548
102
}
330
2A
100
AcDbVisualStyle
  2
Facepattern
 70
    15
 71
     2
 72
     2
 73
     0
 90
        0
 40
-0.6
 41
-30.0
 62
     5
 63
     7
 74
     1
 91
        4
 64
     7
 65
   257
 75
     1
175
     1
 42
1.0
 92
        8
 66
     7
 43
1.0
 76
     1
 77
     6
 78
     2
 67
     7
 79
     5
170
     0
171
     0
290
     0
174
     0
 93
        1
 44
0.0
173
     0
291
     1
 45
0.0
1001
ACAD
1000
AcDbSavedByObjectVersion
1070
     0
  0
VISUALSTYLE
  5
2B
102
{ACAD_REACTORS
330
2A
102
}
102
{ACAD_XDICTIONARY
360
52C
102
}
330
2A
100
AcDbVisualStyle
  2
Flat
 70
     0
 71
     2
 72
     1
 73
     1
 90
        2
 40
-0.6
 41
30.0
 62
     5
 63
     7
 74
     0
 91
        4
 64
     7
 65
   257
 75
     1
175
     1
 42
1.0
 92
        8
 66
     7
 43
1.0
 76
     1
 77
     6
 78
     2
 67
     7
 79
     5
170
     0
171
     0
290
     0
174
     0
 93
       13
 44
0.0
173
     0
291
     1
 45
0.0
1001
ACAD
1000
AcDbSavedByObjectVersion
1070
     0
  0
VISUALSTYLE
  5
2C
102
{ACAD_REACTORS
330
2A
102
}
102
{ACAD_XDICTIONARY
360
52E
102
}
330
2A
100
AcDbVisualStyle
  2
FlatWithEdges
 70
     1
 71
     2
 72
     1
 73
     1
 90
        2
 40
-0.6
 41
30.0
 62
     5
 63
     7
 74
     1
 91
        4
 64
     7
 65
   257
 75
     1
175
     1
 42
1.0
 92
        0
 66
   257
 43
1.0
 76
     1
 77
     6
 78
     2
 67
     7
 79
     5
170
     0
171
     0
290
     0
174
     0
 93
       13
 44
0.0
173
     0
291
     1
 45
0.0
1001
ACAD
1000
AcDbSavedByObjectVersion
1070
     0
  0
VISUALSTYLE
  5
2D
102
{ACAD_REACTORS
330
2A
102
}
102
{ACAD_XDICTIONARY
360
530
102
}
330
2A
100
AcDbVisualStyle
  2
Gouraud
 70
     2
 71
     2
 72
     2
 73
     1
 90
        2
 40
-0.6
 41
30.0
 62
     5
 63
     7
 74
     0
 91
        4
 64
     7
 65
   257
 75
     1
175
     1
 42
1.0
 92
        0
 66
     7
 43
1.0
 76
     1
 77
     6
 78
     2
 67
     7
 79
     5
170
     0
171
     0
290
     0
174
     0
 93
       13
 44
0.0
173
     0
291
     1
 45
0.0
1001
ACAD
1000
AcDbSavedByObjectVersion
1070
     0
  0
VISUALSTYLE
  5
2E
102
{ACAD_REACTORS
330
2A
102
}
102
{ACAD_XDICTIONARY
360
532
102
}
330
2A
100
AcDbVisualStyle
  2
GouraudWithEdges
 70
     3
 71
     2
 72
     2
 73
     1
 90
        2
 40
-0.6
 41
30.0
 62
     5
 63
     7
 74
     1
 91
        4
 64
     7
 65
   257
 75
     1
175
     1
 42
1.0
 92
        0
 66
   257
 43
1.0
 76
     1
 77
     6
 78
     2
 67
     7
 79
     5
170
     0
171
     0
290
     0
174
     0
 93
       13
 44
0.0
173
     0
291
     1
 45
0.0
1001
ACAD
1000
AcDbSavedByObjectVersion
1070
     0
  0
VISUALSTYLE
  5
38
102
{ACAD_REACTORS
330
2A
102
}
102
{ACAD_XDICTIONARY
360
546
102
}
330
2A
100
AcDbVisualStyle
  2
Linepattern
 70
    14
 71
     2
 72
     2
 73
     0
 90
        0
 40
-0.6
 41
-30.0
 62
     5
 63
     7
 74
     1
 91
        4
 64
     7
 65
   257
 75
     7
175
     7
 42
1.0
 92
        8
 66
     7
 43
1.0
 76
     1
 77
     6
 78
     2
 67
     7
 79
     5
170
     0
171
     0
290
     0
174
     0
 93
        1
 44
0.0
173
     0
291
     1
 45
0.0
1001
ACAD
1000
AcDbSavedByObjectVersion
1070
     0
  0
VISUALSTYLE
  5
33
102
{ACAD_REACTORS
330
2A
102
}
102
{ACAD_XDICTIONARY
360
53C
102
}
330
2A
100
AcDbVisualStyle
  2
Realistic
 70
     8
 71
     2
 72
     2
 73
     0
 90
        0
 40
-0.6
 41
-30.0
 62
     5
 63
     7
 74
     1
 91
        0
 64
     7
 65
   257
 75
     1
175
     1
 42
1.0
 92
        8
 66
     8
 43
1.0
 76
     1
 77
     6
 78
     2
 67
     7
 79
     5
170
     0
171
     0
290
     0
174
     0
 93
       13
 44
0.0
173
     0
291
     0
 45
0.0
1001
ACAD
1000
AcDbSavedByObjectVersion
1070
     0
  0
VISUALSTYLE
  5
37
102
{ACAD_REACTORS
330
2A
102
}
102
{ACAD_XDICTIONARY
360
544
102
}
330
2A
100
AcDbVisualStyle
  2
Thicken
 70
    13
 71
     2
 72
     2
 73
     0
 90
        0
 40
-0.6
 41
-30.0
 62
     5
 63
     7
 74
     1
 91
        4
 64
     7
 65
   257
 75
     1
175
     1
 42
1.0
 92
       12
 66
     7
 43
1.0
 76
     1
 77
     6
 78
     2
 67
     7
 79
     5
170
     0
171
     0
290
     0
174
     0
 93
        1
 44
0.0
173
     0
291
     1
 45
0.0
1001
ACAD
1000
AcDbSavedByObjectVersion
1070
     0
  0
DICTIONARYVAR
  5
52A
102
{ACAD_REACTORS
330
527
102
}
330
527
100
DictionaryVariables
280
     0
  1
2
  0
DICTIONARYVAR
  5
52B
102
{ACAD_REACTORS
330
527
102
}
330
527
100
DictionaryVariables
280
     0
  1
1
  0
DICTIONARY
  5
54E
330
3D
100
AcDbDictionary
280
     1
281
     1
  3
ACAD_XREC_ROUNDTRIP
360
54F
  0
DICTIONARY
  5
54C
330
3C
100
AcDbDictionary
280
     1
281
     1
  3
ACAD_XREC_ROUNDTRIP
360
54D
  0
DICTIONARY
  5
550
330
3E
100
AcDbDictionary
280
     1
281
     1
  3
ACAD_XREC_ROUNDTRIP
360
551
  0
DICTIONARY
  5
534
330
2F
100
AcDbDictionary
280
     1
281
     1
  3
ACAD_XREC_ROUNDTRIP
360
535
  0
DICTIONARY
  5
538
330
31
100
AcDbDictionary
280
     1
281
     1
  3
ACAD_XREC_ROUNDTRIP
360
539
  0
DICTIONARY
  5
536
330
30
100
AcDbDictionary
280
     1
281
     1
  3
ACAD_XREC_ROUNDTRIP
360
537
  0
DICTIONARY
  5
53A
330
32
100
AcDbDictionary
280
     1
281
     1
  3
ACAD_XREC_ROUNDTRIP
360
53B
  0
DICTIONARY
  5
542
330
36
100
AcDbDictionary
280
     1
281
     1
  3
ACAD_XREC_ROUNDTRIP
360
543
  0
DICTIONARY
  5
54A
330
3A
100
AcDbDictionary
280
     1
281
     1
  3
ACAD_XREC_ROUNDTRIP
360
54B
  0
DICTIONARY
  5
53E
330
34
100
AcDbDictionary
280
     1
281
     1
  3
ACAD_XREC_ROUNDTRIP
360
53F
  0
DICTIONARY
  5
540
330
35
100
AcDbDictionary
280
     1
281
     1
  3
ACAD_XREC_ROUNDTRIP
360
541
  0
DICTIONARY
  5
548
330
39
100
AcDbDictionary
280
     1
281
     1
  3
ACAD_XREC_ROUNDTRIP
360
549
  0
DICTIONARY
  5
52C
330
2B
100
AcDbDictionary
280
     1
281
     1
  3
ACAD_XREC_ROUNDTRIP
360
52D
  0
DICTIONARY
  5
52E
330
2C
100
AcDbDictionary
280
     1
281
     1
  3
ACAD_XREC_ROUNDTRIP
360
52F
  0
DICTIONARY
  5
530
330
2D
100
AcDbDictionary
280
     1
281
     1
  3
ACAD_XREC_ROUNDTRIP
360
531
  0
DICTIONARY
  5
532
330
2E
100
AcDbDictionary
280
     1
281
     1
  3
ACAD_XREC_ROUNDTRIP
360
533
  0
DICTIONARY
  5
546
330
38
100
AcDbDictionary
280
     1
281
     1
  3
ACAD_XREC_ROUNDTRIP
360
547
  0
DICTIONARY
  5
53C
330
33
100
AcDbDictionary
280
     1
281
     1
  3
ACAD_XREC_ROUNDTRIP
360
53D
  0
DICTIONARY
  5
544
330
37
100
AcDbDictionary
280
     1
281
     1
  3
ACAD_XREC_ROUNDTRIP
360
545
  0
XRECORD
  5
54F
102
{ACAD_REACTORS
330
54E
102
}
330
54E
100
AcDbXrecord
280
     1
102
MATERIAL
148
0.0
149
0.0
149
0.0
 93
        0
 94
      127
282
     0
 72
     1
 77
     1
171
     1
175
     1
179
     1
273
     0
  0
XRECORD
  5
54D
102
{ACAD_REACTORS
330
54C
102
}
330
54C
100
AcDbXrecord
280
     1
102
MATERIAL
148
0.0
149
0.0
149
0.0
 93
        0
 94
      127
282
     0
 72
     1
 77
     1
171
     1
175
     1
179
     1
273
     0
  0
XRECORD
  5
551
102
{ACAD_REACTORS
330
550
102
}
330
550
100
AcDbXrecord
280
     1
102
MATERIAL
148
0.0
149
0.0
149
0.0
 93
        0
 94
      127
282
     0
 72
     1
 77
     1
171
     1
175
     1
179
     1
273
     0
  0
XRECORD
  5
535
102
{ACAD_REACTORS
330
534
102
}
330
534
100
AcDbXrecord
280
     1
102
RTVSPropertyOp0
 70
     1
102
RTVSPropertyOp1
 70
     1
102
RTVSPropertyOp2
 70
     1
102
RTVSPropertyOp3
 70
     1
102
RTVSPropertyOp4
 70
     1
102
RTVSPropertyOp5
 70
     1
102
RTVSPropertyOp6
 70
     1
102
RTVSPropertyOp7
 70
     1
102
RTVSPropertyOp8
 70
     1
102
RTVSPropertyOp9
 70
     1
102
RTVSPropertyOp10
 70
     1
102
RTVSPropertyOp11
 70
     1
102
RTVSPropertyOp12
 70
     1
102
RTVSPropertyOp13
 70
     1
102
RTVSPropertyOp14
 70
     1
102
RTVSPropertyOp15
 70
     1
102
RTVSPropertyOp16
 70
     1
102
RTVSPropertyOp17
 70
     1
102
RTVSPropertyOp18
 70
     1
102
RTVSPropertyOp19
 70
     1
102
RTVSPropertyOp20
 70
     1
102
RTVSPropertyOp21
 70
     1
102
RTVSPropertyOp22
 70
     1
102
RTVSPropertyOp23
 70
     1
102
RTVSPropertyOp24
 70
     1
102
RTVSPropertyOp25
 70
     1
102
RTVSPropertyOp26
 70
     1
102
RTVSPropertyOp27
 70
     1
102
RTVSPropertyOp28
 70
     1
102
RTVSPropertyOp29
 70
     1
102
RTVSPropertyOp30
 70
     1
102
RTVSPropertyOp31
 70
     1
102
RTVSPropertyOp32
 70
     1
  0
XRECORD
  5
539
102
{ACAD_REACTORS
330
538
102
}
330
538
100
AcDbXrecord
280
     1
102
RTVSPropertyOp0
 70
     1
102
RTVSPropertyOp1
 70
     1
102
RTVSPropertyOp2
 70
     1
102
RTVSPropertyOp3
 70
     1
102
RTVSPropertyOp4
 70
     1
102
RTVSPropertyOp5
 70
     1
102
RTVSPropertyOp6
 70
     1
102
RTVSPropertyOp7
 70
     1
102
RTVSPropertyOp8
 70
     1
102
RTVSPropertyOp9
 70
     1
102
RTVSPropertyOp10
 70
     1
102
RTVSPropertyOp11
 70
     1
102
RTVSPropertyOp12
 70
     1
102
RTVSPropertyOp13
 70
     1
102
RTVSPropertyOp14
 70
     1
102
RTVSPropertyOp15
 70
     1
102
RTVSPropertyOp16
 70
     1
102
RTVSPropertyOp17
 70
     1
102
RTVSPropertyOp18
 70
     1
102
RTVSPropertyOp19
 70
     1
102
RTVSPropertyOp20
 70
     1
102
RTVSPropertyOp21
 70
     1
102
RTVSPropertyOp22
 70
     1
102
RTVSPropertyOp23
 70
     1
102
RTVSPropertyOp24
 70
     1
102
RTVSPropertyOp25
 70
     1
102
RTVSPropertyOp26
 70
     1
102
RTVSPropertyOp27
 70
     1
102
RTVSPropertyOp28
 70
     1
102
RTVSPropertyOp29
 70
     1
102
RTVSPropertyOp30
 70
     1
102
RTVSPropertyOp31
 70
     1
102
RTVSPropertyOp32
 70
     1
  0
XRECORD
  5
537
102
{ACAD_REACTORS
330
536
102
}
330
536
100
AcDbXrecord
280
     1
102
RTVSPropertyOp0
 70
     1
102
RTVSPropertyOp1
 70
     1
102
RTVSPropertyOp2
 70
     1
102
RTVSPropertyOp3
 70
     1
102
RTVSPropertyOp4
 70
     1
102
RTVSPropertyOp5
 70
     1
102
RTVSPropertyOp6
 70
     1
102
RTVSPropertyOp7
 70
     1
102
RTVSPropertyOp8
 70
     1
102
RTVSPropertyOp9
 70
     1
102
RTVSPropertyOp10
 70
     1
102
RTVSPropertyOp11
 70
     1
102
RTVSPropertyOp12
 70
     1
102
RTVSPropertyOp13
 70
     1
102
RTVSPropertyOp14
 70
     1
102
RTVSPropertyOp15
 70
     1
102
RTVSPropertyOp16
 70
     1
102
RTVSPropertyOp17
 70
     1
102
RTVSPropertyOp18
 70
     1
102
RTVSPropertyOp19
 70
     1
102
RTVSPropertyOp20
 70
     1
102
RTVSPropertyOp21
 70
     1
102
RTVSPropertyOp22
 70
     1
102
RTVSPropertyOp23
 70
     1
102
RTVSPropertyOp24
 70
     1
102
RTVSPropertyOp25
 70
     1
102
RTVSPropertyOp26
 70
     1
102
RTVSPropertyOp27
 70
     1
102
RTVSPropertyOp28
 70
     1
102
RTVSPropertyOp29
 70
     1
102
RTVSPropertyOp30
 70
     1
102
RTVSPropertyOp31
 70
     1
102
RTVSPropertyOp32
 70
     1
  0
XRECORD
  5
53B
102
{ACAD_REACTORS
330
53A
102
}
330
53A
100
AcDbXrecord
280
     1
102
RTVSPropertyOp0
 70
     1
102
RTVSPropertyOp1
 70
     1
102
RTVSPropertyOp2
 70
     1
102
RTVSPropertyOp3
 70
     1
102
RTVSPropertyOp4
 70
     1
102
RTVSPropertyOp5
 70
     1
102
RTVSPropertyOp6
 70
     1
102
RTVSPropertyOp7
 70
     1
102
RTVSPropertyOp8
 70
     1
102
RTVSPropertyOp9
 70
     1
102
RTVSPropertyOp10
 70
     1
102
RTVSPropertyOp11
 70
     1
102
RTVSPropertyOp12
 70
     1
102
RTVSPropertyOp13
 70
     1
102
RTVSPropertyOp14
 70
     1
102
RTVSPropertyOp15
 70
     1
102
RTVSPropertyOp16
 70
     1
102
RTVSPropertyOp17
 70
     1
102
RTVSPropertyOp18
 70
     1
102
RTVSPropertyOp19
 70
     1
102
RTVSPropertyOp20
 70
     1
102
RTVSPropertyOp21
 70
     1
102
RTVSPropertyOp22
 70
     1
102
RTVSPropertyOp23
 70
     1
102
RTVSPropertyOp24
 70
     1
102
RTVSPropertyOp25
 70
     1
102
RTVSPropertyOp26
 70
     1
102
RTVSPropertyOp27
 70
     1
102
RTVSPropertyOp28
 70
     1
102
RTVSPropertyOp29
 70
     1
102
RTVSPropertyOp30
 70
     1
102
RTVSPropertyOp31
 70
     1
102
RTVSPropertyOp32
 70
     1
  0
XRECORD
  5
543
102
{ACAD_REACTORS
330
542
102
}
330
542
100
AcDbXrecord
280
     1
102
RTVSPropertyOp0
 70
     1
102
RTVSPropertyOp1
 70
     1
102
RTVSPropertyOp2
 70
     1
102
RTVSPropertyOp3
 70
     1
102
RTVSPropertyOp4
 70
     1
102
RTVSPropertyOp5
 70
     1
102
RTVSPropertyOp6
 70
     1
102
RTVSPropertyOp7
 70
     1
102
RTVSPropertyOp8
 70
     1
102
RTVSPropertyOp9
 70
     1
102
RTVSPropertyOp10
 70
     1
102
RTVSPropertyOp11
 70
     1
102
RTVSPropertyOp12
 70
     1
102
RTVSPropertyOp13
 70
     1
102
RTVSPropertyOp14
 70
     1
102
RTVSPropertyOp15
 70
     1
102
RTVSPropertyOp16
 70
     1
102
RTVSPropertyOp17
 70
     1
102
RTVSPropertyOp18
 70
     1
102
RTVSPropertyOp19
 70
     1
102
RTVSPropertyOp20
 70
     1
102
RTVSPropertyOp21
 70
     1
102
RTVSPropertyOp22
 70
     1
102
RTVSPropertyOp23
 70
     1
102
RTVSPropertyOp24
 70
     1
102
RTVSPropertyOp25
 70
     1
102
RTVSPropertyOp26
 70
     1
102
RTVSPropertyOp27
 70
     1
102
RTVSPropertyOp28
 70
     1
102
RTVSPropertyOp29
 70
     1
102
RTVSPropertyOp30
 70
     1
102
RTVSPropertyOp31
 70
     1
102
RTVSPropertyOp32
 70
     1
  0
XRECORD
  5
54B
102
{ACAD_REACTORS
330
54A
102
}
330
54A
100
AcDbXrecord
280
     1
102
RTVSPropertyOp0
 70
     1
102
RTVSPropertyOp1
 70
     1
102
RTVSPropertyOp2
 70
     1
102
RTVSPropertyOp3
 70
     1
102
RTVSPropertyOp4
 70
     1
102
RTVSPropertyOp5
 70
     1
102
RTVSPropertyOp6
 70
     1
102
RTVSPropertyOp7
 70
     1
102
RTVSPropertyOp8
 70
     1
102
RTVSPropertyOp9
 70
     1
102
RTVSPropertyOp10
 70
     1
102
RTVSPropertyOp11
 70
     1
102
RTVSPropertyOp12
 70
     1
102
RTVSPropertyOp13
 70
     1
102
RTVSPropertyOp14
 70
     1
102
RTVSPropertyOp15
 70
     1
102
RTVSPropertyOp16
 70
     1
102
RTVSPropertyOp17
 70
     1
102
RTVSPropertyOp18
 70
     1
102
RTVSPropertyOp19
 70
     1
102
RTVSPropertyOp20
 70
     1
102
RTVSPropertyOp21
 70
     1
102
RTVSPropertyOp22
 70
     1
102
RTVSPropertyOp23
 70
     1
102
RTVSPropertyOp24
 70
     1
102
RTVSPropertyOp25
 70
     1
102
RTVSPropertyOp26
 70
     1
102
RTVSPropertyOp27
 70
     1
102
RTVSPropertyOp28
 70
     1
102
RTVSPropertyOp29
 70
     1
102
RTVSPropertyOp30
 70
     1
102
RTVSPropertyOp31
 70
     1
102
RTVSPropertyOp32
 70
     1
  0
XRECORD
  5
53F
102
{ACAD_REACTORS
330
53E
102
}
330
53E
100
AcDbXrecord
280
     1
102
RTVSPropertyOp0
 70
     1
102
RTVSPropertyOp1
 70
     1
102
RTVSPropertyOp2
 70
     1
102
RTVSPropertyOp3
 70
     1
102
RTVSPropertyOp4
 70
     1
102
RTVSPropertyOp5
 70
     1
102
RTVSPropertyOp6
 70
     1
102
RTVSPropertyOp7
 70
     1
102
RTVSPropertyOp8
 70
     1
102
RTVSPropertyOp9
 70
     1
102
RTVSPropertyOp10
 70
     1
102
RTVSPropertyOp11
 70
     1
102
RTVSPropertyOp12
 70
     1
102
RTVSPropertyOp13
 70
     1
102
RTVSPropertyOp14
 70
     1
102
RTVSPropertyOp15
 70
     1
102
RTVSPropertyOp16
 70
     1
102
RTVSPropertyOp17
 70
     1
102
RTVSPropertyOp18
 70
     1
102
RTVSPropertyOp19
 70
     1
102
RTVSPropertyOp20
 70
     1
102
RTVSPropertyOp21
 70
     1
102
RTVSPropertyOp22
 70
     1
102
RTVSPropertyOp23
 70
     1
102
RTVSPropertyOp24
 70
     1
102
RTVSPropertyOp25
 70
     1
102
RTVSPropertyOp26
 70
     1
102
RTVSPropertyOp27
 70
     1
102
RTVSPropertyOp28
 70
     1
102
RTVSPropertyOp29
 70
     1
102
RTVSPropertyOp30
 70
     1
102
RTVSPropertyOp31
 70
     1
102
RTVSPropertyOp32
 70
     1
  0
XRECORD
  5
541
102
{ACAD_REACTORS
330
540
102
}
330
540
100
AcDbXrecord
280
     1
102
RTVSPropertyOp0
 70
     1
102
RTVSPropertyOp1
 70
     1
102
RTVSPropertyOp2
 70
     1
102
RTVSPropertyOp3
 70
     1
102
RTVSPropertyOp4
 70
     1
102
RTVSPropertyOp5
 70
     1
102
RTVSPropertyOp6
 70
     1
102
RTVSPropertyOp7
 70
     1
102
RTVSPropertyOp8
 70
     1
102
RTVSPropertyOp9
 70
     1
102
RTVSPropertyOp10
 70
     1
102
RTVSPropertyOp11
 70
     1
102
RTVSPropertyOp12
 70
     1
102
RTVSPropertyOp13
 70
     1
102
RTVSPropertyOp14
 70
     1
102
RTVSPropertyOp15
 70
     1
102
RTVSPropertyOp16
 70
     1
102
RTVSPropertyOp17
 70
     1
102
RTVSPropertyOp18
 70
     1
102
RTVSPropertyOp19
 70
     1
102
RTVSPropertyOp20
 70
     1
102
RTVSPropertyOp21
 70
     1
102
RTVSPropertyOp22
 70
     1
102
RTVSPropertyOp23
 70
     1
102
RTVSPropertyOp24
 70
     1
102
RTVSPropertyOp25
 70
     1
102
RTVSPropertyOp26
 70
     1
102
RTVSPropertyOp27
 70
     1
102
RTVSPropertyOp28
 70
     1
102
RTVSPropertyOp29
 70
     1
102
RTVSPropertyOp30
 70
     1
102
RTVSPropertyOp31
 70
     1
102
RTVSPropertyOp32
 70
     1
  0
XRECORD
  5
549
102
{ACAD_REACTORS
330
548
102
}
330
548
100
AcDbXrecord
280
     1
102
RTVSPropertyOp0
 70
     1
102
RTVSPropertyOp1
 70
     1
102
RTVSPropertyOp2
 70
     1
102
RTVSPropertyOp3
 70
     1
102
RTVSPropertyOp4
 70
     1
102
RTVSPropertyOp5
 70
     1
102
RTVSPropertyOp6
 70
     1
102
RTVSPropertyOp7
 70
     1
102
RTVSPropertyOp8
 70
     1
102
RTVSPropertyOp9
 70
     1
102
RTVSPropertyOp10
 70
     1
102
RTVSPropertyOp11
 70
     1
102
RTVSPropertyOp12
 70
     1
102
RTVSPropertyOp13
 70
     1
102
RTVSPropertyOp14
 70
     1
102
RTVSPropertyOp15
 70
     1
102
RTVSPropertyOp16
 70
     1
102
RTVSPropertyOp17
 70
     1
102
RTVSPropertyOp18
 70
     1
102
RTVSPropertyOp19
 70
     1
102
RTVSPropertyOp20
 70
     1
102
RTVSPropertyOp21
 70
     1
102
RTVSPropertyOp22
 70
     1
102
RTVSPropertyOp23
 70
     1
102
RTVSPropertyOp24
 70
     1
102
RTVSPropertyOp25
 70
     1
102
RTVSPropertyOp26
 70
     1
102
RTVSPropertyOp27
 70
     1
102
RTVSPropertyOp28
 70
     1
102
RTVSPropertyOp29
 70
     1
102
RTVSPropertyOp30
 70
     1
102
RTVSPropertyOp31
 70
     1
102
RTVSPropertyOp32
 70
     1
  0
XRECORD
  5
52D
102
{ACAD_REACTORS
330
52C
102
}
330
52C
100
AcDbXrecord
280
     1
102
RTVSPropertyOp0
 70
     1
102
RTVSPropertyOp1
 70
     1
102
RTVSPropertyOp2
 70
     1
102
RTVSPropertyOp3
 70
     1
102
RTVSPropertyOp4
 70
     1
102
RTVSPropertyOp5
 70
     1
102
RTVSPropertyOp6
 70
     1
102
RTVSPropertyOp7
 70
     1
102
RTVSPropertyOp8
 70
     1
102
RTVSPropertyOp9
 70
     1
102
RTVSPropertyOp10
 70
     1
102
RTVSPropertyOp11
 70
     1
102
RTVSPropertyOp12
 70
     1
102
RTVSPropertyOp13
 70
     1
102
RTVSPropertyOp14
 70
     1
102
RTVSPropertyOp15
 70
     1
102
RTVSPropertyOp16
 70
     1
102
RTVSPropertyOp17
 70
     1
102
RTVSPropertyOp18
 70
     1
102
RTVSPropertyOp19
 70
     1
102
RTVSPropertyOp20
 70
     1
102
RTVSPropertyOp21
 70
     1
102
RTVSPropertyOp22
 70
     1
102
RTVSPropertyOp23
 70
     1
102
RTVSPropertyOp24
 70
     1
102
RTVSPropertyOp25
 70
     1
102
RTVSPropertyOp26
 70
     1
102
RTVSPropertyOp27
 70
     1
102
RTVSPropertyOp28
 70
     1
102
RTVSPropertyOp29
 70
     1
102
RTVSPropertyOp30
 70
     1
102
RTVSPropertyOp31
 70
     1
102
RTVSPropertyOp32
 70
     1
  0
XRECORD
  5
52F
102
{ACAD_REACTORS
330
52E
102
}
330
52E
100
AcDbXrecord
280
     1
102
RTVSPropertyOp0
 70
     1
102
RTVSPropertyOp1
 70
     1
102
RTVSPropertyOp2
 70
     1
102
RTVSPropertyOp3
 70
     1
102
RTVSPropertyOp4
 70
     1
102
RTVSPropertyOp5
 70
     1
102
RTVSPropertyOp6
 70
     1
102
RTVSPropertyOp7
 70
     1
102
RTVSPropertyOp8
 70
     1
102
RTVSPropertyOp9
 70
     1
102
RTVSPropertyOp10
 70
     1
102
RTVSPropertyOp11
 70
     1
102
RTVSPropertyOp12
 70
     1
102
RTVSPropertyOp13
 70
     1
102
RTVSPropertyOp14
 70
     1
102
RTVSPropertyOp15
 70
     1
102
RTVSPropertyOp16
 70
     1
102
RTVSPropertyOp17
 70
     1
102
RTVSPropertyOp18
 70
     1
102
RTVSPropertyOp19
 70
     1
102
RTVSPropertyOp20
 70
     1
102
RTVSPropertyOp21
 70
     1
102
RTVSPropertyOp22
 70
     1
102
RTVSPropertyOp23
 70
     1
102
RTVSPropertyOp24
 70
     1
102
RTVSPropertyOp25
 70
     1
102
RTVSPropertyOp26
 70
     1
102
RTVSPropertyOp27
 70
     1
102
RTVSPropertyOp28
 70
     1
102
RTVSPropertyOp29
 70
     1
102
RTVSPropertyOp30
 70
     1
102
RTVSPropertyOp31
 70
     1
102
RTVSPropertyOp32
 70
     1
  0
XRECORD
  5
531
102
{ACAD_REACTORS
330
530
102
}
330
530
100
AcDbXrecord
280
     1
102
RTVSPropertyOp0
 70
     1
102
RTVSPropertyOp1
 70
     1
102
RTVSPropertyOp2
 70
     1
102
RTVSPropertyOp3
 70
     1
102
RTVSPropertyOp4
 70
     1
102
RTVSPropertyOp5
 70
     1
102
RTVSPropertyOp6
 70
     1
102
RTVSPropertyOp7
 70
     1
102
RTVSPropertyOp8
 70
     1
102
RTVSPropertyOp9
 70
     1
102
RTVSPropertyOp10
 70
     1
102
RTVSPropertyOp11
 70
     1
102
RTVSPropertyOp12
 70
     1
102
RTVSPropertyOp13
 70
     1
102
RTVSPropertyOp14
 70
     1
102
RTVSPropertyOp15
 70
     1
102
RTVSPropertyOp16
 70
     1
102
RTVSPropertyOp17
 70
     1
102
RTVSPropertyOp18
 70
     1
102
RTVSPropertyOp19
 70
     1
102
RTVSPropertyOp20
 70
     1
102
RTVSPropertyOp21
 70
     1
102
RTVSPropertyOp22
 70
     1
102
RTVSPropertyOp23
 70
     1
102
RTVSPropertyOp24
 70
     1
102
RTVSPropertyOp25
 70
     1
102
RTVSPropertyOp26
 70
     1
102
RTVSPropertyOp27
 70
     1
102
RTVSPropertyOp28
 70
     1
102
RTVSPropertyOp29
 70
     1
102
RTVSPropertyOp30
 70
     1
102
RTVSPropertyOp31
 70
     1
102
RTVSPropertyOp32
 70
     1
  0
XRECORD
  5
533
102
{ACAD_REACTORS
330
532
102
}
330
532
100
AcDbXrecord
280
     1
102
RTVSPropertyOp0
 70
     1
102
RTVSPropertyOp1
 70
     1
102
RTVSPropertyOp2
 70
     1
102
RTVSPropertyOp3
 70
     1
102
RTVSPropertyOp4
 70
     1
102
RTVSPropertyOp5
 70
     1
102
RTVSPropertyOp6
 70
     1
102
RTVSPropertyOp7
 70
     1
102
RTVSPropertyOp8
 70
     1
102
RTVSPropertyOp9
 70
     1
102
RTVSPropertyOp10
 70
     1
102
RTVSPropertyOp11
 70
     1
102
RTVSPropertyOp12
 70
     1
102
RTVSPropertyOp13
 70
     1
102
RTVSPropertyOp14
 70
     1
102
RTVSPropertyOp15
 70
     1
102
RTVSPropertyOp16
 70
     1
102
RTVSPropertyOp17
 70
     1
102
RTVSPropertyOp18
 70
     1
102
RTVSPropertyOp19
 70
     1
102
RTVSPropertyOp20
 70
     1
102
RTVSPropertyOp21
 70
     1
102
RTVSPropertyOp22
 70
     1
102
RTVSPropertyOp23
 70
     1
102
RTVSPropertyOp24
 70
     1
102
RTVSPropertyOp25
 70
     1
102
RTVSPropertyOp26
 70
     1
102
RTVSPropertyOp27
 70
     1
102
RTVSPropertyOp28
 70
     1
102
RTVSPropertyOp29
 70
     1
102
RTVSPropertyOp30
 70
     1
102
RTVSPropertyOp31
 70
     1
102
RTVSPropertyOp32
 70
     1
  0
XRECORD
  5
547
102
{ACAD_REACTORS
330
546
102
}
330
546
100
AcDbXrecord
280
     1
102
RTVSPropertyOp0
 70
     1
102
RTVSPropertyOp1
 70
     1
102
RTVSPropertyOp2
 70
     1
102
RTVSPropertyOp3
 70
     1
102
RTVSPropertyOp4
 70
     1
102
RTVSPropertyOp5
 70
     1
102
RTVSPropertyOp6
 70
     1
102
RTVSPropertyOp7
 70
     1
102
RTVSPropertyOp8
 70
     1
102
RTVSPropertyOp9
 70
     1
102
RTVSPropertyOp10
 70
     1
102
RTVSPropertyOp11
 70
     1
102
RTVSPropertyOp12
 70
     1
102
RTVSPropertyOp13
 70
     1
102
RTVSPropertyOp14
 70
     1
102
RTVSPropertyOp15
 70
     1
102
RTVSPropertyOp16
 70
     1
102
RTVSPropertyOp17
 70
     1
102
RTVSPropertyOp18
 70
     1
102
RTVSPropertyOp19
 70
     1
102
RTVSPropertyOp20
 70
     1
102
RTVSPropertyOp21
 70
     1
102
RTVSPropertyOp22
 70
     1
102
RTVSPropertyOp23
 70
     1
102
RTVSPropertyOp24
 70
     1
102
RTVSPropertyOp25
 70
     1
102
RTVSPropertyOp26
 70
     1
102
RTVSPropertyOp27
 70
     1
102
RTVSPropertyOp28
 70
     1
102
RTVSPropertyOp29
 70
     1
102
RTVSPropertyOp30
 70
     1
102
RTVSPropertyOp31
 70
     1
102
RTVSPropertyOp32
 70
     1
  0
XRECORD
  5
53D
102
{ACAD_REACTORS
330
53C
102
}
330
53C
100
AcDbXrecord
280
     1
102
RTVSPropertyOp0
 70
     1
102
RTVSPropertyOp1
 70
     1
102
RTVSPropertyOp2
 70
     1
102
RTVSPropertyOp3
 70
     1
102
RTVSPropertyOp4
 70
     1
102
RTVSPropertyOp5
 70
     1
102
RTVSPropertyOp6
 70
     1
102
RTVSPropertyOp7
 70
     1
102
RTVSPropertyOp8
 70
     1
102
RTVSPropertyOp9
 70
     1
102
RTVSPropertyOp10
 70
     1
102
RTVSPropertyOp11
 70
     1
102
RTVSPropertyOp12
 70
     1
102
RTVSPropertyOp13
 70
     1
102
RTVSPropertyOp14
 70
     1
102
RTVSPropertyOp15
 70
     1
102
RTVSPropertyOp16
 70
     1
102
RTVSPropertyOp17
 70
     1
102
RTVSPropertyOp18
 70
     1
102
RTVSPropertyOp19
 70
     1
102
RTVSPropertyOp20
 70
     1
102
RTVSPropertyOp21
 70
     1
102
RTVSPropertyOp22
 70
     1
102
RTVSPropertyOp23
 70
     1
102
RTVSPropertyOp24
 70
     1
102
RTVSPropertyOp25
 70
     1
102
RTVSPropertyOp26
 70
     1
102
RTVSPropertyOp27
 70
     1
102
RTVSPropertyOp28
 70
     1
102
RTVSPropertyOp29
 70
     1
102
RTVSPropertyOp30
 70
     1
102
RTVSPropertyOp31
 70
     1
102
RTVSPropertyOp32
 70
     1
  0
XRECORD
  5
545
102
{ACAD_REACTORS
330
544
102
}
330
544
100
AcDbXrecord
280
     1
102
RTVSPropertyOp0
 70
     1
102
RTVSPropertyOp1
 70
     1
102
RTVSPropertyOp2
 70
     1
102
RTVSPropertyOp3
 70
     1
102
RTVSPropertyOp4
 70
     1
102
RTVSPropertyOp5
 70
     1
102
RTVSPropertyOp6
 70
     1
102
RTVSPropertyOp7
 70
     1
102
RTVSPropertyOp8
 70
     1
102
RTVSPropertyOp9
 70
     1
102
RTVSPropertyOp10
 70
     1
102
RTVSPropertyOp11
 70
     1
102
RTVSPropertyOp12
 70
     1
102
RTVSPropertyOp13
 70
     1
102
RTVSPropertyOp14
 70
     1
102
RTVSPropertyOp15
 70
     1
102
RTVSPropertyOp16
 70
     1
102
RTVSPropertyOp17
 70
     1
102
RTVSPropertyOp18
 70
     1
102
RTVSPropertyOp19
 70
     1
102
RTVSPropertyOp20
 70
     1
102
RTVSPropertyOp21
 70
     1
102
RTVSPropertyOp22
 70
     1
102
RTVSPropertyOp23
 70
     1
102
RTVSPropertyOp24
 70
     1
102
RTVSPropertyOp25
 70
     1
102
RTVSPropertyOp26
 70
     1
102
RTVSPropertyOp27
 70
     1
102
RTVSPropertyOp28
 70
     1
102
RTVSPropertyOp29
 70
     1
102
RTVSPropertyOp30
 70
     1
102
RTVSPropertyOp31
 70
     1
102
RTVSPropertyOp32
 70
     1
  0
ENDSEC
  0
EOF
