  0
SECTION
  2
HEADER
  9
$ACADVER
  1
AC1015
  9
$ACADMAINTVER
 70
     6
  9
$DWGCODEPAGE
  3
ANSI_932
  9
$INSBASE
 10
0.0
 20
0.0
 30
0.0
  9
$EXTMIN
 10
0.0
 20
0.0
 30
0.0
  9
$EXTMAX
 10
525.0
 20
742.5
 30
0.0
  9
$LIMMIN
 10
0.0
 20
0.0
  9
$LIMMAX
 10
12.0
 20
9.0
  9
$ORTHOMODE
 70
     0
  9
$REGENMODE
 70
     1
  9
$FILLMODE
 70
     1
  9
$QTEXTMODE
 70
     0
  9
$MIRRTEXT
 70
     1
  9
$LTSCALE
 40
1.0
  9
$ATTMODE
 70
     1
  9
$TEXTSIZE
 40
0.2
  9
$TRACEWID
 40
0.05
  9
$TEXTSTYLE
  7
Standard
  9
$CLAYER
  8
0
  9
$CELTYPE
  6
ByLayer
  9
$CECOLOR
 62
   256
  9
$CELTSCALE
 40
1.0
  9
$DISPSILH
 70
     0
  9
$DIMSCALE
 40
1.0
  9
$DIMASZ
 40
0.18
  9
$DIMEXO
 40
0.0625
  9
$DIMDLI
 40
0.38
  9
$DIMRND
 40
0.0
  9
$DIMDLE
 40
0.0
  9
$DIMEXE
 40
0.18
  9
$DIMTP
 40
0.0
  9
$DIMTM
 40
0.0
  9
$DIMTXT
 40
0.18
  9
$DIMCEN
 40
0.09
  9
$DIMTSZ
 40
0.0
  9
$DIMTOL
 70
     0
  9
$DIMLIM
 70
     0
  9
$DIMTIH
 70
     1
  9
$DIMTOH
 70
     1
  9
$DIMSE1
 70
     0
  9
$DIMSE2
 70
     0
  9
$DIMTAD
 70
     0
  9
$DIMZIN
 70
     0
  9
$DIMBLK
  1

  9
$DIMASO
 70
     1
  9
$DIMSHO
 70
     1
  9
$DIMPOST
  1

  9
$DIMAPOST
  1

  9
$DIMALT
 70
     0
  9
$DIMALTD
 70
     2
  9
$DIMALTF
 40
25.4
  9
$DIMLFAC
 40
1.0
  9
$DIMTOFL
 70
     0
  9
$DIMTVP
 40
0.0
  9
$DIMTIX
 70
     0
  9
$DIMSOXD
 70
     0
  9
$DIMSAH
 70
     0
  9
$DIMBLK1
  1

  9
$DIMBLK2
  1

  9
$DIMSTYLE
  2
Standard
  9
$DIMCLRD
 70
     0
  9
$DIMCLRE
 70
     0
  9
$DIMCLRT
 70
     0
  9
$DIMTFAC
 40
1.0
  9
$DIMGAP
 40
0.09
  9
$DIMJUST
 70
     0
  9
$DIMSD1
 70
     0
  9
$DIMSD2
 70
     0
  9
$DIMTOLJ
 70
     1
  9
$DIMTZIN
 70
     0
  9
$DIMALTZ
 70
     0
  9
$DIMALTTZ
 70
     0
  9
$DIMUPT
 70
     0
  9
$DIMDEC
 70
     4
  9
$DIMTDEC
 70
     4
  9
$DIMALTU
 70
     2
  9
$DIMALTTD
 70
     2
  9
$DIMTXSTY
  7
Standard
  9
$DIMAUNIT
 70
     0
  9
$DIMADEC
 70
     0
  9
$DIMALTRND
 40
0.0
  9
$DIMAZIN
 70
     0
  9
$DIMDSEP
 70
    46
  9
$DIMATFIT
 70
     3
  9
$DIMFRAC
 70
     0
  9
$DIMLDRBLK
  1

  9
$DIMLUNIT
 70
     2
  9
$DIMLWD
 70
    -2
  9
$DIMLWE
 70
    -2
  9
$DIMTMOVE
 70
     0
  9
$LUNITS
 70
     2
  9
$LUPREC
 70
     4
  9
$SKETCHINC
 40
0.1
  9
$FILLETRAD
 40
0.5
  9
$AUNITS
 70
     0
  9
$AUPREC
 70
     0
  9
$MENU
  1
.
  9
$ELEVATION
 40
0.0
  9
$PELEVATION
 40
0.0
  9
$THICKNESS
 40
0.0
  9
$LIMCHECK
 70
     0
  9
$CHAMFERA
 40
0.5
  9
$CHAMFERB
 40
0.5
  9
$CHAMFERC
 40
1.0
  9
$CHAMFERD
 40
0.0
  9
$SKPOLY
 70
     0
  9
$TDCREATE
 40
2456673.484978599
  9
$TDUCREATE
 40
2456673.109978599
  9
$TDUPDATE
 40
2456673.484980046
  9
$TDUUPDATE
 40
2456673.109980046
  9
$TDINDWG
 40
0.0000000116
  9
$TDUSRTIMER
 40
0.0000000116
  9
$USRTIMER
 70
     1
  9
$ANGBASE
 50
0.0
  9
$ANGDIR
 70
     0
  9
$PDMODE
 70
     0
  9
$PDSIZE
 40
0.0
  9
$PLINEWID
 40
0.0
  9
$SPLFRAME
 70
     0
  9
$SPLINETYPE
 70
     6
  9
$SPLINESEGS
 70
     8
  9
$HANDSEED
  5
5B4
  9
$SURFTAB1
 70
     6
  9
$SURFTAB2
 70
     6
  9
$SURFTYPE
 70
     6
  9
$SURFU
 70
     6
  9
$SURFV
 70
     6
  9
$UCSBASE
  2

  9
$UCSNAME
  2

  9
$UCSORG
 10
0.0
 20
0.0
 30
0.0
  9
$UCSXDIR
 10
1.0
 20
0.0
 30
0.0
  9
$UCSYDIR
 10
0.0
 20
1.0
 30
0.0
  9
$UCSORTHOREF
  2

  9
$UCSORTHOVIEW
 70
     0
  9
$UCSORGTOP
 10
0.0
 20
0.0
 30
0.0
  9
$UCSORGBOTTOM
 10
0.0
 20
0.0
 30
0.0
  9
$UCSORGLEFT
 10
0.0
 20
0.0
 30
0.0
  9
$UCSORGRIGHT
 10
0.0
 20
0.0
 30
0.0
  9
$UCSORGFRONT
 10
0.0
 20
0.0
 30
0.0
  9
$UCSORGBACK
 10
0.0
 20
0.0
 30
0.0
  9
$PUCSBASE
  2

  9
$PUCSNAME
  2

  9
$PUCSORG
 10
0.0
 20
0.0
 30
0.0
  9
$PUCSXDIR
 10
1.0
 20
0.0
 30
0.0
  9
$PUCSYDIR
 10
0.0
 20
1.0
 30
0.0
  9
$PUCSORTHOREF
  2

  9
$PUCSORTHOVIEW
 70
     0
  9
$PUCSORGTOP
 10
0.0
 20
0.0
 30
0.0
  9
$PUCSORGBOTTOM
 10
0.0
 20
0.0
 30
0.0
  9
$PUCSORGLEFT
 10
0.0
 20
0.0
 30
0.0
  9
$PUCSORGRIGHT
 10
0.0
 20
0.0
 30
0.0
  9
$PUCSORGFRONT
 10
0.0
 20
0.0
 30
0.0
  9
$PUCSORGBACK
 10
0.0
 20
0.0
 30
0.0
  9
$USERI1
 70
     0
  9
$USERI2
 70
     0
  9
$USERI3
 70
     0
  9
$USERI4
 70
     0
  9
$USERI5
 70
     0
  9
$USERR1
 40
18.1
  9
$USERR2
 40
0.0
  9
$USERR3
 40
0.0
  9
$USERR4
 40
0.0
  9
$USERR5
 40
0.0
  9
$WORLDVIEW
 70
     1
  9
$SHADEDGE
 70
     3
  9
$SHADEDIF
 70
    70
  9
$TILEMODE
 70
     1
  9
$MAXACTVP
 70
    64
  9
$PINSBASE
 10
0.0
 20
0.0
 30
0.0
  9
$PLIMCHECK
 70
     0
  9
$PEXTMIN
 10
1.00000000000000E+20
 20
1.00000000000000E+20
 30
1.00000000000000E+20
  9
$PEXTMAX
 10
-1.00000000000000E+20
 20
-1.00000000000000E+20
 30
-1.00000000000000E+20
  9
$PLIMMIN
 10
0.0
 20
0.0
  9
$PLIMMAX
 10
12.0
 20
9.0
  9
$UNITMODE
 70
     0
  9
$VISRETAIN
 70
     1
  9
$PLINEGEN
 70
     0
  9
$PSLTSCALE
 70
     1
  9
$TREEDEPTH
 70
  3020
  9
$CMLSTYLE
  2
Standard
  9
$CMLJUST
 70
     0
  9
$CMLSCALE
 40
1.0
  9
$PROXYGRAPHICS
 70
     1
  9
$MEASUREMENT
 70
     1
  9
$CELWEIGHT
370
    -1
  9
$ENDCAPS
280
     0
  9
$JOINSTYLE
280
     0
  9
$LWDISPLAY
290
     0
  9
$INSUNITS
 70
     4
  9
$HYPERLINKBASE
  1

  9
$STYLESHEET
  1

  9
$XEDIT
290
     1
  9
$CEPSNTYPE
380
     0
  9
$PSTYLEMODE
290
     1
  9
$FINGERPRINTGUID
  2
{F211B528-A2E9-477F-92CD-49AF58382B0C}
  9
$VERSIONGUID
  2
{FAEB1C32-E019-11D5-929B-00C0DF256EC4}
  9
$EXTNAMES
290
     1
  9
$PSVPSCALE
 40
0.0
  9
$OLESTARTUP
290
     0
  0
ENDSEC
  0
SECTION
  2
CLASSES
  0
CLASS
  1
ACDBDICTIONARYWDFLT
  2
AcDbDictionaryWithDefault
  3
ObjectDBX Classes
 90
        0
280
     0
281
     0
  0
CLASS
  1
VISUALSTYLE
  2
AcDbVisualStyle
  3
ObjectDBX Classes
 90
     4095
280
     0
281
     0
  0
CLASS
  1
MATERIAL
  2
AcDbMaterial
  3
ObjectDBX Classes
 90
     1153
280
     0
281
     0
  0
CLASS
  1
DICTIONARYVAR
  2
AcDbDictionaryVar
  3
ObjectDBX Classes
 90
        0
280
     0
281
     0
  0
CLASS
  1
ACDBPLACEHOLDER
  2
AcDbPlaceHolder
  3
ObjectDBX Classes
 90
        0
280
     0
281
     0
  0
CLASS
  1
LAYOUT
  2
AcDbLayout
  3
ObjectDBX Classes
 90
        0
280
     0
281
     0
  0
ENDSEC
  0
SECTION
  2
TABLES
  0
TABLE
  2
VPORT
  5
8
330
0
100
AcDbSymbolTable
 70
     1
  0
VPORT
  5
29
330
8
100
AcDbSymbolTableRecord
100
AcDbViewportTableRecord
  2
*Active
 70
     0
 10
0.0
 20
0.0
 11
1.0
 21
1.0
 12
262.5
 22
371.25
 13
0.0
 23
0.0
 14
0.5
 24
0.5
 15
0.5
 25
0.5
 16
0.0
 26
0.0
 36
1.0
 17
0.0
 27
0.0
 37
0.0
 40
816.7500000000001
 41
1.60267857142857
 42
50.0
 43
0.0
 44
0.0
 50
0.0
 51
0.0
 71
     0
 72
   100
 73
     1
 74
     3
 75
     0
 76
     0
 77
     0
 78
     0
281
     0
 65
     1
110
0.0
120
0.0
130
0.0
111
1.0
121
0.0
131
0.0
112
0.0
122
1.0
132
0.0
 79
     0
146
0.0
  0
ENDTAB
  0
TABLE
  2
LTYPE
  5
5
330
0
100
AcDbSymbolTable
 70
     8
  0
LTYPE
  5
14
330
5
100
AcDbSymbolTableRecord
100
AcDbLinetypeTableRecord
  2
ByBlock
 70
     0
  3

 72
    65
 73
     0
 40
0.0
  0
LTYPE
  5
15
330
5
100
AcDbSymbolTableRecord
100
AcDbLinetypeTableRecord
  2
ByLayer
 70
     0
  3

 72
    65
 73
     0
 40
0.0
  0
LTYPE
  5
16
330
5
100
AcDbSymbolTableRecord
100
AcDbLinetypeTableRecord
  2
Continuous
 70
     0
  3
Solid line
 72
    65
 73
     0
 40
0.0
  0
LTYPE
  5
3F
330
5
100
AcDbSymbolTableRecord
100
AcDbLinetypeTableRecord
  2
DASHED
 70
     0
  3
Dashed
 72
    65
 73
     2
 40
15.0
 49
7.0
 74
     0
 49
-8.0
 74
     0
  0
LTYPE
  5
40
330
5
100
AcDbSymbolTableRecord
100
AcDbLinetypeTableRecord
  2
DOTTED
 70
     0
  3
Dotted
 72
    65
 73
     2
 40
1.0
 49
0.0
 74
     0
 49
-1.0
 74
     0
  0
LTYPE
  5
41
330
5
100
AcDbSymbolTableRecord
100
AcDbLinetypeTableRecord
  2
DOT_CENTER
 70
     0
  3
Dot_Center
 72
    65
 73
     4
 40
14.0
 49
12.0
 74
     0
 49
-1.0
 74
     0
 49
0.0
 74
     0
 49
-1.0
 74
     0
  0
LTYPE
  5
42
330
5
100
AcDbSymbolTableRecord
100
AcDbLinetypeTableRecord
  2
LONG_DASHED
 70
     0
  3
Long_Dashed
 72
    65
 73
     2
 40
15.0
 49
10.0
 74
     0
 49
-5.0
 74
     0
  0
LTYPE
  5
43
330
5
100
AcDbSymbolTableRecord
100
AcDbLinetypeTableRecord
  2
DASH_CENTER
 70
     0
  3
Dash_Center
 72
    65
 73
     4
 40
14.0
 49
11.0
 74
     0
 49
-1.0
 74
     0
 49
1.0
 74
     0
 49
-1.0
 74
     0
  0
LTYPE
  5
44
330
5
100
AcDbSymbolTableRecord
100
AcDbLinetypeTableRecord
  2
PHANTOM
 70
     0
  3
Phantom
 72
    65
 73
     6
 40
13.0
 49
10.0
 74
     0
 49
-1.0
 74
     0
 49
0.0
 74
     0
 49
-1.0
 74
     0
 49
0.0
 74
     0
 49
-1.0
 74
     0
  0
LTYPE
  5
45
330
5
100
AcDbSymbolTableRecord
100
AcDbLinetypeTableRecord
  2
CENTER_DASH_DASH
 70
     0
  3
Center_Dash_Dash
 72
    65
 73
     6
 40
14.0
 49
9.0
 74
     0
 49
-1.0
 74
     0
 49
1.0
 74
     0
 49
-1.0
 74
     0
 49
1.0
 74
     0
 49
-1.0
 74
     0
  0
ENDTAB
  0
TABLE
  2
LAYER
  5
2
330
0
100
AcDbSymbolTable
 70
     3
  0
LAYER
  5
10
330
2
100
AcDbSymbolTableRecord
100
AcDbLayerTableRecord
  2
0
 70
     0
 62
     7
  6
Continuous
370
    -3
390
F
  0
LAYER
  5
46
330
2
100
AcDbSymbolTableRecord
100
AcDbLayerTableRecord
  2
1
 70
     0
 62
     7
  6
Continuous
370
    -3
390
F
  0
LAYER
  5
47
330
2
100
AcDbSymbolTableRecord
100
AcDbLayerTableRecord
  2
CSLAYER1
 70
     0
 62
     7
  6
Continuous
370
    -3
390
F
  0
ENDTAB
  0
TABLE
  2
STYLE
  5
3
330
0
100
AcDbSymbolTable
 70
     7
  0
STYLE
  5
11
330
3
100
AcDbSymbolTableRecord
100
AcDbTextStyleTableRecord
  2
Standard
 70
     0
 40
0.0
 41
1.0
 50
0.0
 71
     0
 42
0.2
  3
txt
  4

  0
STYLE
  5
138
330
3
100
AcDbSymbolTableRecord
100
AcDbTextStyleTableRecord
  2
CONVERTER_11
 70
     0
 40
0.0
 41
0.89
 50
0.0
 71
     0
 42
0.2
  3
MS Mincho.ttf
  4

1001
ACAD
1000
MS Mincho
1071
    32785
  0
STYLE
  5
4BE
330
3
100
AcDbSymbolTableRecord
100
AcDbTextStyleTableRecord
  2
CONVERTER_12
 70
     0
 40
0.0
 41
0.9
 50
0.0
 71
     0
 42
0.2
  3
txt.shx
  4

  0
STYLE
  5
4CC
330
3
100
AcDbSymbolTableRecord
100
AcDbTextStyleTableRecord
  2
CONVERTER_13
 70
     0
 40
0.0
 41
0.7832
 50
0.0
 71
     0
 42
0.2
  3
MS Mincho.ttf
  4

1001
ACAD
1000
MS Mincho
1071
    32785
  0
STYLE
  5
4CE
330
3
100
AcDbSymbolTableRecord
100
AcDbTextStyleTableRecord
  2
CONVERTER_14
 70
     0
 40
0.0
 41
0.95
 50
10.0
 71
     0
 42
0.2
  3
simplex.shx
  4

  0
STYLE
  5
4D3
330
3
100
AcDbSymbolTableRecord
100
AcDbTextStyleTableRecord
  2
CONVERTER_15
 70
     0
 40
0.0
 41
0.76
 50
10.0
 71
     0
 42
0.2
  3
simplex.shx
  4

  0
STYLE
  5
4DE
330
3
100
AcDbSymbolTableRecord
100
AcDbTextStyleTableRecord
  2
CONVERTER_16
 70
     0
 40
0.0
 41
0.979
 50
0.0
 71
     0
 42
0.2
  3
msmincho.ttc
  4

1001
ACAD
1000
MS Mincho
1071
    32785
  0
ENDTAB
  0
TABLE
  2
VIEW
  5
6
330
0
100
AcDbSymbolTable
 70
     0
  0
ENDTAB
  0
TABLE
  2
UCS
  5
7
330
0
100
AcDbSymbolTable
 70
     0
  0
ENDTAB
  0
TABLE
  2
APPID
  5
9
330
0
100
AcDbSymbolTable
 70
     1
  0
APPID
  5
12
330
9
100
AcDbSymbolTableRecord
100
AcDbRegAppTableRecord
  2
ACAD
 70
     0
  0
ENDTAB
  0
TABLE
  2
DIMSTYLE
  5
A
330
0
100
AcDbSymbolTable
 70
    15
100
AcDbDimStyleTable
  0
DIMSTYLE
105
27
330
A
100
AcDbSymbolTableRecord
100
AcDbDimStyleTableRecord
  2
Standard
 70
     0
178
     0
340
11
  0
DIMSTYLE
105
4EC
102
{ACAD_REACTORS
330
4ED
102
}
330
A
100
AcDbSymbolTableRecord
100
AcDbDimStyleTableRecord
  2
ME10_DIM_10
 70
     0
 41
8.75
 42
0.0
 44
2.5
 73
     0
 74
     0
 77
     1
 78
     8
140
8.75
147
2.5
172
     1
173
     1
174
     1
175
     1
176
     2
177
     2
271
     2
178
     7
271
     2
340
4BE
  0
DIMSTYLE
105
4F7
102
{ACAD_REACTORS
330
4F8
102
}
330
A
100
AcDbSymbolTableRecord
100
AcDbDimStyleTableRecord
  2
ME10_DIM_11
 70
     0
  3
{\Fgdt;n}<>
 41
8.75
 42
0.0
 44
2.5
 73
     0
 74
     0
 77
     1
 78
     8
140
8.75
147
2.5
172
     1
173
     1
174
     1
175
     1
176
     2
177
     2
271
     2
178
     7
271
     2
340
4BE
  0
DIMSTYLE
105
502
102
{ACAD_REACTORS
330
503
102
}
330
A
100
AcDbSymbolTableRecord
100
AcDbDimStyleTableRecord
  2
ME10_DIM_12
 70
     0
 41
8.75
 42
0.0
 44
2.5
 73
     0
 74
     0
 77
     1
 78
     8
140
8.75
147
2.5
172
     1
173
     1
174
     1
175
     1
176
     2
177
     2
271
     2
178
     7
271
     2
340
4BE
  0
DIMSTYLE
105
50D
102
{ACAD_REACTORS
330
50E
102
}
330
A
100
AcDbSymbolTableRecord
100
AcDbDimStyleTableRecord
  2
ME10_DIM_13
 70
     0
 41
8.75
 42
0.0
 44
2.5
 73
     0
 74
     0
 77
     1
 78
     8
140
8.75
147
2.5
172
     1
173
     1
174
     1
175
     1
176
     2
177
     2
271
     2
178
     7
271
     2
340
4BE
  0
DIMSTYLE
105
518
102
{ACAD_REACTORS
330
519
102
}
330
A
100
AcDbSymbolTableRecord
100
AcDbDimStyleTableRecord
  2
ME10_DIM_14
 70
     0
 41
8.75
 42
0.0
 44
2.5
 73
     0
 74
     0
 77
     1
 78
     8
140
8.75
147
2.5
172
     1
173
     1
174
     1
175
     1
176
     2
177
     2
271
     2
178
     7
271
     2
340
4BE
  0
DIMSTYLE
105
525
102
{ACAD_REACTORS
330
526
102
}
330
A
100
AcDbSymbolTableRecord
100
AcDbDimStyleTableRecord
  2
ME10_DIM_15
 70
     0
 41
8.75
 42
0.0
 44
2.5
 73
     0
 74
     0
 77
     1
 78
     8
140
8.75
147
2.5
172
     1
173
     1
174
     1
175
     1
176
     2
177
     2
271
     2
178
     7
271
     2
340
4BE
  0
DIMSTYLE
105
530
102
{ACAD_REACTORS
330
531
102
}
330
A
100
AcDbSymbolTableRecord
100
AcDbDimStyleTableRecord
  2
ME10_DIM_16
 70
     0
 41
8.75
 42
0.0
 44
2.5
 73
     0
 74
     0
 77
     1
 78
     8
140
8.75
147
2.5
172
     1
173
     1
174
     1
175
     1
176
     2
177
     2
271
     2
178
     7
271
     2
340
138
  0
DIMSTYLE
105
53B
102
{ACAD_REACTORS
330
53C
102
}
330
A
100
AcDbSymbolTableRecord
100
AcDbDimStyleTableRecord
  2
ME10_DIM_17
 70
     0
 41
8.75
 42
0.0
 44
2.5
 73
     0
 74
     0
 77
     1
 78
     8
140
8.75
147
2.5
172
     1
173
     1
174
     1
175
     1
176
     2
177
     2
271
     2
178
     7
271
     2
340
4BE
  0
DIMSTYLE
105
546
102
{ACAD_REACTORS
330
547
102
}
330
A
100
AcDbSymbolTableRecord
100
AcDbDimStyleTableRecord
  2
ME10_DIM_18
 70
     0
 41
8.75
 42
0.0
 44
2.5
 73
     0
 74
     0
 77
     1
 78
     8
140
8.75
147
2.5
172
     1
173
     1
174
     1
175
     1
176
     2
177
     2
271
     2
178
     7
271
     2
340
138
  0
DIMSTYLE
105
551
102
{ACAD_REACTORS
330
552
102
}
330
A
100
AcDbSymbolTableRecord
100
AcDbDimStyleTableRecord
  2
ME10_DIM_19
 70
     0
 41
8.75
 42
0.0
 44
2.5
 73
     0
 74
     0
 77
     1
 78
     8
140
8.75
147
2.5
172
     1
173
     1
174
     1
175
     1
176
     2
177
     2
271
     2
178
     7
271
     2
340
4BE
  0
DIMSTYLE
105
55C
102
{ACAD_REACTORS
330
55D
102
}
330
A
100
AcDbSymbolTableRecord
100
AcDbDimStyleTableRecord
  2
ME10_DIM_20
 70
     0
 41
8.75
 42
0.0
 44
2.5
 73
     0
 74
     0
 77
     1
 78
     8
140
8.75
147
2.5
172
     1
173
     1
174
     1
175
     1
176
     2
177
     2
271
     2
178
     7
271
     2
340
4BE
  0
DIMSTYLE
105
567
102
{ACAD_REACTORS
330
568
102
}
330
A
100
AcDbSymbolTableRecord
100
AcDbDimStyleTableRecord
  2
ME10_DIM_21
 70
     0
 41
8.75
 42
0.0
 44
2.5
 73
     0
 74
     0
 77
     1
 78
     8
140
8.75
147
2.5
172
     1
173
     1
174
     1
175
     1
176
     2
177
     2
271
     2
178
     7
271
     2
340
4BE
  0
DIMSTYLE
105
574
102
{ACAD_REACTORS
330
575
102
}
330
A
100
AcDbSymbolTableRecord
100
AcDbDimStyleTableRecord
  2
ME10_DIM_22
 70
     0
 41
8.75
 42
0.0
 44
2.5
 73
     0
 74
     0
 77
     1
 78
     8
140
8.75
147
2.5
172
     1
173
     1
174
     1
175
     1
176
     2
177
     2
271
     2
178
     7
271
     2
340
4BE
  0
DIMSTYLE
105
57F
102
{ACAD_REACTORS
330
580
102
}
330
A
100
AcDbSymbolTableRecord
100
AcDbDimStyleTableRecord
  2
ME10_DIM_23
 70
     0
 41
8.75
 42
0.0
 44
2.5
 73
     0
 74
     0
 77
     1
 78
     8
140
8.75
147
2.5
172
     1
173
     1
174
     1
175
     1
176
     2
177
     2
271
     2
178
     7
271
     2
340
4BE
  0
ENDTAB
  0
TABLE
  2
BLOCK_RECORD
  5
1
330
0
100
AcDbSymbolTable
 70
    42
  0
BLOCK_RECORD
  5
1F
330
1
100
AcDbSymbolTableRecord
100
AcDbBlockTableRecord
  2
*Model_Space
340
22
  0
BLOCK_RECORD
  5
1B
330
1
100
AcDbSymbolTableRecord
100
AcDbBlockTableRecord
  2
*Paper_Space
340
1E
  0
BLOCK_RECORD
  5
23
330
1
100
AcDbSymbolTableRecord
100
AcDbBlockTableRecord
  2
*Paper_Space0
340
26
  0
BLOCK_RECORD
  5
48
330
1
100
AcDbSymbolTableRecord
100
AcDbBlockTableRecord
  2
V97-H2B-C2
340
0
102
{BLKREFS
331
9C
102
}
  0
BLOCK_RECORD
  5
4B
330
1
100
AcDbSymbolTableRecord
100
AcDbBlockTableRecord
  2
開示A4
340
0
102
{BLKREFS
331
9D
102
}
  0
BLOCK_RECORD
  5
4E
330
1
100
AcDbSymbolTableRecord
100
AcDbBlockTableRecord
  2
V97-H12
340
0
102
{BLKREFS
331
9E
102
}
  0
BLOCK_RECORD
  5
51
330
1
100
AcDbSymbolTableRecord
100
AcDbBlockTableRecord
  2
V96-3-H1
340
0
102
{BLKREFS
331
9F
102
}
  0
BLOCK_RECORD
  5
54
330
1
100
AcDbSymbolTableRecord
100
AcDbBlockTableRecord
  2
V97-30-Z1__1
340
0
102
{BLKREFS
331
A0
102
}
  0
BLOCK_RECORD
  5
57
330
1
100
AcDbSymbolTableRecord
100
AcDbBlockTableRecord
  2
V97-30-Z1__2
340
0
102
{BLKREFS
331
A1
102
}
  0
BLOCK_RECORD
  5
5A
330
1
100
AcDbSymbolTableRecord
100
AcDbBlockTableRecord
  2
V97D-H2
340
0
102
{BLKREFS
331
A2
102
}
  0
BLOCK_RECORD
  5
5D
330
1
100
AcDbSymbolTableRecord
100
AcDbBlockTableRecord
  2
V97D-H5__3
340
0
102
{BLKREFS
331
A3
102
}
  0
BLOCK_RECORD
  5
60
330
1
100
AcDbSymbolTableRecord
100
AcDbBlockTableRecord
  2
V97D-H6
340
0
102
{BLKREFS
331
A4
102
}
  0
BLOCK_RECORD
  5
63
330
1
100
AcDbSymbolTableRecord
100
AcDbBlockTableRecord
  2
V97D-H4__4
340
0
102
{BLKREFS
331
A5
102
}
  0
BLOCK_RECORD
  5
66
330
1
100
AcDbSymbolTableRecord
100
AcDbBlockTableRecord
  2
V97D-H4__5
340
0
102
{BLKREFS
331
A6
102
}
  0
BLOCK_RECORD
  5
69
330
1
100
AcDbSymbolTableRecord
100
AcDbBlockTableRecord
  2
V97D-H4__6
340
0
102
{BLKREFS
331
A7
102
}
  0
BLOCK_RECORD
  5
6C
330
1
100
AcDbSymbolTableRecord
100
AcDbBlockTableRecord
  2
V97D-H5__7
340
0
102
{BLKREFS
331
A8
102
}
  0
BLOCK_RECORD
  5
6F
330
1
100
AcDbSymbolTableRecord
100
AcDbBlockTableRecord
  2
V97D-H1
340
0
102
{BLKREFS
331
A9
102
}
  0
BLOCK_RECORD
  5
72
330
1
100
AcDbSymbolTableRecord
100
AcDbBlockTableRecord
  2
V97-H11
340
0
102
{BLKREFS
331
AA
102
}
  0
BLOCK_RECORD
  5
75
330
1
100
AcDbSymbolTableRecord
100
AcDbBlockTableRecord
  2
BIS
340
0
102
{BLKREFS
331
AB
102
}
  0
BLOCK_RECORD
  5
78
330
1
100
AcDbSymbolTableRecord
100
AcDbBlockTableRecord
  2
BIS2
340
0
102
{BLKREFS
331
AC
102
}
  0
BLOCK_RECORD
  5
7B
330
1
100
AcDbSymbolTableRecord
100
AcDbBlockTableRecord
  2
V97-H17
340
0
102
{BLKREFS
331
AD
102
}
  0
BLOCK_RECORD
  5
7E
330
1
100
AcDbSymbolTableRecord
100
AcDbBlockTableRecord
  2
81-93A
340
0
102
{BLKREFS
331
AE
102
}
  0
BLOCK_RECORD
  5
81
330
1
100
AcDbSymbolTableRecord
100
AcDbBlockTableRecord
  2
14-39A
340
0
102
{BLKREFS
331
AF
102
}
  0
BLOCK_RECORD
  5
84
330
1
100
AcDbSymbolTableRecord
100
AcDbBlockTableRecord
  2
TOP__8
340
0
102
{BLKREFS
331
B0
102
}
  0
BLOCK_RECORD
  5
87
330
1
100
AcDbSymbolTableRecord
100
AcDbBlockTableRecord
  2
TOP__9
340
0
102
{BLKREFS
331
B1
102
}
  0
BLOCK_RECORD
  5
8A
330
1
100
AcDbSymbolTableRecord
100
AcDbBlockTableRecord
  2
98-113
340
0
102
{BLKREFS
331
B2
102
}
  0
BLOCK_RECORD
  5
8D
330
1
100
AcDbSymbolTableRecord
100
AcDbBlockTableRecord
  2
T17-4F-1
340
0
102
{BLKREFS
331
97
102
}
  0
BLOCK_RECORD
  5
90
330
1
100
AcDbSymbolTableRecord
100
AcDbBlockTableRecord
  2
T17-4F-2
340
0
102
{BLKREFS
331
98
102
}
  0
BLOCK_RECORD
  5
93
330
1
100
AcDbSymbolTableRecord
100
AcDbBlockTableRecord
  2
T17-4F-3
340
0
102
{BLKREFS
331
99
102
}
  0
BLOCK_RECORD
  5
96
330
1
100
AcDbSymbolTableRecord
100
AcDbBlockTableRecord
  2
T17-4F
340
0
102
{BLKREFS
331
B3
102
}
  0
BLOCK_RECORD
  5
4E3
330
1
100
AcDbSymbolTableRecord
100
AcDbBlockTableRecord
  2
*D28
340
0
  0
BLOCK_RECORD
  5
4EE
330
1
100
AcDbSymbolTableRecord
100
AcDbBlockTableRecord
  2
*D29
340
0
  0
BLOCK_RECORD
  5
4F9
330
1
100
AcDbSymbolTableRecord
100
AcDbBlockTableRecord
  2
*D30
340
0
  0
BLOCK_RECORD
  5
504
330
1
100
AcDbSymbolTableRecord
100
AcDbBlockTableRecord
  2
*D31
340
0
  0
BLOCK_RECORD
  5
50F
330
1
100
AcDbSymbolTableRecord
100
AcDbBlockTableRecord
  2
*D32
340
0
  0
BLOCK_RECORD
  5
51A
330
1
100
AcDbSymbolTableRecord
100
AcDbBlockTableRecord
  2
*D33
340
0
  0
BLOCK_RECORD
  5
527
330
1
100
AcDbSymbolTableRecord
100
AcDbBlockTableRecord
  2
*D34
340
0
  0
BLOCK_RECORD
  5
532
330
1
100
AcDbSymbolTableRecord
100
AcDbBlockTableRecord
  2
*D35
340
0
  0
BLOCK_RECORD
  5
53D
330
1
100
AcDbSymbolTableRecord
100
AcDbBlockTableRecord
  2
*D36
340
0
  0
BLOCK_RECORD
  5
548
330
1
100
AcDbSymbolTableRecord
100
AcDbBlockTableRecord
  2
*D37
340
0
  0
BLOCK_RECORD
  5
553
330
1
100
AcDbSymbolTableRecord
100
AcDbBlockTableRecord
  2
*D38
340
0
  0
BLOCK_RECORD
  5
55E
330
1
100
AcDbSymbolTableRecord
100
AcDbBlockTableRecord
  2
*D39
340
0
  0
BLOCK_RECORD
  5
569
330
1
100
AcDbSymbolTableRecord
100
AcDbBlockTableRecord
  2
*D40
340
0
  0
BLOCK_RECORD
  5
576
330
1
100
AcDbSymbolTableRecord
100
AcDbBlockTableRecord
  2
*D41
340
0
  0
ENDTAB
  0
ENDSEC
  0
SECTION
  2
BLOCKS
  0
BLOCK
  5
20
330
1F
100
AcDbEntity
  8
0
100
AcDbBlockBegin
  2
*Model_Space
 70
     0
 10
0.0
 20
0.0
 30
0.0
  3
*Model_Space
  1

  0
ENDBLK
  5
21
330
1F
100
AcDbEntity
  8
0
100
AcDbBlockEnd
  0
BLOCK
  5
1C
330
1B
100
AcDbEntity
 67
     1
  8
0
100
AcDbBlockBegin
  2
*Paper_Space
 70
     0
 10
0.0
 20
0.0
 30
0.0
  3
*Paper_Space
  1

  0
ENDBLK
  5
1D
330
1B
100
AcDbEntity
 67
     1
  8
0
100
AcDbBlockEnd
  0
BLOCK
  5
24
330
23
100
AcDbEntity
  8
0
100
AcDbBlockBegin
  2
*Paper_Space0
 70
     0
 10
0.0
 20
0.0
 30
0.0
  3
*Paper_Space0
  1

  0
ENDBLK
  5
25
330
23
100
AcDbEntity
  8
0
100
AcDbBlockEnd
  0
BLOCK
  5
49
330
48
100
AcDbEntity
  8
0
100
AcDbBlockBegin
  2
V97-H2B-C2
 70
     0
 10
525.0
 20
1050.0
 30
0.0
  3
V97-H2B-C2
  1

  0
LINE
  5
B4
330
48
100
AcDbEntity
  8
0
  6
Continuous
 62
     7
100
AcDbLine
 10
222.2815839040275
 20
202.6060927060876
 30
0.0
 11
222.8815087040271
 21
202.0061679060881
 31
0.0
  0
LINE
  5
B5
330
48
100
AcDbEntity
  8
0
  6
Continuous
 62
     7
100
AcDbLine
 10
197.4814335040265
 20
202.6060927060876
 30
0.0
 11
196.8815087040269
 21
202.0061679060881
 31
0.0
  0
LINE
  5
B6
330
48
100
AcDbEntity
  8
1
  6
Continuous
 62
     2
100
AcDbLine
 10
369.2566343189021
 20
203.0061679060881
 30
0.0
 11
359.2566343189021
 21
215.0061679060881
 31
0.0
  0
LINE
  5
B7
330
48
100
AcDbEntity
  8
1
  6
Continuous
 62
     2
100
AcDbLine
 10
359.2566343189021
 20
203.0061679060881
 30
0.0
 11
369.2566343189021
 21
215.0061679060881
 31
0.0
  0
LINE
  5
B8
330
48
100
AcDbEntity
  8
0
  6
DASH_CENTER
 62
     2
100
AcDbLine
 10
209.8815087040269
 20
176.8061679060874
 30
0.0
 11
209.8815087040271
 21
227.8651199382138
 31
0.0
  0
LINE
  5
B9
330
48
100
AcDbEntity
  8
0
  6
DASH_CENTER
 62
     2
100
AcDbLine
 10
364.2566343189021
 20
176.8061679060874
 30
0.0
 11
364.2566343189021
 21
228.0278776695535
 31
0.0
  0
LINE
  5
BA
330
48
100
AcDbEntity
  8
0
  6
Continuous
 62
     7
100
AcDbLine
 10
351.256634318902
 20
179.8061679060874
 30
0.0
 11
377.256634318902
 21
179.8061679060874
 31
0.0
  0
LINE
  5
BB
330
48
100
AcDbEntity
  8
1
  6
Continuous
 62
     7
100
AcDbLine
 10
377.756634318902
 20
180.3061679060874
 30
0.0
 11
377.256634318902
 21
179.8061679060874
 31
0.0
  0
LINE
  5
BC
330
48
100
AcDbEntity
  8
1
  6
Continuous
 62
     7
100
AcDbLine
 10
377.756634318902
 20
189.8061679060874
 30
0.0
 11
377.756634318902
 21
180.3061679060874
 31
0.0
  0
LINE
  5
BD
330
48
100
AcDbEntity
  8
1
  6
Continuous
 62
     7
100
AcDbLine
 10
377.2567700512523
 20
190.306032173737
 30
0.0
 11
377.756634318902
 21
189.8061679060874
 31
0.0
  0
LINE
  5
BE
330
48
100
AcDbEntity
  8
1
  6
Continuous
 62
     7
100
AcDbLine
 10
350.756634318902
 20
180.3061679060874
 30
0.0
 11
351.256634318902
 21
179.8061679060874
 31
0.0
  0
LINE
  5
BF
330
48
100
AcDbEntity
  8
1
  6
Continuous
 62
     7
100
AcDbLine
 10
350.756634318902
 20
189.8061679060874
 30
0.0
 11
350.756634318902
 21
180.3061679060874
 31
0.0
  0
LINE
  5
C0
330
48
100
AcDbEntity
  8
1
  6
Continuous
 62
     7
100
AcDbLine
 10
351.2566343189023
 20
190.3061679060876
 30
0.0
 11
350.756634318902
 21
189.8061679060874
 31
0.0
  0
LINE
  5
C1
330
48
100
AcDbEntity
  8
1
  6
Continuous
 62
     7
100
AcDbLine
 10
351.2566343189023
 20
190.3061679060876
 30
0.0
 11
377.2566343189021
 21
190.3061679060871
 31
0.0
  0
LINE
  5
C2
330
48
100
AcDbEntity
  8
1
  6
Continuous
 62
     7
100
AcDbLine
 10
377.756634318902
 20
189.8061679060874
 30
0.0
 11
350.756634318902
 21
189.8061679060874
 31
0.0
  0
LINE
  5
C3
330
48
100
AcDbEntity
  8
1
  6
Continuous
 62
     7
100
AcDbLine
 10
350.756634318902
 20
180.3061679060874
 30
0.0
 11
377.756634318902
 21
180.3061679060874
 31
0.0
  0
LINE
  5
C4
330
48
100
AcDbEntity
  8
1
  6
Continuous
 62
     7
100
AcDbLine
 10
196.3815087040269
 20
180.3061679060874
 30
0.0
 11
223.3815087040269
 21
180.3061679060874
 31
0.0
  0
LINE
  5
C5
330
48
100
AcDbEntity
  8
1
  6
Continuous
 62
     7
100
AcDbLine
 10
223.3815087040269
 20
189.8061679060874
 30
0.0
 11
196.3815087040269
 21
189.8061679060874
 31
0.0
  0
LINE
  5
C6
330
48
100
AcDbEntity
  8
1
  6
Continuous
 62
     7
100
AcDbLine
 10
196.8815087040273
 20
190.3061679060876
 30
0.0
 11
222.8815087040271
 21
190.3061679060871
 31
0.0
  0
LINE
  5
C7
330
48
100
AcDbEntity
  8
1
  6
Continuous
 62
     7
100
AcDbLine
 10
196.8815087040273
 20
190.3061679060876
 30
0.0
 11
196.3815087040269
 21
189.8061679060874
 31
0.0
  0
LINE
  5
C8
330
48
100
AcDbEntity
  8
1
  6
Continuous
 62
     7
100
AcDbLine
 10
196.3815087040269
 20
189.8061679060874
 30
0.0
 11
196.3815087040269
 21
180.3061679060874
 31
0.0
  0
LINE
  5
C9
330
48
100
AcDbEntity
  8
1
  6
Continuous
 62
     7
100
AcDbLine
 10
196.3815087040269
 20
180.3061679060874
 30
0.0
 11
196.8815087040269
 21
179.8061679060874
 31
0.0
  0
LINE
  5
CA
330
48
100
AcDbEntity
  8
1
  6
Continuous
 62
     7
100
AcDbLine
 10
222.8816444363772
 20
190.306032173737
 30
0.0
 11
223.3815087040269
 21
189.8061679060874
 31
0.0
  0
LINE
  5
CB
330
48
100
AcDbEntity
  8
1
  6
Continuous
 62
     7
100
AcDbLine
 10
223.3815087040269
 20
189.8061679060874
 30
0.0
 11
223.3815087040269
 21
180.3061679060874
 31
0.0
  0
LINE
  5
CC
330
48
100
AcDbEntity
  8
1
  6
Continuous
 62
     7
100
AcDbLine
 10
223.3815087040269
 20
180.3061679060874
 30
0.0
 11
222.8815087040269
 21
179.8061679060874
 31
0.0
  0
LINE
  5
CD
330
48
100
AcDbEntity
  8
0
  6
Continuous
 62
     7
100
AcDbLine
 10
346.0066343189021
 20
224.3061679060878
 30
0.0
 11
377.9566343189022
 21
224.3061679060878
 31
0.0
  0
LINE
  5
CE
330
48
100
AcDbEntity
  8
0
  6
Continuous
 62
     7
100
AcDbLine
 10
377.2566343189019
 20
216.0061679060881
 30
0.0
 11
377.2566343189021
 21
190.3061679060871
 31
0.0
  0
LINE
  5
CF
330
48
100
AcDbEntity
  8
0
  6
Continuous
 62
     7
100
AcDbLine
 10
384.4566343189022
 20
219.8061679060878
 30
0.0
 11
384.4566343189022
 21
241.3061679060878
 31
0.0
  0
LINE
  5
D0
330
48
100
AcDbEntity
  8
0
  6
Continuous
 62
     7
100
AcDbLine
 10
380.4566343189022
 20
242.3061679060878
 30
0.0
 11
383.4566343189022
 21
242.3061679060878
 31
0.0
  0
LINE
  5
D1
330
48
100
AcDbEntity
  8
0
  6
Continuous
 62
     7
100
AcDbLine
 10
379.4566343189022
 20
241.3061679060878
 30
0.0
 11
379.4566343189022
 21
225.8061679060878
 31
0.0
  0
LINE
  5
D2
330
48
100
AcDbEntity
  8
0
  6
Continuous
 62
     7
100
AcDbLine
 10
359.2566343189018
 20
224.3061679060878
 30
0.0
 11
359.2566343189018
 21
219.8061679060878
 31
0.0
  0
LINE
  5
D3
330
48
100
AcDbEntity
  8
0
  6
Continuous
 62
     7
100
AcDbLine
 10
348.0066343189021
 20
224.8061679060878
 30
0.0
 11
379.0746683076523
 21
224.8061679060878
 31
0.0
  0
LINE
  5
D4
330
48
100
AcDbEntity
  8
0
  6
Continuous
 62
     7
100
AcDbLine
 10
346.0066343189021
 20
218.8061679060878
 30
0.0
 11
383.4566343189022
 21
218.8061679060878
 31
0.0
  0
LINE
  5
D5
330
48
100
AcDbEntity
  8
0
  6
Continuous
 62
     7
100
AcDbLine
 10
359.2566343189021
 20
215.0061679060881
 30
0.0
 11
369.2566343189021
 21
215.0061679060881
 31
0.0
  0
LINE
  5
D6
330
48
100
AcDbEntity
  8
0
  6
Continuous
 62
     7
100
AcDbLine
 10
359.2566343189021
 20
203.0061679060881
 30
0.0
 11
369.2566343189021
 21
203.0061679060881
 31
0.0
  0
LINE
  5
D7
330
48
100
AcDbEntity
  8
0
  6
Continuous
 62
     7
100
AcDbLine
 10
359.2566343189021
 20
203.0061679060881
 30
0.0
 11
359.2566343189021
 21
215.0061679060881
 31
0.0
  0
LINE
  5
D8
330
48
100
AcDbEntity
  8
0
  6
Continuous
 62
     7
100
AcDbLine
 10
369.2566343189021
 20
215.0061679060881
 30
0.0
 11
369.2566343189021
 21
203.0061679060881
 31
0.0
  0
LINE
  5
D9
330
48
100
AcDbEntity
  8
0
  6
Continuous
 62
     7
100
AcDbLine
 10
351.256634318902
 20
216.0061679060881
 30
0.0
 11
351.2566343189023
 21
190.3061679060876
 31
0.0
  0
LINE
  5
DA
330
48
100
AcDbEntity
  8
0
  6
Continuous
 62
     7
100
AcDbLine
 10
380.5066343189021
 20
216.0061679060881
 30
0.0
 11
364.2566343189021
 21
216.0061679060881
 31
0.0
  0
LINE
  5
DB
330
48
100
AcDbEntity
  8
0
  6
Continuous
 62
     7
100
AcDbLine
 10
380.5066343189021
 20
217.3061679060878
 30
0.0
 11
380.5066343189021
 21
216.0061679060881
 31
0.0
  0
LINE
  5
DC
330
48
100
AcDbEntity
  8
0
  6
Continuous
 62
     7
100
AcDbLine
 10
348.006634318902
 20
216.0061679060881
 30
0.0
 11
364.2566343189021
 21
216.0061679060881
 31
0.0
  0
LINE
  5
DD
330
48
100
AcDbEntity
  8
0
  6
Continuous
 62
     7
100
AcDbLine
 10
348.0066343189021
 20
217.3061679060878
 30
0.0
 11
348.006634318902
 21
216.0061679060881
 31
0.0
  0
LINE
  5
DE
330
48
100
AcDbEntity
  8
0
  6
Continuous
 62
     7
100
AcDbLine
 10
346.0066343189021
 20
218.8061679060878
 30
0.0
 11
346.0066343189021
 21
224.3061679060878
 31
0.0
  0
LINE
  5
DF
330
48
100
AcDbEntity
  8
0
  6
Continuous
 62
     7
100
AcDbLine
 10
348.0066343189021
 20
224.8061679060878
 30
0.0
 11
348.0066343189021
 21
224.6061679060878
 31
0.0
  0
LINE
  5
E0
330
48
100
AcDbEntity
  8
0
  6
Continuous
 62
     7
100
AcDbLine
 10
196.8815087040269
 20
179.8061679060874
 30
0.0
 11
222.8815087040269
 21
179.8061679060874
 31
0.0
  0
LINE
  5
E1
330
48
100
AcDbEntity
  8
0
  6
Continuous
 62
     7
100
AcDbLine
 10
196.8815087040269
 20
202.0061679060881
 30
0.0
 11
196.8815087040273
 21
190.3061679060876
 31
0.0
  0
LINE
  5
E2
330
48
100
AcDbEntity
  8
0
  6
Continuous
 62
     7
100
AcDbLine
 10
222.8815087040271
 20
202.0061679060881
 30
0.0
 11
222.8815087040271
 21
190.3061679060871
 31
0.0
  0
ARC
  5
E3
330
48
100
AcDbEntity
  8
0
  6
Continuous
 62
     7
100
AcDbCircle
 10
377.9566343189022
 20
225.8061679060878
 30
0.0
 40
1.500000000000001
100
AcDbArc
 50
269.999998464766
 51
0.0
  0
ARC
  5
E4
330
48
100
AcDbEntity
  8
0
  6
Continuous
 62
     7
100
AcDbCircle
 10
380.4566343189022
 20
241.3061679060878
 30
0.0
 40
1.0
100
AcDbArc
 50
90.00000153523511
 51
180.0000030704637
  0
ARC
  5
E5
330
48
100
AcDbEntity
  8
0
  6
Continuous
 62
     7
100
AcDbCircle
 10
383.4566343189022
 20
241.3061679060878
 30
0.0
 40
1.0
100
AcDbArc
 50
0.0
 51
90.00000153523511
  0
ARC
  5
E6
330
48
100
AcDbEntity
  8
0
  6
Continuous
 62
     7
100
AcDbCircle
 10
383.4566343189022
 20
219.8061679060878
 30
0.0
 40
1.0
100
AcDbArc
 50
269.9999984647584
 51
0.0
  0
ARC
  5
E7
330
48
100
AcDbEntity
  8
0
  6
Continuous
 62
     7
100
AcDbCircle
 10
360.2566343189018
 20
219.8061679060878
 30
0.0
 40
1.000000000000001
100
AcDbArc
 50
180.0000030704637
 51
269.9999984647616
  0
ARC
  5
E8
330
48
100
AcDbEntity
  8
0
  6
Continuous
 62
     7
100
AcDbCircle
 10
364.2566343189021
 20
203.0061679060881
 30
0.0
 40
13.00000000000002
100
AcDbArc
 50
67.38013620134117
 51
112.6198668691286
  0
ARC
  5
E9
330
48
100
AcDbEntity
  8
0
  6
Continuous
 62
     7
100
AcDbCircle
 10
364.2566343189021
 20
215.0061679060881
 30
0.0
 40
12.99999999999986
100
AcDbArc
 50
247.3801331308714
 51
292.6198637986588
  0
ARC
  5
EA
330
48
100
AcDbEntity
  8
0
  6
Continuous
 62
     7
100
AcDbCircle
 10
382.0066343189021
 20
217.3061679060878
 30
0.0
 40
1.500000000000001
100
AcDbArc
 50
90.00000153523622
 51
180.0000030704735
  0
ARC
  5
EB
330
48
100
AcDbEntity
  8
0
  6
Continuous
 62
     7
100
AcDbCircle
 10
346.5066343189021
 20
217.3061679060878
 30
0.0
 40
1.5
100
AcDbArc
 50
0.0
 51
90.00000153523622
  0
ARC
  5
EC
330
48
100
AcDbEntity
  8
0
  6
Continuous
 62
     7
100
AcDbCircle
 10
347.7066343189022
 20
224.6061679060878
 30
0.0
 40
0.2999999999999831
100
AcDbArc
 50
269.9999984647355
 51
0.0
  0
ENDBLK
  5
4A
330
48
100
AcDbEntity
  8
0
100
AcDbBlockEnd
  0
BLOCK
  5
4C
330
4B
100
AcDbEntity
  8
0
100
AcDbBlockBegin
  2
開示A4
 70
     0
 10
0.0
 20
0.0
 30
0.0
  3
開示A4
  1

  0
POINT
  5
ED
330
4B
100
AcDbEntity
  8
1
 62
     4
100
AcDbPoint
 10
93.75
 20
17.0
 30
0.0
  0
POINT
  5
EE
330
4B
100
AcDbEntity
  8
1
 62
     4
100
AcDbPoint
 10
85.25
 20
17.0
 30
0.0
  0
POINT
  5
EF
330
4B
100
AcDbEntity
  8
1
 62
     4
100
AcDbPoint
 10
106.5
 20
19.00000000000001
 30
0.0
  0
POINT
  5
F0
330
4B
100
AcDbEntity
  8
1
 62
     4
100
AcDbPoint
 10
106.5
 20
12.5
 30
0.0
  0
POINT
  5
F1
330
4B
100
AcDbEntity
  8
1
 62
     4
100
AcDbPoint
 10
112.25
 20
12.5
 30
0.0
  0
POINT
  5
F2
330
4B
100
AcDbEntity
  8
1
 62
     4
100
AcDbPoint
 10
100.75
 20
12.5
 30
0.0
  0
POINT
  5
F3
330
4B
100
AcDbEntity
  8
1
 62
     4
100
AcDbPoint
 10
123.5
 20
19.00000000000001
 30
0.0
  0
POINT
  5
F4
330
4B
100
AcDbEntity
  8
1
 62
     4
100
AcDbPoint
 10
123.5
 20
12.5
 30
0.0
  0
POINT
  5
F5
330
4B
100
AcDbEntity
  8
1
 62
     4
100
AcDbPoint
 10
129.25
 20
12.5
 30
0.0
  0
POINT
  5
F6
330
4B
100
AcDbEntity
  8
1
 62
     4
100
AcDbPoint
 10
117.75
 20
12.5
 30
0.0
  0
POINT
  5
F7
330
4B
100
AcDbEntity
  8
1
 62
     4
100
AcDbPoint
 10
140.5
 20
19.00000000000001
 30
0.0
  0
POINT
  5
F8
330
4B
100
AcDbEntity
  8
1
 62
     4
100
AcDbPoint
 10
140.5
 20
12.5
 30
0.0
  0
POINT
  5
F9
330
4B
100
AcDbEntity
  8
1
 62
     4
100
AcDbPoint
 10
146.25
 20
12.5
 30
0.0
  0
POINT
  5
FA
330
4B
100
AcDbEntity
  8
1
 62
     4
100
AcDbPoint
 10
134.75
 20
12.5
 30
0.0
  0
POINT
  5
FB
330
4B
100
AcDbEntity
  8
1
 62
     4
100
AcDbPoint
 10
151.75
 20
12.5
 30
0.0
  0
POINT
  5
FC
330
4B
100
AcDbEntity
  8
1
 62
     4
100
AcDbPoint
 10
163.25
 20
12.5
 30
0.0
  0
POINT
  5
FD
330
4B
100
AcDbEntity
  8
1
 62
     4
100
AcDbPoint
 10
157.5
 20
12.5
 30
0.0
  0
POINT
  5
FE
330
4B
100
AcDbEntity
  8
1
 62
     4
100
AcDbPoint
 10
57.0
 20
14.25
 30
0.0
  0
POINT
  5
FF
330
4B
100
AcDbEntity
  8
1
 62
     4
100
AcDbPoint
 10
57.0
 20
22.75000000000001
 30
0.0
  0
POINT
  5
100
330
4B
100
AcDbEntity
  8
1
 62
     4
100
AcDbPoint
 10
47.5
 20
282.0000000000003
 30
0.0
  0
POINT
  5
101
330
4B
100
AcDbEntity
  8
1
 62
     4
100
AcDbPoint
 10
157.5
 20
19.00000000000001
 30
0.0
  0
POINT
  5
102
330
4B
100
AcDbEntity
  8
1
 62
     4
100
AcDbPoint
 10
57.0
 20
16.25
 30
0.0
  0
POINT
  5
103
330
4B
100
AcDbEntity
  8
1
 62
     4
100
AcDbPoint
 10
57.0
 20
24.75000000000001
 30
0.0
  0
POINT
  5
104
330
4B
100
AcDbEntity
  8
1
 62
     4
100
AcDbPoint
 10
57.0
 20
20.75000000000001
 30
0.0
  0
POINT
  5
105
330
4B
100
AcDbEntity
  8
1
 62
     4
100
AcDbPoint
 10
57.0
 20
12.25
 30
0.0
  0
POINT
  5
106
330
4B
100
AcDbEntity
  8
1
 62
     4
100
AcDbPoint
 10
34.0
 20
34.00000000000001
 30
0.0
  0
LINE
  5
107
330
4B
100
AcDbEntity
  8
1
  6
Continuous
 62
     7
100
AcDbLine
 10
105.0
 20
10.0
 30
0.0
 11
200.0
 21
10.0
 31
0.0
  0
LINE
  5
108
330
4B
100
AcDbEntity
  8
1
  6
Continuous
 62
     2
100
AcDbLine
 10
105.0
 20
10.0
 30
0.0
 11
105.0
 21
5.0
 31
0.0
  0
LINE
  5
109
330
4B
100
AcDbEntity
  8
1
  6
Continuous
 62
     7
100
AcDbLine
 10
200.0
 20
148.5
 30
0.0
 11
200.0
 21
287.0000000000003
 31
0.0
  0
LINE
  5
10A
330
4B
100
AcDbEntity
  8
1
  6
Continuous
 62
     2
100
AcDbLine
 10
200.0
 20
148.5
 30
0.0
 11
205.0
 21
148.5
 31
0.0
  0
LINE
  5
10B
330
4B
100
AcDbEntity
  8
1
  6
Continuous
 62
     7
100
AcDbLine
 10
25.0
 20
148.5
 30
0.0
 11
25.0
 21
287.0000000000003
 31
0.0
  0
LINE
  5
10C
330
4B
100
AcDbEntity
  8
1
  6
Continuous
 62
     2
100
AcDbLine
 10
25.0
 20
148.5
 30
0.0
 11
20.0
 21
148.5
 31
0.0
  0
LINE
  5
10D
330
4B
100
AcDbEntity
  8
1
  6
Continuous
 62
     7
100
AcDbLine
 10
105.0
 20
287.0000000000003
 30
0.0
 11
25.0
 21
287.0000000000003
 31
0.0
  0
LINE
  5
10E
330
4B
100
AcDbEntity
  8
1
  6
Continuous
 62
     2
100
AcDbLine
 10
105.0
 20
287.0000000000003
 30
0.0
 11
105.0
 21
292.0000000000003
 31
0.0
  0
LINE
  5
10F
330
4B
100
AcDbEntity
  8
1
  6
Continuous
 62
     2
100
AcDbLine
 10
166.0
 20
20.00000000000001
 30
0.0
 11
200.0
 21
20.00000000000001
 31
0.0
  0
LINE
  5
110
330
4B
100
AcDbEntity
  8
1
  6
Continuous
 62
     2
100
AcDbLine
 10
98.0
 20
27.00000000000001
 30
0.0
 11
98.0
 21
9.99999999999999
 31
0.0
  0
LINE
  5
111
330
4B
100
AcDbEntity
  8
1
  6
Continuous
 62
     2
100
AcDbLine
 10
115.0
 20
27.00000000000001
 30
0.0
 11
115.0
 21
9.99999999999999
 31
0.0
  0
LINE
  5
112
330
4B
100
AcDbEntity
  8
1
  6
Continuous
 62
     2
100
AcDbLine
 10
149.0
 20
27.00000000000001
 30
0.0
 11
149.0
 21
10.0
 31
0.0
  0
LINE
  5
113
330
4B
100
AcDbEntity
  8
1
  6
Continuous
 62
     2
100
AcDbLine
 10
132.0
 20
27.00000000000001
 30
0.0
 11
132.0
 21
9.99999999999999
 31
0.0
  0
LINE
  5
114
330
4B
100
AcDbEntity
  8
1
  6
Continuous
 62
     2
100
AcDbLine
 10
166.0
 20
27.00000000000001
 30
0.0
 11
166.0
 21
10.0
 31
0.0
  0
LINE
  5
115
330
4B
100
AcDbEntity
  8
1
  6
Continuous
 62
     2
100
AcDbLine
 10
55.0
 20
277.0000000000003
 30
0.0
 11
25.0
 21
277.0000000000003
 31
0.0
  0
LINE
  5
116
330
4B
100
AcDbEntity
  8
1
  6
Continuous
 62
     7
100
AcDbLine
 10
25.0
 20
10.0
 30
0.0
 11
25.0
 21
148.5
 31
0.0
  0
LINE
  5
117
330
4B
100
AcDbEntity
  8
1
  6
Continuous
 62
     2
100
AcDbLine
 10
40.0
 20
287.0000000000003
 30
0.0
 11
40.0
 21
277.0000000000003
 31
0.0
  0
LINE
  5
118
330
4B
100
AcDbEntity
  8
1
  6
Continuous
 62
     2
100
AcDbLine
 10
55.0
 20
287.0000000000003
 30
0.0
 11
55.0
 21
277.0000000000003
 31
0.0
  0
LINE
  5
119
330
4B
100
AcDbEntity
  8
1
  6
Continuous
 62
     2
100
AcDbLine
 10
33.0
 20
41.00000000000001
 30
0.0
 11
33.0
 21
27.0
 31
0.0
  0
LINE
  5
11A
330
4B
100
AcDbEntity
  8
1
  6
Continuous
 62
     7
100
AcDbLine
 10
200.0
 20
27.00000000000001
 30
0.0
 11
25.0
 21
27.00000000000001
 31
0.0
  0
LINE
  5
11B
330
4B
100
AcDbEntity
  8
1
  6
Continuous
 62
     7
100
AcDbLine
 10
25.0
 20
41.0
 30
0.0
 11
200.0
 21
41.0
 31
0.0
  0
LINE
  5
11C
330
4B
100
AcDbEntity
  8
1
  6
PHANTOM
 62
     4
100
AcDbLine
 10
0.0
 20
0.0
 30
0.0
 11
210.0
 21
0.0
 31
0.0
  0
LINE
  5
11D
330
4B
100
AcDbEntity
  8
1
  6
PHANTOM
 62
     4
100
AcDbLine
 10
210.0
 20
0.0
 30
0.0
 11
210.0
 21
297.0
 31
0.0
  0
LINE
  5
11E
330
4B
100
AcDbEntity
  8
1
  6
PHANTOM
 62
     4
100
AcDbLine
 10
210.0
 20
297.0
 30
0.0
 11
0.0
 21
297.0
 31
0.0
  0
LINE
  5
11F
330
4B
100
AcDbEntity
  8
1
  6
PHANTOM
 62
     4
100
AcDbLine
 10
0.0
 20
297.0
 30
0.0
 11
0.0
 21
0.0
 31
0.0
  0
LINE
  5
120
330
4B
100
AcDbEntity
  8
1
  6
Continuous
 62
     7
100
AcDbLine
 10
25.0
 20
10.0
 30
0.0
 11
105.0
 21
10.0
 31
0.0
  0
LINE
  5
121
330
4B
100
AcDbEntity
  8
1
  6
Continuous
 62
     7
100
AcDbLine
 10
200.0
 20
10.0
 30
0.0
 11
200.0
 21
148.5
 31
0.0
  0
LINE
  5
122
330
4B
100
AcDbEntity
  8
1
  6
Continuous
 62
     7
100
AcDbLine
 10
200.0
 20
287.0000000000003
 30
0.0
 11
105.0
 21
287.0000000000003
 31
0.0
  0
LINE
  5
123
330
4B
100
AcDbEntity
  8
1
  6
Continuous
 62
     2
100
AcDbLine
 10
25.0
 20
18.50000000000001
 30
0.0
 11
81.0
 21
18.50000000000001
 31
0.0
  0
LINE
  5
124
330
4B
100
AcDbEntity
  8
1
  6
Continuous
 62
     2
100
AcDbLine
 10
33.0
 20
27.0
 30
0.0
 11
33.0
 21
10.0
 31
0.0
  0
LINE
  5
125
330
4B
100
AcDbEntity
  8
1
  6
Continuous
 62
     7
100
AcDbLine
 10
191.0
 20
24.70000000000001
 30
0.0
 11
191.0
 21
22.30000000000001
 31
0.0
  0
LINE
  5
126
330
4B
100
AcDbEntity
  8
1
  6
Continuous
 62
     7
100
AcDbLine
 10
191.0
 20
24.70000000000001
 30
0.0
 11
196.0
 21
25.50000000000001
 31
0.0
  0
LINE
  5
127
330
4B
100
AcDbEntity
  8
1
  6
Continuous
 62
     7
100
AcDbLine
 10
196.0
 20
25.50000000000001
 30
0.0
 11
196.0
 21
21.50000000000001
 31
0.0
  0
LINE
  5
128
330
4B
100
AcDbEntity
  8
1
  6
Continuous
 62
     7
100
AcDbLine
 10
196.0
 20
21.50000000000001
 30
0.0
 11
191.0
 21
22.30000000000001
 31
0.0
  0
LINE
  5
129
330
4B
100
AcDbEntity
  8
1
  6
DOT_CENTER
 62
     2
100
AcDbLine
 10
184.0
 20
23.50000000000001
 30
0.0
 11
197.0
 21
23.50000000000001
 31
0.0
  0
LINE
  5
12A
330
4B
100
AcDbEntity
  8
1
  6
DOT_CENTER
 62
     2
100
AcDbLine
 10
187.0
 20
26.50000000000001
 30
0.0
 11
187.0
 21
20.50000000000001
 31
0.0
  0
LINE
  5
12B
330
4B
100
AcDbEntity
  8
1
  6
Continuous
 62
     2
100
AcDbLine
 10
81.0
 20
27.00000000000001
 30
0.0
 11
81.0
 21
10.0
 31
0.0
  0
CIRCLE
  5
12C
330
4B
100
AcDbEntity
  8
1
  6
Continuous
 62
     7
100
AcDbCircle
 10
103.5
 20
12.5
 30
0.0
 40
0.2999999999999972
  0
CIRCLE
  5
12D
330
4B
100
AcDbEntity
  8
1
  6
Continuous
 62
     7
100
AcDbCircle
 10
109.5
 20
12.5
 30
0.0
 40
0.2999999999999972
  0
CIRCLE
  5
12E
330
4B
100
AcDbEntity
  8
1
  6
Continuous
 62
     7
100
AcDbCircle
 10
120.5
 20
12.5
 30
0.0
 40
0.2999999999999972
  0
CIRCLE
  5
12F
330
4B
100
AcDbEntity
  8
1
  6
Continuous
 62
     7
100
AcDbCircle
 10
126.5
 20
12.5
 30
0.0
 40
0.2999999999999972
  0
CIRCLE
  5
130
330
4B
100
AcDbEntity
  8
1
  6
Continuous
 62
     7
100
AcDbCircle
 10
137.5
 20
12.5
 30
0.0
 40
0.3000000000000114
  0
CIRCLE
  5
131
330
4B
100
AcDbEntity
  8
1
  6
Continuous
 62
     7
100
AcDbCircle
 10
143.5
 20
12.5
 30
0.0
 40
0.3000000000000114
  0
CIRCLE
  5
132
330
4B
100
AcDbEntity
  8
1
  6
Continuous
 62
     7
100
AcDbCircle
 10
160.5
 20
12.5
 30
0.0
 40
0.3000000000000114
  0
CIRCLE
  5
133
330
4B
100
AcDbEntity
  8
1
  6
Continuous
 62
     7
100
AcDbCircle
 10
154.5
 20
12.5
 30
0.0
 40
0.3000000000000114
  0
CIRCLE
  5
134
330
4B
100
AcDbEntity
  8
1
  6
Continuous
 62
     7
100
AcDbCircle
 10
187.0
 20
23.50000000000001
 30
0.0
 40
1.200000000000102
  0
CIRCLE
  5
135
330
4B
100
AcDbEntity
  8
1
  6
Continuous
 62
     7
100
AcDbCircle
 10
187.0
 20
23.50000000000001
 30
0.0
 40
2.0
  0
CIRCLE
  5
136
330
4B
100
AcDbEntity
  8
1
  6
DOT_CENTER
 62
     7
100
AcDbCircle
 10
89.5
 20
16.0
 30
0.0
 40
0.1000000000000227
  0
CIRCLE
  5
137
330
4B
100
AcDbEntity
  8
1
  6
DOT_CENTER
 62
     7
100
AcDbCircle
 10
89.5
 20
18.0
 30
0.0
 40
0.1000000000000227
  0
MTEXT
  5
139
330
4B
100
AcDbEntity
  8
1
 62
     7
100
AcDbMText
 10
188.5
 20
15.0
 30
0.0
 40
3.0
 41
0.0
 71
     5
 72
     1
  1
三栄水栓製作所
  7
CONVERTER_11
 73
     1
 44
1.0
  0
MTEXT
  5
13A
330
4B
100
AcDbEntity
  8
1
 62
     7
100
AcDbMText
 10
171.5
 20
15.0
 30
0.0
 40
2.5
 41
0.0
 71
     5
 72
     1
  1
株式会社
  7
CONVERTER_11
 73
     1
 44
1.0
  0
MTEXT
  5
13B
330
4B
100
AcDbEntity
  8
1
 62
     2
100
AcDbMText
 10
32.5
 20
282.0000000000003
 30
0.0
 40
5.0
 41
0.0
 71
     5
 72
     1
  1
図番
  7
CONVERTER_11
 73
     1
 44
0.45454545454545
  0
MTEXT
  5
13C
330
4B
100
AcDbEntity
  8
1
 62
     2
100
AcDbMText
 10
29.0
 20
34.00000000000001
 30
0.0
 40
3.5
 41
0.0
 71
     5
 72
     1
  1
備考
  7
CONVERTER_11
 73
     1
 44
0.45454545454545
  0
MTEXT
  5
13D
330
4B
100
AcDbEntity
  8
1
 62
     2
100
AcDbMText
 10
29.0
 20
22.75
 30
0.0
 40
3.5
 41
0.0
 71
     5
 72
     1
  1
品名
  7
CONVERTER_11
 73
     1
 44
0.72727272727273
  0
MTEXT
  5
13E
330
4B
100
AcDbEntity
  8
1
 62
     2
100
AcDbMText
 10
29.0
 20
14.25
 30
0.0
 40
3.5
 41
0.0
 71
     5
 72
     1
  1
品番
  7
CONVERTER_11
 73
     1
 44
0.72727272727273
  0
MTEXT
  5
13F
330
4B
100
AcDbEntity
  8
1
 62
     2
100
AcDbMText
 10
101.5
 20
25.00000000000001
 30
0.0
 40
3.0
 41
0.0
 71
     5
 72
     1
  1
承認
  7
CONVERTER_11
 73
     1
 44
0.59090909090909
  0
MTEXT
  5
140
330
4B
100
AcDbEntity
  8
1
 62
     2
100
AcDbMText
 10
175.0
 20
23.50000000000001
 30
0.0
 40
3.5
 41
0.0
 71
     5
 72
     1
  1
第三角法
  7
CONVERTER_11
 73
     1
 44
0.54545454545455
  0
MTEXT
  5
141
330
4B
100
AcDbEntity
  8
1
 62
     2
100
AcDbMText
 10
118.5
 20
25.00000000000001
 30
0.0
 40
3.0
 41
0.0
 71
     5
 72
     1
  1
検図
  7
CONVERTER_11
 73
     1
 44
0.59090909090909
  0
MTEXT
  5
142
330
4B
100
AcDbEntity
  8
1
 62
     2
100
AcDbMText
 10
152.5
 20
25.00000000000001
 30
0.0
 40
3.0
 41
0.0
 71
     5
 72
     1
  1
設計
  7
CONVERTER_11
 73
     1
 44
0.59090909090909
  0
MTEXT
  5
143
330
4B
100
AcDbEntity
  8
1
 62
     2
100
AcDbMText
 10
135.5
 20
25.00000000000001
 30
0.0
 40
3.0
 41
0.0
 71
     5
 72
     1
  1
製図
  7
CONVERTER_11
 73
     1
 44
0.59090909090909
  0
MTEXT
  5
144
330
4B
100
AcDbEntity
  8
1
 62
     2
100
AcDbMText
 10
89.5
 20
24.00000000000001
 30
0.0
 40
3.5
 41
0.0
 71
     5
 72
     1
  1
尺度
  7
CONVERTER_11
 73
     1
 44
0.54545454545455
  0
MTEXT
  5
145
330
4B
100
AcDbEntity
  8
1
 62
   250
100
AcDbMText
 10
25.0
 20
5.0
 30
0.0
 40
3.5
 41
0.0
 71
     4
 72
     1
  1
備考欄の文字列 原点位置=4
  7
CONVERTER_11
 73
     1
 44
0.54545454545455
  0
ENDBLK
  5
4D
330
4B
100
AcDbEntity
  8
0
100
AcDbBlockEnd
  0
BLOCK
  5
4F
330
4E
100
AcDbEntity
  8
0
100
AcDbBlockBegin
  2
V97-H12
 70
     0
 10
977.0978102417907
 20
105.1688350928842
 30
0.0
  3
V97-H12
  1

  0
LINE
  5
146
330
4E
100
AcDbEntity
  8
1
  6
Continuous
 62
     7
100
AcDbLine
 10
168.2815084776109
 20
556.4253583409941
 30
0.0
 11
167.2815084776109
 21
556.4253583409941
 31
0.0
  0
LINE
  5
147
330
4E
100
AcDbEntity
  8
1
  6
Continuous
 62
     7
100
AcDbLine
 10
167.2815084776109
 20
556.4253583409941
 30
0.0
 11
167.2815084776109
 21
546.4253583409941
 31
0.0
  0
LINE
  5
148
330
4E
100
AcDbEntity
  8
1
  6
Continuous
 62
     7
100
AcDbLine
 10
167.2815084776109
 20
546.4253583409941
 30
0.0
 11
153.0812670757757
 21
546.4253583409941
 31
0.0
  0
LINE
  5
149
330
4E
100
AcDbEntity
  8
1
  6
Continuous
 62
     7
100
AcDbLine
 10
168.2815084776109
 20
545.4253583409941
 30
0.0
 11
153.0812670757757
 21
545.4253583409941
 31
0.0
  0
LINE
  5
14A
330
4E
100
AcDbEntity
  8
1
  6
Continuous
 62
     7
100
AcDbLine
 10
153.0812670757757
 20
546.4253583409941
 30
0.0
 11
153.0812670757757
 21
545.4253583409941
 31
0.0
  0
LINE
  5
14B
330
4E
100
AcDbEntity
  8
1
  6
Continuous
 62
     7
100
AcDbLine
 10
252.4815084776096
 20
556.4253583409941
 30
0.0
 11
251.4815084776096
 21
556.4253583409941
 31
0.0
  0
LINE
  5
14C
330
4E
100
AcDbEntity
  8
1
  6
Continuous
 62
     7
100
AcDbLine
 10
252.4815084776096
 20
546.4253583409941
 30
0.0
 11
252.4815084776096
 21
556.4253583409941
 31
0.0
  0
LINE
  5
14D
330
4E
100
AcDbEntity
  8
1
  6
Continuous
 62
     7
100
AcDbLine
 10
266.6817498794447
 20
546.4253583409941
 30
0.0
 11
252.4815084776096
 21
546.4253583409941
 31
0.0
  0
LINE
  5
14E
330
4E
100
AcDbEntity
  8
1
  6
Continuous
 62
     7
100
AcDbLine
 10
266.6817498794447
 20
545.4253583409941
 30
0.0
 11
251.4815084776096
 21
545.4253583409941
 31
0.0
  0
LINE
  5
14F
330
4E
100
AcDbEntity
  8
1
  6
Continuous
 62
     7
100
AcDbLine
 10
266.6817498794447
 20
545.4253583409941
 30
0.0
 11
266.6817498794447
 21
546.4253583409941
 31
0.0
  0
LINE
  5
150
330
4E
100
AcDbEntity
  8
0
  6
Continuous
 62
     7
100
AcDbLine
 10
154.0812670757757
 20
304.0060927060876
 30
0.0
 11
158.6315084776101
 21
304.0060927060876
 31
0.0
  0
LINE
  5
151
330
4E
100
AcDbEntity
  8
0
  6
Continuous
 62
     7
100
AcDbLine
 10
153.0812670757757
 20
228.0060927060875
 30
0.0
 11
153.0812670757757
 21
303.0060927060876
 31
0.0
  0
LINE
  5
152
330
4E
100
AcDbEntity
  8
0
  6
Continuous
 62
     7
100
AcDbLine
 10
154.0812670757757
 20
227.0060927060875
 30
0.0
 11
158.6315084776101
 21
227.0060927060875
 31
0.0
  0
LINE
  5
153
330
4E
100
AcDbEntity
  8
0
  6
Continuous
 62
     7
100
AcDbLine
 10
265.6817498794447
 20
294.506092706087
 30
0.0
 11
261.1315084776102
 21
294.506092706087
 31
0.0
  0
LINE
  5
154
330
4E
100
AcDbEntity
  8
0
  6
Continuous
 62
     7
100
AcDbLine
 10
265.6817498794447
 20
217.506092706087
 30
0.0
 11
261.1315084776102
 21
217.506092706087
 31
0.0
  0
LINE
  5
155
330
4E
100
AcDbEntity
  8
0
  6
Continuous
 62
     7
100
AcDbLine
 10
266.6817498794447
 20
293.506092706087
 30
0.0
 11
266.6817498794447
 21
218.506092706087
 31
0.0
  0
LINE
  5
156
330
4E
100
AcDbEntity
  8
0
  6
Continuous
 62
     7
100
AcDbLine
 10
367.2941644339251
 20
288.5060927060873
 30
0.0
 11
367.2941644339251
 21
268.0060927060873
 31
0.0
  0
LINE
  5
157
330
4E
100
AcDbEntity
  8
0
  6
Continuous
 62
     7
100
AcDbLine
 10
367.2941644339251
 20
268.0060927060873
 30
0.0
 11
367.2941644339251
 21
244.0060927060873
 31
0.0
  0
LINE
  5
158
330
4E
100
AcDbEntity
  8
0
  6
Continuous
 62
     7
100
AcDbLine
 10
367.2941644339251
 20
244.0060927060873
 30
0.0
 11
367.2941644339251
 21
223.5060927060873
 31
0.0
  0
LINE
  5
159
330
4E
100
AcDbEntity
  8
0
  6
Continuous
 62
     7
100
AcDbLine
 10
367.2941644339251
 20
223.5060927060873
 30
0.0
 11
367.2941644339251
 21
217.5060927060873
 31
0.0
  0
LINE
  5
15A
330
4E
100
AcDbEntity
  8
0
  6
Continuous
 62
     7
100
AcDbLine
 10
367.2941644339251
 20
294.5060927060873
 30
0.0
 11
367.2941644339251
 21
288.5060927060873
 31
0.0
  0
LINE
  5
15B
330
4E
100
AcDbEntity
  8
0
  6
Continuous
 62
     7
100
AcDbLine
 10
366.2941644339252
 20
294.5060927060873
 30
0.0
 11
376.2941644339252
 21
294.5060927060873
 31
0.0
  0
LINE
  5
15C
330
4E
100
AcDbEntity
  8
0
  6
Continuous
 62
     7
100
AcDbLine
 10
366.2941644339252
 20
217.5060927060873
 30
0.0
 11
376.2941644339252
 21
217.5060927060873
 31
0.0
  0
LINE
  5
15D
330
4E
100
AcDbEntity
  8
0
  6
Continuous
 62
     7
100
AcDbLine
 10
377.2941644339252
 20
293.5060927060873
 30
0.0
 11
377.2941644339252
 21
289.5060927060873
 31
0.0
  0
LINE
  5
15E
330
4E
100
AcDbEntity
  8
0
  6
Continuous
 62
     7
100
AcDbLine
 10
377.2941644339252
 20
218.5060927060873
 30
0.0
 11
377.2941644339252
 21
222.5060927060873
 31
0.0
  0
LINE
  5
15F
330
4E
100
AcDbEntity
  8
0
  6
Continuous
 62
     7
100
AcDbLine
 10
376.2941644339252
 20
223.5060927060873
 30
0.0
 11
367.2941644339251
 21
223.5060927060873
 31
0.0
  0
LINE
  5
160
330
4E
100
AcDbEntity
  8
0
  6
Continuous
 62
     7
100
AcDbLine
 10
376.2941644339252
 20
288.5060927060873
 30
0.0
 11
367.2941644339251
 21
288.5060927060873
 31
0.0
  0
LINE
  5
161
330
4E
100
AcDbEntity
  8
0
  6
Continuous
 62
     7
100
AcDbLine
 10
367.2941644339251
 20
268.0060927060873
 30
0.0
 11
376.2941644339252
 21
268.0060927060873
 31
0.0
  0
LINE
  5
162
330
4E
100
AcDbEntity
  8
0
  6
Continuous
 62
     7
100
AcDbLine
 10
367.2941644339251
 20
244.0060927060873
 30
0.0
 11
376.2941644339252
 21
244.0060927060873
 31
0.0
  0
LINE
  5
163
330
4E
100
AcDbEntity
  8
0
  6
Continuous
 62
     7
100
AcDbLine
 10
377.2941644339252
 20
267.0060927060873
 30
0.0
 11
377.2941644339252
 21
245.0060927060873
 31
0.0
  0
LINE
  5
164
330
4E
100
AcDbEntity
  8
0
  6
Continuous
 62
     7
100
AcDbLine
 10
366.2941644339252
 20
294.5060927060873
 30
0.0
 11
366.2941644339252
 21
217.5060927060873
 31
0.0
  0
ARC
  5
165
330
4E
100
AcDbEntity
  8
0
  6
Continuous
 62
     7
100
AcDbCircle
 10
154.0812670757757
 20
303.0060927060876
 30
0.0
 40
1.0
100
AcDbArc
 50
90.00000153523511
 51
180.0000030704735
  0
ARC
  5
166
330
4E
100
AcDbEntity
  8
0
  6
Continuous
 62
     7
100
AcDbCircle
 10
154.0812670757757
 20
228.0060927060875
 30
0.0
 40
1.000000000000001
100
AcDbArc
 50
180.0000030704686
 51
269.9999984647649
  0
ARC
  5
167
330
4E
100
AcDbEntity
  8
0
  6
Continuous
 62
     7
100
AcDbCircle
 10
265.6817498794447
 20
293.506092706087
 30
0.0
 40
1.0
100
AcDbArc
 50
0.0
 51
90.00000153523511
  0
ARC
  5
168
330
4E
100
AcDbEntity
  8
0
  6
Continuous
 62
     7
100
AcDbCircle
 10
265.6817498794447
 20
218.506092706087
 30
0.0
 40
1.0
100
AcDbArc
 50
269.9999984647649
 51
0.0
  0
ARC
  5
169
330
4E
100
AcDbEntity
  8
0
  6
Continuous
 62
     7
100
AcDbCircle
 10
376.2941644339252
 20
267.0060927060873
 30
0.0
 40
1.0
100
AcDbArc
 50
0.0
 51
90.00000153523186
  0
ARC
  5
16A
330
4E
100
AcDbEntity
  8
0
  6
Continuous
 62
     7
100
AcDbCircle
 10
376.2941644339252
 20
245.0060927060873
 30
0.0
 40
1.0
100
AcDbArc
 50
269.9999984647681
 51
0.0
  0
ARC
  5
16B
330
4E
100
AcDbEntity
  8
0
  6
Continuous
 62
     7
100
AcDbCircle
 10
376.2941644339252
 20
293.5060927060873
 30
0.0
 40
1.0
100
AcDbArc
 50
0.0
 51
90.00000153523186
  0
ARC
  5
16C
330
4E
100
AcDbEntity
  8
0
  6
Continuous
 62
     7
100
AcDbCircle
 10
376.2941644339252
 20
289.5060927060873
 30
0.0
 40
1.0
100
AcDbArc
 50
269.9999984647681
 51
0.0
  0
ARC
  5
16D
330
4E
100
AcDbEntity
  8
0
  6
Continuous
 62
     7
100
AcDbCircle
 10
376.2941644339252
 20
222.5060927060873
 30
0.0
 40
1.0
100
AcDbArc
 50
0.0
 51
90.00000153523186
  0
ARC
  5
16E
330
4E
100
AcDbEntity
  8
0
  6
Continuous
 62
     7
100
AcDbCircle
 10
376.2941644339252
 20
218.5060927060873
 30
0.0
 40
1.0
100
AcDbArc
 50
269.9999984647681
 51
0.0
  0
ENDBLK
  5
50
330
4E
100
AcDbEntity
  8
0
100
AcDbBlockEnd
  0
BLOCK
  5
52
330
51
100
AcDbEntity
  8
0
100
AcDbBlockBegin
  2
V96-3-H1
 70
     0
 10
-447.6971988633001
 20
102.8503579039882
 30
0.0
  3
V96-3-H1
  1

  0
LINE
  5
16F
330
51
100
AcDbEntity
  8
1
  6
DASH_CENTER
 62
     2
100
AcDbLine
 10
209.8815084776112
 20
184.2782676416619
 30
0.0
 11
209.8815084776112
 21
215.5060927060882
 31
0.0
  0
ENDBLK
  5
53
330
51
100
AcDbEntity
  8
0
100
AcDbBlockEnd
  0
BLOCK
  5
55
330
54
100
AcDbEntity
  8
0
100
AcDbBlockBegin
  2
V97-30-Z1__1
 70
     0
 10
580.3430691712517
 20
268.8036649604229
 30
0.0
  3
V97-30-Z1__1
  1

  0
LINE
  5
170
330
54
100
AcDbEntity
  8
1
  6
Continuous
 62
     7
100
AcDbLine
 10
376.2364849425247
 20
472.4209022040267
 30
0.0
 11
377.7268017422928
 21
472.7277321333907
 31
0.0
  0
LINE
  5
171
330
54
100
AcDbEntity
  8
1
  6
Continuous
 62
     7
100
AcDbLine
 10
375.4430707619878
 20
473.7951358761625
 30
0.0
 11
378.5930691712518
 21
474.4436649604228
 31
0.0
  0
LINE
  5
172
330
54
100
AcDbEntity
  8
0
  6
Continuous
 62
     7
100
AcDbLine
 10
373.443069171252
 20
491.0436649604228
 30
0.0
 11
373.443069171252
 21
490.2936649604228
 31
0.0
  0
LINE
  5
173
330
54
100
AcDbEntity
  8
0
  6
Continuous
 62
     7
100
AcDbLine
 10
380.3430691712518
 20
491.0436649604228
 30
0.0
 11
373.443069171252
 21
491.0436649604228
 31
0.0
  0
LINE
  5
174
330
54
100
AcDbEntity
  8
0
  6
Continuous
 62
     7
100
AcDbLine
 10
380.3430691712518
 20
490.2936649604228
 30
0.0
 11
380.3430691712518
 21
491.0436649604228
 31
0.0
  0
LINE
  5
175
330
54
100
AcDbEntity
  8
0
  6
Continuous
 62
     7
100
AcDbLine
 10
378.5930691712518
 20
488.5436649604228
 30
0.0
 11
380.3430691712518
 21
490.2936649604228
 31
0.0
  0
LINE
  5
176
330
54
100
AcDbEntity
  8
0
  6
Continuous
 62
     7
100
AcDbLine
 10
378.5930691712518
 20
484.2436649604228
 30
0.0
 11
378.5930691712518
 21
488.5436649604228
 31
0.0
  0
LINE
  5
177
330
54
100
AcDbEntity
  8
0
  6
Continuous
 62
     7
100
AcDbLine
 10
375.193069171252
 20
488.5436649604228
 30
0.0
 11
375.193069171252
 21
484.2436649604228
 31
0.0
  0
LINE
  5
178
330
54
100
AcDbEntity
  8
0
  6
Continuous
 62
     7
100
AcDbLine
 10
373.443069171252
 20
490.2936649604228
 30
0.0
 11
375.193069171252
 21
488.5436649604228
 31
0.0
  0
LINE
  5
179
330
54
100
AcDbEntity
  8
0
  6
Continuous
 62
     7
100
AcDbLine
 10
373.443069171252
 20
490.2936649604228
 30
0.0
 11
380.3430691712518
 21
490.2936649604228
 31
0.0
  0
LINE
  5
17A
330
54
100
AcDbEntity
  8
0
  6
Continuous
 62
     7
100
AcDbLine
 10
378.3330691712519
 20
484.2436649604228
 30
0.0
 11
378.5930691712518
 21
484.2436649604228
 31
0.0
  0
LINE
  5
17B
330
54
100
AcDbEntity
  8
0
  6
Continuous
 62
     7
100
AcDbLine
 10
378.3330691712519
 20
474.297818123322
 30
0.0
 11
378.3330691712519
 21
484.2436649604228
 31
0.0
  0
LINE
  5
17C
330
54
100
AcDbEntity
  8
0
  6
Continuous
 62
     7
100
AcDbLine
 10
376.893069171252
 20
471.8036649604229
 30
0.0
 11
378.3330691712519
 21
474.297818123322
 31
0.0
  0
LINE
  5
17D
330
54
100
AcDbEntity
  8
0
  6
Continuous
 62
     7
100
AcDbLine
 10
375.453069171252
 20
474.297818123322
 30
0.0
 11
376.893069171252
 21
471.8036649604229
 31
0.0
  0
LINE
  5
17E
330
54
100
AcDbEntity
  8
0
  6
Continuous
 62
     7
100
AcDbLine
 10
375.453069171252
 20
484.2436649604228
 30
0.0
 11
375.453069171252
 21
474.297818123322
 31
0.0
  0
LINE
  5
17F
330
54
100
AcDbEntity
  8
0
  6
Continuous
 62
     7
100
AcDbLine
 10
375.193069171252
 20
484.2436649604228
 30
0.0
 11
375.453069171252
 21
484.2436649604228
 31
0.0
  0
LINE
  5
180
330
54
100
AcDbEntity
  8
0
  6
Continuous
 62
     7
100
AcDbLine
 10
375.193069171252
 20
483.5436649604228
 30
0.0
 11
378.5930691712518
 21
484.2436649604228
 31
0.0
  0
LINE
  5
181
330
54
100
AcDbEntity
  8
0
  6
Continuous
 62
     7
100
AcDbLine
 10
375.193069171252
 20
482.1436649604229
 30
0.0
 11
378.5930691712518
 21
482.8436649604229
 31
0.0
  0
LINE
  5
182
330
54
100
AcDbEntity
  8
0
  6
Continuous
 62
     7
100
AcDbLine
 10
375.193069171252
 20
480.7436649604229
 30
0.0
 11
378.5930691712518
 21
481.4436649604228
 31
0.0
  0
LINE
  5
183
330
54
100
AcDbEntity
  8
0
  6
Continuous
 62
     7
100
AcDbLine
 10
375.193069171252
 20
479.3436649604229
 30
0.0
 11
378.5930691712518
 21
480.0436649604228
 31
0.0
  0
LINE
  5
184
330
54
100
AcDbEntity
  8
0
  6
Continuous
 62
     7
100
AcDbLine
 10
375.193069171252
 20
477.9436649604228
 30
0.0
 11
378.5930691712518
 21
478.6436649604228
 31
0.0
  0
LINE
  5
185
330
54
100
AcDbEntity
  8
0
  6
Continuous
 62
     7
100
AcDbLine
 10
375.193069171252
 20
476.5436649604228
 30
0.0
 11
378.5930691712518
 21
477.2436649604229
 31
0.0
  0
LINE
  5
186
330
54
100
AcDbEntity
  8
0
  6
Continuous
 62
     7
100
AcDbLine
 10
375.193069171252
 20
475.1436649604228
 30
0.0
 11
378.5930691712518
 21
475.8436649604229
 31
0.0
  0
LINE
  5
187
330
54
100
AcDbEntity
  8
0
  6
Continuous
 62
     7
100
AcDbLine
 10
375.193069171252
 20
488.5436649604228
 30
0.0
 11
378.5930691712518
 21
488.5436649604228
 31
0.0
  0
LINE
  5
188
330
54
100
AcDbEntity
  8
0
  6
Continuous
 62
     7
100
AcDbLine
 10
375.453069171252
 20
484.2436649604228
 30
0.0
 11
378.3330691712519
 21
484.2436649604228
 31
0.0
  0
LINE
  5
189
330
54
100
AcDbEntity
  8
0
  6
DASH_CENTER
 62
     2
100
AcDbLine
 10
376.893069171252
 20
468.8036649604229
 30
0.0
 11
376.893069171252
 21
494.0436649604228
 31
0.0
  0
ENDBLK
  5
56
330
54
100
AcDbEntity
  8
0
100
AcDbBlockEnd
  0
BLOCK
  5
58
330
57
100
AcDbEntity
  8
0
100
AcDbBlockBegin
  2
V97-30-Z1__2
 70
     0
 10
590.3430691712517
 20
268.8036649604229
 30
0.0
  3
V97-30-Z1__2
  1

  0
LINE
  5
18A
330
57
100
AcDbEntity
  8
0
  6
DASH_CENTER
 62
     2
100
AcDbLine
 10
386.893069171252
 20
468.8036649604229
 30
0.0
 11
386.893069171252
 21
494.0436649604228
 31
0.0
  0
LINE
  5
18B
330
57
100
AcDbEntity
  8
0
  6
Continuous
 62
     7
100
AcDbLine
 10
385.453069171252
 20
484.2436649604229
 30
0.0
 11
388.3330691712519
 21
484.2436649604229
 31
0.0
  0
LINE
  5
18C
330
57
100
AcDbEntity
  8
0
  6
Continuous
 62
     7
100
AcDbLine
 10
385.193069171252
 20
488.5436649604228
 30
0.0
 11
388.593069171252
 21
488.5436649604228
 31
0.0
  0
LINE
  5
18D
330
57
100
AcDbEntity
  8
0
  6
Continuous
 62
     7
100
AcDbLine
 10
385.193069171252
 20
475.1436649604228
 30
0.0
 11
388.593069171252
 21
475.8436649604229
 31
0.0
  0
LINE
  5
18E
330
57
100
AcDbEntity
  8
0
  6
Continuous
 62
     7
100
AcDbLine
 10
385.193069171252
 20
476.5436649604228
 30
0.0
 11
388.593069171252
 21
477.2436649604229
 31
0.0
  0
LINE
  5
18F
330
57
100
AcDbEntity
  8
0
  6
Continuous
 62
     7
100
AcDbLine
 10
385.193069171252
 20
477.9436649604228
 30
0.0
 11
388.593069171252
 21
478.6436649604228
 31
0.0
  0
LINE
  5
190
330
57
100
AcDbEntity
  8
0
  6
Continuous
 62
     7
100
AcDbLine
 10
385.193069171252
 20
479.3436649604229
 30
0.0
 11
388.593069171252
 21
480.0436649604228
 31
0.0
  0
LINE
  5
191
330
57
100
AcDbEntity
  8
0
  6
Continuous
 62
     7
100
AcDbLine
 10
385.193069171252
 20
480.7436649604229
 30
0.0
 11
388.593069171252
 21
481.4436649604228
 31
0.0
  0
LINE
  5
192
330
57
100
AcDbEntity
  8
0
  6
Continuous
 62
     7
100
AcDbLine
 10
385.193069171252
 20
482.1436649604228
 30
0.0
 11
388.593069171252
 21
482.8436649604229
 31
0.0
  0
LINE
  5
193
330
57
100
AcDbEntity
  8
0
  6
Continuous
 62
     7
100
AcDbLine
 10
385.193069171252
 20
483.5436649604228
 30
0.0
 11
388.593069171252
 21
484.2436649604229
 31
0.0
  0
LINE
  5
194
330
57
100
AcDbEntity
  8
0
  6
Continuous
 62
     7
100
AcDbLine
 10
385.193069171252
 20
484.2436649604229
 30
0.0
 11
385.453069171252
 21
484.2436649604229
 31
0.0
  0
LINE
  5
195
330
57
100
AcDbEntity
  8
0
  6
Continuous
 62
     7
100
AcDbLine
 10
385.453069171252
 20
484.2436649604229
 30
0.0
 11
385.453069171252
 21
474.297818123322
 31
0.0
  0
LINE
  5
196
330
57
100
AcDbEntity
  8
0
  6
Continuous
 62
     7
100
AcDbLine
 10
385.453069171252
 20
474.297818123322
 30
0.0
 11
386.893069171252
 21
471.8036649604229
 31
0.0
  0
LINE
  5
197
330
57
100
AcDbEntity
  8
0
  6
Continuous
 62
     7
100
AcDbLine
 10
386.893069171252
 20
471.8036649604229
 30
0.0
 11
388.3330691712519
 21
474.297818123322
 31
0.0
  0
LINE
  5
198
330
57
100
AcDbEntity
  8
0
  6
Continuous
 62
     7
100
AcDbLine
 10
388.3330691712519
 20
474.297818123322
 30
0.0
 11
388.3330691712519
 21
484.2436649604229
 31
0.0
  0
LINE
  5
199
330
57
100
AcDbEntity
  8
0
  6
Continuous
 62
     7
100
AcDbLine
 10
388.3330691712519
 20
484.2436649604229
 30
0.0
 11
388.593069171252
 21
484.2436649604229
 31
0.0
  0
LINE
  5
19A
330
57
100
AcDbEntity
  8
0
  6
Continuous
 62
     7
100
AcDbLine
 10
383.443069171252
 20
490.2936649604228
 30
0.0
 11
390.343069171252
 21
490.2936649604228
 31
0.0
  0
LINE
  5
19B
330
57
100
AcDbEntity
  8
0
  6
Continuous
 62
     7
100
AcDbLine
 10
383.443069171252
 20
490.2936649604228
 30
0.0
 11
385.193069171252
 21
488.5436649604228
 31
0.0
  0
LINE
  5
19C
330
57
100
AcDbEntity
  8
0
  6
Continuous
 62
     7
100
AcDbLine
 10
385.193069171252
 20
488.5436649604228
 30
0.0
 11
385.193069171252
 21
484.2436649604229
 31
0.0
  0
LINE
  5
19D
330
57
100
AcDbEntity
  8
0
  6
Continuous
 62
     7
100
AcDbLine
 10
388.593069171252
 20
484.2436649604229
 30
0.0
 11
388.593069171252
 21
488.5436649604228
 31
0.0
  0
LINE
  5
19E
330
57
100
AcDbEntity
  8
0
  6
Continuous
 62
     7
100
AcDbLine
 10
388.593069171252
 20
488.5436649604228
 30
0.0
 11
390.343069171252
 21
490.2936649604228
 31
0.0
  0
LINE
  5
19F
330
57
100
AcDbEntity
  8
0
  6
Continuous
 62
     7
100
AcDbLine
 10
390.343069171252
 20
490.2936649604228
 30
0.0
 11
390.343069171252
 21
491.0436649604228
 31
0.0
  0
LINE
  5
1A0
330
57
100
AcDbEntity
  8
0
  6
Continuous
 62
     7
100
AcDbLine
 10
390.343069171252
 20
491.0436649604228
 30
0.0
 11
383.443069171252
 21
491.0436649604228
 31
0.0
  0
LINE
  5
1A1
330
57
100
AcDbEntity
  8
0
  6
Continuous
 62
     7
100
AcDbLine
 10
383.443069171252
 20
491.0436649604228
 30
0.0
 11
383.443069171252
 21
490.2936649604228
 31
0.0
  0
LINE
  5
1A2
330
57
100
AcDbEntity
  8
1
  6
Continuous
 62
     7
100
AcDbLine
 10
385.4430707619878
 20
473.7951358761625
 30
0.0
 11
388.593069171252
 21
474.4436649604228
 31
0.0
  0
LINE
  5
1A3
330
57
100
AcDbEntity
  8
1
  6
Continuous
 62
     7
100
AcDbLine
 10
386.2364849425247
 20
472.4209022040267
 30
0.0
 11
387.7268017422928
 21
472.7277321333907
 31
0.0
  0
ENDBLK
  5
59
330
57
100
AcDbEntity
  8
0
100
AcDbBlockEnd
  0
BLOCK
  5
5B
330
5A
100
AcDbEntity
  8
0
100
AcDbBlockBegin
  2
V97D-H2
 70
     0
 10
693.5329922810379
 20
366.1325450413529
 30
0.0
  3
V97D-H2
  1

  0
LINE
  5
1A4
330
5A
100
AcDbEntity
  8
1
  6
Continuous
 62
     7
100
AcDbLine
 10
166.2315084776102
 20
489.1378643976619
 30
0.0
 11
253.5315084776102
 21
489.1378643976619
 31
0.0
  0
LINE
  5
1A5
330
5A
100
AcDbEntity
  8
1
  6
Continuous
 62
     7
100
AcDbLine
 10
166.2315084776102
 20
496.637864397662
 30
0.0
 11
253.5315084776102
 21
496.637864397662
 31
0.0
  0
LINE
  5
1A6
330
5A
100
AcDbEntity
  8
1
  6
Continuous
 62
     7
100
AcDbLine
 10
253.5315084776102
 20
496.637864397662
 30
0.0
 11
253.5315084776102
 21
489.1378643976619
 31
0.0
  0
LINE
  5
1A7
330
5A
100
AcDbEntity
  8
1
  6
Continuous
 62
     7
100
AcDbLine
 10
166.2315084776102
 20
496.637864397662
 30
0.0
 11
166.2315084776102
 21
489.1378643976619
 31
0.0
  0
LINE
  5
1A8
330
5A
100
AcDbEntity
  8
1
  6
Continuous
 62
     7
100
AcDbLine
 10
260.6315084776102
 20
498.637864397662
 30
0.0
 11
260.6315084776102
 21
489.1378643976619
 31
0.0
  0
LINE
  5
1A9
330
5A
100
AcDbEntity
  8
1
  6
Continuous
 62
     7
100
AcDbLine
 10
158.6315084776101
 20
498.637864397662
 30
0.0
 11
158.6315084776101
 21
489.1378643976619
 31
0.0
  0
LINE
  5
1AA
330
5A
100
AcDbEntity
  8
1
  6
Continuous
 62
     7
100
AcDbLine
 10
159.1315084776101
 20
498.637864397662
 30
0.0
 11
159.1315084776101
 21
489.1378643976619
 31
0.0
  0
LINE
  5
1AB
330
5A
100
AcDbEntity
  8
1
  6
Continuous
 62
     7
100
AcDbLine
 10
158.6315084776101
 20
489.1378643976619
 30
0.0
 11
159.1315084776101
 21
489.1378643976619
 31
0.0
  0
LINE
  5
1AC
330
5A
100
AcDbEntity
  8
1
  6
Continuous
 62
     7
100
AcDbLine
 10
159.1315084776101
 20
498.637864397662
 30
0.0
 11
158.6315084776101
 21
498.637864397662
 31
0.0
  0
LINE
  5
1AD
330
5A
100
AcDbEntity
  8
1
  6
Continuous
 62
     7
100
AcDbLine
 10
261.1315084776102
 20
498.637864397662
 30
0.0
 11
260.6315084776102
 21
498.637864397662
 31
0.0
  0
LINE
  5
1AE
330
5A
100
AcDbEntity
  8
1
  6
Continuous
 62
     7
100
AcDbLine
 10
260.6315084776102
 20
489.1378643976619
 30
0.0
 11
261.1315084776102
 21
489.1378643976619
 31
0.0
  0
LINE
  5
1AF
330
5A
100
AcDbEntity
  8
1
  6
Continuous
 62
     7
100
AcDbLine
 10
261.1315084776102
 20
498.637864397662
 30
0.0
 11
261.1315084776102
 21
489.1378643976619
 31
0.0
  0
LINE
  5
1B0
330
5A
100
AcDbEntity
  8
0
  6
Continuous
 62
     7
100
AcDbLine
 10
321.0066704905929
 20
336.9060927060875
 30
0.0
 11
323.006670490593
 21
328.0165155165209
 31
0.0
  0
LINE
  5
1B1
330
5A
100
AcDbEntity
  8
0
  6
Continuous
 62
     7
100
AcDbLine
 10
312.5066704504006
 20
336.9060927060875
 30
0.0
 11
321.0066704905929
 21
336.9060927060875
 31
0.0
  0
LINE
  5
1B2
330
5A
100
AcDbEntity
  8
0
  6
Continuous
 62
     7
100
AcDbLine
 10
311.0066704905929
 20
335.4060927864722
 30
0.0
 11
311.0066704905929
 21
333.9676455188961
 31
0.0
  0
LINE
  5
1B3
330
5A
100
AcDbEntity
  8
0
  6
Continuous
 62
     7
100
AcDbLine
 10
311.0066704905929
 20
326.006092706088
 30
0.0
 11
310.0066704905929
 21
326.006092706088
 31
0.0
  0
LINE
  5
1B4
330
5A
100
AcDbEntity
  8
0
  6
Continuous
 62
     7
100
AcDbLine
 10
311.0066704905929
 20
329.8445398932789
 30
0.0
 11
311.0066704905929
 21
326.006092706088
 31
0.0
  0
LINE
  5
1B5
330
5A
100
AcDbEntity
  8
0
  6
Continuous
 62
     7
100
AcDbLine
 10
310.0066704905929
 20
326.006092706088
 30
0.0
 11
310.0066704905929
 21
204.6060927060875
 31
0.0
  0
LINE
  5
1B6
330
5A
100
AcDbEntity
  8
0
  6
Continuous
 62
     7
100
AcDbLine
 10
311.5066704905929
 20
203.1060927060875
 30
0.0
 11
323.006670490593
 21
203.1060927060875
 31
0.0
  0
LINE
  5
1B7
330
5A
100
AcDbEntity
  8
0
  6
DASH_CENTER
 62
     2
100
AcDbLine
 10
175.6054457074131
 20
331.9060927060876
 30
0.0
 11
155.2631043114901
 21
331.9060927060876
 31
0.0
  0
LINE
  5
1B8
330
5A
100
AcDbEntity
  8
0
  6
DASH_CENTER
 62
     2
100
AcDbLine
 10
243.5324305111606
 20
331.9060927060876
 30
0.0
 11
264.4999126437303
 21
331.9060927060876
 31
0.0
  0
LINE
  5
1B9
330
5A
100
AcDbEntity
  8
0
  6
Continuous
 62
     7
100
AcDbLine
 10
260.4815084776101
 20
326.9060927060876
 30
0.0
 11
260.9815084776101
 21
326.9060927060876
 31
0.0
  0
LINE
  5
1BA
330
5A
100
AcDbEntity
  8
0
  6
DASH_CENTER
 62
     2
100
AcDbLine
 10
175.6054457074131
 20
331.9060927060876
 30
0.0
 11
155.2631043114901
 21
331.9060927060876
 31
0.0
  0
LINE
  5
1BB
330
5A
100
AcDbEntity
  8
0
  6
DASH_CENTER
 62
     2
100
AcDbLine
 10
243.5324305111606
 20
331.9060927060876
 30
0.0
 11
264.4999126437303
 21
331.9060927060876
 31
0.0
  0
LINE
  5
1BC
330
5A
100
AcDbEntity
  8
0
  6
Continuous
 62
     7
100
AcDbLine
 10
209.8815084776103
 20
325.4060927060877
 30
0.0
 11
160.1315084776107
 21
325.4060927060877
 31
0.0
  0
LINE
  5
1BD
330
5A
100
AcDbEntity
  8
0
  6
Continuous
 62
     7
100
AcDbLine
 10
158.6315084776103
 20
326.9060927060875
 30
0.0
 11
158.6315084776103
 21
455.2060927060874
 31
0.0
  0
LINE
  5
1BE
330
5A
100
AcDbEntity
  8
0
  6
Continuous
 62
     7
100
AcDbLine
 10
159.3315084776104
 20
336.9060927060875
 30
0.0
 11
159.3315084776104
 21
326.9060927060875
 31
0.0
  0
LINE
  5
1BF
330
5A
100
AcDbEntity
  8
0
  6
Continuous
 62
     7
100
AcDbLine
 10
166.2315084776106
 20
336.9060927060875
 30
0.0
 11
159.3315084776104
 21
336.9060927060875
 31
0.0
  0
LINE
  5
1C0
330
5A
100
AcDbEntity
  8
0
  6
Continuous
 62
     7
100
AcDbLine
 10
166.2315084776106
 20
326.9060927060875
 30
0.0
 11
166.2315084776106
 21
336.9060927060875
 31
0.0
  0
LINE
  5
1C1
330
5A
100
AcDbEntity
  8
0
  6
Continuous
 62
     7
100
AcDbLine
 10
209.8815084776103
 20
326.9060927060875
 30
0.0
 11
158.6315084776103
 21
326.9060927060875
 31
0.0
  0
LINE
  5
1C2
330
5A
100
AcDbEntity
  8
0
  6
Continuous
 62
     7
100
AcDbLine
 10
209.8815084776103
 20
325.4060927060877
 30
0.0
 11
259.6315084776102
 21
325.4060927060877
 31
0.0
  0
LINE
  5
1C3
330
5A
100
AcDbEntity
  8
0
  6
Continuous
 62
     7
100
AcDbLine
 10
261.1315084776107
 20
326.9060927060875
 30
0.0
 11
261.1315084776107
 21
455.2060927060874
 31
0.0
  0
LINE
  5
1C4
330
5A
100
AcDbEntity
  8
0
  6
Continuous
 62
     7
100
AcDbLine
 10
260.4315084776104
 20
336.9060927060875
 30
0.0
 11
260.4315084776104
 21
326.9060927060875
 31
0.0
  0
LINE
  5
1C5
330
5A
100
AcDbEntity
  8
0
  6
Continuous
 62
     7
100
AcDbLine
 10
253.5315084776103
 20
336.9060927060875
 30
0.0
 11
260.4315084776104
 21
336.9060927060875
 31
0.0
  0
LINE
  5
1C6
330
5A
100
AcDbEntity
  8
0
  6
Continuous
 62
     7
100
AcDbLine
 10
253.5315084776103
 20
326.9060927060875
 30
0.0
 11
253.5315084776103
 21
336.9060927060875
 31
0.0
  0
LINE
  5
1C7
330
5A
100
AcDbEntity
  8
0
  6
Continuous
 62
     7
100
AcDbLine
 10
209.8815084776103
 20
326.9060927060875
 30
0.0
 11
261.1315084776107
 21
326.9060927060875
 31
0.0
  0
LINE
  5
1C8
330
5A
100
AcDbEntity
  8
0
  6
Continuous
 62
     7
100
AcDbLine
 10
209.8815084776103
 20
461.2060927060875
 30
0.0
 11
164.6315084776103
 21
461.2060927060874
 31
0.0
  0
LINE
  5
1C9
330
5A
100
AcDbEntity
  8
0
  6
Continuous
 62
     7
100
AcDbLine
 10
209.8815084776103
 20
461.2060927060875
 30
0.0
 11
255.1315084776107
 21
461.2060927060875
 31
0.0
  0
LINE
  5
1CA
330
5A
100
AcDbEntity
  8
0
  6
Continuous
 62
     7
100
AcDbLine
 10
158.7815084776103
 20
326.9060927060875
 30
0.0
 11
158.7815084776103
 21
454.7060927060875
 31
0.0
  0
LINE
  5
1CB
330
5A
100
AcDbEntity
  8
0
  6
Continuous
 62
     7
100
AcDbLine
 10
209.8815084776103
 20
326.9060927060875
 30
0.0
 11
166.2815084776103
 21
326.9060927060875
 31
0.0
  0
LINE
  5
1CC
330
5A
100
AcDbEntity
  8
0
  6
Continuous
 62
     7
100
AcDbLine
 10
209.8815084776103
 20
460.7060927060875
 30
0.0
 11
164.7815084776107
 21
460.7060927060875
 31
0.0
  0
LINE
  5
1CD
330
5A
100
AcDbEntity
  8
0
  6
Continuous
 62
     7
100
AcDbLine
 10
159.2815084776103
 20
337.9060927060875
 30
0.0
 11
159.2815084776103
 21
326.9060927060875
 31
0.0
  0
LINE
  5
1CE
330
5A
100
AcDbEntity
  8
0
  6
Continuous
 62
     7
100
AcDbLine
 10
253.4815084776106
 20
337.9060927060875
 30
0.0
 11
158.7815084776103
 21
337.9060927060875
 31
0.0
  0
LINE
  5
1CF
330
5A
100
AcDbEntity
  8
0
  6
Continuous
 62
     7
100
AcDbLine
 10
166.2815084776103
 20
326.9060927060875
 30
0.0
 11
166.2815084776103
 21
337.9060927060875
 31
0.0
  0
LINE
  5
1D0
330
5A
100
AcDbEntity
  8
0
  6
Continuous
 62
     7
100
AcDbLine
 10
159.2815084776103
 20
326.9060927060875
 30
0.0
 11
158.7815084776103
 21
326.9060927060875
 31
0.0
  0
LINE
  5
1D1
330
5A
100
AcDbEntity
  8
0
  6
Continuous
 62
     7
100
AcDbLine
 10
260.9815084776101
 20
326.9060927060876
 30
0.0
 11
260.9815084776105
 21
454.7060927060875
 31
0.0
  0
LINE
  5
1D2
330
5A
100
AcDbEntity
  8
0
  6
Continuous
 62
     7
100
AcDbLine
 10
209.8815084776103
 20
326.9060927060875
 30
0.0
 11
253.4815084776106
 21
326.9060927060875
 31
0.0
  0
LINE
  5
1D3
330
5A
100
AcDbEntity
  8
0
  6
Continuous
 62
     7
100
AcDbLine
 10
209.8815084776103
 20
460.7060927060875
 30
0.0
 11
254.9815084776106
 21
460.7060927060874
 31
0.0
  0
LINE
  5
1D4
330
5A
100
AcDbEntity
  8
0
  6
Continuous
 62
     7
100
AcDbLine
 10
260.4815084776105
 20
337.9060927060875
 30
0.0
 11
260.4815084776101
 21
326.9060927060876
 31
0.0
  0
LINE
  5
1D5
330
5A
100
AcDbEntity
  8
0
  6
Continuous
 62
     7
100
AcDbLine
 10
253.4815084776106
 20
337.9060927060875
 30
0.0
 11
260.9815084776105
 21
337.9060927060875
 31
0.0
  0
LINE
  5
1D6
330
5A
100
AcDbEntity
  8
0
  6
Continuous
 62
     7
100
AcDbLine
 10
253.4815084776106
 20
326.9060927060875
 30
0.0
 11
253.4815084776106
 21
337.9060927060875
 31
0.0
  0
LINE
  5
1D7
330
5A
100
AcDbEntity
  8
0
  6
Continuous
 62
     7
100
AcDbLine
 10
260.4815084776101
 20
326.9060927060876
 30
0.0
 11
260.9815084776101
 21
326.9060927060876
 31
0.0
  0
ARC
  5
1D8
330
5A
100
AcDbEntity
  8
0
  6
Continuous
 62
     7
100
AcDbCircle
 10
312.5066704905929
 20
335.4060927060875
 30
0.0
 40
1.500000000000001
100
AcDbArc
 50
90.00000153523403
 51
179.9999969295319
  0
ARC
  5
1D9
330
5A
100
AcDbEntity
  8
0
  6
Continuous
 62
     7
100
AcDbCircle
 10
311.5066704905929
 20
204.6060927060875
 30
0.0
 40
1.500000000000002
100
AcDbArc
 50
180.0000030704702
 51
269.999998464766
  0
ARC
  5
1DA
330
5A
100
AcDbEntity
  8
0
  6
Continuous
 62
     7
100
AcDbCircle
 10
160.1315084776103
 20
326.9060927060875
 30
0.0
 40
1.500000000000002
100
AcDbArc
 50
179.9999969295189
 51
269.9999984647931
  0
ARC
  5
1DB
330
5A
100
AcDbEntity
  8
0
  6
Continuous
 62
     7
100
AcDbCircle
 10
259.6315084776102
 20
326.9060927060875
 30
0.0
 40
1.49999999999983
100
AcDbArc
 50
269.9999984647768
 51
0.0
  0
ARC
  5
1DC
330
5A
100
AcDbEntity
  8
0
  6
Continuous
 62
     7
100
AcDbCircle
 10
254.9815084776106
 20
331.9060927060875
 30
0.0
 40
7.500000000000126
100
AcDbArc
 50
325.0847937525556
 51
34.91520624744578
  0
ARC
  5
1DD
330
5A
100
AcDbEntity
  8
0
  6
Continuous
 62
     7
100
AcDbCircle
 10
164.7815084776103
 20
331.9060927060875
 30
0.0
 40
7.499999999999935
100
AcDbArc
 50
145.0847937525562
 51
214.9152062474448
  0
ARC
  5
1DE
330
5A
100
AcDbEntity
  8
0
  6
Continuous
 62
     7
100
AcDbCircle
 10
164.6315084776103
 20
455.2060927060874
 30
0.0
 40
6.00000000000006
100
AcDbArc
 50
90.00000153523186
 51
179.9999969295298
  0
ARC
  5
1DF
330
5A
100
AcDbEntity
  8
0
  6
Continuous
 62
     7
100
AcDbCircle
 10
255.1315084776107
 20
455.2060927060874
 30
0.0
 40
5.999999999999972
100
AcDbArc
 50
0.0
 51
90.00000153523676
  0
ARC
  5
1E0
330
5A
100
AcDbEntity
  8
0
  6
Continuous
 62
     7
100
AcDbCircle
 10
164.7815084776107
 20
454.7060927060875
 30
0.0
 40
6.000000000000003
100
AcDbArc
 50
90.00000153523565
 51
179.9999969295303
  0
ARC
  5
1E1
330
5A
100
AcDbEntity
  8
0
  6
Continuous
 62
     7
100
AcDbCircle
 10
254.9815084776106
 20
454.7060927060875
 30
0.0
 40
5.999999999999886
100
AcDbArc
 50
0.0
 51
90.0000015352316
  0
ENDBLK
  5
5C
330
5A
100
AcDbEntity
  8
0
100
AcDbBlockEnd
  0
BLOCK
  5
5E
330
5D
100
AcDbEntity
  8
0
100
AcDbBlockBegin
  2
V97D-H5__3
 70
     0
 10
166.2315084776102
 20
326.9060927060876
 30
0.0
  3
V97D-H5__3
  1

  0
LINE
  5
1E2
330
5D
100
AcDbEntity
  8
0
  6
Continuous
 62
     7
100
AcDbLine
 10
167.2315084776102
 20
336.9060927060876
 30
0.0
 11
167.2315084776102
 21
326.9060927060876
 31
0.0
  0
LINE
  5
1E3
330
5D
100
AcDbEntity
  8
0
  6
Continuous
 62
     7
100
AcDbLine
 10
166.2315084776102
 20
326.9060927060876
 30
0.0
 11
167.2315084776102
 21
326.9060927060876
 31
0.0
  0
LINE
  5
1E4
330
5D
100
AcDbEntity
  8
0
  6
Continuous
 62
     7
100
AcDbLine
 10
166.2315084776102
 20
336.9060927060876
 30
0.0
 11
167.2315084776102
 21
336.9060927060876
 31
0.0
  0
ENDBLK
  5
5F
330
5D
100
AcDbEntity
  8
0
100
AcDbBlockEnd
  0
BLOCK
  5
61
330
60
100
AcDbEntity
  8
0
100
AcDbBlockBegin
  2
V97D-H6
 70
     0
 10
167.2315084776102
 20
327.8646408217603
 30
0.0
  3
V97D-H6
  1

  0
LINE
  5
1E5
330
60
100
AcDbEntity
  8
0
  6
Continuous
 62
     7
100
AcDbLine
 10
169.9629249440781
 20
497.7784912043581
 30
0.0
 11
170.0803933263896
 21
497.5750299979119
 31
0.0
  0
LINE
  5
1E6
330
60
100
AcDbEntity
  8
0
  6
Continuous
 62
     7
100
AcDbLine
 10
170.0803933263896
 20
497.5750299979119
 30
0.0
 11
170.0803933263896
 21
496.637864397662
 31
0.0
  0
LINE
  5
1E7
330
60
100
AcDbEntity
  8
0
  6
Continuous
 62
     7
100
AcDbLine
 10
167.23150847761
 20
498.1793162819893
 30
0.0
 11
167.23150847761
 21
496.637864397662
 31
0.0
  0
LINE
  5
1E8
330
60
100
AcDbEntity
  8
0
  6
Continuous
 62
     7
100
AcDbLine
 10
169.73150847761
 20
498.1793162819892
 30
0.0
 11
167.23150847761
 21
498.1793162819893
 31
0.0
  0
LINE
  5
1E9
330
60
100
AcDbEntity
  8
0
  6
Continuous
 62
     7
100
AcDbLine
 10
169.73150847761
 20
498.1793162819892
 30
0.0
 11
170.0803933263896
 21
497.5750299979119
 31
0.0
  0
LINE
  5
1EA
330
60
100
AcDbEntity
  8
1
  6
Continuous
 62
     7
100
AcDbLine
 10
169.9921065600732
 20
496.637864397662
 30
0.0
 11
170.0803933263896
 21
496.637864397662
 31
0.0
  0
LINE
  5
1EB
330
60
100
AcDbEntity
  8
1
  6
Continuous
 62
     7
100
AcDbLine
 10
170.0803933263896
 20
496.637864397662
 30
0.0
 11
170.73150847761
 21
496.6378643976619
 31
0.0
  0
LINE
  5
1EC
330
60
100
AcDbEntity
  8
0
  6
Continuous
 62
     7
100
AcDbLine
 10
170.0803933263898
 20
335.3432583063377
 30
0.0
 11
170.0803933263898
 21
328.4689271058376
 31
0.0
  0
LINE
  5
1ED
330
60
100
AcDbEntity
  8
0
  6
Continuous
 62
     7
100
AcDbLine
 10
170.0803933263898
 20
328.4689271058376
 30
0.0
 11
169.7315084776102
 21
327.8646408217603
 31
0.0
  0
LINE
  5
1EE
330
60
100
AcDbEntity
  8
0
  6
Continuous
 62
     7
100
AcDbLine
 10
169.9629249440786
 20
335.5467195127838
 30
0.0
 11
170.0803933263898
 21
335.3432583063377
 31
0.0
  0
LINE
  5
1EF
330
60
100
AcDbEntity
  8
0
  6
Continuous
 62
     7
100
AcDbLine
 10
169.7315084776102
 20
335.947544590415
 30
0.0
 11
169.9629249440786
 21
335.5467195127838
 31
0.0
  0
LINE
  5
1F0
330
60
100
AcDbEntity
  8
0
  6
Continuous
 62
     7
100
AcDbLine
 10
170.7315084776102
 20
334.4060927060876
 30
0.0
 11
170.7315084776102
 21
329.4060927060876
 31
0.0
  0
LINE
  5
1F1
330
60
100
AcDbEntity
  8
0
  6
Continuous
 62
     7
100
AcDbLine
 10
167.2315084776102
 20
335.947544590415
 30
0.0
 11
167.2315084776102
 21
327.8646408217603
 31
0.0
  0
LINE
  5
1F2
330
60
100
AcDbEntity
  8
0
  6
Continuous
 62
     7
100
AcDbLine
 10
167.2315084776102
 20
327.8646408217603
 30
0.0
 11
169.7315084776102
 21
327.8646408217603
 31
0.0
  0
LINE
  5
1F3
330
60
100
AcDbEntity
  8
0
  6
Continuous
 62
     7
100
AcDbLine
 10
167.2315084776102
 20
329.8853667639239
 30
0.0
 11
169.7315084776102
 21
329.8853667639239
 31
0.0
  0
LINE
  5
1F4
330
60
100
AcDbEntity
  8
0
  6
Continuous
 62
     7
100
AcDbLine
 10
167.2315084776102
 20
333.9268186482513
 30
0.0
 11
169.7315084776102
 21
333.9268186482513
 31
0.0
  0
LINE
  5
1F5
330
60
100
AcDbEntity
  8
0
  6
Continuous
 62
     7
100
AcDbLine
 10
167.2315084776102
 20
335.947544590415
 30
0.0
 11
169.7315084776102
 21
335.947544590415
 31
0.0
  0
ARC
  5
1F6
330
60
100
AcDbEntity
  8
0
  6
Continuous
 62
     7
100
AcDbCircle
 10
168.4443414105388
 20
497.1689533109075
 30
0.0
 40
1.636347271176126
100
AcDbArc
 50
341.0612266249408
 51
21.86982633628405
  0
ARC
  5
1F7
330
60
100
AcDbEntity
  8
0
  6
Continuous
 62
     7
100
AcDbCircle
 10
169.73150847761
 20
496.6378643976619
 30
0.0
 40
1.0
100
AcDbArc
 50
0.0
 51
69.58087734936952
  0
ARC
  5
1F8
330
60
100
AcDbEntity
  8
0
  6
Continuous
 62
     7
100
AcDbCircle
 10
169.7315084776102
 20
329.4060927060876
 30
0.0
 40
0.9999999999999178
100
AcDbArc
 50
290.4191226506317
 51
0.0
  0
ARC
  5
1F9
330
60
100
AcDbEntity
  8
0
  6
Continuous
 62
     7
100
AcDbCircle
 10
168.444341410539
 20
328.875003792842
 30
0.0
 40
1.636347271177404
100
AcDbArc
 50
338.1301736637196
 51
38.130173663447
  0
ARC
  5
1FA
330
60
100
AcDbEntity
  8
0
  6
Continuous
 62
     7
100
AcDbCircle
 10
168.444341410539
 20
334.9371816193332
 30
0.0
 40
1.636347271176295
100
AcDbArc
 50
321.869826336553
 51
21.86982633628034
  0
ARC
  5
1FB
330
60
100
AcDbEntity
  8
0
  6
Continuous
 62
     7
100
AcDbCircle
 10
164.0539723084663
 20
331.9060927060876
 30
0.0
 40
6.026421017923504
100
AcDbArc
 50
340.4085422970864
 51
19.59145770291407
  0
ARC
  5
1FC
330
60
100
AcDbEntity
  8
0
  6
Continuous
 62
     7
100
AcDbCircle
 10
169.7315084776102
 20
334.4060927060876
 30
0.0
 40
1.0
100
AcDbArc
 50
0.0
 51
69.58087734937178
  0
ENDBLK
  5
62
330
60
100
AcDbEntity
  8
0
100
AcDbBlockEnd
  0
BLOCK
  5
64
330
63
100
AcDbEntity
  8
0
100
AcDbBlockBegin
  2
V97D-H4__4
 70
     0
 10
157.2815084776102
 20
327.406092640226
 30
0.0
  3
V97D-H4__4
  1

  0
LINE
  5
1FD
330
63
100
AcDbEntity
  8
0
  6
Continuous
 62
     7
100
AcDbLine
 10
170.7315084776102
 20
329.9060927060876
 30
0.0
 11
174.4025084776102
 21
329.9060927060876
 31
0.0
  0
LINE
  5
1FE
330
63
100
AcDbEntity
  8
0
  6
Continuous
 62
     7
100
AcDbLine
 10
174.7815084776102
 20
330.2850927060876
 30
0.0
 11
174.4025084776102
 21
329.9060927060876
 31
0.0
  0
LINE
  5
1FF
330
63
100
AcDbEntity
  8
0
  6
Continuous
 62
     2
100
AcDbLine
 10
170.7315084776102
 20
330.2850927060876
 30
0.0
 11
174.7815084776102
 21
330.2850927060876
 31
0.0
  0
LINE
  5
200
330
63
100
AcDbEntity
  8
0
  6
Continuous
 62
     7
100
AcDbLine
 10
174.7815084776102
 20
333.5270927060876
 30
0.0
 11
174.7815084776102
 21
330.2850927060876
 31
0.0
  0
LINE
  5
201
330
63
100
AcDbEntity
  8
0
  6
Continuous
 62
     7
100
AcDbLine
 10
174.4025084776102
 20
333.9060927060876
 30
0.0
 11
174.4025084776102
 21
329.9060927060876
 31
0.0
  0
LINE
  5
202
330
63
100
AcDbEntity
  8
0
  6
Continuous
 62
     2
100
AcDbLine
 10
174.7815084776102
 20
333.5270927060876
 30
0.0
 11
170.7315084776102
 21
333.5270927060876
 31
0.0
  0
LINE
  5
203
330
63
100
AcDbEntity
  8
0
  6
Continuous
 62
     7
100
AcDbLine
 10
174.4025084776102
 20
333.9060927060876
 30
0.0
 11
170.7315084776102
 21
333.9060927060876
 31
0.0
  0
LINE
  5
204
330
63
100
AcDbEntity
  8
0
  6
Continuous
 62
     7
100
AcDbLine
 10
174.4025084776102
 20
333.9060927060876
 30
0.0
 11
174.7815084776102
 21
333.5270927060876
 31
0.0
  0
ARC
  5
205
330
63
100
AcDbEntity
  8
0
  6
Continuous
 62
     7
100
AcDbCircle
 10
164.631508669368
 20
504.1378643976619
 30
0.0
 40
7.500000000000063
100
AcDbArc
 50
143.1301047956927
 51
216.8698952043069
  0
ARC
  5
206
330
63
100
AcDbEntity
  8
0
  6
Continuous
 62
     7
100
AcDbCircle
 10
164.7815084776102
 20
331.9060927060876
 30
0.0
 40
7.500000000000063
100
AcDbArc
 50
143.1301047956927
 51
216.8698952043069
  0
ENDBLK
  5
65
330
63
100
AcDbEntity
  8
0
100
AcDbBlockEnd
  0
BLOCK
  5
67
330
66
100
AcDbEntity
  8
0
100
AcDbBlockBegin
  2
V97D-H4__5
 70
     0
 10
262.4815084776105
 20
327.406092640226
 30
0.0
  3
V97D-H4__5
  1

  0
LINE
  5
207
330
66
100
AcDbEntity
  8
1
  6
Continuous
 62
     7
100
AcDbLine
 10
315.506670490593
 20
329.9060927060875
 30
0.0
 11
315.506670490593
 21
330.9060927060875
 31
0.0
  0
LINE
  5
208
330
66
100
AcDbEntity
  8
1
  6
Continuous
 62
     7
100
AcDbLine
 10
313.006670490593
 20
332.4060927060875
 30
0.0
 11
314.006670490593
 21
332.4060927060875
 31
0.0
  0
LINE
  5
209
330
66
100
AcDbEntity
  8
1
  6
Continuous
 62
     7
100
AcDbLine
 10
313.006670490593
 20
331.4060927060875
 30
0.0
 11
314.006670490593
 21
331.4060927060875
 31
0.0
  0
LINE
  5
20A
330
66
100
AcDbEntity
  8
1
  6
Continuous
 62
     7
100
AcDbLine
 10
317.006670490593
 20
332.4060927060875
 30
0.0
 11
317.006670490593
 21
331.4060927060875
 31
0.0
  0
LINE
  5
20B
330
66
100
AcDbEntity
  8
1
  6
Continuous
 62
     7
100
AcDbLine
 10
313.006670490593
 20
332.4060927060875
 30
0.0
 11
313.006670490593
 21
331.4060927060875
 31
0.0
  0
LINE
  5
20C
330
66
100
AcDbEntity
  8
1
  6
Continuous
 62
     7
100
AcDbLine
 10
314.506670490593
 20
329.9060927060875
 30
0.0
 11
314.506670490593
 21
330.9060927060875
 31
0.0
  0
LINE
  5
20D
330
66
100
AcDbEntity
  8
1
  6
Continuous
 62
     7
100
AcDbLine
 10
314.506670490593
 20
333.9060927060875
 30
0.0
 11
315.506670490593
 21
333.9060927060875
 31
0.0
  0
LINE
  5
20E
330
66
100
AcDbEntity
  8
1
  6
Continuous
 62
     7
100
AcDbLine
 10
314.506670490593
 20
329.9060927060875
 30
0.0
 11
315.506670490593
 21
329.9060927060875
 31
0.0
  0
LINE
  5
20F
330
66
100
AcDbEntity
  8
1
  6
Continuous
 62
     7
100
AcDbLine
 10
316.006670490593
 20
332.4060927060875
 30
0.0
 11
317.006670490593
 21
332.4060927060875
 31
0.0
  0
LINE
  5
210
330
66
100
AcDbEntity
  8
1
  6
Continuous
 62
     7
100
AcDbLine
 10
316.006670490593
 20
331.4060927060875
 30
0.0
 11
317.006670490593
 21
331.4060927060875
 31
0.0
  0
LINE
  5
211
330
66
100
AcDbEntity
  8
1
  6
Continuous
 62
     7
100
AcDbLine
 10
315.506670490593
 20
332.9060927060875
 30
0.0
 11
315.506670490593
 21
333.9060927060875
 31
0.0
  0
LINE
  5
212
330
66
100
AcDbEntity
  8
1
  6
Continuous
 62
     7
100
AcDbLine
 10
314.506670490593
 20
332.9060927060875
 30
0.0
 11
314.506670490593
 21
333.9060927060875
 31
0.0
  0
LINE
  5
213
330
66
100
AcDbEntity
  8
0
  6
Continuous
 62
     7
100
AcDbLine
 10
244.9815084776105
 20
333.5270927060876
 30
0.0
 11
245.3605084776105
 21
333.9060927060876
 31
0.0
  0
LINE
  5
214
330
66
100
AcDbEntity
  8
0
  6
Continuous
 62
     7
100
AcDbLine
 10
249.0315084776105
 20
333.9060927060876
 30
0.0
 11
245.3605084776105
 21
333.9060927060876
 31
0.0
  0
LINE
  5
215
330
66
100
AcDbEntity
  8
0
  6
Continuous
 62
     2
100
AcDbLine
 10
249.0315084776105
 20
333.5270927060876
 30
0.0
 11
244.9815084776105
 21
333.5270927060876
 31
0.0
  0
LINE
  5
216
330
66
100
AcDbEntity
  8
0
  6
Continuous
 62
     7
100
AcDbLine
 10
245.3605084776105
 20
329.9060927060876
 30
0.0
 11
245.3605084776105
 21
333.9060927060876
 31
0.0
  0
LINE
  5
217
330
66
100
AcDbEntity
  8
0
  6
Continuous
 62
     7
100
AcDbLine
 10
244.9815084776105
 20
330.2850927060876
 30
0.0
 11
244.9815084776105
 21
333.5270927060876
 31
0.0
  0
LINE
  5
218
330
66
100
AcDbEntity
  8
0
  6
Continuous
 62
     2
100
AcDbLine
 10
244.9815084776105
 20
330.2850927060876
 30
0.0
 11
249.0315084776105
 21
330.2850927060876
 31
0.0
  0
LINE
  5
219
330
66
100
AcDbEntity
  8
0
  6
Continuous
 62
     7
100
AcDbLine
 10
245.3605084776105
 20
329.9060927060876
 30
0.0
 11
244.9815084776105
 21
330.2850927060876
 31
0.0
  0
LINE
  5
21A
330
66
100
AcDbEntity
  8
0
  6
Continuous
 62
     7
100
AcDbLine
 10
245.3605084776105
 20
329.9060927060876
 30
0.0
 11
249.0315084776105
 21
329.9060927060876
 31
0.0
  0
ARC
  5
21B
330
66
100
AcDbEntity
  8
0
  6
Continuous
 62
     7
100
AcDbCircle
 10
255.1315082858524
 20
504.1378643976619
 30
0.0
 40
7.499999999999984
100
AcDbArc
 50
323.1301047956928
 51
36.86989520430756
  0
ARC
  5
21C
330
66
100
AcDbEntity
  8
0
  6
Continuous
 62
     7
100
AcDbCircle
 10
254.9815084776105
 20
331.9060927060876
 30
0.0
 40
7.499999999999893
100
AcDbArc
 50
323.1301047956922
 51
36.86989520430808
  0
CIRCLE
  5
21D
330
66
100
AcDbEntity
  8
1
  6
Continuous
 62
     7
100
AcDbCircle
 10
315.006670490593
 20
331.9060927060875
 30
0.0
 40
4.5
  0
ARC
  5
21E
330
66
100
AcDbEntity
  8
1
  6
Continuous
 62
     7
100
AcDbCircle
 10
314.006670490593
 20
330.9060927060875
 30
0.0
 40
0.5
100
AcDbArc
 50
0.0
 51
90.0
  0
ARC
  5
21F
330
66
100
AcDbEntity
  8
1
  6
Continuous
 62
     7
100
AcDbCircle
 10
314.006670490593
 20
332.9060927060875
 30
0.0
 40
0.5
100
AcDbArc
 50
270.0
 51
0.0
  0
ARC
  5
220
330
66
100
AcDbEntity
  8
1
  6
Continuous
 62
     7
100
AcDbCircle
 10
316.006670490593
 20
332.9060927060875
 30
0.0
 40
0.5
100
AcDbArc
 50
180.0
 51
270.0
  0
ARC
  5
221
330
66
100
AcDbEntity
  8
1
  6
Continuous
 62
     7
100
AcDbCircle
 10
316.006670490593
 20
330.9060927060875
 30
0.0
 40
0.5
100
AcDbArc
 50
90.0
 51
180.0
  0
ENDBLK
  5
68
330
66
100
AcDbEntity
  8
0
100
AcDbBlockEnd
  0
BLOCK
  5
6A
330
69
100
AcDbEntity
  8
0
100
AcDbBlockBegin
  2
V97D-H4__6
 70
     0
 10
249.0315084776105
 20
327.8646408217603
 30
0.0
  3
V97D-H4__6
  1

  0
LINE
  5
222
330
69
100
AcDbEntity
  8
0
  6
Continuous
 62
     7
100
AcDbLine
 10
249.6826236288308
 20
497.5750299979119
 30
0.0
 11
249.8000920111421
 21
497.7784912043581
 31
0.0
  0
LINE
  5
223
330
69
100
AcDbEntity
  8
0
  6
Continuous
 62
     7
100
AcDbLine
 10
249.6826236288308
 20
496.637864397662
 30
0.0
 11
249.6826236288308
 21
497.5750299979119
 31
0.0
  0
LINE
  5
224
330
69
100
AcDbEntity
  8
0
  6
Continuous
 62
     7
100
AcDbLine
 10
252.5315084776103
 20
496.637864397662
 30
0.0
 11
252.5315084776103
 21
498.1793162819893
 31
0.0
  0
LINE
  5
225
330
69
100
AcDbEntity
  8
0
  6
Continuous
 62
     7
100
AcDbLine
 10
252.5315084776103
 20
498.1793162819893
 30
0.0
 11
250.0315084776103
 21
498.1793162819892
 31
0.0
  0
LINE
  5
226
330
69
100
AcDbEntity
  8
0
  6
Continuous
 62
     7
100
AcDbLine
 10
249.6826236288308
 20
497.5750299979119
 30
0.0
 11
250.0315084776103
 21
498.1793162819892
 31
0.0
  0
LINE
  5
227
330
69
100
AcDbEntity
  8
1
  6
Continuous
 62
     7
100
AcDbLine
 10
249.6826236288308
 20
496.637864397662
 30
0.0
 11
249.770910395147
 21
496.637864397662
 31
0.0
  0
LINE
  5
228
330
69
100
AcDbEntity
  8
1
  6
Continuous
 62
     7
100
AcDbLine
 10
249.0315084776103
 20
496.6378643976619
 30
0.0
 11
249.6826236288308
 21
496.637864397662
 31
0.0
  0
LINE
  5
229
330
69
100
AcDbEntity
  8
0
  6
Continuous
 62
     7
100
AcDbLine
 10
250.0315084776104
 20
335.947544590415
 30
0.0
 11
252.5315084776103
 21
335.947544590415
 31
0.0
  0
LINE
  5
22A
330
69
100
AcDbEntity
  8
0
  6
Continuous
 62
     7
100
AcDbLine
 10
250.0315084776104
 20
333.9268186482513
 30
0.0
 11
252.5315084776103
 21
333.9268186482513
 31
0.0
  0
LINE
  5
22B
330
69
100
AcDbEntity
  8
0
  6
Continuous
 62
     7
100
AcDbLine
 10
250.0315084776104
 20
329.8853667639239
 30
0.0
 11
252.5315084776103
 21
329.8853667639239
 31
0.0
  0
LINE
  5
22C
330
69
100
AcDbEntity
  8
0
  6
Continuous
 62
     7
100
AcDbLine
 10
250.0315084776104
 20
327.8646408217603
 30
0.0
 11
252.5315084776103
 21
327.8646408217603
 31
0.0
  0
LINE
  5
22D
330
69
100
AcDbEntity
  8
0
  6
Continuous
 62
     7
100
AcDbLine
 10
252.5315084776103
 20
327.8646408217603
 30
0.0
 11
252.5315084776103
 21
335.947544590415
 31
0.0
  0
LINE
  5
22E
330
69
100
AcDbEntity
  8
0
  6
Continuous
 62
     7
100
AcDbLine
 10
249.0315084776105
 20
329.4060927060876
 30
0.0
 11
249.0315084776105
 21
334.4060927060876
 31
0.0
  0
LINE
  5
22F
330
69
100
AcDbEntity
  8
0
  6
Continuous
 62
     7
100
AcDbLine
 10
249.8000920111421
 20
335.5467195127838
 30
0.0
 11
250.0315084776104
 21
335.947544590415
 31
0.0
  0
LINE
  5
230
330
69
100
AcDbEntity
  8
0
  6
Continuous
 62
     7
100
AcDbLine
 10
249.6826236288308
 20
335.3432583063377
 30
0.0
 11
249.8000920111421
 21
335.5467195127838
 31
0.0
  0
LINE
  5
231
330
69
100
AcDbEntity
  8
0
  6
Continuous
 62
     7
100
AcDbLine
 10
250.0315084776104
 20
327.8646408217603
 30
0.0
 11
249.6826236288308
 21
328.4689271058376
 31
0.0
  0
LINE
  5
232
330
69
100
AcDbEntity
  8
0
  6
Continuous
 62
     7
100
AcDbLine
 10
249.6826236288308
 20
328.4689271058376
 30
0.0
 11
249.6826236288308
 21
335.3432583063377
 31
0.0
  0
ARC
  5
233
330
69
100
AcDbEntity
  8
0
  6
Continuous
 62
     7
100
AcDbCircle
 10
251.3186755446814
 20
497.1689533109075
 30
0.0
 40
1.63634727117714
100
AcDbArc
 50
158.130173663716
 51
198.9387733750592
  0
ARC
  5
234
330
69
100
AcDbEntity
  8
0
  6
Continuous
 62
     7
100
AcDbCircle
 10
250.0315084776103
 20
496.6378643976619
 30
0.0
 40
0.9999999999999216
100
AcDbArc
 50
110.4191226506229
 51
180.0
  0
ARC
  5
235
330
69
100
AcDbEntity
  8
0
  6
Continuous
 62
     7
100
AcDbCircle
 10
250.0315084776104
 20
334.4060927060876
 30
0.0
 40
1.000000000000068
100
AcDbArc
 50
110.4191226506267
 51
180.0
  0
ARC
  5
236
330
69
100
AcDbEntity
  8
0
  6
Continuous
 62
     7
100
AcDbCircle
 10
255.7090446467544
 20
331.9060927060876
 30
0.0
 40
6.026421017923631
100
AcDbArc
 50
160.4085422970863
 51
199.5914577029132
  0
ARC
  5
237
330
69
100
AcDbEntity
  8
0
  6
Continuous
 62
     7
100
AcDbCircle
 10
251.3186755446815
 20
334.9371816193332
 30
0.0
 40
1.63634727117722
100
AcDbArc
 50
158.130173663717
 51
218.1301736634489
  0
ARC
  5
238
330
69
100
AcDbEntity
  8
0
  6
Continuous
 62
     7
100
AcDbCircle
 10
251.3186755446815
 20
328.875003792842
 30
0.0
 40
1.636347271176227
100
AcDbArc
 50
141.8698263365512
 51
201.869826336283
  0
ARC
  5
239
330
69
100
AcDbEntity
  8
0
  6
Continuous
 62
     7
100
AcDbCircle
 10
250.0315084776104
 20
329.4060927060876
 30
0.0
 40
0.9999999999999147
100
AcDbArc
 50
180.0
 51
249.5808773493699
  0
ENDBLK
  5
6B
330
69
100
AcDbEntity
  8
0
100
AcDbBlockEnd
  0
BLOCK
  5
6D
330
6C
100
AcDbEntity
  8
0
100
AcDbBlockBegin
  2
V97D-H5__7
 70
     0
 10
252.5315084776104
 20
326.9060927060876
 30
0.0
  3
V97D-H5__7
  1

  0
LINE
  5
23A
330
6C
100
AcDbEntity
  8
0
  6
Continuous
 62
     7
100
AcDbLine
 10
252.5315084776104
 20
336.9060927060876
 30
0.0
 11
253.5315084776104
 21
336.9060927060876
 31
0.0
  0
LINE
  5
23B
330
6C
100
AcDbEntity
  8
0
  6
Continuous
 62
     7
100
AcDbLine
 10
252.5315084776104
 20
326.9060927060876
 30
0.0
 11
253.5315084776104
 21
326.9060927060876
 31
0.0
  0
LINE
  5
23C
330
6C
100
AcDbEntity
  8
0
  6
Continuous
 62
     7
100
AcDbLine
 10
252.5315084776104
 20
326.9060927060876
 30
0.0
 11
252.5315084776104
 21
336.9060927060876
 31
0.0
  0
ENDBLK
  5
6E
330
6C
100
AcDbEntity
  8
0
100
AcDbBlockEnd
  0
BLOCK
  5
70
330
6F
100
AcDbEntity
  8
0
100
AcDbBlockBegin
  2
V97D-H1
 70
     0
 10
318.5621725006123
 20
545.4601404168768
 30
0.0
  3
V97D-H1
  1

  0
LINE
  5
23D
330
6F
100
AcDbEntity
  8
1
  6
Continuous
 62
     7
100
AcDbLine
 10
158.6315084776101
 20
505.137864397662
 30
0.0
 11
261.1315084776102
 21
505.137864397662
 31
0.0
  0
LINE
  5
23E
330
6F
100
AcDbEntity
  8
1
  6
Continuous
 62
     7
100
AcDbLine
 10
158.6315084776101
 20
505.137864397662
 30
0.0
 11
158.6315084776101
 21
498.637864397662
 31
0.0
  0
LINE
  5
23F
330
6F
100
AcDbEntity
  8
1
  6
Continuous
 62
     7
100
AcDbLine
 10
159.1315084776101
 20
489.1378643976619
 30
0.0
 11
166.2315084776102
 21
489.1378643976619
 31
0.0
  0
LINE
  5
240
330
6F
100
AcDbEntity
  8
1
  6
Continuous
 62
     7
100
AcDbLine
 10
253.5315084776103
 20
498.637864397662
 30
0.0
 11
253.5315084776103
 21
496.637864397662
 31
0.0
  0
LINE
  5
241
330
6F
100
AcDbEntity
  8
1
  6
Continuous
 62
     7
100
AcDbLine
 10
253.5315084776103
 20
498.637864397662
 30
0.0
 11
166.2315084776102
 21
498.637864397662
 31
0.0
  0
LINE
  5
242
330
6F
100
AcDbEntity
  8
1
  6
Continuous
 62
     7
100
AcDbLine
 10
253.5315084776103
 20
489.1378643976619
 30
0.0
 11
260.6315084776102
 21
489.1378643976619
 31
0.0
  0
LINE
  5
243
330
6F
100
AcDbEntity
  8
1
  6
Continuous
 62
     7
100
AcDbLine
 10
166.2315084776102
 20
498.637864397662
 30
0.0
 11
166.2315084776102
 21
496.637864397662
 31
0.0
  0
LINE
  5
244
330
6F
100
AcDbEntity
  8
1
  6
Continuous
 62
     7
100
AcDbLine
 10
166.2315084776102
 20
498.637864397662
 30
0.0
 11
159.1315084776101
 21
498.637864397662
 31
0.0
  0
LINE
  5
245
330
6F
100
AcDbEntity
  8
1
  6
Continuous
 62
     7
100
AcDbLine
 10
260.6315084776102
 20
498.637864397662
 30
0.0
 11
253.5315084776103
 21
498.637864397662
 31
0.0
  0
LINE
  5
246
330
6F
100
AcDbEntity
  8
1
  6
Continuous
 62
     7
100
AcDbLine
 10
261.1315084776102
 20
505.137864397662
 30
0.0
 11
261.1315084776102
 21
498.637864397662
 31
0.0
  0
LINE
  5
247
330
6F
100
AcDbEntity
  8
1
  6
CENTER_DASH_DASH
 62
     2
100
AcDbLine
 10
314.1800205744508
 20
204.7560927060876
 30
0.0
 11
316.8333204067351
 21
204.7560927060876
 31
0.0
  0
LINE
  5
248
330
6F
100
AcDbEntity
  8
1
  6
Continuous
 62
     7
100
AcDbLine
 10
354.2066704905931
 20
250.0060927060873
 30
0.0
 11
354.2066704905931
 21
248.0060927060873
 31
0.0
  0
LINE
  5
249
330
6F
100
AcDbEntity
  8
1
  6
Continuous
 62
     7
100
AcDbLine
 10
354.2066704905931
 20
264.0060927060873
 30
0.0
 11
354.2066704905931
 21
262.0060927060873
 31
0.0
  0
LINE
  5
24A
330
6F
100
AcDbEntity
  8
1
  6
Continuous
 62
     7
100
AcDbLine
 10
354.2066704905931
 20
238.2560927060873
 30
0.0
 11
354.2066704905931
 21
216.756092706087
 31
0.0
  0
LINE
  5
24B
330
6F
100
AcDbEntity
  8
1
  6
Continuous
 62
     7
100
AcDbLine
 10
354.2066704905931
 20
282.2560927060871
 30
0.0
 11
354.2066704905931
 21
273.7560927060873
 31
0.0
  0
LINE
  5
24C
330
6F
100
AcDbEntity
  8
1
  6
Continuous
 62
     7
100
AcDbLine
 10
319.506670490593
 20
336.9060927060875
 30
0.0
 11
317.0777383024586
 21
336.9060927060875
 31
0.0
  0
LINE
  5
24D
330
6F
100
AcDbEntity
  8
0
  6
CENTER_DASH_DASH
 62
     2
100
AcDbLine
 10
315.1777383024586
 20
325.0060927060876
 30
0.0
 11
323.006670490593
 21
325.0060927060876
 31
0.0
  0
LINE
  5
24E
330
6F
100
AcDbEntity
  8
0
  6
CENTER_DASH_DASH
 62
     2
100
AcDbLine
 10
313.006670490593
 20
324.88166510666
 30
0.0
 11
313.006670490593
 21
264.5060927060876
 31
0.0
  0
LINE
  5
24F
330
6F
100
AcDbEntity
  8
0
  6
Continuous
 62
     7
100
AcDbLine
 10
326.006670490593
 20
311.7060927060876
 30
0.0
 11
326.006670490593
 21
338.4060927060876
 31
0.0
  0
LINE
  5
250
330
6F
100
AcDbEntity
  8
0
  6
Continuous
 62
     7
100
AcDbLine
 10
326.006670490593
 20
202.6060927060876
 30
0.0
 11
324.506670490593
 21
202.6060927060876
 31
0.0
  0
LINE
  5
251
330
6F
100
AcDbEntity
  8
0
  6
Continuous
 62
     7
100
AcDbLine
 10
326.006670490593
 20
202.6060927060876
 30
0.0
 11
326.006670490593
 21
217.3060927060876
 31
0.0
  0
LINE
  5
252
330
6F
100
AcDbEntity
  8
0
  6
Continuous
 62
     7
100
AcDbLine
 10
326.006670490593
 20
217.3060927060876
 30
0.0
 11
326.006670490593
 21
311.7060927060876
 31
0.0
  0
LINE
  5
253
330
6F
100
AcDbEntity
  8
0
  6
CENTER_DASH_DASH
 62
     2
100
AcDbLine
 10
313.006670490593
 20
264.5060927060876
 30
0.0
 11
313.006670490593
 21
206.0560927060876
 31
0.0
  0
LINE
  5
254
330
6F
100
AcDbEntity
  8
0
  6
Continuous
 62
     7
100
AcDbLine
 10
323.006670490593
 20
204.1060927060876
 30
0.0
 11
323.006670490593
 21
204.7560927060876
 31
0.0
  0
LINE
  5
255
330
6F
100
AcDbEntity
  8
0
  6
Continuous
 62
     7
100
AcDbLine
 10
319.506670490593
 20
338.1060927060876
 30
0.0
 11
319.506670490593
 21
336.9060927060875
 31
0.0
  0
LINE
  5
256
330
6F
100
AcDbEntity
  8
0
  6
Continuous
 62
     7
100
AcDbLine
 10
323.006670490593
 20
336.9060927060875
 30
0.0
 11
319.506670490593
 21
336.9060927060875
 31
0.0
  0
LINE
  5
257
330
6F
100
AcDbEntity
  8
0
  6
Continuous
 62
     7
100
AcDbLine
 10
323.006670490593
 20
204.7560927060876
 30
0.0
 11
323.006670490593
 21
336.9060927060875
 31
0.0
  0
LINE
  5
258
330
6F
100
AcDbEntity
  8
0
  6
Continuous
 62
     7
100
AcDbLine
 10
319.806670490593
 20
338.4060927060876
 30
0.0
 11
319.506670490593
 21
338.1060927060876
 31
0.0
  0
LINE
  5
259
330
6F
100
AcDbEntity
  8
0
  6
CENTER_DASH_DASH
 62
     7
100
AcDbLine
 10
313.006670490593
 20
204.7560927060876
 30
0.0
 11
314.1800205744508
 21
204.7560927060876
 31
0.0
  0
LINE
  5
25A
330
6F
100
AcDbEntity
  8
0
  6
CENTER_DASH_DASH
 62
     2
100
AcDbLine
 10
316.8333204067351
 20
204.7560927060876
 30
0.0
 11
323.006670490593
 21
204.7560927060876
 31
0.0
  0
LINE
  5
25B
330
6F
100
AcDbEntity
  8
0
  6
CENTER_DASH_DASH
 62
     2
100
AcDbLine
 10
313.006670490593
 20
206.0560927060876
 30
0.0
 11
313.006670490593
 21
204.7560927060876
 31
0.0
  0
LINE
  5
25C
330
6F
100
AcDbEntity
  8
0
  6
Continuous
 62
     7
100
AcDbLine
 10
326.2066343189022
 20
215.756092706087
 30
0.0
 11
326.2066343189022
 21
216.756092706087
 31
0.0
  0
LINE
  5
25D
330
6F
100
AcDbEntity
  8
0
  6
Continuous
 62
     7
100
AcDbLine
 10
326.2066343189022
 20
312.2560927060882
 30
0.0
 11
326.2066343189022
 21
313.2560927060882
 31
0.0
  0
LINE
  5
25E
330
6F
100
AcDbEntity
  8
0
  6
Continuous
 62
     7
100
AcDbLine
 10
319.806670490593
 20
338.4060927060876
 30
0.0
 11
326.006670490593
 21
338.4060927060876
 31
0.0
  0
LINE
  5
25F
330
6F
100
AcDbEntity
  8
0
  6
Continuous
 62
     7
100
AcDbLine
 10
261.1315084776102
 20
336.1988191124642
 30
0.0
 11
261.1315084776102
 21
336.9060927060876
 31
0.0
  0
LINE
  5
260
330
6F
100
AcDbEntity
  8
0
  6
Continuous
 62
     7
100
AcDbLine
 10
158.6315084776101
 20
336.1988191124639
 30
0.0
 11
158.6315084776101
 21
336.9060927060876
 31
0.0
  0
LINE
  5
261
330
6F
100
AcDbEntity
  8
0
  6
Continuous
 62
     7
100
AcDbLine
 10
159.2815084776103
 20
336.9060927060876
 30
0.0
 11
166.2815084776103
 21
336.9060927060876
 31
0.0
  0
LINE
  5
262
330
6F
100
AcDbEntity
  8
0
  6
Continuous
 62
     7
100
AcDbLine
 10
260.4815084776101
 20
336.9060927060876
 30
0.0
 11
253.4815084776101
 21
336.9060927060876
 31
0.0
  0
LINE
  5
263
330
6F
100
AcDbEntity
  8
0
  6
Continuous
 62
     7
100
AcDbLine
 10
158.6315084776101
 20
208.6060927060876
 30
0.0
 11
158.6315084776101
 21
327.6133662997114
 31
0.0
  0
LINE
  5
264
330
6F
100
AcDbEntity
  8
0
  6
Continuous
 62
     7
100
AcDbLine
 10
164.6315084776101
 20
202.6060927060876
 30
0.0
 11
209.8815084776103
 21
202.6060927060876
 31
0.0
  0
LINE
  5
265
330
6F
100
AcDbEntity
  8
0
  6
Continuous
 62
     7
100
AcDbLine
 10
160.2815084776103
 20
214.0560927060876
 30
0.0
 11
160.2815084776103
 21
313.2060927060877
 31
0.0
  0
LINE
  5
266
330
6F
100
AcDbEntity
  8
0
  6
Continuous
 62
     7
100
AcDbLine
 10
161.5815084776102
 20
214.3833654333603
 30
0.0
 11
161.5815084776102
 21
313.2060927060877
 31
0.0
  0
LINE
  5
267
330
6F
100
AcDbEntity
  8
0
  6
Continuous
 62
     7
100
AcDbLine
 10
159.3315084776102
 20
336.9060927060876
 30
0.0
 11
159.3315084776102
 21
326.9060927060876
 31
0.0
  0
LINE
  5
268
330
6F
100
AcDbEntity
  8
0
  6
Continuous
 62
     7
100
AcDbLine
 10
159.3315084776102
 20
326.9060927060876
 30
0.0
 11
166.2315084776102
 21
326.9060927060876
 31
0.0
  0
LINE
  5
269
330
6F
100
AcDbEntity
  8
0
  6
Continuous
 62
     7
100
AcDbLine
 10
166.2315084776102
 20
326.9060927060876
 30
0.0
 11
166.2315084776102
 21
336.9060927060876
 31
0.0
  0
LINE
  5
26A
330
6F
100
AcDbEntity
  8
0
  6
Continuous
 62
     7
100
AcDbLine
 10
158.6315084776101
 20
336.9060927060876
 30
0.0
 11
158.7815084776103
 21
336.9060927060876
 31
0.0
  0
LINE
  5
26B
330
6F
100
AcDbEntity
  8
0
  6
Continuous
 62
     7
100
AcDbLine
 10
261.1315084776102
 20
208.6060927060876
 30
0.0
 11
261.1315084776102
 21
327.613366299711
 31
0.0
  0
LINE
  5
26C
330
6F
100
AcDbEntity
  8
0
  6
Continuous
 62
     7
100
AcDbLine
 10
255.1315084776102
 20
202.6060927060876
 30
0.0
 11
209.8815084776103
 21
202.6060927060876
 31
0.0
  0
LINE
  5
26D
330
6F
100
AcDbEntity
  8
0
  6
Continuous
 62
     7
100
AcDbLine
 10
259.4815084776101
 20
214.0560927060876
 30
0.0
 11
259.4815084776101
 21
313.2060927060876
 31
0.0
  0
LINE
  5
26E
330
6F
100
AcDbEntity
  8
0
  6
Continuous
 62
     7
100
AcDbLine
 10
260.4315084776102
 20
336.9060927060876
 30
0.0
 11
260.4315084776102
 21
326.9060927060876
 31
0.0
  0
LINE
  5
26F
330
6F
100
AcDbEntity
  8
0
  6
Continuous
 62
     7
100
AcDbLine
 10
260.4315084776102
 20
326.9060927060876
 30
0.0
 11
253.5315084776103
 21
326.9060927060876
 31
0.0
  0
LINE
  5
270
330
6F
100
AcDbEntity
  8
0
  6
Continuous
 62
     7
100
AcDbLine
 10
253.5315084776103
 20
326.9060927060876
 30
0.0
 11
253.5315084776103
 21
336.9060927060876
 31
0.0
  0
LINE
  5
271
330
6F
100
AcDbEntity
  8
0
  6
Continuous
 62
     7
100
AcDbLine
 10
261.1315084776102
 20
336.9060927060876
 30
0.0
 11
260.9815084776101
 21
336.9060927060876
 31
0.0
  0
LINE
  5
272
330
6F
100
AcDbEntity
  8
0
  6
Continuous
 62
     7
100
AcDbLine
 10
250.1815084776102
 20
206.3833654333603
 30
0.0
 11
169.5815084776102
 21
206.3833654333603
 31
0.0
  0
LINE
  5
273
330
6F
100
AcDbEntity
  8
0
  6
Continuous
 62
     7
100
AcDbLine
 10
169.5815084776102
 20
206.0560927060876
 30
0.0
 11
250.1815084776102
 21
206.0560927060876
 31
0.0
  0
LINE
  5
274
330
6F
100
AcDbEntity
  8
0
  6
Continuous
 62
     7
100
AcDbLine
 10
250.1815084776103
 20
204.7560927060876
 30
0.0
 11
169.5815084776102
 21
204.7560927060876
 31
0.0
  0
LINE
  5
275
330
6F
100
AcDbEntity
  8
0
  6
Continuous
 62
     7
100
AcDbLine
 10
204.8815084776103
 20
203.9560927060876
 30
0.0
 11
214.8815084776103
 21
203.9560927060876
 31
0.0
  0
LINE
  5
276
330
6F
100
AcDbEntity
  8
0
  6
Continuous
 62
     7
100
AcDbLine
 10
204.8815084776103
 20
203.9560927060876
 30
0.0
 11
204.8815084776103
 21
204.7560927060876
 31
0.0
  0
LINE
  5
277
330
6F
100
AcDbEntity
  8
0
  6
Continuous
 62
     7
100
AcDbLine
 10
214.8815084776103
 20
203.9560927060876
 30
0.0
 11
214.8815084776103
 21
204.7560927060876
 31
0.0
  0
LINE
  5
278
330
6F
100
AcDbEntity
  8
0
  6
Continuous
 62
     7
100
AcDbLine
 10
209.8815084776103
 20
325.0060927060876
 30
0.0
 11
250.7532802127922
 21
322.4884995643786
 31
0.0
  0
LINE
  5
279
330
6F
100
AcDbEntity
  8
0
  6
Continuous
 62
     7
100
AcDbLine
 10
209.8815084776103
 20
323.7036287886392
 30
0.0
 11
250.6733551315302
 21
321.1909588207466
 31
0.0
  0
LINE
  5
27A
330
6F
100
AcDbEntity
  8
0
  6
Continuous
 62
     7
100
AcDbLine
 10
209.8815084776103
 20
323.7036287886392
 30
0.0
 11
169.0896618236903
 21
321.1909588207466
 31
0.0
  0
LINE
  5
27B
330
6F
100
AcDbEntity
  8
0
  6
Continuous
 62
     7
100
AcDbLine
 10
209.8815084776103
 20
325.0060927060876
 30
0.0
 11
169.0097367424283
 21
322.4884995643786
 31
0.0
  0
LINE
  5
27C
330
6F
100
AcDbEntity
  8
0
  6
Continuous
 62
     7
100
AcDbLine
 10
258.1815084776102
 20
214.3833654333603
 30
0.0
 11
258.1815084776102
 21
313.2060927060876
 31
0.0
  0
ARC
  5
27D
330
6F
100
AcDbEntity
  8
0
  6
Continuous
 62
     7
100
AcDbCircle
 10
324.506670490593
 20
204.1060927060876
 30
0.0
 40
1.5
100
AcDbArc
 50
180.0
 51
270.0
  0
ARC
  5
27E
330
6F
100
AcDbEntity
  8
0
  6
CENTER_DASH_DASH
 62
     2
100
AcDbCircle
 10
315.506670490593
 20
205.4560927060876
 30
0.0
 40
1.500000000000057
100
AcDbArc
 50
207.8181392846523
 51
332.1818607153447
  0
ARC
  5
27F
330
6F
100
AcDbEntity
  8
0
  6
Continuous
 62
     7
100
AcDbCircle
 10
259.6315084776102
 20
336.9060927060876
 30
0.0
 40
1.5
100
AcDbArc
 50
0.0
 51
25.8419327631747
  0
ARC
  5
280
330
6F
100
AcDbEntity
  8
0
  6
Continuous
 62
     7
100
AcDbCircle
 10
164.6315084776101
 20
208.6060927060876
 30
0.0
 40
6.000000000000009
100
AcDbArc
 50
180.0000030704694
 51
269.999998464767
  0
ARC
  5
281
330
6F
100
AcDbEntity
  8
0
  6
Continuous
 62
     7
100
AcDbCircle
 10
255.1315084776102
 20
208.6060927060876
 30
0.0
 40
6.000000000000003
100
AcDbArc
 50
269.9999984647662
 51
0.0
  0
ARC
  5
282
330
6F
100
AcDbEntity
  8
0
  6
Continuous
 62
     7
100
AcDbCircle
 10
160.1315084776101
 20
336.9060927060876
 30
0.0
 40
1.499999999999857
100
AcDbArc
 50
154.1580672368287
 51
180.0000030704637
  0
ARC
  5
283
330
6F
100
AcDbEntity
  8
0
  6
Continuous
 62
     7
100
AcDbCircle
 10
169.5815084776102
 20
214.3833654333603
 30
0.0
 40
8.00000000000001
100
AcDbArc
 50
180.0000030704686
 51
269.9999984647653
  0
ARC
  5
284
330
6F
100
AcDbEntity
  8
0
  6
Continuous
 62
     7
100
AcDbCircle
 10
250.1815084776102
 20
214.3833654333603
 30
0.0
 40
8.000000000000002
100
AcDbArc
 50
269.9999984647653
 51
0.0
  0
ARC
  5
285
330
6F
100
AcDbEntity
  8
0
  6
Continuous
 62
     7
100
AcDbCircle
 10
169.5815084776102
 20
214.0560927060876
 30
0.0
 40
8.00000000000001
100
AcDbArc
 50
180.0000030704688
 51
269.9999984647653
  0
ARC
  5
286
330
6F
100
AcDbEntity
  8
0
  6
Continuous
 62
     7
100
AcDbCircle
 10
250.1815084776102
 20
214.0560927060876
 30
0.0
 40
8.000000000000002
100
AcDbArc
 50
269.9999984647653
 51
0.0
  0
ARC
  5
287
330
6F
100
AcDbEntity
  8
0
  6
Continuous
 62
     7
100
AcDbCircle
 10
169.5815084776102
 20
214.0560927060876
 30
0.0
 40
9.299999999999939
100
AcDbArc
 50
180.0000030704691
 51
269.999998464765
  0
ARC
  5
288
330
6F
100
AcDbEntity
  8
0
  6
Continuous
 62
     7
100
AcDbCircle
 10
250.1815084776102
 20
214.0560927060876
 30
0.0
 40
9.300000000000015
100
AcDbArc
 50
269.9999984647652
 51
0.0
  0
ARC
  5
289
330
6F
100
AcDbEntity
  8
0
  6
Continuous
 62
     7
100
AcDbCircle
 10
250.1815084776103
 20
313.2060927060876
 30
0.0
 40
7.999999999999886
100
AcDbArc
 50
359.9999999999829
 51
86.47518634217538
  0
ARC
  5
28A
330
6F
100
AcDbEntity
  8
0
  6
Continuous
 62
     7
100
AcDbCircle
 10
250.1815084776103
 20
313.2060927060876
 30
0.0
 40
9.299999999999784
100
AcDbArc
 50
0.0
 51
86.47518634217582
  0
ARC
  5
28B
330
6F
100
AcDbEntity
  8
0
  6
Continuous
 62
     7
100
AcDbCircle
 10
169.5815084776102
 20
313.2060927060877
 30
0.0
 40
7.999999999999943
100
AcDbArc
 50
93.52481672829352
 51
179.9999969295493
  0
ARC
  5
28C
330
6F
100
AcDbEntity
  8
0
  6
Continuous
 62
     7
100
AcDbCircle
 10
169.5815084776102
 20
313.2060927060877
 30
0.0
 40
9.29999999999991
100
AcDbArc
 50
93.52481672829342
 51
180.0000030704689
  0
ENDBLK
  5
71
330
6F
100
AcDbEntity
  8
0
100
AcDbBlockEnd
  0
BLOCK
  5
73
330
72
100
AcDbEntity
  8
0
100
AcDbBlockBegin
  2
V97-H11
 70
     0
 10
913.1473104498818
 20
680.8055648208717
 30
0.0
  3
V97-H11
  1

  0
LINE
  5
28D
330
72
100
AcDbEntity
  8
1
  6
Continuous
 62
     7
100
AcDbLine
 10
169.2815084776109
 20
563.6378643976619
 30
0.0
 11
250.4815084776096
 21
563.637864397662
 31
0.0
  0
LINE
  5
28E
330
72
100
AcDbEntity
  8
1
  6
Continuous
 62
     7
100
AcDbLine
 10
168.2815084776107
 20
562.6378643976619
 30
0.0
 11
169.2815084776107
 21
562.637864397662
 31
0.0
  0
LINE
  5
28F
330
72
100
AcDbEntity
  8
1
  6
Continuous
 62
     7
100
AcDbLine
 10
168.2815084776107
 20
562.6378643976619
 30
0.0
 11
168.2815084776107
 21
534.1378643976619
 31
0.0
  0
LINE
  5
290
330
72
100
AcDbEntity
  8
1
  6
Continuous
 62
     7
100
AcDbLine
 10
168.2815084776107
 20
534.1378643976619
 30
0.0
 11
169.2815084776107
 21
534.1378643976619
 31
0.0
  0
LINE
  5
291
330
72
100
AcDbEntity
  8
1
  6
Continuous
 62
     7
100
AcDbLine
 10
168.2815084776107
 20
534.1378643976619
 30
0.0
 11
168.2815084776107
 21
515.1378643976619
 31
0.0
  0
LINE
  5
292
330
72
100
AcDbEntity
  8
1
  6
Continuous
 62
     7
100
AcDbLine
 10
242.4815084776096
 20
562.6378643976619
 30
0.0
 11
250.4815084776096
 21
562.637864397662
 31
0.0
  0
LINE
  5
293
330
72
100
AcDbEntity
  8
1
  6
Continuous
 62
     7
100
AcDbLine
 10
251.4815084776096
 20
562.6378643976619
 30
0.0
 11
251.4815084776096
 21
534.1378643976619
 31
0.0
  0
LINE
  5
294
330
72
100
AcDbEntity
  8
1
  6
Continuous
 62
     7
100
AcDbLine
 10
242.4815084776096
 20
534.1378643976619
 30
0.0
 11
250.4815084776096
 21
534.1378643976619
 31
0.0
  0
LINE
  5
295
330
72
100
AcDbEntity
  8
1
  6
Continuous
 62
     7
100
AcDbLine
 10
251.4815084776096
 20
534.1378643976619
 30
0.0
 11
251.4815084776096
 21
515.1378643976619
 31
0.0
  0
LINE
  5
296
330
72
100
AcDbEntity
  8
1
  6
Continuous
 62
     7
100
AcDbLine
 10
241.4815084776096
 20
561.6378643976619
 30
0.0
 11
241.4815084776096
 21
535.1378643976619
 31
0.0
  0
LINE
  5
297
330
72
100
AcDbEntity
  8
1
  6
Continuous
 62
     7
100
AcDbLine
 10
178.2815084776107
 20
561.6378643976619
 30
0.0
 11
178.2815084776107
 21
535.1378643976619
 31
0.0
  0
LINE
  5
298
330
72
100
AcDbEntity
  8
1
  6
Continuous
 62
     7
100
AcDbLine
 10
250.4815084776096
 20
563.637864397662
 30
0.0
 11
250.4815084776096
 21
562.637864397662
 31
0.0
  0
LINE
  5
299
330
72
100
AcDbEntity
  8
1
  6
Continuous
 62
     7
100
AcDbLine
 10
250.4815084776096
 20
562.637864397662
 30
0.0
 11
251.4815084776096
 21
562.6378643976619
 31
0.0
  0
LINE
  5
29A
330
72
100
AcDbEntity
  8
1
  6
Continuous
 62
     7
100
AcDbLine
 10
250.4815084776096
 20
534.1378643976619
 30
0.0
 11
250.4815084776096
 21
515.1378643976619
 31
0.0
  0
LINE
  5
29B
330
72
100
AcDbEntity
  8
1
  6
Continuous
 62
     7
100
AcDbLine
 10
250.4815084776096
 20
534.1378643976619
 30
0.0
 11
251.4815084776096
 21
534.1378643976619
 31
0.0
  0
LINE
  5
29C
330
72
100
AcDbEntity
  8
1
  6
Continuous
 62
     7
100
AcDbLine
 10
169.2815084776109
 20
563.6378643976619
 30
0.0
 11
169.2815084776107
 21
562.637864397662
 31
0.0
  0
LINE
  5
29D
330
72
100
AcDbEntity
  8
1
  6
Continuous
 62
     7
100
AcDbLine
 10
169.2815084776107
 20
562.637864397662
 30
0.0
 11
177.2815084776107
 21
562.6378643976619
 31
0.0
  0
LINE
  5
29E
330
72
100
AcDbEntity
  8
1
  6
Continuous
 62
     7
100
AcDbLine
 10
169.2815084776107
 20
534.1378643976619
 30
0.0
 11
169.2815084776107
 21
515.1378643976619
 31
0.0
  0
LINE
  5
29F
330
72
100
AcDbEntity
  8
1
  6
Continuous
 62
     7
100
AcDbLine
 10
169.2815084776107
 20
534.1378643976619
 30
0.0
 11
177.2815084776107
 21
534.1378643976619
 31
0.0
  0
LINE
  5
2A0
330
72
100
AcDbEntity
  8
0
  6
Continuous
 62
     7
100
AcDbLine
 10
386.4566343189022
 20
240.756092706087
 30
0.0
 11
386.4566343189022
 21
247.0060927060877
 31
0.0
  0
LINE
  5
2A1
330
72
100
AcDbEntity
  8
0
  6
Continuous
 62
     7
100
AcDbLine
 10
386.4566343189022
 20
284.0060927060873
 30
0.0
 11
386.4566343189022
 21
291.0060927060877
 31
0.0
  0
LINE
  5
2A2
330
72
100
AcDbEntity
  8
0
  6
Continuous
 62
     7
100
AcDbLine
 10
355.2066704905931
 20
309.7560927060882
 30
0.0
 11
355.2066704905931
 21
314.2560927060882
 31
0.0
  0
LINE
  5
2A3
330
72
100
AcDbEntity
  8
0
  6
Continuous
 62
     7
100
AcDbLine
 10
384.4566343189022
 20
309.7560927060882
 30
0.0
 11
384.4566343189022
 21
295.406092706088
 31
0.0
  0
LINE
  5
2A4
330
72
100
AcDbEntity
  8
1
  6
Continuous
 62
     7
100
AcDbLine
 10
383.4566343189022
 20
295.406092706088
 30
0.0
 11
384.4566343189022
 21
295.406092706088
 31
0.0
  0
LINE
  5
2A5
330
72
100
AcDbEntity
  8
1
  6
Continuous
 62
     7
100
AcDbLine
 10
383.4566343189022
 20
309.7560927060882
 30
0.0
 11
383.4566343189022
 21
295.406092706088
 31
0.0
  0
LINE
  5
2A6
330
72
100
AcDbEntity
  8
0
  6
Continuous
 62
     7
100
AcDbLine
 10
385.4566343189022
 20
309.7560927060882
 30
0.0
 11
385.4566343189022
 21
220.0060927060875
 31
0.0
  0
LINE
  5
2A7
330
72
100
AcDbEntity
  8
1
  6
Continuous
 62
     7
100
AcDbLine
 10
383.4566343189022
 20
309.7560927060882
 30
0.0
 11
385.4566343189022
 21
309.7560927060882
 31
0.0
  0
LINE
  5
2A8
330
72
100
AcDbEntity
  8
1
  6
Continuous
 62
     7
100
AcDbLine
 10
385.4566343189022
 20
311.7560927060882
 30
0.0
 11
383.4566343189022
 21
311.7560927060882
 31
0.0
  0
LINE
  5
2A9
330
72
100
AcDbEntity
  8
0
  6
Continuous
 62
     7
100
AcDbLine
 10
383.4566343189022
 20
313.2560927060882
 30
0.0
 11
383.9566343189022
 21
313.2560927060882
 31
0.0
  0
LINE
  5
2AA
330
72
100
AcDbEntity
  8
0
  6
Continuous
 62
     7
100
AcDbLine
 10
355.2066704905931
 20
314.2560927060882
 30
0.0
 11
355.2066343189022
 21
314.2560927060882
 31
0.0
  0
LINE
  5
2AB
330
72
100
AcDbEntity
  8
0
  6
Continuous
 62
     7
100
AcDbLine
 10
383.4566343189022
 20
312.2560927060882
 30
0.0
 11
383.9566343189022
 21
312.2560927060882
 31
0.0
  0
LINE
  5
2AC
330
72
100
AcDbEntity
  8
0
  6
Continuous
 62
     7
100
AcDbLine
 10
355.2066704905931
 20
219.3560927060875
 30
0.0
 11
355.2066704905931
 21
214.756092706087
 31
0.0
  0
LINE
  5
2AD
330
72
100
AcDbEntity
  8
0
  6
Continuous
 62
     7
100
AcDbLine
 10
355.2066704905931
 20
228.7560927060873
 30
0.0
 11
355.2066704905931
 21
226.3560927060865
 31
0.0
  0
LINE
  5
2AE
330
72
100
AcDbEntity
  8
0
  6
Continuous
 62
     7
100
AcDbLine
 10
384.4566343189022
 20
220.0060927060875
 30
0.0
 11
384.4566343189022
 21
217.256092706087
 31
0.0
  0
LINE
  5
2AF
330
72
100
AcDbEntity
  8
0
  6
Continuous
 62
     7
100
AcDbLine
 10
383.4566343189022
 20
215.756092706087
 30
0.0
 11
383.9566343189022
 21
215.756092706087
 31
0.0
  0
LINE
  5
2B0
330
72
100
AcDbEntity
  8
0
  6
Continuous
 62
     7
100
AcDbLine
 10
383.4566343189022
 20
216.756092706087
 30
0.0
 11
383.9566343189022
 21
216.756092706087
 31
0.0
  0
LINE
  5
2B1
330
72
100
AcDbEntity
  8
0
  6
Continuous
 62
     7
100
AcDbLine
 10
336.2066343189022
 20
215.756092706087
 30
0.0
 11
355.2066704905931
 21
215.756092706087
 31
0.0
  0
LINE
  5
2B2
330
72
100
AcDbEntity
  8
0
  6
Continuous
 62
     7
100
AcDbLine
 10
385.4566343189022
 20
220.0060927060875
 30
0.0
 11
385.4566343189022
 21
217.256092706087
 31
0.0
  0
LINE
  5
2B3
330
72
100
AcDbEntity
  8
0
  6
Continuous
 62
     7
100
AcDbLine
 10
383.4566343189022
 20
217.256092706087
 30
0.0
 11
383.4566343189022
 21
214.756092706087
 31
0.0
  0
LINE
  5
2B4
330
72
100
AcDbEntity
  8
1
  6
Continuous
 62
     7
100
AcDbLine
 10
385.4566343189022
 20
217.256092706087
 30
0.0
 11
383.4566343189022
 21
217.256092706087
 31
0.0
  0
LINE
  5
2B5
330
72
100
AcDbEntity
  8
0
  6
Continuous
 62
     7
100
AcDbLine
 10
366.2941644339252
 20
262.0060927060873
 30
0.0
 11
352.2066343189022
 21
262.0060927060873
 31
0.0
  0
LINE
  5
2B6
330
72
100
AcDbEntity
  8
0
  6
Continuous
 62
     7
100
AcDbLine
 10
366.2941644339252
 20
250.0060927060873
 30
0.0
 11
352.2066343189022
 21
250.0060927060873
 31
0.0
  0
LINE
  5
2B7
330
72
100
AcDbEntity
  8
0
  6
Continuous
 62
     7
100
AcDbLine
 10
336.2066343189022
 20
283.256092706087
 30
0.0
 11
336.2066343189022
 21
292.0060927060882
 31
0.0
  0
LINE
  5
2B8
330
72
100
AcDbEntity
  8
0
  6
Continuous
 62
     7
100
AcDbLine
 10
336.2066343189022
 20
272.7560927060873
 30
0.0
 11
336.2066343189022
 21
239.2560927060873
 31
0.0
  0
LINE
  5
2B9
330
72
100
AcDbEntity
  8
0
  6
Continuous
 62
     7
100
AcDbLine
 10
385.4566343189022
 20
295.406092706088
 30
0.0
 11
384.4566343189022
 21
295.406092706088
 31
0.0
  0
LINE
  5
2BA
330
72
100
AcDbEntity
  8
0
  6
Continuous
 62
     7
100
AcDbLine
 10
363.0989391643153
 20
261.0060927060873
 30
0.0
 11
363.0989391643153
 21
251.0060927060873
 31
0.0
  0
LINE
  5
2BB
330
72
100
AcDbEntity
  8
0
  6
Continuous
 62
     7
100
AcDbLine
 10
352.2066343189022
 20
261.0060927060873
 30
0.0
 11
352.2066343189022
 21
251.0060927060873
 31
0.0
  0
LINE
  5
2BC
330
72
100
AcDbEntity
  8
0
  6
Continuous
 62
     7
100
AcDbLine
 10
352.2066343189022
 20
248.0060927060873
 30
0.0
 11
366.2941644339252
 21
248.0060927060873
 31
0.0
  0
LINE
  5
2BD
330
72
100
AcDbEntity
  8
0
  6
Continuous
 62
     7
100
AcDbLine
 10
352.2066343189022
 20
264.0060927060873
 30
0.0
 11
366.2941644339252
 21
264.0060927060873
 31
0.0
  0
LINE
  5
2BE
330
72
100
AcDbEntity
  8
0
  6
Continuous
 62
     7
100
AcDbLine
 10
383.4566343189022
 20
220.0060927060875
 30
0.0
 11
385.4566343189022
 21
220.0060927060875
 31
0.0
  0
LINE
  5
2BF
330
72
100
AcDbEntity
  8
0
  6
Continuous
 62
     7
100
AcDbLine
 10
355.2066704905931
 20
293.0060927060882
 30
0.0
 11
337.2066343189022
 21
293.0060927060882
 31
0.0
  0
LINE
  5
2C0
330
72
100
AcDbEntity
  8
0
  6
Continuous
 62
     7
100
AcDbLine
 10
354.2066704905931
 20
226.3560927060865
 30
0.0
 11
355.2066704905931
 21
226.3560927060865
 31
0.0
  0
LINE
  5
2C1
330
72
100
AcDbEntity
  8
0
  6
Continuous
 62
     7
100
AcDbLine
 10
355.2066704905931
 20
295.0060927060882
 30
0.0
 11
354.2066704905931
 21
295.0060927060882
 31
0.0
  0
LINE
  5
2C2
330
72
100
AcDbEntity
  8
0
  6
Continuous
 62
     7
100
AcDbLine
 10
354.2066704905931
 20
219.3560927060875
 30
0.0
 11
355.2066704905931
 21
219.3560927060875
 31
0.0
  0
LINE
  5
2C3
330
72
100
AcDbEntity
  8
0
  6
Continuous
 62
     7
100
AcDbLine
 10
354.2066704905931
 20
226.3560927060865
 30
0.0
 11
354.2066704905931
 21
219.3560927060875
 31
0.0
  0
LINE
  5
2C4
330
72
100
AcDbEntity
  8
0
  6
Continuous
 62
     7
100
AcDbLine
 10
386.4566343189022
 20
274.5060927060873
 30
0.0
 11
386.4566343189022
 21
281.5060927060873
 31
0.0
  0
LINE
  5
2C5
330
72
100
AcDbEntity
  8
0
  6
Continuous
 62
     7
100
AcDbLine
 10
386.4566343189022
 20
230.5060927060873
 30
0.0
 11
386.4566343189022
 21
237.5060927060873
 31
0.0
  0
LINE
  5
2C6
330
72
100
AcDbEntity
  8
0
  6
Continuous
 62
     7
100
AcDbLine
 10
354.2066704905931
 20
309.7560927060882
 30
0.0
 11
355.2066704905931
 21
309.7560927060882
 31
0.0
  0
LINE
  5
2C7
330
72
100
AcDbEntity
  8
0
  6
Continuous
 62
     7
100
AcDbLine
 10
383.4566343189022
 20
220.0060927060875
 30
0.0
 11
383.4566343189022
 21
217.256092706087
 31
0.0
  0
LINE
  5
2C8
330
72
100
AcDbEntity
  8
0
  6
Continuous
 62
     7
100
AcDbLine
 10
383.4566343189022
 20
214.756092706087
 30
0.0
 11
355.2066704905931
 21
214.756092706087
 31
0.0
  0
LINE
  5
2C9
330
72
100
AcDbEntity
  8
0
  6
Continuous
 62
     7
100
AcDbLine
 10
383.4566343189022
 20
311.7560927060882
 30
0.0
 11
383.4566343189022
 21
314.2560927060882
 31
0.0
  0
LINE
  5
2CA
330
72
100
AcDbEntity
  8
0
  6
Continuous
 62
     7
100
AcDbLine
 10
385.4566343189022
 20
311.7560927060882
 30
0.0
 11
385.4566343189022
 21
309.7560927060882
 31
0.0
  0
LINE
  5
2CB
330
72
100
AcDbEntity
  8
0
  6
Continuous
 62
     7
100
AcDbLine
 10
336.2066343189022
 20
216.756092706087
 30
0.0
 11
355.2066704905931
 21
216.756092706087
 31
0.0
  0
LINE
  5
2CC
330
72
100
AcDbEntity
  8
0
  6
Continuous
 62
     7
100
AcDbLine
 10
337.2066343189022
 20
282.256092706087
 30
0.0
 11
365.2066343189024
 21
282.2560927060872
 31
0.0
  0
LINE
  5
2CD
330
72
100
AcDbEntity
  8
0
  6
Continuous
 62
     7
100
AcDbLine
 10
337.2066343189022
 20
273.7560927060873
 30
0.0
 11
365.2066343189025
 21
273.7560927060873
 31
0.0
  0
LINE
  5
2CE
330
72
100
AcDbEntity
  8
0
  6
Continuous
 62
     7
100
AcDbLine
 10
337.2066343189022
 20
238.2560927060873
 30
0.0
 11
365.2066343189022
 21
238.2560927060873
 31
0.0
  0
LINE
  5
2CF
330
72
100
AcDbEntity
  8
0
  6
Continuous
 62
     7
100
AcDbLine
 10
356.2066704905931
 20
229.7560927060873
 30
0.0
 11
365.2066343189022
 21
229.7560927060873
 31
0.0
  0
LINE
  5
2D0
330
72
100
AcDbEntity
  8
0
  6
Continuous
 62
     7
100
AcDbLine
 10
355.2066704905931
 20
293.0060927060882
 30
0.0
 11
355.2066704905931
 21
295.0060927060882
 31
0.0
  0
LINE
  5
2D1
330
72
100
AcDbEntity
  8
0
  6
Continuous
 62
     7
100
AcDbLine
 10
354.2066704905931
 20
295.0060927060882
 30
0.0
 11
354.2066704905931
 21
309.7560927060882
 31
0.0
  0
LINE
  5
2D2
330
72
100
AcDbEntity
  8
0
  6
Continuous
 62
     7
100
AcDbLine
 10
336.2066343189022
 20
312.2560927060882
 30
0.0
 11
355.2066704905931
 21
312.2560927060882
 31
0.0
  0
LINE
  5
2D3
330
72
100
AcDbEntity
  8
0
  6
Continuous
 62
     7
100
AcDbLine
 10
336.2066343189022
 20
313.2560927060882
 30
0.0
 11
355.2066704905931
 21
313.2560927060882
 31
0.0
  0
LINE
  5
2D4
330
72
100
AcDbEntity
  8
0
  6
Continuous
 62
     7
100
AcDbLine
 10
383.4566343189022
 20
314.2560927060882
 30
0.0
 11
355.2066704905931
 21
314.2560927060882
 31
0.0
  0
ARC
  5
2D5
330
72
100
AcDbEntity
  8
0
  6
Continuous
 62
     7
100
AcDbCircle
 10
385.9566343189022
 20
247.0060927060877
 30
0.0
 40
0.5
100
AcDbArc
 50
0.0
 51
90.00000153524489
  0
ARC
  5
2D6
330
72
100
AcDbEntity
  8
0
  6
Continuous
 62
     7
100
AcDbCircle
 10
385.9566343189022
 20
248.0060927060877
 30
0.0
 40
0.5000000000000007
100
AcDbArc
 50
180.0000030704702
 51
269.9999984647551
  0
ARC
  5
2D7
330
72
100
AcDbEntity
  8
0
  6
Continuous
 62
     7
100
AcDbCircle
 10
385.9566343189022
 20
291.0060927060877
 30
0.0
 40
0.5
100
AcDbArc
 50
0.0
 51
90.00000153524489
  0
ARC
  5
2D8
330
72
100
AcDbEntity
  8
0
  6
Continuous
 62
     7
100
AcDbCircle
 10
385.9566343189022
 20
292.0060927060877
 30
0.0
 40
0.5000000000000007
100
AcDbArc
 50
180.0000030704833
 51
269.9999984647551
  0
ARC
  5
2D9
330
72
100
AcDbEntity
  8
0
  6
Continuous
 62
     7
100
AcDbCircle
 10
385.9566343189022
 20
283.0060927060877
 30
0.0
 40
0.5000000000000001
100
AcDbArc
 50
90.00000153524489
 51
180.0000030704702
  0
ARC
  5
2DA
330
72
100
AcDbEntity
  8
0
  6
Continuous
 62
     7
100
AcDbCircle
 10
385.9566343189022
 20
284.0060927060873
 30
0.0
 40
0.4999999999996023
100
AcDbArc
 50
269.9999984647551
 51
0.0
  0
ARC
  5
2DB
330
72
100
AcDbEntity
  8
1
  6
Continuous
 62
     7
100
AcDbCircle
 10
365.7066704905931
 20
223.506092706087
 30
0.0
 40
2.099999999999852
100
AcDbArc
 50
0.0
 51
40.89159599456914
  0
ARC
  5
2DC
330
72
100
AcDbEntity
  8
1
  6
Continuous
 62
     7
100
AcDbCircle
 10
365.2066343189026
 20
234.0060927060888
 30
0.0
 40
4.250000000001506
100
AcDbArc
 50
269.9999999999946
 51
284.8262949625785
  0
ARC
  5
2DD
330
72
100
AcDbEntity
  8
1
  6
Continuous
 62
     7
100
AcDbCircle
 10
365.2066343189026
 20
234.0060927060888
 30
0.0
 40
4.24999999999847
100
AcDbArc
 50
75.17370503741124
 51
90.00000000000537
  0
ARC
  5
2DE
330
72
100
AcDbEntity
  8
1
  6
Continuous
 62
     7
100
AcDbCircle
 10
365.2066343189025
 20
278.0060927060871
 30
0.0
 40
4.249999999999946
100
AcDbArc
 50
299.4184030302765
 51
60.58159696972305
  0
ARC
  5
2DF
330
72
100
AcDbEntity
  8
1
  6
Continuous
 62
     7
100
AcDbCircle
 10
365.2066343189025
 20
278.0060927060871
 30
0.0
 40
4.249999999999773
100
AcDbArc
 50
270.0
 51
284.8262949625856
  0
ARC
  5
2E0
330
72
100
AcDbEntity
  8
1
  6
Continuous
 62
     7
100
AcDbCircle
 10
365.2066343189025
 20
278.0060927060871
 30
0.0
 40
4.249999999999872
100
AcDbArc
 50
75.17370503741466
 51
90.00000000000153
  0
ARC
  5
2E1
330
72
100
AcDbEntity
  8
1
  6
Continuous
 62
     7
100
AcDbCircle
 10
365.2066343189022
 20
234.0060927060873
 30
0.0
 40
4.249999999999837
100
AcDbArc
 50
299.4184030302818
 51
60.58159696971973
  0
ARC
  5
2E2
330
72
100
AcDbEntity
  8
0
  6
Continuous
 62
     7
100
AcDbCircle
 10
373.7066704905931
 20
294.5060927060882
 30
0.0
 40
2.099999999999852
100
AcDbArc
 50
0.0
 51
180.0
  0
ARC
  5
2E3
330
72
100
AcDbEntity
  8
0
  6
Continuous
 62
     7
100
AcDbCircle
 10
365.7066704905931
 20
294.5060927060882
 30
0.0
 40
2.099999999999852
100
AcDbArc
 50
0.0
 51
133.6691796474503
  0
ARC
  5
2E4
330
72
100
AcDbEntity
  8
0
  6
Continuous
 62
     7
100
AcDbCircle
 10
365.7066704905931
 20
294.5060927060882
 30
0.0
 40
2.099999999999906
100
AcDbArc
 50
133.6691796474503
 51
286.245822838157
  0
ARC
  5
2E5
330
72
100
AcDbEntity
  8
0
  6
Continuous
 62
     7
100
AcDbCircle
 10
365.7066704905931
 20
223.506092706087
 30
0.0
 40
2.099999999999989
100
AcDbArc
 50
133.6691796474481
 51
286.2458228381574
  0
ARC
  5
2E6
330
72
100
AcDbEntity
  8
0
  6
Continuous
 62
     7
100
AcDbCircle
 10
337.2066343189022
 20
283.256092706087
 30
0.0
 40
1.000000000000001
100
AcDbArc
 50
179.9999969295167
 51
269.9999984647649
  0
ARC
  5
2E7
330
72
100
AcDbEntity
  8
0
  6
Continuous
 62
     7
100
AcDbCircle
 10
337.2066343189022
 20
272.7560927060873
 30
0.0
 40
1.0
100
AcDbArc
 50
90.00000153523511
 51
179.9999969295363
  0
ARC
  5
2E8
330
72
100
AcDbEntity
  8
0
  6
Continuous
 62
     7
100
AcDbCircle
 10
337.2066343189022
 20
239.2560927060873
 30
0.0
 40
1.000000000000001
100
AcDbArc
 50
179.9999969295363
 51
269.9999984647649
  0
ARC
  5
2E9
330
72
100
AcDbEntity
  8
0
  6
Continuous
 62
     7
100
AcDbCircle
 10
337.2066343189022
 20
292.0060927060882
 30
0.0
 40
1.0
100
AcDbArc
 50
90.00000153524164
 51
179.9999969295363
  0
ARC
  5
2EA
330
72
100
AcDbEntity
  8
0
  6
Continuous
 62
     7
100
AcDbCircle
 10
356.2066704905931
 20
228.7560927060873
 30
0.0
 40
1.0
100
AcDbArc
 50
90.00000153524164
 51
179.9999969295363
  0
ARC
  5
2EB
330
72
100
AcDbEntity
  8
0
  6
Continuous
 62
     7
100
AcDbCircle
 10
358.4452314627511
 20
256.0060927060873
 30
0.0
 40
2.491001879657128
100
AcDbArc
 50
137.9100444632344
 51
222.0899555367699
  0
ARC
  5
2EC
330
72
100
AcDbEntity
  8
0
  6
Continuous
 62
     7
100
AcDbCircle
 10
357.9027867416089
 20
256.4960564562303
 30
0.0
 40
1.760036249857071
100
AcDbArc
 50
98.16877571337545
 51
137.9100444632355
  0
ARC
  5
2ED
330
72
100
AcDbEntity
  8
0
  6
Continuous
 62
     7
100
AcDbCircle
 10
357.9027867416089
 20
255.5161289559441
 30
0.0
 40
1.760036249856953
100
AcDbArc
 50
222.0899555367652
 51
261.8312242866236
  0
ARC
  5
2EE
330
72
100
AcDbEntity
  8
0
  6
Continuous
 62
     7
100
AcDbCircle
 10
357.9452314627511
 20
256.0060927060873
 30
0.0
 40
2.491001879657128
100
AcDbArc
 50
137.9100444632344
 51
222.0899555367699
  0
ARC
  5
2EF
330
72
100
AcDbEntity
  8
0
  6
Continuous
 62
     7
100
AcDbCircle
 10
357.4027867416089
 20
256.4960564562303
 30
0.0
 40
1.760036249856808
100
AcDbArc
 50
42.08995860723599
 51
137.9100444632392
  0
ARC
  5
2F0
330
72
100
AcDbEntity
  8
0
  6
Continuous
 62
     7
100
AcDbCircle
 10
356.8603420204664
 20
256.0060927060873
 30
0.0
 40
2.49100187965734
100
AcDbArc
 50
317.9100413927629
 51
42.0899586072327
  0
ARC
  5
2F1
330
72
100
AcDbEntity
  8
0
  6
Continuous
 62
     7
100
AcDbCircle
 10
357.4027867416089
 20
255.5161289559441
 30
0.0
 40
1.760036249857079
100
AcDbArc
 50
222.0899555367615
 51
317.9100413927633
  0
ARC
  5
2F2
330
72
100
AcDbEntity
  8
0
  6
Continuous
 62
     7
100
AcDbCircle
 10
352.2066343189022
 20
249.0060927060873
 30
0.0
 40
1.0
100
AcDbArc
 50
90.00000153523511
 51
179.9999969295363
  0
ARC
  5
2F3
330
72
100
AcDbEntity
  8
0
  6
Continuous
 62
     7
100
AcDbCircle
 10
352.2066343189022
 20
263.0060927060873
 30
0.0
 40
1.000000000000001
100
AcDbArc
 50
179.9999969295363
 51
269.9999984647649
  0
ARC
  5
2F4
330
72
100
AcDbEntity
  8
0
  6
Continuous
 62
     7
100
AcDbCircle
 10
352.2066343189022
 20
249.0060927060873
 30
0.0
 40
1.000000000000001
100
AcDbArc
 50
179.9999969295363
 51
269.9999984647649
  0
ARC
  5
2F5
330
72
100
AcDbEntity
  8
0
  6
Continuous
 62
     7
100
AcDbCircle
 10
352.2066343189022
 20
263.0060927060873
 30
0.0
 40
1.0
100
AcDbArc
 50
90.00000153523511
 51
179.9999969295363
  0
ARC
  5
2F6
330
72
100
AcDbEntity
  8
0
  6
Continuous
 62
     7
100
AcDbCircle
 10
385.9566343189022
 20
281.5060927060873
 30
0.0
 40
0.5
100
AcDbArc
 50
0.0
 51
90.00000153524489
  0
ARC
  5
2F7
330
72
100
AcDbEntity
  8
0
  6
Continuous
 62
     7
100
AcDbCircle
 10
385.9566343189022
 20
282.5060927060873
 30
0.0
 40
0.5000000000000007
100
AcDbArc
 50
180.0000030704963
 51
269.9999984647551
  0
ARC
  5
2F8
330
72
100
AcDbEntity
  8
0
  6
Continuous
 62
     7
100
AcDbCircle
 10
385.9566343189022
 20
273.5060927060873
 30
0.0
 40
0.5000000000000001
100
AcDbArc
 50
90.00000153524489
 51
180.0000030704833
  0
ARC
  5
2F9
330
72
100
AcDbEntity
  8
0
  6
Continuous
 62
     7
100
AcDbCircle
 10
385.9566343189022
 20
274.5060927060873
 30
0.0
 40
0.5000000000000001
100
AcDbArc
 50
269.9999984647551
 51
0.0
  0
ARC
  5
2FA
330
72
100
AcDbEntity
  8
0
  6
Continuous
 62
     7
100
AcDbCircle
 10
385.9566343189022
 20
237.5060927060873
 30
0.0
 40
0.5
100
AcDbArc
 50
0.0
 51
90.00000153524489
  0
ARC
  5
2FB
330
72
100
AcDbEntity
  8
0
  6
Continuous
 62
     7
100
AcDbCircle
 10
385.9566343189022
 20
238.5060927060873
 30
0.0
 40
0.5000000000000007
100
AcDbArc
 50
180.00000307048
 51
269.9999984647551
  0
ARC
  5
2FC
330
72
100
AcDbEntity
  8
0
  6
Continuous
 62
     7
100
AcDbCircle
 10
385.9566343189022
 20
229.5060927060873
 30
0.0
 40
0.5000000000000001
100
AcDbArc
 50
90.00000153524489
 51
180.00000307048
  0
ARC
  5
2FD
330
72
100
AcDbEntity
  8
0
  6
Continuous
 62
     7
100
AcDbCircle
 10
385.9566343189022
 20
230.5060927060873
 30
0.0
 40
0.5000000000000001
100
AcDbArc
 50
269.9999984647551
 51
0.0
  0
ARC
  5
2FE
330
72
100
AcDbEntity
  8
0
  6
Continuous
 62
     7
100
AcDbCircle
 10
383.9566343189022
 20
217.256092706087
 30
0.0
 40
1.500000000000001
100
AcDbArc
 50
269.9999984647637
 51
0.0
  0
ARC
  5
2FF
330
72
100
AcDbEntity
  8
0
  6
Continuous
 62
     7
100
AcDbCircle
 10
383.9566343189022
 20
217.256092706087
 30
0.0
 40
0.5000000000000001
100
AcDbArc
 50
269.9999984647551
 51
0.0
  0
ARC
  5
300
330
72
100
AcDbEntity
  8
0
  6
Continuous
 62
     7
100
AcDbCircle
 10
383.9566343189022
 20
311.7560927060882
 30
0.0
 40
1.5
100
AcDbArc
 50
0.0
 51
90.00000153523622
  0
ARC
  5
301
330
72
100
AcDbEntity
  8
0
  6
Continuous
 62
     7
100
AcDbCircle
 10
383.9566343189022
 20
311.7560927060882
 30
0.0
 40
0.5
100
AcDbArc
 50
0.0
 51
90.00000153524489
  0
ARC
  5
302
330
72
100
AcDbEntity
  8
1
  6
Continuous
 62
     7
100
AcDbCircle
 10
365.7066704905931
 20
223.506092706087
 30
0.0
 40
2.099999999999869
100
AcDbArc
 50
73.75417716184255
 51
133.6691796474481
  0
ARC
  5
303
330
72
100
AcDbEntity
  8
1
  6
Continuous
 62
     7
100
AcDbCircle
 10
373.7066704905931
 20
223.506092706087
 30
0.0
 40
2.099999999999852
100
AcDbArc
 50
0.0
 51
180.0
  0
CIRCLE
  5
304
330
72
100
AcDbEntity
  8
0
  6
Continuous
 62
     7
100
AcDbCircle
 10
187.2815084776109
 20
544.6378643976619
 30
0.0
 40
2.0
  0
CIRCLE
  5
305
330
72
100
AcDbEntity
  8
0
  6
Continuous
 62
     7
100
AcDbCircle
 10
232.4815084776097
 20
544.6378643976619
 30
0.0
 40
2.0
  0
ARC
  5
306
330
72
100
AcDbEntity
  8
1
  6
Continuous
 62
     7
100
AcDbCircle
 10
242.4815084776096
 20
561.6378643976619
 30
0.0
 40
1.0
100
AcDbArc
 50
90.0
 51
180.0
  0
ARC
  5
307
330
72
100
AcDbEntity
  8
1
  6
Continuous
 62
     7
100
AcDbCircle
 10
177.2815084776107
 20
561.6378643976619
 30
0.0
 40
1.0
100
AcDbArc
 50
0.0
 51
90.0
  0
ARC
  5
308
330
72
100
AcDbEntity
  8
1
  6
Continuous
 62
     7
100
AcDbCircle
 10
177.2815084776107
 20
535.1378643976619
 30
0.0
 40
1.0
100
AcDbArc
 50
270.0
 51
0.0
  0
ARC
  5
309
330
72
100
AcDbEntity
  8
1
  6
Continuous
 62
     7
100
AcDbCircle
 10
242.4815084776096
 20
535.1378643976619
 30
0.0
 40
1.0
100
AcDbArc
 50
180.0
 51
270.0
  0
ARC
  5
30A
330
72
100
AcDbEntity
  8
1
  6
Continuous
 62
     7
100
AcDbCircle
 10
250.4815084776096
 20
562.637864397662
 30
0.0
 40
1.0
100
AcDbArc
 50
359.9999999999935
 51
90.0
  0
ARC
  5
30B
330
72
100
AcDbEntity
  8
1
  6
Continuous
 62
     7
100
AcDbCircle
 10
169.2815084776107
 20
562.637864397662
 30
0.0
 40
0.9999999999998863
100
AcDbArc
 50
89.9999999999886
 51
180.0000000000065
  0
ENDBLK
  5
74
330
72
100
AcDbEntity
  8
0
100
AcDbBlockEnd
  0
BLOCK
  5
76
330
75
100
AcDbEntity
  8
0
100
AcDbBlockBegin
  2
BIS
 70
     0
 10
354.2066704905931
 20
232.0060927060871
 30
0.0
  3
BIS
  1

  0
LINE
  5
30C
330
75
100
AcDbEntity
  8
1
  6
Continuous
 62
     2
100
AcDbLine
 10
366.2941644339251
 20
232.3850927060872
 30
0.0
 11
354.2066704905931
 21
232.3850927060872
 31
0.0
  0
LINE
  5
30D
330
75
100
AcDbEntity
  8
1
  6
Continuous
 62
     2
100
AcDbLine
 10
354.2066704905931
 20
235.6270927060871
 30
0.0
 11
366.2941644339251
 21
235.6270927060871
 31
0.0
  0
LINE
  5
30E
330
75
100
AcDbEntity
  8
1
  6
Continuous
 62
     2
100
AcDbLine
 10
354.2066704905931
 20
276.3850927060872
 30
0.0
 11
366.2941644339251
 21
276.3850927060872
 31
0.0
  0
LINE
  5
30F
330
75
100
AcDbEntity
  8
1
  6
Continuous
 62
     2
100
AcDbLine
 10
366.2941644339251
 20
279.6270927060872
 30
0.0
 11
354.2066704905931
 21
279.6270927060872
 31
0.0
  0
LINE
  5
310
330
75
100
AcDbEntity
  8
1
  6
Continuous
 62
     7
100
AcDbLine
 10
366.2941644339251
 20
276.0060927060873
 30
0.0
 11
354.2066704905931
 21
276.0060927060873
 31
0.0
  0
LINE
  5
311
330
75
100
AcDbEntity
  8
1
  6
Continuous
 62
     7
100
AcDbLine
 10
354.2066704905931
 20
280.0060927060871
 30
0.0
 11
366.2941644339251
 21
280.0060927060871
 31
0.0
  0
LINE
  5
312
330
75
100
AcDbEntity
  8
1
  6
Continuous
 62
     7
100
AcDbLine
 10
354.2066704905931
 20
232.0060927060871
 30
0.0
 11
366.2941644339251
 21
232.0060927060871
 31
0.0
  0
LINE
  5
313
330
75
100
AcDbEntity
  8
1
  6
Continuous
 62
     7
100
AcDbLine
 10
354.2066704905931
 20
236.0060927060871
 30
0.0
 11
366.2941644339251
 21
236.0060927060871
 31
0.0
  0
ENDBLK
  5
77
330
75
100
AcDbEntity
  8
0
100
AcDbBlockEnd
  0
BLOCK
  5
79
330
78
100
AcDbEntity
  8
0
100
AcDbBlockBegin
  2
BIS2
 70
     0
 10
383.2566343189021
 20
236.756092706087
 30
0.0
  3
BIS2
  1

  0
LINE
  5
314
330
78
100
AcDbEntity
  8
1
  6
Continuous
 62
     2
100
AcDbLine
 10
386.4566343189022
 20
237.006092706087
 30
0.0
 11
387.2566343189022
 21
237.006092706087
 31
0.0
  0
LINE
  5
315
330
78
100
AcDbEntity
  8
1
  6
DASH_CENTER
 62
     2
100
AcDbLine
 10
388.7566343189021
 20
238.756092706087
 30
0.0
 11
383.2566343189021
 21
238.756092706087
 31
0.0
  0
LINE
  5
316
330
78
100
AcDbEntity
  8
1
  6
Continuous
 62
     7
100
AcDbLine
 10
387.0066343189022
 20
240.756092706087
 30
0.0
 11
387.0066343189022
 21
236.756092706087
 31
0.0
  0
LINE
  5
317
330
78
100
AcDbEntity
  8
1
  6
Continuous
 62
     7
100
AcDbLine
 10
387.2566343189022
 20
237.006092706087
 30
0.0
 11
387.0066343189022
 21
236.756092706087
 31
0.0
  0
LINE
  5
318
330
78
100
AcDbEntity
  8
1
  6
Continuous
 62
     7
100
AcDbLine
 10
387.2566343189022
 20
240.506092706087
 30
0.0
 11
387.2566343189022
 21
237.006092706087
 31
0.0
  0
LINE
  5
319
330
78
100
AcDbEntity
  8
1
  6
Continuous
 62
     2
100
AcDbLine
 10
385.4566343189022
 20
240.506092706087
 30
0.0
 11
387.2566343189022
 21
240.506092706087
 31
0.0
  0
LINE
  5
31A
330
78
100
AcDbEntity
  8
1
  6
Continuous
 62
     7
100
AcDbLine
 10
387.0066343189022
 20
240.756092706087
 30
0.0
 11
387.2566343189022
 21
240.506092706087
 31
0.0
  0
LINE
  5
31B
330
78
100
AcDbEntity
  8
1
  6
Continuous
 62
     7
100
AcDbLine
 10
387.0066343189022
 20
236.756092706087
 30
0.0
 11
386.4566343189022
 21
236.756092706087
 31
0.0
  0
LINE
  5
31C
330
78
100
AcDbEntity
  8
1
  6
Continuous
 62
     7
100
AcDbLine
 10
385.4566343189022
 20
240.756092706087
 30
0.0
 11
387.0066343189022
 21
240.756092706087
 31
0.0
  0
ENDBLK
  5
7A
330
78
100
AcDbEntity
  8
0
100
AcDbBlockEnd
  0
BLOCK
  5
7C
330
7B
100
AcDbEntity
  8
0
100
AcDbBlockBegin
  2
V97-H17
 70
     0
 10
686.3190052038631
 20
188.4182875081687
 30
0.0
  3
V97-H17
  1

  0
LINE
  5
31D
330
7B
100
AcDbEntity
  8
0
  6
Continuous
 62
     7
100
AcDbLine
 10
179.8415351087802
 20
232.7060927060882
 30
0.0
 11
192.5790851925806
 21
232.7060927060882
 31
0.0
  0
LINE
  5
31E
330
7B
100
AcDbEntity
  8
0
  6
Continuous
 62
     7
100
AcDbLine
 10
179.8415351087802
 20
247.906092706088
 30
0.0
 11
192.5790851925806
 21
247.906092706088
 31
0.0
  0
LINE
  5
31F
330
7B
100
AcDbEntity
  8
0
  6
DASH_CENTER
 62
     2
100
AcDbLine
 10
177.4033037102994
 20
240.3060927060881
 30
0.0
 11
178.2815084776101
 21
240.3060927060881
 31
0.0
  0
LINE
  5
320
330
7B
100
AcDbEntity
  8
0
  6
Continuous
 62
     7
100
AcDbLine
 10
191.511968472481
 20
244.3060927060881
 30
0.0
 11
192.5367686409903
 21
244.3060927060881
 31
0.0
  0
LINE
  5
321
330
7B
100
AcDbEntity
  8
0
  6
Continuous
 62
     7
100
AcDbLine
 10
191.511968472481
 20
236.3060927060881
 30
0.0
 11
192.5367686409903
 21
236.3060927060881
 31
0.0
  0
LINE
  5
322
330
7B
100
AcDbEntity
  8
0
  6
DASH_CENTER
 62
     2
100
AcDbLine
 10
178.2815084776101
 20
240.3060927060881
 30
0.0
 11
191.0815084776094
 21
240.3060927060881
 31
0.0
  0
LINE
  5
323
330
7B
100
AcDbEntity
  8
0
  6
DASH_CENTER
 62
     2
100
AcDbLine
 10
192.0815084776094
 20
240.3060927060881
 30
0.0
 11
193.2801618260771
 21
240.3060927060881
 31
0.0
  0
LINE
  5
324
330
7B
100
AcDbEntity
  8
0
  6
DASH_CENTER
 62
     2
100
AcDbLine
 10
191.0815084776094
 20
240.3060927060881
 30
0.0
 11
192.0815084776094
 21
240.3060927060881
 31
0.0
  0
ARC
  5
325
330
7B
100
AcDbEntity
  8
0
  6
Continuous
 62
     7
100
AcDbCircle
 10
209.8815084776101
 20
240.3060927060881
 30
0.0
 40
31.60000000000002
100
AcDbArc
 50
180.0
 51
192.7548016379025
  0
ARC
  5
326
330
7B
100
AcDbEntity
  8
0
  6
Continuous
 62
     7
100
AcDbCircle
 10
179.8415351087802
 20
247.1060927060882
 30
0.0
 40
0.7999999999998127
100
AcDbArc
 50
90.00000153523186
 51
167.2451983620918
  0
ARC
  5
327
330
7B
100
AcDbEntity
  8
0
  6
Continuous
 62
     7
100
AcDbCircle
 10
179.8415351087802
 20
233.5060927060882
 30
0.0
 40
0.799999999999754
100
AcDbArc
 50
192.7548016379062
 51
269.9999984647681
  0
ARC
  5
328
330
7B
100
AcDbEntity
  8
0
  6
Continuous
 62
     7
100
AcDbCircle
 10
192.5790851925806
 20
247.1060927060882
 30
0.0
 40
0.8000000000000966
100
AcDbArc
 50
0.0
 51
90.0
  0
ARC
  5
329
330
7B
100
AcDbEntity
  8
0
  6
Continuous
 62
     7
100
AcDbCircle
 10
192.5790851925806
 20
233.5060927060882
 30
0.0
 40
0.799999999999983
100
AcDbArc
 50
270.0
 51
21.443982864673
  0
ARC
  5
32A
330
7B
100
AcDbEntity
  8
0
  6
Continuous
 62
     7
100
AcDbCircle
 10
209.8915084776101
 20
240.3060927060881
 30
0.0
 40
17.80000000000083
100
AcDbArc
 50
192.9863608540636
 51
201.4439828646674
  0
ARC
  5
32B
330
7B
100
AcDbEntity
  8
0
  6
Continuous
 62
     7
100
AcDbCircle
 10
209.8815084776101
 20
240.3060927060881
 30
0.0
 40
18.80000000000072
100
AcDbArc
 50
180.0
 51
192.2844909954289
  0
ARC
  5
32C
330
7B
100
AcDbEntity
  8
0
  6
Continuous
 62
     7
100
AcDbCircle
 10
209.8815084776101
 20
240.3060927060881
 30
0.0
 40
31.6000000000001
100
AcDbArc
 50
167.2451983620975
 51
180.0
  0
ARC
  5
32D
330
7B
100
AcDbEntity
  8
0
  6
Continuous
 62
     7
100
AcDbCircle
 10
192.5790851925806
 20
247.1060927060882
 30
0.0
 40
0.8000000000000461
100
AcDbArc
 50
338.5560171353156
 51
0.0
  0
ARC
  5
32E
330
7B
100
AcDbEntity
  8
0
  6
Continuous
 62
     7
100
AcDbCircle
 10
209.8915084776101
 20
240.3060927060881
 30
0.0
 40
17.80000000000084
100
AcDbArc
 50
158.5560171353325
 51
167.0136391459364
  0
ARC
  5
32F
330
7B
100
AcDbEntity
  8
0
  6
Continuous
 62
     7
100
AcDbCircle
 10
209.8815084776101
 20
240.3060927060881
 30
0.0
 40
18.80000000000079
100
AcDbArc
 50
167.7155090045711
 51
180.0
  0
ENDBLK
  5
7D
330
7B
100
AcDbEntity
  8
0
100
AcDbBlockEnd
  0
BLOCK
  5
7F
330
7E
100
AcDbEntity
  8
0
100
AcDbBlockBegin
  2
81-93A
 70
     0
 10
-266.6443454202627
 20
-66.10224854440644
 30
0.0
  3
81-93A
  1

  0
LINE
  5
330
330
7E
100
AcDbEntity
  8
0
  6
Continuous
 62
     7
100
AcDbLine
 10
207.1815084776101
 20
237.9616256720452
 30
0.0
 11
207.8815084776103
 21
237.9616256720452
 31
0.0
  0
LINE
  5
331
330
7E
100
AcDbEntity
  8
0
  6
Continuous
 62
     7
100
AcDbLine
 10
207.8815084776103
 20
237.2308902207953
 30
0.0
 11
207.1815084776103
 21
237.2308902207953
 31
0.0
  0
LINE
  5
332
330
7E
100
AcDbEntity
  8
0
  6
Continuous
 62
     7
100
AcDbLine
 10
207.1815084776101
 20
240.8560927060882
 30
0.0
 11
207.1815084776103
 21
237.2308902207953
 31
0.0
  0
LINE
  5
333
330
7E
100
AcDbEntity
  8
0
  6
Continuous
 62
     7
100
AcDbLine
 10
207.1815084776101
 20
239.8560927060882
 30
0.0
 11
205.9128815110134
 21
239.8560927060882
 31
0.0
  0
LINE
  5
334
330
7E
100
AcDbEntity
  8
0
  6
Continuous
 62
     7
100
AcDbLine
 10
207.8815084776103
 20
240.8560927060882
 30
0.0
 11
205.9128815110134
 21
240.8560927060882
 31
0.0
  0
LINE
  5
335
330
7E
100
AcDbEntity
  8
0
  6
Continuous
 62
     7
100
AcDbLine
 10
212.5815084776104
 20
237.9616256720452
 30
0.0
 11
211.8815084776103
 21
237.9616256720452
 31
0.0
  0
LINE
  5
336
330
7E
100
AcDbEntity
  8
0
  6
Continuous
 62
     7
100
AcDbLine
 10
211.8815084776103
 20
237.2308902207953
 30
0.0
 11
212.5815084776104
 21
237.2308902207953
 31
0.0
  0
LINE
  5
337
330
7E
100
AcDbEntity
  8
0
  6
Continuous
 62
     7
100
AcDbLine
 10
212.5815084776104
 20
240.8560927060882
 30
0.0
 11
212.5815084776104
 21
237.2308902207953
 31
0.0
  0
LINE
  5
338
330
7E
100
AcDbEntity
  8
0
  6
Continuous
 62
     7
100
AcDbLine
 10
212.5815084776104
 20
239.8560927060882
 30
0.0
 11
213.8501354442072
 21
239.8560927060882
 31
0.0
  0
LINE
  5
339
330
7E
100
AcDbEntity
  8
0
  6
Continuous
 62
     7
100
AcDbLine
 10
211.8815084776103
 20
240.8560927060882
 30
0.0
 11
213.8501354442072
 21
240.8560927060882
 31
0.0
  0
LINE
  5
33A
330
7E
100
AcDbEntity
  8
0
  6
Continuous
 62
     7
100
AcDbLine
 10
210.6815084776103
 20
242.3560927060884
 30
0.0
 11
211.6815084776103
 21
242.3560927060884
 31
0.0
  0
LINE
  5
33B
330
7E
100
AcDbEntity
  8
0
  6
Continuous
 62
     7
100
AcDbLine
 10
208.0815084776102
 20
242.3560927060884
 30
0.0
 11
209.0815084776104
 21
242.3560927060884
 31
0.0
  0
LINE
  5
33C
330
7E
100
AcDbEntity
  8
0
  6
Continuous
 62
     7
100
AcDbLine
 10
209.3815084776103
 20
239.7640317232834
 30
0.0
 11
210.3815084776103
 21
239.7640317232834
 31
0.0
  0
LINE
  5
33D
330
7E
100
AcDbEntity
  8
0
  6
Continuous
 62
     7
100
AcDbLine
 10
209.3815084776103
 20
243.0560927060884
 30
0.0
 11
210.3815084776103
 21
243.0560927060884
 31
0.0
  0
LINE
  5
33E
330
7E
100
AcDbEntity
  8
0
  6
Continuous
 62
     7
100
AcDbLine
 10
210.3815084776103
 20
244.3247196726852
 30
0.0
 11
210.3815084776103
 21
238.8060927060883
 31
0.0
  0
LINE
  5
33F
330
7E
100
AcDbEntity
  8
0
  6
Continuous
 62
     7
100
AcDbLine
 10
209.3815084776103
 20
244.3247196726852
 30
0.0
 11
209.3815084776103
 21
238.8060927060883
 31
0.0
  0
LINE
  5
340
330
7E
100
AcDbEntity
  8
0
  6
Continuous
 62
     7
100
AcDbLine
 10
207.8815084776103
 20
242.1560927060884
 30
0.0
 11
208.0815084776102
 21
242.3560927060884
 31
0.0
  0
LINE
  5
341
330
7E
100
AcDbEntity
  8
0
  6
Continuous
 62
     7
100
AcDbLine
 10
211.8815084776103
 20
242.1560927060884
 30
0.0
 11
211.6815084776103
 21
242.3560927060884
 31
0.0
  0
LINE
  5
342
330
7E
100
AcDbEntity
  8
0
  6
Continuous
 62
     7
100
AcDbLine
 10
208.8815084776103
 20
232.8060927060883
 30
0.0
 11
207.8815084776103
 21
233.8060927060883
 31
0.0
  0
LINE
  5
343
330
7E
100
AcDbEntity
  8
0
  6
Continuous
 62
     7
100
AcDbLine
 10
210.8815084776103
 20
232.8060927060883
 30
0.0
 11
211.8815084776103
 21
233.8060927060883
 31
0.0
  0
LINE
  5
344
330
7E
100
AcDbEntity
  8
0
  6
Continuous
 62
     7
100
AcDbLine
 10
207.8815084776103
 20
238.8060927060883
 30
0.0
 11
211.8815084776103
 21
238.8060927060883
 31
0.0
  0
LINE
  5
345
330
7E
100
AcDbEntity
  8
0
  6
Continuous
 62
     7
100
AcDbLine
 10
207.8815084776103
 20
233.8060927060883
 30
0.0
 11
211.8815084776103
 21
233.8060927060883
 31
0.0
  0
LINE
  5
346
330
7E
100
AcDbEntity
  8
0
  6
Continuous
 62
     7
100
AcDbLine
 10
211.8815084776103
 20
233.8060927060883
 30
0.0
 11
211.8815084776103
 21
242.1560927060884
 31
0.0
  0
LINE
  5
347
330
7E
100
AcDbEntity
  8
0
  6
Continuous
 62
     7
100
AcDbLine
 10
207.8815084776103
 20
233.8060927060883
 30
0.0
 11
207.8815084776103
 21
242.1560927060884
 31
0.0
  0
LINE
  5
348
330
7E
100
AcDbEntity
  8
0
  6
Continuous
 62
     7
100
AcDbLine
 10
210.8815084776103
 20
232.8060927060883
 30
0.0
 11
208.8815084776103
 21
232.8060927060883
 31
0.0
  0
ARC
  5
349
330
7E
100
AcDbEntity
  8
0
  6
Continuous
 62
     7
100
AcDbCircle
 10
209.8815084776103
 20
240.3560927060882
 30
0.0
 40
4.000000000000036
100
AcDbArc
 50
231.379811601504
 51
239.9999979530207
  0
ARC
  5
34A
330
7E
100
AcDbEntity
  8
0
  6
Continuous
 62
     7
100
AcDbCircle
 10
209.8815084776103
 20
240.3560927060882
 30
0.0
 40
3.999999999999997
100
AcDbArc
 50
312.4541493933567
 51
227.5458475361737
  0
ARC
  5
34B
330
7E
100
AcDbEntity
  8
0
  6
Continuous
 62
     7
100
AcDbCircle
 10
209.8815084776103
 20
240.3560927060882
 30
0.0
 40
3.199999999999955
100
AcDbArc
 50
188.9892964280343
 51
212.4617424505034
  0
ARC
  5
34C
330
7E
100
AcDbEntity
  8
0
  6
Continuous
 62
     7
100
AcDbCircle
 10
209.8815084776103
 20
240.3560927060882
 30
0.0
 40
3.200000000000015
100
AcDbArc
 50
98.98930103374025
 51
171.0107035719637
  0
ARC
  5
34D
330
7E
100
AcDbEntity
  8
0
  6
Continuous
 62
     7
100
AcDbCircle
 10
209.8815084776103
 20
240.3560927060882
 30
0.0
 40
3.19999999999964
100
AcDbArc
 50
8.98929949850525
 51
81.01070203673204
  0
ARC
  5
34E
330
7E
100
AcDbEntity
  8
0
  6
Continuous
 62
     7
100
AcDbCircle
 10
209.8815084776103
 20
240.3560927060882
 30
0.0
 40
3.199999999999817
100
AcDbArc
 50
327.5382544790253
 51
351.0107005014967
  0
ARC
  5
34F
330
7E
100
AcDbEntity
  8
0
  6
Continuous
 62
     7
100
AcDbCircle
 10
209.8815084776103
 20
240.3560927060882
 30
0.0
 40
4.000000000000046
100
AcDbArc
 50
299.9999989765141
 51
308.6201853280279
  0
ARC
  5
350
330
7E
100
AcDbEntity
  8
0
  6
Continuous
 62
     7
100
AcDbCircle
 10
209.0815084776104
 20
242.6560927060884
 30
0.0
 40
0.3000000000000115
100
AcDbArc
 50
269.9999984647735
 51
0.0
  0
ARC
  5
351
330
7E
100
AcDbEntity
  8
0
  6
Continuous
 62
     7
100
AcDbCircle
 10
210.6815084776103
 20
242.6560927060884
 30
0.0
 40
0.2999999999999834
100
AcDbArc
 50
180.00000307048
 51
269.9999984648007
  0
ENDBLK
  5
80
330
7E
100
AcDbEntity
  8
0
100
AcDbBlockEnd
  0
BLOCK
  5
82
330
81
100
AcDbEntity
  8
0
100
AcDbBlockBegin
  2
14-39A
 70
     0
 10
-269.6443454202627
 20
-65.55224854440665
 30
0.0
  3
14-39A
  1

  0
LINE
  5
352
330
81
100
AcDbEntity
  8
0
  6
Continuous
 62
     7
100
AcDbLine
 10
202.9218030240729
 20
239.6060927060882
 30
0.0
 11
203.9789666522608
 21
239.6060927060882
 31
0.0
  0
LINE
  5
353
330
81
100
AcDbEntity
  8
0
  6
Continuous
 62
     7
100
AcDbLine
 10
202.9218030240729
 20
241.1060927060882
 30
0.0
 11
203.9618378786664
 21
241.1060927060882
 31
0.0
  0
LINE
  5
354
330
81
100
AcDbEntity
  8
0
  6
Continuous
 62
     7
100
AcDbLine
 10
216.8412139311476
 20
239.6060927060882
 30
0.0
 11
215.7840503029599
 21
239.6060927060882
 31
0.0
  0
LINE
  5
355
330
81
100
AcDbEntity
  8
0
  6
Continuous
 62
     7
100
AcDbLine
 10
216.8412139311476
 20
241.1060927060882
 30
0.0
 11
215.7840503029599
 21
241.1060927060882
 31
0.0
  0
ARC
  5
356
330
81
100
AcDbEntity
  8
0
  6
Continuous
 62
     7
100
AcDbCircle
 10
209.8815084776103
 20
240.3560927060882
 30
0.0
 40
5.899999999999922
100
AcDbArc
 50
289.8149281485072
 51
0.0
  0
ARC
  5
357
330
81
100
AcDbEntity
  8
0
  6
Continuous
 62
     7
100
AcDbCircle
 10
209.8815084776103
 20
240.3560927060882
 30
0.0
 40
5.900000000000176
100
AcDbArc
 50
0.0
 51
250.1850718514928
  0
ARC
  5
358
330
81
100
AcDbEntity
  8
0
  6
Continuous
 62
     7
100
AcDbCircle
 10
209.8815084776103
 20
240.3560927060882
 30
0.0
 40
4.399999999999996
100
AcDbArc
 50
297.0356917894123
 51
0.0
  0
ARC
  5
359
330
81
100
AcDbEntity
  8
0
  6
Continuous
 62
     7
100
AcDbCircle
 10
209.8815084776103
 20
240.3560927060882
 30
0.0
 40
4.400000000000176
100
AcDbArc
 50
0.0
 51
242.9643082105872
  0
ARC
  5
35A
330
81
100
AcDbEntity
  8
0
  6
Continuous
 62
     7
100
AcDbCircle
 10
209.8815084776103
 20
240.3560927060882
 30
0.0
 40
6.500000000000041
100
AcDbArc
 50
186.6258095648229
 51
252.0797868606071
  0
ARC
  5
35B
330
81
100
AcDbEntity
  8
0
  6
Continuous
 62
     7
100
AcDbCircle
 10
209.8815084776103
 20
240.3560927060882
 30
0.0
 40
6.999999999999898
100
AcDbArc
 50
186.1506398279411
 51
255.2676330337599
  0
ARC
  5
35C
330
81
100
AcDbEntity
  8
0
  6
Continuous
 62
     7
100
AcDbCircle
 10
209.8815084776103
 20
240.3560927060882
 30
0.0
 40
6.499999999999909
100
AcDbArc
 50
287.9202131393925
 51
353.3741904351771
  0
ARC
  5
35D
330
81
100
AcDbEntity
  8
0
  6
Continuous
 62
     7
100
AcDbCircle
 10
209.8815084776103
 20
240.3560927060882
 30
0.0
 40
6.500000000000097
100
AcDbArc
 50
6.62580956482288
 51
173.3741904351771
  0
ARC
  5
35E
330
81
100
AcDbEntity
  8
0
  6
Continuous
 62
     7
100
AcDbCircle
 10
209.8815084776103
 20
240.3560927060882
 30
0.0
 40
6.999999999999898
100
AcDbArc
 50
173.8493601720589
 51
186.1506398279411
  0
ARC
  5
35F
330
81
100
AcDbEntity
  8
0
  6
Continuous
 62
     7
100
AcDbCircle
 10
209.8815084776103
 20
240.3560927060882
 30
0.0
 40
6.999999999999756
100
AcDbArc
 50
6.15063982794125
 51
173.8493601720589
  0
ARC
  5
360
330
81
100
AcDbEntity
  8
0
  6
Continuous
 62
     7
100
AcDbCircle
 10
209.8815084776103
 20
240.3560927060882
 30
0.0
 40
6.999999999999756
100
AcDbArc
 50
353.8493601720587
 51
6.15063982794125
  0
ARC
  5
361
330
81
100
AcDbEntity
  8
0
  6
Continuous
 62
     7
100
AcDbCircle
 10
209.8815084776103
 20
240.3560927060882
 30
0.0
 40
6.999999999999938
100
AcDbArc
 50
284.732366966239
 51
353.8493601720587
  0
ENDBLK
  5
83
330
81
100
AcDbEntity
  8
0
100
AcDbBlockEnd
  0
BLOCK
  5
85
330
84
100
AcDbEntity
  8
0
100
AcDbBlockBegin
  2
TOP__8
 70
     0
 10
-399.3391284000743
 20
82.16591089719107
 30
0.0
  3
TOP__8
  1

  0
LINE
  5
362
330
84
100
AcDbEntity
  8
1
  6
Continuous
 62
     7
100
AcDbLine
 10
261.1315084776107
 20
510.137864397662
 30
0.0
 11
158.6315084776108
 21
510.137864397662
 31
0.0
  0
LINE
  5
363
330
84
100
AcDbEntity
  8
1
  6
Continuous
 62
     7
100
AcDbLine
 10
168.1315084776108
 20
515.1378643976619
 30
0.0
 11
251.6315084776108
 21
515.1378643976619
 31
0.0
  0
LINE
  5
364
330
84
100
AcDbEntity
  8
1
  6
Continuous
 62
     7
100
AcDbLine
 10
261.1315084776107
 20
515.1378643976619
 30
0.0
 11
251.6315084776108
 21
515.1378643976619
 31
0.0
  0
LINE
  5
365
330
84
100
AcDbEntity
  8
1
  6
Continuous
 62
     7
100
AcDbLine
 10
261.1315084776107
 20
510.137864397662
 30
0.0
 11
261.1315084776107
 21
515.1378643976619
 31
0.0
  0
LINE
  5
366
330
84
100
AcDbEntity
  8
1
  6
Continuous
 62
     7
100
AcDbLine
 10
168.1315084776108
 20
515.1378643976619
 30
0.0
 11
158.6315084776108
 21
515.1378643976619
 31
0.0
  0
LINE
  5
367
330
84
100
AcDbEntity
  8
1
  6
Continuous
 62
     7
100
AcDbLine
 10
158.6315084776108
 20
515.1378643976619
 30
0.0
 11
158.6315084776108
 21
510.137864397662
 31
0.0
  0
LINE
  5
368
330
84
100
AcDbEntity
  8
1
  6
Continuous
 62
     7
100
AcDbLine
 10
336.0066704905934
 20
215.0060927060876
 30
0.0
 11
336.0066704905934
 21
202.6060927060876
 31
0.0
  0
LINE
  5
369
330
84
100
AcDbEntity
  8
1
  6
Continuous
 62
     7
100
AcDbLine
 10
331.0066704905934
 20
338.4060927060876
 30
0.0
 11
331.0066704905934
 21
202.6060927060876
 31
0.0
  0
LINE
  5
36A
330
84
100
AcDbEntity
  8
1
  6
Continuous
 62
     7
100
AcDbLine
 10
336.0066704905934
 20
314.0060927060877
 30
0.0
 11
336.0066704905934
 21
215.0060927060876
 31
0.0
  0
LINE
  5
36B
330
84
100
AcDbEntity
  8
1
  6
Continuous
 62
     7
100
AcDbLine
 10
331.0066704905934
 20
338.4060927060876
 30
0.0
 11
336.0066704905934
 21
338.4060927060876
 31
0.0
  0
LINE
  5
36C
330
84
100
AcDbEntity
  8
1
  6
Continuous
 62
     7
100
AcDbLine
 10
336.0066704905934
 20
338.4060927060876
 30
0.0
 11
336.0066704905934
 21
314.0060927060877
 31
0.0
  0
LINE
  5
36D
330
84
100
AcDbEntity
  8
1
  6
Continuous
 62
     7
100
AcDbLine
 10
336.0066704905934
 20
202.6060927060876
 30
0.0
 11
331.0066704905934
 21
202.6060927060876
 31
0.0
  0
ENDBLK
  5
86
330
84
100
AcDbEntity
  8
0
100
AcDbBlockEnd
  0
BLOCK
  5
88
330
87
100
AcDbEntity
  8
0
100
AcDbBlockBegin
  2
TOP__9
 70
     0
 10
-404.3391284000743
 20
82.16591089719107
 30
0.0
  3
TOP__9
  1

  0
LINE
  5
36E
330
87
100
AcDbEntity
  8
1
  6
Continuous
 62
     7
100
AcDbLine
 10
158.6315084776101
 20
510.137864397662
 30
0.0
 11
158.6315084776101
 21
505.137864397662
 31
0.0
  0
LINE
  5
36F
330
87
100
AcDbEntity
  8
1
  6
Continuous
 62
     7
100
AcDbLine
 10
168.1315084776101
 20
510.137864397662
 30
0.0
 11
158.6315084776101
 21
510.137864397662
 31
0.0
  0
LINE
  5
370
330
87
100
AcDbEntity
  8
1
  6
Continuous
 62
     7
100
AcDbLine
 10
261.1315084776102
 20
505.137864397662
 30
0.0
 11
261.1315084776102
 21
510.137864397662
 31
0.0
  0
LINE
  5
371
330
87
100
AcDbEntity
  8
1
  6
Continuous
 62
     7
100
AcDbLine
 10
261.1315084776102
 20
510.137864397662
 30
0.0
 11
251.6315084776101
 21
510.137864397662
 31
0.0
  0
LINE
  5
372
330
87
100
AcDbEntity
  8
1
  6
Continuous
 62
     7
100
AcDbLine
 10
168.1315084776101
 20
510.137864397662
 30
0.0
 11
251.6315084776101
 21
510.137864397662
 31
0.0
  0
LINE
  5
373
330
87
100
AcDbEntity
  8
1
  6
Continuous
 62
     7
100
AcDbLine
 10
261.1315084776102
 20
505.137864397662
 30
0.0
 11
158.6315084776101
 21
505.137864397662
 31
0.0
  0
LINE
  5
374
330
87
100
AcDbEntity
  8
1
  6
Continuous
 62
     7
100
AcDbLine
 10
331.0066704905934
 20
202.6060927060876
 30
0.0
 11
326.0066704905934
 21
202.6060927060876
 31
0.0
  0
LINE
  5
375
330
87
100
AcDbEntity
  8
1
  6
Continuous
 62
     7
100
AcDbLine
 10
331.0066704905934
 20
338.4060927060876
 30
0.0
 11
331.0066704905934
 21
314.0060927060877
 31
0.0
  0
LINE
  5
376
330
87
100
AcDbEntity
  8
1
  6
Continuous
 62
     7
100
AcDbLine
 10
326.0066704905934
 20
338.4060927060876
 30
0.0
 11
331.0066704905934
 21
338.4060927060876
 31
0.0
  0
LINE
  5
377
330
87
100
AcDbEntity
  8
1
  6
Continuous
 62
     7
100
AcDbLine
 10
331.0066704905934
 20
314.0060927060877
 30
0.0
 11
331.0066704905934
 21
215.0060927060876
 31
0.0
  0
LINE
  5
378
330
87
100
AcDbEntity
  8
1
  6
Continuous
 62
     7
100
AcDbLine
 10
326.0066704905934
 20
338.4060927060876
 30
0.0
 11
326.0066704905934
 21
202.6060927060876
 31
0.0
  0
LINE
  5
379
330
87
100
AcDbEntity
  8
1
  6
Continuous
 62
     7
100
AcDbLine
 10
331.0066704905934
 20
215.0060927060876
 30
0.0
 11
331.0066704905934
 21
202.6060927060876
 31
0.0
  0
ENDBLK
  5
89
330
87
100
AcDbEntity
  8
0
100
AcDbBlockEnd
  0
BLOCK
  5
8B
330
8A
100
AcDbEntity
  8
0
100
AcDbBlockBegin
  2
98-113
 70
     0
 10
87.99999999999983
 20
482.8584352187939
 30
0.0
  3
98-113
  1

  0
LINE
  5
37A
330
8A
100
AcDbEntity
  8
0
  6
Continuous
 62
     7
100
AcDbLine
 10
164.9815084776103
 20
338.4060927060876
 30
0.0
 11
254.7815084776102
 21
338.4060927060876
 31
0.0
  0
LINE
  5
37B
330
8A
100
AcDbEntity
  8
0
  6
Continuous
 62
     7
100
AcDbLine
 10
166.7815084776103
 20
345.9060927060876
 30
0.0
 11
252.9815084776103
 21
345.9060927060876
 31
0.0
  0
LINE
  5
37C
330
8A
100
AcDbEntity
  8
0
  6
Continuous
 62
     7
100
AcDbLine
 10
166.7815084776103
 20
453.2060927060875
 30
0.0
 11
252.9815084776103
 21
453.2060927060875
 31
0.0
  0
LINE
  5
37D
330
8A
100
AcDbEntity
  8
0
  6
Continuous
 62
     7
100
AcDbLine
 10
164.9815084776103
 20
460.7060927060875
 30
0.0
 11
254.7815084776102
 21
460.7060927060875
 31
0.0
  0
LINE
  5
37E
330
8A
100
AcDbEntity
  8
0
  6
Continuous
 62
     7
100
AcDbLine
 10
260.4815084776103
 20
455.0060927060876
 30
0.0
 11
260.4815084776103
 21
344.1060927060876
 31
0.0
  0
LINE
  5
37F
330
8A
100
AcDbEntity
  8
0
  6
Continuous
 62
     7
100
AcDbLine
 10
159.2815084776103
 20
455.0060927060876
 30
0.0
 11
159.2815084776103
 21
344.1060927060876
 31
0.0
  0
LINE
  5
380
330
8A
100
AcDbEntity
  8
0
  6
Continuous
 62
     7
100
AcDbLine
 10
252.9815084776103
 20
453.2060927060875
 30
0.0
 11
252.9815084776103
 21
345.9060927060876
 31
0.0
  0
LINE
  5
381
330
8A
100
AcDbEntity
  8
0
  6
Continuous
 62
     7
100
AcDbLine
 10
166.7815084776103
 20
453.2060927060875
 30
0.0
 11
166.7815084776103
 21
345.9060927060876
 31
0.0
  0
ARC
  5
382
330
8A
100
AcDbEntity
  8
0
  6
Continuous
 62
     7
100
AcDbCircle
 10
254.7815084776102
 20
344.1060927060876
 30
0.0
 40
5.700000000000045
100
AcDbArc
 50
270.0
 51
0.0
  0
ARC
  5
383
330
8A
100
AcDbEntity
  8
0
  6
Continuous
 62
     7
100
AcDbCircle
 10
164.9815084776103
 20
344.1060927060876
 30
0.0
 40
5.700000000000017
100
AcDbArc
 50
180.0
 51
270.0
  0
ARC
  5
384
330
8A
100
AcDbEntity
  8
0
  6
Continuous
 62
     7
100
AcDbCircle
 10
254.7815084776102
 20
455.0060927060876
 30
0.0
 40
5.700000000000102
100
AcDbArc
 50
0.0
 51
90.0
  0
ARC
  5
385
330
8A
100
AcDbEntity
  8
0
  6
Continuous
 62
     7
100
AcDbCircle
 10
164.9815084776103
 20
455.0060927060876
 30
0.0
 40
5.699999999999875
100
AcDbArc
 50
90.0
 51
180.0
  0
ENDBLK
  5
8C
330
8A
100
AcDbEntity
  8
0
100
AcDbBlockEnd
  0
BLOCK
  5
8E
330
8D
100
AcDbEntity
  8
0
100
AcDbBlockBegin
  2
T17-4F-1
 70
     0
 10
275.5000000000002
 20
665.0
 30
0.0
  3
T17-4F-1
  1

  0
LINE
  5
386
330
8D
100
AcDbEntity
  8
CSLAYER1
  6
Continuous
 62
     7
100
AcDbLine
 10
377.6071500000003
 20
625.0
 30
0.0
 11
377.6071500000003
 21
618.5
 31
0.0
  0
LINE
  5
387
330
8D
100
AcDbEntity
  8
1
  6
Continuous
 62
     7
100
AcDbLine
 10
365.5000000000001
 20
619.5
 30
0.0
 11
365.5000000000001
 21
625.5
 31
0.0
  0
LINE
  5
388
330
8D
100
AcDbEntity
  8
CSLAYER1
  6
Continuous
 62
     7
100
AcDbLine
 10
380.7000000000003
 20
613.3062870566388
 30
0.0
 11
380.7000000000001
 21
608.4
 31
0.0
  0
LINE
  5
389
330
8D
100
AcDbEntity
  8
1
  6
Continuous
 62
     7
100
AcDbLine
 10
377.9000000000002
 20
614.9603795
 30
0.0
 11
377.9000000000002
 21
618.3000000000001
 31
0.0
  0
LINE
  5
38A
330
8D
100
AcDbEntity
  8
CSLAYER1
  6
Continuous
 62
     7
100
AcDbLine
 10
380.0373210583828
 20
613.6000000000001
 30
0.0
 11
344.9626789416175
 21
613.6000000000001
 31
0.0
  0
LINE
  5
38B
330
8D
100
AcDbEntity
  8
CSLAYER1
  6
Continuous
 62
     7
100
AcDbLine
 10
377.9000000000002
 20
614.6000000000001
 30
0.0
 11
347.1
 21
614.6000000000001
 31
0.0
  0
LINE
  5
38C
330
8D
100
AcDbEntity
  8
CSLAYER1
  6
Continuous
 62
     7
100
AcDbLine
 10
380.3581138830085
 20
613.7806287056641
 30
0.0
 11
378.241886
 21
614.486038
 31
0.0
  0
LINE
  5
38D
330
8D
100
AcDbEntity
  8
CSLAYER1
  6
Continuous
 62
     7
100
AcDbLine
 10
380.2000000000001
 20
607.9
 30
0.0
 11
344.8000000000002
 21
607.9
 31
0.0
  0
LINE
  5
38E
330
8D
100
AcDbEntity
  8
1
  6
Continuous
 62
     7
100
AcDbLine
 10
377.7000000000003
 20
618.5
 30
0.0
 11
377.6071500000003
 21
618.5
 31
0.0
  0
LINE
  5
38F
330
8D
100
AcDbEntity
  8
1
  6
Continuous
 62
     7
100
AcDbLine
 10
347.3928500000002
 20
618.5
 30
0.0
 11
347.3000000000002
 21
618.5
 31
0.0
  0
LINE
  5
390
330
8D
100
AcDbEntity
  8
CSLAYER1
  6
Continuous
 62
     7
100
AcDbLine
 10
346.7581140000001
 20
614.486038
 30
0.0
 11
344.6418861169917
 21
613.7806287056641
 31
0.0
  0
LINE
  5
391
330
8D
100
AcDbEntity
  8
1
  6
Continuous
 62
     7
100
AcDbLine
 10
359.5000000000001
 20
625.5
 30
0.0
 11
359.5000000000001
 21
619.5
 31
0.0
  0
LINE
  5
392
330
8D
100
AcDbEntity
  8
1
  6
Continuous
 62
     7
100
AcDbLine
 10
360.5000000000001
 20
618.5
 30
0.0
 11
364.5000000000001
 21
618.5
 31
0.0
  0
LINE
  5
393
330
8D
100
AcDbEntity
  8
CSLAYER1
  6
Continuous
 62
     7
100
AcDbLine
 10
347.3928500000002
 20
618.5
 30
0.0
 11
347.3928500000002
 21
625.0
 31
0.0
  0
LINE
  5
394
330
8D
100
AcDbEntity
  8
1
  6
Continuous
 62
     7
100
AcDbLine
 10
347.1
 20
618.3000000000001
 30
0.0
 11
347.1
 21
614.9603795
 31
0.0
  0
LINE
  5
395
330
8D
100
AcDbEntity
  8
CSLAYER1
  6
Continuous
 62
     7
100
AcDbLine
 10
347.8928500000002
 20
625.5
 30
0.0
 11
377.1071500000003
 21
625.5
 31
0.0
  0
LINE
  5
396
330
8D
100
AcDbEntity
  8
CSLAYER1
  6
Continuous
 62
     7
100
AcDbLine
 10
344.3000000000002
 20
608.4
 30
0.0
 11
344.3000000000002
 21
613.3062870566388
 31
0.0
  0
ARC
  5
397
330
8D
100
AcDbEntity
  8
CSLAYER1
  6
Continuous
 62
     7
100
AcDbCircle
 10
378.4000000000002
 20
614.9603795
 30
0.0
 40
0.5
100
AcDbArc
 50
180.0
 51
251.5650509999794
  0
ARC
  5
398
330
8D
100
AcDbEntity
  8
CSLAYER1
  6
Continuous
 62
     7
100
AcDbCircle
 10
346.6
 20
614.9603795
 30
0.0
 40
0.500000000000084
100
AcDbArc
 50
288.4349490000021
 51
0.0
  0
ARC
  5
399
330
8D
100
AcDbEntity
  8
1
  6
Continuous
 62
     7
100
AcDbCircle
 10
377.1071500000003
 20
625.0
 30
0.0
 40
0.5
100
AcDbArc
 50
0.0
 51
90.0
  0
ARC
  5
39A
330
8D
100
AcDbEntity
  8
1
  6
Continuous
 62
     7
100
AcDbCircle
 10
380.2000000000003
 20
613.3062870566388
 30
0.0
 40
0.5
100
AcDbArc
 50
0.0
 51
71.5650511770986
  0
ARC
  5
39B
330
8D
100
AcDbEntity
  8
1
  6
Continuous
 62
     7
100
AcDbCircle
 10
380.2000000000001
 20
608.4
 30
0.0
 40
0.5
100
AcDbArc
 50
270.0
 51
0.0
  0
ARC
  5
39C
330
8D
100
AcDbEntity
  8
1
  6
Continuous
 62
     7
100
AcDbCircle
 10
377.7000000000003
 20
618.3000000000001
 30
0.0
 40
0.1999999999999318
100
AcDbArc
 50
0.0
 51
90.0
  0
ARC
  5
39D
330
8D
100
AcDbEntity
  8
1
  6
Continuous
 62
     7
100
AcDbCircle
 10
364.5000000000001
 20
619.5
 30
0.0
 40
1.0
100
AcDbArc
 50
270.0
 51
0.0
  0
ARC
  5
39E
330
8D
100
AcDbEntity
  8
1
  6
Continuous
 62
     7
100
AcDbCircle
 10
347.8928500000002
 20
625.0
 30
0.0
 40
0.5
100
AcDbArc
 50
90.0
 51
180.0
  0
ARC
  5
39F
330
8D
100
AcDbEntity
  8
1
  6
Continuous
 62
     7
100
AcDbCircle
 10
360.5000000000001
 20
619.5
 30
0.0
 40
1.0
100
AcDbArc
 50
180.0
 51
270.0
  0
ARC
  5
3A0
330
8D
100
AcDbEntity
  8
1
  6
Continuous
 62
     7
100
AcDbCircle
 10
347.3000000000002
 20
618.3000000000001
 30
0.0
 40
0.1999999999999318
100
AcDbArc
 50
90.0
 51
180.0
  0
ARC
  5
3A1
330
8D
100
AcDbEntity
  8
1
  6
Continuous
 62
     7
100
AcDbCircle
 10
344.8000000000002
 20
608.4
 30
0.0
 40
0.5
100
AcDbArc
 50
180.0
 51
270.0
  0
ARC
  5
3A2
330
8D
100
AcDbEntity
  8
1
  6
Continuous
 62
     7
100
AcDbCircle
 10
344.8000000000002
 20
613.3062870566388
 30
0.0
 40
0.5000000000000481
100
AcDbArc
 50
108.4349488229261
 51
180.0
  0
ENDBLK
  5
8F
330
8D
100
AcDbEntity
  8
0
100
AcDbBlockEnd
  0
BLOCK
  5
91
330
90
100
AcDbEntity
  8
0
100
AcDbBlockBegin
  2
T17-4F-2
 70
     0
 10
275.5000000000002
 20
665.0
 30
0.0
  3
T17-4F-2
  1

  0
LINE
  5
3A3
330
90
100
AcDbEntity
  8
CSLAYER1
  6
Continuous
 62
     2
100
AcDbLine
 10
348.5825
 20
601.0
 30
0.0
 11
348.5825
 21
601.9
 31
0.0
  0
LINE
  5
3A4
330
90
100
AcDbEntity
  8
CSLAYER1
  6
Continuous
 62
     7
100
AcDbLine
 10
347.5000000000001
 20
601.9
 30
0.0
 11
347.5000000000001
 21
601.0
 31
0.0
  0
LINE
  5
3A5
330
90
100
AcDbEntity
  8
CSLAYER1
  6
PHANTOM
 62
     4
100
AcDbLine
 10
362.5000000000001
 20
572.9000000000001
 30
0.0
 11
362.5000000000001
 21
626.9000000000001
 31
0.0
  0
LINE
  5
3A6
330
90
100
AcDbEntity
  8
CSLAYER1
  6
Continuous
 62
     7
100
AcDbLine
 10
349.4000000000002
 20
603.7000000000002
 30
0.0
 11
349.4000000000002
 21
607.9
 31
0.0
  0
LINE
  5
3A7
330
90
100
AcDbEntity
  8
CSLAYER1
  6
Continuous
 62
     2
100
AcDbLine
 10
376.4175000000003
 20
601.9
 30
0.0
 11
376.4175000000003
 21
601.0
 31
0.0
  0
LINE
  5
3A8
330
90
100
AcDbEntity
  8
CSLAYER1
  6
Continuous
 62
     7
100
AcDbLine
 10
346.5000000000001
 20
602.2000000000002
 30
0.0
 11
346.5000000000001
 21
603.1000000000001
 31
0.0
  0
LINE
  5
3A9
330
90
100
AcDbEntity
  8
CSLAYER1
  6
Continuous
 62
     7
100
AcDbLine
 10
375.6000000000001
 20
603.7000000000002
 30
0.0
 11
375.6000000000001
 21
607.9
 31
0.0
  0
LINE
  5
3AA
330
90
100
AcDbEntity
  8
CSLAYER1
  6
Continuous
 62
     7
100
AcDbLine
 10
378.5000000000001
 20
602.2000000000002
 30
0.0
 11
378.5000000000001
 21
603.1000000000001
 31
0.0
  0
LINE
  5
3AB
330
90
100
AcDbEntity
  8
CSLAYER1
  6
Continuous
 62
     7
100
AcDbLine
 10
377.5000000000002
 20
601.0
 30
0.0
 11
377.5000000000002
 21
601.9
 31
0.0
  0
LINE
  5
3AC
330
90
100
AcDbEntity
  8
CSLAYER1
  6
Continuous
 62
     7
100
AcDbLine
 10
346.8000000000002
 20
603.4
 30
0.0
 11
378.2000000000003
 21
603.4
 31
0.0
  0
LINE
  5
3AD
330
90
100
AcDbEntity
  8
CSLAYER1
  6
Continuous
 62
     7
100
AcDbLine
 10
346.8000000000002
 20
601.9
 30
0.0
 11
377.5000000000002
 21
601.9
 31
0.0
  0
LINE
  5
3AE
330
90
100
AcDbEntity
  8
CSLAYER1
  6
Continuous
 62
     7
100
AcDbLine
 10
377.5000000000002
 20
601.9
 30
0.0
 11
378.2000000000003
 21
601.9
 31
0.0
  0
ARC
  5
3AF
330
90
100
AcDbEntity
  8
CSLAYER1
  6
Continuous
 62
     7
100
AcDbCircle
 10
349.1
 20
603.7000000000002
 30
0.0
 40
0.3000000000001819
100
AcDbArc
 50
270.0
 51
0.0
  0
ARC
  5
3B0
330
90
100
AcDbEntity
  8
CSLAYER1
  6
Continuous
 62
     7
100
AcDbCircle
 10
346.8000000000002
 20
603.1000000000001
 30
0.0
 40
0.2999999999998408
100
AcDbArc
 50
90.0
 51
180.0
  0
ARC
  5
3B1
330
90
100
AcDbEntity
  8
CSLAYER1
  6
Continuous
 62
     7
100
AcDbCircle
 10
346.8000000000002
 20
602.2000000000002
 30
0.0
 40
0.3000000000000682
100
AcDbArc
 50
180.0
 51
270.0
  0
ARC
  5
3B2
330
90
100
AcDbEntity
  8
CSLAYER1
  6
Continuous
 62
     7
100
AcDbCircle
 10
375.9000000000002
 20
603.7000000000002
 30
0.0
 40
0.3000000000001251
100
AcDbArc
 50
180.0
 51
270.0
  0
ARC
  5
3B3
330
90
100
AcDbEntity
  8
CSLAYER1
  6
Continuous
 62
     7
100
AcDbCircle
 10
378.2000000000003
 20
603.1000000000001
 30
0.0
 40
0.2999999999998408
100
AcDbArc
 50
0.0
 51
90.0
  0
ARC
  5
3B4
330
90
100
AcDbEntity
  8
CSLAYER1
  6
Continuous
 62
     7
100
AcDbCircle
 10
378.2000000000003
 20
602.2000000000002
 30
0.0
 40
0.3000000000001819
100
AcDbArc
 50
270.0
 51
0.0
  0
ENDBLK
  5
92
330
90
100
AcDbEntity
  8
0
100
AcDbBlockEnd
  0
BLOCK
  5
94
330
93
100
AcDbEntity
  8
0
100
AcDbBlockBegin
  2
T17-4F-3
 70
     0
 10
275.5000000000002
 20
665.0
 30
0.0
  3
T17-4F-3
  1

  0
LINE
  5
3B5
330
93
100
AcDbEntity
  8
CSLAYER1
  6
Continuous
 62
     7
100
AcDbLine
 10
362.5000000000001
 20
574.0
 30
0.0
 11
350.0000000000001
 21
574.0
 31
0.0
  0
LINE
  5
3B6
330
93
100
AcDbEntity
  8
CSLAYER1
  6
Continuous
 62
     2
100
AcDbLine
 10
362.5000000000001
 20
597.0
 30
0.0
 11
362.5000000000001
 21
584.0
 31
0.0
  0
LINE
  5
3B7
330
93
100
AcDbEntity
  8
CSLAYER1
  6
Continuous
 62
     7
100
AcDbLine
 10
380.9000000000002
 20
597.5
 30
0.0
 11
380.9000000000002
 21
600.5
 31
0.0
  0
LINE
  5
3B8
330
93
100
AcDbEntity
  8
CSLAYER1
  6
Continuous
 62
     2
100
AcDbLine
 10
363.9685745000002
 20
597.0
 30
0.0
 11
363.9685745000002
 21
583.0704860000001
 31
0.0
  0
LINE
  5
3B9
330
93
100
AcDbEntity
  8
CSLAYER1
  6
Continuous
 62
     2
100
AcDbLine
 10
365.5786375000001
 20
597.0
 30
0.0
 11
365.5786375000001
 21
584.0
 31
0.0
  0
LINE
  5
3BA
330
93
100
AcDbEntity
  8
CSLAYER1
  6
Continuous
 62
     2
100
AcDbLine
 10
366.8611010000001
 20
597.0
 30
0.0
 11
366.8611010000001
 21
583.0704860000001
 31
0.0
  0
LINE
  5
3BB
330
93
100
AcDbEntity
  8
CSLAYER1
  6
Continuous
 62
     2
100
AcDbLine
 10
368.5637320000001
 20
597.0
 30
0.0
 11
368.5637320000001
 21
584.0
 31
0.0
  0
LINE
  5
3BC
330
93
100
AcDbEntity
  8
CSLAYER1
  6
Continuous
 62
     2
100
AcDbLine
 10
369.621118
 20
597.0
 30
0.0
 11
369.621118
 21
583.0704860000001
 31
0.0
  0
LINE
  5
3BD
330
93
100
AcDbEntity
  8
CSLAYER1
  6
Continuous
 62
     2
100
AcDbLine
 10
371.364583
 20
597.0
 30
0.0
 11
371.364583
 21
584.0
 31
0.0
  0
LINE
  5
3BE
330
93
100
AcDbEntity
  8
CSLAYER1
  6
Continuous
 62
     2
100
AcDbLine
 10
372.1647635000002
 20
597.0
 30
0.0
 11
372.1647635000002
 21
583.0704860000001
 31
0.0
  0
LINE
  5
3BF
330
93
100
AcDbEntity
  8
CSLAYER1
  6
Continuous
 62
     2
100
AcDbLine
 10
376.0813290000002
 20
597.0
 30
0.0
 11
376.0813290000002
 21
584.0
 31
0.0
  0
LINE
  5
3C0
330
93
100
AcDbEntity
  8
CSLAYER1
  6
Continuous
 62
     2
100
AcDbLine
 10
374.41475
 20
597.0
 30
0.0
 11
374.41475
 21
583.0704860000001
 31
0.0
  0
LINE
  5
3C1
330
93
100
AcDbEntity
  8
CSLAYER1
  6
Continuous
 62
     2
100
AcDbLine
 10
373.8960880000001
 20
597.0
 30
0.0
 11
373.8960880000001
 21
584.0
 31
0.0
  0
LINE
  5
3C2
330
93
100
AcDbEntity
  8
CSLAYER1
  6
Continuous
 62
     2
100
AcDbLine
 10
376.3027125000002
 20
597.0
 30
0.0
 11
376.3027125000002
 21
583.0704860000001
 31
0.0
  0
LINE
  5
3C3
330
93
100
AcDbEntity
  8
CSLAYER1
  6
Continuous
 62
     2
100
AcDbLine
 10
377.8941005000002
 20
597.0
 30
0.0
 11
377.8941005000002
 21
584.0
 31
0.0
  0
LINE
  5
3C4
330
93
100
AcDbEntity
  8
CSLAYER1
  6
Continuous
 62
     2
100
AcDbLine
 10
379.1780585000001
 20
597.0
 30
0.0
 11
379.1780585000001
 21
584.0
 31
0.0
  0
LINE
  5
3C5
330
93
100
AcDbEntity
  8
CSLAYER1
  6
Continuous
 62
     2
100
AcDbLine
 10
379.9643775000002
 20
597.0
 30
0.0
 11
379.9643775000002
 21
584.0
 31
0.0
  0
LINE
  5
3C6
330
93
100
AcDbEntity
  8
CSLAYER1
  6
Continuous
 62
     7
100
AcDbLine
 10
375.5000000000001
 20
574.5
 30
0.0
 11
375.5000000000001
 21
577.0099829999999
 31
0.0
  0
LINE
  5
3C7
330
93
100
AcDbEntity
  8
CSLAYER1
  6
Continuous
 62
     7
100
AcDbLine
 10
380.0924205000001
 20
583.8554234999999
 30
0.0
 11
376.8674535000001
 21
580.4457660000002
 31
0.0
  0
LINE
  5
3C8
330
93
100
AcDbEntity
  8
CSLAYER1
  6
Continuous
 62
     2
100
AcDbLine
 10
363.9685745000002
 20
583.0704860000001
 30
0.0
 11
362.5000000000001
 21
584.0
 31
0.0
  0
LINE
  5
3C9
330
93
100
AcDbEntity
  8
CSLAYER1
  6
Continuous
 62
     2
100
AcDbLine
 10
365.5786375000001
 20
584.0
 30
0.0
 11
363.9685745000002
 21
583.0704860000001
 31
0.0
  0
LINE
  5
3CA
330
93
100
AcDbEntity
  8
CSLAYER1
  6
Continuous
 62
     2
100
AcDbLine
 10
366.8611010000001
 20
583.0704860000001
 30
0.0
 11
365.5786375000001
 21
584.0
 31
0.0
  0
LINE
  5
3CB
330
93
100
AcDbEntity
  8
CSLAYER1
  6
Continuous
 62
     2
100
AcDbLine
 10
368.5637320000001
 20
584.0
 30
0.0
 11
366.8611010000001
 21
583.0704860000001
 31
0.0
  0
LINE
  5
3CC
330
93
100
AcDbEntity
  8
CSLAYER1
  6
Continuous
 62
     2
100
AcDbLine
 10
369.621118
 20
583.0704860000001
 30
0.0
 11
368.5637320000001
 21
584.0
 31
0.0
  0
LINE
  5
3CD
330
93
100
AcDbEntity
  8
CSLAYER1
  6
Continuous
 62
     2
100
AcDbLine
 10
371.364583
 20
584.0
 30
0.0
 11
369.621118
 21
583.0704860000001
 31
0.0
  0
LINE
  5
3CE
330
93
100
AcDbEntity
  8
CSLAYER1
  6
Continuous
 62
     2
100
AcDbLine
 10
372.1647635000002
 20
583.0704860000001
 30
0.0
 11
371.364583
 21
584.0
 31
0.0
  0
LINE
  5
3CF
330
93
100
AcDbEntity
  8
CSLAYER1
  6
Continuous
 62
     2
100
AcDbLine
 10
373.8960880000001
 20
584.0
 30
0.0
 11
372.1647635000002
 21
583.0704860000001
 31
0.0
  0
LINE
  5
3D0
330
93
100
AcDbEntity
  8
CSLAYER1
  6
Continuous
 62
     2
100
AcDbLine
 10
374.41475
 20
583.0704860000001
 30
0.0
 11
373.8960880000001
 21
584.0
 31
0.0
  0
LINE
  5
3D1
330
93
100
AcDbEntity
  8
CSLAYER1
  6
Continuous
 62
     2
100
AcDbLine
 10
376.0813290000002
 20
584.0
 30
0.0
 11
374.41475
 21
583.0704860000001
 31
0.0
  0
LINE
  5
3D2
330
93
100
AcDbEntity
  8
CSLAYER1
  6
Continuous
 62
     2
100
AcDbLine
 10
376.3027125000002
 20
583.0704860000001
 30
0.0
 11
376.0813290000002
 21
584.0
 31
0.0
  0
LINE
  5
3D3
330
93
100
AcDbEntity
  8
CSLAYER1
  6
Continuous
 62
     2
100
AcDbLine
 10
377.8941005000002
 20
584.0
 30
0.0
 11
376.3027125000002
 21
583.0704860000001
 31
0.0
  0
LINE
  5
3D4
330
93
100
AcDbEntity
  8
CSLAYER1
  6
Continuous
 62
     2
100
AcDbLine
 10
377.7431790000001
 20
583.0704860000001
 30
0.0
 11
377.8941005000002
 21
584.0
 31
0.0
  0
LINE
  5
3D5
330
93
100
AcDbEntity
  8
CSLAYER1
  6
Continuous
 62
     2
100
AcDbLine
 10
379.1780585000001
 20
584.0
 30
0.0
 11
377.7431790000001
 21
583.0704860000001
 31
0.0
  0
LINE
  5
3D6
330
93
100
AcDbEntity
  8
CSLAYER1
  6
Continuous
 62
     2
100
AcDbLine
 10
378.7656285000001
 20
583.0704860000001
 30
0.0
 11
379.1780585000001
 21
584.0
 31
0.0
  0
LINE
  5
3D7
330
93
100
AcDbEntity
  8
CSLAYER1
  6
Continuous
 62
     2
100
AcDbLine
 10
379.9643775000002
 20
584.0
 30
0.0
 11
378.7656285000001
 21
583.0704860000001
 31
0.0
  0
LINE
  5
3D8
330
93
100
AcDbEntity
  8
CSLAYER1
  6
Continuous
 62
     2
100
AcDbLine
 10
379.2847400000001
 20
583.0704860000001
 30
0.0
 11
379.9643775000002
 21
584.0
 31
0.0
  0
LINE
  5
3D9
330
93
100
AcDbEntity
  8
CSLAYER1
  6
Continuous
 62
     2
100
AcDbLine
 10
380.1359235000001
 20
583.90823
 30
0.0
 11
379.2847400000001
 21
583.0704860000001
 31
0.0
  0
LINE
  5
3DA
330
93
100
AcDbEntity
  8
CSLAYER1
  6
Continuous
 62
     7
100
AcDbLine
 10
380.2291660000001
 20
597.0
 30
0.0
 11
380.2291660000001
 21
584.1990015000001
 31
0.0
  0
LINE
  5
3DB
330
93
100
AcDbEntity
  8
CSLAYER1
  6
Continuous
 62
     7
100
AcDbLine
 10
375.0000000000001
 20
574.0
 30
0.0
 11
362.5000000000001
 21
574.0
 31
0.0
  0
LINE
  5
3DC
330
93
100
AcDbEntity
  8
CSLAYER1
  6
Continuous
 62
     7
100
AcDbLine
 10
380.4000000000002
 20
601.0
 30
0.0
 11
344.6
 21
601.0
 31
0.0
  0
LINE
  5
3DD
330
93
100
AcDbEntity
  8
CSLAYER1
  6
Continuous
 62
     7
100
AcDbLine
 10
344.7708340000002
 20
584.1990015000001
 30
0.0
 11
344.7708340000004
 21
597.0
 31
0.0
  0
LINE
  5
3DE
330
93
100
AcDbEntity
  8
CSLAYER1
  6
Continuous
 62
     2
100
AcDbLine
 10
345.7152600000002
 20
583.0704860000001
 30
0.0
 11
344.8640765000001
 21
583.90823
 31
0.0
  0
LINE
  5
3DF
330
93
100
AcDbEntity
  8
CSLAYER1
  6
Continuous
 62
     2
100
AcDbLine
 10
345.0356225000003
 20
584.0
 30
0.0
 11
345.7152600000002
 21
583.0704860000001
 31
0.0
  0
LINE
  5
3E0
330
93
100
AcDbEntity
  8
CSLAYER1
  6
Continuous
 62
     2
100
AcDbLine
 10
346.2343715000002
 20
583.0704860000001
 30
0.0
 11
345.0356225000003
 21
584.0
 31
0.0
  0
LINE
  5
3E1
330
93
100
AcDbEntity
  8
CSLAYER1
  6
Continuous
 62
     2
100
AcDbLine
 10
345.8219415000002
 20
584.0
 30
0.0
 11
346.2343715000002
 21
583.0704860000001
 31
0.0
  0
LINE
  5
3E2
330
93
100
AcDbEntity
  8
CSLAYER1
  6
Continuous
 62
     2
100
AcDbLine
 10
347.2568210000002
 20
583.0704860000001
 30
0.0
 11
345.8219415000002
 21
584.0
 31
0.0
  0
LINE
  5
3E3
330
93
100
AcDbEntity
  8
CSLAYER1
  6
Continuous
 62
     2
100
AcDbLine
 10
347.1058995000001
 20
584.0
 30
0.0
 11
347.2568210000002
 21
583.0704860000001
 31
0.0
  0
LINE
  5
3E4
330
93
100
AcDbEntity
  8
CSLAYER1
  6
Continuous
 62
     2
100
AcDbLine
 10
348.6972875
 20
583.0704860000001
 30
0.0
 11
347.1058995000001
 21
584.0
 31
0.0
  0
LINE
  5
3E5
330
93
100
AcDbEntity
  8
CSLAYER1
  6
Continuous
 62
     2
100
AcDbLine
 10
348.918671
 20
584.0
 30
0.0
 11
348.6972875
 21
583.0704860000001
 31
0.0
  0
LINE
  5
3E6
330
93
100
AcDbEntity
  8
CSLAYER1
  6
Continuous
 62
     2
100
AcDbLine
 10
350.5852500000002
 20
583.0704860000001
 30
0.0
 11
348.918671
 21
584.0
 31
0.0
  0
LINE
  5
3E7
330
93
100
AcDbEntity
  8
CSLAYER1
  6
Continuous
 62
     2
100
AcDbLine
 10
351.1039120000003
 20
584.0
 30
0.0
 11
350.5852500000002
 21
583.0704860000001
 31
0.0
  0
LINE
  5
3E8
330
93
100
AcDbEntity
  8
CSLAYER1
  6
Continuous
 62
     2
100
AcDbLine
 10
352.8352365000002
 20
583.0704860000001
 30
0.0
 11
351.1039120000003
 21
584.0
 31
0.0
  0
LINE
  5
3E9
330
93
100
AcDbEntity
  8
CSLAYER1
  6
Continuous
 62
     2
100
AcDbLine
 10
353.6354170000003
 20
584.0
 30
0.0
 11
352.8352365000002
 21
583.0704860000001
 31
0.0
  0
LINE
  5
3EA
330
93
100
AcDbEntity
  8
CSLAYER1
  6
Continuous
 62
     2
100
AcDbLine
 10
355.3788820000003
 20
583.0704860000001
 30
0.0
 11
353.6354170000003
 21
584.0
 31
0.0
  0
LINE
  5
3EB
330
93
100
AcDbEntity
  8
CSLAYER1
  6
Continuous
 62
     2
100
AcDbLine
 10
356.4362680000004
 20
584.0
 30
0.0
 11
355.3788820000003
 21
583.0704860000001
 31
0.0
  0
LINE
  5
3EC
330
93
100
AcDbEntity
  8
CSLAYER1
  6
Continuous
 62
     2
100
AcDbLine
 10
358.1388990000003
 20
583.0704860000001
 30
0.0
 11
356.4362680000004
 21
584.0
 31
0.0
  0
LINE
  5
3ED
330
93
100
AcDbEntity
  8
CSLAYER1
  6
Continuous
 62
     2
100
AcDbLine
 10
359.4213625000001
 20
584.0
 30
0.0
 11
358.1388990000003
 21
583.0704860000001
 31
0.0
  0
LINE
  5
3EE
330
93
100
AcDbEntity
  8
CSLAYER1
  6
Continuous
 62
     2
100
AcDbLine
 10
361.0314255000002
 20
583.0704860000001
 30
0.0
 11
359.4213625000001
 21
584.0
 31
0.0
  0
LINE
  5
3EF
330
93
100
AcDbEntity
  8
CSLAYER1
  6
Continuous
 62
     2
100
AcDbLine
 10
362.5000000000001
 20
584.0
 30
0.0
 11
361.0314255000002
 21
583.0704860000001
 31
0.0
  0
LINE
  5
3F0
330
93
100
AcDbEntity
  8
CSLAYER1
  6
Continuous
 62
     7
100
AcDbLine
 10
348.1325465000001
 20
580.4457660000002
 30
0.0
 11
344.9075795000001
 21
583.8554234999999
 31
0.0
  0
LINE
  5
3F1
330
93
100
AcDbEntity
  8
CSLAYER1
  6
Continuous
 62
     7
100
AcDbLine
 10
349.5000000000001
 20
577.0099829999999
 30
0.0
 11
349.5000000000001
 21
574.5
 31
0.0
  0
LINE
  5
3F2
330
93
100
AcDbEntity
  8
CSLAYER1
  6
Continuous
 62
     2
100
AcDbLine
 10
345.0356225000003
 20
584.0
 30
0.0
 11
345.0356225000003
 21
597.0
 31
0.0
  0
LINE
  5
3F3
330
93
100
AcDbEntity
  8
CSLAYER1
  6
Continuous
 62
     2
100
AcDbLine
 10
345.8219415000002
 20
584.0
 30
0.0
 11
345.8219415000002
 21
597.0
 31
0.0
  0
LINE
  5
3F4
330
93
100
AcDbEntity
  8
CSLAYER1
  6
Continuous
 62
     2
100
AcDbLine
 10
347.1058995000001
 20
584.0
 30
0.0
 11
347.1058995000001
 21
597.0
 31
0.0
  0
LINE
  5
3F5
330
93
100
AcDbEntity
  8
CSLAYER1
  6
Continuous
 62
     2
100
AcDbLine
 10
348.6972875
 20
583.0704860000001
 30
0.0
 11
348.6972875
 21
597.0
 31
0.0
  0
LINE
  5
3F6
330
93
100
AcDbEntity
  8
CSLAYER1
  6
Continuous
 62
     2
100
AcDbLine
 10
351.1039120000003
 20
584.0
 30
0.0
 11
351.1039120000003
 21
597.0
 31
0.0
  0
LINE
  5
3F7
330
93
100
AcDbEntity
  8
CSLAYER1
  6
Continuous
 62
     2
100
AcDbLine
 10
350.5852500000002
 20
583.0704860000001
 30
0.0
 11
350.5852500000002
 21
597.0
 31
0.0
  0
LINE
  5
3F8
330
93
100
AcDbEntity
  8
CSLAYER1
  6
Continuous
 62
     2
100
AcDbLine
 10
348.918671
 20
584.0
 30
0.0
 11
348.918671
 21
597.0
 31
0.0
  0
LINE
  5
3F9
330
93
100
AcDbEntity
  8
CSLAYER1
  6
Continuous
 62
     2
100
AcDbLine
 10
352.8352365000002
 20
583.0704860000001
 30
0.0
 11
352.8352365000002
 21
597.0
 31
0.0
  0
LINE
  5
3FA
330
93
100
AcDbEntity
  8
CSLAYER1
  6
Continuous
 62
     2
100
AcDbLine
 10
353.6354170000003
 20
584.0
 30
0.0
 11
353.6354170000003
 21
597.0
 31
0.0
  0
LINE
  5
3FB
330
93
100
AcDbEntity
  8
CSLAYER1
  6
Continuous
 62
     2
100
AcDbLine
 10
355.3788820000003
 20
583.0704860000001
 30
0.0
 11
355.3788820000003
 21
597.0
 31
0.0
  0
LINE
  5
3FC
330
93
100
AcDbEntity
  8
CSLAYER1
  6
Continuous
 62
     2
100
AcDbLine
 10
356.4362680000004
 20
584.0
 30
0.0
 11
356.4362680000004
 21
597.0
 31
0.0
  0
LINE
  5
3FD
330
93
100
AcDbEntity
  8
CSLAYER1
  6
Continuous
 62
     2
100
AcDbLine
 10
358.1388990000003
 20
583.0704860000001
 30
0.0
 11
358.1388990000003
 21
597.0
 31
0.0
  0
LINE
  5
3FE
330
93
100
AcDbEntity
  8
CSLAYER1
  6
Continuous
 62
     2
100
AcDbLine
 10
359.4213625000001
 20
584.0
 30
0.0
 11
359.4213625000001
 21
597.0
 31
0.0
  0
LINE
  5
3FF
330
93
100
AcDbEntity
  8
CSLAYER1
  6
Continuous
 62
     2
100
AcDbLine
 10
361.0314255000002
 20
583.0704860000001
 30
0.0
 11
361.0314255000002
 21
597.0
 31
0.0
  0
LINE
  5
400
330
93
100
AcDbEntity
  8
CSLAYER1
  6
Continuous
 62
     7
100
AcDbLine
 10
344.1
 20
600.5
 30
0.0
 11
344.1
 21
597.5
 31
0.0
  0
LINE
  5
401
330
93
100
AcDbEntity
  8
CSLAYER1
  6
Continuous
 62
     7
100
AcDbLine
 10
344.6
 20
597.0
 30
0.0
 11
380.4000000000002
 21
597.0
 31
0.0
  0
LINE
  5
402
330
93
100
AcDbEntity
  8
CSLAYER1
  6
Continuous
 62
     7
100
AcDbLine
 10
375.0000000000001
 20
579.0
 30
0.0
 11
350.0000000000002
 21
579.0
 31
0.0
  0
ARC
  5
403
330
93
100
AcDbEntity
  8
CSLAYER1
  6
Continuous
 62
     7
100
AcDbCircle
 10
375.0000000000001
 20
574.5
 30
0.0
 40
0.5
100
AcDbArc
 50
270.0
 51
0.0
  0
ARC
  5
404
330
93
100
AcDbEntity
  8
CSLAYER1
  6
Continuous
 62
     7
100
AcDbCircle
 10
380.4000000000002
 20
600.5
 30
0.0
 40
0.5
100
AcDbArc
 50
0.0
 51
90.0
  0
ARC
  5
405
330
93
100
AcDbEntity
  8
CSLAYER1
  6
Continuous
 62
     7
100
AcDbCircle
 10
380.4000000000002
 20
597.5
 30
0.0
 40
0.5
100
AcDbArc
 50
270.0
 51
0.0
  0
ARC
  5
406
330
93
100
AcDbEntity
  8
CSLAYER1
  6
Continuous
 62
     7
100
AcDbCircle
 10
380.5000000000001
 20
577.0099829999999
 30
0.0
 40
4.999999999999932
100
AcDbArc
 50
136.5945499999983
 51
180.0
  0
ARC
  5
407
330
93
100
AcDbEntity
  8
CSLAYER1
  6
Continuous
 62
     7
100
AcDbCircle
 10
379.7291660000001
 20
584.1990015000001
 30
0.0
 40
0.5000000000000048
100
AcDbArc
 50
316.5945499999959
 51
0.0
  0
ARC
  5
408
330
93
100
AcDbEntity
  8
CSLAYER1
  6
Continuous
 62
     7
100
AcDbCircle
 10
345.2708340000002
 20
584.1990015000001
 30
0.0
 40
0.5
100
AcDbArc
 50
180.0
 51
223.405450000004
  0
ARC
  5
409
330
93
100
AcDbEntity
  8
CSLAYER1
  6
Continuous
 62
     7
100
AcDbCircle
 10
344.5000000000001
 20
577.0099829999999
 30
0.0
 40
5.0
100
AcDbArc
 50
0.0
 51
43.40545000000123
  0
ARC
  5
40A
330
93
100
AcDbEntity
  8
CSLAYER1
  6
Continuous
 62
     7
100
AcDbCircle
 10
344.6
 20
597.5
 30
0.0
 40
0.5
100
AcDbArc
 50
180.0
 51
270.0
  0
ARC
  5
40B
330
93
100
AcDbEntity
  8
CSLAYER1
  6
Continuous
 62
     7
100
AcDbCircle
 10
344.6
 20
600.5
 30
0.0
 40
0.5
100
AcDbArc
 50
90.0
 51
180.0
  0
ARC
  5
40C
330
93
100
AcDbEntity
  8
CSLAYER1
  6
Continuous
 62
     7
100
AcDbCircle
 10
350.0000000000002
 20
574.5
 30
0.0
 40
0.5000000000001137
100
AcDbArc
 50
180.0
 51
269.999999999987
  0
ENDBLK
  5
95
330
93
100
AcDbEntity
  8
0
100
AcDbBlockEnd
  0
BLOCK
  5
9A
330
96
100
AcDbEntity
  8
0
100
AcDbBlockBegin
  2
T17-4F
 70
     0
 10
1258.578764688755
 20
500.494661870911
 30
0.0
  3
T17-4F
  1

  0
INSERT
  5
97
330
96
100
AcDbEntity
  8
CSLAYER1
100
AcDbBlockReference
  2
T17-4F-1
 10
275.5000000000002
 20
664.9999999999999
 30
0.0
 41
1.0
 42
1.0
 43
1.0
  0
INSERT
  5
98
330
96
100
AcDbEntity
  8
CSLAYER1
100
AcDbBlockReference
  2
T17-4F-2
 10
275.5000000000002
 20
664.9999999999999
 30
0.0
 41
1.0
 42
1.0
 43
1.0
  0
INSERT
  5
99
330
96
100
AcDbEntity
  8
CSLAYER1
100
AcDbBlockReference
  2
T17-4F-3
 10
275.5000000000002
 20
664.9999999999999
 30
0.0
 41
1.0
 42
1.0
 43
1.0
  0
LINE
  5
40D
330
96
100
AcDbEntity
  8
1
  6
PHANTOM
 62
     4
100
AcDbLine
 10
362.5000000000001
 20
628.5
 30
0.0
 11
362.5000000000001
 21
571.0
 31
0.0
  0
ENDBLK
  5
9B
330
96
100
AcDbEntity
  8
0
100
AcDbBlockEnd
  0
BLOCK
  5
4EA
330
4E3
100
AcDbEntity
  8
0
100
AcDbBlockBegin
  2
*D28
 70
     1
 10
0.0
 20
0.0
 30
0.0
  3
*D28
  1

  0
LINE
  5
4E4
330
4E3
100
AcDbEntity
  8
1
  6
Continuous
 62
     2
100
AcDbLine
 10
319.3000000000002
 20
574.0
 30
0.0
 11
319.3000000000002
 21
625.5
 31
0.0
  0
LINE
  5
4E5
330
4E3
100
AcDbEntity
  8
1
  6
Continuous
 62
     2
100
AcDbLine
 10
350.0000000000001
 20
574.0
 30
0.0
 11
316.8000000000002
 21
574.0
 31
0.0
  0
LINE
  5
4E6
330
4E3
100
AcDbEntity
  8
1
  6
Continuous
 62
     2
100
AcDbLine
 10
347.8928500000002
 20
625.5
 30
0.0
 11
316.8000000000002
 21
625.5
 31
0.0
  0
SOLID
  5
4E7
330
4E3
100
AcDbEntity
  8
1
 62
     2
100
AcDbTrace
 10
318.1480406461105
 20
582.75
 30
0.0
 11
320.4519593538899
 21
582.75
 31
0.0
 12
319.3000000000002
 22
574.0
 32
0.0
 13
319.3000000000002
 23
574.0
 33
0.0
  0
SOLID
  5
4E8
330
4E3
100
AcDbEntity
  8
1
 62
     2
100
AcDbTrace
 10
320.4519593538899
 20
616.75
 30
0.0
 11
318.1480406461105
 21
616.75
 31
0.0
 12
319.3000000000002
 22
625.5
 32
0.0
 13
319.3000000000002
 23
625.5
 33
0.0
  0
MTEXT
  5
4E9
330
4E3
100
AcDbEntity
  8
1
 62
     7
100
AcDbMText
 10
316.8000000000002
 20
594.5
 30
0.0
 40
8.75
 41
0.0
 71
     7
 72
     1
  1
51
  7
CONVERTER_12
 11
0.0
 21
1.0
 31
0.0
 73
     1
 44
0.60024009603842
  0
ENDBLK
  5
4EB
330
4E3
100
AcDbEntity
  8
0
100
AcDbBlockEnd
  0
BLOCK
  5
4F5
330
4EE
100
AcDbEntity
  8
0
100
AcDbBlockBegin
  2
*D29
 70
     1
 10
0.0
 20
0.0
 30
0.0
  3
*D29
  1

  0
LINE
  5
4EF
330
4EE
100
AcDbEntity
  8
1
  6
Continuous
 62
     2
100
AcDbLine
 10
344.1
 20
544.5
 30
0.0
 11
380.9000000000002
 21
544.5
 31
0.0
  0
LINE
  5
4F0
330
4EE
100
AcDbEntity
  8
1
  6
Continuous
 62
     2
100
AcDbLine
 10
380.9000000000002
 20
597.4999999999999
 30
0.0
 11
380.9000000000002
 21
542.0
 31
0.0
  0
LINE
  5
4F1
330
4EE
100
AcDbEntity
  8
1
  6
Continuous
 62
     2
100
AcDbLine
 10
344.1
 20
597.4999999999999
 30
0.0
 11
344.1
 21
542.0
 31
0.0
  0
SOLID
  5
4F2
330
4EE
100
AcDbEntity
  8
1
 62
     2
100
AcDbTrace
 10
352.85
 20
545.6519593538898
 30
0.0
 11
352.85
 21
543.3480406461102
 31
0.0
 12
344.1
 22
544.5
 32
0.0
 13
344.1
 23
544.5
 33
0.0
  0
SOLID
  5
4F3
330
4EE
100
AcDbEntity
  8
1
 62
     2
100
AcDbTrace
 10
372.1500000000002
 20
543.3480406461102
 30
0.0
 11
372.1500000000002
 21
545.6519593538898
 31
0.0
 12
380.9000000000002
 22
544.5
 32
0.0
 13
380.9000000000002
 23
544.5
 33
0.0
  0
MTEXT
  5
4F4
330
4EE
100
AcDbEntity
  8
1
 62
     7
100
AcDbMText
 10
354.0125000000212
 20
546.9999826073092
 30
0.0
 40
8.75
 41
0.0
 71
     7
 72
     1
  1
\C7;{\Fgdt;n}\C7;37
  7
CONVERTER_12
 11
0.9999999999970619
 21
2.424068405545306E-6
 31
0.0
 73
     1
 44
0.60024009603842
  0
ENDBLK
  5
4F6
330
4EE
100
AcDbEntity
  8
0
100
AcDbBlockEnd
  0
BLOCK
  5
500
330
4F9
100
AcDbEntity
  8
0
100
AcDbBlockBegin
  2
*D30
 70
     1
 10
0.0
 20
0.0
 30
0.0
  3
*D30
  1

  0
LINE
  5
4FA
330
4F9
100
AcDbEntity
  8
1
  6
Continuous
 62
     2
100
AcDbLine
 10
336.0066704905934
 20
365.9060927060876
 30
0.0
 11
364.2566343189021
 21
365.9060927060876
 31
0.0
  0
LINE
  5
4FB
330
4F9
100
AcDbEntity
  8
1
  6
Continuous
 62
     2
100
AcDbLine
 10
336.0066704905934
 20
338.4060927060876
 30
0.0
 11
336.0066704905934
 21
368.4060927060876
 31
0.0
  0
LINE
  5
4FC
330
4F9
100
AcDbEntity
  8
1
  6
Continuous
 62
     2
100
AcDbLine
 10
364.2566343189021
 20
296.0251039307957
 30
0.0
 11
364.2566343189021
 21
368.4060927060876
 31
0.0
  0
SOLID
  5
4FD
330
4F9
100
AcDbEntity
  8
1
 62
     2
100
AcDbTrace
 10
344.7566704905934
 20
367.0580520599773
 30
0.0
 11
344.7566704905934
 21
364.7541333521979
 31
0.0
 12
336.0066704905934
 22
365.9060927060876
 32
0.0
 13
336.0066704905934
 23
365.9060927060876
 33
0.0
  0
SOLID
  5
4FE
330
4F9
100
AcDbEntity
  8
1
 62
     2
100
AcDbTrace
 10
355.5066343189021
 20
364.7541333521979
 30
0.0
 11
355.5066343189021
 21
367.0580520599773
 31
0.0
 12
364.2566343189021
 22
365.9060927060876
 32
0.0
 13
364.2566343189021
 23
365.9060927060876
 33
0.0
  0
MTEXT
  5
4FF
330
4F9
100
AcDbEntity
  8
1
 62
     7
100
AcDbMText
 10
343.4220825465278
 20
368.4060927060876
 30
0.0
 40
8.75
 41
0.0
 71
     7
 72
     1
  1
29
  7
CONVERTER_12
 11
0.9999999999970619
 21
2.424068405545306E-6
 31
0.0
 73
     1
 44
0.60024009603842
  0
ENDBLK
  5
501
330
4F9
100
AcDbEntity
  8
0
100
AcDbBlockEnd
  0
BLOCK
  5
50B
330
504
100
AcDbEntity
  8
0
100
AcDbBlockBegin
  2
*D31
 70
     1
 10
0.0
 20
0.0
 30
0.0
  3
*D31
  1

  0
LINE
  5
505
330
504
100
AcDbEntity
  8
0
  6
Continuous
 62
     2
100
AcDbLine
 10
385.4566343189022
 20
385.9060927060876
 30
0.0
 11
336.0066704905934
 21
385.9060927060876
 31
0.0
  0
LINE
  5
506
330
504
100
AcDbEntity
  8
0
  6
Continuous
 62
     2
100
AcDbLine
 10
385.4566343189022
 20
309.7560927060882
 30
0.0
 11
385.4566343189022
 21
388.4060927060876
 31
0.0
  0
LINE
  5
507
330
504
100
AcDbEntity
  8
0
  6
Continuous
 62
     2
100
AcDbLine
 10
336.0066704905934
 20
338.4060927060876
 30
0.0
 11
336.0066704905934
 21
388.4060927060876
 31
0.0
  0
SOLID
  5
508
330
504
100
AcDbEntity
  8
0
 62
     2
100
AcDbTrace
 10
376.7066343189022
 20
384.7541333521979
 30
0.0
 11
376.7066343189022
 21
387.0580520599773
 31
0.0
 12
385.4566343189022
 22
385.9060927060876
 32
0.0
 13
385.4566343189022
 23
385.9060927060876
 33
0.0
  0
SOLID
  5
509
330
504
100
AcDbEntity
  8
0
 62
     2
100
AcDbTrace
 10
344.7566704905934
 20
387.0580520599773
 30
0.0
 11
344.7566704905934
 21
384.7541333521979
 31
0.0
 12
336.0066704905934
 22
385.9060927060876
 32
0.0
 13
336.0066704905934
 23
385.9060927060876
 33
0.0
  0
MTEXT
  5
50A
330
504
100
AcDbEntity
  8
0
 62
     7
100
AcDbMText
 10
354.4624150775314
 20
388.4060927060876
 30
0.0
 40
8.75
 41
0.0
 71
     7
 72
     1
  1
50
  7
CONVERTER_12
 11
0.9999999999970619
 21
2.424068405545306E-6
 31
0.0
 73
     1
 44
0.60024009603842
  0
ENDBLK
  5
50C
330
504
100
AcDbEntity
  8
0
100
AcDbBlockEnd
  0
BLOCK
  5
516
330
50F
100
AcDbEntity
  8
0
100
AcDbBlockBegin
  2
*D32
 70
     1
 10
0.0
 20
0.0
 30
0.0
  3
*D32
  1

  0
LINE
  5
510
330
50F
100
AcDbEntity
  8
0
  6
Continuous
 62
     2
100
AcDbLine
 10
336.0066704905934
 20
365.9060927060876
 30
0.0
 11
310.0066704905929
 21
365.9060927060876
 31
0.0
  0
LINE
  5
511
330
50F
100
AcDbEntity
  8
0
  6
Continuous
 62
     2
100
AcDbLine
 10
336.0066704905934
 20
338.4060927060876
 30
0.0
 11
336.0066704905934
 21
368.4060927060876
 31
0.0
  0
LINE
  5
512
330
50F
100
AcDbEntity
  8
0
  6
Continuous
 62
     2
100
AcDbLine
 10
310.0066704905929
 20
326.006092706088
 30
0.0
 11
310.0066704905929
 21
368.4060927060876
 31
0.0
  0
SOLID
  5
513
330
50F
100
AcDbEntity
  8
0
 62
     2
100
AcDbTrace
 10
327.2566704905934
 20
364.7541333521979
 30
0.0
 11
327.2566704905934
 21
367.0580520599773
 31
0.0
 12
336.0066704905934
 22
365.9060927060876
 32
0.0
 13
336.0066704905934
 23
365.9060927060876
 33
0.0
  0
SOLID
  5
514
330
50F
100
AcDbEntity
  8
0
 62
     2
100
AcDbTrace
 10
318.7566704905929
 20
367.0580520599773
 30
0.0
 11
318.7566704905929
 21
364.7541333521979
 31
0.0
 12
310.0066704905929
 22
365.9060927060876
 32
0.0
 13
310.0066704905929
 23
365.9060927060876
 33
0.0
  0
MTEXT
  5
515
330
50F
100
AcDbEntity
  8
0
 62
     7
100
AcDbMText
 10
317.3316002134074
 20
368.4060927060876
 30
0.0
 40
8.75
 41
0.0
 71
     7
 72
     1
  1
26
  7
CONVERTER_12
 11
0.9999999999970619
 21
2.424068405545306E-6
 31
0.0
 73
     1
 44
0.60024009603842
  0
ENDBLK
  5
517
330
50F
100
AcDbEntity
  8
0
100
AcDbBlockEnd
  0
BLOCK
  5
523
330
51A
100
AcDbEntity
  8
0
100
AcDbBlockBegin
  2
*D33
 70
     1
 10
0.0
 20
0.0
 30
0.0
  3
*D33
  1

  0
LINE
  5
51B
330
51A
100
AcDbEntity
  8
1
  6
Continuous
 62
     2
100
AcDbLine
 10
405.1909832222781
 20
491.0436649604228
 30
0.0
 11
405.1909832222781
 21
508.5436649604228
 31
0.0
  0
LINE
  5
51C
330
51A
100
AcDbEntity
  8
1
  6
Continuous
 62
     2
100
AcDbLine
 10
405.1909832222781
 20
471.8036649604229
 30
0.0
 11
405.1909832222781
 21
491.0436649604228
 31
0.0
  0
LINE
  5
51D
330
51A
100
AcDbEntity
  8
1
  6
Continuous
 62
     2
100
AcDbLine
 10
405.1909832222781
 20
454.3036649604229
 30
0.0
 11
405.1909832222781
 21
471.8036649604229
 31
0.0
  0
LINE
  5
51E
330
51A
100
AcDbEntity
  8
1
  6
Continuous
 62
     2
100
AcDbLine
 10
386.8930691712519
 20
471.8036649604229
 30
0.0
 11
407.6909832222781
 21
471.8036649604229
 31
0.0
  0
LINE
  5
51F
330
51A
100
AcDbEntity
  8
1
  6
Continuous
 62
     2
100
AcDbLine
 10
390.3430691712519
 20
491.0436649604228
 30
0.0
 11
407.6909832222781
 21
491.0436649604228
 31
0.0
  0
SOLID
  5
520
330
51A
100
AcDbEntity
  8
1
 62
     2
100
AcDbTrace
 10
406.3429425761678
 20
463.0536649604229
 30
0.0
 11
404.0390238683884
 21
463.0536649604229
 31
0.0
 12
405.1909832222781
 22
471.8036649604229
 32
0.0
 13
405.1909832222781
 23
471.8036649604229
 33
0.0
  0
SOLID
  5
521
330
51A
100
AcDbEntity
  8
1
 62
     2
100
AcDbTrace
 10
404.0390238683884
 20
499.7936649604228
 30
0.0
 11
406.3429425761678
 21
499.7936649604228
 31
0.0
 12
405.1909832222781
 22
491.0436649604228
 32
0.0
 13
405.1909832222781
 23
491.0436649604228
 33
0.0
  0
MTEXT
  5
522
330
51A
100
AcDbEntity
  8
1
 62
     7
100
AcDbMText
 10
402.6909832222781
 20
475.9535033545129
 30
0.0
 40
8.75
 41
0.0
 71
     7
 72
     1
  1
19
  7
CONVERTER_12
 11
0.0
 21
1.0
 31
0.0
 73
     1
 44
0.60024009603842
  0
ENDBLK
  5
524
330
51A
100
AcDbEntity
  8
0
100
AcDbBlockEnd
  0
BLOCK
  5
52E
330
527
100
AcDbEntity
  8
0
100
AcDbBlockBegin
  2
*D34
 70
     1
 10
0.0
 20
0.0
 30
0.0
  3
*D34
  1

  0
LINE
  5
528
330
527
100
AcDbEntity
  8
1
  6
Continuous
 62
     2
100
AcDbLine
 10
408.8930691712518
 20
314.2560927060882
 30
0.0
 11
408.8930691712518
 21
214.7560927060871
 31
0.0
  0
LINE
  5
529
330
527
100
AcDbEntity
  8
1
  6
Continuous
 62
     2
100
AcDbLine
 10
383.4566343189021
 20
214.7560927060871
 30
0.0
 11
411.3930691712518
 21
214.7560927060871
 31
0.0
  0
LINE
  5
52A
330
527
100
AcDbEntity
  8
1
  6
Continuous
 62
     2
100
AcDbLine
 10
383.4566343189021
 20
314.2560927060882
 30
0.0
 11
411.3930691712518
 21
314.2560927060882
 31
0.0
  0
SOLID
  5
52B
330
527
100
AcDbEntity
  8
1
 62
     2
100
AcDbTrace
 10
410.0450285251415
 20
305.5060927060882
 30
0.0
 11
407.7411098173621
 21
305.5060927060882
 31
0.0
 12
408.8930691712518
 22
314.2560927060882
 32
0.0
 13
408.8930691712518
 23
314.2560927060882
 33
0.0
  0
SOLID
  5
52C
330
527
100
AcDbEntity
  8
1
 62
     2
100
AcDbTrace
 10
407.7411098173621
 20
223.5060927060871
 30
0.0
 11
410.0450285251415
 21
223.5060927060871
 31
0.0
 12
408.8930691712518
 22
214.7560927060871
 32
0.0
 13
408.8930691712518
 23
214.7560927060871
 33
0.0
  0
MTEXT
  5
52D
330
527
100
AcDbEntity
  8
1
 62
     7
100
AcDbMText
 10
406.3930691712518
 20
221.5801204259298
 30
0.0
 40
8.75
 41
0.0
 71
     7
 72
     1
  1
100(開口寸法102)
  7
CONVERTER_11
 11
0.0
 21
1.0
 31
0.0
 73
     1
 44
0.45454545454545
  0
ENDBLK
  5
52F
330
527
100
AcDbEntity
  8
0
100
AcDbBlockEnd
  0
BLOCK
  5
539
330
532
100
AcDbEntity
  8
0
100
AcDbBlockBegin
  2
*D35
 70
     1
 10
0.0
 20
0.0
 30
0.0
  3
*D35
  1

  0
LINE
  5
533
330
532
100
AcDbEntity
  8
0
  6
Continuous
 62
     2
100
AcDbLine
 10
158.6315084776101
 20
156.8060927060877
 30
0.0
 11
261.1315084776102
 21
156.8060927060877
 31
0.0
  0
LINE
  5
534
330
532
100
AcDbEntity
  8
0
  6
Continuous
 62
     2
100
AcDbLine
 10
158.6315084776101
 20
208.6060927060876
 30
0.0
 11
158.6315084776101
 21
154.3060927060877
 31
0.0
  0
LINE
  5
535
330
532
100
AcDbEntity
  8
0
  6
Continuous
 62
     2
100
AcDbLine
 10
261.1315084776102
 20
208.6060927060876
 30
0.0
 11
261.1315084776102
 21
154.3060927060877
 31
0.0
  0
SOLID
  5
536
330
532
100
AcDbEntity
  8
0
 62
     2
100
AcDbTrace
 10
167.3815084776101
 20
157.9580520599774
 30
0.0
 11
167.3815084776101
 21
155.654133352198
 31
0.0
 12
158.6315084776101
 22
156.8060927060877
 32
0.0
 13
158.6315084776101
 23
156.8060927060877
 33
0.0
  0
SOLID
  5
537
330
532
100
AcDbEntity
  8
0
 62
     2
100
AcDbTrace
 10
252.3815084776102
 20
155.654133352198
 30
0.0
 11
252.3815084776102
 21
157.9580520599774
 31
0.0
 12
261.1315084776102
 22
156.8060927060877
 32
0.0
 13
261.1315084776102
 23
156.8060927060877
 33
0.0
  0
MTEXT
  5
538
330
532
100
AcDbEntity
  8
0
 62
     7
100
AcDbMText
 10
201.0364551721948
 20
159.3060927060877
 30
0.0
 40
8.75
 41
0.0
 71
     7
 72
     1
  1
103
  7
CONVERTER_12
 11
0.9999999999970619
 21
2.424068405545306E-6
 31
0.0
 73
     1
 44
0.60024009603842
  0
ENDBLK
  5
53A
330
532
100
AcDbEntity
  8
0
100
AcDbBlockEnd
  0
BLOCK
  5
544
330
53D
100
AcDbEntity
  8
0
100
AcDbBlockBegin
  2
*D36
 70
     1
 10
0.0
 20
0.0
 30
0.0
  3
*D36
  1

  0
LINE
  5
53E
330
53D
100
AcDbEntity
  8
1
  6
Continuous
 62
     2
100
AcDbLine
 10
168.2815084776107
 20
585.137864397662
 30
0.0
 11
251.4815084776096
 21
585.137864397662
 31
0.0
  0
LINE
  5
53F
330
53D
100
AcDbEntity
  8
1
  6
Continuous
 62
     2
100
AcDbLine
 10
168.2815084776107
 20
562.6378643976619
 30
0.0
 11
168.2815084776107
 21
587.637864397662
 31
0.0
  0
LINE
  5
540
330
53D
100
AcDbEntity
  8
1
  6
Continuous
 62
     2
100
AcDbLine
 10
251.4815084776096
 20
562.6378643976619
 30
0.0
 11
251.4815084776096
 21
587.637864397662
 31
0.0
  0
SOLID
  5
541
330
53D
100
AcDbEntity
  8
1
 62
     2
100
AcDbTrace
 10
177.0315084776107
 20
586.2898237515518
 30
0.0
 11
177.0315084776107
 21
583.9859050437723
 31
0.0
 12
168.2815084776107
 22
585.137864397662
 32
0.0
 13
168.2815084776107
 23
585.137864397662
 33
0.0
  0
SOLID
  5
542
330
53D
100
AcDbEntity
  8
1
 62
     2
100
AcDbTrace
 10
242.7315084776096
 20
583.9859050437723
 30
0.0
 11
242.7315084776096
 21
586.2898237515518
 31
0.0
 12
251.4815084776096
 22
585.137864397662
 32
0.0
 13
251.4815084776096
 23
585.137864397662
 33
0.0
  0
MTEXT
  5
543
330
53D
100
AcDbEntity
  8
1
 62
     7
100
AcDbMText
 10
173.0798433229118
 20
587.637864397662
 30
0.0
 40
8.75
 41
0.0
 71
     7
 72
     1
  1
84(開口寸法86)
  7
CONVERTER_11
 11
0.9999999999970619
 21
2.424068405545306E-6
 31
0.0
 73
     1
 44
0.45454545454545
  0
ENDBLK
  5
545
330
53D
100
AcDbEntity
  8
0
100
AcDbBlockEnd
  0
BLOCK
  5
54F
330
548
100
AcDbEntity
  8
0
100
AcDbBlockBegin
  2
*D37
 70
     1
 10
0.0
 20
0.0
 30
0.0
  3
*D37
  1

  0
LINE
  5
549
330
548
100
AcDbEntity
  8
0
  6
Continuous
 62
     2
100
AcDbLine
 10
134.8475126256408
 20
202.6060927060876
 30
0.0
 11
134.8475126256408
 21
337.9060927060875
 31
0.0
  0
LINE
  5
54A
330
548
100
AcDbEntity
  8
0
  6
Continuous
 62
     2
100
AcDbLine
 10
164.6315084776101
 20
202.6060927060876
 30
0.0
 11
132.3475126256408
 21
202.6060927060876
 31
0.0
  0
LINE
  5
54B
330
548
100
AcDbEntity
  8
0
  6
Continuous
 62
     2
100
AcDbLine
 10
158.7815084776103
 20
337.9060927060875
 30
0.0
 11
132.3475126256408
 21
337.9060927060875
 31
0.0
  0
SOLID
  5
54C
330
548
100
AcDbEntity
  8
0
 62
     2
100
AcDbTrace
 10
133.6955532717511
 20
211.3560927060876
 30
0.0
 11
135.9994719795305
 21
211.3560927060876
 31
0.0
 12
134.8475126256408
 22
202.6060927060876
 32
0.0
 13
134.8475126256408
 23
202.6060927060876
 33
0.0
  0
SOLID
  5
54D
330
548
100
AcDbEntity
  8
0
 62
     2
100
AcDbTrace
 10
135.9994719795305
 20
329.1560927060875
 30
0.0
 11
133.6955532717511
 21
329.1560927060875
 31
0.0
 12
134.8475126256408
 22
337.9060927060875
 32
0.0
 13
134.8475126256408
 23
337.9060927060875
 33
0.0
  0
MTEXT
  5
54E
330
548
100
AcDbEntity
  8
0
 62
     7
100
AcDbMText
 10
132.3475126256408
 20
250.5028619376495
 30
0.0
 40
8.75
 41
0.0
 71
     7
 72
     1
  1
136
  7
CONVERTER_12
 11
0.0
 21
1.0
 31
0.0
 73
     1
 44
0.60024009603842
  0
ENDBLK
  5
550
330
548
100
AcDbEntity
  8
0
100
AcDbBlockEnd
  0
BLOCK
  5
55A
330
553
100
AcDbEntity
  8
0
100
AcDbBlockBegin
  2
*D38
 70
     1
 10
0.0
 20
0.0
 30
0.0
  3
*D38
  1

  0
LINE
  5
554
330
553
100
AcDbEntity
  8
0
  6
Continuous
 62
     2
100
AcDbLine
 10
114.8475126256408
 20
461.2060927060874
 30
0.0
 11
114.8475126256408
 21
202.6060927060876
 31
0.0
  0
LINE
  5
555
330
553
100
AcDbEntity
  8
0
  6
Continuous
 62
     2
100
AcDbLine
 10
164.6315084776103
 20
461.2060927060874
 30
0.0
 11
112.3475126256408
 21
461.2060927060874
 31
0.0
  0
LINE
  5
556
330
553
100
AcDbEntity
  8
0
  6
Continuous
 62
     2
100
AcDbLine
 10
164.6315084776101
 20
202.6060927060876
 30
0.0
 11
112.3475126256408
 21
202.6060927060876
 31
0.0
  0
SOLID
  5
557
330
553
100
AcDbEntity
  8
0
 62
     2
100
AcDbTrace
 10
115.9994719795305
 20
452.4560927060874
 30
0.0
 11
113.6955532717511
 21
452.4560927060874
 31
0.0
 12
114.8475126256408
 22
461.2060927060874
 32
0.0
 13
114.8475126256408
 23
461.2060927060874
 33
0.0
  0
SOLID
  5
558
330
553
100
AcDbEntity
  8
0
 62
     2
100
AcDbTrace
 10
113.6955532717511
 20
211.3560927060876
 30
0.0
 11
115.9994719795305
 21
211.3560927060876
 31
0.0
 12
114.8475126256408
 22
202.6060927060876
 32
0.0
 13
114.8475126256408
 23
202.6060927060876
 33
0.0
  0
MTEXT
  5
559
330
553
100
AcDbEntity
  8
0
 62
     7
100
AcDbMText
 10
112.3475126256408
 20
326.1879598517779
 30
0.0
 40
8.75
 41
0.0
 71
     7
 72
     1
  1
259
  7
CONVERTER_12
 11
0.0
 21
1.0
 31
0.0
 73
     1
 44
0.60024009603842
  0
ENDBLK
  5
55B
330
553
100
AcDbEntity
  8
0
100
AcDbBlockEnd
  0
BLOCK
  5
565
330
55E
100
AcDbEntity
  8
0
100
AcDbBlockBegin
  2
*D39
 70
     1
 10
0.0
 20
0.0
 30
0.0
  3
*D39
  1

  0
LINE
  5
55F
330
55E
100
AcDbEntity
  8
1
  6
Continuous
 62
     2
100
AcDbLine
 10
153.0812670757757
 20
601.137864397662
 30
0.0
 11
266.6817498794447
 21
601.137864397662
 31
0.0
  0
LINE
  5
560
330
55E
100
AcDbEntity
  8
1
  6
Continuous
 62
     2
100
AcDbLine
 10
153.0812670757757
 20
546.4253583409941
 30
0.0
 11
153.0812670757757
 21
603.637864397662
 31
0.0
  0
LINE
  5
561
330
55E
100
AcDbEntity
  8
1
  6
Continuous
 62
     2
100
AcDbLine
 10
266.6817498794447
 20
546.4253583409941
 30
0.0
 11
266.6817498794447
 21
603.637864397662
 31
0.0
  0
SOLID
  5
562
330
55E
100
AcDbEntity
  8
1
 62
     2
100
AcDbTrace
 10
161.8312670757757
 20
602.2898237515518
 30
0.0
 11
161.8312670757757
 21
599.9859050437723
 31
0.0
 12
153.0812670757757
 22
601.137864397662
 32
0.0
 13
153.0812670757757
 23
601.137864397662
 33
0.0
  0
SOLID
  5
563
330
55E
100
AcDbEntity
  8
1
 62
     2
100
AcDbTrace
 10
257.9317498794447
 20
599.9859050437723
 30
0.0
 11
257.9317498794447
 21
602.2898237515518
 31
0.0
 12
266.6817498794447
 22
601.137864397662
 32
0.0
 13
266.6817498794447
 23
601.137864397662
 33
0.0
  0
MTEXT
  5
564
330
55E
100
AcDbEntity
  8
1
 62
     7
100
AcDbMText
 10
201.6201493941748
 20
603.637864397662
 30
0.0
 40
8.75
 41
0.0
 71
     7
 72
     1
  1
114
  7
CONVERTER_12
 11
0.9999999999970619
 21
2.424068405545306E-6
 31
0.0
 73
     1
 44
0.60024009603842
  0
ENDBLK
  5
566
330
55E
100
AcDbEntity
  8
0
100
AcDbBlockEnd
  0
BLOCK
  5
572
330
569
100
AcDbEntity
  8
0
100
AcDbBlockBegin
  2
*D40
 70
     1
 10
0.0
 20
0.0
 30
0.0
  3
*D40
  1

  0
LINE
  5
56A
330
569
100
AcDbEntity
  8
0
  6
Continuous
 62
     2
100
AcDbLine
 10
134.9204934803038
 20
220.1060927060876
 30
0.0
 11
134.9204934803038
 21
202.6060927060876
 31
0.0
  0
LINE
  5
56B
330
569
100
AcDbEntity
  8
0
  6
Continuous
 62
     2
100
AcDbLine
 10
134.9204934803038
 20
202.6060927060876
 30
0.0
 11
134.9204934803038
 21
179.8061679060874
 31
0.0
  0
LINE
  5
56C
330
569
100
AcDbEntity
  8
0
  6
Continuous
 62
     2
100
AcDbLine
 10
134.9204934803038
 20
179.8061679060874
 30
0.0
 11
134.9204934803038
 21
162.3061679060874
 31
0.0
  0
LINE
  5
56D
330
569
100
AcDbEntity
  8
0
  6
Continuous
 62
     2
100
AcDbLine
 10
196.8815087040269
 20
179.8061679060874
 30
0.0
 11
132.4204934803038
 21
179.8061679060874
 31
0.0
  0
LINE
  5
56E
330
569
100
AcDbEntity
  8
0
  6
Continuous
 62
     2
100
AcDbLine
 10
164.6315084776101
 20
202.6060927060876
 30
0.0
 11
132.4204934803038
 21
202.6060927060876
 31
0.0
  0
SOLID
  5
56F
330
569
100
AcDbEntity
  8
0
 62
     2
100
AcDbTrace
 10
133.7685341264141
 20
211.3560927060876
 30
0.0
 11
136.0724528341935
 21
211.3560927060876
 31
0.0
 12
134.9204934803038
 22
202.6060927060876
 32
0.0
 13
134.9204934803038
 23
202.6060927060876
 33
0.0
  0
SOLID
  5
570
330
569
100
AcDbEntity
  8
0
 62
     2
100
AcDbTrace
 10
136.0724528341935
 20
171.0561679060874
 30
0.0
 11
133.7685341264141
 21
171.0561679060874
 31
0.0
 12
134.9204934803038
 22
179.8061679060874
 32
0.0
 13
134.9204934803038
 23
179.8061679060874
 33
0.0
  0
MTEXT
  5
571
330
569
100
AcDbEntity
  8
0
 62
     7
100
AcDbMText
 10
132.4204934803038
 20
185.442967954617
 30
0.0
 40
8.75
 41
0.0
 71
     7
 72
     1
  1
23
  7
CONVERTER_12
 11
0.0
 21
1.0
 31
0.0
 73
     1
 44
0.60024009603842
  0
ENDBLK
  5
573
330
569
100
AcDbEntity
  8
0
100
AcDbBlockEnd
  0
BLOCK
  5
57D
330
576
100
AcDbEntity
  8
0
100
AcDbBlockBegin
  2
*D41
 70
     1
 10
0.0
 20
0.0
 30
0.0
  3
*D41
  1

  0
LINE
  5
577
330
576
100
AcDbEntity
  8
0
  6
Continuous
 62
     2
100
AcDbLine
 10
408.8042280131581
 20
214.756092706087
 30
0.0
 11
408.8042280131581
 21
179.8061679060874
 31
0.0
  0
LINE
  5
578
330
576
100
AcDbEntity
  8
0
  6
Continuous
 62
     2
100
AcDbLine
 10
377.2566343189019
 20
179.8061679060874
 30
0.0
 11
411.3042280131581
 21
179.8061679060874
 31
0.0
  0
LINE
  5
579
330
576
100
AcDbEntity
  8
0
  6
Continuous
 62
     2
100
AcDbLine
 10
383.456634318902
 20
214.756092706087
 30
0.0
 11
411.3042280131581
 21
214.756092706087
 31
0.0
  0
SOLID
  5
57A
330
576
100
AcDbEntity
  8
0
 62
     2
100
AcDbTrace
 10
409.9561873670478
 20
206.006092706087
 30
0.0
 11
407.6522686592684
 21
206.006092706087
 31
0.0
 12
408.8042280131581
 22
214.756092706087
 32
0.0
 13
408.8042280131581
 23
214.756092706087
 33
0.0
  0
SOLID
  5
57B
330
576
100
AcDbEntity
  8
0
 62
     2
100
AcDbTrace
 10
407.6522686592684
 20
188.5561679060874
 30
0.0
 11
409.9561873670478
 21
188.5561679060874
 31
0.0
 12
408.8042280131581
 22
179.8061679060874
 32
0.0
 13
408.8042280131581
 23
179.8061679060874
 33
0.0
  0
MTEXT
  5
57C
330
576
100
AcDbEntity
  8
0
 62
     7
100
AcDbMText
 10
406.3042280131581
 20
190.540059788355
 30
0.0
 40
8.75
 41
0.0
 71
     7
 72
     1
  1
36
  7
CONVERTER_12
 11
0.0
 21
1.0
 31
0.0
 73
     1
 44
0.60024009603842
  0
ENDBLK
  5
57E
330
576
100
AcDbEntity
  8
0
100
AcDbBlockEnd
  0
ENDSEC
  0
SECTION
  2
ENTITIES
  0
INSERT
  5
9C
330
1F
100
AcDbEntity
  8
1
100
AcDbBlockReference
  2
V97-H2B-C2
 10
524.9999999999999
 20
1050.0
 30
0.0
 41
1.0
 42
1.0
 43
1.0
  0
INSERT
  5
9D
330
1F
100
AcDbEntity
  8
1
100
AcDbBlockReference
  2
開示A4
 10
0.0
 20
0.0
 30
0.0
 41
2.5
 42
2.5
 43
2.5
  0
INSERT
  5
9E
330
1F
100
AcDbEntity
  8
0
100
AcDbBlockReference
  2
V97-H12
 10
977.0978102417906
 20
105.1688350928842
 30
0.0
 41
1.0
 42
1.0
 43
1.0
  0
INSERT
  5
9F
330
1F
100
AcDbEntity
  8
0
100
AcDbBlockReference
  2
V96-3-H1
 10
-447.6971988633001
 20
102.8503579039882
 30
0.0
 41
1.0
 42
1.0
 43
1.0
  0
INSERT
  5
A0
330
1F
100
AcDbEntity
  8
0
100
AcDbBlockReference
  2
V97-30-Z1__1
 10
580.3430691712516
 20
268.8036649604229
 30
0.0
 41
1.0
 42
1.0
 43
1.0
  0
INSERT
  5
A1
330
1F
100
AcDbEntity
  8
0
100
AcDbBlockReference
  2
V97-30-Z1__2
 10
590.3430691712516
 20
268.8036649604229
 30
0.0
 41
1.0
 42
1.0
 43
1.0
  0
INSERT
  5
A2
330
1F
100
AcDbEntity
  8
0
100
AcDbBlockReference
  2
V97D-H2
 10
693.5329922810378
 20
366.1325450413528
 30
0.0
 41
1.0
 42
1.0
 43
1.0
  0
INSERT
  5
A3
330
1F
100
AcDbEntity
  8
0
100
AcDbBlockReference
  2
V97D-H5__3
 10
166.2315084776102
 20
326.9060927060875
 30
0.0
 41
1.0
 42
1.0
 43
1.0
  0
INSERT
  5
A4
330
1F
100
AcDbEntity
  8
0
100
AcDbBlockReference
  2
V97D-H6
 10
167.2315084776102
 20
327.8646408217602
 30
0.0
 41
1.0
 42
1.0
 43
1.0
  0
INSERT
  5
A5
330
1F
100
AcDbEntity
  8
1
100
AcDbBlockReference
  2
V97D-H4__4
 10
157.2815084776102
 20
327.4060926402259
 30
0.0
 41
1.0
 42
1.0
 43
1.0
  0
INSERT
  5
A6
330
1F
100
AcDbEntity
  8
1
100
AcDbBlockReference
  2
V97D-H4__5
 10
262.4815084776104
 20
327.4060926402259
 30
0.0
 41
1.0
 42
1.0
 43
1.0
  0
INSERT
  5
A7
330
1F
100
AcDbEntity
  8
0
100
AcDbBlockReference
  2
V97D-H4__6
 10
249.0315084776105
 20
327.8646408217602
 30
0.0
 41
1.0
 42
1.0
 43
1.0
  0
INSERT
  5
A8
330
1F
100
AcDbEntity
  8
0
100
AcDbBlockReference
  2
V97D-H5__7
 10
252.5315084776104
 20
326.9060927060875
 30
0.0
 41
1.0
 42
1.0
 43
1.0
  0
INSERT
  5
A9
330
1F
100
AcDbEntity
  8
0
100
AcDbBlockReference
  2
V97D-H1
 10
318.5621725006122
 20
545.4601404168767
 30
0.0
 41
1.0
 42
1.0
 43
1.0
  0
INSERT
  5
AA
330
1F
100
AcDbEntity
  8
0
100
AcDbBlockReference
  2
V97-H11
 10
913.1473104498817
 20
680.8055648208716
 30
0.0
 41
1.0
 42
1.0
 43
1.0
  0
INSERT
  5
AB
330
1F
100
AcDbEntity
  8
1
100
AcDbBlockReference
  2
BIS
 10
354.2066704905931
 20
232.0060927060871
 30
0.0
 41
1.0
 42
1.0
 43
1.0
  0
INSERT
  5
AC
330
1F
100
AcDbEntity
  8
1
100
AcDbBlockReference
  2
BIS2
 10
383.2566343189021
 20
236.756092706087
 30
0.0
 41
1.0
 42
1.0
 43
1.0
  0
INSERT
  5
AD
330
1F
100
AcDbEntity
  8
0
100
AcDbBlockReference
  2
V97-H17
 10
686.319005203863
 20
188.4182875081687
 30
0.0
 41
1.0
 42
1.0
 43
1.0
  0
INSERT
  5
AE
330
1F
100
AcDbEntity
  8
1
100
AcDbBlockReference
  2
81-93A
 10
-266.6443454202627
 20
-66.10224854440642
 30
0.0
 41
1.0
 42
1.0
 43
1.0
  0
INSERT
  5
AF
330
1F
100
AcDbEntity
  8
1
100
AcDbBlockReference
  2
14-39A
 10
-269.6443454202627
 20
-65.55224854440664
 30
0.0
 41
1.0
 42
1.0
 43
1.0
  0
INSERT
  5
B0
330
1F
100
AcDbEntity
  8
0
100
AcDbBlockReference
  2
TOP__8
 10
-399.3391284000742
 20
82.16591089719105
 30
0.0
 41
1.0
 42
1.0
 43
1.0
  0
INSERT
  5
B1
330
1F
100
AcDbEntity
  8
0
100
AcDbBlockReference
  2
TOP__9
 10
-404.3391284000742
 20
82.16591089719105
 30
0.0
 41
1.0
 42
1.0
 43
1.0
  0
INSERT
  5
B2
330
1F
100
AcDbEntity
  8
0
100
AcDbBlockReference
  2
98-113
 10
87.99999999999982
 20
482.8584352187938
 30
0.0
 41
1.0
 42
1.0
 43
1.0
  0
INSERT
  5
B3
330
1F
100
AcDbEntity
  8
1
100
AcDbBlockReference
  2
T17-4F
 10
1258.578764688755
 20
500.4946618709109
 30
0.0
 41
1.0
 42
1.0
 43
1.0
  0
LINE
  5
40E
330
1F
100
AcDbEntity
  8
1
  6
DASH_CENTER
 62
     2
100
AcDbLine
 10
362.5000000000001
 20
566.5
 30
0.0
 11
362.5000000000001
 21
633.0
 31
0.0
  0
LINE
  5
40F
330
1F
100
AcDbEntity
  8
1
  6
DASH_CENTER
 62
     2
100
AcDbLine
 10
191.4529123803912
 20
544.6378643976619
 30
0.0
 11
183.1314268441562
 21
544.6378643976619
 31
0.0
  0
LINE
  5
410
330
1F
100
AcDbEntity
  8
1
  6
DASH_CENTER
 62
     2
100
AcDbLine
 10
187.2815084776109
 20
540.4664604948813
 30
0.0
 11
187.2815084776109
 21
548.7879460311166
 31
0.0
  0
LINE
  5
411
330
1F
100
AcDbEntity
  8
1
  6
DASH_CENTER
 62
     2
100
AcDbLine
 10
236.65291238039
 20
544.6378643976619
 30
0.0
 11
228.3314268441548
 21
544.6378643976619
 31
0.0
  0
LINE
  5
412
330
1F
100
AcDbEntity
  8
1
  6
DASH_CENTER
 62
     2
100
AcDbLine
 10
232.4815084776097
 20
540.4664604948813
 30
0.0
 11
232.4815084776097
 21
548.7879460311166
 31
0.0
  0
LINE
  5
413
330
1F
100
AcDbEntity
  8
0
  6
DASH_CENTER
 62
     2
100
AcDbLine
 10
357.4027867416089
 20
259.5242076214692
 30
0.0
 11
357.4027867416089
 21
252.4244982790903
 31
0.0
  0
LINE
  5
414
330
1F
100
AcDbEntity
  8
0
  6
DASH_CENTER
 62
     2
100
AcDbLine
 10
350.0609911877908
 20
256.0060927060873
 30
0.0
 11
377.3425294618023
 21
256.0060927060873
 31
0.0
  0
LINE
  5
415
330
1F
100
AcDbEntity
  8
0
  6
DASH_CENTER
 62
     2
100
AcDbLine
 10
209.8815084776103
 20
464.2060927060875
 30
0.0
 11
209.8815084776102
 21
328.5928655480129
 31
0.0
  0
LINE
  5
416
330
1F
100
AcDbEntity
  8
0
  6
DASH_CENTER
 62
     2
100
AcDbLine
 10
155.6315084776103
 20
399.5560927060875
 30
0.0
 11
264.1315084776107
 21
399.5560927060875
 31
0.0
  0
LINE
  5
417
330
1F
100
AcDbEntity
  8
0
  6
Continuous
 62
     2
100
AcDbLine
 10
218.295775576517
 20
314.5211559659549
 30
0.0
 11
215.0125755765171
 21
314.5211559659549
 31
0.0
  0
LINE
  5
418
330
1F
100
AcDbEntity
  8
0
  6
Continuous
 62
     2
100
AcDbLine
 10
218.295775576517
 20
313.3691559659549
 30
0.0
 11
215.0125755765171
 21
313.3691559659549
 31
0.0
  0
LINE
  5
419
102
{ACAD_REACTORS
330
581
102
}
330
1F
100
AcDbEntity
  8
0
  6
Continuous
 62
     2
100
AcDbLine
 10
189.1471653009781
 20
312.9942825645745
 30
0.0
 11
190.8381483066032
 21
313.839774067387
 31
0.0
  0
LINE
  5
41A
102
{ACAD_REACTORS
330
581
102
}
330
1F
100
AcDbEntity
  8
0
  6
Continuous
 62
     2
100
AcDbLine
 10
189.1471653009781
 20
315.1324791656996
 30
0.0
 11
190.8381483066032
 21
314.286987662887
 31
0.0
  0
LINE
  5
41B
102
{ACAD_REACTORS
330
581
102
}
330
1F
100
AcDbEntity
  8
0
  6
Continuous
 62
     2
100
AcDbLine
 10
188.7853619021031
 20
313.2178893623245
 30
0.0
 11
188.7853619021031
 21
314.9088723679496
 31
0.0
  0
LINE
  5
41C
330
1F
100
AcDbEntity
  8
1
  6
Continuous
 62
     7
100
AcDbLine
 10
217.556998665024
 20
265.6860927060877
 30
0.0
 11
224.6185986650241
 21
265.6860927060877
 31
0.0
  0
LINE
  5
41D
330
1F
100
AcDbEntity
  8
1
  6
Continuous
 62
     7
100
AcDbLine
 10
225.7544226774012
 20
265.6860927060877
 30
0.0
 11
226.4824226774012
 21
265.6860927060877
 31
0.0
  0
LINE
  5
41E
330
1F
100
AcDbEntity
  8
1
  6
Continuous
 62
     7
100
AcDbLine
 10
227.6270278058254
 20
265.6860927060877
 30
0.0
 11
229.7018278058254
 21
265.6860927060877
 31
0.0
  0
LINE
  5
41F
330
1F
100
AcDbEntity
  8
1
  6
Continuous
 62
     7
100
AcDbLine
 10
231.388998665024
 20
265.6860927060877
 30
0.0
 11
243.036998665024
 21
265.6860927060877
 31
0.0
  0
LINE
  5
420
330
1F
100
AcDbEntity
  8
1
  6
Continuous
 62
     7
100
AcDbLine
 10
215.6672361940496
 20
266.8293081851101
 30
0.0
 11
215.518598665024
 21
265.986342869034
 31
0.0
  0
LINE
  5
421
330
1F
100
AcDbEntity
  8
1
  6
Continuous
 62
     7
100
AcDbLine
 10
215.6672361940496
 20
266.8293081851101
 30
0.0
 11
216.267087295855
 21
266.8293081851101
 31
0.0
  0
LINE
  5
422
330
1F
100
AcDbEntity
  8
1
  6
Continuous
 62
     7
100
AcDbLine
 10
215.518598665024
 20
265.986342869034
 30
0.0
 11
215.882598665024
 21
265.986342869034
 31
0.0
  0
LINE
  5
423
330
1F
100
AcDbEntity
  8
1
  6
Continuous
 62
     7
100
AcDbLine
 10
219.7379611359984
 20
268.1828772270652
 30
0.0
 11
219.886598665024
 21
269.0258425431413
 31
0.0
  0
LINE
  5
424
330
1F
100
AcDbEntity
  8
1
  6
Continuous
 62
     7
100
AcDbLine
 10
219.886598665024
 20
269.0258425431413
 30
0.0
 11
219.369137263607
 21
269.0258425431413
 31
0.0
  0
LINE
  5
425
330
1F
100
AcDbEntity
  8
1
  6
Continuous
 62
     7
100
AcDbLine
 10
220.8505882448944
 20
269.3260927060877
 30
0.0
 11
222.3065882448944
 21
269.3260927060877
 31
0.0
  0
LINE
  5
426
330
1F
100
AcDbEntity
  8
1
  6
Continuous
 62
     7
100
AcDbLine
 10
224.8370949019042
 20
269.3260927060877
 30
0.0
 11
224.1090949019043
 21
269.3260927060877
 31
0.0
  0
LINE
  5
427
330
1F
100
AcDbEntity
  8
1
  6
Continuous
 62
     7
100
AcDbLine
 10
230.6100257146281
 20
269.3260927060877
 30
0.0
 11
229.882025714628
 21
269.3260927060877
 31
0.0
  0
LINE
  5
428
330
1F
100
AcDbEntity
  8
1
  6
Continuous
 62
     7
100
AcDbLine
 10
235.4845368107262
 20
270.9559949999818
 30
0.0
 11
233.936998665024
 21
270.9559949999818
 31
0.0
  0
LINE
  5
429
330
1F
100
AcDbEntity
  8
1
  6
Continuous
 62
     7
100
AcDbLine
 10
244.492998665024
 20
269.3552127060876
 30
0.0
 11
243.619398665024
 21
269.3552127060876
 31
0.0
  0
LINE
  5
42A
330
1F
100
AcDbEntity
  8
1
  6
Continuous
 62
     7
100
AcDbLine
 10
225.792932489988
 20
265.9044927060876
 30
0.0
 11
226.5209324899879
 21
265.9044927060876
 31
0.0
  0
LINE
  5
42B
330
1F
100
AcDbEntity
  8
1
  6
Continuous
 62
     7
100
AcDbLine
 10
227.6655376184121
 20
265.9044927060876
 30
0.0
 11
229.7403376184121
 21
265.9044927060876
 31
0.0
  0
LINE
  5
42C
330
1F
100
AcDbEntity
  8
1
  6
Continuous
 62
     7
100
AcDbLine
 10
220.8120784323075
 20
269.1076927060877
 30
0.0
 11
222.2680784323075
 21
269.1076927060877
 31
0.0
  0
LINE
  5
42D
330
1F
100
AcDbEntity
  8
1
  6
Continuous
 62
     7
100
AcDbLine
 10
224.7985850893175
 20
269.1076927060877
 30
0.0
 11
224.0705850893175
 21
269.1076927060877
 31
0.0
  0
LINE
  5
42E
330
1F
100
AcDbEntity
  8
1
  6
Continuous
 62
     7
100
AcDbLine
 10
230.5715159020413
 20
269.1076927060877
 30
0.0
 11
229.8435159020413
 21
269.1076927060877
 31
0.0
  0
LINE
  5
42F
330
1F
100
AcDbEntity
  8
1
  6
Continuous
 62
     7
100
AcDbLine
 10
235.4460269981395
 20
270.7375949999818
 30
0.0
 11
233.8984888524374
 21
270.7375949999818
 31
0.0
  0
LINE
  5
430
330
1F
100
AcDbEntity
  8
1
  6
Continuous
 62
     7
100
AcDbLine
 10
244.4544888524373
 20
269.1368127060876
 30
0.0
 11
242.1248888524373
 21
269.1368127060876
 31
0.0
  0
LINE
  5
431
330
1F
100
AcDbEntity
  8
1
  6
Continuous
 62
     7
100
AcDbLine
 10
232.1552581785088
 20
265.9044927060876
 30
0.0
 11
243.0755084776108
 21
265.9044927060876
 31
0.0
  0
LINE
  5
432
330
1F
100
AcDbEntity
  8
1
  6
Continuous
 62
     7
100
AcDbLine
 10
218.3688291611691
 20
265.9044927060876
 30
0.0
 11
224.6571084776107
 21
265.9044927060876
 31
0.0
  0
LINE
  5
433
330
1F
100
AcDbEntity
  8
1
  6
Continuous
 62
     7
100
AcDbLine
 10
216.2793736653816
 20
266.8000288727594
 30
0.0
 11
216.267087295855
 21
266.8293081851101
 31
0.0
  0
LINE
  5
434
330
1F
100
AcDbEntity
  8
1
  6
Continuous
 62
     7
100
AcDbLine
 10
216.0145425350887
 20
266.2714774407351
 30
0.0
 11
215.882598665024
 21
265.986342869034
 31
0.0
  0
LINE
  5
435
330
1F
100
AcDbEntity
  8
1
  6
Continuous
 62
     7
100
AcDbLine
 10
216.0145425350887
 20
266.2714774407351
 30
0.0
 11
216.3785425350887
 21
266.2714774407351
 31
0.0
  0
LINE
  5
436
330
1F
100
AcDbEntity
  8
1
  6
Continuous
 62
     7
100
AcDbLine
 10
219.7379611359984
 20
268.1828772270652
 30
0.0
 11
219.2204997345814
 21
268.1828772270652
 31
0.0
  0
LINE
  5
437
330
1F
100
AcDbEntity
  8
1
  6
Continuous
 62
     7
100
AcDbLine
 10
219.0263970876314
 20
268.5818499069514
 30
0.0
 11
219.2204997345814
 21
268.1828772270652
 31
0.0
  0
LINE
  5
438
330
1F
100
AcDbEntity
  8
1
  6
Continuous
 62
     7
100
AcDbLine
 10
219.2758510364467
 20
268.496790059027
 30
0.0
 11
219.369137263607
 21
269.0258425431413
 31
0.0
  0
LINE
  5
439
330
1F
100
AcDbEntity
  8
1
  6
Continuous
 62
     7
100
AcDbLine
 10
228.9207910644928
 20
264.0917280971174
 30
0.0
 11
230.6679910644929
 21
264.0917280971174
 31
0.0
  0
LINE
  5
43A
330
1F
100
AcDbEntity
  8
1
  6
Continuous
 62
     7
100
AcDbLine
 10
229.0663910644929
 20
264.3101280971173
 30
0.0
 11
230.813591064493
 21
264.3101280971173
 31
0.0
  0
LINE
  5
43B
330
1F
100
AcDbEntity
  8
1
  6
DASH_CENTER
 62
     2
100
AcDbLine
 10
209.8815084776102
 20
567.6378643976619
 30
0.0
 11
209.8815084776102
 21
484.1378643976618
 31
0.0
  0
LINE
  5
43C
330
1F
100
AcDbEntity
  8
0
  6
DASH_CENTER
 62
     2
100
AcDbLine
 10
388.9569367547259
 20
287.5060927060877
 30
0.0
 11
333.2450437403504
 21
287.5060927060877
 31
0.0
  0
LINE
  5
43D
330
1F
100
AcDbEntity
  8
0
  6
DASH_CENTER
 62
     2
100
AcDbLine
 10
388.4857171081077
 20
243.5060927060877
 30
0.0
 11
333.2450437403504
 21
243.5060927060875
 31
0.0
  0
LINE
  5
43E
330
1F
100
AcDbEntity
  8
0
  6
DASH_CENTER
 62
     2
100
AcDbLine
 10
308.1294523910145
 20
331.9060927060876
 30
0.0
 11
328.3824426544771
 21
331.9060927060876
 31
0.0
  0
LINE
  5
43F
330
1F
100
AcDbEntity
  8
0
  6
DASH_CENTER
 62
     2
100
AcDbLine
 10
320.3099713494919
 20
337.2093935649867
 30
0.0
 11
309.7033696316937
 21
326.6027918471885
 31
0.0
  0
LINE
  5
440
330
1F
100
AcDbEntity
  8
0
  6
DASH_CENTER
 62
     2
100
AcDbLine
 10
315.0066704905929
 20
324.4132967567103
 30
0.0
 11
315.0066704905929
 21
339.3809664402404
 31
0.0
  0
LINE
  5
441
330
1F
100
AcDbEntity
  8
0
  6
DASH_CENTER
 62
     2
100
AcDbLine
 10
311.3597027968175
 20
335.5530603998628
 30
0.0
 11
318.8635059911276
 21
328.0492572055528
 31
0.0
  0
LINE
  5
442
330
1F
100
AcDbEntity
  8
0
  6
DASH_CENTER
 62
     2
100
AcDbLine
 10
388.4857171081077
 20
234.0060927060873
 30
0.0
 11
333.2450437403504
 21
234.006092706087
 31
0.0
  0
LINE
  5
443
330
1F
100
AcDbEntity
  8
0
  6
DASH_CENTER
 62
     2
100
AcDbLine
 10
388.9569367547259
 20
278.0060927060873
 30
0.0
 11
333.2450437403504
 21
278.006092706087
 31
0.0
  0
LINE
  5
444
330
1F
100
AcDbEntity
  8
0
  6
DASH_CENTER
 62
     2
100
AcDbLine
 10
378.8847427523537
 20
236.8060927060884
 30
0.0
 11
390.3695201382027
 21
236.8060927060884
 31
0.0
  0
LINE
  5
445
330
1F
100
AcDbEntity
  8
0
  6
DASH_CENTER
 62
     2
100
AcDbLine
 10
386.6526242478184
 20
264.5060927060877
 30
0.0
 11
306.0066704905929
 21
264.5060927060876
 31
0.0
  0
LINE
  5
446
330
1F
100
AcDbEntity
  8
0
  6
DASH_CENTER
 62
     2
100
AcDbLine
 10
364.2566343189021
 20
171.8060927060877
 30
0.0
 11
364.2566343189021
 21
302.9711820432789
 31
0.0
  0
LINE
  5
447
330
1F
100
AcDbEntity
  8
0
  6
DASH_CENTER
 62
     2
100
AcDbLine
 10
264.9027271298245
 20
264.5060927060877
 30
0.0
 11
154.2399440867109
 21
264.5060927060875
 31
0.0
  0
LINE
  5
448
330
1F
100
AcDbEntity
  8
0
  6
DASH_CENTER
 62
     2
100
AcDbLine
 10
175.188463548808
 20
240.3060927060883
 30
0.0
 11
214.9815084776105
 21
240.3060927060883
 31
0.0
  0
LINE
  5
449
330
1F
100
AcDbEntity
  8
0
  6
DASH_CENTER
 62
     2
100
AcDbLine
 10
221.2992353119362
 20
287.4060927060882
 30
0.0
 11
199.3316090249855
 21
287.4060927060882
 31
0.0
  0
LINE
  5
44A
330
1F
100
AcDbEntity
  8
0
  6
Continuous
 62
     7
100
AcDbLine
 10
176.4815084776096
 20
310.2560927060876
 30
0.0
 11
243.2815084776109
 21
310.2560927060876
 31
0.0
  0
LINE
  5
44B
330
1F
100
AcDbEntity
  8
0
  6
Continuous
 62
     7
100
AcDbLine
 10
172.4815084776096
 20
223.2560927060876
 30
0.0
 11
172.4815084776096
 21
306.2560927060876
 31
0.0
  0
LINE
  5
44C
330
1F
100
AcDbEntity
  8
0
  6
Continuous
 62
     7
100
AcDbLine
 10
247.2815084776109
 20
223.2560927060876
 30
0.0
 11
247.2815084776109
 21
306.2560927060876
 31
0.0
  0
LINE
  5
44D
330
1F
100
AcDbEntity
  8
0
  6
Continuous
 62
     7
100
AcDbLine
 10
176.4815084776096
 20
218.7560927060876
 30
0.0
 11
243.2815084776109
 21
218.7560927060876
 31
0.0
  0
LINE
  5
44E
330
1F
100
AcDbEntity
  8
0
  6
Continuous
 62
     7
100
AcDbLine
 10
176.7315084776095
 20
219.2560927060876
 30
0.0
 11
209.8815084776102
 21
219.2560927060876
 31
0.0
  0
LINE
  5
44F
330
1F
100
AcDbEntity
  8
0
  6
Continuous
 62
     7
100
AcDbLine
 10
209.8815084776102
 20
219.2560927060876
 30
0.0
 11
243.0315084776109
 21
219.2560927060876
 31
0.0
  0
LINE
  5
450
330
1F
100
AcDbEntity
  8
0
  6
Continuous
 62
     7
100
AcDbLine
 10
176.7315084776095
 20
309.7560927060876
 30
0.0
 11
243.0315084776109
 21
309.7560927060876
 31
0.0
  0
LINE
  5
451
330
1F
100
AcDbEntity
  8
0
  6
Continuous
 62
     7
100
AcDbLine
 10
172.7315084776095
 20
305.7560927060876
 30
0.0
 11
172.7315084776095
 21
223.2560927060875
 31
0.0
  0
LINE
  5
452
330
1F
100
AcDbEntity
  8
0
  6
Continuous
 62
     7
100
AcDbLine
 10
247.0315084776109
 20
305.7560927060876
 30
0.0
 11
247.0315084776108
 21
223.2560927060875
 31
0.0
  0
LINE
  5
453
330
1F
100
AcDbEntity
  8
0
  6
Continuous
 62
     7
100
AcDbLine
 10
177.8778664754203
 20
285.7678961049634
 30
0.0
 11
181.2598324866705
 21
287.4588791105884
 31
0.0
  0
LINE
  5
454
330
1F
100
AcDbEntity
  8
0
  6
Continuous
 62
     7
100
AcDbLine
 10
177.8778664754203
 20
290.0442893072134
 30
0.0
 11
181.2598324866705
 21
288.3533063015884
 31
0.0
  0
LINE
  5
455
330
1F
100
AcDbEntity
  8
0
  6
Continuous
 62
     7
100
AcDbLine
 10
177.1542596776704
 20
286.2151097004633
 30
0.0
 11
177.1542596776704
 21
289.5970757117134
 31
0.0
  0
LINE
  5
456
330
1F
100
AcDbEntity
  8
0
  6
Continuous
 62
     7
100
AcDbLine
 10
224.1315084776102
 20
282.4060927060882
 30
0.0
 11
195.6315084776101
 21
282.4060927060882
 31
0.0
  0
LINE
  5
457
330
1F
100
AcDbEntity
  8
0
  6
Continuous
 62
     7
100
AcDbLine
 10
224.1315084776102
 20
292.4060927060882
 30
0.0
 11
195.6315084776101
 21
292.4060927060881
 31
0.0
  0
LINE
  5
458
330
1F
100
AcDbEntity
  8
0
  6
DASH_CENTER
 62
     2
100
AcDbLine
 10
199.6315084776101
 20
287.4060927060881
 30
0.0
 11
195.1315084776101
 21
287.4060927060881
 31
0.0
  0
LINE
  5
459
330
1F
100
AcDbEntity
  8
0
  6
Continuous
 62
     7
100
AcDbLine
 10
184.8815084776102
 20
319.7060927060868
 30
0.0
 11
184.8815084776102
 21
312.7060927060868
 31
0.0
  0
LINE
  5
45A
330
1F
100
AcDbEntity
  8
0
  6
Continuous
 62
     7
100
AcDbLine
 10
186.8815084776102
 20
321.7060927060868
 30
0.0
 11
232.8815085312
 21
321.7060927060868
 31
0.0
  0
LINE
  5
45B
330
1F
100
AcDbEntity
  8
0
  6
Continuous
 62
     7
100
AcDbLine
 10
234.8815085312
 20
319.7060927060868
 30
0.0
 11
234.8815085312
 21
312.7060927060868
 31
0.0
  0
LINE
  5
45C
330
1F
100
AcDbEntity
  8
0
  6
Continuous
 62
     7
100
AcDbLine
 10
186.8815084776102
 20
310.7060927060868
 30
0.0
 11
232.8815085312
 21
310.7060927060868
 31
0.0
  0
LINE
  5
45D
330
1F
100
AcDbEntity
  8
0
  6
Continuous
 62
     7
100
AcDbLine
 10
179.8415351087804
 20
232.5060927060882
 30
0.0
 11
192.5690851925809
 21
232.5060927060882
 31
0.0
  0
LINE
  5
45E
330
1F
100
AcDbEntity
  8
0
  6
Continuous
 62
     7
100
AcDbLine
 10
179.8415351087805
 20
248.1060927060882
 30
0.0
 11
192.5690851925809
 21
248.1060927060882
 31
0.0
  0
LINE
  5
45F
330
1F
100
AcDbEntity
  8
0
  6
Continuous
 62
     7
100
AcDbLine
 10
224.5784469343092
 20
248.8060927060881
 30
0.0
 11
228.7452302736924
 21
248.8060927060881
 31
0.0
  0
LINE
  5
460
330
1F
100
AcDbEntity
  8
0
  6
Continuous
 62
     7
100
AcDbLine
 10
224.5784469343095
 20
231.8060927060881
 30
0.0
 11
228.7452302736924
 21
231.8060927060881
 31
0.0
  0
LINE
  5
461
330
1F
100
AcDbEntity
  8
0
  6
DASH_CENTER
 62
     2
100
AcDbLine
 10
209.8815084776102
 20
328.5928655480129
 30
0.0
 11
209.8815084776102
 21
172.3061679060874
 31
0.0
  0
ARC
  5
462
330
1F
100
AcDbEntity
  8
0
  6
Continuous
 62
     2
100
AcDbCircle
 10
216.6541755765171
 20
313.945155965955
 30
0.0
 40
1.843199999999977
100
AcDbArc
 50
16.47074106557814
 51
163.5292589344229
  0
ARC
  5
463
330
1F
100
AcDbEntity
  8
0
  6
Continuous
 62
     2
100
AcDbCircle
 10
213.8029755765171
 20
313.945155965955
 30
0.0
 40
1.151999999999946
100
AcDbArc
 50
340.6838778322422
 51
19.31612216776498
  0
ARC
  5
464
330
1F
100
AcDbEntity
  8
0
  6
Continuous
 62
     2
100
AcDbCircle
 10
219.5053755765171
 20
313.945155965955
 30
0.0
 40
1.15200000000009
100
AcDbArc
 50
160.6838778322388
 51
180.0
  0
ARC
  5
465
330
1F
100
AcDbEntity
  8
0
  6
Continuous
 62
     2
100
AcDbCircle
 10
219.5053755765171
 20
313.945155965955
 30
0.0
 40
1.152000000000015
100
AcDbArc
 50
180.0
 51
199.3161221677559
  0
ARC
  5
466
330
1F
100
AcDbEntity
  8
0
  6
Continuous
 62
     2
100
AcDbCircle
 10
216.6541755765171
 20
313.945155965955
 30
0.0
 40
1.843200000000054
100
AcDbArc
 50
196.4707410655737
 51
343.5292589344253
  0
ARC
  5
467
102
{ACAD_REACTORS
330
581
102
}
330
1F
100
AcDbEntity
  8
0
  6
Continuous
 62
     2
100
AcDbCircle
 10
189.0353619021031
 20
313.2178893623245
 30
0.0
 40
0.25
100
AcDbArc
 50
180.0
 51
296.565051177078
  0
ARC
  5
468
102
{ACAD_REACTORS
330
581
102
}
330
1F
100
AcDbEntity
  8
0
  6
Continuous
 62
     2
100
AcDbCircle
 10
189.0353619021031
 20
314.9088723679496
 30
0.0
 40
0.2500000000000171
100
AcDbArc
 50
63.43494882292201
 51
180.0
  0
ARC
  5
469
102
{ACAD_REACTORS
330
581
102
}
330
1F
100
AcDbEntity
  8
0
  6
Continuous
 62
     2
100
AcDbCircle
 10
190.7263449077282
 20
314.063380865137
 30
0.0
 40
0.2500000000000171
100
AcDbArc
 50
296.565051177078
 51
63.43494882292201
  0
ARC
  5
46A
330
1F
100
AcDbEntity
  8
1
  6
Continuous
 62
     7
100
AcDbCircle
 10
243.036998665024
 20
268.2839432181551
 30
0.0
 40
2.597850512067396
100
AcDbArc
 50
270.0
 51
304.0878475193581
  0
ARC
  5
46B
330
1F
100
AcDbEntity
  8
1
  6
Continuous
 62
     7
100
AcDbCircle
 10
243.0755084776108
 20
268.5023432181552
 30
0.0
 40
2.597850512067623
100
AcDbArc
 50
270.0
 51
304.0878475193576
  0
ARC
  5
46C
330
1F
100
AcDbEntity
  8
1
  6
Continuous
 62
     7
100
AcDbCircle
 10
217.0008850487403
 20
266.89700992082
 30
0.0
 40
0.7279999999993783
100
AcDbArc
 50
187.6554565665031
 51
221.5900089836673
  0
ARC
  5
46D
330
1F
100
AcDbEntity
  8
0
  6
Continuous
 62
     7
100
AcDbCircle
 10
209.8815082096614
 20
240.3060927060883
 30
0.0
 40
10.0
100
AcDbArc
 50
90.00000000000064
 51
270.0000000000016
  0
ARC
  5
46E
330
1F
100
AcDbEntity
  8
0
  6
Continuous
 62
     7
100
AcDbCircle
 10
209.8815082511937
 20
240.3060927060883
 30
0.0
 40
8.450000000000017
100
AcDbArc
 50
90.0
 51
270.0
  0
ARC
  5
46F
330
1F
100
AcDbEntity
  8
0
  6
Continuous
 62
     7
100
AcDbCircle
 10
209.881508265931
 20
240.3060927060883
 30
0.0
 40
7.89999999999992
100
AcDbArc
 50
90.0
 51
270.0
  0
ARC
  5
470
330
1F
100
AcDbEntity
  8
0
  6
Continuous
 62
     7
100
AcDbCircle
 10
209.8815082096614
 20
240.3060927060883
 30
0.0
 40
10.0
100
AcDbArc
 50
270.0000000000016
 51
90.00000000000064
  0
ARC
  5
471
330
1F
100
AcDbEntity
  8
0
  6
Continuous
 62
     7
100
AcDbCircle
 10
209.8815082511937
 20
240.3060927060883
 30
0.0
 40
8.449999999999989
100
AcDbArc
 50
270.0
 51
90.0
  0
ARC
  5
472
330
1F
100
AcDbEntity
  8
0
  6
Continuous
 62
     7
100
AcDbCircle
 10
209.881508265931
 20
240.3060927060883
 30
0.0
 40
7.900000000000006
100
AcDbArc
 50
270.0
 51
90.0
  0
ARC
  5
473
330
1F
100
AcDbEntity
  8
0
  6
Continuous
 62
     7
100
AcDbCircle
 10
243.2815084776109
 20
306.2560927060876
 30
0.0
 40
4.0
100
AcDbArc
 50
0.0
 51
90.00000153523472
  0
ARC
  5
474
330
1F
100
AcDbEntity
  8
0
  6
Continuous
 62
     7
100
AcDbCircle
 10
176.4815084776096
 20
306.2560927060876
 30
0.0
 40
4.000000000000001
100
AcDbArc
 50
90.00000153523756
 51
180.0000030704694
  0
ARC
  5
475
330
1F
100
AcDbEntity
  8
0
  6
Continuous
 62
     7
100
AcDbCircle
 10
176.4815084776096
 20
222.7560927060876
 30
0.0
 40
4.000000000000005
100
AcDbArc
 50
180.0000030704694
 51
269.9999984647624
  0
ARC
  5
476
330
1F
100
AcDbEntity
  8
0
  6
Continuous
 62
     7
100
AcDbCircle
 10
243.2815084776109
 20
222.7560927060876
 30
0.0
 40
4.000000000000001
100
AcDbArc
 50
269.9999984647653
 51
0.0
  0
ARC
  5
477
330
1F
100
AcDbEntity
  8
0
  6
Continuous
 62
     7
100
AcDbCircle
 10
176.7315084776095
 20
305.7560927060876
 30
0.0
 40
4.000000000000001
100
AcDbArc
 50
90.00000153523634
 51
180.0000030704694
  0
ARC
  5
478
330
1F
100
AcDbEntity
  8
0
  6
Continuous
 62
     7
100
AcDbCircle
 10
243.0315084776109
 20
305.7560927060876
 30
0.0
 40
4.0
100
AcDbArc
 50
0.0
 51
90.00000153523472
  0
ARC
  5
479
330
1F
100
AcDbEntity
  8
0
  6
Continuous
 62
     7
100
AcDbCircle
 10
176.7315084776095
 20
223.2560927060875
 30
0.0
 40
4.000000000000005
100
AcDbArc
 50
180.0000030704678
 51
269.9999984647637
  0
ARC
  5
47A
330
1F
100
AcDbEntity
  8
0
  6
Continuous
 62
     7
100
AcDbCircle
 10
243.0315084776108
 20
223.2560927060875
 30
0.0
 40
4.000000000000001
100
AcDbArc
 50
269.9999984647653
 51
0.0
  0
ARC
  5
47B
330
1F
100
AcDbEntity
  8
0
  6
Continuous
 62
     7
100
AcDbCircle
 10
177.6542596776704
 20
286.2151097004633
 30
0.0
 40
0.5000000000000007
100
AcDbArc
 50
180.0000030704702
 51
296.5650500949997
  0
ARC
  5
47C
330
1F
100
AcDbEntity
  8
0
  6
Continuous
 62
     7
100
AcDbCircle
 10
177.6542596776704
 20
289.5970757117134
 30
0.0
 40
0.500000000000047
100
AcDbArc
 50
63.43494990500035
 51
180.0000030704702
  0
ARC
  5
47D
330
1F
100
AcDbEntity
  8
0
  6
Continuous
 62
     7
100
AcDbCircle
 10
181.0362256889204
 20
287.9060927060884
 30
0.0
 40
0.500000000000047
100
AcDbArc
 50
296.5650500949997
 51
63.43494990499743
  0
ARC
  5
47E
102
{ACAD_REACTORS
330
583
102
}
330
1F
100
AcDbEntity
  8
0
  6
Continuous
 62
     7
100
AcDbCircle
 10
190.3088733051738
 20
280.6272411681758
 30
0.0
 40
0.1564980011699247
100
AcDbArc
 50
300.699012151118
 51
88.24157604902939
  0
ARC
  5
47F
102
{ACAD_REACTORS
330
583
102
}
330
1F
100
AcDbEntity
  8
0
  6
Continuous
 62
     7
100
AcDbCircle
 10
190.015339040482
 20
271.0658416969883
 30
0.0
 40
9.722402151440917
100
AcDbArc
 50
88.24157604900651
 51
120.6990121511219
  0
ARC
  5
480
102
{ACAD_REACTORS
330
583
102
}
330
1F
100
AcDbEntity
  8
0
  6
Continuous
 62
     7
100
AcDbCircle
 10
185.1316762374215
 20
279.2911903119818
 30
0.0
 40
0.1564980011699735
100
AcDbArc
 50
120.6990121511074
 51
268.24157604903
  0
ARC
  5
481
102
{ACAD_REACTORS
330
583
102
}
330
1F
100
AcDbEntity
  8
0
  6
Continuous
 62
     7
100
AcDbCircle
 10
185.4252105021133
 20
288.8525897831693
 30
0.0
 40
9.722402151441031
100
AcDbArc
 50
268.2415760490065
 51
300.699012151122
  0
ARC
  5
482
102
{ACAD_REACTORS
330
584
102
}
330
1F
100
AcDbEntity
  8
0
  6
Continuous
 62
     7
100
AcDbCircle
 10
190.9198117927874
 20
278.1239777218239
 30
0.0
 40
0.6042898518250296
100
AcDbArc
 50
324.8028912830579
 51
90.04326782414185
  0
ARC
  5
483
102
{ACAD_REACTORS
330
584
102
}
330
1F
100
AcDbEntity
  8
0
  6
Continuous
 62
     7
100
AcDbCircle
 10
190.9236037805238
 20
273.1025823467841
 30
0.0
 40
5.625686658655022
100
AcDbArc
 50
90.04326782412863
 51
144.8028912830563
  0
ARC
  5
484
102
{ACAD_REACTORS
330
584
102
}
330
1F
100
AcDbEntity
  8
0
  6
Continuous
 62
     7
100
AcDbCircle
 10
186.8202489393207
 20
275.9968706770679
 30
0.0
 40
0.6042898518250527
100
AcDbArc
 50
144.8028912830594
 51
270.0432678241229
  0
ARC
  5
485
102
{ACAD_REACTORS
330
584
102
}
330
1F
100
AcDbEntity
  8
0
  6
Continuous
 62
     7
100
AcDbCircle
 10
186.8164569515841
 20
281.0182660521077
 30
0.0
 40
5.625686658655079
100
AcDbArc
 50
270.0432678241289
 51
324.8028912830569
  0
ARC
  5
486
102
{ACAD_REACTORS
330
585
102
}
330
1F
100
AcDbEntity
  8
0
  6
Continuous
 62
     7
100
AcDbCircle
 10
189.4998121347936
 20
272.4987631416797
 30
0.0
 40
1.133078469088763
100
AcDbArc
 50
160.7481611900749
 51
272.879086396213
  0
ARC
  5
487
102
{ACAD_REACTORS
330
585
102
}
330
1F
100
AcDbEntity
  8
0
  6
Continuous
 62
     7
100
AcDbCircle
 10
189.3373444658753
 20
275.7292586028144
 30
0.0
 40
4.367656751934153
100
AcDbArc
 50
272.8790863962178
 51
340.7481611900731
  0
ARC
  5
488
102
{ACAD_REACTORS
330
585
102
}
330
1F
100
AcDbEntity
  8
0
  6
Continuous
 62
     7
100
AcDbCircle
 10
192.3910400821288
 20
274.6627503979094
 30
0.0
 40
1.133078469088782
100
AcDbArc
 50
340.7481611900721
 51
92.87908639621698
  0
ARC
  5
489
102
{ACAD_REACTORS
330
585
102
}
330
1F
100
AcDbEntity
  8
0
  6
Continuous
 62
     7
100
AcDbCircle
 10
192.553507751047
 20
271.4322549367748
 30
0.0
 40
4.367656751934153
100
AcDbArc
 50
92.8790863962178
 51
160.7481611900749
  0
ARC
  5
48A
102
{ACAD_REACTORS
330
586
102
}
330
1F
100
AcDbEntity
  8
0
  6
Continuous
 62
     7
100
AcDbCircle
 10
195.1745481948967
 20
270.495549906726
 30
0.0
 40
1.569099495364121
100
AcDbArc
 50
352.3965876057425
 51
95.19998044237572
  0
ARC
  5
48B
102
{ACAD_REACTORS
330
586
102
}
330
1F
100
AcDbEntity
  8
0
  6
Continuous
 62
     7
100
AcDbCircle
 10
195.339083065972
 20
268.6876092031027
 30
0.0
 40
3.384511655623113
100
AcDbArc
 50
95.19998044237533
 51
172.3965876057431
  0
ARC
  5
48C
102
{ACAD_REACTORS
330
586
102
}
330
1F
100
AcDbEntity
  8
0
  6
Continuous
 62
     7
100
AcDbCircle
 10
193.5396326237038
 20
268.9278162334704
 30
0.0
 40
1.569099495363916
100
AcDbArc
 50
172.3965876057436
 51
275.1999804423778
  0
ARC
  5
48D
102
{ACAD_REACTORS
330
586
102
}
330
1F
100
AcDbEntity
  8
0
  6
Continuous
 62
     7
100
AcDbCircle
 10
193.3750977526284
 20
270.7357569370936
 30
0.0
 40
3.384511655623584
100
AcDbArc
 50
275.199980442378
 51
352.3965876057457
  0
ARC
  5
48E
102
{ACAD_REACTORS
330
587
102
}
330
1F
100
AcDbEntity
  8
0
  6
Continuous
 62
     7
100
AcDbCircle
 10
199.0326049007513
 20
266.8675545889638
 30
0.0
 40
2.58988178021516
100
AcDbArc
 50
46.84532364265085
 51
276.7893152336362
  0
ARC
  5
48F
102
{ACAD_REACTORS
330
587
102
}
330
1F
100
AcDbEntity
  8
0
  6
Continuous
 62
     7
100
AcDbCircle
 10
201.7757372994899
 20
265.9665772870396
 30
0.0
 40
2.954683593338591
100
AcDbArc
 50
109.2006866747451
 51
214.4339522015415
  0
ARC
  5
490
330
1F
100
AcDbEntity
  8
0
  6
Continuous
 62
     7
100
AcDbCircle
 10
209.8815084776102
 20
287.4060927060874
 30
0.0
 40
16.00000000000003
100
AcDbArc
 50
16.47074106557802
 51
163.529258934422
  0
ARC
  5
491
330
1F
100
AcDbEntity
  8
0
  6
Continuous
 62
     7
100
AcDbCircle
 10
209.8815084776102
 20
287.4060927060874
 30
0.0
 40
15.99999999999942
100
AcDbArc
 50
196.4707410655716
 51
343.5292589344281
  0
ARC
  5
492
330
1F
100
AcDbEntity
  8
0
  6
Continuous
 62
     7
100
AcDbCircle
 10
234.6315084776102
 20
287.4060927060881
 30
0.0
 40
9.999999999999972
100
AcDbArc
 50
160.6838778322377
 51
180.0
  0
ARC
  5
493
330
1F
100
AcDbEntity
  8
0
  6
Continuous
 62
     7
100
AcDbCircle
 10
234.6315084776102
 20
287.4060927060881
 30
0.0
 40
10.0
100
AcDbArc
 50
180.0
 51
199.3161221677598
  0
ARC
  5
494
330
1F
100
AcDbEntity
  8
0
  6
Continuous
 62
     7
100
AcDbCircle
 10
185.1315084776101
 20
287.4060927060881
 30
0.0
 40
10.0
100
AcDbArc
 50
0.0
 51
19.31612216776212
  0
ARC
  5
495
330
1F
100
AcDbEntity
  8
0
  6
Continuous
 62
     7
100
AcDbCircle
 10
185.1315084776101
 20
287.4060927060881
 30
0.0
 40
10.00000000000014
100
AcDbArc
 50
340.6838778322404
 51
0.0
  0
ARC
  5
496
330
1F
100
AcDbEntity
  8
0
  6
Continuous
 62
     7
100
AcDbCircle
 10
186.8815084776102
 20
319.7060927060869
 30
0.0
 40
1.999999999999887
100
AcDbArc
 50
90.00000153523186
 51
180.0000030704702
  0
ARC
  5
497
330
1F
100
AcDbEntity
  8
0
  6
Continuous
 62
     7
100
AcDbCircle
 10
232.8815085312
 20
319.7060927060868
 30
0.0
 40
2.0
100
AcDbArc
 50
0.0
 51
90.00000153523511
  0
ARC
  5
498
330
1F
100
AcDbEntity
  8
0
  6
Continuous
 62
     7
100
AcDbCircle
 10
232.8815085312
 20
312.7060927060868
 30
0.0
 40
2.0
100
AcDbArc
 50
269.9999984647649
 51
0.0
  0
ARC
  5
499
330
1F
100
AcDbEntity
  8
0
  6
Continuous
 62
     7
100
AcDbCircle
 10
186.8815084776102
 20
312.7060927060869
 30
0.0
 40
2.000000000000003
100
AcDbArc
 50
180.0000030704702
 51
269.9999984647714
  0
ARC
  5
49A
330
1F
100
AcDbEntity
  8
0
  6
Continuous
 62
     7
100
AcDbCircle
 10
179.8415351087804
 20
233.5060927060878
 30
0.0
 40
0.9999999999998115
100
AcDbArc
 50
192.7548016378884
 51
269.9999984647714
  0
ARC
  5
49B
330
1F
100
AcDbEntity
  8
0
  6
Continuous
 62
     7
100
AcDbCircle
 10
179.8415351087805
 20
247.1060927060879
 30
0.0
 40
1.0
100
AcDbArc
 50
90.00000153523511
 51
167.245198362086
  0
ARC
  5
49C
330
1F
100
AcDbEntity
  8
0
  6
Continuous
 62
     7
100
AcDbCircle
 10
192.5690851925809
 20
247.1060927060882
 30
0.0
 40
1.000000000000015
100
AcDbArc
 50
338.5560167695336
 51
90.00000153523511
  0
ARC
  5
49D
330
1F
100
AcDbEntity
  8
0
  6
Continuous
 62
     7
100
AcDbCircle
 10
192.5690851925809
 20
233.5060927060882
 30
0.0
 40
1.000000000000398
100
AcDbArc
 50
269.9999984647649
 51
21.44398323045906
  0
ARC
  5
49E
330
1F
100
AcDbEntity
  8
0
  6
Continuous
 62
     7
100
AcDbCircle
 10
209.8815084776106
 20
240.3060927060883
 30
0.0
 40
31.80000000000028
100
AcDbArc
 50
167.2451983620976
 51
192.7548016379027
  0
ARC
  5
49F
330
1F
100
AcDbEntity
  8
0
  6
Continuous
 62
     7
100
AcDbCircle
 10
209.8815084776106
 20
240.3060927060883
 30
0.0
 40
17.60000000000099
100
AcDbArc
 50
158.5560198400067
 51
201.4439801599951
  0
ARC
  5
4A0
330
1F
100
AcDbEntity
  8
0
  6
Continuous
 62
     7
100
AcDbCircle
 10
209.8815084776106
 20
240.3060927060883
 30
0.0
 40
21.29999999999922
100
AcDbArc
 50
338.3177971043109
 51
21.68220289568804
  0
ARC
  5
4A1
330
1F
100
AcDbEntity
  8
0
  6
Continuous
 62
     7
100
AcDbCircle
 10
228.7452302736924
 20
247.806092706088
 30
0.0
 40
0.9999999999999389
100
AcDbArc
 50
21.68220289568625
 51
90.00000153524164
  0
ARC
  5
4A2
330
1F
100
AcDbEntity
  8
0
  6
Continuous
 62
     7
100
AcDbCircle
 10
228.7452302736924
 20
232.8060927060881
 30
0.0
 40
1.0
100
AcDbArc
 50
269.9999984647584
 51
338.3177971043137
  0
ARC
  5
4A3
330
1F
100
AcDbEntity
  8
0
  6
Continuous
 62
     7
100
AcDbCircle
 10
209.8815084776106
 20
240.3060927060883
 30
0.0
 40
16.49999999999949
100
AcDbArc
 50
32.87834956437757
 51
327.1216504356216
  0
CIRCLE
  5
4A4
330
1F
100
AcDbEntity
  8
0
  6
Continuous
 62
     2
100
AcDbCircle
 10
216.6541755765171
 20
313.945155965955
 30
0.0
 40
1.958399999999983
  0
CIRCLE
  5
4A5
330
1F
100
AcDbEntity
  8
0
  6
Continuous
 62
     2
100
AcDbCircle
 10
215.2717755765171
 20
313.945155965955
 30
0.0
 40
0.2016000000000133
  0
CIRCLE
  5
4A6
102
{ACAD_REACTORS
330
582
102
}
330
1F
100
AcDbEntity
  8
1
  6
Continuous
 62
     2
100
AcDbCircle
 10
192.4841181554589
 20
314.0436649604229
 30
0.0
 40
1.099999999999994
  0
CIRCLE
  5
4A7
102
{ACAD_REACTORS
330
588
102
}
330
1F
100
AcDbEntity
  8
0
  6
Continuous
 62
     7
100
AcDbCircle
 10
201.9053239326055
 20
265.8952496858746
 30
0.0
 40
2.490692091924075
  0
CIRCLE
  5
4A8
330
1F
100
AcDbEntity
  8
0
  6
Continuous
 62
     7
100
AcDbCircle
 10
209.8815084776102
 20
287.4060927060874
 30
0.0
 40
17.5
  0
CIRCLE
  5
4A9
330
1F
100
AcDbEntity
  8
0
  6
Continuous
 62
     7
100
AcDbCircle
 10
209.8815084776106
 20
240.3060927060883
 30
0.0
 40
13.3999999999985
  0
CIRCLE
  5
4AA
330
1F
100
AcDbEntity
  8
0
  6
Continuous
 62
     7
100
AcDbCircle
 10
209.8815084776106
 20
240.3060927060883
 30
0.0
 40
15.99999999999952
  0
CIRCLE
  5
4AB
330
1F
100
AcDbEntity
  8
0
  6
Continuous
 62
     7
100
AcDbCircle
 10
197.8815084776101
 20
287.4060927060881
 30
0.0
 40
1.75
  0
CIRCLE
  5
4AC
330
1F
100
AcDbEntity
  8
0
  6
Continuous
 62
     7
100
AcDbCircle
 10
209.8815084776106
 20
240.3060927060883
 30
0.0
 40
15.99999999999952
  0
LWPOLYLINE
  5
4AD
330
1F
100
AcDbEntity
  8
0
  6
Continuous
 62
     7
 60
     1
100
AcDbPolyline
 90
        4
 70
     0
 43
0.0
 10
333.5566343189021
 20
244.8060927060881
 10
352.7566343189017
 20
244.8060927060881
 10
352.7566343189017
 20
247.3060927060881
 10
351.7566343189017
 20
247.3060927060882
  0
LWPOLYLINE
  5
4AE
330
1F
100
AcDbEntity
  8
0
  6
Continuous
 62
     7
 60
     1
100
AcDbPolyline
 90
        3
 70
     0
 43
0.0
 10
324.156634318902
 20
235.2060927060881
 10
333.5566343189021
 20
235.2060927060881
 10
333.5566343189021
 20
235.8060927060881
  0
LWPOLYLINE
  5
4AF
330
1F
100
AcDbEntity
  8
1
  6
Continuous
 62
     7
 60
     1
100
AcDbPolyline
 90
        3
 70
     0
 43
0.0
 10
330.706670490593
 20
310.3560927060882
 10
354.206670490593
 20
310.3560927060882
 10
354.206670490593
 20
311.8560927060882
  0
ARC
  5
4B0
330
1F
100
AcDbEntity
  8
0
  6
Continuous
 62
     2
100
AcDbCircle
 10
215.1075573946989
 20
314.4024261701772
 30
0.0
 40
0.2304000000000549
100
AcDbArc
 50
163.5292589344169
 51
199.3161221677578
  0
ARC
  5
4B1
330
1F
100
AcDbEntity
  8
0
  6
Continuous
 62
     2
100
AcDbCircle
 10
215.1075573946989
 20
313.4878857617329
 30
0.0
 40
0.2303999999999843
100
AcDbArc
 50
160.6838778322328
 51
196.4707410655831
  0
ARC
  5
4B2
330
1F
100
AcDbEntity
  8
0
  6
Continuous
 62
     2
100
AcDbCircle
 10
218.2007937583352
 20
314.4024261701772
 30
0.0
 40
0.2303999999999843
100
AcDbArc
 50
340.6838778322328
 51
16.4707410655831
  0
ARC
  5
4B3
330
1F
100
AcDbEntity
  8
0
  6
Continuous
 62
     2
100
AcDbCircle
 10
218.2007937583352
 20
313.4878857617329
 30
0.0
 40
0.2304000000000549
100
AcDbArc
 50
343.5292589344169
 51
19.31612216776718
  0
ARC
  5
4B4
330
1F
100
AcDbEntity
  8
0
  6
Continuous
 62
     7
100
AcDbCircle
 10
223.3070135281151
 20
291.3754521177389
 30
0.0
 40
2.000000000000062
100
AcDbArc
 50
340.683877832238
 51
16.47074106557312
  0
ARC
  5
4B5
330
1F
100
AcDbEntity
  8
0
  6
Continuous
 62
     7
100
AcDbCircle
 10
223.307013528115
 20
283.4367332944378
 30
0.0
 40
1.999999999999893
100
AcDbArc
 50
343.5292589344255
 51
19.31612216775973
  0
ARC
  5
4B6
330
1F
100
AcDbEntity
  8
0
  6
Continuous
 62
     7
100
AcDbCircle
 10
196.4560034271053
 20
291.3754521177389
 30
0.0
 40
2.000000000000057
100
AcDbArc
 50
163.5292589344269
 51
199.3161221677623
  0
ARC
  5
4B7
330
1F
100
AcDbEntity
  8
0
  6
Continuous
 62
     7
100
AcDbCircle
 10
196.4560034271053
 20
283.4367332944378
 30
0.0
 40
1.99999999999981
100
AcDbArc
 50
160.6838778322389
 51
196.4707410655738
  0
ARC
  5
4B8
330
1F
100
AcDbEntity
  8
1
  6
Continuous
 62
     7
100
AcDbCircle
 10
224.5784469343095
 20
230.8060927060881
 30
0.0
 40
1.0
100
AcDbArc
 50
90.0
 51
147.121650435624
  0
ARC
  5
4B9
330
1F
100
AcDbEntity
  8
1
  6
Continuous
 62
     7
100
AcDbCircle
 10
224.5784469343092
 20
249.8060927060881
 30
0.0
 40
1.000000000000012
100
AcDbArc
 50
212.878349564381
 51
270.0
  0
SOLID
  5
4BA
330
1F
100
AcDbEntity
  8
1
 62
     2
100
AcDbTrace
 10
371.8156952358474
 20
468.3899630003642
 30
0.0
 11
369.8204431066562
 21
469.5419223542539
 31
0.0
 12
375.1930691712519
 22
476.5436649604228
 32
0.0
 13
375.1930691712519
 23
476.5436649604228
 33
0.0
  0
LEADER
  5
4BB
330
1F
100
AcDbEntity
  8
1
  6
Continuous
 62
     2
100
AcDbLeader
  3
Standard
 71
     0
 76
     3
 10
375.1930691712519
 20
476.5436649604228
 30
0.0
 10
359.7084440702913
 20
449.7235075494025
 30
0.0
 10
317.5310264703077
 20
449.7235075494025
 30
0.0
  0
SOLID
  5
4BC
330
1F
100
AcDbEntity
  8
1
 62
     2
100
AcDbTrace
 10
374.063980079996
 20
172.3043500999187
 30
0.0
 11
372.0687279508048
 21
171.152390746029
 31
0.0
 12
368.6913540154004
 22
179.3060927060877
 32
0.0
 13
368.6913540154004
 23
179.3060927060877
 33
0.0
  0
LEADER
  5
4BD
330
1F
100
AcDbEntity
  8
1
  6
Continuous
 62
     2
100
AcDbLeader
  3
Standard
 71
     0
 76
     3
 10
368.6913540154004
 20
179.3060927060877
 30
0.0
 10
379.5238467250109
 20
160.5436649604229
 30
0.0
 10
415.1019855744215
 20
160.5436649604229
 30
0.0
  0
MTEXT
  5
4BF
330
1F
100
AcDbEntity
  8
1
 62
     7
100
AcDbMText
 10
85.0
 20
85.00000000000003
 30
0.0
 40
8.75
 41
0.0
 71
     4
 72
     1
  1
JIS
  7
CONVERTER_12
 73
     1
 44
0.7202881152461
  0
MTEXT
  5
4C0
330
1F
100
AcDbEntity
  8
1
 62
     7
100
AcDbMText
 10
142.5
 20
35.62499999999999
 30
0.0
 40
8.75
 41
0.0
 71
     5
 72
     1
  1
V96DS
  7
CONVERTER_12
 73
     1
 44
0.84033613445378
  0
MTEXT
  5
4C1
330
1F
100
AcDbEntity
  8
1
 62
     7
100
AcDbMText
 10
142.5
 20
51.87500000000004
 30
0.0
 40
8.75
 41
0.0
 71
     5
 72
     1
  1
シンプレット
  7
CONVERTER_11
 73
     1
 44
0.54545454545455
  0
MTEXT
  5
4C2
330
1F
100
AcDbEntity
  8
1
 62
     7
100
AcDbMText
 10
142.5
 20
61.87500000000004
 30
0.0
 40
8.75
 41
0.0
 71
     5
 72
     1
  1
水道用コンセント
  7
CONVERTER_11
 73
     1
 44
0.54545454545455
  0
MTEXT
  5
4C3
330
1F
100
AcDbEntity
  8
1
 62
     7
100
AcDbMText
 10
213.125
 20
42.5
 30
0.0
 40
8.75
 41
0.0
 71
     5
 72
     1
  1
1
  7
CONVERTER_12
 73
     1
 44
0.7202881152461
  0
MTEXT
  5
4C4
330
1F
100
AcDbEntity
  8
1
 62
     7
100
AcDbMText
 10
234.375
 20
42.5
 30
0.0
 40
8.75
 41
0.0
 71
     5
 72
     1
  1
2,5
  7
CONVERTER_12
 73
     1
 44
0.7202881152461
  0
MTEXT
  5
4C5
330
1F
100
AcDbEntity
  8
1
 62
     7
100
AcDbMText
 10
338.3928444661914
 20
457.2235075494025
 30
0.0
 40
8.75
 41
0.0
 71
     5
 72
     1
  1
3,5X19
  7
CONVERTER_12
 73
     1
 44
0.7202881152461
  0
LWPOLYLINE
  5
4C6
330
1F
100
AcDbEntity
  8
1
 62
     2
100
AcDbPolyline
 90
        8
 70
     1
 43
0.0
 10
211.7386759527228
 20
312.3729771988243
 10
211.7386759527228
 20
312.3729771988243
 42
0.4142135623731
 10
213.2386759527228
 20
313.8729771988243
 10
213.2386759527228
 20
313.8729771988243
 42
0.4142135623731
 10
211.7386759527228
 20
315.3729771988243
 10
211.7386759527228
 20
315.3729771988243
 42
0.4142135623731
 10
210.2386759527228
 20
313.8729771988243
 10
210.2386759527228
 20
313.8729771988243
 42
0.4142135623731
  0
MTEXT
  5
4C7
330
1F
100
AcDbEntity
  8
1
 62
     2
100
AcDbMText
 10
211.7386759527228
 20
313.8729771988243
 30
0.0
 40
1.5
 41
0.0
 71
     5
 72
     1
  1
2
  7
CONVERTER_12
 73
     1
 44
1.32052821128451
  0
MTEXT
  5
4C8
330
1F
100
AcDbEntity
  8
1
 62
     2
100
AcDbMText
 10
201.0563756769228
 20
313.8729771988243
 30
0.0
 40
3.125
 41
0.0
 71
     5
 72
     1
  1
をあわせる
  7
CONVERTER_11
 73
     1
 44
1.0
  0
LWPOLYLINE
  5
4C9
330
1F
100
AcDbEntity
  8
1
 62
     2
100
AcDbPolyline
 90
        8
 70
     1
 43
0.0
 10
186.6676669232168
 20
312.3729771988243
 10
186.6676669232168
 20
312.3729771988243
 42
0.4142135623731
 10
188.1676669232168
 20
313.8729771988243
 10
188.1676669232168
 20
313.8729771988243
 42
0.4142135623731
 10
186.6676669232168
 20
315.3729771988243
 10
186.6676669232168
 20
315.3729771988243
 42
0.4142135623731
 10
185.1676669232168
 20
313.8729771988243
 10
185.1676669232168
 20
313.8729771988243
 42
0.4142135623731
  0
MTEXT
  5
4CA
330
1F
100
AcDbEntity
  8
1
 62
     2
100
AcDbMText
 10
186.6676669232168
 20
313.8729771988243
 30
0.0
 40
1.5
 41
0.0
 71
     5
 72
     1
  1
1
  7
CONVERTER_12
 73
     1
 44
1.32052821128451
  0
MTEXT
  5
4CB
330
1F
100
AcDbEntity
  8
1
 62
     2
100
AcDbMText
 10
226.6521415500205
 20
313.8729771988243
 30
0.0
 40
3.125
 41
0.0
 71
     5
 72
     1
  1
を押しこむ
  7
CONVERTER_11
 73
     1
 44
1.0
  0
MTEXT
  5
4CD
330
1F
100
AcDbEntity
  8
0
 62
     2
100
AcDbMText
 10
196.7035916477896
 20
317.5373184951704
 30
0.0
 40
3.125
 41
0.0
 71
     7
 72
     1
  1
ソケットのはずし方
  7
CONVERTER_13
 73
     1
 44
0.45454545454545
  0
MTEXT
  5
4CF
330
1F
100
AcDbEntity
  8
1
 62
     7
100
AcDbMText
 10
231.243398665024
 20
265.6860927060877
 30
0.0
 40
6.25
 41
0.0
 71
     8
 72
     1
  1
p
  7
CONVERTER_14
 73
     1
 44
1.32052821128451
  0
MTEXT
  5
4D0
330
1F
100
AcDbEntity
  8
1
 62
     7
100
AcDbMText
 10
234.519398665024
 20
265.6860927060877
 30
0.0
 40
6.25
 41
0.0
 71
     8
 72
     1
  1
l
  7
CONVERTER_14
 73
     1
 44
1.32052821128451
  0
MTEXT
  5
4D1
330
1F
100
AcDbEntity
  8
1
 62
     7
100
AcDbMText
 10
237.7953986650241
 20
265.6860927060877
 30
0.0
 40
6.25
 41
0.0
 71
     8
 72
     1
  1
e
  7
CONVERTER_14
 73
     1
 44
1.32052821128451
  0
MTEXT
  5
4D2
330
1F
100
AcDbEntity
  8
1
 62
     7
100
AcDbMText
 10
242.163398665024
 20
265.6860927060877
 30
0.0
 40
6.25
 41
0.0
 71
     8
 72
     1
  1
t
  7
CONVERTER_14
 73
     1
 44
1.32052821128451
  0
MTEXT
  5
4D4
330
1F
100
AcDbEntity
  8
1
 62
     7
100
AcDbMText
 10
217.2657986650242
 20
265.6860927060877
 30
0.0
 40
6.25
 41
0.0
 71
     8
 72
     1
  1
s
  7
CONVERTER_15
 73
     1
 44
1.32052821128451
  0
MTEXT
  5
4D5
330
1F
100
AcDbEntity
  8
1
 62
     7
100
AcDbMText
 10
221.4153986650241
 20
265.6860927060877
 30
0.0
 40
6.25
 41
0.0
 71
     8
 72
     1
  1
i
  7
CONVERTER_14
 73
     1
 44
1.32052821128451
  0
MTEXT
  5
4D6
330
1F
100
AcDbEntity
  8
1
 62
     7
100
AcDbMText
 10
225.783398665024
 20
265.6860927060877
 30
0.0
 40
6.25
 41
0.0
 71
     8
 72
     1
  1
m
  7
CONVERTER_15
 73
     1
 44
1.32052821128451
  0
MTEXT
  5
4D7
330
1F
100
AcDbEntity
  8
1
 62
     7
100
AcDbMText
 10
231.534598665024
 20
265.6860927060877
 30
0.0
 40
6.25
 41
0.0
 71
     8
 72
     1
  1
p
  7
CONVERTER_14
 73
     1
 44
1.32052821128451
  0
MTEXT
  5
4D8
330
1F
100
AcDbEntity
  8
1
 62
     7
100
AcDbMText
 10
234.810598665024
 20
265.6860927060877
 30
0.0
 40
6.25
 41
0.0
 71
     8
 72
     1
  1
l
  7
CONVERTER_14
 73
     1
 44
1.32052821128451
  0
MTEXT
  5
4D9
330
1F
100
AcDbEntity
  8
1
 62
     7
100
AcDbMText
 10
238.086598665024
 20
265.6860927060877
 30
0.0
 40
6.25
 41
0.0
 71
     8
 72
     1
  1
e
  7
CONVERTER_14
 73
     1
 44
1.32052821128451
  0
MTEXT
  5
4DA
330
1F
100
AcDbEntity
  8
1
 62
     7
100
AcDbMText
 10
242.454598665024
 20
265.6860927060877
 30
0.0
 40
6.25
 41
0.0
 71
     8
 72
     1
  1
t
  7
CONVERTER_14
 73
     1
 44
1.32052821128451
  0
MTEXT
  5
4DB
330
1F
100
AcDbEntity
  8
1
 62
     7
100
AcDbMText
 10
221.706598665024
 20
265.6860927060877
 30
0.0
 40
6.25
 41
0.0
 71
     8
 72
     1
  1
i
  7
CONVERTER_14
 73
     1
 44
1.32052821128451
  0
MTEXT
  5
4DC
330
1F
100
AcDbEntity
  8
1
 62
     7
100
AcDbMText
 10
226.074598665024
 20
265.6860927060877
 30
0.0
 40
6.25
 41
0.0
 71
     8
 72
     1
  1
m
  7
CONVERTER_15
 73
     1
 44
1.32052821128451
  0
MTEXT
  5
4DD
330
1F
100
AcDbEntity
  8
1
 62
     7
100
AcDbMText
 10
217.556998665024
 20
265.6860927060877
 30
0.0
 40
6.25
 41
0.0
 71
     8
 72
     1
  1
s
  7
CONVERTER_15
 73
     1
 44
1.32052821128451
  0
TEXT
  5
4DF
330
1F
100
AcDbEntity
  8
0
 62
     7
100
AcDbText
 10
184.588750371768
 20
285.7514554133556
 30
0.0
 40
6.0
  1
閉
 41
0.979
  7
CONVERTER_16
100
AcDbText
  0
TEXT
  5
4E0
330
1F
100
AcDbEntity
  8
0
 62
     7
100
AcDbText
 10
207.3815084776101
 20
262.9598569593703
 30
0.0
 40
6.0
  1
開
 41
0.979
  7
CONVERTER_16
100
AcDbText
  0
MTEXT
  5
4E1
330
1F
100
AcDbEntity
  8
0
 62
     7
100
AcDbMText
 10
229.6836170999158
 20
261.7176809885159
 30
0.0
 40
4.25
 41
0.0
 71
     5
 72
     1
  1
水道用コンセント
  7
CONVERTER_11
 73
     1
 44
0.54545454545455
  0
MTEXT
  5
4E2
330
1F
100
AcDbEntity
  8
0
 62
     7
100
AcDbMText
 10
397.6270315926266
 20
168.0436649604229
 30
0.0
 40
8.75
 41
0.0
 71
     5
 72
     1
  1
Rp1/2
  7
CONVERTER_12
 73
     1
 44
0.7202881152461
  0
DIMENSION
  5
4ED
330
1F
100
AcDbEntity
  8
1
100
AcDbDimension
  2
*D28
 10
319.3000000000002
 20
574.0
 30
0.0
 11
312.4250000000002
 21
599.75
 31
0.0
 70
    32
  1
51
 71
     5
 42
-1.0
 53
90.0
  3
ME10_DIM_10
100
AcDbAlignedDimension
 13
347.8928500000001
 23
625.4999999999999
 33
0.0
 14
350.0
 24
573.9999999999999
 34
0.0
 50
90.0
100
AcDbRotatedDimension
  0
DIMENSION
  5
4F8
330
1F
100
AcDbEntity
  8
1
100
AcDbDimension
  2
*D29
 10
344.1
 20
544.5
 30
0.0
 11
362.5000000000001
 21
551.375
 31
0.0
 70
    32
  1
{\Fgdt;n}37
 71
     5
 42
-1.0
 53
0.00013888888889
  3
ME10_DIM_11
100
AcDbAlignedDimension
 13
380.9000000000001
 23
597.4999999999998
 33
0.0
 14
344.0999999999999
 24
597.4999999999998
 34
0.0
100
AcDbRotatedDimension
  0
DIMENSION
  5
503
330
1F
100
AcDbEntity
  8
1
100
AcDbDimension
  2
*D30
 10
336.0066704905934
 20
365.9060927060876
 30
0.0
 11
349.9845825465278
 21
372.7810927060876
 31
0.0
 70
    32
  1
29
 71
     5
 42
-1.0
 53
0.00013888888889
  3
ME10_DIM_12
100
AcDbAlignedDimension
 13
364.256634318902
 23
296.0251039307956
 33
0.0
 14
336.0066704905933
 24
338.4060927060875
 34
0.0
100
AcDbRotatedDimension
  0
DIMENSION
  5
50E
330
1F
100
AcDbEntity
  8
0
100
AcDbDimension
  2
*D31
 10
385.4566343189022
 20
385.9060927060876
 30
0.0
 11
361.0249150775314
 21
392.7810927060876
 31
0.0
 70
    32
  1
50
 71
     5
 42
-1.0
 53
0.00013888888889
  3
ME10_DIM_13
100
AcDbAlignedDimension
 13
336.0066704905933
 23
338.4060927060875
 33
0.0
 14
385.4566343189021
 24
309.7560927060882
 34
0.0
100
AcDbRotatedDimension
  0
DIMENSION
  5
519
330
1F
100
AcDbEntity
  8
0
100
AcDbDimension
  2
*D32
 10
336.0066704905934
 20
365.9060927060876
 30
0.0
 11
323.8941002134074
 21
372.7810927060876
 31
0.0
 70
    32
  1
<>
 71
     5
 42
-1.0
 53
0.00013888888889
  3
ME10_DIM_14
100
AcDbAlignedDimension
 13
310.0066704905929
 23
326.0060927060879
 33
0.0
 14
336.0066704905933
 24
338.4060927060875
 34
0.0
100
AcDbRotatedDimension
  0
DIMENSION
  5
526
330
1F
100
AcDbEntity
  8
1
100
AcDbDimension
  2
*D33
 10
405.1909832222781
 20
471.8036649604229
 30
0.0
 11
398.3159832222781
 21
481.2035033545129
 31
0.0
 70
    32
  1
19
 71
     5
 42
-1.0
 53
90.0
  3
ME10_DIM_15
100
AcDbAlignedDimension
 13
390.343069171252
 23
491.0436649604226
 33
0.0
 14
386.893069171252
 24
471.8036649604228
 34
0.0
 50
90.0
100
AcDbRotatedDimension
  0
DIMENSION
  5
531
330
1F
100
AcDbEntity
  8
1
100
AcDbDimension
  2
*D34
 10
408.8930691712518
 20
314.2560927060882
 30
0.0
 11
402.0180691712518
 21
262.7051204259298
 31
0.0
 70
    32
  1
100(開口寸法102)
 71
     5
 42
-1.0
 53
90.0
  3
ME10_DIM_16
100
AcDbAlignedDimension
 13
383.4566343189021
 23
214.7560927060869
 33
0.0
 14
383.4566343189021
 24
314.2560927060882
 34
0.0
 50
90.0
100
AcDbRotatedDimension
  0
DIMENSION
  5
53C
330
1F
100
AcDbEntity
  8
0
100
AcDbDimension
  2
*D35
 10
158.6315084776101
 20
156.8060927060877
 30
0.0
 11
210.2239551721948
 21
163.6810927060877
 31
0.0
 70
    32
  1
103
 71
     5
 42
-1.0
 53
0.00013888888889
  3
ME10_DIM_17
100
AcDbAlignedDimension
 13
261.1315084776102
 23
208.6060927060875
 33
0.0
 14
158.6315084776101
 24
208.6060927060875
 34
0.0
100
AcDbRotatedDimension
  0
DIMENSION
  5
547
330
1F
100
AcDbEntity
  8
1
100
AcDbDimension
  2
*D36
 10
168.2815084776107
 20
585.137864397662
 30
0.0
 11
208.9548433229118
 21
592.012864397662
 31
0.0
 70
    32
  1
84(開口寸法86)
 71
     5
 42
-1.0
 53
0.00013888888889
  3
ME10_DIM_18
100
AcDbAlignedDimension
 13
251.4815084776095
 23
562.6378643976617
 33
0.0
 14
168.2815084776107
 24
562.6378643976617
 34
0.0
100
AcDbRotatedDimension
  0
DIMENSION
  5
552
330
1F
100
AcDbEntity
  8
0
100
AcDbDimension
  2
*D37
 10
134.8475126256408
 20
202.6060927060876
 30
0.0
 11
127.9725126256408
 21
259.6903619376495
 31
0.0
 70
    32
  1
136
 71
     5
 42
-1.0
 53
90.0
  3
ME10_DIM_19
100
AcDbAlignedDimension
 13
158.7815084776103
 23
337.9060927060874
 33
0.0
 14
164.6315084776101
 24
202.6060927060875
 34
0.0
 50
90.0
100
AcDbRotatedDimension
  0
DIMENSION
  5
55D
330
1F
100
AcDbEntity
  8
0
100
AcDbDimension
  2
*D38
 10
114.8475126256408
 20
461.2060927060874
 30
0.0
 11
107.9725126256408
 21
336.6879598517779
 31
0.0
 70
    33
  1
259
 71
     5
 42
-1.0
 53
89.99999999999996
  3
ME10_DIM_20
100
AcDbAlignedDimension
 13
164.6315084776101
 23
202.6060927060875
 33
0.0
 14
164.6315084776103
 24
461.2060927060873
 34
0.0
  0
DIMENSION
  5
568
330
1F
100
AcDbEntity
  8
1
100
AcDbDimension
  2
*D39
 10
153.0812670757757
 20
601.137864397662
 30
0.0
 11
209.4951493941748
 21
608.012864397662
 31
0.0
 70
    32
  1
114
 71
     5
 42
-1.0
 53
0.00013888888889
  3
ME10_DIM_21
100
AcDbAlignedDimension
 13
266.6817498794446
 23
546.425358340994
 33
0.0
 14
153.0812670757757
 24
546.425358340994
 34
0.0
100
AcDbRotatedDimension
  0
DIMENSION
  5
575
330
1F
100
AcDbEntity
  8
0
100
AcDbDimension
  2
*D40
 10
134.9204934803038
 20
202.6060927060876
 30
0.0
 11
128.0454934803038
 21
192.005467954617
 31
0.0
 70
    32
  1
23
 71
     5
 42
-1.0
 53
90.0
  3
ME10_DIM_22
100
AcDbAlignedDimension
 13
196.8815087040269
 23
179.8061679060874
 33
0.0
 14
164.6315084776101
 24
202.6060927060875
 34
0.0
 50
90.0
100
AcDbRotatedDimension
  0
DIMENSION
  5
580
330
1F
100
AcDbEntity
  8
0
100
AcDbDimension
  2
*D41
 10
408.8042280131581
 20
214.756092706087
 30
0.0
 11
401.9292280131581
 21
197.102559788355
 31
0.0
 70
    32
  1
36
 71
     5
 42
-1.0
 53
90.0
  3
ME10_DIM_23
100
AcDbAlignedDimension
 13
377.2566343189019
 23
179.8061679060874
 33
0.0
 14
383.4566343189021
 24
214.7560927060869
 34
0.0
 50
90.0
100
AcDbRotatedDimension
  0
HATCH
  5
581
330
1F
100
AcDbEntity
  8
1
  6
Continuous
 62
     2
100
AcDbHatch
 10
0.0
 20
0.0
 30
0.0
210
0.0
220
0.0
230
1.0
  2
_USER
 70
     0
 71
     1
 91
        1
 92
        1
 93
        6
 72
     2
 10
189.0353619021031
 20
314.9088723679496
 40
0.2500000000000171
 50
63.43494882292201
 51
180.0
 73
     1
 72
     1
 10
188.7853619021031
 20
314.9088723679496
 11
188.7853619021031
 21
313.2178893623245
 72
     2
 10
189.0353619021031
 20
313.2178893623245
 40
0.25
 50
180.0
 51
296.565051177078
 73
     1
 72
     1
 10
189.1471653009781
 20
312.9942825645745
 11
190.8381483066032
 21
313.839774067387
 72
     2
 10
190.7263449077282
 20
314.063380865137
 40
0.2500000000000171
 50
296.565051177078
 51
423.434948822922
 73
     1
 72
     1
 10
190.8381483066032
 20
314.286987662887
 11
189.1471653009781
 21
315.1324791656996
 97
        6
330
469
330
419
330
467
330
41B
330
468
330
41A
 75
     1
 76
     0
 52
45.0
 41
0.1
 77
     0
 78
     1
 53
45.0
 43
0.0
 44
0.0
 45
-0.0707106781186548
 46
0.0707106781186548
 79
     0
 98
        1
 10
0.0
 20
0.0
  0
HATCH
  5
582
330
1F
100
AcDbEntity
  8
1
  6
Continuous
 62
     2
100
AcDbHatch
 10
0.0
 20
0.0
 30
0.0
210
0.0
220
0.0
230
1.0
  2
_USER
 70
     0
 71
     1
 91
        1
 92
        1
 93
        1
 72
     2
 10
192.4841181554589
 20
314.0436649604229
 40
1.099999999999994
 50
0.0
 51
360.0
 73
     1
 97
        1
330
4A6
 75
     1
 76
     0
 52
45.0
 41
0.1
 77
     0
 78
     1
 53
45.0
 43
0.0
 44
0.0
 45
-0.0707106781186548
 46
0.0707106781186548
 79
     0
 98
        1
 10
0.0
 20
0.0
  0
HATCH
  5
583
330
1F
100
AcDbEntity
  8
1
  6
Continuous
 62
     2
100
AcDbHatch
 10
0.0
 20
0.0
 30
0.0
210
0.0
220
0.0
230
1.0
  2
_USER
 70
     0
 71
     1
 91
        1
 92
        1
 93
        4
 72
     2
 10
185.1316762374215
 20
279.2911903119818
 40
0.1564980011699735
 50
120.6990121511074
 51
268.24157604903
 73
     1
 72
     2
 10
185.4252105021133
 20
288.8525897831693
 40
9.722402151441031
 50
268.2415760490065
 51
300.699012151122
 73
     1
 72
     2
 10
190.3088733051738
 20
280.6272411681758
 40
0.1564980011699247
 50
300.699012151118
 51
448.2415760490293
 73
     1
 72
     2
 10
190.015339040482
 20
271.0658416969883
 40
9.722402151440917
 50
88.24157604900651
 51
120.6990121511219
 73
     1
 97
        4
330
47E
330
481
330
480
330
47F
 75
     1
 76
     0
 52
45.0
 41
0.1
 77
     0
 78
     1
 53
45.0
 43
0.0
 44
0.0
 45
-0.0707106781186548
 46
0.0707106781186548
 79
     0
 98
        1
 10
0.0
 20
0.0
  0
HATCH
  5
584
330
1F
100
AcDbEntity
  8
1
  6
Continuous
 62
     2
100
AcDbHatch
 10
0.0
 20
0.0
 30
0.0
210
0.0
220
0.0
230
1.0
  2
_USER
 70
     0
 71
     1
 91
        1
 92
        1
 93
        4
 72
     2
 10
186.8202489393207
 20
275.9968706770679
 40
0.6042898518250527
 50
144.8028912830594
 51
270.0432678241229
 73
     1
 72
     2
 10
186.8164569515841
 20
281.0182660521077
 40
5.625686658655079
 50
270.0432678241289
 51
324.8028912830569
 73
     1
 72
     2
 10
190.9198117927874
 20
278.1239777218239
 40
0.6042898518250296
 50
324.8028912830579
 51
450.0432678241419
 73
     1
 72
     2
 10
190.9236037805238
 20
273.1025823467841
 40
5.625686658655022
 50
90.04326782412863
 51
144.8028912830563
 73
     1
 97
        4
330
482
330
485
330
484
330
483
 75
     1
 76
     0
 52
45.0
 41
0.1
 77
     0
 78
     1
 53
45.0
 43
0.0
 44
0.0
 45
-0.0707106781186548
 46
0.0707106781186548
 79
     0
 98
        1
 10
0.0
 20
0.0
  0
HATCH
  5
585
330
1F
100
AcDbEntity
  8
1
  6
Continuous
 62
     2
100
AcDbHatch
 10
0.0
 20
0.0
 30
0.0
210
0.0
220
0.0
230
1.0
  2
_USER
 70
     0
 71
     1
 91
        1
 92
        1
 93
        4
 72
     2
 10
189.4998121347936
 20
272.4987631416797
 40
1.133078469088763
 50
160.7481611900749
 51
272.879086396213
 73
     1
 72
     2
 10
189.3373444658753
 20
275.7292586028144
 40
4.367656751934153
 50
272.8790863962178
 51
340.7481611900731
 73
     1
 72
     2
 10
192.3910400821288
 20
274.6627503979094
 40
1.133078469088782
 50
340.7481611900721
 51
452.879086396217
 73
     1
 72
     2
 10
192.553507751047
 20
271.4322549367748
 40
4.367656751934153
 50
92.8790863962178
 51
160.7481611900749
 73
     1
 97
        4
330
488
330
487
330
486
330
489
 75
     1
 76
     0
 52
45.0
 41
0.1
 77
     0
 78
     1
 53
45.0
 43
0.0
 44
0.0
 45
-0.0707106781186548
 46
0.0707106781186548
 79
     0
 98
        1
 10
0.0
 20
0.0
  0
HATCH
  5
586
330
1F
100
AcDbEntity
  8
1
  6
Continuous
 62
     2
100
AcDbHatch
 10
0.0
 20
0.0
 30
0.0
210
0.0
220
0.0
230
1.0
  2
_USER
 70
     0
 71
     1
 91
        1
 92
        1
 93
        4
 72
     2
 10
195.339083065972
 20
268.6876092031027
 40
3.384511655623113
 50
95.19998044237533
 51
172.3965876057431
 73
     1
 72
     2
 10
193.5396326237038
 20
268.9278162334704
 40
1.569099495363916
 50
172.3965876057436
 51
275.1999804423778
 73
     1
 72
     2
 10
193.3750977526284
 20
270.7357569370936
 40
3.384511655623584
 50
275.199980442378
 51
352.3965876057457
 73
     1
 72
     2
 10
195.1745481948967
 20
270.495549906726
 40
1.569099495364121
 50
352.3965876057425
 51
455.1999804423757
 73
     1
 97
        4
330
48D
330
48C
330
48B
330
48A
 75
     1
 76
     0
 52
45.0
 41
0.1
 77
     0
 78
     1
 53
45.0
 43
0.0
 44
0.0
 45
-0.0707106781186548
 46
0.0707106781186548
 79
     0
 98
        1
 10
0.0
 20
0.0
  0
HATCH
  5
587
330
1F
100
AcDbEntity
  8
1
  6
Continuous
 62
     2
100
AcDbHatch
 10
0.0
 20
0.0
 30
0.0
210
0.0
220
0.0
230
1.0
  2
_USER
 70
     0
 71
     1
 91
        1
 92
        1
 93
        2
 72
     2
 10
201.7757372994899
 20
265.9665772870396
 40
2.954683593338591
 50
109.2006866747451
 51
214.4339522015415
 73
     1
 72
     2
 10
199.0326049007513
 20
266.8675545889638
 40
2.58988178021516
 50
83.21068476636384
 51
313.1546763573492
 73
     0
 97
        2
330
48F
330
48E
 75
     1
 76
     0
 52
45.0
 41
0.1
 77
     0
 78
     1
 53
45.0
 43
0.0
 44
0.0
 45
-0.0707106781186548
 46
0.0707106781186548
 79
     0
 98
        1
 10
0.0
 20
0.0
  0
HATCH
  5
588
330
1F
100
AcDbEntity
  8
1
  6
Continuous
 62
     2
100
AcDbHatch
 10
0.0
 20
0.0
 30
0.0
210
0.0
220
0.0
230
1.0
  2
_USER
 70
     0
 71
     1
 91
        1
 92
        1
 93
        1
 72
     2
 10
201.9053239326055
 20
265.8952496858746
 40
2.490692091924075
 50
0.0
 51
360.0
 73
     1
 97
        1
330
4A7
 75
     1
 76
     0
 52
45.0
 41
0.1
 77
     0
 78
     1
 53
45.0
 43
0.0
 44
0.0
 45
-0.0707106781186548
 46
0.0707106781186548
 79
     0
 98
        1
 10
0.0
 20
0.0
  0
ENDSEC
  0
SECTION
  2
OBJECTS
  0
DICTIONARY
  5
C
330
0
100
AcDbDictionary
281
     1
  3
ACAD_GROUP
350
D
  3
ACAD_LAYOUT
350
1A
  3
ACAD_MATERIAL
350
3B
  3
ACAD_MLEADERSTYLE
350
58B
  3
ACAD_MLINESTYLE
350
17
  3
ACAD_PLOTSETTINGS
350
19
  3
ACAD_PLOTSTYLENAME
350
E
  3
ACAD_VISUALSTYLE
350
2A
  3
AcDbVariableDictionary
350
589
  0
DICTIONARY
  5
D
102
{ACAD_REACTORS
330
C
102
}
330
C
100
AcDbDictionary
281
     1
  0
DICTIONARY
  5
1A
102
{ACAD_REACTORS
330
C
102
}
330
C
100
AcDbDictionary
281
     1
  3
Layout1
350
1E
  3
Layout2
350
26
  3
Model
350
22
  0
DICTIONARY
  5
3B
102
{ACAD_REACTORS
330
C
102
}
330
C
100
AcDbDictionary
281
     1
  3
ByBlock
350
3D
  3
ByLayer
350
3C
  3
Global
350
3E
  0
DICTIONARY
  5
58B
102
{ACAD_REACTORS
330
C
102
}
330
C
100
AcDbDictionary
281
     1
  0
DICTIONARY
  5
17
102
{ACAD_REACTORS
330
C
102
}
330
C
100
AcDbDictionary
281
     1
  3
Standard
350
18
  0
DICTIONARY
  5
19
102
{ACAD_REACTORS
330
C
102
}
330
C
100
AcDbDictionary
281
     1
  0
ACDBDICTIONARYWDFLT
  5
E
102
{ACAD_REACTORS
330
C
102
}
330
C
100
AcDbDictionary
281
     1
  3
Normal
350
F
100
AcDbDictionaryWithDefault
340
F
  0
DICTIONARY
  5
2A
102
{ACAD_REACTORS
330
C
102
}
330
C
100
AcDbDictionary
281
     1
  3
2dWireframe
350
2F
  3
3D Hidden
350
31
  3
3dWireframe
350
30
  3
Basic
350
32
  3
Brighten
350
36
  3
ColorChange
350
3A
  3
Conceptual
350
34
  3
Dim
350
35
  3
Facepattern
350
39
  3
Flat
350
2B
  3
FlatWithEdges
350
2C
  3
Gouraud
350
2D
  3
GouraudWithEdges
350
2E
  3
Linepattern
350
38
  3
Realistic
350
33
  3
Thicken
350
37
  0
DICTIONARY
  5
589
102
{ACAD_REACTORS
330
C
102
}
330
C
100
AcDbDictionary
281
     1
  3
DIMASSOC
350
58C
  3
HIDETEXT
350
58D
  0
LAYOUT
  5
1E
102
{ACAD_REACTORS
330
1A
102
}
330
1A
100
AcDbPlotSettings
  1

  2
none_device
  4

  6

 40
0.0
 41
0.0
 42
0.0
 43
0.0
 44
0.0
 45
0.0
 46
0.0
 47
0.0
 48
0.0
 49
0.0
140
0.0
141
0.0
142
1.0
143
1.0
 70
   688
 72
     0
 73
     0
 74
     5
  7

 75
    16
147
1.0
148
0.0
149
0.0
100
AcDbLayout
  1
Layout1
 70
     1
 71
     1
 10
0.0
 20
0.0
 11
12.0
 21
9.0
 12
0.0
 22
0.0
 32
0.0
 14
1.00000000000000E+20
 24
1.00000000000000E+20
 34
1.00000000000000E+20
 15
-1.00000000000000E+20
 25
-1.00000000000000E+20
 35
-1.00000000000000E+20
146
0.0
 13
0.0
 23
0.0
 33
0.0
 16
1.0
 26
0.0
 36
0.0
 17
0.0
 27
1.0
 37
0.0
 76
     0
330
1B
  0
LAYOUT
  5
26
102
{ACAD_REACTORS
330
1A
102
}
330
1A
100
AcDbPlotSettings
  1

  2
none_device
  4

  6

 40
0.0
 41
0.0
 42
0.0
 43
0.0
 44
0.0
 45
0.0
 46
0.0
 47
0.0
 48
0.0
 49
0.0
140
0.0
141
0.0
142
1.0
143
1.0
 70
   688
 72
     0
 73
     0
 74
     5
  7

 75
    16
147
1.0
148
0.0
149
0.0
100
AcDbLayout
  1
Layout2
 70
     1
 71
     2
 10
0.0
 20
0.0
 11
0.0
 21
0.0
 12
0.0
 22
0.0
 32
0.0
 14
0.0
 24
0.0
 34
0.0
 15
0.0
 25
0.0
 35
0.0
146
0.0
 13
0.0
 23
0.0
 33
0.0
 16
1.0
 26
0.0
 36
0.0
 17
0.0
 27
1.0
 37
0.0
 76
     0
330
23
  0
LAYOUT
  5
22
102
{ACAD_REACTORS
330
1A
102
}
330
1A
100
AcDbPlotSettings
  1

  2
none_device
  4

  6

 40
0.0
 41
0.0
 42
0.0
 43
0.0
 44
0.0
 45
0.0
 46
0.0
 47
0.0
 48
0.0
 49
0.0
140
0.0
141
0.0
142
1.0
143
1.0
 70
  1712
 72
     0
 73
     0
 74
     0
  7

 75
     0
147
1.0
148
0.0
149
0.0
100
AcDbLayout
  1
Model
 70
     1
 71
     0
 10
0.0
 20
0.0
 11
12.0
 21
9.0
 12
0.0
 22
0.0
 32
0.0
 14
0.0
 24
0.0
 34
0.0
 15
525.0
 25
742.5
 35
0.0
146
0.0
 13
0.0
 23
0.0
 33
0.0
 16
1.0
 26
0.0
 36
0.0
 17
0.0
 27
1.0
 37
0.0
 76
     0
330
1F
331
29
  0
MATERIAL
  5
3D
102
{ACAD_REACTORS
330
3B
102
}
102
{ACAD_XDICTIONARY
360
5B0
102
}
330
3B
100
AcDbMaterial
  1
ByBlock
  0
MATERIAL
  5
3C
102
{ACAD_REACTORS
330
3B
102
}
102
{ACAD_XDICTIONARY
360
5AE
102
}
330
3B
100
AcDbMaterial
  1
ByLayer
  0
MATERIAL
  5
3E
102
{ACAD_REACTORS
330
3B
102
}
102
{ACAD_XDICTIONARY
360
5B2
102
}
330
3B
100
AcDbMaterial
  1
Global
  0
MLINESTYLE
  5
18
102
{ACAD_REACTORS
330
17
102
}
330
17
100
AcDbMlineStyle
  2
Standard
 70
     0
  3

 62
   256
 51
90.0
 52
90.0
 71
     2
 49
0.5
 62
   256
  6
BYLAYER
 49
-0.5
 62
   256
  6
BYLAYER
  0
ACDBPLACEHOLDER
  5
F
102
{ACAD_REACTORS
330
E
102
}
330
E
  0
VISUALSTYLE
  5
2F
102
{ACAD_REACTORS
330
2A
102
}
102
{ACAD_XDICTIONARY
360
596
102
}
330
2A
100
AcDbVisualStyle
  2
2dWireframe
 70
     4
 71
     0
 72
     2
 73
     0
 90
        0
 40
-0.6
 41
-30.0
 62
     5
 63
     7
 74
     1
 91
        4
 64
     7
 65
   257
 75
     1
175
     1
 42
1.0
 92
        0
 66
   257
 43
1.0
 76
     1
 77
     6
 78
     2
 67
     7
 79
     5
170
     0
171
     0
290
     0
174
     0
 93
        1
 44
0.0
173
     0
291
     0
 45
0.0
1001
ACAD
1000
AcDbSavedByObjectVersion
1070
     0
  0
VISUALSTYLE
  5
31
102
{ACAD_REACTORS
330
2A
102
}
102
{ACAD_XDICTIONARY
360
59A
102
}
330
2A
100
AcDbVisualStyle
  2
3D Hidden
 70
     6
 71
     1
 72
     2
 73
     2
 90
        0
 40
-0.6
 41
-30.0
 62
     5
 63
     7
 74
     2
 91
        2
 64
     7
 65
   257
 75
     2
175
     1
 42
40.0
 92
        0
 66
   257
 43
1.0
 76
     1
 77
     6
 78
     2
 67
     7
 79
     3
170
     0
171
     0
290
     0
174
     0
 93
        1
 44
0.0
173
     0
291
     0
 45
0.0
1001
ACAD
1000
AcDbSavedByObjectVersion
1070
     0
  0
VISUALSTYLE
  5
30
102
{ACAD_REACTORS
330
2A
102
}
102
{ACAD_XDICTIONARY
360
598
102
}
330
2A
100
AcDbVisualStyle
  2
3dWireframe
 70
     5
 71
     0
 72
     2
 73
     0
 90
        0
 40
-0.6
 41
-30.0
 62
     5
 63
     7
 74
     1
 91
        4
 64
     7
 65
   257
 75
     1
175
     1
 42
1.0
 92
        0
 66
   257
 43
1.0
 76
     1
 77
     6
 78
     2
 67
     7
 79
     5
170
     0
171
     0
290
     0
174
     0
 93
        1
 44
0.0
173
     0
291
     0
 45
0.0
1001
ACAD
1000
AcDbSavedByObjectVersion
1070
     0
  0
VISUALSTYLE
  5
32
102
{ACAD_REACTORS
330
2A
102
}
102
{ACAD_XDICTIONARY
360
59C
102
}
330
2A
100
AcDbVisualStyle
  2
Basic
 70
     7
 71
     1
 72
     0
 73
     1
 90
        0
 40
-0.6
 41
-30.0
 62
     5
 63
     7
 74
     0
 91
        4
 64
     7
 65
   257
 75
     1
175
     1
 42
1.0
 92
        8
 66
     7
 43
1.0
 76
     1
 77
     6
 78
     2
 67
     7
 79
     5
170
     0
171
     0
290
     0
174
     0
 93
        1
 44
0.0
173
     0
291
     1
 45
0.0
1001
ACAD
1000
AcDbSavedByObjectVersion
1070
     0
  0
VISUALSTYLE
  5
36
102
{ACAD_REACTORS
330
2A
102
}
102
{ACAD_XDICTIONARY
360
5A4
102
}
330
2A
100
AcDbVisualStyle
  2
Brighten
 70
    12
 71
     2
 72
     2
 73
     0
 90
        0
 40
-0.6
 41
-30.0
 62
     5
 63
     7
 74
     1
 91
        4
 64
     7
 65
   257
 75
     1
175
     1
 42
1.0
 92
        8
 66
     7
 43
1.0
 76
     1
 77
     6
 78
     2
 67
     7
 79
     5
170
     0
171
     0
290
     0
174
     0
 93
        1
 44
50.0
173
     0
291
     1
 45
0.0
1001
ACAD
1000
AcDbSavedByObjectVersion
1070
     0
  0
VISUALSTYLE
  5
3A
102
{ACAD_REACTORS
330
2A
102
}
102
{ACAD_XDICTIONARY
360
5AC
102
}
330
2A
100
AcDbVisualStyle
  2
ColorChange
 70
    16
 71
     2
 72
     2
 73
     3
 90
        0
 40
-0.6
 41
-30.0
 62
     5
 63
     8
 74
     1
 91
        4
 64
     7
 65
   257
 75
     1
175
     1
 42
1.0
 92
        8
 66
     8
 43
1.0
 76
     1
 77
     6
 78
     2
 67
     7
 79
     5
170
     0
171
     0
290
     0
174
     0
 93
        1
 44
0.0
173
     0
291
     1
 45
0.0
1001
ACAD
1000
AcDbSavedByObjectVersion
1070
     0
  0
VISUALSTYLE
  5
34
102
{ACAD_REACTORS
330
2A
102
}
102
{ACAD_XDICTIONARY
360
5A0
102
}
330
2A
100
AcDbVisualStyle
  2
Conceptual
 70
     9
 71
     3
 72
     2
 73
     0
 90
        0
 40
-0.6
 41
-30.0
 62
     5
 63
     7
 74
     2
 91
        2
 64
     7
 65
   257
 75
     1
175
     1
 42
40.0
 92
        8
 66
     7
 43
1.0
 76
     1
 77
     6
 78
     2
 67
     7
 79
     3
170
     0
171
     0
290
     0
174
     0
 93
        1
 44
0.0
173
     0
291
     0
 45
0.0
1001
ACAD
1000
AcDbSavedByObjectVersion
1070
     0
  0
VISUALSTYLE
  5
35
102
{ACAD_REACTORS
330
2A
102
}
102
{ACAD_XDICTIONARY
360
5A2
102
}
330
2A
100
AcDbVisualStyle
  2
Dim
 70
    11
 71
     2
 72
     2
 73
     0
 90
        0
 40
-0.6
 41
-30.0
 62
     5
 63
     7
 74
     1
 91
        4
 64
     7
 65
   257
 75
     1
175
     1
 42
1.0
 92
        8
 66
     7
 43
1.0
 76
     1
 77
     6
 78
     2
 67
     7
 79
     5
170
     0
171
     0
290
     0
174
     0
 93
        1
 44
-50.0
173
     0
291
     1
 45
0.0
1001
ACAD
1000
AcDbSavedByObjectVersion
1070
     0
  0
VISUALSTYLE
  5
39
102
{ACAD_REACTORS
330
2A
102
}
102
{ACAD_XDICTIONARY
360
5AA
102
}
330
2A
100
AcDbVisualStyle
  2
Facepattern
 70
    15
 71
     2
 72
     2
 73
     0
 90
        0
 40
-0.6
 41
-30.0
 62
     5
 63
     7
 74
     1
 91
        4
 64
     7
 65
   257
 75
     1
175
     1
 42
1.0
 92
        8
 66
     7
 43
1.0
 76
     1
 77
     6
 78
     2
 67
     7
 79
     5
170
     0
171
     0
290
     0
174
     0
 93
        1
 44
0.0
173
     0
291
     1
 45
0.0
1001
ACAD
1000
AcDbSavedByObjectVersion
1070
     0
  0
VISUALSTYLE
  5
2B
102
{ACAD_REACTORS
330
2A
102
}
102
{ACAD_XDICTIONARY
360
58E
102
}
330
2A
100
AcDbVisualStyle
  2
Flat
 70
     0
 71
     2
 72
     1
 73
     1
 90
        2
 40
-0.6
 41
30.0
 62
     5
 63
     7
 74
     0
 91
        4
 64
     7
 65
   257
 75
     1
175
     1
 42
1.0
 92
        8
 66
     7
 43
1.0
 76
     1
 77
     6
 78
     2
 67
     7
 79
     5
170
     0
171
     0
290
     0
174
     0
 93
       13
 44
0.0
173
     0
291
     1
 45
0.0
1001
ACAD
1000
AcDbSavedByObjectVersion
1070
     0
  0
VISUALSTYLE
  5
2C
102
{ACAD_REACTORS
330
2A
102
}
102
{ACAD_XDICTIONARY
360
590
102
}
330
2A
100
AcDbVisualStyle
  2
FlatWithEdges
 70
     1
 71
     2
 72
     1
 73
     1
 90
        2
 40
-0.6
 41
30.0
 62
     5
 63
     7
 74
     1
 91
        4
 64
     7
 65
   257
 75
     1
175
     1
 42
1.0
 92
        0
 66
   257
 43
1.0
 76
     1
 77
     6
 78
     2
 67
     7
 79
     5
170
     0
171
     0
290
     0
174
     0
 93
       13
 44
0.0
173
     0
291
     1
 45
0.0
1001
ACAD
1000
AcDbSavedByObjectVersion
1070
     0
  0
VISUALSTYLE
  5
2D
102
{ACAD_REACTORS
330
2A
102
}
102
{ACAD_XDICTIONARY
360
592
102
}
330
2A
100
AcDbVisualStyle
  2
Gouraud
 70
     2
 71
     2
 72
     2
 73
     1
 90
        2
 40
-0.6
 41
30.0
 62
     5
 63
     7
 74
     0
 91
        4
 64
     7
 65
   257
 75
     1
175
     1
 42
1.0
 92
        0
 66
     7
 43
1.0
 76
     1
 77
     6
 78
     2
 67
     7
 79
     5
170
     0
171
     0
290
     0
174
     0
 93
       13
 44
0.0
173
     0
291
     1
 45
0.0
1001
ACAD
1000
AcDbSavedByObjectVersion
1070
     0
  0
VISUALSTYLE
  5
2E
102
{ACAD_REACTORS
330
2A
102
}
102
{ACAD_XDICTIONARY
360
594
102
}
330
2A
100
AcDbVisualStyle
  2
GouraudWithEdges
 70
     3
 71
     2
 72
     2
 73
     1
 90
        2
 40
-0.6
 41
30.0
 62
     5
 63
     7
 74
     1
 91
        4
 64
     7
 65
   257
 75
     1
175
     1
 42
1.0
 92
        0
 66
   257
 43
1.0
 76
     1
 77
     6
 78
     2
 67
     7
 79
     5
170
     0
171
     0
290
     0
174
     0
 93
       13
 44
0.0
173
     0
291
     1
 45
0.0
1001
ACAD
1000
AcDbSavedByObjectVersion
1070
     0
  0
VISUALSTYLE
  5
38
102
{ACAD_REACTORS
330
2A
102
}
102
{ACAD_XDICTIONARY
360
5A8
102
}
330
2A
100
AcDbVisualStyle
  2
Linepattern
 70
    14
 71
     2
 72
     2
 73
     0
 90
        0
 40
-0.6
 41
-30.0
 62
     5
 63
     7
 74
     1
 91
        4
 64
     7
 65
   257
 75
     7
175
     7
 42
1.0
 92
        8
 66
     7
 43
1.0
 76
     1
 77
     6
 78
     2
 67
     7
 79
     5
170
     0
171
     0
290
     0
174
     0
 93
        1
 44
0.0
173
     0
291
     1
 45
0.0
1001
ACAD
1000
AcDbSavedByObjectVersion
1070
     0
  0
VISUALSTYLE
  5
33
102
{ACAD_REACTORS
330
2A
102
}
102
{ACAD_XDICTIONARY
360
59E
102
}
330
2A
100
AcDbVisualStyle
  2
Realistic
 70
     8
 71
     2
 72
     2
 73
     0
 90
        0
 40
-0.6
 41
-30.0
 62
     5
 63
     7
 74
     1
 91
        0
 64
     7
 65
   257
 75
     1
175
     1
 42
1.0
 92
        8
 66
     8
 43
1.0
 76
     1
 77
     6
 78
     2
 67
     7
 79
     5
170
     0
171
     0
290
     0
174
     0
 93
       13
 44
0.0
173
     0
291
     0
 45
0.0
1001
ACAD
1000
AcDbSavedByObjectVersion
1070
     0
  0
VISUALSTYLE
  5
37
102
{ACAD_REACTORS
330
2A
102
}
102
{ACAD_XDICTIONARY
360
5A6
102
}
330
2A
100
AcDbVisualStyle
  2
Thicken
 70
    13
 71
     2
 72
     2
 73
     0
 90
        0
 40
-0.6
 41
-30.0
 62
     5
 63
     7
 74
     1
 91
        4
 64
     7
 65
   257
 75
     1
175
     1
 42
1.0
 92
       12
 66
     7
 43
1.0
 76
     1
 77
     6
 78
     2
 67
     7
 79
     5
170
     0
171
     0
290
     0
174
     0
 93
        1
 44
0.0
173
     0
291
     1
 45
0.0
1001
ACAD
1000
AcDbSavedByObjectVersion
1070
     0
  0
DICTIONARYVAR
  5
58C
102
{ACAD_REACTORS
330
589
102
}
330
589
100
DictionaryVariables
280
     0
  1
2
  0
DICTIONARYVAR
  5
58D
102
{ACAD_REACTORS
330
589
102
}
330
589
100
DictionaryVariables
280
     0
  1
1
  0
DICTIONARY
  5
5B0
330
3D
100
AcDbDictionary
280
     1
281
     1
  3
ACAD_XREC_ROUNDTRIP
360
5B1
  0
DICTIONARY
  5
5AE
330
3C
100
AcDbDictionary
280
     1
281
     1
  3
ACAD_XREC_ROUNDTRIP
360
5AF
  0
DICTIONARY
  5
5B2
330
3E
100
AcDbDictionary
280
     1
281
     1
  3
ACAD_XREC_ROUNDTRIP
360
5B3
  0
DICTIONARY
  5
596
330
2F
100
AcDbDictionary
280
     1
281
     1
  3
ACAD_XREC_ROUNDTRIP
360
597
  0
DICTIONARY
  5
59A
330
31
100
AcDbDictionary
280
     1
281
     1
  3
ACAD_XREC_ROUNDTRIP
360
59B
  0
DICTIONARY
  5
598
330
30
100
AcDbDictionary
280
     1
281
     1
  3
ACAD_XREC_ROUNDTRIP
360
599
  0
DICTIONARY
  5
59C
330
32
100
AcDbDictionary
280
     1
281
     1
  3
ACAD_XREC_ROUNDTRIP
360
59D
  0
DICTIONARY
  5
5A4
330
36
100
AcDbDictionary
280
     1
281
     1
  3
ACAD_XREC_ROUNDTRIP
360
5A5
  0
DICTIONARY
  5
5AC
330
3A
100
AcDbDictionary
280
     1
281
     1
  3
ACAD_XREC_ROUNDTRIP
360
5AD
  0
DICTIONARY
  5
5A0
330
34
100
AcDbDictionary
280
     1
281
     1
  3
ACAD_XREC_ROUNDTRIP
360
5A1
  0
DICTIONARY
  5
5A2
330
35
100
AcDbDictionary
280
     1
281
     1
  3
ACAD_XREC_ROUNDTRIP
360
5A3
  0
DICTIONARY
  5
5AA
330
39
100
AcDbDictionary
280
     1
281
     1
  3
ACAD_XREC_ROUNDTRIP
360
5AB
  0
DICTIONARY
  5
58E
330
2B
100
AcDbDictionary
280
     1
281
     1
  3
ACAD_XREC_ROUNDTRIP
360
58F
  0
DICTIONARY
  5
590
330
2C
100
AcDbDictionary
280
     1
281
     1
  3
ACAD_XREC_ROUNDTRIP
360
591
  0
DICTIONARY
  5
592
330
2D
100
AcDbDictionary
280
     1
281
     1
  3
ACAD_XREC_ROUNDTRIP
360
593
  0
DICTIONARY
  5
594
330
2E
100
AcDbDictionary
280
     1
281
     1
  3
ACAD_XREC_ROUNDTRIP
360
595
  0
DICTIONARY
  5
5A8
330
38
100
AcDbDictionary
280
     1
281
     1
  3
ACAD_XREC_ROUNDTRIP
360
5A9
  0
DICTIONARY
  5
59E
330
33
100
AcDbDictionary
280
     1
281
     1
  3
ACAD_XREC_ROUNDTRIP
360
59F
  0
DICTIONARY
  5
5A6
330
37
100
AcDbDictionary
280
     1
281
     1
  3
ACAD_XREC_ROUNDTRIP
360
5A7
  0
XRECORD
  5
5B1
102
{ACAD_REACTORS
330
5B0
102
}
330
5B0
100
AcDbXrecord
280
     1
102
MATERIAL
148
0.0
149
0.0
149
0.0
 93
        0
 94
      127
282
     0
 72
     1
 77
     1
171
     1
175
     1
179
     1
273
     0
  0
XRECORD
  5
5AF
102
{ACAD_REACTORS
330
5AE
102
}
330
5AE
100
AcDbXrecord
280
     1
102
MATERIAL
148
0.0
149
0.0
149
0.0
 93
        0
 94
      127
282
     0
 72
     1
 77
     1
171
     1
175
     1
179
     1
273
     0
  0
XRECORD
  5
5B3
102
{ACAD_REACTORS
330
5B2
102
}
330
5B2
100
AcDbXrecord
280
     1
102
MATERIAL
148
0.0
149
0.0
149
0.0
 93
        0
 94
      127
282
     0
 72
     1
 77
     1
171
     1
175
     1
179
     1
273
     0
  0
XRECORD
  5
597
102
{ACAD_REACTORS
330
596
102
}
330
596
100
AcDbXrecord
280
     1
102
RTVSPropertyOp0
 70
     1
102
RTVSPropertyOp1
 70
     1
102
RTVSPropertyOp2
 70
     1
102
RTVSPropertyOp3
 70
     1
102
RTVSPropertyOp4
 70
     1
102
RTVSPropertyOp5
 70
     1
102
RTVSPropertyOp6
 70
     1
102
RTVSPropertyOp7
 70
     1
102
RTVSPropertyOp8
 70
     1
102
RTVSPropertyOp9
 70
     1
102
RTVSPropertyOp10
 70
     1
102
RTVSPropertyOp11
 70
     1
102
RTVSPropertyOp12
 70
     1
102
RTVSPropertyOp13
 70
     1
102
RTVSPropertyOp14
 70
     1
102
RTVSPropertyOp15
 70
     1
102
RTVSPropertyOp16
 70
     1
102
RTVSPropertyOp17
 70
     1
102
RTVSPropertyOp18
 70
     1
102
RTVSPropertyOp19
 70
     1
102
RTVSPropertyOp20
 70
     1
102
RTVSPropertyOp21
 70
     1
102
RTVSPropertyOp22
 70
     1
102
RTVSPropertyOp23
 70
     1
102
RTVSPropertyOp24
 70
     1
102
RTVSPropertyOp25
 70
     1
102
RTVSPropertyOp26
 70
     1
102
RTVSPropertyOp27
 70
     1
102
RTVSPropertyOp28
 70
     1
102
RTVSPropertyOp29
 70
     1
102
RTVSPropertyOp30
 70
     1
102
RTVSPropertyOp31
 70
     1
102
RTVSPropertyOp32
 70
     1
  0
XRECORD
  5
59B
102
{ACAD_REACTORS
330
59A
102
}
330
59A
100
AcDbXrecord
280
     1
102
RTVSPropertyOp0
 70
     1
102
RTVSPropertyOp1
 70
     1
102
RTVSPropertyOp2
 70
     1
102
RTVSPropertyOp3
 70
     1
102
RTVSPropertyOp4
 70
     1
102
RTVSPropertyOp5
 70
     1
102
RTVSPropertyOp6
 70
     1
102
RTVSPropertyOp7
 70
     1
102
RTVSPropertyOp8
 70
     1
102
RTVSPropertyOp9
 70
     1
102
RTVSPropertyOp10
 70
     1
102
RTVSPropertyOp11
 70
     1
102
RTVSPropertyOp12
 70
     1
102
RTVSPropertyOp13
 70
     1
102
RTVSPropertyOp14
 70
     1
102
RTVSPropertyOp15
 70
     1
102
RTVSPropertyOp16
 70
     1
102
RTVSPropertyOp17
 70
     1
102
RTVSPropertyOp18
 70
     1
102
RTVSPropertyOp19
 70
     1
102
RTVSPropertyOp20
 70
     1
102
RTVSPropertyOp21
 70
     1
102
RTVSPropertyOp22
 70
     1
102
RTVSPropertyOp23
 70
     1
102
RTVSPropertyOp24
 70
     1
102
RTVSPropertyOp25
 70
     1
102
RTVSPropertyOp26
 70
     1
102
RTVSPropertyOp27
 70
     1
102
RTVSPropertyOp28
 70
     1
102
RTVSPropertyOp29
 70
     1
102
RTVSPropertyOp30
 70
     1
102
RTVSPropertyOp31
 70
     1
102
RTVSPropertyOp32
 70
     1
  0
XRECORD
  5
599
102
{ACAD_REACTORS
330
598
102
}
330
598
100
AcDbXrecord
280
     1
102
RTVSPropertyOp0
 70
     1
102
RTVSPropertyOp1
 70
     1
102
RTVSPropertyOp2
 70
     1
102
RTVSPropertyOp3
 70
     1
102
RTVSPropertyOp4
 70
     1
102
RTVSPropertyOp5
 70
     1
102
RTVSPropertyOp6
 70
     1
102
RTVSPropertyOp7
 70
     1
102
RTVSPropertyOp8
 70
     1
102
RTVSPropertyOp9
 70
     1
102
RTVSPropertyOp10
 70
     1
102
RTVSPropertyOp11
 70
     1
102
RTVSPropertyOp12
 70
     1
102
RTVSPropertyOp13
 70
     1
102
RTVSPropertyOp14
 70
     1
102
RTVSPropertyOp15
 70
     1
102
RTVSPropertyOp16
 70
     1
102
RTVSPropertyOp17
 70
     1
102
RTVSPropertyOp18
 70
     1
102
RTVSPropertyOp19
 70
     1
102
RTVSPropertyOp20
 70
     1
102
RTVSPropertyOp21
 70
     1
102
RTVSPropertyOp22
 70
     1
102
RTVSPropertyOp23
 70
     1
102
RTVSPropertyOp24
 70
     1
102
RTVSPropertyOp25
 70
     1
102
RTVSPropertyOp26
 70
     1
102
RTVSPropertyOp27
 70
     1
102
RTVSPropertyOp28
 70
     1
102
RTVSPropertyOp29
 70
     1
102
RTVSPropertyOp30
 70
     1
102
RTVSPropertyOp31
 70
     1
102
RTVSPropertyOp32
 70
     1
  0
XRECORD
  5
59D
102
{ACAD_REACTORS
330
59C
102
}
330
59C
100
AcDbXrecord
280
     1
102
RTVSPropertyOp0
 70
     1
102
RTVSPropertyOp1
 70
     1
102
RTVSPropertyOp2
 70
     1
102
RTVSPropertyOp3
 70
     1
102
RTVSPropertyOp4
 70
     1
102
RTVSPropertyOp5
 70
     1
102
RTVSPropertyOp6
 70
     1
102
RTVSPropertyOp7
 70
     1
102
RTVSPropertyOp8
 70
     1
102
RTVSPropertyOp9
 70
     1
102
RTVSPropertyOp10
 70
     1
102
RTVSPropertyOp11
 70
     1
102
RTVSPropertyOp12
 70
     1
102
RTVSPropertyOp13
 70
     1
102
RTVSPropertyOp14
 70
     1
102
RTVSPropertyOp15
 70
     1
102
RTVSPropertyOp16
 70
     1
102
RTVSPropertyOp17
 70
     1
102
RTVSPropertyOp18
 70
     1
102
RTVSPropertyOp19
 70
     1
102
RTVSPropertyOp20
 70
     1
102
RTVSPropertyOp21
 70
     1
102
RTVSPropertyOp22
 70
     1
102
RTVSPropertyOp23
 70
     1
102
RTVSPropertyOp24
 70
     1
102
RTVSPropertyOp25
 70
     1
102
RTVSPropertyOp26
 70
     1
102
RTVSPropertyOp27
 70
     1
102
RTVSPropertyOp28
 70
     1
102
RTVSPropertyOp29
 70
     1
102
RTVSPropertyOp30
 70
     1
102
RTVSPropertyOp31
 70
     1
102
RTVSPropertyOp32
 70
     1
  0
XRECORD
  5
5A5
102
{ACAD_REACTORS
330
5A4
102
}
330
5A4
100
AcDbXrecord
280
     1
102
RTVSPropertyOp0
 70
     1
102
RTVSPropertyOp1
 70
     1
102
RTVSPropertyOp2
 70
     1
102
RTVSPropertyOp3
 70
     1
102
RTVSPropertyOp4
 70
     1
102
RTVSPropertyOp5
 70
     1
102
RTVSPropertyOp6
 70
     1
102
RTVSPropertyOp7
 70
     1
102
RTVSPropertyOp8
 70
     1
102
RTVSPropertyOp9
 70
     1
102
RTVSPropertyOp10
 70
     1
102
RTVSPropertyOp11
 70
     1
102
RTVSPropertyOp12
 70
     1
102
RTVSPropertyOp13
 70
     1
102
RTVSPropertyOp14
 70
     1
102
RTVSPropertyOp15
 70
     1
102
RTVSPropertyOp16
 70
     1
102
RTVSPropertyOp17
 70
     1
102
RTVSPropertyOp18
 70
     1
102
RTVSPropertyOp19
 70
     1
102
RTVSPropertyOp20
 70
     1
102
RTVSPropertyOp21
 70
     1
102
RTVSPropertyOp22
 70
     1
102
RTVSPropertyOp23
 70
     1
102
RTVSPropertyOp24
 70
     1
102
RTVSPropertyOp25
 70
     1
102
RTVSPropertyOp26
 70
     1
102
RTVSPropertyOp27
 70
     1
102
RTVSPropertyOp28
 70
     1
102
RTVSPropertyOp29
 70
     1
102
RTVSPropertyOp30
 70
     1
102
RTVSPropertyOp31
 70
     1
102
RTVSPropertyOp32
 70
     1
  0
XRECORD
  5
5AD
102
{ACAD_REACTORS
330
5AC
102
}
330
5AC
100
AcDbXrecord
280
     1
102
RTVSPropertyOp0
 70
     1
102
RTVSPropertyOp1
 70
     1
102
RTVSPropertyOp2
 70
     1
102
RTVSPropertyOp3
 70
     1
102
RTVSPropertyOp4
 70
     1
102
RTVSPropertyOp5
 70
     1
102
RTVSPropertyOp6
 70
     1
102
RTVSPropertyOp7
 70
     1
102
RTVSPropertyOp8
 70
     1
102
RTVSPropertyOp9
 70
     1
102
RTVSPropertyOp10
 70
     1
102
RTVSPropertyOp11
 70
     1
102
RTVSPropertyOp12
 70
     1
102
RTVSPropertyOp13
 70
     1
102
RTVSPropertyOp14
 70
     1
102
RTVSPropertyOp15
 70
     1
102
RTVSPropertyOp16
 70
     1
102
RTVSPropertyOp17
 70
     1
102
RTVSPropertyOp18
 70
     1
102
RTVSPropertyOp19
 70
     1
102
RTVSPropertyOp20
 70
     1
102
RTVSPropertyOp21
 70
     1
102
RTVSPropertyOp22
 70
     1
102
RTVSPropertyOp23
 70
     1
102
RTVSPropertyOp24
 70
     1
102
RTVSPropertyOp25
 70
     1
102
RTVSPropertyOp26
 70
     1
102
RTVSPropertyOp27
 70
     1
102
RTVSPropertyOp28
 70
     1
102
RTVSPropertyOp29
 70
     1
102
RTVSPropertyOp30
 70
     1
102
RTVSPropertyOp31
 70
     1
102
RTVSPropertyOp32
 70
     1
  0
XRECORD
  5
5A1
102
{ACAD_REACTORS
330
5A0
102
}
330
5A0
100
AcDbXrecord
280
     1
102
RTVSPropertyOp0
 70
     1
102
RTVSPropertyOp1
 70
     1
102
RTVSPropertyOp2
 70
     1
102
RTVSPropertyOp3
 70
     1
102
RTVSPropertyOp4
 70
     1
102
RTVSPropertyOp5
 70
     1
102
RTVSPropertyOp6
 70
     1
102
RTVSPropertyOp7
 70
     1
102
RTVSPropertyOp8
 70
     1
102
RTVSPropertyOp9
 70
     1
102
RTVSPropertyOp10
 70
     1
102
RTVSPropertyOp11
 70
     1
102
RTVSPropertyOp12
 70
     1
102
RTVSPropertyOp13
 70
     1
102
RTVSPropertyOp14
 70
     1
102
RTVSPropertyOp15
 70
     1
102
RTVSPropertyOp16
 70
     1
102
RTVSPropertyOp17
 70
     1
102
RTVSPropertyOp18
 70
     1
102
RTVSPropertyOp19
 70
     1
102
RTVSPropertyOp20
 70
     1
102
RTVSPropertyOp21
 70
     1
102
RTVSPropertyOp22
 70
     1
102
RTVSPropertyOp23
 70
     1
102
RTVSPropertyOp24
 70
     1
102
RTVSPropertyOp25
 70
     1
102
RTVSPropertyOp26
 70
     1
102
RTVSPropertyOp27
 70
     1
102
RTVSPropertyOp28
 70
     1
102
RTVSPropertyOp29
 70
     1
102
RTVSPropertyOp30
 70
     1
102
RTVSPropertyOp31
 70
     1
102
RTVSPropertyOp32
 70
     1
  0
XRECORD
  5
5A3
102
{ACAD_REACTORS
330
5A2
102
}
330
5A2
100
AcDbXrecord
280
     1
102
RTVSPropertyOp0
 70
     1
102
RTVSPropertyOp1
 70
     1
102
RTVSPropertyOp2
 70
     1
102
RTVSPropertyOp3
 70
     1
102
RTVSPropertyOp4
 70
     1
102
RTVSPropertyOp5
 70
     1
102
RTVSPropertyOp6
 70
     1
102
RTVSPropertyOp7
 70
     1
102
RTVSPropertyOp8
 70
     1
102
RTVSPropertyOp9
 70
     1
102
RTVSPropertyOp10
 70
     1
102
RTVSPropertyOp11
 70
     1
102
RTVSPropertyOp12
 70
     1
102
RTVSPropertyOp13
 70
     1
102
RTVSPropertyOp14
 70
     1
102
RTVSPropertyOp15
 70
     1
102
RTVSPropertyOp16
 70
     1
102
RTVSPropertyOp17
 70
     1
102
RTVSPropertyOp18
 70
     1
102
RTVSPropertyOp19
 70
     1
102
RTVSPropertyOp20
 70
     1
102
RTVSPropertyOp21
 70
     1
102
RTVSPropertyOp22
 70
     1
102
RTVSPropertyOp23
 70
     1
102
RTVSPropertyOp24
 70
     1
102
RTVSPropertyOp25
 70
     1
102
RTVSPropertyOp26
 70
     1
102
RTVSPropertyOp27
 70
     1
102
RTVSPropertyOp28
 70
     1
102
RTVSPropertyOp29
 70
     1
102
RTVSPropertyOp30
 70
     1
102
RTVSPropertyOp31
 70
     1
102
RTVSPropertyOp32
 70
     1
  0
XRECORD
  5
5AB
102
{ACAD_REACTORS
330
5AA
102
}
330
5AA
100
AcDbXrecord
280
     1
102
RTVSPropertyOp0
 70
     1
102
RTVSPropertyOp1
 70
     1
102
RTVSPropertyOp2
 70
     1
102
RTVSPropertyOp3
 70
     1
102
RTVSPropertyOp4
 70
     1
102
RTVSPropertyOp5
 70
     1
102
RTVSPropertyOp6
 70
     1
102
RTVSPropertyOp7
 70
     1
102
RTVSPropertyOp8
 70
     1
102
RTVSPropertyOp9
 70
     1
102
RTVSPropertyOp10
 70
     1
102
RTVSPropertyOp11
 70
     1
102
RTVSPropertyOp12
 70
     1
102
RTVSPropertyOp13
 70
     1
102
RTVSPropertyOp14
 70
     1
102
RTVSPropertyOp15
 70
     1
102
RTVSPropertyOp16
 70
     1
102
RTVSPropertyOp17
 70
     1
102
RTVSPropertyOp18
 70
     1
102
RTVSPropertyOp19
 70
     1
102
RTVSPropertyOp20
 70
     1
102
RTVSPropertyOp21
 70
     1
102
RTVSPropertyOp22
 70
     1
102
RTVSPropertyOp23
 70
     1
102
RTVSPropertyOp24
 70
     1
102
RTVSPropertyOp25
 70
     1
102
RTVSPropertyOp26
 70
     1
102
RTVSPropertyOp27
 70
     1
102
RTVSPropertyOp28
 70
     1
102
RTVSPropertyOp29
 70
     1
102
RTVSPropertyOp30
 70
     1
102
RTVSPropertyOp31
 70
     1
102
RTVSPropertyOp32
 70
     1
  0
XRECORD
  5
58F
102
{ACAD_REACTORS
330
58E
102
}
330
58E
100
AcDbXrecord
280
     1
102
RTVSPropertyOp0
 70
     1
102
RTVSPropertyOp1
 70
     1
102
RTVSPropertyOp2
 70
     1
102
RTVSPropertyOp3
 70
     1
102
RTVSPropertyOp4
 70
     1
102
RTVSPropertyOp5
 70
     1
102
RTVSPropertyOp6
 70
     1
102
RTVSPropertyOp7
 70
     1
102
RTVSPropertyOp8
 70
     1
102
RTVSPropertyOp9
 70
     1
102
RTVSPropertyOp10
 70
     1
102
RTVSPropertyOp11
 70
     1
102
RTVSPropertyOp12
 70
     1
102
RTVSPropertyOp13
 70
     1
102
RTVSPropertyOp14
 70
     1
102
RTVSPropertyOp15
 70
     1
102
RTVSPropertyOp16
 70
     1
102
RTVSPropertyOp17
 70
     1
102
RTVSPropertyOp18
 70
     1
102
RTVSPropertyOp19
 70
     1
102
RTVSPropertyOp20
 70
     1
102
RTVSPropertyOp21
 70
     1
102
RTVSPropertyOp22
 70
     1
102
RTVSPropertyOp23
 70
     1
102
RTVSPropertyOp24
 70
     1
102
RTVSPropertyOp25
 70
     1
102
RTVSPropertyOp26
 70
     1
102
RTVSPropertyOp27
 70
     1
102
RTVSPropertyOp28
 70
     1
102
RTVSPropertyOp29
 70
     1
102
RTVSPropertyOp30
 70
     1
102
RTVSPropertyOp31
 70
     1
102
RTVSPropertyOp32
 70
     1
  0
XRECORD
  5
591
102
{ACAD_REACTORS
330
590
102
}
330
590
100
AcDbXrecord
280
     1
102
RTVSPropertyOp0
 70
     1
102
RTVSPropertyOp1
 70
     1
102
RTVSPropertyOp2
 70
     1
102
RTVSPropertyOp3
 70
     1
102
RTVSPropertyOp4
 70
     1
102
RTVSPropertyOp5
 70
     1
102
RTVSPropertyOp6
 70
     1
102
RTVSPropertyOp7
 70
     1
102
RTVSPropertyOp8
 70
     1
102
RTVSPropertyOp9
 70
     1
102
RTVSPropertyOp10
 70
     1
102
RTVSPropertyOp11
 70
     1
102
RTVSPropertyOp12
 70
     1
102
RTVSPropertyOp13
 70
     1
102
RTVSPropertyOp14
 70
     1
102
RTVSPropertyOp15
 70
     1
102
RTVSPropertyOp16
 70
     1
102
RTVSPropertyOp17
 70
     1
102
RTVSPropertyOp18
 70
     1
102
RTVSPropertyOp19
 70
     1
102
RTVSPropertyOp20
 70
     1
102
RTVSPropertyOp21
 70
     1
102
RTVSPropertyOp22
 70
     1
102
RTVSPropertyOp23
 70
     1
102
RTVSPropertyOp24
 70
     1
102
RTVSPropertyOp25
 70
     1
102
RTVSPropertyOp26
 70
     1
102
RTVSPropertyOp27
 70
     1
102
RTVSPropertyOp28
 70
     1
102
RTVSPropertyOp29
 70
     1
102
RTVSPropertyOp30
 70
     1
102
RTVSPropertyOp31
 70
     1
102
RTVSPropertyOp32
 70
     1
  0
XRECORD
  5
593
102
{ACAD_REACTORS
330
592
102
}
330
592
100
AcDbXrecord
280
     1
102
RTVSPropertyOp0
 70
     1
102
RTVSPropertyOp1
 70
     1
102
RTVSPropertyOp2
 70
     1
102
RTVSPropertyOp3
 70
     1
102
RTVSPropertyOp4
 70
     1
102
RTVSPropertyOp5
 70
     1
102
RTVSPropertyOp6
 70
     1
102
RTVSPropertyOp7
 70
     1
102
RTVSPropertyOp8
 70
     1
102
RTVSPropertyOp9
 70
     1
102
RTVSPropertyOp10
 70
     1
102
RTVSPropertyOp11
 70
     1
102
RTVSPropertyOp12
 70
     1
102
RTVSPropertyOp13
 70
     1
102
RTVSPropertyOp14
 70
     1
102
RTVSPropertyOp15
 70
     1
102
RTVSPropertyOp16
 70
     1
102
RTVSPropertyOp17
 70
     1
102
RTVSPropertyOp18
 70
     1
102
RTVSPropertyOp19
 70
     1
102
RTVSPropertyOp20
 70
     1
102
RTVSPropertyOp21
 70
     1
102
RTVSPropertyOp22
 70
     1
102
RTVSPropertyOp23
 70
     1
102
RTVSPropertyOp24
 70
     1
102
RTVSPropertyOp25
 70
     1
102
RTVSPropertyOp26
 70
     1
102
RTVSPropertyOp27
 70
     1
102
RTVSPropertyOp28
 70
     1
102
RTVSPropertyOp29
 70
     1
102
RTVSPropertyOp30
 70
     1
102
RTVSPropertyOp31
 70
     1
102
RTVSPropertyOp32
 70
     1
  0
XRECORD
  5
595
102
{ACAD_REACTORS
330
594
102
}
330
594
100
AcDbXrecord
280
     1
102
RTVSPropertyOp0
 70
     1
102
RTVSPropertyOp1
 70
     1
102
RTVSPropertyOp2
 70
     1
102
RTVSPropertyOp3
 70
     1
102
RTVSPropertyOp4
 70
     1
102
RTVSPropertyOp5
 70
     1
102
RTVSPropertyOp6
 70
     1
102
RTVSPropertyOp7
 70
     1
102
RTVSPropertyOp8
 70
     1
102
RTVSPropertyOp9
 70
     1
102
RTVSPropertyOp10
 70
     1
102
RTVSPropertyOp11
 70
     1
102
RTVSPropertyOp12
 70
     1
102
RTVSPropertyOp13
 70
     1
102
RTVSPropertyOp14
 70
     1
102
RTVSPropertyOp15
 70
     1
102
RTVSPropertyOp16
 70
     1
102
RTVSPropertyOp17
 70
     1
102
RTVSPropertyOp18
 70
     1
102
RTVSPropertyOp19
 70
     1
102
RTVSPropertyOp20
 70
     1
102
RTVSPropertyOp21
 70
     1
102
RTVSPropertyOp22
 70
     1
102
RTVSPropertyOp23
 70
     1
102
RTVSPropertyOp24
 70
     1
102
RTVSPropertyOp25
 70
     1
102
RTVSPropertyOp26
 70
     1
102
RTVSPropertyOp27
 70
     1
102
RTVSPropertyOp28
 70
     1
102
RTVSPropertyOp29
 70
     1
102
RTVSPropertyOp30
 70
     1
102
RTVSPropertyOp31
 70
     1
102
RTVSPropertyOp32
 70
     1
  0
XRECORD
  5
5A9
102
{ACAD_REACTORS
330
5A8
102
}
330
5A8
100
AcDbXrecord
280
     1
102
RTVSPropertyOp0
 70
     1
102
RTVSPropertyOp1
 70
     1
102
RTVSPropertyOp2
 70
     1
102
RTVSPropertyOp3
 70
     1
102
RTVSPropertyOp4
 70
     1
102
RTVSPropertyOp5
 70
     1
102
RTVSPropertyOp6
 70
     1
102
RTVSPropertyOp7
 70
     1
102
RTVSPropertyOp8
 70
     1
102
RTVSPropertyOp9
 70
     1
102
RTVSPropertyOp10
 70
     1
102
RTVSPropertyOp11
 70
     1
102
RTVSPropertyOp12
 70
     1
102
RTVSPropertyOp13
 70
     1
102
RTVSPropertyOp14
 70
     1
102
RTVSPropertyOp15
 70
     1
102
RTVSPropertyOp16
 70
     1
102
RTVSPropertyOp17
 70
     1
102
RTVSPropertyOp18
 70
     1
102
RTVSPropertyOp19
 70
     1
102
RTVSPropertyOp20
 70
     1
102
RTVSPropertyOp21
 70
     1
102
RTVSPropertyOp22
 70
     1
102
RTVSPropertyOp23
 70
     1
102
RTVSPropertyOp24
 70
     1
102
RTVSPropertyOp25
 70
     1
102
RTVSPropertyOp26
 70
     1
102
RTVSPropertyOp27
 70
     1
102
RTVSPropertyOp28
 70
     1
102
RTVSPropertyOp29
 70
     1
102
RTVSPropertyOp30
 70
     1
102
RTVSPropertyOp31
 70
     1
102
RTVSPropertyOp32
 70
     1
  0
XRECORD
  5
59F
102
{ACAD_REACTORS
330
59E
102
}
330
59E
100
AcDbXrecord
280
     1
102
RTVSPropertyOp0
 70
     1
102
RTVSPropertyOp1
 70
     1
102
RTVSPropertyOp2
 70
     1
102
RTVSPropertyOp3
 70
     1
102
RTVSPropertyOp4
 70
     1
102
RTVSPropertyOp5
 70
     1
102
RTVSPropertyOp6
 70
     1
102
RTVSPropertyOp7
 70
     1
102
RTVSPropertyOp8
 70
     1
102
RTVSPropertyOp9
 70
     1
102
RTVSPropertyOp10
 70
     1
102
RTVSPropertyOp11
 70
     1
102
RTVSPropertyOp12
 70
     1
102
RTVSPropertyOp13
 70
     1
102
RTVSPropertyOp14
 70
     1
102
RTVSPropertyOp15
 70
     1
102
RTVSPropertyOp16
 70
     1
102
RTVSPropertyOp17
 70
     1
102
RTVSPropertyOp18
 70
     1
102
RTVSPropertyOp19
 70
     1
102
RTVSPropertyOp20
 70
     1
102
RTVSPropertyOp21
 70
     1
102
RTVSPropertyOp22
 70
     1
102
RTVSPropertyOp23
 70
     1
102
RTVSPropertyOp24
 70
     1
102
RTVSPropertyOp25
 70
     1
102
RTVSPropertyOp26
 70
     1
102
RTVSPropertyOp27
 70
     1
102
RTVSPropertyOp28
 70
     1
102
RTVSPropertyOp29
 70
     1
102
RTVSPropertyOp30
 70
     1
102
RTVSPropertyOp31
 70
     1
102
RTVSPropertyOp32
 70
     1
  0
XRECORD
  5
5A7
102
{ACAD_REACTORS
330
5A6
102
}
330
5A6
100
AcDbXrecord
280
     1
102
RTVSPropertyOp0
 70
     1
102
RTVSPropertyOp1
 70
     1
102
RTVSPropertyOp2
 70
     1
102
RTVSPropertyOp3
 70
     1
102
RTVSPropertyOp4
 70
     1
102
RTVSPropertyOp5
 70
     1
102
RTVSPropertyOp6
 70
     1
102
RTVSPropertyOp7
 70
     1
102
RTVSPropertyOp8
 70
     1
102
RTVSPropertyOp9
 70
     1
102
RTVSPropertyOp10
 70
     1
102
RTVSPropertyOp11
 70
     1
102
RTVSPropertyOp12
 70
     1
102
RTVSPropertyOp13
 70
     1
102
RTVSPropertyOp14
 70
     1
102
RTVSPropertyOp15
 70
     1
102
RTVSPropertyOp16
 70
     1
102
RTVSPropertyOp17
 70
     1
102
RTVSPropertyOp18
 70
     1
102
RTVSPropertyOp19
 70
     1
102
RTVSPropertyOp20
 70
     1
102
RTVSPropertyOp21
 70
     1
102
RTVSPropertyOp22
 70
     1
102
RTVSPropertyOp23
 70
     1
102
RTVSPropertyOp24
 70
     1
102
RTVSPropertyOp25
 70
     1
102
RTVSPropertyOp26
 70
     1
102
RTVSPropertyOp27
 70
     1
102
RTVSPropertyOp28
 70
     1
102
RTVSPropertyOp29
 70
     1
102
RTVSPropertyOp30
 70
     1
102
RTVSPropertyOp31
 70
     1
102
RTVSPropertyOp32
 70
     1
  0
ENDSEC
  0
EOF
