  0
SECTION
  2
HEADER
  9
$ACADVER
  1
AC1015
  9
$ACADMAINTVER
 70
     6
  9
$DWGCODEPAGE
  3
ANSI_932
  9
$INSBASE
 10
0.0
 20
0.0
 30
0.0
  9
$EXTMIN
 10
0.0
 20
0.0
 30
0.0
  9
$EXTMAX
 10
420.0
 20
594.0
 30
0.0
  9
$LIMMIN
 10
0.0
 20
0.0
  9
$LIMMAX
 10
12.0
 20
9.0
  9
$ORTHOMODE
 70
     0
  9
$REGENMODE
 70
     1
  9
$FILLMODE
 70
     1
  9
$QTEXTMODE
 70
     0
  9
$MIRRTEXT
 70
     1
  9
$LTSCALE
 40
1.0
  9
$ATTMODE
 70
     1
  9
$TEXTSIZE
 40
0.2
  9
$TRACEWID
 40
0.05
  9
$TEXTSTYLE
  7
Standard
  9
$CLAYER
  8
0
  9
$CELTYPE
  6
ByLayer
  9
$CECOLOR
 62
   256
  9
$CELTSCALE
 40
1.0
  9
$DISPSILH
 70
     0
  9
$DIMSCALE
 40
1.0
  9
$DIMASZ
 40
0.18
  9
$DIMEXO
 40
0.0625
  9
$DIMDLI
 40
0.38
  9
$DIMRND
 40
0.0
  9
$DIMDLE
 40
0.0
  9
$DIMEXE
 40
0.18
  9
$DIMTP
 40
0.0
  9
$DIMTM
 40
0.0
  9
$DIMTXT
 40
0.18
  9
$DIMCEN
 40
0.09
  9
$DIMTSZ
 40
0.0
  9
$DIMTOL
 70
     0
  9
$DIMLIM
 70
     0
  9
$DIMTIH
 70
     1
  9
$DIMTOH
 70
     1
  9
$DIMSE1
 70
     0
  9
$DIMSE2
 70
     0
  9
$DIMTAD
 70
     0
  9
$DIMZIN
 70
     0
  9
$DIMBLK
  1

  9
$DIMASO
 70
     1
  9
$DIMSHO
 70
     1
  9
$DIMPOST
  1

  9
$DIMAPOST
  1

  9
$DIMALT
 70
     0
  9
$DIMALTD
 70
     2
  9
$DIMALTF
 40
25.4
  9
$DIMLFAC
 40
1.0
  9
$DIMTOFL
 70
     0
  9
$DIMTVP
 40
0.0
  9
$DIMTIX
 70
     0
  9
$DIMSOXD
 70
     0
  9
$DIMSAH
 70
     0
  9
$DIMBLK1
  1

  9
$DIMBLK2
  1

  9
$DIMSTYLE
  2
Standard
  9
$DIMCLRD
 70
     0
  9
$DIMCLRE
 70
     0
  9
$DIMCLRT
 70
     0
  9
$DIMTFAC
 40
1.0
  9
$DIMGAP
 40
0.09
  9
$DIMJUST
 70
     0
  9
$DIMSD1
 70
     0
  9
$DIMSD2
 70
     0
  9
$DIMTOLJ
 70
     1
  9
$DIMTZIN
 70
     0
  9
$DIMALTZ
 70
     0
  9
$DIMALTTZ
 70
     0
  9
$DIMUPT
 70
     0
  9
$DIMDEC
 70
     4
  9
$DIMTDEC
 70
     4
  9
$DIMALTU
 70
     2
  9
$DIMALTTD
 70
     2
  9
$DIMTXSTY
  7
Standard
  9
$DIMAUNIT
 70
     0
  9
$DIMADEC
 70
     0
  9
$DIMALTRND
 40
0.0
  9
$DIMAZIN
 70
     0
  9
$DIMDSEP
 70
    46
  9
$DIMATFIT
 70
     3
  9
$DIMFRAC
 70
     0
  9
$DIMLDRBLK
  1

  9
$DIMLUNIT
 70
     2
  9
$DIMLWD
 70
    -2
  9
$DIMLWE
 70
    -2
  9
$DIMTMOVE
 70
     0
  9
$LUNITS
 70
     2
  9
$LUPREC
 70
     4
  9
$SKETCHINC
 40
0.1
  9
$FILLETRAD
 40
0.5
  9
$AUNITS
 70
     0
  9
$AUPREC
 70
     0
  9
$MENU
  1
.
  9
$ELEVATION
 40
0.0
  9
$PELEVATION
 40
0.0
  9
$THICKNESS
 40
0.0
  9
$LIMCHECK
 70
     0
  9
$CHAMFERA
 40
0.5
  9
$CHAMFERB
 40
0.5
  9
$CHAMFERC
 40
1.0
  9
$CHAMFERD
 40
0.0
  9
$SKPOLY
 70
     0
  9
$TDCREATE
 40
2456673.485466644
  9
$TDUCREATE
 40
2456673.110466644
  9
$TDUPDATE
 40
2456673.485468264
  9
$TDUUPDATE
 40
2456673.110468264
  9
$TDINDWG
 40
0.0000000116
  9
$TDUSRTIMER
 40
0.0000000116
  9
$USRTIMER
 70
     1
  9
$ANGBASE
 50
0.0
  9
$ANGDIR
 70
     0
  9
$PDMODE
 70
     0
  9
$PDSIZE
 40
0.0
  9
$PLINEWID
 40
0.0
  9
$SPLFRAME
 70
     0
  9
$SPLINETYPE
 70
     6
  9
$SPLINESEGS
 70
     8
  9
$HANDSEED
  5
522
  9
$SURFTAB1
 70
     6
  9
$SURFTAB2
 70
     6
  9
$SURFTYPE
 70
     6
  9
$SURFU
 70
     6
  9
$SURFV
 70
     6
  9
$UCSBASE
  2

  9
$UCSNAME
  2

  9
$UCSORG
 10
0.0
 20
0.0
 30
0.0
  9
$UCSXDIR
 10
1.0
 20
0.0
 30
0.0
  9
$UCSYDIR
 10
0.0
 20
1.0
 30
0.0
  9
$UCSORTHOREF
  2

  9
$UCSORTHOVIEW
 70
     0
  9
$UCSORGTOP
 10
0.0
 20
0.0
 30
0.0
  9
$UCSORGBOTTOM
 10
0.0
 20
0.0
 30
0.0
  9
$UCSORGLEFT
 10
0.0
 20
0.0
 30
0.0
  9
$UCSORGRIGHT
 10
0.0
 20
0.0
 30
0.0
  9
$UCSORGFRONT
 10
0.0
 20
0.0
 30
0.0
  9
$UCSORGBACK
 10
0.0
 20
0.0
 30
0.0
  9
$PUCSBASE
  2

  9
$PUCSNAME
  2

  9
$PUCSORG
 10
0.0
 20
0.0
 30
0.0
  9
$PUCSXDIR
 10
1.0
 20
0.0
 30
0.0
  9
$PUCSYDIR
 10
0.0
 20
1.0
 30
0.0
  9
$PUCSORTHOREF
  2

  9
$PUCSORTHOVIEW
 70
     0
  9
$PUCSORGTOP
 10
0.0
 20
0.0
 30
0.0
  9
$PUCSORGBOTTOM
 10
0.0
 20
0.0
 30
0.0
  9
$PUCSORGLEFT
 10
0.0
 20
0.0
 30
0.0
  9
$PUCSORGRIGHT
 10
0.0
 20
0.0
 30
0.0
  9
$PUCSORGFRONT
 10
0.0
 20
0.0
 30
0.0
  9
$PUCSORGBACK
 10
0.0
 20
0.0
 30
0.0
  9
$USERI1
 70
     0
  9
$USERI2
 70
     0
  9
$USERI3
 70
     0
  9
$USERI4
 70
     0
  9
$USERI5
 70
     0
  9
$USERR1
 40
18.1
  9
$USERR2
 40
0.0
  9
$USERR3
 40
0.0
  9
$USERR4
 40
0.0
  9
$USERR5
 40
0.0
  9
$WORLDVIEW
 70
     1
  9
$SHADEDGE
 70
     3
  9
$SHADEDIF
 70
    70
  9
$TILEMODE
 70
     1
  9
$MAXACTVP
 70
    64
  9
$PINSBASE
 10
0.0
 20
0.0
 30
0.0
  9
$PLIMCHECK
 70
     0
  9
$PEXTMIN
 10
1.00000000000000E+20
 20
1.00000000000000E+20
 30
1.00000000000000E+20
  9
$PEXTMAX
 10
-1.00000000000000E+20
 20
-1.00000000000000E+20
 30
-1.00000000000000E+20
  9
$PLIMMIN
 10
0.0
 20
0.0
  9
$PLIMMAX
 10
12.0
 20
9.0
  9
$UNITMODE
 70
     0
  9
$VISRETAIN
 70
     1
  9
$PLINEGEN
 70
     0
  9
$PSLTSCALE
 70
     1
  9
$TREEDEPTH
 70
  3020
  9
$CMLSTYLE
  2
Standard
  9
$CMLJUST
 70
     0
  9
$CMLSCALE
 40
1.0
  9
$PROXYGRAPHICS
 70
     1
  9
$MEASUREMENT
 70
     1
  9
$CELWEIGHT
370
    -1
  9
$ENDCAPS
280
     0
  9
$JOINSTYLE
280
     0
  9
$LWDISPLAY
290
     0
  9
$INSUNITS
 70
     4
  9
$HYPERLINKBASE
  1

  9
$STYLESHEET
  1

  9
$XEDIT
290
     1
  9
$CEPSNTYPE
380
     0
  9
$PSTYLEMODE
290
     1
  9
$FINGERPRINTGUID
  2
{21B083BD-C1A3-4E3E-A73A-EAC72A69DE97}
  9
$VERSIONGUID
  2
{FAEB1C32-E019-11D5-929B-00C0DF256EC4}
  9
$EXTNAMES
290
     1
  9
$PSVPSCALE
 40
0.0
  9
$OLESTARTUP
290
     0
  0
ENDSEC
  0
SECTION
  2
CLASSES
  0
CLASS
  1
ACDBDICTIONARYWDFLT
  2
AcDbDictionaryWithDefault
  3
ObjectDBX Classes
 90
        0
280
     0
281
     0
  0
CLASS
  1
VISUALSTYLE
  2
AcDbVisualStyle
  3
ObjectDBX Classes
 90
     4095
280
     0
281
     0
  0
CLASS
  1
MATERIAL
  2
AcDbMaterial
  3
ObjectDBX Classes
 90
     1153
280
     0
281
     0
  0
CLASS
  1
DICTIONARYVAR
  2
AcDbDictionaryVar
  3
ObjectDBX Classes
 90
        0
280
     0
281
     0
  0
CLASS
  1
ACDBPLACEHOLDER
  2
AcDbPlaceHolder
  3
ObjectDBX Classes
 90
        0
280
     0
281
     0
  0
CLASS
  1
LAYOUT
  2
AcDbLayout
  3
ObjectDBX Classes
 90
        0
280
     0
281
     0
  0
ENDSEC
  0
SECTION
  2
TABLES
  0
TABLE
  2
VPORT
  5
8
330
0
100
AcDbSymbolTable
 70
     1
  0
VPORT
  5
29
330
8
100
AcDbSymbolTableRecord
100
AcDbViewportTableRecord
  2
*Active
 70
     0
 10
0.0
 20
0.0
 11
1.0
 21
1.0
 12
210.0
 22
297.0
 13
0.0
 23
0.0
 14
0.5
 24
0.5
 15
0.5
 25
0.5
 16
0.0
 26
0.0
 36
1.0
 17
0.0
 27
0.0
 37
0.0
 40
653.4000000000001
 41
1.60267857142857
 42
50.0
 43
0.0
 44
0.0
 50
0.0
 51
0.0
 71
     0
 72
   100
 73
     1
 74
     3
 75
     0
 76
     0
 77
     0
 78
     0
281
     0
 65
     1
110
0.0
120
0.0
130
0.0
111
1.0
121
0.0
131
0.0
112
0.0
122
1.0
132
0.0
 79
     0
146
0.0
  0
ENDTAB
  0
TABLE
  2
LTYPE
  5
5
330
0
100
AcDbSymbolTable
 70
     8
  0
LTYPE
  5
14
330
5
100
AcDbSymbolTableRecord
100
AcDbLinetypeTableRecord
  2
ByBlock
 70
     0
  3

 72
    65
 73
     0
 40
0.0
  0
LTYPE
  5
15
330
5
100
AcDbSymbolTableRecord
100
AcDbLinetypeTableRecord
  2
ByLayer
 70
     0
  3

 72
    65
 73
     0
 40
0.0
  0
LTYPE
  5
16
330
5
100
AcDbSymbolTableRecord
100
AcDbLinetypeTableRecord
  2
Continuous
 70
     0
  3
Solid line
 72
    65
 73
     0
 40
0.0
  0
LTYPE
  5
3F
330
5
100
AcDbSymbolTableRecord
100
AcDbLinetypeTableRecord
  2
DASHED
 70
     0
  3
Dashed
 72
    65
 73
     2
 40
15.0
 49
7.0
 74
     0
 49
-8.0
 74
     0
  0
LTYPE
  5
40
330
5
100
AcDbSymbolTableRecord
100
AcDbLinetypeTableRecord
  2
DOTTED
 70
     0
  3
Dotted
 72
    65
 73
     2
 40
1.0
 49
0.0
 74
     0
 49
-1.0
 74
     0
  0
LTYPE
  5
41
330
5
100
AcDbSymbolTableRecord
100
AcDbLinetypeTableRecord
  2
DOT_CENTER
 70
     0
  3
Dot_Center
 72
    65
 73
     4
 40
14.0
 49
12.0
 74
     0
 49
-1.0
 74
     0
 49
0.0
 74
     0
 49
-1.0
 74
     0
  0
LTYPE
  5
42
330
5
100
AcDbSymbolTableRecord
100
AcDbLinetypeTableRecord
  2
LONG_DASHED
 70
     0
  3
Long_Dashed
 72
    65
 73
     2
 40
15.0
 49
10.0
 74
     0
 49
-5.0
 74
     0
  0
LTYPE
  5
43
330
5
100
AcDbSymbolTableRecord
100
AcDbLinetypeTableRecord
  2
DASH_CENTER
 70
     0
  3
Dash_Center
 72
    65
 73
     4
 40
14.0
 49
11.0
 74
     0
 49
-1.0
 74
     0
 49
1.0
 74
     0
 49
-1.0
 74
     0
  0
LTYPE
  5
44
330
5
100
AcDbSymbolTableRecord
100
AcDbLinetypeTableRecord
  2
PHANTOM
 70
     0
  3
Phantom
 72
    65
 73
     6
 40
13.0
 49
10.0
 74
     0
 49
-1.0
 74
     0
 49
0.0
 74
     0
 49
-1.0
 74
     0
 49
0.0
 74
     0
 49
-1.0
 74
     0
  0
LTYPE
  5
45
330
5
100
AcDbSymbolTableRecord
100
AcDbLinetypeTableRecord
  2
CENTER_DASH_DASH
 70
     0
  3
Center_Dash_Dash
 72
    65
 73
     6
 40
14.0
 49
9.0
 74
     0
 49
-1.0
 74
     0
 49
1.0
 74
     0
 49
-1.0
 74
     0
 49
1.0
 74
     0
 49
-1.0
 74
     0
  0
ENDTAB
  0
TABLE
  2
LAYER
  5
2
330
0
100
AcDbSymbolTable
 70
     2
  0
LAYER
  5
10
330
2
100
AcDbSymbolTableRecord
100
AcDbLayerTableRecord
  2
0
 70
     0
 62
     7
  6
Continuous
370
    -3
390
F
  0
LAYER
  5
46
330
2
100
AcDbSymbolTableRecord
100
AcDbLayerTableRecord
  2
1
 70
     0
 62
     7
  6
Continuous
370
    -3
390
F
  0
ENDTAB
  0
TABLE
  2
STYLE
  5
3
330
0
100
AcDbSymbolTable
 70
     7
  0
STYLE
  5
11
330
3
100
AcDbSymbolTableRecord
100
AcDbTextStyleTableRecord
  2
Standard
 70
     0
 40
0.0
 41
1.0
 50
0.0
 71
     0
 42
0.2
  3
txt
  4

  0
STYLE
  5
257
330
3
100
AcDbSymbolTableRecord
100
AcDbTextStyleTableRecord
  2
CONVERTER_11
 70
     0
 40
0.0
 41
0.89
 50
0.0
 71
     0
 42
0.2
  3
MS Mincho.ttf
  4

1001
ACAD
1000
MS Mincho
1071
    32785
  0
STYLE
  5
259
330
3
100
AcDbSymbolTableRecord
100
AcDbTextStyleTableRecord
  2
CONVERTER_12
 70
     0
 40
0.0
 41
0.979
 50
0.0
 71
     0
 42
0.2
  3
msmincho.ttc
  4

1001
ACAD
1000
MS Mincho
1071
    32785
  0
STYLE
  5
25C
330
3
100
AcDbSymbolTableRecord
100
AcDbTextStyleTableRecord
  2
CONVERTER_13
 70
     0
 40
0.0
 41
0.76
 50
10.0
 71
     0
 42
0.2
  3
simplex.shx
  4

  0
STYLE
  5
25F
330
3
100
AcDbSymbolTableRecord
100
AcDbTextStyleTableRecord
  2
CONVERTER_14
 70
     0
 40
0.0
 41
0.95
 50
10.0
 71
     0
 42
0.2
  3
simplex.shx
  4

  0
STYLE
  5
437
330
3
100
AcDbSymbolTableRecord
100
AcDbTextStyleTableRecord
  2
CONVERTER_15
 70
     0
 40
0.0
 41
0.801
 50
0.0
 71
     0
 42
0.2
  3
MS Mincho.ttf
  4

1001
ACAD
1000
MS Mincho
1071
    32785
  0
STYLE
  5
444
330
3
100
AcDbSymbolTableRecord
100
AcDbTextStyleTableRecord
  2
CONVERTER_16
 70
     0
 40
0.0
 41
0.9
 50
0.0
 71
     0
 42
0.2
  3
txt.shx
  4

  0
ENDTAB
  0
TABLE
  2
VIEW
  5
6
330
0
100
AcDbSymbolTable
 70
     0
  0
ENDTAB
  0
TABLE
  2
UCS
  5
7
330
0
100
AcDbSymbolTable
 70
     0
  0
ENDTAB
  0
TABLE
  2
APPID
  5
9
330
0
100
AcDbSymbolTable
 70
     1
  0
APPID
  5
12
330
9
100
AcDbSymbolTableRecord
100
AcDbRegAppTableRecord
  2
ACAD
 70
     0
  0
ENDTAB
  0
TABLE
  2
DIMSTYLE
  5
A
330
0
100
AcDbSymbolTable
 70
    16
100
AcDbDimStyleTable
  0
DIMSTYLE
105
27
330
A
100
AcDbSymbolTableRecord
100
AcDbDimStyleTableRecord
  2
Standard
 70
     0
178
     0
340
11
  0
DIMSTYLE
105
453
102
{ACAD_REACTORS
330
454
102
}
330
A
100
AcDbSymbolTableRecord
100
AcDbDimStyleTableRecord
  2
ME10_DIM_10
 70
     0
 41
7.0
 42
0.0
 44
2.0
 73
     0
 74
     0
 77
     1
 78
     8
140
7.0
147
2.0
172
     1
173
     1
174
     1
175
     1
176
     2
177
     2
271
     2
178
     7
271
     2
340
444
  0
DIMSTYLE
105
45E
102
{ACAD_REACTORS
330
45F
102
}
330
A
100
AcDbSymbolTableRecord
100
AcDbDimStyleTableRecord
  2
ME10_DIM_11
 70
     0
 41
7.0
 42
0.0
 44
2.0
 73
     0
 74
     0
 77
     1
 78
     8
140
7.0
147
2.0
172
     1
173
     1
174
     1
175
     1
176
     2
177
     2
271
     2
178
     7
271
     2
340
444
  0
DIMSTYLE
105
46B
102
{ACAD_REACTORS
330
46C
102
}
330
A
100
AcDbSymbolTableRecord
100
AcDbDimStyleTableRecord
  2
ME10_DIM_12
 70
     0
  3
{\Fgdt;n}<>
 41
7.0
 42
0.0
 44
2.0
 73
     0
 74
     0
 77
     1
 78
     8
140
7.0
147
2.0
172
     1
173
     1
174
     1
175
     1
176
     2
177
     2
271
     2
178
     7
271
     2
340
444
  0
DIMSTYLE
105
478
102
{ACAD_REACTORS
330
479
102
}
330
A
100
AcDbSymbolTableRecord
100
AcDbDimStyleTableRecord
  2
ME10_DIM_13
 70
     0
 41
7.0
 42
0.0
 44
2.0
 73
     0
 74
     0
 77
     1
 78
     8
140
7.0
147
2.0
172
     1
173
     1
174
     1
175
     1
176
     2
177
     2
271
     2
178
     7
271
     2
340
444
  0
DIMSTYLE
105
483
102
{ACAD_REACTORS
330
484
102
}
330
A
100
AcDbSymbolTableRecord
100
AcDbDimStyleTableRecord
  2
ME10_DIM_14
 70
     0
 41
7.0
 42
0.0
 44
2.0
 73
     0
 74
     0
 77
     1
 78
     8
140
7.0
147
2.0
172
     1
173
     1
174
     1
175
     1
176
     2
177
     2
271
     2
178
     7
271
     2
340
257
  0
DIMSTYLE
105
48E
102
{ACAD_REACTORS
330
48F
102
}
330
A
100
AcDbSymbolTableRecord
100
AcDbDimStyleTableRecord
  2
ME10_DIM_15
 70
     0
 41
7.0
 42
0.0
 44
2.0
 73
     0
 74
     0
 77
     1
 78
     8
140
7.0
147
2.0
172
     1
173
     1
174
     1
175
     1
176
     2
177
     2
271
     2
178
     7
271
     2
340
257
  0
DIMSTYLE
105
499
102
{ACAD_REACTORS
330
49A
102
}
330
A
100
AcDbSymbolTableRecord
100
AcDbDimStyleTableRecord
  2
ME10_DIM_16
 70
     0
 41
7.0
 42
0.0
 44
2.0
 73
     0
 74
     0
 77
     1
 78
     8
140
7.0
147
2.0
172
     1
173
     1
174
     1
175
     1
176
     2
177
     2
271
     2
178
     7
271
     2
340
444
  0
DIMSTYLE
105
4A4
102
{ACAD_REACTORS
330
4A5
102
}
330
A
100
AcDbSymbolTableRecord
100
AcDbDimStyleTableRecord
  2
ME10_DIM_17
 70
     0
 41
7.0
 42
0.0
 44
2.0
 73
     0
 74
     0
 77
     1
 78
     8
140
7.0
147
2.0
172
     1
173
     1
174
     1
175
     1
176
     2
177
     2
271
     2
178
     7
271
     2
340
257
  0
DIMSTYLE
105
4AF
102
{ACAD_REACTORS
330
4B0
102
}
330
A
100
AcDbSymbolTableRecord
100
AcDbDimStyleTableRecord
  2
ME10_DIM_18
 70
     0
 41
7.0
 42
0.0
 44
2.0
 73
     0
 74
     0
 77
     1
 78
     8
140
7.0
147
2.0
172
     1
173
     1
174
     1
175
     1
176
     2
177
     2
271
     2
178
     7
271
     2
340
444
  0
DIMSTYLE
105
4BC
102
{ACAD_REACTORS
330
4BD
102
}
330
A
100
AcDbSymbolTableRecord
100
AcDbDimStyleTableRecord
  2
ME10_DIM_19
 70
     0
 41
7.0
 42
0.0
 44
2.0
 73
     0
 74
     0
 77
     1
 78
     8
140
7.0
147
2.0
172
     1
173
     1
174
     1
175
     1
176
     2
177
     2
271
     2
178
     7
271
     2
340
444
344
4B9
  0
DIMSTYLE
105
4C9
102
{ACAD_REACTORS
330
4CA
102
}
330
A
100
AcDbSymbolTableRecord
100
AcDbDimStyleTableRecord
  2
ME10_DIM_20
 70
     0
 41
7.0
 42
0.0
 44
2.0
 73
     0
 74
     0
 77
     1
 78
     8
140
7.0
147
2.0
172
     1
173
     1
174
     1
175
     1
176
     2
177
     2
271
     2
178
     7
271
     2
340
444
  0
DIMSTYLE
105
4D4
102
{ACAD_REACTORS
330
4D5
102
}
330
A
100
AcDbSymbolTableRecord
100
AcDbDimStyleTableRecord
  2
ME10_DIM_21
 70
     0
 41
7.0
 42
0.0
 44
2.0
 73
     0
 74
     0
 77
     1
 78
     8
140
7.0
147
2.0
172
     1
173
     1
174
     1
175
     1
176
     2
177
     2
271
     2
178
     7
271
     2
340
444
  0
DIMSTYLE
105
4DF
102
{ACAD_REACTORS
330
4E0
102
}
330
A
100
AcDbSymbolTableRecord
100
AcDbDimStyleTableRecord
  2
ME10_DIM_22
 70
     0
 41
7.0
 42
0.0
 44
2.0
 73
     0
 74
     0
 77
     1
 78
     8
140
7.0
147
2.0
172
     1
173
     1
174
     1
175
     1
176
     2
177
     2
271
     2
178
     7
271
     2
340
444
  0
DIMSTYLE
105
4EA
102
{ACAD_REACTORS
330
4EB
102
}
330
A
100
AcDbSymbolTableRecord
100
AcDbDimStyleTableRecord
  2
ME10_DIM_23
 70
     0
 41
7.0
 42
0.0
 44
2.0
 73
     0
 74
     0
 77
     1
 78
     8
140
7.0
147
2.0
172
     1
173
     1
174
     1
175
     1
176
     2
177
     2
271
     2
178
     7
271
     2
340
444
  0
DIMSTYLE
105
4F5
102
{ACAD_REACTORS
330
4F6
102
}
330
A
100
AcDbSymbolTableRecord
100
AcDbDimStyleTableRecord
  2
ME10_DIM_24
 70
     0
 41
7.0
 42
0.0
 44
2.0
 73
     0
 74
     0
 77
     1
 78
     8
140
7.0
147
2.0
172
     1
173
     1
174
     1
175
     1
176
     2
177
     2
271
     2
178
     7
271
     2
340
444
  0
ENDTAB
  0
TABLE
  2
BLOCK_RECORD
  5
1
330
0
100
AcDbSymbolTable
 70
    36
  0
BLOCK_RECORD
  5
1F
330
1
100
AcDbSymbolTableRecord
100
AcDbBlockTableRecord
  2
*Model_Space
340
22
  0
BLOCK_RECORD
  5
1B
330
1
100
AcDbSymbolTableRecord
100
AcDbBlockTableRecord
  2
*Paper_Space
340
1E
  0
BLOCK_RECORD
  5
23
330
1
100
AcDbSymbolTableRecord
100
AcDbBlockTableRecord
  2
*Paper_Space0
340
26
  0
BLOCK_RECORD
  5
47
330
1
100
AcDbSymbolTableRecord
100
AcDbBlockTableRecord
  2
V96-3-H1
340
0
102
{BLKREFS
331
52
102
}
  0
BLOCK_RECORD
  5
4A
330
1
100
AcDbSymbolTableRecord
100
AcDbBlockTableRecord
  2
T601-3-H4
340
0
102
{BLKREFS
331
4E
102
}
  0
BLOCK_RECORD
  5
4D
330
1
100
AcDbSymbolTableRecord
100
AcDbBlockTableRecord
  2
T601-3
340
0
102
{BLKREFS
331
53
102
}
  0
BLOCK_RECORD
  5
51
330
1
100
AcDbSymbolTableRecord
100
AcDbBlockTableRecord
  2
V96LT-3
340
0
102
{BLKREFS
331
83
102
}
  0
BLOCK_RECORD
  5
56
330
1
100
AcDbSymbolTableRecord
100
AcDbBlockTableRecord
  2
V972GN-H3
340
0
102
{BLKREFS
331
84
102
}
  0
BLOCK_RECORD
  5
59
330
1
100
AcDbSymbolTableRecord
100
AcDbBlockTableRecord
  2
V97G-H3
340
0
102
{BLKREFS
331
85
102
}
  0
BLOCK_RECORD
  5
5C
330
1
100
AcDbSymbolTableRecord
100
AcDbBlockTableRecord
  2
V97G-H2
340
0
102
{BLKREFS
331
86
102
}
  0
BLOCK_RECORD
  5
5F
330
1
100
AcDbSymbolTableRecord
100
AcDbBlockTableRecord
  2
V972GN-H2
340
0
102
{BLKREFS
331
87
102
}
  0
BLOCK_RECORD
  5
62
330
1
100
AcDbSymbolTableRecord
100
AcDbBlockTableRecord
  2
V972GN-H6
340
0
102
{BLKREFS
331
88
102
}
  0
BLOCK_RECORD
  5
65
330
1
100
AcDbSymbolTableRecord
100
AcDbBlockTableRecord
  2
V97D-H1
340
0
102
{BLKREFS
331
89
102
}
  0
BLOCK_RECORD
  5
68
330
1
100
AcDbSymbolTableRecord
100
AcDbBlockTableRecord
  2
BIS2
340
0
102
{BLKREFS
331
8A
102
}
  0
BLOCK_RECORD
  5
6B
330
1
100
AcDbSymbolTableRecord
100
AcDbBlockTableRecord
  2
BIS
340
0
102
{BLKREFS
331
8B
102
}
  0
BLOCK_RECORD
  5
6E
330
1
100
AcDbSymbolTableRecord
100
AcDbBlockTableRecord
  2
V97-H12
340
0
102
{BLKREFS
331
8C
102
}
  0
BLOCK_RECORD
  5
71
330
1
100
AcDbSymbolTableRecord
100
AcDbBlockTableRecord
  2
V97-H11
340
0
102
{BLKREFS
331
8D
102
}
  0
BLOCK_RECORD
  5
74
330
1
100
AcDbSymbolTableRecord
100
AcDbBlockTableRecord
  2
V97-30-Z1__1
340
0
102
{BLKREFS
331
8E
102
}
  0
BLOCK_RECORD
  5
77
330
1
100
AcDbSymbolTableRecord
100
AcDbBlockTableRecord
  2
V97-30-Z1__2
340
0
102
{BLKREFS
331
8F
102
}
  0
BLOCK_RECORD
  5
7A
330
1
100
AcDbSymbolTableRecord
100
AcDbBlockTableRecord
  2
88-249
340
0
102
{BLKREFS
331
90
102
}
  0
BLOCK_RECORD
  5
7D
330
1
100
AcDbSymbolTableRecord
100
AcDbBlockTableRecord
  2
V097-H7A
340
0
102
{BLKREFS
331
91
102
}
  0
BLOCK_RECORD
  5
80
330
1
100
AcDbSymbolTableRecord
100
AcDbBlockTableRecord
  2
開示A4
340
0
102
{BLKREFS
331
92
102
}
  0
BLOCK_RECORD
  5
44A
330
1
100
AcDbSymbolTableRecord
100
AcDbBlockTableRecord
  2
*D20
340
0
  0
BLOCK_RECORD
  5
455
330
1
100
AcDbSymbolTableRecord
100
AcDbBlockTableRecord
  2
*D21
340
0
  0
BLOCK_RECORD
  5
460
330
1
100
AcDbSymbolTableRecord
100
AcDbBlockTableRecord
  2
*D22
340
0
  0
BLOCK_RECORD
  5
46D
330
1
100
AcDbSymbolTableRecord
100
AcDbBlockTableRecord
  2
*D23
340
0
  0
BLOCK_RECORD
  5
47A
330
1
100
AcDbSymbolTableRecord
100
AcDbBlockTableRecord
  2
*D24
340
0
  0
BLOCK_RECORD
  5
485
330
1
100
AcDbSymbolTableRecord
100
AcDbBlockTableRecord
  2
*D25
340
0
  0
BLOCK_RECORD
  5
490
330
1
100
AcDbSymbolTableRecord
100
AcDbBlockTableRecord
  2
*D26
340
0
  0
BLOCK_RECORD
  5
49B
330
1
100
AcDbSymbolTableRecord
100
AcDbBlockTableRecord
  2
*D27
340
0
  0
BLOCK_RECORD
  5
4A6
330
1
100
AcDbSymbolTableRecord
100
AcDbBlockTableRecord
  2
*D28
340
0
  0
BLOCK_RECORD
  5
4B1
330
1
100
AcDbSymbolTableRecord
100
AcDbBlockTableRecord
  2
*D29
340
0
  0
BLOCK_RECORD
  5
4B9
330
1
100
AcDbSymbolTableRecord
100
AcDbBlockTableRecord
  2
_NONE
340
0
  0
BLOCK_RECORD
  5
4BE
330
1
100
AcDbSymbolTableRecord
100
AcDbBlockTableRecord
  2
*D31
340
0
  0
BLOCK_RECORD
  5
4CB
330
1
100
AcDbSymbolTableRecord
100
AcDbBlockTableRecord
  2
*D32
340
0
  0
BLOCK_RECORD
  5
4D6
330
1
100
AcDbSymbolTableRecord
100
AcDbBlockTableRecord
  2
*D33
340
0
  0
BLOCK_RECORD
  5
4E1
330
1
100
AcDbSymbolTableRecord
100
AcDbBlockTableRecord
  2
*D34
340
0
  0
BLOCK_RECORD
  5
4EC
330
1
100
AcDbSymbolTableRecord
100
AcDbBlockTableRecord
  2
*D35
340
0
  0
ENDTAB
  0
ENDSEC
  0
SECTION
  2
BLOCKS
  0
BLOCK
  5
20
330
1F
100
AcDbEntity
  8
0
100
AcDbBlockBegin
  2
*Model_Space
 70
     0
 10
0.0
 20
0.0
 30
0.0
  3
*Model_Space
  1

  0
ENDBLK
  5
21
330
1F
100
AcDbEntity
  8
0
100
AcDbBlockEnd
  0
BLOCK
  5
1C
330
1B
100
AcDbEntity
 67
     1
  8
0
100
AcDbBlockBegin
  2
*Paper_Space
 70
     0
 10
0.0
 20
0.0
 30
0.0
  3
*Paper_Space
  1

  0
ENDBLK
  5
1D
330
1B
100
AcDbEntity
 67
     1
  8
0
100
AcDbBlockEnd
  0
BLOCK
  5
24
330
23
100
AcDbEntity
  8
0
100
AcDbBlockBegin
  2
*Paper_Space0
 70
     0
 10
0.0
 20
0.0
 30
0.0
  3
*Paper_Space0
  1

  0
ENDBLK
  5
25
330
23
100
AcDbEntity
  8
0
100
AcDbBlockEnd
  0
BLOCK
  5
48
330
47
100
AcDbEntity
  8
0
100
AcDbBlockBegin
  2
V96-3-H1
 70
     0
 10
-435.8827334809575
 20
124.0494640272332
 30
0.0
  3
V96-3-H1
  1

  0
LINE
  5
93
330
47
100
AcDbEntity
  8
1
  6
Continuous
 62
     2
100
AcDbLine
 10
300.5506605549726
 20
180.0252341899914
 30
0.0
 11
300.5506605549726
 21
182.5041398670625
 31
0.0
  0
LINE
  5
94
330
47
100
AcDbEntity
  8
1
  6
Continuous
 62
     7
100
AcDbLine
 10
323.4706605549727
 20
180.0252341899914
 30
0.0
 11
323.4706605549727
 21
181.4241398670626
 31
0.0
  0
LINE
  5
95
330
47
100
AcDbEntity
  8
1
  6
Continuous
 62
     7
100
AcDbLine
 10
296.9706605549727
 20
197.2241048150631
 30
0.0
 11
296.9706605549727
 21
186.6741398670626
 31
0.0
  0
LINE
  5
96
330
47
100
AcDbEntity
  8
1
  6
Continuous
 62
     7
100
AcDbLine
 10
297.9706605549727
 20
185.6741398670626
 30
0.0
 11
298.4706605549727
 21
185.6741398670626
 31
0.0
  0
LINE
  5
97
330
47
100
AcDbEntity
  8
1
  6
Continuous
 62
     7
100
AcDbLine
 10
298.9706605549727
 20
185.1741398670626
 30
0.0
 11
300.7206605549727
 21
185.1741398670626
 31
0.0
  0
LINE
  5
98
330
47
100
AcDbEntity
  8
1
  6
Continuous
 62
     7
100
AcDbLine
 10
300.7206605549727
 20
185.1741398670626
 30
0.0
 11
300.7206605549727
 21
182.6741398670626
 31
0.0
  0
LINE
  5
99
330
47
100
AcDbEntity
  8
1
  6
Continuous
 62
     7
100
AcDbLine
 10
300.7206605549727
 20
182.6741398670626
 30
0.0
 11
300.5506605549726
 21
182.5041398670625
 31
0.0
  0
LINE
  5
9A
330
47
100
AcDbEntity
  8
1
  6
Continuous
 62
     7
100
AcDbLine
 10
299.4706605549727
 20
181.4241398670626
 30
0.0
 11
299.4706605549727
 21
180.0252341899914
 31
0.0
  0
LINE
  5
9B
330
47
100
AcDbEntity
  8
1
  6
Continuous
 62
     7
100
AcDbLine
 10
300.5506605549726
 20
182.5041398670625
 30
0.0
 11
299.4706605549727
 21
181.4241398670626
 31
0.0
  0
LINE
  5
9C
330
47
100
AcDbEntity
  8
1
  6
Continuous
 62
     7
100
AcDbLine
 10
298.9706605549727
 20
185.1741398670626
 30
0.0
 11
298.4706605549727
 21
185.6741398670626
 31
0.0
  0
LINE
  5
9D
330
47
100
AcDbEntity
  8
1
  6
Continuous
 62
     7
100
AcDbLine
 10
322.2206605549727
 20
185.1741398670626
 30
0.0
 11
323.9706605549727
 21
185.1741398670626
 31
0.0
  0
LINE
  5
9E
330
47
100
AcDbEntity
  8
1
  6
Continuous
 62
     7
100
AcDbLine
 10
322.2206605549727
 20
182.6741398670626
 30
0.0
 11
322.2206605549727
 21
185.1741398670626
 31
0.0
  0
LINE
  5
9F
330
47
100
AcDbEntity
  8
1
  6
Continuous
 62
     7
100
AcDbLine
 10
322.3906605549728
 20
182.5041398670625
 30
0.0
 11
322.2206605549727
 21
182.6741398670626
 31
0.0
  0
LINE
  5
A0
330
47
100
AcDbEntity
  8
1
  6
Continuous
 62
     2
100
AcDbLine
 10
322.3906605549728
 20
182.5041398670625
 30
0.0
 11
322.3906605549728
 21
180.0252341899914
 31
0.0
  0
LINE
  5
A1
330
47
100
AcDbEntity
  8
1
  6
Continuous
 62
     7
100
AcDbLine
 10
323.4706605549727
 20
181.4241398670626
 30
0.0
 11
322.3906605549728
 21
182.5041398670625
 31
0.0
  0
LINE
  5
A2
330
47
100
AcDbEntity
  8
1
  6
Continuous
 62
     7
100
AcDbLine
 10
324.4706605549727
 20
185.6741398670626
 30
0.0
 11
323.9706605549727
 21
185.1741398670626
 31
0.0
  0
LINE
  5
A3
330
47
100
AcDbEntity
  8
1
  6
Continuous
 62
     7
100
AcDbLine
 10
324.4706605549727
 20
185.6741398670626
 30
0.0
 11
324.4706605549727
 21
186.6741398670626
 31
0.0
  0
LINE
  5
A4
330
47
100
AcDbEntity
  8
1
  6
Continuous
 62
     7
100
AcDbLine
 10
296.9706605549727
 20
186.6741398670626
 30
0.0
 11
324.4706605549727
 21
186.6741398670626
 31
0.0
  0
LINE
  5
A5
330
47
100
AcDbEntity
  8
1
  6
Continuous
 62
     7
100
AcDbLine
 10
324.4706605549727
 20
186.6741398670626
 30
0.0
 11
324.4706605549727
 21
209.6241048150619
 31
0.0
  0
LINE
  5
A6
330
47
100
AcDbEntity
  8
1
  6
Continuous
 62
     7
100
AcDbLine
 10
324.4706605549727
 20
185.6741398670626
 30
0.0
 11
298.4706605549727
 21
185.6741398670626
 31
0.0
  0
LINE
  5
A7
330
47
100
AcDbEntity
  8
1
  6
Continuous
 62
     7
100
AcDbLine
 10
300.7206605549727
 20
185.1741398670626
 30
0.0
 11
322.2206605549727
 21
185.1741398670626
 31
0.0
  0
LINE
  5
A8
330
47
100
AcDbEntity
  8
1
  6
Continuous
 62
     7
100
AcDbLine
 10
300.7206605549727
 20
182.6741398670626
 30
0.0
 11
322.2206605549727
 21
182.6741398670626
 31
0.0
  0
LINE
  5
A9
330
47
100
AcDbEntity
  8
0
  6
Continuous
 62
     7
100
AcDbLine
 10
154.095534657888
 20
186.824104815064
 30
0.0
 11
154.095534657888
 21
185.6741398670626
 31
0.0
  0
LINE
  5
AA
330
47
100
AcDbEntity
  8
0
  6
Continuous
 62
     7
100
AcDbLine
 10
180.0955346578881
 20
186.824104815064
 30
0.0
 11
180.0955346578881
 21
185.6741398670624
 31
0.0
  0
LINE
  5
AB
330
47
100
AcDbEntity
  8
0
  6
Continuous
 62
     7
100
AcDbLine
 10
154.595534657888
 20
185.1741398670624
 30
0.0
 11
179.5955346578881
 21
185.1741398670624
 31
0.0
  0
LINE
  5
AC
330
47
100
AcDbEntity
  8
0
  6
Continuous
 62
     7
100
AcDbLine
 10
154.095534657888
 20
185.6741398670626
 30
0.0
 11
154.595534657888
 21
185.1741398670624
 31
0.0
  0
LINE
  5
AD
330
47
100
AcDbEntity
  8
0
  6
Continuous
 62
     7
100
AcDbLine
 10
180.0955346578881
 20
185.6741398670624
 30
0.0
 11
179.5955346578881
 21
185.1741398670624
 31
0.0
  0
LINE
  5
AE
330
47
100
AcDbEntity
  8
0
  6
Continuous
 62
     7
100
AcDbLine
 10
154.095534657888
 20
185.6741398670626
 30
0.0
 11
180.0955346578881
 21
185.6741398670624
 31
0.0
  0
LINE
  5
AF
330
47
100
AcDbEntity
  8
0
  6
Continuous
 62
     7
100
AcDbLine
 10
156.345534657888
 20
185.1741398670624
 30
0.0
 11
156.345534657888
 21
182.6741398670624
 31
0.0
  0
LINE
  5
B0
330
47
100
AcDbEntity
  8
0
  6
Continuous
 62
     7
100
AcDbLine
 10
177.8455346578881
 20
185.1741398670624
 30
0.0
 11
177.845534657888
 21
182.6741398670624
 31
0.0
  0
LINE
  5
B1
330
47
100
AcDbEntity
  8
0
  6
Continuous
 62
     7
100
AcDbLine
 10
156.095534657888
 20
182.6741398670624
 30
0.0
 11
178.095534657888
 21
182.6741398670624
 31
0.0
  0
LINE
  5
B2
330
47
100
AcDbEntity
  8
0
  6
Continuous
 62
     7
100
AcDbLine
 10
155.095534657888
 20
181.6741398670624
 30
0.0
 11
155.095534657888
 21
180.0183278899494
 31
0.0
  0
LINE
  5
B3
330
47
100
AcDbEntity
  8
0
  6
Continuous
 62
     7
100
AcDbLine
 10
178.095534657888
 20
182.6741398670624
 30
0.0
 11
179.095534657888
 21
181.6741398670624
 31
0.0
  0
LINE
  5
B4
330
47
100
AcDbEntity
  8
0
  6
Continuous
 62
     7
100
AcDbLine
 10
156.095534657888
 20
182.6741398670624
 30
0.0
 11
155.095534657888
 21
181.6741398670624
 31
0.0
  0
LINE
  5
B5
330
47
100
AcDbEntity
  8
0
  6
Continuous
 62
     7
100
AcDbLine
 10
155.095534657888
 20
181.6741398670624
 30
0.0
 11
179.095534657888
 21
181.6741398670624
 31
0.0
  0
LINE
  5
B6
330
47
100
AcDbEntity
  8
0
  6
Continuous
 62
     7
100
AcDbLine
 10
179.095534657888
 20
180.0183278949416
 30
0.0
 11
179.095534657888
 21
181.6741398670624
 31
0.0
  0
LINE
  5
B7
330
47
100
AcDbEntity
  8
0
  6
Continuous
 62
     2
100
AcDbLine
 10
178.095534657888
 20
180.0252341899914
 30
0.0
 11
178.095534657888
 21
182.6741398670624
 31
0.0
  0
LINE
  5
B8
330
47
100
AcDbEntity
  8
0
  6
Continuous
 62
     2
100
AcDbLine
 10
156.095534657888
 20
179.990516055587
 30
0.0
 11
156.095534657888
 21
182.6741398670624
 31
0.0
  0
ARC
  5
B9
330
47
100
AcDbEntity
  8
0
  6
Continuous
 62
     7
100
AcDbCircle
 10
167.095534657888
 20
188.1741398670624
 30
0.0
 40
2.000000000000018
100
AcDbArc
 50
222.4555112135747
 51
317.544488786427
  0
ARC
  5
BA
330
47
100
AcDbEntity
  8
0
  6
Continuous
 62
     7
100
AcDbCircle
 10
167.095534657888
 20
195.1741398670632
 30
0.0
 40
9.500000000000018
100
AcDbArc
 50
241.5160879234631
 51
298.4839120765371
  0
LWPOLYLINE
  5
BB
330
47
100
AcDbEntity
  8
1
  6
Continuous
 62
     7
 60
     1
100
AcDbPolyline
 90
        3
 70
     0
 43
0.0
 10
306.7206605549727
 20
163.1741398670626
 10
306.7206605549727
 20
194.1741398670626
 10
303.3706605549724
 20
194.1741398670626
  0
LWPOLYLINE
  5
BC
330
47
100
AcDbEntity
  8
1
  6
Continuous
 62
     7
 60
     1
100
AcDbPolyline
 90
        5
 70
     0
 43
0.0
 10
298.4706605549727
 20
190.1741398670626
 10
304.5433102857824
 20
191.1741398670626
 10
305.1206605549724
 20
190.1741398670626
 10
305.1206605549724
 20
172.4133703516055
 10
305.7206605549727
 20
170.1741398670626
  0
LWPOLYLINE
  5
BD
330
47
100
AcDbEntity
  8
1
  6
Continuous
 62
     7
 60
     1
100
AcDbPolyline
 90
       11
 70
     0
 43
0.0
 10
328.6969425438128
 20
213.7056055751265
 10
328.6912120430316
 20
213.7034571063965
 10
328.3950882176323
 20
213.5523725790269
 10
328.0786133877627
 20
213.2724883124498
 10
327.8303676443629
 20
212.8631062623569
 10
327.7268104262312
 20
212.4356927616106
 10
327.7206605549727
 20
212.1807662949615
 10
327.7206605549727
 20
211.5550501538775
 10
327.7206605549727
 20
210.8741398670628
 10
324.4706605549727
 20
210.8741398670628
 10
324.4706605549727
 20
185.6741398670626
  0
LWPOLYLINE
  5
BE
330
47
100
AcDbEntity
  8
1
  6
Continuous
 62
     7
 60
     1
100
AcDbPolyline
 90
        2
 70
     0
 43
0.0
 10
316.2206605549727
 20
163.1741398670626
 10
316.2206605549727
 20
194.1741398670626
  0
LWPOLYLINE
  5
BF
330
47
100
AcDbEntity
  8
1
  6
Continuous
 62
     7
 60
     1
100
AcDbPolyline
 90
        2
 70
     0
 43
0.0
 10
319.5706605549713
 20
194.1741398670626
 10
319.5706605549713
 20
205.1741398670626
  0
ARC
  5
C0
330
47
100
AcDbEntity
  8
1
  6
Continuous
 62
     7
100
AcDbCircle
 10
297.9706605549727
 20
186.6741398670626
 30
0.0
 40
1.0
100
AcDbArc
 50
180.0
 51
270.0
  0
ENDBLK
  5
49
330
47
100
AcDbEntity
  8
0
100
AcDbBlockEnd
  0
BLOCK
  5
4B
330
4A
100
AcDbEntity
  8
0
100
AcDbBlockBegin
  2
T601-3-H4
 70
     0
 10
754.2789380373524
 20
104.38803068175
 30
0.0
  3
T601-3-H4
  1

  0
LINE
  5
C1
330
4A
100
AcDbEntity
  8
1
  6
Continuous
 62
     7
100
AcDbLine
 10
324.9706605548727
 20
178.8194628239913
 30
0.0
 11
324.9706605548727
 21
163.5363073603903
 31
0.0
  0
LINE
  5
C2
330
4A
100
AcDbEntity
  8
1
  6
Continuous
 62
     7
100
AcDbLine
 10
297.9706605550728
 20
178.8194628239913
 30
0.0
 11
297.9706605550728
 21
163.5363073603903
 31
0.0
  0
LINE
  5
C3
330
4A
100
AcDbEntity
  8
1
  6
Continuous
 62
     7
100
AcDbLine
 10
324.9706605548727
 20
163.5363073603903
 30
0.0
 11
324.9706605549727
 21
161.7838836369915
 31
0.0
  0
LINE
  5
C4
330
4A
100
AcDbEntity
  8
1
  6
Continuous
 62
     7
100
AcDbLine
 10
297.9706605550728
 20
163.5363073603903
 30
0.0
 11
297.9706605549727
 21
161.7838836369915
 31
0.0
  0
LINE
  5
C5
330
4A
100
AcDbEntity
  8
1
  6
Continuous
 62
     7
100
AcDbLine
 10
311.4706605549727
 20
178.8194628239913
 30
0.0
 11
311.4706605549727
 21
163.5363073603903
 31
0.0
  0
LINE
  5
C6
330
4A
100
AcDbEntity
  8
1
  6
Continuous
 62
     7
100
AcDbLine
 10
324.9706605549727
 20
161.7838836369915
 30
0.0
 11
323.4706605539723
 21
160.5252341899914
 31
0.0
  0
LINE
  5
C7
330
4A
100
AcDbEntity
  8
1
  6
Continuous
 62
     7
100
AcDbLine
 10
324.9706605549727
 20
180.0252341899914
 30
0.0
 11
324.9706605548727
 21
178.8194628239913
 31
0.0
  0
LINE
  5
C8
330
4A
100
AcDbEntity
  8
1
  6
Continuous
 62
     7
100
AcDbLine
 10
297.9706605549727
 20
180.0252341899914
 30
0.0
 11
297.9706605550728
 21
178.8194628239913
 31
0.0
  0
LINE
  5
C9
330
4A
100
AcDbEntity
  8
1
  6
Continuous
 62
     7
100
AcDbLine
 10
311.4706605549727
 20
180.0252341899914
 30
0.0
 11
324.9706605549727
 21
180.0252341899914
 31
0.0
  0
LINE
  5
CA
330
4A
100
AcDbEntity
  8
1
  6
Continuous
 62
     7
100
AcDbLine
 10
311.4706605549727
 20
160.5252341899914
 30
0.0
 11
323.4706605539723
 21
160.5252341899914
 31
0.0
  0
LINE
  5
CB
330
4A
100
AcDbEntity
  8
1
  6
Continuous
 62
     7
100
AcDbLine
 10
299.4706605559713
 20
160.5252341899914
 30
0.0
 11
297.9706605549727
 21
161.7838836369915
 31
0.0
  0
LINE
  5
CC
330
4A
100
AcDbEntity
  8
1
  6
Continuous
 62
     7
100
AcDbLine
 10
297.9706605549727
 20
180.0252341899914
 30
0.0
 11
311.4706605549727
 21
180.0252341899914
 31
0.0
  0
LINE
  5
CD
330
4A
100
AcDbEntity
  8
1
  6
Continuous
 62
     7
100
AcDbLine
 10
299.4706605559713
 20
160.5252341899914
 30
0.0
 11
311.4706605549727
 21
160.5252341899914
 31
0.0
  0
LINE
  5
CE
330
4A
100
AcDbEntity
  8
1
  6
Continuous
 62
     7
100
AcDbLine
 10
151.5070774456834
 20
178.8194628239912
 30
0.0
 11
153.5955347136824
 21
180.0252341899914
 31
0.0
  0
LINE
  5
CF
330
4A
100
AcDbEntity
  8
1
  6
Continuous
 62
     7
100
AcDbLine
 10
155.0955347146829
 20
160.5252341899914
 30
0.0
 11
167.0955347136824
 21
160.5252341899914
 31
0.0
  0
LINE
  5
D0
330
4A
100
AcDbEntity
  8
1
  6
Continuous
 62
     7
100
AcDbLine
 10
151.5070774456834
 20
163.536307359991
 30
0.0
 11
151.5070774456834
 21
178.8194628239912
 31
0.0
  0
LINE
  5
D1
330
4A
100
AcDbEntity
  8
1
  6
Continuous
 62
     7
100
AcDbLine
 10
159.3013060796839
 20
178.8194628239912
 30
0.0
 11
159.3013060796839
 21
163.536307359991
 31
0.0
  0
LINE
  5
D2
330
4A
100
AcDbEntity
  8
1
  6
Continuous
 62
     7
100
AcDbLine
 10
153.5955347136824
 20
180.0252341899914
 30
0.0
 11
167.0955347136824
 21
180.0252341899914
 31
0.0
  0
LINE
  5
D3
330
4A
100
AcDbEntity
  8
1
  6
Continuous
 62
     7
100
AcDbLine
 10
155.0955347146829
 20
160.5252341899914
 30
0.0
 11
151.5070774456834
 21
163.536307359991
 31
0.0
  0
LINE
  5
D4
330
4A
100
AcDbEntity
  8
1
  6
Continuous
 62
     7
100
AcDbLine
 10
180.5955347136824
 20
180.0252341899914
 30
0.0
 11
182.6839919816831
 21
178.8194628239912
 31
0.0
  0
LINE
  5
D5
330
4A
100
AcDbEntity
  8
1
  6
Continuous
 62
     7
100
AcDbLine
 10
167.0955347136824
 20
160.5252341899914
 30
0.0
 11
179.0955347126837
 21
160.5252341899914
 31
0.0
  0
LINE
  5
D6
330
4A
100
AcDbEntity
  8
1
  6
Continuous
 62
     7
100
AcDbLine
 10
182.6839919816831
 20
178.8194628239912
 30
0.0
 11
182.6839919816831
 21
163.536307359991
 31
0.0
  0
LINE
  5
D7
330
4A
100
AcDbEntity
  8
1
  6
Continuous
 62
     7
100
AcDbLine
 10
174.8897633476827
 20
163.536307359991
 30
0.0
 11
174.8897633476827
 21
178.8194628239912
 31
0.0
  0
LINE
  5
D8
330
4A
100
AcDbEntity
  8
1
  6
Continuous
 62
     7
100
AcDbLine
 10
167.0955347136824
 20
180.0252341899914
 30
0.0
 11
180.5955347136824
 21
180.0252341899914
 31
0.0
  0
LINE
  5
D9
330
4A
100
AcDbEntity
  8
1
  6
Continuous
 62
     7
100
AcDbLine
 10
182.6839919816831
 20
163.536307359991
 30
0.0
 11
179.0955347126837
 21
160.5252341899914
 31
0.0
  0
ARC
  5
DA
330
4A
100
AcDbEntity
  8
1
  6
Continuous
 62
     7
100
AcDbCircle
 10
318.2206605549218
 20
160.4321426560355
 30
0.0
 40
19.58713973397474
100
AcDbArc
 50
69.84177333637082
 51
110.158226663624
  0
ARC
  5
DB
330
4A
100
AcDbEntity
  8
1
  6
Continuous
 62
     7
100
AcDbCircle
 10
304.7206605550218
 20
160.4321426560355
 30
0.0
 40
19.58713973397472
100
AcDbArc
 50
69.84177333637096
 51
110.1582266636239
  0
ARC
  5
DC
330
4A
100
AcDbEntity
  8
1
  6
Continuous
 62
     7
100
AcDbCircle
 10
318.2206605549218
 20
175.6599480431724
 30
0.0
 40
13.87606440618237
100
AcDbArc
 50
240.8925382797777
 51
299.107461720229
  0
ARC
  5
DD
330
4A
100
AcDbEntity
  8
1
  6
Continuous
 62
     7
100
AcDbCircle
 10
304.7206605550218
 20
175.6599480431724
 30
0.0
 40
13.87606440618234
100
AcDbArc
 50
240.8925382797779
 51
299.1074617202288
  0
ARC
  5
DE
330
4A
100
AcDbEntity
  8
1
  6
Continuous
 62
     7
100
AcDbCircle
 10
155.4041917626838
 20
173.1245127689912
 30
0.0
 40
6.900721420999181
100
AcDbArc
 50
55.61575253201585
 51
115.6157525320601
  0
ARC
  5
DF
330
4A
100
AcDbEntity
  8
1
  6
Continuous
 62
     7
100
AcDbCircle
 10
167.0955347146829
 20
154.2310055559909
 30
0.0
 40
25.79422863400052
100
AcDbArc
 50
90.0
 51
107.5879537740104
  0
ARC
  5
E0
330
4A
100
AcDbEntity
  8
1
  6
Continuous
 62
     7
100
AcDbCircle
 10
155.4041917626838
 20
166.993379679991
 30
0.0
 40
5.209496043001607
100
AcDbArc
 50
238.4242432919802
 51
318.4242432920048
  0
ARC
  5
E1
330
4A
100
AcDbEntity
  8
1
  6
Continuous
 62
     7
100
AcDbCircle
 10
167.0955347136824
 20
179.9932322249911
 30
0.0
 40
18.20934858799908
100
AcDbArc
 50
244.6571136310055
 51
270.0
  0
ARC
  5
E2
330
4A
100
AcDbEntity
  8
1
  6
Continuous
 62
     7
100
AcDbCircle
 10
178.7868776646828
 20
173.1245127689912
 30
0.0
 40
6.900721420998529
100
AcDbArc
 50
64.38424746802096
 51
124.3842474679844
  0
ARC
  5
E3
330
4A
100
AcDbEntity
  8
1
  6
Continuous
 62
     7
100
AcDbCircle
 10
167.0955347126837
 20
154.2310055559909
 30
0.0
 40
25.79422863399904
100
AcDbArc
 50
72.41204622600891
 51
90.0
  0
ARC
  5
E4
330
4A
100
AcDbEntity
  8
1
  6
Continuous
 62
     7
100
AcDbCircle
 10
178.7868776646828
 20
166.993379679991
 30
0.0
 40
5.209496043000625
100
AcDbArc
 50
221.575756707995
 51
301.5757567080198
  0
ARC
  5
E5
330
4A
100
AcDbEntity
  8
1
  6
Continuous
 62
     7
100
AcDbCircle
 10
167.0955347136824
 20
179.9932322249911
 30
0.0
 40
18.20934858799998
100
AcDbArc
 50
270.0
 51
295.3428863689996
  0
ENDBLK
  5
4C
330
4A
100
AcDbEntity
  8
0
100
AcDbBlockEnd
  0
BLOCK
  5
4F
330
4D
100
AcDbEntity
  8
0
100
AcDbBlockBegin
  2
T601-3
 70
     0
 10
822.8934879708922
 20
17.66159582628188
 30
0.0
  3
T601-3
  1

  0
INSERT
  5
4E
330
4D
100
AcDbEntity
  8
1
100
AcDbBlockReference
  2
T601-3-H4
 10
754.2789380373524
 20
104.38803068175
 30
0.0
  0
ENDBLK
  5
50
330
4D
100
AcDbEntity
  8
0
100
AcDbBlockEnd
  0
BLOCK
  5
54
330
51
100
AcDbEntity
  8
0
100
AcDbBlockBegin
  2
V96LT-3
 70
     0
 10
507.371250000002
 20
-1.48500000000013
 30
0.0
  3
V96LT-3
  1

  0
INSERT
  5
52
330
51
100
AcDbEntity
  8
0
100
AcDbBlockReference
  2
V96-3-H1
 10
-435.8827334809575
 20
124.0494640272332
 30
0.0
  0
INSERT
  5
53
330
51
100
AcDbEntity
  8
1
100
AcDbBlockReference
  2
T601-3
 10
822.8934879708922
 20
17.66159582628188
 30
0.0
  0
ENDBLK
  5
55
330
51
100
AcDbEntity
  8
0
100
AcDbBlockEnd
  0
BLOCK
  5
57
330
56
100
AcDbEntity
  8
0
100
AcDbBlockBegin
  2
V972GN-H3
 70
     0
 10
840.9875665666714
 20
221.674104815063
 30
0.0
  3
V972GN-H3
  1

  0
ARC
  5
E6
330
56
100
AcDbEntity
  8
0
  6
Continuous
 62
     7
100
AcDbCircle
 10
167.0955347136824
 20
235.174104815063
 30
0.0
 40
11.5
100
AcDbArc
 50
0.0
 51
211.4148174618114
  0
ARC
  5
E7
330
56
100
AcDbEntity
  8
0
  6
Continuous
 62
     7
100
AcDbCircle
 10
167.0955347136824
 20
235.174104815063
 30
0.0
 40
8.299999999999187
100
AcDbArc
 50
0.0
 51
183.589633235425
  0
ARC
  5
E8
330
56
100
AcDbEntity
  8
0
  6
Continuous
 62
     7
100
AcDbCircle
 10
167.0955347136824
 20
235.174104815063
 30
0.0
 40
8.300000000004179
100
AcDbArc
 50
356.4103667645789
 51
0.0
  0
ARC
  5
E9
330
56
100
AcDbEntity
  8
0
  6
Continuous
 62
     7
100
AcDbCircle
 10
167.0955347136824
 20
235.174104815063
 30
0.0
 40
11.5000000000026
100
AcDbArc
 50
328.5851825382119
 51
0.0
  0
ENDBLK
  5
58
330
56
100
AcDbEntity
  8
0
100
AcDbBlockEnd
  0
BLOCK
  5
5A
330
59
100
AcDbEntity
  8
0
100
AcDbBlockBegin
  2
V97G-H3
 70
     0
 10
682.8456586784214
 20
463.501331622148
 30
0.0
  3
V97G-H3
  1

  0
LINE
  5
EA
330
59
100
AcDbEntity
  8
1
  6
Continuous
 62
     7
100
AcDbLine
 10
166.5955347136824
 20
347.6623274732128
 30
0.0
 11
166.5955347136824
 21
348.1367375606828
 31
0.0
  0
LINE
  5
EB
330
59
100
AcDbEntity
  8
1
  6
Continuous
 62
     7
100
AcDbLine
 10
167.5955347136824
 20
347.6623274732128
 30
0.0
 11
167.5955347136824
 21
348.1367375606828
 31
0.0
  0
LINE
  5
EC
330
59
100
AcDbEntity
  8
1
  6
Continuous
 62
     7
100
AcDbLine
 10
167.5955347136824
 20
347.6623274732128
 30
0.0
 11
166.5955347136824
 21
347.6623274732128
 31
0.0
  0
LINE
  5
ED
330
59
100
AcDbEntity
  8
0
  6
Continuous
 62
     7
100
AcDbLine
 10
165.0955347136824
 20
210.606483273978
 30
0.0
 11
169.0955347136824
 21
210.606483273978
 31
0.0
  0
LINE
  5
EE
330
59
100
AcDbEntity
  8
0
  6
Continuous
 62
     7
100
AcDbLine
 10
165.0955347136824
 20
209.890457870194
 30
0.0
 11
169.0955347136824
 21
209.890457870194
 31
0.0
  0
LINE
  5
EF
330
59
100
AcDbEntity
  8
0
  6
Continuous
 62
     7
100
AcDbLine
 10
250.9810969697719
 20
213.4072809980589
 30
0.0
 11
252.6296008344525
 21
210.515457870194
 31
0.0
  0
LINE
  5
F0
330
59
100
AcDbEntity
  8
0
  6
Continuous
 62
     7
100
AcDbLine
 10
252.6296008344525
 20
210.515457870194
 30
0.0
 11
251.5436558533329
 21
209.8964073892198
 31
0.0
  0
LINE
  5
F1
330
59
100
AcDbEntity
  8
0
  6
Continuous
 62
     7
100
AcDbLine
 10
251.1344569424327
 20
210.0084620692542
 30
0.0
 11
250.7877886730821
 21
210.616591258678
 31
0.0
  0
LINE
  5
F2
330
59
100
AcDbEntity
  8
0
  6
Continuous
 62
     7
100
AcDbLine
 10
247.0518905711015
 20
214.2422726252048
 30
0.0
 11
250.7877886730821
 21
210.616591258678
 31
0.0
  0
LINE
  5
F3
330
59
100
AcDbEntity
  8
0
  6
Continuous
 62
     7
100
AcDbLine
 10
246.5774804836328
 20
215.074487879554
 30
0.0
 11
248.0085249046515
 21
219.6796613023421
 31
0.0
  0
LINE
  5
F4
330
59
100
AcDbEntity
  8
0
  6
Continuous
 62
     7
100
AcDbLine
 10
247.0518905711015
 20
214.2422726252048
 30
0.0
 11
246.5774804836328
 21
215.074487879554
 31
0.0
  0
LINE
  5
F5
330
59
100
AcDbEntity
  8
0
  6
Continuous
 62
     7
100
AcDbLine
 10
254.2982977585325
 20
223.2651900152359
 30
0.0
 11
248.0085249046515
 21
219.6796613023421
 31
0.0
  0
LINE
  5
F6
330
59
100
AcDbEntity
  8
0
  6
Continuous
 62
     7
100
AcDbLine
 10
256.9983384076622
 20
218.5885824284492
 30
0.0
 11
252.5332238083229
 21
216.0432128301782
 31
0.0
  0
LINE
  5
F7
330
59
100
AcDbEntity
  8
0
  6
Continuous
 62
     7
100
AcDbLine
 10
251.4555070572424
 20
212.5750657437102
 30
0.0
 11
252.5332238083229
 21
216.0432128301782
 31
0.0
  0
LINE
  5
F8
330
59
100
AcDbEntity
  8
0
  6
Continuous
 62
     7
100
AcDbLine
 10
247.0518905711015
 20
214.2422726252048
 30
0.0
 11
248.5950599477219
 21
219.2082698337281
 31
0.0
  0
LINE
  5
F9
330
59
100
AcDbEntity
  8
0
  6
Continuous
 62
     7
100
AcDbLine
 10
248.5937086730119
 20
214.149155057783
 30
0.0
 11
249.8519207543013
 21
218.1981452581258
 31
0.0
  0
LINE
  5
FA
330
59
100
AcDbEntity
  8
0
  6
Continuous
 62
     7
100
AcDbLine
 10
249.5486639917126
 20
213.8524054338941
 30
0.0
 11
250.8068760730021
 21
217.9013956342369
 31
0.0
  0
LINE
  5
FB
330
59
100
AcDbEntity
  8
1
  6
Continuous
 62
     7
100
AcDbLine
 10
248.5937086730119
 20
214.149155057783
 30
0.0
 11
249.5486639917126
 21
213.8524054338941
 31
0.0
  0
LINE
  5
FC
330
59
100
AcDbEntity
  8
0
  6
Continuous
 62
     7
100
AcDbLine
 10
251.9425594271725
 20
216.5013158796978
 30
0.0
 11
250.9810969697719
 21
213.4072809980589
 31
0.0
  0
LINE
  5
FD
330
59
100
AcDbEntity
  8
0
  6
Continuous
 62
     7
100
AcDbLine
 10
256.6530828991527
 20
219.1865825107752
 30
0.0
 11
251.9425594271725
 21
216.5013158796978
 31
0.0
  0
LINE
  5
FE
330
59
100
AcDbEntity
  8
0
  6
Continuous
 62
     7
100
AcDbLine
 10
254.6483030278723
 20
222.6589631058382
 30
0.0
 11
248.5950599477219
 21
219.2082698337281
 31
0.0
  0
LINE
  5
FF
330
59
100
AcDbEntity
  8
0
  6
Continuous
 62
     7
100
AcDbLine
 10
255.3983143192927
 20
221.359905442841
 30
0.0
 11
249.8519207543013
 21
218.1981452581258
 31
0.0
  0
LINE
  5
100
330
59
100
AcDbEntity
  8
0
  6
Continuous
 62
     7
100
AcDbLine
 10
255.7636875456119
 20
220.7270604511291
 30
0.0
 11
250.8068760730021
 21
217.9013956342369
 31
0.0
  0
LINE
  5
101
330
59
100
AcDbEntity
  8
1
  6
Continuous
 62
     7
100
AcDbLine
 10
166.5955347136824
 20
219.6796613023421
 30
0.0
 11
167.5955347136824
 21
219.6796613023421
 31
0.0
  0
LINE
  5
102
330
59
100
AcDbEntity
  8
1
  6
Continuous
 62
     7
100
AcDbLine
 10
166.5955347136824
 20
215.074487879554
 30
0.0
 11
167.5955347136824
 21
215.074487879554
 31
0.0
  0
LINE
  5
103
330
59
100
AcDbEntity
  8
1
  6
Continuous
 62
     7
100
AcDbLine
 10
167.5955347136824
 20
214.2422726252048
 30
0.0
 11
166.5955347136824
 21
214.2422726252048
 31
0.0
  0
LINE
  5
104
330
59
100
AcDbEntity
  8
1
  6
Continuous
 62
     7
100
AcDbLine
 10
166.5955347136824
 20
214.2422726252048
 30
0.0
 11
166.5955347136824
 21
219.2082698337281
 31
0.0
  0
LINE
  5
105
330
59
100
AcDbEntity
  8
0
  6
Continuous
 62
     7
100
AcDbLine
 10
166.5955347136824
 20
224.2422182589839
 30
0.0
 11
167.5955347136824
 21
224.2422182589839
 31
0.0
  0
LINE
  5
106
330
59
100
AcDbEntity
  8
1
  6
Continuous
 62
     7
100
AcDbLine
 10
167.5955347136824
 20
214.2422726252048
 30
0.0
 11
167.5955347136824
 21
219.2082698337281
 31
0.0
  0
LINE
  5
107
330
59
100
AcDbEntity
  8
0
  6
Continuous
 62
     7
100
AcDbLine
 10
167.5955347136824
 20
224.2422182589839
 30
0.0
 11
168.2185921963919
 21
224.2422182589839
 31
0.0
  0
LINE
  5
108
330
59
100
AcDbEntity
  8
1
  6
Continuous
 62
     7
100
AcDbLine
 10
166.5955347136824
 20
214.2422726252048
 30
0.0
 11
165.0955347136824
 21
214.2422726252048
 31
0.0
  0
LINE
  5
109
330
59
100
AcDbEntity
  8
0
  6
Continuous
 62
     7
100
AcDbLine
 10
165.0955347136824
 20
214.2422726252048
 30
0.0
 11
165.0955347136824
 21
214.149155057783
 31
0.0
  0
LINE
  5
10A
330
59
100
AcDbEntity
  8
1
  6
Continuous
 62
     7
100
AcDbLine
 10
167.5955347136824
 20
214.2422726252048
 30
0.0
 11
169.0955347136824
 21
214.2422726252048
 31
0.0
  0
LINE
  5
10B
330
59
100
AcDbEntity
  8
0
  6
Continuous
 62
     7
100
AcDbLine
 10
169.0955347136824
 20
214.2422726252048
 30
0.0
 11
169.0955347136824
 21
214.149155057783
 31
0.0
  0
LINE
  5
10C
330
59
100
AcDbEntity
  8
1
  6
Continuous
 62
     7
100
AcDbLine
 10
169.0955347136824
 20
219.2082698337281
 30
0.0
 11
167.5955347136824
 21
219.2082698337281
 31
0.0
  0
LINE
  5
10D
330
59
100
AcDbEntity
  8
0
  6
Continuous
 62
     7
100
AcDbLine
 10
169.0955347136824
 20
219.2082698337281
 30
0.0
 11
169.0955347136824
 21
218.1981452581258
 31
0.0
  0
LINE
  5
10E
330
59
100
AcDbEntity
  8
1
  6
Continuous
 62
     7
100
AcDbLine
 10
167.5955347136824
 20
219.2082698337281
 30
0.0
 11
167.5955347136824
 21
224.2422182589839
 31
0.0
  0
LINE
  5
10F
330
59
100
AcDbEntity
  8
1
  6
Continuous
 62
     7
100
AcDbLine
 10
166.5955347136824
 20
219.2082698337281
 30
0.0
 11
165.0955347136824
 21
219.2082698337281
 31
0.0
  0
LINE
  5
110
330
59
100
AcDbEntity
  8
0
  6
Continuous
 62
     7
100
AcDbLine
 10
165.0955347136824
 20
219.2082698337281
 30
0.0
 11
165.0955347136824
 21
218.1981452581258
 31
0.0
  0
LINE
  5
111
330
59
100
AcDbEntity
  8
1
  6
Continuous
 62
     7
100
AcDbLine
 10
166.5955347136824
 20
219.2082698337281
 30
0.0
 11
166.5955347136824
 21
224.2422182589839
 31
0.0
  0
LINE
  5
112
330
59
100
AcDbEntity
  8
1
  6
Continuous
 62
     7
100
AcDbLine
 10
169.0955347136824
 20
213.8524054338941
 30
0.0
 11
169.8455347136824
 21
213.8524054338941
 31
0.0
  0
LINE
  5
113
330
59
100
AcDbEntity
  8
0
  6
Continuous
 62
     7
100
AcDbLine
 10
169.0955347136824
 20
213.8524054338941
 30
0.0
 11
169.0955347136824
 21
209.890457870194
 31
0.0
  0
LINE
  5
114
330
59
100
AcDbEntity
  8
1
  6
Continuous
 62
     7
100
AcDbLine
 10
165.0955347136824
 20
213.8524054338941
 30
0.0
 11
164.3455347136824
 21
213.8524054338941
 31
0.0
  0
LINE
  5
115
330
59
100
AcDbEntity
  8
0
  6
Continuous
 62
     7
100
AcDbLine
 10
165.0955347136824
 20
213.8524054338941
 30
0.0
 11
165.0955347136824
 21
209.890457870194
 31
0.0
  0
LINE
  5
116
330
59
100
AcDbEntity
  8
1
  6
Continuous
 62
     7
100
AcDbLine
 10
169.8455347136824
 20
213.8524054338941
 30
0.0
 11
169.8455347136824
 21
214.149155057783
 31
0.0
  0
LINE
  5
117
330
59
100
AcDbEntity
  8
1
  6
Continuous
 62
     7
100
AcDbLine
 10
164.3455347136824
 20
213.8524054338941
 30
0.0
 11
164.3455347136824
 21
214.149155057783
 31
0.0
  0
LINE
  5
118
330
59
100
AcDbEntity
  8
1
  6
Continuous
 62
     7
100
AcDbLine
 10
169.8455347136824
 20
214.149155057783
 30
0.0
 11
169.0955347136824
 21
214.149155057783
 31
0.0
  0
LINE
  5
119
330
59
100
AcDbEntity
  8
0
  6
Continuous
 62
     7
100
AcDbLine
 10
169.0955347136824
 20
214.149155057783
 30
0.0
 11
169.0955347136824
 21
213.8524054338941
 31
0.0
  0
LINE
  5
11A
330
59
100
AcDbEntity
  8
1
  6
Continuous
 62
     7
100
AcDbLine
 10
169.8455347136824
 20
214.149155057783
 30
0.0
 11
169.8455347136824
 21
218.1981452581258
 31
0.0
  0
LINE
  5
11B
330
59
100
AcDbEntity
  8
1
  6
Continuous
 62
     7
100
AcDbLine
 10
169.8455347136824
 20
218.1981452581258
 30
0.0
 11
169.0955347136824
 21
218.1981452581258
 31
0.0
  0
LINE
  5
11C
330
59
100
AcDbEntity
  8
0
  6
Continuous
 62
     7
100
AcDbLine
 10
169.0955347136824
 20
218.1981452581258
 30
0.0
 11
169.0955347136824
 21
214.2422726252048
 31
0.0
  0
LINE
  5
11D
330
59
100
AcDbEntity
  8
1
  6
Continuous
 62
     7
100
AcDbLine
 10
169.8455347136824
 20
218.1981452581258
 30
0.0
 11
169.8455347136824
 21
223.728438537692
 31
0.0
  0
LINE
  5
11E
330
59
100
AcDbEntity
  8
1
  6
Continuous
 62
     7
100
AcDbLine
 10
164.3455347136824
 20
218.1981452581258
 30
0.0
 11
165.0955347136824
 21
218.1981452581258
 31
0.0
  0
LINE
  5
11F
330
59
100
AcDbEntity
  8
0
  6
Continuous
 62
     7
100
AcDbLine
 10
165.0955347136824
 20
218.1981452581258
 30
0.0
 11
165.0955347136824
 21
214.2422726252048
 31
0.0
  0
LINE
  5
120
330
59
100
AcDbEntity
  8
1
  6
Continuous
 62
     7
100
AcDbLine
 10
164.3455347136824
 20
218.1981452581258
 30
0.0
 11
164.3455347136824
 21
223.728438537692
 31
0.0
  0
LINE
  5
121
330
59
100
AcDbEntity
  8
1
  6
Continuous
 62
     7
100
AcDbLine
 10
164.3455347136824
 20
214.149155057783
 30
0.0
 11
165.0955347136824
 21
214.149155057783
 31
0.0
  0
LINE
  5
122
330
59
100
AcDbEntity
  8
0
  6
Continuous
 62
     7
100
AcDbLine
 10
165.0955347136824
 20
214.149155057783
 30
0.0
 11
165.0955347136824
 21
213.8524054338941
 31
0.0
  0
LINE
  5
123
330
59
100
AcDbEntity
  8
1
  6
Continuous
 62
     7
100
AcDbLine
 10
164.3455347136824
 20
214.149155057783
 30
0.0
 11
164.3455347136824
 21
218.1981452581258
 31
0.0
  0
LINE
  5
124
330
59
100
AcDbEntity
  8
0
  6
Continuous
 62
     7
100
AcDbLine
 10
169.0955347136824
 20
224.024169244859
 30
0.0
 11
169.0955347136824
 21
219.2082698337281
 31
0.0
  0
LINE
  5
125
330
59
100
AcDbEntity
  8
0
  6
Continuous
 62
     7
100
AcDbLine
 10
165.9724772309728
 20
224.2422182589839
 30
0.0
 11
166.5955347136824
 21
224.2422182589839
 31
0.0
  0
LINE
  5
126
330
59
100
AcDbEntity
  8
0
  6
Continuous
 62
     7
100
AcDbLine
 10
165.0955347136824
 20
224.024169244859
 30
0.0
 11
165.0955347136824
 21
219.2082698337281
 31
0.0
  0
LINE
  5
127
330
59
100
AcDbEntity
  8
1
  6
Continuous
 62
     7
100
AcDbLine
 10
167.5955347136824
 20
349.093371894237
 30
0.0
 11
166.5955347136824
 21
349.093371894237
 31
0.0
  0
LINE
  5
128
330
59
100
AcDbEntity
  8
1
  6
Continuous
 62
     7
100
AcDbLine
 10
166.5955347136824
 20
349.093371894237
 30
0.0
 11
166.5955347136824
 21
349.6799069373051
 31
0.0
  0
LINE
  5
129
330
59
100
AcDbEntity
  8
1
  6
Continuous
 62
     7
100
AcDbLine
 10
167.5955347136824
 20
349.093371894237
 30
0.0
 11
167.5955347136824
 21
349.6799069373051
 31
0.0
  0
LINE
  5
12A
330
59
100
AcDbEntity
  8
1
  6
Continuous
 62
     7
100
AcDbLine
 10
169.0955347136824
 20
348.1367375606828
 30
0.0
 11
167.5955347136824
 21
348.1367375606828
 31
0.0
  0
LINE
  5
12B
330
59
100
AcDbEntity
  8
1
  6
Continuous
 62
     7
100
AcDbLine
 10
167.5955347136824
 20
348.1367375606828
 30
0.0
 11
167.5955347136824
 21
349.093371894237
 31
0.0
  0
LINE
  5
12C
330
59
100
AcDbEntity
  8
1
  6
Continuous
 62
     7
100
AcDbLine
 10
166.5955347136824
 20
348.1367375606828
 30
0.0
 11
165.0955347136824
 21
348.1367375606828
 31
0.0
  0
LINE
  5
12D
330
59
100
AcDbEntity
  8
1
  6
Continuous
 62
     7
100
AcDbLine
 10
166.5955347136824
 20
348.1367375606828
 30
0.0
 11
166.5955347136824
 21
349.093371894237
 31
0.0
  0
LINE
  5
12E
330
59
100
AcDbEntity
  8
1
  6
Continuous
 62
     7
100
AcDbLine
 10
166.5955347136824
 20
349.6799069373051
 30
0.0
 11
165.0955347136824
 21
349.6799069373051
 31
0.0
  0
LINE
  5
12F
330
59
100
AcDbEntity
  8
1
  6
Continuous
 62
     7
100
AcDbLine
 10
166.5955347136824
 20
349.6799069373051
 30
0.0
 11
166.5955347136824
 21
352.989138892533
 31
0.0
  0
LINE
  5
130
330
59
100
AcDbEntity
  8
1
  6
Continuous
 62
     7
100
AcDbLine
 10
167.5955347136824
 20
349.6799069373051
 30
0.0
 11
169.0955347136824
 21
349.6799069373051
 31
0.0
  0
LINE
  5
131
330
59
100
AcDbEntity
  8
1
  6
Continuous
 62
     7
100
AcDbLine
 10
167.5955347136824
 20
349.6799069373051
 30
0.0
 11
167.5955347136824
 21
352.9891410288728
 31
0.0
  0
LINE
  5
132
330
59
100
AcDbEntity
  8
1
  6
Continuous
 62
     7
100
AcDbLine
 10
169.0955347136824
 20
348.1367375606828
 30
0.0
 11
169.0955347136824
 21
349.67855566259
 31
0.0
  0
LINE
  5
133
330
59
100
AcDbEntity
  8
1
  6
Continuous
 62
     7
100
AcDbLine
 10
165.0955347136824
 20
348.1367375606828
 30
0.0
 11
165.0955347136824
 21
349.67855566259
 31
0.0
  0
LINE
  5
134
330
59
100
AcDbEntity
  8
1
  6
Continuous
 62
     7
100
AcDbLine
 10
169.8455347136824
 20
350.9367677438791
 30
0.0
 11
169.0955347136824
 21
350.9367677438791
 31
0.0
  0
LINE
  5
135
330
59
100
AcDbEntity
  8
1
  6
Continuous
 62
     7
100
AcDbLine
 10
169.0955347136824
 20
350.9367677438791
 30
0.0
 11
169.0955347136824
 21
353.1227453689498
 31
0.0
  0
LINE
  5
136
330
59
100
AcDbEntity
  8
1
  6
Continuous
 62
     7
100
AcDbLine
 10
165.0955347136824
 20
350.9367677438791
 30
0.0
 11
164.3455347136824
 21
350.9367677438791
 31
0.0
  0
LINE
  5
137
330
59
100
AcDbEntity
  8
1
  6
Continuous
 62
     7
100
AcDbLine
 10
165.0955347136824
 20
350.9367677438791
 30
0.0
 11
165.0955347136824
 21
353.1227532791709
 31
0.0
  0
LINE
  5
138
330
59
100
AcDbEntity
  8
1
  6
Continuous
 62
     7
100
AcDbLine
 10
169.8455347136824
 20
349.67855566259
 30
0.0
 11
169.0955347136824
 21
349.67855566259
 31
0.0
  0
LINE
  5
139
330
59
100
AcDbEntity
  8
1
  6
Continuous
 62
     7
100
AcDbLine
 10
169.0955347136824
 20
349.67855566259
 30
0.0
 11
169.0955347136824
 21
350.9367677438791
 31
0.0
  0
LINE
  5
13A
330
59
100
AcDbEntity
  8
1
  6
Continuous
 62
     7
100
AcDbLine
 10
164.3455347136824
 20
349.67855566259
 30
0.0
 11
165.0955347136824
 21
349.67855566259
 31
0.0
  0
LINE
  5
13B
330
59
100
AcDbEntity
  8
1
  6
Continuous
 62
     7
100
AcDbLine
 10
165.0955347136824
 20
349.67855566259
 30
0.0
 11
165.0955347136824
 21
350.9367677438791
 31
0.0
  0
LINE
  5
13C
330
59
100
AcDbEntity
  8
1
  6
Continuous
 62
     7
100
AcDbLine
 10
169.8455347136824
 20
349.67855566259
 30
0.0
 11
169.8455347136824
 21
353.254686551606
 31
0.0
  0
LINE
  5
13D
330
59
100
AcDbEntity
  8
1
  6
Continuous
 62
     7
100
AcDbLine
 10
164.3455347136824
 20
349.67855566259
 30
0.0
 11
164.3455347136824
 21
353.25467533453
 31
0.0
  0
ARC
  5
13E
330
59
100
AcDbEntity
  8
0
  6
Continuous
 62
     7
100
AcDbCircle
 10
251.3950837379016
 20
210.1570341846882
 30
0.0
 40
0.3000000000015224
100
AcDbArc
 50
209.6856028294191
 51
299.6856028290168
  0
ENDBLK
  5
5B
330
59
100
AcDbEntity
  8
0
100
AcDbBlockEnd
  0
BLOCK
  5
5D
330
5C
100
AcDbEntity
  8
0
100
AcDbBlockBegin
  2
V97G-H2
 70
     0
 10
728.2826524475222
 20
99.78920892163114
 30
0.0
  3
V97G-H2
  1

  0
LINE
  5
13F
330
5C
100
AcDbEntity
  8
0
  6
Continuous
 62
     7
100
AcDbLine
 10
252.3769194920424
 20
226.5931147933652
 30
0.0
 11
255.5769194920413
 21
221.0505522091448
 31
0.0
  0
LINE
  5
140
330
5C
100
AcDbEntity
  8
1
  6
Continuous
 62
     7
100
AcDbLine
 10
258.8769194920424
 20
215.3347845441681
 30
0.0
 11
258.9202207622329
 21
215.3597845441682
 31
0.0
  0
LINE
  5
141
330
5C
100
AcDbEntity
  8
1
  6
Continuous
 62
     7
100
AcDbLine
 10
252.3769194920424
 20
226.5931147933652
 30
0.0
 11
252.4202207622329
 21
226.6181147933648
 31
0.0
  0
LINE
  5
142
330
5C
100
AcDbEntity
  8
0
  6
Continuous
 62
     7
100
AcDbLine
 10
255.5769194920413
 20
221.0505522091448
 30
0.0
 11
258.8769194920424
 21
215.3347845441681
 31
0.0
  0
SPLINE
  5
143
330
5C
100
AcDbEntity
  8
1
  6
Continuous
 62
     7
100
AcDbSpline
210
0.0
220
0.0
230
1.0
 70
     8
 71
     3
 72
    19
 73
    15
 74
    13
 42
0.000000001
 43
0.0000000001
 44
0.00000001
 40
0.0
 40
0.0
 40
0.0
 40
0.0
 40
0.35119050523516
 40
0.7014060418747838
 40
1.043339730679422
 40
1.386021090381062
 40
1.720687135096052
 40
2.054915713087827
 40
2.383264773694795
 40
2.712016816591118
 40
3.037805187544491
 40
3.362896969481348
 40
3.553452679133848
 40
3.744221616036843
 40
3.744221616036843
 40
3.744221616036843
 40
3.744221616036843
 10
164.3315479920329
 20
219.4969103376952
 30
0.0
 10
164.2402549798563
 20
219.5701842067048
 30
0.0
 10
164.0579224107401
 20
219.7165285344831
 30
0.0
 10
163.7989640644752
 20
219.9493927631195
 30
0.0
 10
163.5691858655619
 20
220.2076087217759
 30
0.0
 10
163.3689917213175
 20
220.4826850043822
 30
0.0
 10
163.1948640962521
 20
220.7719469914335
 30
0.0
 10
163.0505110286158
 20
221.0719818371729
 30
0.0
 10
162.9375687462577
 20
221.3831000389474
 30
0.0
 10
162.8559949916705
 20
221.7009232817429
 30
0.0
 10
162.8050223801072
 20
222.0239741431384
 30
0.0
 10
162.7911331156668
 20
222.3048182595606
 30
0.0
 10
162.8022977067114
 20
222.5401431855279
 30
0.0
 10
162.812851399445
 20
222.6668133473207
 30
0.0
 10
162.8181312036613
 20
222.730183843064
 30
0.0
 11
164.3315479920329
 21
219.4969103376952
 31
0.0
 11
164.0597353489444
 21
219.7192898738055
 31
0.0
 11
163.8015436082715
 21
219.955907598147
 31
0.0
 11
163.5737301764391
 21
220.2108971824775
 31
0.0
 11
163.3716254774117
 21
220.4876356966852
 31
0.0
 11
163.1993738525352
 21
220.7745690332155
 31
0.0
 11
163.0548564443016
 21
221.0759383441
 31
0.0
 11
162.9426904822262
 21
221.3845350114201
 31
0.0
 11
162.8608613757315
 21
221.7029402621452
 31
0.0
 11
162.8107792607576
 21
222.0248561598969
 31
0.0
 11
162.7955347136813
 21
222.3495903148209
 31
0.0
 11
162.8034248188844
 21
222.5399826070832
 31
0.0
 11
162.8181312036613
 21
222.730183843064
 31
0.0
  0
SPLINE
  5
144
330
5C
100
AcDbEntity
  8
1
  6
Continuous
 62
     7
100
AcDbSpline
210
0.0
220
0.0
230
1.0
 70
     8
 71
     3
 72
    19
 73
    15
 74
    13
 42
0.000000001
 43
0.0000000001
 44
0.00000001
 40
0.0
 40
0.0
 40
0.0
 40
0.0
 40
0.3511905052339821
 40
0.7014060418733127
 40
1.04333973068208
 40
1.386021090386607
 40
1.720687135097803
 40
2.054915713087325
 40
2.38326477369726
 40
2.712016816594769
 40
3.037805187546663
 40
3.362896969483816
 40
3.553452679136242
 40
3.744221616038609
 40
3.744221616038609
 40
3.744221616038609
 40
3.744221616038609
 10
169.8595214353318
 20
219.4969103376952
 30
0.0
 10
169.9508144475075
 20
219.5701842067052
 30
0.0
 10
170.1331470166222
 20
219.7165285344848
 30
0.0
 10
170.3921053628878
 20
219.9493927631214
 30
0.0
 10
170.621883561808
 20
220.2076087217744
 30
0.0
 10
170.8220777060567
 20
220.4826850043793
 30
0.0
 10
170.9962053311152
 20
220.7719469914338
 30
0.0
 10
171.1405583987456
 20
221.0719818371744
 30
0.0
 10
171.2535006811116
 20
221.3831000389466
 30
0.0
 10
171.3350744357057
 20
221.7009232817415
 30
0.0
 10
171.38604704726
 20
222.0239741431388
 30
0.0
 10
171.399936311694
 20
222.3048182595604
 30
0.0
 10
171.3887717206549
 20
222.5401431855276
 30
0.0
 10
171.3782180279263
 20
222.6668133473208
 30
0.0
 10
171.3729382237125
 20
222.730183843064
 30
0.0
 11
169.8595214353318
 21
219.4969103376952
 31
0.0
 11
170.131334078418
 21
219.7192898738065
 31
0.0
 11
170.3895258190914
 21
219.955907598147
 31
0.0
 11
170.6173392509307
 21
220.2108971824768
 31
0.0
 11
170.8194439499621
 21
220.4876356966852
 31
0.0
 11
170.991695574832
 21
220.774569033215
 31
0.0
 11
171.1362129830613
 21
221.0759383440991
 31
0.0
 11
171.248378945143
 21
221.38453501142
 31
0.0
 11
171.3302080516423
 21
221.7029402621452
 31
0.0
 11
171.3802901666098
 21
222.0248561598964
 31
0.0
 11
171.3955347136816
 21
222.3495903148209
 31
0.0
 11
171.3876446084823
 21
222.5399826070833
 31
0.0
 11
171.3729382237125
 21
222.730183843064
 31
0.0
  0
SPLINE
  5
145
330
5C
100
AcDbEntity
  8
1
  6
Continuous
 62
     7
100
AcDbSpline
210
0.0
220
0.0
230
1.0
 70
     8
 71
     3
 72
    19
 73
    15
 74
    13
 42
0.000000001
 43
0.0000000001
 44
0.00000001
 40
0.0
 40
0.0
 40
0.0
 40
0.0
 40
0.1108484316652225
 40
0.2216991381470148
 40
0.7145338740350125
 40
1.207825855859464
 40
1.689478503365612
 40
2.170736437395311
 40
2.639991960444779
 40
3.109874384470508
 40
3.569577369797003
 40
4.027912444743983
 40
4.48176410841024
 40
4.937281826043195
 40
4.937281826043195
 40
4.937281826043195
 40
4.937281826043195
 10
164.3455347136824
 20
216.4432976334192
 30
0.0
 10
164.3120969561158
 20
216.4590201662914
 30
0.0
 10
164.2452207609269
 20
216.490465567714
 30
0.0
 10
164.0306895624791
 20
216.5939354045488
 30
0.0
 10
163.7098764601406
 20
216.7704849269101
 30
0.0
 10
163.3023152626341
 20
217.0421420662256
 30
0.0
 10
162.921332203155
 20
217.3438103598691
 30
0.0
 10
162.5734742421901
 20
217.6716999537554
 30
0.0
 10
162.259448939789
 20
218.0268947094484
 30
0.0
 10
161.9823434178741
 20
218.4026263470177
 30
0.0
 10
161.740463517225
 20
218.797712939998
 30
0.0
 10
161.5430223359082
 20
219.2114886416293
 30
0.0
 10
161.3994628617148
 20
219.645024765304
 30
0.0
 10
161.3221995023207
 20
219.9381282545191
 30
0.0
 10
161.2834970526328
 20
220.0849484982418
 30
0.0
 11
164.3455347136824
 21
216.4432976334192
 31
0.0
 11
164.2452997873525
 21
216.4906298048874
 31
0.0
 11
164.1455347136816
 21
216.5389496687662
 31
0.0
 11
163.7136505111877
 21
216.7763567319355
 31
0.0
 11
163.3030878165318
 21
217.0498073745689
 31
0.0
 11
162.9257434764733
 21
217.3491408384302
 31
0.0
 11
162.5758724992829
 21
217.6795943133302
 31
0.0
 11
162.2649771816588
 21
218.0310837840958
 31
0.0
 11
161.9859848313517
 21
218.409174727602
 31
0.0
 11
161.7472128630185
 21
218.802003930332
 31
0.0
 11
161.5513482510523
 21
219.2163806856829
 31
0.0
 11
161.4041679618211
 21
219.6457049170505
 31
0.0
 11
161.2834970526328
 21
220.0849484982418
 31
0.0
  0
SPLINE
  5
146
330
5C
100
AcDbEntity
  8
1
  6
Continuous
 62
     7
100
AcDbSpline
210
0.0
220
0.0
230
1.0
 70
     8
 71
     3
 72
    19
 73
    15
 74
    13
 42
0.000000001
 43
0.0000000001
 44
0.00000001
 40
0.0
 40
0.0
 40
0.0
 40
0.0
 40
0.1108484316643987
 40
0.2216991381452708
 40
0.7145338740340605
 40
1.207825855859206
 40
1.689478503365486
 40
2.170736437395107
 40
2.639991960443666
 40
3.109874384469067
 40
3.56957736979862
 40
4.027912444747781
 40
4.481764108412347
 40
4.937281826044438
 40
4.937281826044438
 40
4.937281826044438
 40
4.937281826044438
 10
169.8455347136824
 20
216.4432976334192
 30
0.0
 10
169.8789724712486
 20
216.4590201662915
 30
0.0
 10
169.945848666437
 20
216.4904655677141
 30
0.0
 10
170.1603798648841
 20
216.5939354045495
 30
0.0
 10
170.4811929672228
 20
216.7704849269106
 30
0.0
 10
170.8887541647305
 20
217.0421420662254
 30
0.0
 10
171.2697372242102
 20
217.3438103598686
 30
0.0
 10
171.6175951851746
 20
217.671699953755
 30
0.0
 10
171.9316204875735
 20
218.0268947094495
 30
0.0
 10
172.2087260094883
 20
218.4026263470192
 30
0.0
 10
172.4506059101441
 20
218.7977129399973
 30
0.0
 10
172.6480470914665
 20
219.2114886416276
 30
0.0
 10
172.791606565657
 20
219.6450247653033
 30
0.0
 10
172.8688699250464
 20
219.9381282545188
 30
0.0
 10
172.9075723747319
 20
220.0849484982418
 30
0.0
 11
169.8455347136824
 21
216.4432976334192
 31
0.0
 11
169.9457696400114
 21
216.4906298048875
 31
0.0
 11
170.0455347136813
 21
216.5389496687662
 31
0.0
 11
170.4774189161758
 21
216.776356731936
 31
0.0
 11
170.8879816108329
 21
217.0498073745689
 31
0.0
 11
171.2653259508919
 21
217.3491408384298
 31
0.0
 11
171.6151969280818
 21
217.6795943133302
 31
0.0
 11
171.9260922457038
 21
218.0310837840964
 31
0.0
 11
172.2050845960112
 21
218.409174727602
 31
0.0
 11
172.4438565643505
 21
218.8020039303318
 31
0.0
 11
172.6397211763215
 21
219.2163806856829
 31
0.0
 11
172.78690146555
 21
219.6457049170496
 31
0.0
 11
172.9075723747319
 21
220.0849484982418
 31
0.0
  0
ENDBLK
  5
5E
330
5C
100
AcDbEntity
  8
0
100
AcDbBlockEnd
  0
BLOCK
  5
60
330
5F
100
AcDbEntity
  8
0
100
AcDbBlockBegin
  2
V972GN-H2
 70
     0
 10
920.2317612857423
 20
214.3406502490579
 30
0.0
  3
V972GN-H2
  1

  0
LINE
  5
147
330
5F
100
AcDbEntity
  8
0
  6
Continuous
 62
     7
100
AcDbLine
 10
268.8577161360117
 20
238.3022381951409
 30
0.0
 11
266.9533928319725
 21
237.2027766229289
 31
0.0
  0
LINE
  5
148
330
5F
100
AcDbEntity
  8
1
  6
Continuous
 62
     7
100
AcDbLine
 10
159.245534713682
 20
357.015208163336
 30
0.0
 11
159.245534713682
 21
364.7875441275842
 31
0.0
  0
LINE
  5
149
330
5F
100
AcDbEntity
  8
1
  6
Continuous
 62
     7
100
AcDbLine
 10
174.9455347136827
 20
357.015208163336
 30
0.0
 11
174.9455347136827
 21
364.349943800305
 31
0.0
  0
LINE
  5
14A
330
5F
100
AcDbEntity
  8
0
  6
Continuous
 62
     7
100
AcDbLine
 10
158.745534713682
 20
227.7056209371021
 30
0.0
 11
158.745534713682
 21
229.9306209371021
 31
0.0
  0
LINE
  5
14B
330
5F
100
AcDbEntity
  8
0
  6
Continuous
 62
     7
100
AcDbLine
 10
175.4455347136827
 20
227.7056209371021
 30
0.0
 11
175.4455347136827
 21
229.9306209371021
 31
0.0
  0
LINE
  5
14C
330
5F
100
AcDbEntity
  8
0
  6
Continuous
 62
     7
100
AcDbLine
 10
159.2955347136813
 20
219.1806209371021
 30
0.0
 11
159.2955347136813
 21
224.4306209371021
 31
0.0
  0
LINE
  5
14D
330
5F
100
AcDbEntity
  8
0
  6
Continuous
 62
     7
100
AcDbLine
 10
174.8955347136816
 20
219.1806209371021
 30
0.0
 11
174.8955347136816
 21
224.4306209371021
 31
0.0
  0
LINE
  5
14E
330
5F
100
AcDbEntity
  8
0
  6
Continuous
 62
     7
100
AcDbLine
 10
261.8192243374524
 20
234.2385630605559
 30
0.0
 11
263.9365637133215
 21
233.6712236846902
 31
0.0
  0
LINE
  5
14F
330
5F
100
AcDbEntity
  8
0
  6
Continuous
 62
     7
100
AcDbLine
 10
270.219224337452
 20
219.689336276977
 30
0.0
 11
270.7865637133218
 21
221.8066756528428
 31
0.0
  0
LINE
  5
150
330
5F
100
AcDbEntity
  8
0
  6
Continuous
 62
     7
100
AcDbLine
 10
269.3965002038622
 20
219.214336276978
 30
0.0
 11
270.219224337452
 21
219.689336276977
 31
0.0
  0
LINE
  5
151
330
5F
100
AcDbEntity
  8
0
  6
Continuous
 62
     7
100
AcDbLine
 10
261.8192243374524
 20
234.2385630605559
 30
0.0
 11
260.9965002038625
 21
233.763563060556
 31
0.0
  0
LINE
  5
152
330
5F
100
AcDbEntity
  8
0
  6
Continuous
 62
     7
100
AcDbLine
 10
259.8550283833629
 20
214.3406502490589
 30
0.0
 11
268.6884875019714
 21
219.4406502490592
 31
0.0
  0
LINE
  5
153
330
5F
100
AcDbEntity
  8
0
  6
Continuous
 62
     7
100
AcDbLine
 10
252.0050283833625
 20
227.9372490884739
 30
0.0
 11
260.8384875019729
 21
233.0372490884738
 31
0.0
  0
LINE
  5
154
330
5F
100
AcDbEntity
  8
0
  6
Continuous
 62
     7
100
AcDbLine
 10
251.8952207622315
 20
227.527441467339
 30
0.0
 11
252.0050283833625
 21
227.9372490884739
 31
0.0
  0
LINE
  5
155
330
5F
100
AcDbEntity
  8
0
  6
Continuous
 62
     7
100
AcDbLine
 10
259.4452207622326
 20
214.450457870194
 30
0.0
 11
259.8550283833629
 21
214.3406502490589
 31
0.0
  0
LINE
  5
156
330
5F
100
AcDbEntity
  8
0
  6
Continuous
 62
     7
100
AcDbLine
 10
260.8384875019729
 20
233.0372490884738
 30
0.0
 11
260.9965002038625
 21
233.763563060556
 31
0.0
  0
LINE
  5
157
330
5F
100
AcDbEntity
  8
0
  6
Continuous
 62
     7
100
AcDbLine
 10
268.6884875019714
 20
219.4406502490592
 30
0.0
 11
269.3965002038622
 21
219.214336276978
 31
0.0
  0
LINE
  5
158
330
5F
100
AcDbEntity
  8
0
  6
Continuous
 62
     7
100
AcDbLine
 10
251.8952207622315
 20
227.527441467339
 30
0.0
 11
259.4452207622326
 21
214.450457870194
 31
0.0
  0
LINE
  5
159
330
5F
100
AcDbEntity
  8
0
  6
Continuous
 62
     7
100
AcDbLine
 10
263.9365637133215
 20
233.6712236846902
 30
0.0
 11
265.6686145208914
 21
234.6712236846902
 31
0.0
  0
LINE
  5
15A
330
5F
100
AcDbEntity
  8
0
  6
Continuous
 62
     7
100
AcDbLine
 10
270.7865637133218
 20
221.8066756528428
 30
0.0
 11
272.5186145208918
 21
222.8066756528428
 31
0.0
  0
LINE
  5
15B
330
5F
100
AcDbEntity
  8
0
  6
Continuous
 62
     7
100
AcDbLine
 10
273.6991522013923
 20
222.4903515347201
 30
0.0
 11
272.5186145208918
 21
222.8066756528428
 31
0.0
  0
LINE
  5
15C
330
5F
100
AcDbEntity
  8
0
  6
Continuous
 62
     7
100
AcDbLine
 10
266.0215411793924
 20
235.9883639055652
 30
0.0
 11
265.6686145208914
 21
234.6712236846902
 31
0.0
  0
LINE
  5
15D
330
5F
100
AcDbEntity
  8
0
  6
Continuous
 62
     7
100
AcDbLine
 10
275.6716809964328
 20
242.2362826415542
 30
0.0
 11
271.0227796454728
 21
239.5522381951409
 31
0.0
  0
LINE
  5
15E
330
5F
100
AcDbEntity
  8
0
  6
Continuous
 62
     7
100
AcDbLine
 10
276.6706967266728
 20
223.5295656513958
 30
0.0
 11
275.2167902915917
 21
222.6901523797292
 31
0.0
  0
LINE
  5
15F
330
5F
100
AcDbEntity
  8
1
  6
Continuous
 62
     7
100
AcDbLine
 10
260.8384875019729
 20
233.0372490884738
 30
0.0
 11
268.6884875019714
 21
219.4406502490592
 31
0.0
  0
LINE
  5
160
330
5F
100
AcDbEntity
  8
1
  6
Continuous
 62
     7
100
AcDbLine
 10
269.3965002038622
 20
219.214336276978
 30
0.0
 11
260.9965002038625
 21
233.763563060556
 31
0.0
  0
LINE
  5
161
330
5F
100
AcDbEntity
  8
1
  6
Continuous
 62
     7
100
AcDbLine
 10
261.8192243374524
 20
234.2385630605559
 30
0.0
 11
270.219224337452
 21
219.689336276977
 31
0.0
  0
LINE
  5
162
330
5F
100
AcDbEntity
  8
1
  6
Continuous
 62
     7
100
AcDbLine
 10
270.7865637133218
 20
221.8066756528428
 30
0.0
 11
263.9365637133215
 21
233.6712236846902
 31
0.0
  0
LINE
  5
163
330
5F
100
AcDbEntity
  8
1
  6
Continuous
 62
     7
100
AcDbLine
 10
265.6686145208914
 20
234.6712236846902
 30
0.0
 11
272.5186145208918
 21
222.8066756528428
 31
0.0
  0
LINE
  5
164
330
5F
100
AcDbEntity
  8
1
  6
Continuous
 62
     7
100
AcDbLine
 10
259.8550283833629
 20
214.3406502490589
 30
0.0
 11
252.0050283833625
 21
227.9372490884739
 31
0.0
  0
ARC
  5
165
330
5F
100
AcDbEntity
  8
0
  6
Continuous
 62
     7
100
AcDbCircle
 10
167.0955347136824
 20
235.1741046007019
 30
0.0
 40
8.000000000000002
100
AcDbArc
 50
0.00000153524123
 51
180.0000015352319
  0
ARC
  5
166
330
5F
100
AcDbEntity
  8
0
  6
Continuous
 62
     7
100
AcDbCircle
 10
165.1520618611521
 20
229.9306209371021
 30
0.0
 40
7.906527147472068
100
AcDbArc
 50
132.3950538642042
 51
215.6540866446704
  0
ARC
  5
167
330
5F
100
AcDbEntity
  8
0
  6
Continuous
 62
     7
100
AcDbCircle
 10
167.0955347136824
 20
227.801877393365
 30
0.0
 40
10.78899758158595
100
AcDbArc
 50
47.60494920624785
 51
132.395053864172
  0
ARC
  5
168
330
5F
100
AcDbEntity
  8
0
  6
Continuous
 62
     7
100
AcDbCircle
 10
169.0390075662126
 20
229.9306209371021
 30
0.0
 40
7.906527147473718
100
AcDbArc
 50
324.3459102848875
 51
47.60494920624588
  0
ARC
  5
169
330
5F
100
AcDbEntity
  8
0
  6
Continuous
 62
     7
100
AcDbCircle
 10
165.2772247964822
 20
229.9306209371021
 30
0.0
 40
6.531690082796702
100
AcDbArc
 50
132.0899601424115
 51
180.0000030704724
  0
ARC
  5
16A
330
5F
100
AcDbEntity
  8
0
  6
Continuous
 62
     7
100
AcDbCircle
 10
167.0955347136824
 20
227.9175483053068
 30
0.0
 40
9.244384753397505
100
AcDbArc
 50
47.91004292798509
 51
132.0899601424561
  0
ARC
  5
16B
330
5F
100
AcDbEntity
  8
0
  6
Continuous
 62
     7
100
AcDbCircle
 10
168.9138446308825
 20
229.9306209371021
 30
0.0
 40
6.531690082800196
100
AcDbArc
 50
0.0
 51
47.91004292802644
  0
ARC
  5
16C
330
5F
100
AcDbEntity
  8
0
  6
Continuous
 62
     7
100
AcDbCircle
 10
165.2772247964822
 20
227.7056209371021
 30
0.0
 40
6.531690082796765
100
AcDbArc
 50
132.089960142411
 51
191.26348224071
  0
ARC
  5
16D
330
5F
100
AcDbEntity
  8
0
  6
Continuous
 62
     7
100
AcDbCircle
 10
167.0955347136824
 20
225.6925483053069
 30
0.0
 40
9.244384753397526
100
AcDbArc
 50
47.9100429279852
 51
132.0899601424578
  0
ARC
  5
16E
330
5F
100
AcDbEntity
  8
0
  6
Continuous
 62
     7
100
AcDbCircle
 10
168.9138446308825
 20
227.7056209371021
 30
0.0
 40
6.531690082798038
100
AcDbArc
 50
348.7365146888185
 51
47.9100429280271
  0
ARC
  5
16F
330
5F
100
AcDbEntity
  8
0
  6
Continuous
 62
     7
100
AcDbCircle
 10
167.0955347136824
 20
225.2912324465378
 30
0.0
 40
7.528361236301855
100
AcDbArc
 50
49.32552560556128
 51
130.6744774648529
  0
ARC
  5
170
330
5F
100
AcDbEntity
  8
0
  6
Continuous
 62
     7
100
AcDbCircle
 10
165.2772247964822
 20
225.155620937102
 30
0.0
 40
6.531690082796048
100
AcDbArc
 50
132.0899601424167
 51
184.1587765177201
  0
ARC
  5
171
330
5F
100
AcDbEntity
  8
0
  6
Continuous
 62
     7
100
AcDbCircle
 10
168.9138446308825
 20
225.155620937102
 30
0.0
 40
6.531690082804505
100
AcDbArc
 50
355.8412204118079
 51
47.91004292802659
  0
ARC
  5
172
330
5F
100
AcDbEntity
  8
0
  6
Continuous
 62
     7
100
AcDbCircle
 10
167.0955347136824
 20
223.1425483053072
 30
0.0
 40
9.244384753397146
100
AcDbArc
 50
47.91004292798307
 51
132.0899601424578
  0
ARC
  5
173
330
5F
100
AcDbEntity
  8
0
  6
Continuous
 62
     7
100
AcDbCircle
 10
168.9138446308825
 20
224.6806209371021
 30
0.0
 40
6.531690082805655
100
AcDbArc
 50
336.6731607824085
 51
47.91004292802644
  0
ARC
  5
174
330
5F
100
AcDbEntity
  8
0
  6
Continuous
 62
     7
100
AcDbCircle
 10
167.0955347136824
 20
222.6675483053068
 30
0.0
 40
9.244384753397505
100
AcDbArc
 50
47.91004292798509
 51
132.0899601424561
  0
ARC
  5
175
330
5F
100
AcDbEntity
  8
0
  6
Continuous
 62
     7
100
AcDbCircle
 10
165.2772247964822
 20
224.6806209371021
 30
0.0
 40
6.531690082796702
100
AcDbArc
 50
132.0899601424115
 51
203.3268361471757
  0
ARC
  5
176
330
5F
100
AcDbEntity
  8
0
  6
Continuous
 62
     7
100
AcDbCircle
 10
165.3969937131915
 20
224.4306209371021
 30
0.0
 40
6.101458999508497
100
AcDbArc
 50
132.0899601425207
 51
180.0000030704707
  0
ARC
  5
177
330
5F
100
AcDbEntity
  8
0
  6
Continuous
 62
     7
100
AcDbCircle
 10
167.0955347136824
 20
222.5501459038082
 30
0.0
 40
8.635473182812913
100
AcDbArc
 50
47.91004292799793
 51
132.0899601424643
  0
ARC
  5
178
330
5F
100
AcDbEntity
  8
0
  6
Continuous
 62
     7
100
AcDbCircle
 10
168.7940757141823
 20
224.4306209371021
 30
0.0
 40
6.1014589994993
100
AcDbArc
 50
0.0
 51
47.91004292804568
  0
ARC
  5
179
330
5F
100
AcDbEntity
  8
0
  6
Continuous
 62
     7
100
AcDbCircle
 10
167.0955347136824
 20
217.3001459038082
 30
0.0
 40
8.635473182812913
100
AcDbArc
 50
47.91004292799793
 51
132.0899601424643
  0
ARC
  5
17A
330
5F
100
AcDbEntity
  8
0
  6
Continuous
 62
     7
100
AcDbCircle
 10
165.3969937131915
 20
219.1806209371021
 30
0.0
 40
6.101458999508497
100
AcDbArc
 50
132.0899601425207
 51
227.9100398574855
  0
ARC
  5
17B
330
5F
100
AcDbEntity
  8
0
  6
Continuous
 62
     7
100
AcDbCircle
 10
167.0955347136824
 20
217.853087644764
 30
0.0
 40
6.487083174670714
100
AcDbArc
 50
47.7134915828812
 51
132.2865114875197
  0
ARC
  5
17C
330
5F
100
AcDbEntity
  8
0
  6
Continuous
 62
     7
100
AcDbCircle
 10
167.0955347136824
 20
217.3651175577329
 30
0.0
 40
7.315503379368979
100
AcDbArc
 50
48.37814388143716
 51
131.6218591890119
  0
ARC
  5
17D
330
5F
100
AcDbEntity
  8
0
  6
Continuous
 62
     7
100
AcDbCircle
 10
165.482416469602
 20
219.1806209371021
 30
0.0
 40
4.886881755920395
100
AcDbArc
 50
131.6218591890483
 51
228.3781408109526
  0
ARC
  5
17E
330
5F
100
AcDbEntity
  8
0
  6
Continuous
 62
     7
100
AcDbCircle
 10
165.8881436237425
 20
219.1806209371021
 30
0.0
 40
4.692608910059475
100
AcDbArc
 50
132.2865114875396
 51
227.7134885124727
  0
ARC
  5
17F
330
5F
100
AcDbEntity
  8
0
  6
Continuous
 62
     7
100
AcDbCircle
 10
167.0955347136824
 20
221.0610959703949
 30
0.0
 40
8.635473182811653
100
AcDbArc
 50
227.9100398575312
 51
256.5597506163998
  0
ARC
  5
180
330
5F
100
AcDbEntity
  8
0
  6
Continuous
 62
     7
100
AcDbCircle
 10
167.0955347136824
 20
221.0610959703949
 30
0.0
 40
8.635473182811218
100
AcDbArc
 50
283.4402463131267
 51
312.0899570720067
  0
ARC
  5
181
330
5F
100
AcDbEntity
  8
0
  6
Continuous
 62
     7
100
AcDbCircle
 10
168.7940757141823
 20
219.1806209371021
 30
0.0
 40
6.101458999500076
100
AcDbArc
 50
312.089957071948
 51
47.91004292804568
  0
ARC
  5
182
330
5F
100
AcDbEntity
  8
0
  6
Continuous
 62
     7
100
AcDbCircle
 10
167.0955347136824
 20
220.5081542294392
 30
0.0
 40
6.487083174665648
100
AcDbArc
 50
295.0822801365257
 51
312.2865084171188
  0
ARC
  5
183
330
5F
100
AcDbEntity
  8
0
  6
Continuous
 62
     7
100
AcDbCircle
 10
168.7086529577628
 20
219.1806209371021
 30
0.0
 40
4.886881755920228
100
AcDbArc
 50
311.621856118579
 51
48.37814388142014
  0
ARC
  5
184
330
5F
100
AcDbEntity
  8
0
  6
Continuous
 62
     7
100
AcDbCircle
 10
168.3029258036222
 20
219.1806209371021
 30
0.0
 40
4.692608910059056
100
AcDbArc
 50
312.2865084170517
 51
47.71349158294731
  0
ARC
  5
185
330
5F
100
AcDbEntity
  8
0
  6
Continuous
 62
     7
100
AcDbCircle
 10
167.0955347136824
 20
220.9961243164698
 30
0.0
 40
7.31550337936807
100
AcDbArc
 50
292.0808137219545
 51
311.6218561185701
  0
ARC
  5
186
330
5F
100
AcDbEntity
  8
0
  6
Continuous
 62
     7
100
AcDbCircle
 10
267.9533928319725
 20
235.4707258153599
 30
0.0
 40
2.00000000000009
100
AcDbArc
 50
119.9999999999985
 51
165.0000000000081
  0
ARC
  5
187
330
5F
100
AcDbEntity
  8
0
  6
Continuous
 62
     7
100
AcDbCircle
 10
274.2167902915917
 20
224.4222031872982
 30
0.0
 40
1.999999999998507
100
AcDbArc
 50
255.0000000001559
 51
299.9999999999981
  0
ARC
  5
188
330
5F
100
AcDbEntity
  8
0
  6
Continuous
 62
     7
100
AcDbCircle
 10
279.1716809964328
 20
236.174104815063
 30
0.0
 40
6.999999999998002
100
AcDbArc
 50
110.9334578668073
 51
119.9999999999995
  0
ARC
  5
189
330
5F
100
AcDbEntity
  8
0
  6
Continuous
 62
     7
100
AcDbCircle
 10
167.0955347136824
 20
220.5081542294392
 30
0.0
 40
6.487083174663022
100
AcDbArc
 50
227.7134885124803
 51
244.9177198634743
  0
ARC
  5
18A
330
5F
100
AcDbEntity
  8
0
  6
Continuous
 62
     7
100
AcDbCircle
 10
167.0955347136824
 20
220.9961243164698
 30
0.0
 40
7.315503379366484
100
AcDbArc
 50
228.3781408109881
 51
247.9191862780455
  0
SPLINE
  5
18B
330
5F
100
AcDbEntity
  8
1
  6
Continuous
 62
     7
100
AcDbSpline
210
0.0
220
0.0
230
1.0
 70
     8
 71
     3
 72
    31
 73
    27
 74
    25
 42
0.000000001
 43
0.0000000001
 44
0.00000001
 40
0.0
 40
0.0
 40
0.0
 40
0.0
 40
0.1361405060764934
 40
0.2722590438804156
 40
0.813201787093951
 40
1.354781737629157
 40
1.948948841951777
 40
2.54285470691608
 40
3.179704002697034
 40
3.816669049175061
 40
4.483624824294997
 40
5.150550119296389
 40
5.832927816939345
 40
6.515321778927174
 40
7.197715856396247
 40
7.880093452121667
 40
8.547018256567632
 40
9.21397447840199
 40
9.85094097166409
 40
10.48778899509534
 40
11.08169118956456
 40
11.67586128188891
 40
12.21744854601132
 40
12.75838697114236
 40
12.90317021669363
 40
13.04798030824462
 40
13.04798030824462
 40
13.04798030824462
 40
13.04798030824462
 10
173.3396459407322
 20
363.470354118957
 30
0.0
 10
173.3013879716128
 20
363.445947074751
 30
0.0
 10
173.2248781992257
 20
363.3971369367664
 30
0.0
 10
172.9946525176408
 20
363.2540317142141
 30
0.0
 10
172.6372285673276
 20
363.0598069725652
 30
0.0
 10
172.1273750457154
 20
362.8300454978376
 30
0.0
 10
171.5883663452169
 20
362.6244456557125
 30
0.0
 10
171.0083095024663
 20
362.4402371509028
 30
0.0
 10
170.4053658624747
 20
362.2839396493019
 30
0.0
 10
169.7714672054178
 20
362.1535528689291
 30
0.0
 10
169.1222345264725
 20
362.0515863180014
 30
0.0
 10
168.4539773495989
 20
361.9778837170318
 30
0.0
 10
167.7779785037434
 20
361.9334982105558
 30
0.0
 10
167.0955346770567
 20
361.918751845026
 30
0.0
 10
166.4130908731047
 20
361.9334978050855
 30
0.0
 10
165.7370921795988
 20
361.9778834867518
 30
0.0
 10
165.0688352052066
 20
362.0515875500133
 30
0.0
 10
164.4196020808573
 20
362.1535537942361
 30
0.0
 10
163.7857021650868
 20
362.2839353093864
 30
0.0
 10
163.1827596852755
 20
362.4402338607313
 30
0.0
 10
162.6027091047861
 20
362.6244604173569
 30
0.0
 10
162.0636978188077
 20
362.8300562292343
 30
0.0
 10
161.553816235763
 20
363.0597595004045
 30
0.0
 10
161.1938531746866
 20
363.2553787359098
 30
0.0
 10
160.9588708436148
 20
363.401778245449
 30
0.0
 10
160.8775852489601
 20
363.4538453386464
 30
0.0
 10
160.8369386877712
 20
363.4798813046
 30
0.0
 11
173.3396459407322
 21
363.470354118957
 31
0.0
 11
173.2247296264277
 21
363.3973576937697
 31
0.0
 11
173.1089835921721
 21
363.3257259139168
 31
0.0
 11
172.6344997905077
 21
363.0659487524699
 31
0.0
 11
172.1414174497222
 21
362.8419428426951
 31
0.0
 11
171.586435280894
 21
362.6297416656009
 31
0.0
 11
171.0205347136816
 21
362.4495175720831
 31
0.0
 11
170.4041936716486
 21
362.2892030537756
 31
0.0
 11
169.7803928387912
 21
362.160373745352
 31
0.0
 11
169.1215521833309
 21
362.0566481652178
 31
0.0
 11
168.4586729083712
 21
361.9832968513642
 31
0.0
 11
167.7777675689299
 21
361.938494616652
 31
0.0
 11
167.0955347136824
 21
361.923667281937
 31
0.0
 11
166.4133017363273
 21
361.9384943130142
 31
0.0
 11
165.7323965190026
 21
361.9832968513642
 31
0.0
 11
165.069517835363
 21
362.0566490487709
 31
0.0
 11
164.4106765885827
 21
362.160373745352
 31
0.0
 11
163.7868736517165
 21
362.2892000192413
 31
0.0
 11
163.1705347136813
 21
362.4495175720831
 31
0.0
 11
162.6046412561504
 21
362.6297518938367
 31
0.0
 11
162.0496519776425
 21
362.8419428426951
 31
0.0
 11
161.5565464617154
 21
363.0659154178772
 31
0.0
 11
161.0820858352017
 21
363.3257259139168
 31
0.0
 11
160.9590406639427
 21
363.4020284303978
 31
0.0
 11
160.8369386877712
 21
363.4798813046
 31
0.0
  0
SPLINE
  5
18C
330
5F
100
AcDbEntity
  8
1
  6
Continuous
 62
     7
100
AcDbSpline
210
0.0
220
0.0
230
1.0
 70
     8
 71
     3
 72
    43
 73
    39
 74
    37
 42
0.000000001
 43
0.0000000001
 44
0.00000001
 40
0.0
 40
0.0
 40
0.0
 40
0.0
 40
0.3483130057058485
 40
0.6928134299772557
 40
1.067092539204386
 40
1.44505428652417
 40
1.870376540132694
 40
2.29422150472789
 40
2.776573203800474
 40
3.259587483253113
 40
3.800895407928349
 40
4.342019352699136
 40
4.936023135267531
 40
5.530113430954753
 40
6.167023179661855
 40
6.803922582177266
 40
7.470857721885323
 40
8.137804899356027
 40
8.820190777381558
 40
9.50257632943303
 40
10.18496188148893
 40
10.867347759519
 40
11.53429493698982
 40
12.20123007669786
 40
12.8381294792079
 40
13.47503922790967
 40
14.06912952359769
 40
14.66313330616696
 40
15.20425725094191
 40
15.74556517562117
 40
16.22857945507021
 40
16.71093115413904
 40
17.13477611873378
 40
17.56009837234262
 40
17.93806011966572
 40
18.31233922889484
 40
18.65683965316477
 40
19.0051526588704
 40
19.0051526588704
 40
19.0051526588704
 40
19.0051526588704
 10
159.245534713682
 20
357.015208163336
 30
0.0
 10
159.2578079347356
 20
356.8997672971315
 30
0.0
 10
159.2822200489903
 20
356.670149164422
 30
0.0
 10
159.3555102960932
 20
356.3203471661722
 30
0.0
 10
159.5060866666647
 20
355.9842748291468
 30
0.0
 10
159.7220795375647
 20
355.6554182032314
 30
0.0
 10
159.9854956217638
 20
355.3412489914222
 30
0.0
 10
160.3070034942977
 20
355.0341567403487
 30
0.0
 10
160.672986864268
 20
354.749202685624
 30
0.0
 10
161.0954991888772
 20
354.4767639161233
 30
0.0
 10
161.5546569728028
 20
354.2278033324307
 30
0.0
 10
162.0636417263935
 20
353.9962292284175
 30
0.0
 10
162.6024955645047
 20
353.7905459475207
 30
0.0
 10
163.1827511622971
 20
353.6068825640487
 30
0.0
 10
163.785752388176
 20
353.4506079415808
 30
0.0
 10
164.4196114393123
 20
353.3200651102808
 30
0.0
 10
165.0688236807186
 20
353.2180927325512
 30
0.0
 10
165.7370883616383
 20
353.1444322015964
 30
0.0
 10
166.4130938196895
 20
353.1000458986549
 30
0.0
 10
167.0955347136839
 20
353.0852892818517
 30
0.0
 10
167.7779756076797
 20
353.1000458986548
 30
0.0
 10
168.453981065734
 20
353.1444322015963
 30
0.0
 10
169.1222457466553
 20
353.2180927325508
 30
0.0
 10
169.7714579880599
 20
353.3200651102803
 30
0.0
 10
170.4053170391924
 20
353.4506079415808
 30
0.0
 10
171.0083182650677
 20
353.6068825640493
 30
0.0
 10
171.5885738628588
 20
353.7905459475217
 30
0.0
 10
172.1274277009719
 20
353.9962292284182
 30
0.0
 10
172.6364124545669
 20
354.2278033324299
 30
0.0
 10
173.0955702384948
 20
354.4767639161213
 30
0.0
 10
173.5180825631018
 20
354.7492026856237
 30
0.0
 10
173.8840659330678
 20
355.0341567403495
 30
0.0
 10
174.2055738055992
 20
355.3412489914237
 30
0.0
 10
174.4689898897996
 20
355.655418203233
 30
0.0
 10
174.6849827607068
 20
355.9842748291454
 30
0.0
 10
174.8355591312835
 20
356.3203471661708
 30
0.0
 10
174.9088493783823
 20
356.6701491644217
 30
0.0
 10
174.9332614926317
 20
356.8997672971311
 30
0.0
 10
174.9455347136827
 20
357.015208163336
 30
0.0
 11
159.245534713682
 21
357.015208163336
 31
0.0
 11
159.2882112714859
 21
356.6695194814766
 31
0.0
 11
159.3647938525428
 21
356.3336390659929
 31
0.0
 11
159.5141714179503
 21
355.9904609842009
 31
0.0
 11
159.7189476405129
 21
355.672779100782
 31
0.0
 11
159.9915217701671
 21
355.346278929229
 31
0.0
 11
160.2972352939723
 21
355.0527081633359
 31
0.0
 11
160.676904734236
 21
354.7551946730196
 31
0.0
 11
161.0820858352017
 21
354.492266795316
 31
0.0
 11
161.5575000551908
 21
354.2334317359769
 31
0.0
 11
162.0496519776425
 21
354.0084837240938
 31
0.0
 11
162.6043486604599
 21
353.7959935294441
 31
0.0
 11
163.1705347136813
 21
353.6160584534819
 31
0.0
 11
163.786960456948
 21
353.4558294617652
 31
0.0
 11
164.4106765885827
 21
353.3269146267512
 31
0.0
 11
165.0694925712906
 21
353.2231650251369
 31
0.0
 11
165.7323965190026
 21
353.149837732763
 31
0.0
 11
166.4133103779196
 21
353.1050403980824
 31
0.0
 11
167.0955347136824
 21
353.0902081633362
 31
0.0
 11
167.7777590494497
 21
353.1050403980824
 31
0.0
 11
168.4586729083712
 21
353.149837732763
 31
0.0
 11
169.1215768560833
 21
353.2231650251366
 31
0.0
 11
169.7803928387912
 21
353.3269146267512
 31
0.0
 11
170.4041089704205
 21
353.4558294617652
 31
0.0
 11
171.0205347136816
 21
353.6160584534819
 31
0.0
 11
171.5867207669036
 21
353.7959935294448
 31
0.0
 11
172.1414174497222
 21
354.0084837240938
 31
0.0
 11
172.6335693721788
 21
354.2334317359761
 31
0.0
 11
173.1089835921721
 21
354.492266795316
 31
0.0
 11
173.5141646931337
 21
354.7551946730193
 31
0.0
 11
173.8938341333924
 21
355.0527081633359
 31
0.0
 11
174.1995476571961
 21
355.34627892923
 31
0.0
 11
174.4721217868519
 21
355.672779100782
 31
0.0
 11
174.6768980094212
 21
355.9904609842005
 31
0.0
 11
174.8262755748328
 21
356.3336390659929
 31
0.0
 11
174.9028581558861
 21
356.669519481476
 31
0.0
 11
174.9455347136827
 21
357.015208163336
 31
0.0
  0
SPLINE
  5
18D
330
5F
100
AcDbEntity
  8
1
  6
Continuous
 62
     7
100
AcDbSpline
210
0.0
220
0.0
230
1.0
 70
     8
 71
     3
 72
    27
 73
    23
 74
    21
 42
0.000000001
 43
0.0000000001
 44
0.00000001
 40
0.0
 40
0.0
 40
0.0
 40
0.0
 40
0.112249070404304
 40
0.2244927836442883
 40
0.7822115919963923
 40
1.34032821963663
 40
1.937594752920959
 40
2.534704114916434
 40
3.159444457118426
 40
3.784253655837459
 40
4.423229745715225
 40
5.062180641930823
 40
5.701130929281142
 40
6.340107518645524
 40
6.964919120042951
 40
7.589657408515542
 40
8.186760578380344
 40
8.784031980898243
 40
9.342160404371054
 40
9.899873006703743
 40
10.03352587500089
 40
10.16718910158213
 40
10.16718910158213
 40
10.16718910158213
 40
10.16718910158213
 10
162.1662249045421
 20
353.95547784574
 30
0.0
 10
162.2002856450978
 20
353.9399905102604
 30
0.0
 10
162.2684055065308
 20
353.9090165914336
 30
0.0
 10
162.50656533884
 20
353.8028795244665
 30
0.0
 10
162.8879347215428
 20
353.6530554557754
 30
0.0
 10
163.4316410604302
 20
353.4776604336422
 30
0.0
 10
163.9964237052463
 20
353.3273917765317
 30
0.0
 10
164.5898230406962
 20
353.2014498184723
 30
0.0
 10
165.1977562475575
 20
353.1033327150623
 30
0.0
 10
165.823496478218
 20
353.0325793573548
 30
0.0
 10
166.4565209144196
 20
352.9898815082022
 30
0.0
 10
167.0955345261238
 20
352.9756593395006
 30
0.0
 10
167.7345482116514
 20
352.9898847091125
 30
0.0
 10
168.3675733646374
 20
353.0325811017131
 30
0.0
 10
168.993315102812
 20
353.1033231337121
 30
0.0
 10
169.6012464970128
 20
353.2014429889618
 30
0.0
 10
170.1946364444782
 20
353.3274251042133
 30
0.0
 10
170.7594228351674
 20
353.477683951445
 30
0.0
 10
171.3031759036814
 20
353.6529436575223
 30
0.0
 10
171.6911908126346
 20
353.8054091631108
 30
0.0
 10
171.9421601515275
 20
353.9178704079591
 30
0.0
 10
172.0231416387371
 20
353.9550431518451
 30
0.0
 10
172.0636339483626
 20
353.9736302504639
 30
0.0
 11
162.1662249045421
 21
353.95547784574
 31
0.0
 11
162.268464985402
 21
353.9091440603853
 31
0.0
 11
162.3710457824927
 21
353.863582769427
 31
0.0
 11
162.8897178523918
 21
353.6585716657604
 31
0.0
 11
163.4205347136813
 21
353.4861546429142
 31
0.0
 11
163.9976475646822
 21
353.3323103434245
 31
0.0
 11
164.5816866602418
 21
353.208060898734
 31
0.0
 11
165.1983991640744
 21
353.1082301309109
 31
0.0
 11
165.8192206078329
 21
353.0377512745799
 31
0.0
 11
166.4567433988012
 21
352.9946800100835
 31
0.0
 11
167.0955347136824
 21
352.9804005422011
 31
0.0
 11
167.7343253659405
 21
352.9946824079516
 31
0.0
 11
168.3718488195318
 21
353.0377512745799
 31
0.0
 11
168.9926734739439
 21
353.1082231493617
 31
0.0
 11
169.6093827671321
 21
353.208060898734
 31
0.0
 11
170.1934104236127
 21
353.3323343528943
 31
0.0
 11
170.7705347136816
 21
353.4861546429142
 31
0.0
 11
171.3013903162051
 21
353.6584905566279
 31
0.0
 11
171.8200236448829
 21
353.863582769427
 31
0.0
 11
171.942073349712
 21
353.9180525662029
 31
0.0
 11
172.0636339483626
 21
353.9736302504639
 31
0.0
  0
SPLINE
  5
18E
330
5F
100
AcDbEntity
  8
0
  6
Continuous
 62
     7
100
AcDbSpline
210
0.0
220
0.0
230
1.0
 70
     8
 71
     3
 72
    35
 73
    31
 74
    29
 42
0.000000001
 43
0.0000000001
 44
0.00000001
 40
0.0
 40
0.0
 40
0.0
 40
0.0
 40
0.9447139900811581
 40
1.888800357790441
 40
2.224172378685981
 40
2.559544232234017
 40
2.899912403262775
 40
3.240280705599139
 40
3.57716297306871
 40
3.914047004938823
 40
4.321835494366959
 40
4.729631799329216
 40
5.10767269050179
 40
5.48569857947703
 40
5.678656364412031
 40
5.871614153571647
 40
6.194528535898828
 40
6.517446371620558
 40
6.818478216581039
 40
7.119513544588466
 40
7.526978091474479
 40
7.934443351553934
 40
8.272731739306952
 40
8.611017432314428
 40
8.958217310561356
 40
9.305416809152108
 40
9.653317287214065
 40
10.00122232299533
 40
10.83476844213083
 40
11.66852901293897
 40
11.66852901293897
 40
11.66852901293897
 40
11.66852901293897
 10
161.3762970270818
 20
364.028211063549
 30
0.0
 10
161.6659886130155
 20
363.9041890863186
 30
0.0
 10
162.2451793334861
 20
363.6562275404124
 30
0.0
 10
162.9570868294276
 20
363.4439331480252
 30
0.0
 10
163.478922086229
 20
363.3121115402598
 30
0.0
 10
163.8077808575919
 20
363.2380704999387
 30
0.0
 10
164.1399243585663
 20
363.1716004056
 30
0.0
 10
164.474041705065
 20
363.1128818104892
 30
0.0
 10
164.8082407962837
 20
363.0618557961993
 30
0.0
 10
165.1657600786008
 20
363.015240187285
 30
0.0
 10
165.547800669727
 20
362.9745702171895
 30
0.0
 10
165.9444195144872
 20
362.9424563029949
 30
0.0
 10
166.3317760959957
 20
362.9203524103507
 30
0.0
 10
166.6479614960111
 20
362.9095154007574
 30
0.0
 10
166.902575811521
 20
362.9051384174406
 30
0.0
 10
167.1388533659099
 20
362.9037894982856
 30
0.0
 10
167.4184554946902
 20
362.90646190984
 30
0.0
 10
167.7339653012322
 20
362.9155565063974
 30
0.0
 10
168.0419618302178
 20
362.9302210958297
 30
0.0
 10
168.3777623291345
 20
362.952336715775
 30
0.0
 10
168.7483751321295
 20
362.9847623275188
 30
0.0
 10
169.1303876768399
 20
363.0279788363276
 30
0.0
 10
169.4884017067128
 20
363.0771472495531
 30
0.0
 10
169.8254036821812
 20
363.1310525743013
 30
0.0
 10
170.1640095585092
 20
363.1932016584487
 30
0.0
 10
170.5041379732682
 20
363.264218925028
 30
0.0
 10
170.8426369822419
 20
363.343789020198
 30
0.0
 10
171.3354873317716
 20
363.4739789021283
 30
0.0
 10
171.9785229970624
 20
363.6718834298312
 30
0.0
 10
172.4906352026267
 20
363.8885811851068
 30
0.0
 10
172.7467242368221
 20
363.9969440063319
 30
0.0
 11
161.3762970270818
 21
364.028211063549
 31
0.0
 11
162.2517189385999
 21
363.673075878447
 31
0.0
 11
163.1540641999614
 21
363.3954572591871
 31
0.0
 11
163.4792730784118
 21
363.3135208415089
 31
0.0
 11
163.8064276962237
 21
363.2397364779248
 31
0.0
 11
164.1401718456384
 21
363.1729132895841
 31
0.0
 11
164.4753930294281
 21
363.1139443121232
 31
0.0
 11
164.8084119118876
 21
363.0630710735784
 31
0.0
 11
165.1424646773882
 21
363.0194866622968
 31
0.0
 11
165.5479577687945
 21
362.9762801239178
 31
0.0
 11
165.9544207199792
 21
362.9433302285187
 31
0.0
 11
166.3318470791431
 21
362.9217835644517
 31
0.0
 11
166.7096508326504
 21
362.908826077064
 31
0.0
 11
166.9025800799052
 21
362.905507599359
 31
0.0
 11
167.0955347136862
 21
362.9044041174242
 31
0.0
 11
167.4184342713727
 21
362.9074982862894
 31
0.0
 11
167.7412177913407
 21
362.916811061626
 31
0.0
 11
168.0419087941911
 21
362.931132109649
 31
0.0
 11
168.3422930846106
 21
362.9509196489544
 31
0.0
 11
168.748203172466
 21
362.9864774531486
 31
0.0
 11
169.1530807451745
 21
363.0323259996043
 31
0.0
 11
169.4882193940887
 21
363.078381610327
 31
0.0
 11
169.8222544300415
 21
363.1318400514319
 31
0.0
 11
170.1637381913303
 21
363.1945823547462
 31
0.0
 11
170.5036000411729
 21
363.2655852974627
 31
0.0
 11
170.8422387135647
 21
363.3453260655715
 31
0.0
 11
171.1786593938079
 21
363.4339772852913
 31
0.0
 11
171.9734783169014
 21
363.6850987935176
 31
0.0
 11
172.7467242368221
 21
363.9969440063319
 31
0.0
  0
SPLINE
  5
18F
330
5F
100
AcDbEntity
  8
0
  6
Continuous
 62
     7
100
AcDbSpline
210
0.0
220
0.0
230
1.0
 70
     8
 71
     3
 72
    47
 73
    43
 74
    41
 42
0.000000001
 43
0.0000000001
 44
0.00000001
 40
0.0
 40
0.0
 40
0.0
 40
0.0
 40
0.666841037375225
 40
1.333735363428781
 40
1.563663681582365
 40
1.793563237961921
 40
2.063314750054117
 40
2.333087190501186
 40
2.736047970984695
 40
3.139030204104177
 40
3.492270477708758
 40
3.845494943765898
 40
4.152106088332054
 40
4.458716167368847
 40
4.794022455932065
 40
5.12933505827916
 40
5.520194019276063
 40
5.911052939453727
 40
6.237559678538858
 40
6.564059931995536
 40
6.839622263323425
 40
7.115186285693328
 40
7.463163132195683
 40
7.811140053476657
 40
8.159435427142272
 40
8.507745633256453
 40
9.093708571544585
 40
9.679670409224373
 40
10.06827360697729
 40
10.45686296287223
 40
10.82366194222207
 40
11.19045583218952
 40
11.6278090058032
 40
12.06521488274983
 40
12.38059483352019
 40
12.69585799830524
 40
13.05477943856623
 40
13.41396627903427
 40
13.74518934843656
 40
14.07598960963975
 40
14.85581481873623
 40
15.6358590704253
 40
15.6358590704253
 40
15.6358590704253
 40
15.6358590704253
 10
159.748005452102
 20
364.2463538989741
 30
0.0
 10
159.9190313869304
 20
364.1039569578685
 30
0.0
 10
160.2610969374879
 20
363.8191517155213
 30
0.0
 10
160.7082895491792
 20
363.5480400205375
 30
0.0
 10
161.0388846320507
 20
363.3699613990673
 30
0.0
 10
161.2563939318206
 20
363.2610669462385
 30
0.0
 10
161.4889059234293
 20
363.15274371121
 30
0.0
 10
161.7774849628004
 20
363.0284624199294
 30
0.0
 10
162.1116025769136
 20
362.8980366371555
 30
0.0
 10
162.4767299745869
 20
362.7713517510644
 30
0.0
 10
162.8299668067708
 20
362.6616853641502
 30
0.0
 10
163.1552892405835
 20
362.5709543909067
 30
0.0
 10
163.4677299368856
 20
362.4923503268295
 30
0.0
 10
163.7760622287944
 20
362.4222425755535
 30
0.0
 10
164.0953121927774
 20
362.3573717714715
 30
0.0
 10
164.4436247905559
 20
362.2949851260956
 30
0.0
 10
164.8116578278909
 20
362.2382184103114
 30
0.0
 10
165.1780984335752
 20
362.1911779322705
 30
0.0
 10
165.524160284212
 20
362.1547057716921
 30
0.0
 10
165.8325931380222
 20
362.1284957890779
 30
0.0
 10
166.1245021095509
 20
362.1090584027694
 30
0.0
 10
166.4238444189805
 20
362.0941293538033
 30
0.0
 10
166.7475517549537
 20
362.0840673682317
 30
0.0
 10
167.0956406598098
 20
362.0804825079687
 30
0.0
 10
167.4438419245759
 20
362.0840825071928
 30
0.0
 10
167.8711851636963
 20
362.0973724120859
 30
0.0
 10
168.3771583081311
 20
362.127287820421
 30
0.0
 10
168.8951090007009
 20
362.1766345560251
 30
0.0
 10
169.3459548990751
 20
362.233575881881
 30
0.0
 10
169.7230048235394
 20
362.2908319654255
 30
0.0
 10
170.0913455446853
 20
362.3562163771526
 30
0.0
 10
170.4738231183034
 20
362.4342636915098
 30
0.0
 10
170.876765058357
 20
362.5289833694035
 30
0.0
 10
171.2598593628886
 20
362.6323155804893
 30
0.0
 10
171.6008556013983
 20
362.734760197716
 30
0.0
 10
171.913859200846
 20
362.8390537614763
 30
0.0
 10
172.2363082360258
 20
362.9604145027793
 30
0.0
 10
172.5605035296846
 20
363.091728097951
 30
0.0
 10
172.8749652234192
 20
363.2221341442892
 30
0.0
 10
173.3110259632425
 20
363.4248086431727
 30
0.0
 10
173.8487235824401
 20
363.759408806803
 30
0.0
 10
174.2508485941448
 20
364.0893963091851
 30
0.0
 10
174.4519393277424
 20
364.2544132377561
 30
0.0
 11
159.748005452102
 21
364.2463538989741
 31
0.0
 11
160.2709249268835
 21
363.8325517824475
 31
0.0
 11
160.836938687766
 21
363.4798813046002
 31
0.0
 11
161.0394353494434
 21
363.3709678827205
 31
0.0
 11
161.2449423725633
 21
363.2679112506787
 31
0.0
 11
161.4894390513867
 21
363.1539496246048
 31
0.0
 11
161.7371812410947
 21
363.0471742671777
 31
0.0
 11
162.1124796683214
 21
362.9004483973465
 31
0.0
 11
162.4931288650493
 21
362.7681575473777
 31
0.0
 11
162.8304546366248
 21
362.6633242772238
 31
0.0
 11
163.1706672438453
 21
362.5683353035786
 31
0.0
 11
163.4680025152017
 21
362.4934879239786
 31
0.0
 11
163.7669720856369
 21
362.4254663364153
 31
0.0
 11
164.0955532760195
 21
362.3586478636504
 31
0.0
 11
164.4256045784044
 21
362.2994813282344
 31
0.0
 11
164.8118886566132
 21
362.23985467246
 31
0.0
 11
165.199560819489
 21
362.1900451414544
 31
0.0
 11
165.5242668803989
 21
362.1558015360255
 31
0.0
 11
165.8495927768691
 21
362.1281342913178
 31
0.0
 11
166.1245459837729
 21
362.1098222094089
 31
0.0
 11
166.3997677611608
 21
362.09609254955
 31
0.0
 11
166.7475763333903
 21
362.0852720782093
 31
0.0
 11
167.0955347136842
 21
362.0816799838297
 31
0.0
 11
167.4438114114243
 21
362.0852867749779
 31
0.0
 11
167.7919531192033
 21
362.0961196325071
 31
0.0
 11
168.3768896363787
 21
362.1307871302071
 31
0.0
 11
168.9602015338936
 21
362.1864513459099
 31
0.0
 11
169.3457368624897
 21
362.2351848608372
 31
0.0
 11
169.7299157956954
 21
362.2935649478992
 31
0.0
 11
170.0910544487345
 21
362.3577550119945
 31
0.0
 11
170.4504254654825
 21
362.4311731966325
 31
0.0
 11
170.876167107447
 21
362.5312823994169
 31
0.0
 11
171.2984724057209
 21
362.6452215759941
 31
0.0
 11
171.600425113899
 21
362.7362659345909
 31
0.0
 11
171.8994206255588
 21
362.8362286623799
 31
0.0
 11
172.2356725646011
 21
362.9617644486063
 31
0.0
 11
172.5689517476544
 21
363.0957053774629
 31
0.0
 11
172.8741841837626
 21
363.2243206245704
 31
0.0
 11
173.173449468845
 21
363.3652784414425
 31
0.0
 11
173.8382905667493
 21
363.772848877895
 31
0.0
 11
174.4519393277424
 21
364.2544132377561
 31
0.0
  0
ENDBLK
  5
61
330
5F
100
AcDbEntity
  8
0
100
AcDbBlockEnd
  0
BLOCK
  5
63
330
62
100
AcDbEntity
  8
0
100
AcDbBlockBegin
  2
V972GN-H6
 70
     0
 10
678.2275665666712
 20
-362.0823518789713
 30
0.0
  3
V972GN-H6
  1

  0
LINE
  5
190
330
62
100
AcDbEntity
  8
0
  6
Continuous
 62
     7
100
AcDbLine
 10
133.9455347136827
 20
199.1241048150619
 30
0.0
 11
167.0955347136824
 21
199.1241048150619
 31
0.0
  0
LINE
  5
191
330
62
100
AcDbEntity
  8
0
  6
Continuous
 62
     7
100
AcDbLine
 10
167.0955347136824
 20
199.1241048150619
 30
0.0
 11
200.245534713682
 21
199.1241048150619
 31
0.0
  0
LINE
  5
192
330
62
100
AcDbEntity
  8
0
  6
Continuous
 62
     7
100
AcDbLine
 10
133.9455347136827
 20
304.6241048150619
 30
0.0
 11
200.245534713682
 21
304.6241048150619
 31
0.0
  0
LINE
  5
193
330
62
100
AcDbEntity
  8
0
  6
Continuous
 62
     7
100
AcDbLine
 10
129.9455347136827
 20
300.6241048150619
 30
0.0
 11
129.9455347136827
 21
203.1241048150619
 31
0.0
  0
LINE
  5
194
330
62
100
AcDbEntity
  8
0
  6
Continuous
 62
     7
100
AcDbLine
 10
204.245534713682
 20
300.6241048150619
 30
0.0
 11
204.245534713682
 21
203.1241048150619
 31
0.0
  0
LINE
  5
195
330
62
100
AcDbEntity
  8
0
  6
Continuous
 62
     7
100
AcDbLine
 10
204.245534713682
 20
293.8741048150641
 30
0.0
 11
204.495534713682
 21
293.8741048150641
 31
0.0
  0
LINE
  5
196
330
62
100
AcDbEntity
  8
0
  6
Continuous
 62
     7
100
AcDbLine
 10
135.0918927114926
 20
280.6359082139379
 30
0.0
 11
138.4738587227421
 21
282.3268912195631
 31
0.0
  0
LINE
  5
197
330
62
100
AcDbEntity
  8
0
  6
Continuous
 62
     7
100
AcDbLine
 10
135.0918927114926
 20
284.9123014161878
 30
0.0
 11
138.4738587227421
 21
283.2213184105631
 31
0.0
  0
LINE
  5
198
330
62
100
AcDbEntity
  8
0
  6
Continuous
 62
     7
100
AcDbLine
 10
134.3682859137425
 20
281.0831218094381
 30
0.0
 11
134.3682859137425
 21
284.465087820688
 31
0.0
  0
LINE
  5
199
330
62
100
AcDbEntity
  8
0
  6
Continuous
 62
     2
100
AcDbLine
 10
147.779000924982
 20
273.623380631273
 30
0.0
 11
144.389112279272
 21
270.233491985568
 31
0.0
  0
LINE
  5
19A
330
62
100
AcDbEntity
  8
0
  6
Continuous
 62
     2
100
AcDbLine
 10
147.4763738014317
 20
273.6035962202031
 30
0.0
 11
144.1203609941313
 21
270.247583412895
 31
0.0
  0
LINE
  5
19B
330
62
100
AcDbEntity
  8
0
  6
Continuous
 62
     2
100
AcDbLine
 10
147.1388126251823
 20
273.548877756421
 30
0.0
 11
143.8865437616914
 21
270.296608892932
 31
0.0
  0
LINE
  5
19C
330
62
100
AcDbEntity
  8
0
  6
Continuous
 62
     2
100
AcDbLine
 10
146.7627817341527
 20
273.4556895778628
 30
0.0
 11
143.6911962440317
 21
270.384104087746
 31
0.0
  0
LINE
  5
19D
330
62
100
AcDbEntity
  8
0
  6
Continuous
 62
     2
100
AcDbLine
 10
146.3408511370326
 20
273.3166016932282
 30
0.0
 11
143.5417484324426
 21
270.5174989886382
 31
0.0
  0
LINE
  5
19E
330
62
100
AcDbEntity
  8
0
  6
Continuous
 62
     2
100
AcDbLine
 10
145.8575120264013
 20
273.1161052950679
 30
0.0
 11
143.4537091343827
 21
270.712302403053
 31
0.0
  0
LINE
  5
19F
330
62
100
AcDbEntity
  8
0
  6
Continuous
 62
     2
100
AcDbLine
 10
145.2733197656817
 20
272.8147557468201
 30
0.0
 11
143.4665229864222
 21
271.0079589675579
 31
0.0
  0
LINE
  5
1A0
330
62
100
AcDbEntity
  8
0
  6
Continuous
 62
     2
100
AcDbLine
 10
144.3552094422012
 20
272.179488135816
 30
0.0
 11
143.8132549012025
 21
271.6375335948178
 31
0.0
  0
LINE
  5
1A1
330
62
100
AcDbEntity
  8
0
  6
Continuous
 62
     2
100
AcDbLine
 10
148.0477522101319
 20
273.6092892039469
 30
0.0
 11
144.6917394028224
 21
270.2532763966392
 31
0.0
  0
LINE
  5
1A2
330
62
100
AcDbEntity
  8
0
  6
Continuous
 62
     2
100
AcDbLine
 10
148.2815694425626
 20
273.560263723909
 30
0.0
 11
145.0293005790827
 21
270.30799486042
 31
0.0
  0
LINE
  5
1A3
330
62
100
AcDbEntity
  8
0
  6
Continuous
 62
     2
100
AcDbLine
 10
148.4769169602223
 20
273.472768529095
 30
0.0
 11
145.4053314701123
 21
270.4011830389782
 31
0.0
  0
LINE
  5
1A4
330
62
100
AcDbEntity
  8
0
  6
Continuous
 62
     2
100
AcDbLine
 10
148.6263647718115
 20
273.3393736282042
 30
0.0
 11
145.8272620672215
 21
270.5402709236141
 31
0.0
  0
LINE
  5
1A5
330
62
100
AcDbEntity
  8
0
  6
Continuous
 62
     2
100
AcDbLine
 10
148.7144040698713
 20
273.1445702137889
 30
0.0
 11
146.3106011778527
 21
270.7407673217731
 31
0.0
  0
LINE
  5
1A6
330
62
100
AcDbEntity
  8
0
  6
Continuous
 62
     2
100
AcDbLine
 10
148.7015902178428
 20
272.848913649284
 30
0.0
 11
146.8947934385815
 21
271.0421168700218
 31
0.0
  0
LINE
  5
1A7
330
62
100
AcDbEntity
  8
0
  6
Continuous
 62
     2
100
AcDbLine
 10
148.3548583030515
 20
272.2193390220232
 30
0.0
 11
147.8129037620529
 21
271.6773844810259
 31
0.0
  0
LINE
  5
1A8
330
62
100
AcDbEntity
  8
0
  6
Continuous
 62
     2
100
AcDbLine
 10
145.6466645992623
 20
275.5395914409492
 30
0.0
 11
144.2219374154829
 21
274.1148642571579
 31
0.0
  0
LINE
  5
1A9
330
62
100
AcDbEntity
  8
0
  6
Continuous
 62
     2
100
AcDbLine
 10
145.2895589839318
 20
275.4653285380841
 30
0.0
 11
143.8773790042415
 21
274.0531485583961
 31
0.0
  0
LINE
  5
1AA
330
62
100
AcDbEntity
  8
0
  6
Continuous
 62
     2
100
AcDbLine
 10
144.9195624744716
 20
275.3781747411013
 30
0.0
 11
143.5457114871224
 21
274.004323753752
 31
0.0
  0
LINE
  5
1AB
330
62
100
AcDbEntity
  8
0
  6
Continuous
 62
     2
100
AcDbLine
 10
144.5355423516012
 20
275.2769973307072
 30
0.0
 11
143.2280675834118
 21
273.9695225625178
 31
0.0
  0
LINE
  5
1AC
330
62
100
AcDbEntity
  8
0
  6
Continuous
 62
     2
100
AcDbLine
 10
144.1351921812129
 20
275.1594898727899
 30
0.0
 11
142.9267537272226
 21
273.9510514188082
 31
0.0
  0
LINE
  5
1AD
330
62
100
AcDbEntity
  8
0
  6
Continuous
 62
     2
100
AcDbLine
 10
143.7139869436014
 20
275.0211273476589
 30
0.0
 11
142.6462949382621
 21
273.9534353423119
 31
0.0
  0
LINE
  5
1AE
330
62
100
AcDbEntity
  8
0
  6
Continuous
 62
     2
100
AcDbLine
 10
143.261864829552
 20
274.8518479460799
 30
0.0
 11
142.3967530257323
 21
273.986736142263
 31
0.0
  0
LINE
  5
1AF
330
62
100
AcDbEntity
  8
0
  6
Continuous
 62
     2
100
AcDbLine
 10
142.7457221863115
 20
274.618548015314
 30
0.0
 11
142.2112316424027
 21
274.0840574714021
 31
0.0
  0
LINE
  5
1B0
330
62
100
AcDbEntity
  8
0
  6
Continuous
 62
     2
100
AcDbLine
 10
145.9912230105019
 20
275.6013071397119
 30
0.0
 11
144.5790430308225
 21
274.189127160023
 31
0.0
  0
LINE
  5
1B1
330
62
100
AcDbEntity
  8
0
  6
Continuous
 62
     2
100
AcDbLine
 10
146.3228905276228
 20
275.650131944356
 30
0.0
 11
144.9490395402718
 21
274.2762809570072
 31
0.0
  0
LINE
  5
1B2
330
62
100
AcDbEntity
  8
0
  6
Continuous
 62
     2
100
AcDbLine
 10
146.6405344313316
 20
275.6849331355888
 30
0.0
 11
145.3330596631422
 21
274.3774583674012
 31
0.0
  0
LINE
  5
1B3
330
62
100
AcDbEntity
  8
0
  6
Continuous
 62
     2
100
AcDbLine
 10
146.9418482875117
 20
275.7034042793002
 30
0.0
 11
145.7334098335323
 21
274.4949658253172
 31
0.0
  0
LINE
  5
1B4
330
62
100
AcDbEntity
  8
0
  6
Continuous
 62
     2
100
AcDbLine
 10
147.2223070764921
 20
275.7010203557961
 30
0.0
 11
146.154615071142
 21
274.6333283504491
 31
0.0
  0
LINE
  5
1B5
330
62
100
AcDbEntity
  8
0
  6
Continuous
 62
     2
100
AcDbLine
 10
147.4718489890129
 20
275.667719555845
 30
0.0
 11
146.6067371851914
 21
274.8026077520271
 31
0.0
  0
LINE
  5
1B6
330
62
100
AcDbEntity
  8
0
  6
Continuous
 62
     2
100
AcDbLine
 10
147.6573703723425
 20
275.570398226706
 30
0.0
 11
147.1228798284319
 21
275.035907682794
 31
0.0
  0
LINE
  5
1B7
330
62
100
AcDbEntity
  8
0
  6
Continuous
 62
     2
100
AcDbLine
 10
150.1956796502727
 20
270.4849961845102
 30
0.0
 11
146.123225038793
 21
266.4125415730291
 31
0.0
  0
LINE
  5
1B8
330
62
100
AcDbEntity
  8
0
  6
Continuous
 62
     2
100
AcDbLine
 10
150.0012767156713
 20
270.5734359623839
 30
0.0
 11
145.9564934165228
 21
266.5286526632322
 31
0.0
  0
LINE
  5
1B9
330
62
100
AcDbEntity
  8
0
  6
Continuous
 62
     2
100
AcDbLine
 10
149.778622566022
 20
270.633624525201
 30
0.0
 11
145.8180130093115
 21
266.6730149684931
 31
0.0
  0
LINE
  5
1BA
330
62
100
AcDbEntity
  8
0
  6
Continuous
 62
     2
100
AcDbLine
 10
149.5258487072624
 20
270.6636933789168
 30
0.0
 11
145.7096523111923
 21
266.847496982853
 31
0.0
  0
LINE
  5
1BB
330
62
100
AcDbEntity
  8
0
  6
Continuous
 62
     2
100
AcDbLine
 10
149.2393383680519
 20
270.660025752185
 30
0.0
 11
145.6350280935312
 21
267.055715477662
 31
0.0
  0
LINE
  5
1BC
330
62
100
AcDbEntity
  8
0
  6
Continuous
 62
     2
100
AcDbLine
 10
148.9126293072113
 20
270.616159403814
 30
0.0
 11
145.6006025975021
 21
267.3041326941102
 31
0.0
  0
LINE
  5
1BD
330
62
100
AcDbEntity
  8
0
  6
Continuous
 62
     2
100
AcDbLine
 10
148.5336803185419
 20
270.5200531276232
 30
0.0
 11
145.6184170292927
 21
267.6047898383781
 31
0.0
  0
LINE
  5
1BE
330
62
100
AcDbEntity
  8
0
  6
Continuous
 62
     2
100
AcDbLine
 10
148.0764523852322
 20
270.3456679067858
 30
0.0
 11
145.7145104057327
 21
267.9837259272922
 31
0.0
  0
LINE
  5
1BF
330
62
100
AcDbEntity
  8
0
  6
Continuous
 62
     2
100
AcDbLine
 10
147.4581419644219
 20
270.0102001984501
 30
0.0
 11
145.9716862696714
 21
268.523744503706
 31
0.0
  0
LINE
  5
1C0
330
62
100
AcDbEntity
  8
0
  6
Continuous
 62
     2
100
AcDbLine
 10
150.3624112725429
 20
270.3688850943081
 30
0.0
 11
146.3176279733925
 21
266.324101795155
 31
0.0
  0
LINE
  5
1C1
330
62
100
AcDbEntity
  8
0
  6
Continuous
 62
     2
100
AcDbLine
 10
150.5008916797615
 20
270.2245227890462
 30
0.0
 11
146.5402821230528
 21
266.2639132323379
 31
0.0
  0
LINE
  5
1C2
330
62
100
AcDbEntity
  8
0
  6
Continuous
 62
     2
100
AcDbLine
 10
150.6092523778716
 20
270.0500407746849
 30
0.0
 11
146.7930559818124
 21
266.2338443786221
 31
0.0
  0
LINE
  5
1C3
330
62
100
AcDbEntity
  8
0
  6
Continuous
 62
     2
100
AcDbLine
 10
150.6838765955417
 20
269.8418222798769
 30
0.0
 11
147.0795663210229
 21
266.237512005353
 31
0.0
  0
LINE
  5
1C4
330
62
100
AcDbEntity
  8
0
  6
Continuous
 62
     2
100
AcDbLine
 10
150.7183020915727
 20
269.5934050634292
 30
0.0
 11
147.4062753818616
 21
266.281378353724
 31
0.0
  0
LINE
  5
1C5
330
62
100
AcDbEntity
  8
0
  6
Continuous
 62
     2
100
AcDbLine
 10
150.7004876597712
 20
269.2927479191612
 30
0.0
 11
147.7852243705329
 21
266.3774846299161
 31
0.0
  0
LINE
  5
1C6
330
62
100
AcDbEntity
  8
0
  6
Continuous
 62
     2
100
AcDbLine
 10
150.6043942833312
 20
268.9138118302471
 30
0.0
 11
148.2424523038426
 21
266.5518698507531
 31
0.0
  0
LINE
  5
1C7
330
62
100
AcDbEntity
  8
0
  6
Continuous
 62
     2
100
AcDbLine
 10
150.3472184193925
 20
268.3737932538329
 30
0.0
 11
148.8607627246529
 21
266.8873375590893
 31
0.0
  0
LINE
  5
1C8
330
62
100
AcDbEntity
  8
0
  6
Continuous
 62
     2
100
AcDbLine
 10
153.4811026156312
 20
266.489681149325
 30
0.0
 11
149.661130675122
 21
262.6697092088202
 31
0.0
  0
LINE
  5
1C9
330
62
100
AcDbEntity
  8
0
  6
Continuous
 62
     2
100
AcDbLine
 10
153.327138222332
 20
266.6185594685021
 30
0.0
 11
149.5269822562113
 21
262.818403502381
 31
0.0
  0
LINE
  5
1CA
330
62
100
AcDbEntity
  8
0
  6
Continuous
 62
     2
100
AcDbLine
 10
153.1530429095328
 20
266.727306868182
 30
0.0
 11
149.4129647567916
 21
262.987228715439
 31
0.0
  0
LINE
  5
1CB
330
62
100
AcDbEntity
  8
0
  6
Continuous
 62
     2
100
AcDbLine
 10
152.9578195564027
 20
266.8149262275219
 30
0.0
 11
149.3200752977118
 21
263.177181968837
 31
0.0
  0
LINE
  5
1CC
330
62
100
AcDbEntity
  8
0
  6
Continuous
 62
     2
100
AcDbLine
 10
152.7396103017927
 20
266.8795596853902
 30
0.0
 11
149.2501717401119
 21
263.3901211237071
 31
0.0
  0
LINE
  5
1CD
330
62
100
AcDbEntity
  8
0
  6
Continuous
 62
     2
100
AcDbLine
 10
152.4953086296227
 20
266.9181007256939
 30
0.0
 11
149.206360600072
 21
263.62915269614
 31
0.0
  0
LINE
  5
1CE
330
62
100
AcDbEntity
  8
0
  6
Continuous
 62
     2
100
AcDbLine
 10
152.2197369232817
 20
266.9253717318288
 30
0.0
 11
149.1938194941922
 21
263.8994543027429
 31
0.0
  0
LINE
  5
1CF
330
62
100
AcDbEntity
  8
0
  6
Continuous
 62
     2
100
AcDbLine
 10
151.9037263622213
 20
266.8922038832452
 30
0.0
 11
149.2217172430428
 21
264.210194764064
 31
0.0
  0
LINE
  5
1D0
330
62
100
AcDbEntity
  8
0
  6
Continuous
 62
     2
100
AcDbLine
 10
151.5286393854422
 20
266.7999596189402
 30
0.0
 11
149.3086914076121
 21
264.5800116411069
 31
0.0
  0
LINE
  5
1D1
330
62
100
AcDbEntity
  8
0
  6
Continuous
 62
     2
100
AcDbLine
 10
151.0429130666817
 20
266.597076012652
 30
0.0
 11
149.5063049141627
 21
265.060467860133
 31
0.0
  0
LINE
  5
1D2
330
62
100
AcDbEntity
  8
0
  6
Continuous
 62
     2
100
AcDbLine
 10
153.6152510345419
 20
266.3409868557651
 30
0.0
 11
149.8150950684212
 21
262.540830889644
 31
0.0
  0
LINE
  5
1D3
330
62
100
AcDbEntity
  8
0
  6
Continuous
 62
     2
100
AcDbLine
 10
153.7292685339617
 20
266.1721616427071
 30
0.0
 11
149.9891903812113
 21
262.432083489964
 31
0.0
  0
LINE
  5
1D4
330
62
100
AcDbEntity
  8
0
  6
Continuous
 62
     2
100
AcDbLine
 10
153.8221579930323
 20
265.9822083893091
 30
0.0
 11
150.1844137343524
 21
262.3444641306242
 31
0.0
  0
LINE
  5
1D5
330
62
100
AcDbEntity
  8
0
  6
Continuous
 62
     2
100
AcDbLine
 10
153.8920615506413
 20
265.769269234439
 30
0.0
 11
150.4026229889623
 21
262.2798306727559
 31
0.0
  0
LINE
  5
1D6
330
62
100
AcDbEntity
  8
0
  6
Continuous
 62
     2
100
AcDbLine
 10
153.9358726906812
 20
265.5302376620061
 30
0.0
 11
150.6469246611323
 21
262.2412896324522
 31
0.0
  0
LINE
  5
1D7
330
62
100
AcDbEntity
  8
0
  6
Continuous
 62
     2
100
AcDbLine
 10
153.9484137965519
 20
265.2599360554032
 30
0.0
 11
150.9224963674624
 21
262.2340186263168
 31
0.0
  0
LINE
  5
1D8
330
62
100
AcDbEntity
  8
0
  6
Continuous
 62
     2
100
AcDbLine
 10
153.9205160477013
 20
264.9491955940821
 30
0.0
 11
151.2385069285228
 21
262.2671864749009
 31
0.0
  0
LINE
  5
1D9
330
62
100
AcDbEntity
  8
0
  6
Continuous
 62
     2
100
AcDbLine
 10
153.8335418831412
 20
264.5793787170392
 30
0.0
 11
151.613593905302
 21
262.3594307392059
 31
0.0
  0
LINE
  5
1DA
330
62
100
AcDbEntity
  8
0
  6
Continuous
 62
     2
100
AcDbLine
 10
153.6359283765924
 20
264.098922498014
 30
0.0
 11
152.0993202240625
 21
262.5623143454941
 31
0.0
  0
LINE
  5
1DB
330
62
100
AcDbEntity
  8
0
  6
Continuous
 62
     2
100
AcDbLine
 10
160.8805354367323
 20
262.5244470628968
 30
0.0
 11
157.3581649006319
 21
259.0020765268018
 31
0.0
  0
LINE
  5
1DC
330
62
100
AcDbEntity
  8
0
  6
Continuous
 62
     2
100
AcDbLine
 10
160.7334269036928
 20
262.6601812423392
 30
0.0
 11
157.2224307211927
 21
259.149185059835
 31
0.0
  0
LINE
  5
1DD
330
62
100
AcDbEntity
  8
0
  6
Continuous
 62
     2
100
AcDbLine
 10
160.5748323822118
 20
262.784429433334
 30
0.0
 11
157.0981825301915
 21
259.3077795813142
 31
0.0
  0
LINE
  5
1DE
330
62
100
AcDbEntity
  8
0
  6
Continuous
 62
     2
100
AcDbLine
 10
160.4044057156025
 20
262.8968454791952
 30
0.0
 11
156.9857664843312
 21
259.478206247928
 31
0.0
  0
LINE
  5
1DF
330
62
100
AcDbEntity
  8
0
  6
Continuous
 62
     2
100
AcDbLine
 10
160.2215297108014
 20
262.996812186871
 30
0.0
 11
156.8857997766627
 21
259.6610822527268
 31
0.0
  0
LINE
  5
1E0
330
62
100
AcDbEntity
  8
0
  6
Continuous
 62
     2
100
AcDbLine
 10
160.0252447974126
 20
263.08336998595
 30
0.0
 11
156.7992419775819
 21
259.857367166122
 31
0.0
  0
LINE
  5
1E1
330
62
100
AcDbEntity
  8
0
  6
Continuous
 62
     2
100
AcDbLine
 10
159.8141215966025
 20
263.1550894976149
 30
0.0
 11
156.7275224659115
 21
260.0684903669321
 31
0.0
  0
LINE
  5
1E2
330
62
100
AcDbEntity
  8
0
  6
Continuous
 62
     2
100
AcDbLine
 10
159.5860315645623
 20
263.2098421780588
 30
0.0
 11
156.6727697854713
 21
260.2965803989619
 31
0.0
  0
LINE
  5
1E3
330
62
100
AcDbEntity
  8
0
  6
Continuous
 62
     2
100
AcDbLine
 10
159.3377102358118
 20
263.2443635617779
 30
0.0
 11
156.6382484017522
 21
260.5449017277178
 31
0.0
  0
LINE
  5
1E4
330
62
100
AcDbEntity
  8
0
  6
Continuous
 62
     2
100
AcDbLine
 10
159.0638391742523
 20
263.253335212697
 30
0.0
 11
156.6292767508312
 21
260.8187727892741
 31
0.0
  0
LINE
  5
1E5
330
62
100
AcDbEntity
  8
0
  6
Continuous
 62
     2
100
AcDbLine
 10
158.7547906199616
 20
263.2271293708809
 30
0.0
 11
156.6554825926523
 21
261.1278213435639
 31
0.0
  0
LINE
  5
1E6
330
62
100
AcDbEntity
  8
0
  6
Continuous
 62
     2
100
AcDbLine
 10
158.3894110465917
 20
263.1445925099793
 30
0.0
 11
156.7380194535526
 21
261.4932009169411
 31
0.0
  0
LINE
  5
1E7
330
62
100
AcDbEntity
  8
0
  6
Continuous
 62
     2
100
AcDbLine
 10
157.8932222837029
 20
262.9312464595682
 30
0.0
 11
156.9513655039627
 21
261.9893896798262
 31
0.0
  0
LINE
  5
1E8
330
62
100
AcDbEntity
  8
0
  6
Continuous
 62
     2
100
AcDbLine
 10
161.0162696161715
 20
262.3773385298641
 30
0.0
 11
157.5052734336623
 21
258.8663423473608
 31
0.0
  0
LINE
  5
1E9
330
62
100
AcDbEntity
  8
0
  6
Continuous
 62
     2
100
AcDbLine
 10
161.1405178071618
 20
262.218744008384
 30
0.0
 11
157.6638679551415
 21
258.742094156366
 31
0.0
  0
LINE
  5
1EA
330
62
100
AcDbEntity
  8
0
  6
Continuous
 62
     2
100
AcDbLine
 10
161.2529338530221
 20
262.0483173417701
 30
0.0
 11
157.8342946217617
 21
258.6296781105052
 31
0.0
  0
LINE
  5
1EB
330
62
100
AcDbEntity
  8
0
  6
Continuous
 62
     2
100
AcDbLine
 10
161.3529005607015
 20
261.8654413369732
 30
0.0
 11
158.0171706265519
 21
258.5297114028281
 31
0.0
  0
LINE
  5
1EC
330
62
100
AcDbEntity
  8
0
  6
Continuous
 62
     2
100
AcDbLine
 10
161.4394583597823
 20
261.6691564235771
 30
0.0
 11
158.2134555399516
 21
258.4431536037491
 31
0.0
  0
LINE
  5
1ED
330
62
100
AcDbEntity
  8
0
  6
Continuous
 62
     2
100
AcDbLine
 10
161.5111778714527
 20
261.4580332227693
 30
0.0
 11
158.4245787407617
 21
258.3714340920819
 31
0.0
  0
LINE
  5
1EE
330
62
100
AcDbEntity
  8
0
  6
Continuous
 62
     2
100
AcDbLine
 10
161.565930551893
 20
261.2299431907372
 30
0.0
 11
158.6526687727928
 21
258.3166814116389
 31
0.0
  0
LINE
  5
1EF
330
62
100
AcDbEntity
  8
0
  6
Continuous
 62
     2
100
AcDbLine
 10
161.600451935612
 20
260.9816218619812
 30
0.0
 11
158.9009901015525
 21
258.2821600279212
 31
0.0
  0
LINE
  5
1F0
330
62
100
AcDbEntity
  8
0
  6
Continuous
 62
     2
100
AcDbLine
 10
161.6094235865312
 20
260.707750800425
 30
0.0
 11
159.1748611631028
 21
258.273188377002
 31
0.0
  0
LINE
  5
1F1
330
62
100
AcDbEntity
  8
0
  6
Continuous
 62
     2
100
AcDbLine
 10
161.5832177447119
 20
260.3987022461342
 30
0.0
 11
159.4839097173917
 21
258.2993942188191
 31
0.0
  0
LINE
  5
1F2
330
62
100
AcDbEntity
  8
0
  6
Continuous
 62
     2
100
AcDbLine
 10
161.5006808838116
 20
260.0333226727571
 30
0.0
 11
159.8492892907725
 21
258.3819310797212
 31
0.0
  0
LINE
  5
1F3
330
62
100
AcDbEntity
  8
0
  6
Continuous
 62
     2
100
AcDbLine
 10
161.2873348334015
 20
259.537133909872
 30
0.0
 11
160.3454780536522
 21
258.5952771301309
 31
0.0
  0
LINE
  5
1F4
330
62
100
AcDbEntity
  8
0
  6
Continuous
 62
     2
100
AcDbLine
 10
157.8618668367617
 20
263.7600422520391
 30
0.0
 11
157.4706977759615
 21
263.3688731912398
 31
0.0
  0
LINE
  5
1F5
330
62
100
AcDbEntity
  8
0
  6
Continuous
 62
     2
100
AcDbLine
 10
156.4554797403416
 20
262.3536551556172
 30
0.0
 11
154.2221555827218
 21
260.1203309980042
 31
0.0
  0
LINE
  5
1F6
330
62
100
AcDbEntity
  8
0
  6
Continuous
 62
     2
100
AcDbLine
 10
157.6989222054326
 20
263.8799403331841
 30
0.0
 11
154.1022575015813
 21
260.2832756293319
 31
0.0
  0
LINE
  5
1F7
330
62
100
AcDbEntity
  8
0
  6
Continuous
 62
     2
100
AcDbLine
 10
157.5244231510715
 20
263.9882839912998
 30
0.0
 11
153.993913843462
 21
260.4577746836899
 31
0.0
  0
LINE
  5
1F8
330
62
100
AcDbEntity
  8
0
  6
Continuous
 62
     2
100
AcDbLine
 10
157.3377031688324
 20
264.0844067215371
 30
0.0
 11
153.8977911132315
 21
260.644494665929
 31
0.0
  0
LINE
  5
1F9
330
62
100
AcDbEntity
  8
0
  6
Continuous
 62
     2
100
AcDbLine
 10
157.1377629585622
 20
264.167309223737
 30
0.0
 11
153.8148886110321
 21
260.8444348762018
 31
0.0
  0
LINE
  5
1FA
330
62
100
AcDbEntity
  8
0
  6
Continuous
 62
     2
100
AcDbLine
 10
156.9231418878717
 20
264.2355308655228
 30
0.0
 11
153.7466669692421
 21
261.0590559468919
 31
0.0
  0
LINE
  5
1FB
330
62
100
AcDbEntity
  8
0
  6
Continuous
 62
     2
100
AcDbLine
 10
156.6916896575312
 20
264.286921347657
 30
0.0
 11
153.6952764871021
 21
261.290508177231
 31
0.0
  0
LINE
  5
1FC
330
62
100
AcDbEntity
  8
0
  6
Continuous
 62
     2
100
AcDbLine
 10
156.440135099152
 20
264.3182095017469
 30
0.0
 11
153.6639883330226
 21
261.542062735617
 31
0.0
  0
LINE
  5
1FD
330
62
100
AcDbEntity
  8
0
  6
Continuous
 62
     2
100
AcDbLine
 10
156.1631867508313
 20
264.324103865903
 30
0.0
 11
153.6580939688629
 21
261.819011083936
 31
0.0
  0
LINE
  5
1FE
330
62
100
AcDbEntity
  8
0
  6
Continuous
 62
     2
100
AcDbLine
 10
155.8513452468724
 20
264.2951050744232
 30
0.0
 11
153.6870927603413
 21
262.1308525878899
 31
0.0
  0
LINE
  5
1FF
330
62
100
AcDbEntity
  8
0
  6
Continuous
 62
     2
100
AcDbLine
 10
155.4840230564514
 20
264.2106255964791
 30
0.0
 11
153.7715722382818
 21
262.498174778309
 31
0.0
  0
LINE
  5
200
330
62
100
AcDbEntity
  8
0
  6
Continuous
 62
     2
100
AcDbLine
 10
154.9915957444027
 20
264.0010409969009
 30
0.0
 11
153.9811568378627
 21
262.9906020903609
 31
0.0
  0
LINE
  5
201
330
62
100
AcDbEntity
  8
0
  6
Continuous
 62
     2
100
AcDbLine
 10
158.0136647256823
 20
263.62899742848
 30
0.0
 11
158.005008368862
 21
263.6203410716689
 31
0.0
  0
LINE
  5
202
330
62
100
AcDbEntity
  8
0
  6
Continuous
 62
     2
100
AcDbLine
 10
156.2040118599125
 20
261.8193445627121
 30
0.0
 11
154.3532004062818
 21
259.9685331090859
 31
0.0
  0
LINE
  5
203
330
62
100
AcDbEntity
  8
0
  6
Continuous
 62
     2
100
AcDbLine
 10
156.0952241674113
 20
261.4277141577422
 30
0.0
 11
154.4952023123224
 21
259.827692302651
 31
0.0
  0
LINE
  5
204
330
62
100
AcDbEntity
  8
0
  6
Continuous
 62
     2
100
AcDbLine
 10
156.046697207772
 20
261.0963444856202
 30
0.0
 11
154.6481717971328
 21
259.6978190749869
 31
0.0
  0
LINE
  5
205
330
62
100
AcDbEntity
  8
0
  6
Continuous
 62
     2
100
AcDbLine
 10
156.0352589738122
 20
260.8020635391949
 30
0.0
 11
154.8123204835829
 21
259.579125048956
 31
0.0
  0
LINE
  5
206
330
62
100
AcDbEntity
  8
0
  6
Continuous
 62
     2
100
AcDbLine
 10
156.0503752185323
 20
260.5343370714331
 30
0.0
 11
154.9880811431613
 21
259.4720429960662
 31
0.0
  0
LINE
  5
207
330
62
100
AcDbEntity
  8
0
  6
Continuous
 62
     2
100
AcDbLine
 10
156.086204462832
 20
260.2873236032642
 30
0.0
 11
155.1761513997026
 21
259.3772705401361
 31
0.0
  0
LINE
  5
208
330
62
100
AcDbEntity
  8
0
  6
Continuous
 62
     2
100
AcDbLine
 10
156.1391258354015
 20
260.0574022633582
 30
0.0
 11
155.3775722092523
 21
259.2958486372008
 31
0.0
  0
LINE
  5
209
330
62
100
AcDbEntity
  8
0
  6
Continuous
 62
     2
100
AcDbLine
 10
156.2067338743327
 20
259.8421675898098
 30
0.0
 11
155.5938642392921
 21
259.2292979547719
 31
0.0
  0
LINE
  5
20A
330
62
100
AcDbEntity
  8
0
  6
Continuous
 62
     2
100
AcDbLine
 10
156.2873587968225
 20
259.6399497998291
 30
0.0
 11
155.8272712985727
 21
259.1798623015829
 31
0.0
  0
LINE
  5
20B
330
62
100
AcDbEntity
  8
0
  6
Continuous
 62
     2
100
AcDbLine
 10
156.3798116876424
 20
259.4495599781749
 30
0.0
 11
156.0812240247724
 21
259.150972315299
 31
0.0
  0
LINE
  5
20C
330
62
100
AcDbEntity
  8
0
  6
Continuous
 62
     2
100
AcDbLine
 10
156.4832387174029
 20
259.270144295454
 30
0.0
 11
156.3613199940319
 21
259.1482255720871
 31
0.0
  0
LINE
  5
20D
330
62
100
AcDbEntity
  8
0
  6
Continuous
 62
     7
100
AcDbLine
 10
204.495534713682
 20
289.574104815064
 30
0.0
 11
204.245534713682
 21
289.574104815064
 31
0.0
  0
LINE
  5
20E
330
62
100
AcDbEntity
  8
1
  6
Continuous
 62
     7
100
AcDbLine
 10
186.2804173005625
 20
259.1781402060919
 30
0.0
 11
188.0276173005623
 21
259.1781402060919
 31
0.0
  0
LINE
  5
20F
330
62
100
AcDbEntity
  8
1
  6
Continuous
 62
     7
100
AcDbLine
 10
186.1348173005626
 20
258.9597402060922
 30
0.0
 11
187.8820173005624
 21
258.9597402060922
 31
0.0
  0
LINE
  5
210
330
62
100
AcDbEntity
  8
1
  6
Continuous
 62
     7
100
AcDbLine
 10
176.4898772725228
 20
263.3648021680019
 30
0.0
 11
176.5831634996812
 21
263.8938546521158
 31
0.0
  0
LINE
  5
211
330
62
100
AcDbEntity
  8
1
  6
Continuous
 62
     7
100
AcDbLine
 10
176.2404233237012
 20
263.4498620159261
 30
0.0
 11
176.4345259706515
 21
263.0508893360402
 31
0.0
  0
LINE
  5
212
330
62
100
AcDbEntity
  8
1
  6
Continuous
 62
     7
100
AcDbLine
 10
176.9519873720728
 20
263.0508893360402
 30
0.0
 11
176.4345259706515
 21
263.0508893360402
 31
0.0
  0
LINE
  5
213
330
62
100
AcDbEntity
  8
1
  6
Continuous
 62
     7
100
AcDbLine
 10
173.2285687711628
 20
261.1394895497101
 30
0.0
 11
173.5925687711624
 21
261.1394895497101
 31
0.0
  0
LINE
  5
214
330
62
100
AcDbEntity
  8
1
  6
Continuous
 62
     7
100
AcDbLine
 10
173.2285687711628
 20
261.1394895497101
 30
0.0
 11
173.0966249011017
 21
260.8543549780088
 31
0.0
  0
LINE
  5
215
330
62
100
AcDbEntity
  8
1
  6
Continuous
 62
     7
100
AcDbLine
 10
173.493399901452
 20
261.6680409817341
 30
0.0
 11
173.4811135319324
 21
261.6973202940849
 31
0.0
  0
LINE
  5
216
330
62
100
AcDbEntity
  8
1
  6
Continuous
 62
     7
100
AcDbLine
 10
175.5828553972424
 20
260.7725048150619
 30
0.0
 11
181.8711347136814
 21
260.7725048150619
 31
0.0
  0
LINE
  5
217
330
62
100
AcDbEntity
  8
1
  6
Continuous
 62
     7
100
AcDbLine
 10
189.3692844145826
 20
260.7725048150619
 30
0.0
 11
200.2895347136819
 21
260.7725048150619
 31
0.0
  0
LINE
  5
218
330
62
100
AcDbEntity
  8
1
  6
Continuous
 62
     7
100
AcDbLine
 10
201.6685150885114
 20
264.004824815062
 30
0.0
 11
199.3389150885123
 21
264.004824815062
 31
0.0
  0
LINE
  5
219
330
62
100
AcDbEntity
  8
1
  6
Continuous
 62
     7
100
AcDbLine
 10
192.6600532342127
 20
265.605607108957
 30
0.0
 11
191.1125150885127
 21
265.605607108957
 31
0.0
  0
LINE
  5
21A
330
62
100
AcDbEntity
  8
1
  6
Continuous
 62
     7
100
AcDbLine
 10
187.7855421381119
 20
263.9757048150632
 30
0.0
 11
187.0575421381127
 21
263.9757048150632
 31
0.0
  0
LINE
  5
21B
330
62
100
AcDbEntity
  8
1
  6
Continuous
 62
     7
100
AcDbLine
 10
182.0126113253918
 20
263.9757048150632
 30
0.0
 11
181.2846113253927
 21
263.9757048150632
 31
0.0
  0
LINE
  5
21C
330
62
100
AcDbEntity
  8
1
  6
Continuous
 62
     7
100
AcDbLine
 10
178.0261046683827
 20
263.9757048150632
 30
0.0
 11
179.4821046683828
 21
263.9757048150632
 31
0.0
  0
LINE
  5
21D
330
62
100
AcDbEntity
  8
1
  6
Continuous
 62
     7
100
AcDbLine
 10
184.8795638544816
 20
260.7725048150619
 30
0.0
 11
186.9543638544819
 21
260.7725048150619
 31
0.0
  0
LINE
  5
21E
330
62
100
AcDbEntity
  8
1
  6
Continuous
 62
     7
100
AcDbLine
 10
183.0069587260623
 20
260.7725048150619
 30
0.0
 11
183.7349587260615
 21
260.7725048150619
 31
0.0
  0
LINE
  5
21F
330
62
100
AcDbEntity
  8
1
  6
Continuous
 62
     7
100
AcDbLine
 10
201.7070249011013
 20
264.2232248150631
 30
0.0
 11
200.8334249011023
 21
264.2232248150631
 31
0.0
  0
LINE
  5
220
330
62
100
AcDbEntity
  8
1
  6
Continuous
 62
     7
100
AcDbLine
 10
192.6985630468025
 20
265.8240071089572
 30
0.0
 11
191.1510249011026
 21
265.8240071089572
 31
0.0
  0
LINE
  5
221
330
62
100
AcDbEntity
  8
1
  6
Continuous
 62
     7
100
AcDbLine
 10
187.8240519507017
 20
264.1941048150629
 30
0.0
 11
187.0960519507025
 21
264.1941048150629
 31
0.0
  0
LINE
  5
222
330
62
100
AcDbEntity
  8
1
  6
Continuous
 62
     7
100
AcDbLine
 10
182.0511211379817
 20
264.1941048150629
 30
0.0
 11
181.3231211379825
 21
264.1941048150629
 31
0.0
  0
LINE
  5
223
330
62
100
AcDbEntity
  8
1
  6
Continuous
 62
     7
100
AcDbLine
 10
178.0646144809725
 20
264.1941048150629
 30
0.0
 11
179.5206144809727
 21
264.1941048150629
 31
0.0
  0
LINE
  5
224
330
62
100
AcDbEntity
  8
1
  6
Continuous
 62
     7
100
AcDbLine
 10
177.1006249011025
 20
263.8938546521158
 30
0.0
 11
176.5831634996812
 21
263.8938546521158
 31
0.0
  0
LINE
  5
225
330
62
100
AcDbEntity
  8
1
  6
Continuous
 62
     7
100
AcDbLine
 10
176.9519873720728
 20
263.0508893360402
 30
0.0
 11
177.1006249011025
 21
263.8938546521158
 31
0.0
  0
LINE
  5
226
330
62
100
AcDbEntity
  8
1
  6
Continuous
 62
     7
100
AcDbLine
 10
172.7326249011021
 20
260.8543549780088
 30
0.0
 11
173.0966249011017
 21
260.8543549780088
 31
0.0
  0
LINE
  5
227
330
62
100
AcDbEntity
  8
1
  6
Continuous
 62
     7
100
AcDbLine
 10
172.8812624301227
 20
261.6973202940849
 30
0.0
 11
173.4811135319324
 21
261.6973202940849
 31
0.0
  0
LINE
  5
228
330
62
100
AcDbEntity
  8
1
  6
Continuous
 62
     7
100
AcDbLine
 10
172.8812624301227
 20
261.6973202940849
 30
0.0
 11
172.7326249011021
 21
260.8543549780088
 31
0.0
  0
LINE
  5
229
330
62
100
AcDbEntity
  8
1
  6
Continuous
 62
     7
100
AcDbLine
 10
188.6030249011019
 20
260.5541048150631
 30
0.0
 11
200.2510249011029
 21
260.5541048150631
 31
0.0
  0
LINE
  5
22A
330
62
100
AcDbEntity
  8
1
  6
Continuous
 62
     7
100
AcDbLine
 10
184.8410540419027
 20
260.5541048150631
 30
0.0
 11
186.9158540419012
 21
260.5541048150631
 31
0.0
  0
LINE
  5
22B
330
62
100
AcDbEntity
  8
1
  6
Continuous
 62
     7
100
AcDbLine
 10
182.9684489134725
 20
260.5541048150631
 30
0.0
 11
183.6964489134716
 21
260.5541048150631
 31
0.0
  0
LINE
  5
22C
330
62
100
AcDbEntity
  8
1
  6
Continuous
 62
     7
100
AcDbLine
 10
174.7710249011016
 20
260.5541048150631
 30
0.0
 11
181.8326249011025
 21
260.5541048150631
 31
0.0
  0
LINE
  5
22D
330
62
100
AcDbEntity
  8
0
  6
Continuous
 62
     7
100
AcDbLine
 10
129.6955347136827
 20
229.1741048150611
 30
0.0
 11
129.9455347136827
 21
229.1741048150611
 31
0.0
  0
LINE
  5
22E
330
62
100
AcDbEntity
  8
0
  6
Continuous
 62
     7
100
AcDbLine
 10
129.9455347136827
 20
224.874104815061
 30
0.0
 11
129.6955347136827
 21
224.874104815061
 31
0.0
  0
LINE
  5
22F
330
62
100
AcDbEntity
  8
0
  6
Continuous
 62
     7
100
AcDbLine
 10
129.6955347136827
 20
289.574104815064
 30
0.0
 11
129.9455347136827
 21
289.574104815064
 31
0.0
  0
LINE
  5
230
330
62
100
AcDbEntity
  8
0
  6
Continuous
 62
     7
100
AcDbLine
 10
129.9455347136827
 20
293.8741048150641
 30
0.0
 11
129.6955347136827
 21
293.8741048150641
 31
0.0
  0
ARC
  5
231
330
62
100
AcDbEntity
  8
1
  6
Continuous
 62
     7
100
AcDbCircle
 10
167.0955347136824
 20
235.174104815063
 30
0.0
 40
11.79999999999919
100
AcDbArc
 50
0.0
 51
214.5815511989915
  0
ARC
  5
232
330
62
100
AcDbEntity
  8
1
  6
Continuous
 62
     7
100
AcDbCircle
 10
167.0955347136824
 20
235.174104815063
 30
0.0
 40
11.8000000000004
100
AcDbArc
 50
325.4184488010084
 51
0.0
  0
ARC
  5
233
330
62
100
AcDbEntity
  8
0
  6
Continuous
 62
     7
100
AcDbCircle
 10
133.9455347136827
 20
300.6241048150619
 30
0.0
 40
4.0
100
AcDbArc
 50
90.0
 51
180.0
  0
ARC
  5
234
330
62
100
AcDbEntity
  8
0
  6
Continuous
 62
     7
100
AcDbCircle
 10
200.245534713682
 20
300.6241048150619
 30
0.0
 40
4.0
100
AcDbArc
 50
0.0
 51
90.0
  0
ARC
  5
235
330
62
100
AcDbEntity
  8
0
  6
Continuous
 62
     7
100
AcDbCircle
 10
133.9455347136827
 20
203.1241048150619
 30
0.0
 40
4.000000000000005
100
AcDbArc
 50
180.0000030704637
 51
269.9999984647555
  0
ARC
  5
236
330
62
100
AcDbEntity
  8
0
  6
Continuous
 62
     7
100
AcDbCircle
 10
200.245534713682
 20
203.1241048150619
 30
0.0
 40
4.000000000000001
100
AcDbArc
 50
269.9999984647555
 51
0.0
  0
ARC
  5
237
330
62
100
AcDbEntity
  8
0
  6
Continuous
 62
     7
100
AcDbCircle
 10
134.8682859137425
 20
281.0831218094381
 30
0.0
 40
0.5000000000000007
100
AcDbArc
 50
180.000003070379
 51
296.5650500956143
  0
ARC
  5
238
330
62
100
AcDbEntity
  8
0
  6
Continuous
 62
     7
100
AcDbCircle
 10
134.8682859137425
 20
284.465087820688
 30
0.0
 40
0.5000000000027289
100
AcDbArc
 50
63.4349499043857
 51
180.0000030704768
  0
ARC
  5
239
330
62
100
AcDbEntity
  8
0
  6
Continuous
 62
     7
100
AcDbCircle
 10
138.250251924992
 20
282.7741048150629
 30
0.0
 40
0.5000000000027289
100
AcDbArc
 50
296.5650500956143
 51
63.4349499043857
  0
ARC
  5
23A
330
62
100
AcDbEntity
  8
0
  6
Continuous
 62
     7
100
AcDbCircle
 10
167.0955347136824
 20
211.1291048150629
 30
0.0
 40
45.00000000000376
100
AcDbArc
 50
57.53112152221146
 51
90.00000153523392
  0
ARC
  5
23B
330
62
100
AcDbEntity
  8
0
  6
Continuous
 62
     7
100
AcDbCircle
 10
182.3955347136816
 20
235.174104815063
 30
0.0
 40
16.50000000000687
100
AcDbArc
 50
350.7929180698988
 51
57.53112152220864
  0
ARC
  5
23C
330
62
100
AcDbEntity
  8
0
  6
Continuous
 62
     7
100
AcDbCircle
 10
167.0955347136824
 20
237.654104815063
 30
0.0
 40
32.00000000000001
100
AcDbArc
 50
269.9999984647778
 51
350.7929180698952
  0
ARC
  5
23D
330
62
100
AcDbEntity
  8
0
  6
Continuous
 62
     7
100
AcDbCircle
 10
167.0955347136824
 20
237.654104815063
 30
0.0
 40
31.9999999999979
100
AcDbArc
 50
189.2070788596386
 51
269.9999984647778
  0
ARC
  5
23E
330
62
100
AcDbEntity
  8
0
  6
Continuous
 62
     7
100
AcDbCircle
 10
151.7955347136813
 20
235.174104815063
 30
0.0
 40
16.50000000000109
100
AcDbArc
 50
122.4688815482539
 51
189.2070788596379
  0
ARC
  5
23F
330
62
100
AcDbEntity
  8
0
  6
Continuous
 62
     7
100
AcDbCircle
 10
167.0955347136824
 20
211.1291048150629
 30
0.0
 40
44.99999999999999
100
AcDbArc
 50
90.00000153523392
 51
122.4688815482517
  0
ARC
  5
240
330
62
100
AcDbEntity
  8
0
  6
Continuous
 62
     7
100
AcDbCircle
 10
147.5228995412526
 20
275.4952532771508
 30
0.0
 40
0.1564980011692029
100
AcDbArc
 50
300.6990111392829
 51
88.24157755716493
  0
ARC
  5
241
330
62
100
AcDbEntity
  8
0
  6
Continuous
 62
     7
100
AcDbCircle
 10
147.229365276562
 20
265.9338538059628
 30
0.0
 40
9.722402151440718
100
AcDbArc
 50
88.24157755430136
 51
120.6990142100409
  0
ARC
  5
242
330
62
100
AcDbEntity
  8
0
  6
Continuous
 62
     7
100
AcDbCircle
 10
142.3457024734926
 20
274.1592024209572
 30
0.0
 40
0.1564980011693831
100
AcDbArc
 50
120.6990142100475
 51
268.2415744836796
  0
ARC
  5
243
330
62
100
AcDbEntity
  8
0
  6
Continuous
 62
     7
100
AcDbCircle
 10
142.6392367381923
 20
283.7206018921438
 30
0.0
 40
9.722402151440509
100
AcDbArc
 50
268.2415744837438
 51
300.6990111395542
  0
ARC
  5
244
330
62
100
AcDbEntity
  8
0
  6
Continuous
 62
     7
100
AcDbCircle
 10
148.1338380288617
 20
272.991989830799
 30
0.0
 40
0.6042898518267914
100
AcDbArc
 50
324.8028906827873
 51
90.04326935992846
  0
ARC
  5
245
330
62
100
AcDbEntity
  8
0
  6
Continuous
 62
     7
100
AcDbCircle
 10
148.1376300166012
 20
267.9705944557591
 30
0.0
 40
5.62568665865494
100
AcDbArc
 50
90.04326936009403
 51
144.802893753171
  0
ARC
  5
246
330
62
100
AcDbEntity
  8
0
  6
Continuous
 62
     7
100
AcDbCircle
 10
144.0342751753924
 20
270.8648827860429
 30
0.0
 40
0.6042898518232499
100
AcDbArc
 50
144.8028937529728
 51
270.0432662898265
  0
ARC
  5
247
330
62
100
AcDbEntity
  8
0
  6
Continuous
 62
     7
100
AcDbCircle
 10
144.030483187662
 20
275.8862781610819
 30
0.0
 40
5.625686658654305
100
AcDbArc
 50
270.043266289625
 51
324.8028906826513
  0
ARC
  5
248
330
62
100
AcDbEntity
  8
0
  6
Continuous
 62
     7
100
AcDbCircle
 10
146.7138383708716
 20
267.366775250654
 30
0.0
 40
1.133078469089867
100
AcDbArc
 50
160.7481639321413
 51
272.8790849100727
  0
ARC
  5
249
330
62
100
AcDbEntity
  8
0
  6
Continuous
 62
     7
100
AcDbCircle
 10
146.5513707019527
 20
270.597270711789
 30
0.0
 40
4.36765675193343
100
AcDbArc
 50
272.8790849101225
 51
340.7481608616881
  0
ARC
  5
24A
330
62
100
AcDbEntity
  8
0
  6
Continuous
 62
     7
100
AcDbCircle
 10
149.6050663182014
 20
269.530762506884
 30
0.0
 40
1.133078469092586
100
AcDbArc
 50
340.7481608617575
 51
92.87908798018852
  0
ARC
  5
24B
330
62
100
AcDbEntity
  8
0
  6
Continuous
 62
     7
100
AcDbCircle
 10
149.7675339871221
 20
266.3002670457499
 30
0.0
 40
4.367656751933993
100
AcDbArc
 50
92.87908798050994
 51
160.7481639321354
  0
ARC
  5
24C
330
62
100
AcDbEntity
  8
0
  6
Continuous
 62
     7
100
AcDbCircle
 10
152.3885744309719
 20
265.3635620157011
 30
0.0
 40
1.569099495367354
100
AcDbArc
 50
352.3965874760672
 51
95.19998206621057
  0
ARC
  5
24D
330
62
100
AcDbEntity
  8
0
  6
Continuous
 62
     7
100
AcDbCircle
 10
152.5531093020418
 20
263.5556213120781
 30
0.0
 40
3.384511655622849
100
AcDbArc
 50
95.19998206630076
 51
172.3965905465128
  0
ARC
  5
24E
330
62
100
AcDbEntity
  8
0
  6
Continuous
 62
     7
100
AcDbCircle
 10
150.7536588597814
 20
263.7958283424459
 30
0.0
 40
1.569099495369759
100
AcDbArc
 50
172.3965905465618
 51
275.1999789958319
  0
ARC
  5
24F
330
62
100
AcDbEntity
  8
0
  6
Continuous
 62
     7
100
AcDbCircle
 10
150.5891239887023
 20
265.603769046068
 30
0.0
 40
3.384511655622178
100
AcDbArc
 50
275.1999789958263
 51
352.3965874760424
  0
ARC
  5
250
330
62
100
AcDbEntity
  8
0
  6
Continuous
 62
     7
100
AcDbCircle
 10
156.2466311368225
 20
261.7355666979393
 30
0.0
 40
2.589881780216176
100
AcDbArc
 50
46.84532444170344
 51
276.789313814199
  0
ARC
  5
251
330
62
100
AcDbEntity
  8
0
  6
Continuous
 62
     7
100
AcDbCircle
 10
158.9897635355628
 20
260.834589396015
 30
0.0
 40
2.954683593338165
100
AcDbArc
 50
109.2006885375414
 51
214.4339497184994
  0
ARC
  5
252
330
62
100
AcDbEntity
  8
1
  6
Continuous
 62
     7
100
AcDbCircle
 10
174.2149112848128
 20
261.7650220297951
 30
0.0
 40
0.728000000001544
100
AcDbArc
 50
187.6554565665118
 51
221.590008983824
  0
ARC
  5
253
330
62
100
AcDbEntity
  8
1
  6
Continuous
 62
     7
100
AcDbCircle
 10
200.2895347136819
 20
263.3703553271298
 30
0.0
 40
2.597850512067907
100
AcDbArc
 50
270.0
 51
304.087847519361
  0
ARC
  5
254
330
62
100
AcDbEntity
  8
1
  6
Continuous
 62
     7
100
AcDbCircle
 10
200.2510249011029
 20
263.1519553271301
 30
0.0
 40
2.597850512066998
100
AcDbArc
 50
270.0
 51
304.0878475193236
  0
CIRCLE
  5
255
330
62
100
AcDbEntity
  8
0
  6
Continuous
 62
     7
100
AcDbCircle
 10
159.1193501686812
 20
260.7632617948502
 30
0.0
 40
2.490692091920209
  0
CIRCLE
  5
256
330
62
100
AcDbEntity
  8
0
  6
Continuous
 62
     7
100
AcDbCircle
 10
167.0955347136824
 20
282.274104815062
 30
0.0
 40
17.5
  0
MTEXT
  5
258
330
62
100
AcDbEntity
  8
0
 62
     7
100
AcDbMText
 10
189.9887429171013
 20
256.74764312149
 30
0.0
 40
3.2
 41
0.0
 71
     5
 72
     1
  1
水道用コンセント
  7
CONVERTER_11
 73
     1
 44
0.54545454545455
  0
TEXT
  5
25A
330
62
100
AcDbEntity
  8
0
 62
     7
100
AcDbText
 10
164.0955347136824
 20
256.8278690683451
 30
0.0
 40
6.0
  1
開
 41
0.979
  7
CONVERTER_12
100
AcDbText
  0
TEXT
  5
25B
330
62
100
AcDbEntity
  8
0
 62
     7
100
AcDbText
 10
141.3027766078412
 20
279.619467522331
 30
0.0
 40
6.0
  1
閉
 41
0.979
  7
CONVERTER_12
100
AcDbText
  0
MTEXT
  5
25D
330
62
100
AcDbEntity
  8
1
 62
     7
100
AcDbMText
 10
174.7710249011016
 20
260.5541048150631
 30
0.0
 40
5.0
 41
0.0
 71
     8
 72
     1
  1
s
  7
CONVERTER_13
 73
     1
 44
1.32052821128451
  0
MTEXT
  5
25E
330
62
100
AcDbEntity
  8
1
 62
     7
100
AcDbMText
 10
183.2886249011026
 20
260.5541048150631
 30
0.0
 40
5.0
 41
0.0
 71
     8
 72
     1
  1
m
  7
CONVERTER_13
 73
     1
 44
1.32052821128451
  0
MTEXT
  5
260
330
62
100
AcDbEntity
  8
1
 62
     7
100
AcDbMText
 10
178.9206249011022
 20
260.5541048150631
 30
0.0
 40
5.0
 41
0.0
 71
     8
 72
     1
  1
i
  7
CONVERTER_14
 73
     1
 44
1.32052821128451
  0
MTEXT
  5
261
330
62
100
AcDbEntity
  8
1
 62
     7
100
AcDbMText
 10
199.6686249011018
 20
260.5541048150631
 30
0.0
 40
5.0
 41
0.0
 71
     8
 72
     1
  1
t
  7
CONVERTER_14
 73
     1
 44
1.32052821128451
  0
MTEXT
  5
262
330
62
100
AcDbEntity
  8
1
 62
     7
100
AcDbMText
 10
195.3006249011014
 20
260.5541048150631
 30
0.0
 40
5.0
 41
0.0
 71
     8
 72
     1
  1
e
  7
CONVERTER_14
 73
     1
 44
1.32052821128451
  0
MTEXT
  5
263
330
62
100
AcDbEntity
  8
1
 62
     7
100
AcDbMText
 10
192.0246249011016
 20
260.5541048150631
 30
0.0
 40
5.0
 41
0.0
 71
     8
 72
     1
  1
l
  7
CONVERTER_14
 73
     1
 44
1.32052821128451
  0
MTEXT
  5
264
330
62
100
AcDbEntity
  8
1
 62
     7
100
AcDbMText
 10
188.7486249011017
 20
260.5541048150631
 30
0.0
 40
5.0
 41
0.0
 71
     8
 72
     1
  1
p
  7
CONVERTER_14
 73
     1
 44
1.32052821128451
  0
MTEXT
  5
265
330
62
100
AcDbEntity
  8
1
 62
     7
100
AcDbMText
 10
182.9974249011029
 20
260.5541048150631
 30
0.0
 40
5.0
 41
0.0
 71
     8
 72
     1
  1
m
  7
CONVERTER_13
 73
     1
 44
1.32052821128451
  0
MTEXT
  5
266
330
62
100
AcDbEntity
  8
1
 62
     7
100
AcDbMText
 10
178.6294249011025
 20
260.5541048150631
 30
0.0
 40
5.0
 41
0.0
 71
     8
 72
     1
  1
i
  7
CONVERTER_14
 73
     1
 44
1.32052821128451
  0
MTEXT
  5
267
330
62
100
AcDbEntity
  8
1
 62
     7
100
AcDbMText
 10
174.4798249011019
 20
260.5541048150631
 30
0.0
 40
5.0
 41
0.0
 71
     8
 72
     1
  1
s
  7
CONVERTER_13
 73
     1
 44
1.32052821128451
  0
MTEXT
  5
268
330
62
100
AcDbEntity
  8
1
 62
     7
100
AcDbMText
 10
199.3774249011021
 20
260.5541048150631
 30
0.0
 40
5.0
 41
0.0
 71
     8
 72
     1
  1
t
  7
CONVERTER_14
 73
     1
 44
1.32052821128451
  0
MTEXT
  5
269
330
62
100
AcDbEntity
  8
1
 62
     7
100
AcDbMText
 10
195.0094249011017
 20
260.5541048150631
 30
0.0
 40
5.0
 41
0.0
 71
     8
 72
     1
  1
e
  7
CONVERTER_14
 73
     1
 44
1.32052821128451
  0
MTEXT
  5
26A
330
62
100
AcDbEntity
  8
1
 62
     7
100
AcDbMText
 10
191.7334249011019
 20
260.5541048150631
 30
0.0
 40
5.0
 41
0.0
 71
     8
 72
     1
  1
l
  7
CONVERTER_14
 73
     1
 44
1.32052821128451
  0
MTEXT
  5
26B
330
62
100
AcDbEntity
  8
1
 62
     7
100
AcDbMText
 10
188.4574249011021
 20
260.5541048150631
 30
0.0
 40
5.0
 41
0.0
 71
     8
 72
     1
  1
p
  7
CONVERTER_14
 73
     1
 44
1.32052821128451
  0
ENDBLK
  5
64
330
62
100
AcDbEntity
  8
0
100
AcDbBlockEnd
  0
BLOCK
  5
66
330
65
100
AcDbEntity
  8
0
100
AcDbBlockBegin
  2
V97D-H1
 70
     0
 10
275.7761987366921
 20
540.3281525258521
 30
0.0
  3
V97D-H1
  1

  0
LINE
  5
26C
330
65
100
AcDbEntity
  8
1
  6
Continuous
 62
     7
100
AcDbLine
 10
301.4206967266728
 20
277.1241048150619
 30
0.0
 11
301.4206967266728
 21
268.6241048150619
 31
0.0
  0
LINE
  5
26D
330
65
100
AcDbEntity
  8
1
  6
Continuous
 62
     7
100
AcDbLine
 10
301.4206967266728
 20
233.1241048150619
 30
0.0
 11
301.4206967266728
 21
197.2241048150631
 31
0.0
  0
LINE
  5
26E
330
65
100
AcDbEntity
  8
1
  6
Continuous
 62
     7
100
AcDbLine
 10
301.4206967266728
 20
258.8741048150619
 30
0.0
 11
301.4206967266728
 21
256.8741048150619
 31
0.0
  0
LINE
  5
26F
330
65
100
AcDbEntity
  8
1
  6
Continuous
 62
     7
100
AcDbLine
 10
301.4206967266728
 20
244.8741048150619
 30
0.0
 11
301.4206967266728
 21
242.8741048150619
 31
0.0
  0
LINE
  5
270
330
65
100
AcDbEntity
  8
0
  6
Continuous
 62
     7
100
AcDbLine
 10
124.495534713682
 20
186.824104815064
 30
0.0
 11
209.6955347136827
 21
186.824104815064
 31
0.0
  0
LINE
  5
271
330
65
100
AcDbEntity
  8
0
  6
Continuous
 62
     7
100
AcDbLine
 10
217.6955347136827
 20
194.824104815064
 30
0.0
 11
217.6955347136827
 21
309.024104815062
 31
0.0
  0
LINE
  5
272
330
65
100
AcDbEntity
  8
0
  6
Continuous
 62
     7
100
AcDbLine
 10
124.495534713682
 20
317.024104815062
 30
0.0
 11
209.6955347136827
 21
317.024104815062
 31
0.0
  0
LINE
  5
273
330
65
100
AcDbEntity
  8
0
  6
Continuous
 62
     7
100
AcDbLine
 10
116.495534713682
 20
194.824104815064
 30
0.0
 11
116.495534713682
 21
309.024104815062
 31
0.0
  0
LINE
  5
274
330
65
100
AcDbEntity
  8
0
  6
Continuous
 62
     7
100
AcDbLine
 10
118.3762519788015
 20
380.650011296806
 30
0.0
 11
129.3907949584918
 21
377.8337929213171
 31
0.0
  0
LINE
  5
275
330
65
100
AcDbEntity
  8
0
  6
Continuous
 62
     7
100
AcDbLine
 10
204.495534713682
 20
377.7558765066369
 30
0.0
 11
215.8148174485723
 21
380.650011296806
 31
0.0
  0
LINE
  5
276
330
65
100
AcDbEntity
  8
0
  6
Continuous
 62
     7
100
AcDbLine
 10
116.495534713682
 20
384.5058765066369
 30
0.0
 11
217.6955347136827
 21
384.5058765066369
 31
0.0
  0
LINE
  5
277
330
65
100
AcDbEntity
  8
0
  6
Continuous
 62
     7
100
AcDbLine
 10
116.495534713682
 20
384.5058765066369
 30
0.0
 11
116.495534713682
 21
383.0720948821249
 31
0.0
  0
LINE
  5
278
330
65
100
AcDbEntity
  8
0
  6
Continuous
 62
     7
100
AcDbLine
 10
217.6955347136827
 20
384.5058765066369
 30
0.0
 11
217.6955347136827
 21
383.0720948821249
 31
0.0
  0
LINE
  5
279
330
65
100
AcDbEntity
  8
1
  6
Continuous
 62
     7
100
AcDbLine
 10
276.6706967266728
 20
227.2741048150629
 30
0.0
 11
276.6706967266728
 21
188.824104815064
 31
0.0
  0
LINE
  5
27A
330
65
100
AcDbEntity
  8
1
  6
Continuous
 62
     7
100
AcDbLine
 10
276.6706967266728
 20
243.074104815063
 30
0.0
 11
276.6706967266728
 21
227.2741048150629
 31
0.0
  0
LINE
  5
27B
330
65
100
AcDbEntity
  8
1
  6
Continuous
 62
     7
100
AcDbLine
 10
276.6706967266728
 20
315.024104815062
 30
0.0
 11
276.6706967266728
 21
243.074104815063
 31
0.0
  0
LINE
  5
27C
330
65
100
AcDbEntity
  8
1
  6
Continuous
 62
     7
100
AcDbLine
 10
278.6706967266728
 20
317.024104815062
 30
0.0
 11
283.4206967266728
 21
317.024104815062
 31
0.0
  0
LINE
  5
27D
330
65
100
AcDbEntity
  8
1
  6
Continuous
 62
     7
100
AcDbLine
 10
278.6706967266728
 20
186.824104815064
 30
0.0
 11
283.4206967266728
 21
186.824104815064
 31
0.0
  0
LINE
  5
27E
330
65
100
AcDbEntity
  8
1
  6
Continuous
 62
     7
100
AcDbLine
 10
280.7122566317121
 20
192.824104815064
 30
0.0
 11
280.7122566317121
 21
311.024104815062
 31
0.0
  0
LINE
  5
27F
330
65
100
AcDbEntity
  8
0
  6
Continuous
 62
     7
100
AcDbLine
 10
133.6955347136827
 20
305.2241048150631
 30
0.0
 11
200.495534713682
 21
305.2241048150631
 31
0.0
  0
LINE
  5
280
330
65
100
AcDbEntity
  8
0
  6
Continuous
 62
     7
100
AcDbLine
 10
129.6955347136827
 20
202.7241048150631
 30
0.0
 11
129.6955347136827
 21
301.2241048150631
 31
0.0
  0
LINE
  5
281
330
65
100
AcDbEntity
  8
0
  6
Continuous
 62
     7
100
AcDbLine
 10
204.495534713682
 20
202.7241048150631
 30
0.0
 11
204.495534713682
 21
301.2241048150631
 31
0.0
  0
LINE
  5
282
330
65
100
AcDbEntity
  8
0
  6
Continuous
 62
     7
100
AcDbLine
 10
133.6955347136827
 20
198.7241048150631
 30
0.0
 11
200.495534713682
 21
198.7241048150631
 31
0.0
  0
LINE
  5
283
330
65
100
AcDbEntity
  8
1
  6
Continuous
 62
     7
100
AcDbLine
 10
283.4206967266728
 20
197.2241048150631
 30
0.0
 11
301.4206967266728
 21
197.2241048150631
 31
0.0
  0
LINE
  5
284
330
65
100
AcDbEntity
  8
1
  6
Continuous
 62
     7
100
AcDbLine
 10
283.4206967266728
 20
186.824104815064
 30
0.0
 11
283.4206967266728
 21
317.024104815062
 31
0.0
  0
LINE
  5
285
330
65
100
AcDbEntity
  8
0
  6
Continuous
 62
     7
100
AcDbLine
 10
130.0100776933723
 20
377.7558765066369
 30
0.0
 11
204.495534713682
 21
377.7558765066369
 31
0.0
  0
ARC
  5
286
330
65
100
AcDbEntity
  8
0
  6
Continuous
 62
     7
100
AcDbCircle
 10
209.6955347136827
 20
194.824104815064
 30
0.0
 40
8.000000000000002
100
AcDbArc
 50
269.9999984647553
 51
0.0
  0
ARC
  5
287
330
65
100
AcDbEntity
  8
0
  6
Continuous
 62
     7
100
AcDbCircle
 10
209.6955347136827
 20
309.024104815062
 30
0.0
 40
8.0
100
AcDbArc
 50
0.0
 51
90.00000153524469
  0
ARC
  5
288
330
65
100
AcDbEntity
  8
0
  6
Continuous
 62
     7
100
AcDbCircle
 10
124.495534713682
 20
309.024104815062
 30
0.0
 40
8.000000000000002
100
AcDbArc
 50
90.00000153524479
 51
180.0000030704674
  0
ARC
  5
289
330
65
100
AcDbEntity
  8
0
  6
Continuous
 62
     7
100
AcDbCircle
 10
124.495534713682
 20
194.824104815064
 30
0.0
 40
8.00000000000001
100
AcDbArc
 50
180.0000030704737
 51
269.9999984647552
  0
ARC
  5
28A
330
65
100
AcDbEntity
  8
1
  6
Continuous
 62
     7
100
AcDbCircle
 10
272.7733060838618
 20
310.037664650185
 30
0.0
 40
8.000000000005903
100
AcDbArc
 50
7.08288337933693
 51
54.69216085848696
  0
ARC
  5
28B
330
65
100
AcDbEntity
  8
1
  6
Continuous
 62
     7
100
AcDbCircle
 10
272.7733060838618
 20
193.81054497994
 30
0.0
 40
8.000000000004826
100
AcDbArc
 50
305.3078391415167
 51
352.9171166206704
  0
ARC
  5
28C
330
65
100
AcDbEntity
  8
0
  6
Continuous
 62
     7
100
AcDbCircle
 10
200.495534713682
 20
301.2241048150631
 30
0.0
 40
4.0
100
AcDbArc
 50
0.0
 51
90.0
  0
ARC
  5
28D
330
65
100
AcDbEntity
  8
0
  6
Continuous
 62
     7
100
AcDbCircle
 10
133.6955347136827
 20
301.2241048150631
 30
0.0
 40
4.0
100
AcDbArc
 50
90.0
 51
180.0
  0
ARC
  5
28E
330
65
100
AcDbEntity
  8
0
  6
Continuous
 62
     7
100
AcDbCircle
 10
131.6955347136827
 20
295.2241048150631
 30
0.0
 40
2.000000000000043
100
AcDbArc
 50
151.0449756281379
 51
180.0000030704491
  0
ARC
  5
28F
330
65
100
AcDbEntity
  8
0
  6
Continuous
 62
     7
100
AcDbCircle
 10
133.6955347136827
 20
202.7241048150631
 30
0.0
 40
4.0
100
AcDbArc
 50
180.0
 51
270.0
  0
ARC
  5
290
330
65
100
AcDbEntity
  8
0
  6
Continuous
 62
     7
100
AcDbCircle
 10
187.8464240730118
 20
295.2241048150631
 30
0.0
 40
10.00000000000014
100
AcDbArc
 50
70.0515564111757
 51
90.00000153523983
  0
ARC
  5
291
330
65
100
AcDbEntity
  8
0
  6
Continuous
 62
     7
100
AcDbCircle
 10
194.495534713682
 20
230.373215455737
 30
0.0
 40
10.0
100
AcDbArc
 50
347.1614318590159
 51
0.0
  0
ARC
  5
292
330
65
100
AcDbEntity
  8
0
  6
Continuous
 62
     7
100
AcDbCircle
 10
200.495534713682
 20
202.7241048150631
 30
0.0
 40
4.0
100
AcDbArc
 50
270.0
 51
0.0
  0
ARC
  5
293
330
65
100
AcDbEntity
  8
0
  6
Continuous
 62
     7
100
AcDbCircle
 10
139.6955347136827
 20
205.0749941743902
 30
0.0
 40
9.999999999999995
100
AcDbArc
 50
167.1614318590161
 51
180.0000030704717
  0
ARC
  5
294
330
65
100
AcDbEntity
  8
0
  6
Continuous
 62
     7
100
AcDbCircle
 10
202.495534713682
 20
295.2241048150631
 30
0.0
 40
2.0
100
AcDbArc
 50
0.0
 51
28.95502437186209
  0
ARC
  5
295
330
65
100
AcDbEntity
  8
0
  6
Continuous
 62
     7
100
AcDbCircle
 10
146.3446453543529
 20
295.2241048150631
 30
0.0
 40
10.0
100
AcDbArc
 50
90.00000153518774
 51
109.9484435887753
  0
ARC
  5
296
330
65
100
AcDbEntity
  8
0
  6
Continuous
 62
     7
100
AcDbCircle
 10
194.495534713682
 20
205.0749941743902
 30
0.0
 40
10.0
100
AcDbArc
 50
0.0
 51
12.83856814097901
  0
ARC
  5
297
330
65
100
AcDbEntity
  8
0
  6
Continuous
 62
     7
100
AcDbCircle
 10
131.6955347136827
 20
223.7241048150631
 30
0.0
 40
2.000000000000003
100
AcDbArc
 50
180.0000030704491
 51
208.9550243718357
  0
ARC
  5
298
330
65
100
AcDbEntity
  8
0
  6
Continuous
 62
     7
100
AcDbCircle
 10
215.1955347136827
 20
383.0720948821249
 30
0.0
 40
2.500000000000713
100
AcDbArc
 50
284.342226030548
 51
0.0
  0
ARC
  5
299
330
65
100
AcDbEntity
  8
0
  6
Continuous
 62
     7
100
AcDbCircle
 10
130.0100776933723
 20
380.2558765066369
 30
0.0
 40
2.499999999999335
100
AcDbArc
 50
255.6577739696598
 51
270.0
  0
ARC
  5
29A
330
65
100
AcDbEntity
  8
0
  6
Continuous
 62
     7
100
AcDbCircle
 10
118.995534713682
 20
383.0720948821249
 30
0.0
 40
2.5
100
AcDbArc
 50
180.0
 51
255.6577739696546
  0
ARC
  5
29B
330
65
100
AcDbEntity
  8
1
  6
Continuous
 62
     7
100
AcDbCircle
 10
278.6706967266728
 20
315.024104815062
 30
0.0
 40
2.0
100
AcDbArc
 50
90.0
 51
180.0
  0
ARC
  5
29C
330
65
100
AcDbEntity
  8
1
  6
Continuous
 62
     7
100
AcDbCircle
 10
278.6706967266728
 20
188.824104815064
 30
0.0
 40
2.0
100
AcDbArc
 50
180.0
 51
270.0
  0
ENDBLK
  5
67
330
65
100
AcDbEntity
  8
0
100
AcDbBlockEnd
  0
BLOCK
  5
69
330
68
100
AcDbEntity
  8
0
100
AcDbBlockBegin
  2
BIS2
 70
     0
 10
330.4706605549727
 20
231.6241048150619
 30
0.0
  3
BIS2
  1

  0
LINE
  5
29D
330
68
100
AcDbEntity
  8
1
  6
Continuous
 62
     7
100
AcDbLine
 10
332.6706605549716
 20
235.6241048150619
 30
0.0
 11
334.2206605549727
 21
235.6241048150619
 31
0.0
  0
LINE
  5
29E
330
68
100
AcDbEntity
  8
1
  6
Continuous
 62
     7
100
AcDbLine
 10
334.2206605549727
 20
231.6241048150619
 30
0.0
 11
333.6706605549716
 21
231.6241048150619
 31
0.0
  0
LINE
  5
29F
330
68
100
AcDbEntity
  8
1
  6
Continuous
 62
     7
100
AcDbLine
 10
334.2206605549727
 20
235.6241048150619
 30
0.0
 11
334.4706605549727
 21
235.3741048150619
 31
0.0
  0
LINE
  5
2A0
330
68
100
AcDbEntity
  8
1
  6
Continuous
 62
     2
100
AcDbLine
 10
332.6706605549716
 20
235.3741048150619
 30
0.0
 11
334.4706605549727
 21
235.3741048150619
 31
0.0
  0
LINE
  5
2A1
330
68
100
AcDbEntity
  8
1
  6
Continuous
 62
     7
100
AcDbLine
 10
334.4706605549727
 20
235.3741048150619
 30
0.0
 11
334.4706605549727
 21
231.8741048150619
 31
0.0
  0
LINE
  5
2A2
330
68
100
AcDbEntity
  8
1
  6
Continuous
 62
     7
100
AcDbLine
 10
334.4706605549727
 20
231.8741048150619
 30
0.0
 11
334.2206605549727
 21
231.6241048150619
 31
0.0
  0
LINE
  5
2A3
330
68
100
AcDbEntity
  8
1
  6
Continuous
 62
     7
100
AcDbLine
 10
334.2206605549727
 20
235.6241048150619
 30
0.0
 11
334.2206605549727
 21
231.6241048150619
 31
0.0
  0
LINE
  5
2A4
330
68
100
AcDbEntity
  8
1
  6
DASH_CENTER
 62
     2
100
AcDbLine
 10
335.9706605549727
 20
233.6241048150619
 30
0.0
 11
330.4706605549727
 21
233.6241048150619
 31
0.0
  0
LINE
  5
2A5
330
68
100
AcDbEntity
  8
1
  6
Continuous
 62
     2
100
AcDbLine
 10
333.6706605549716
 20
231.8741048150619
 30
0.0
 11
334.4706605549727
 21
231.8741048150619
 31
0.0
  0
ENDBLK
  5
6A
330
68
100
AcDbEntity
  8
0
100
AcDbBlockEnd
  0
BLOCK
  5
6C
330
6B
100
AcDbEntity
  8
0
100
AcDbBlockBegin
  2
BIS
 70
     0
 10
301.4206967266728
 20
226.8741048150619
 30
0.0
  3
BIS
  1

  0
LINE
  5
2A6
330
6B
100
AcDbEntity
  8
1
  6
Continuous
 62
     7
100
AcDbLine
 10
301.4206967266728
 20
230.8741048150619
 30
0.0
 11
313.5081906700016
 21
230.8741048150619
 31
0.0
  0
LINE
  5
2A7
330
6B
100
AcDbEntity
  8
1
  6
Continuous
 62
     7
100
AcDbLine
 10
301.4206967266728
 20
226.8741048150619
 30
0.0
 11
313.5081906700016
 21
226.8741048150619
 31
0.0
  0
LINE
  5
2A8
330
6B
100
AcDbEntity
  8
1
  6
Continuous
 62
     7
100
AcDbLine
 10
301.4206967266728
 20
274.8741048150619
 30
0.0
 11
313.5081906700016
 21
274.8741048150619
 31
0.0
  0
LINE
  5
2A9
330
6B
100
AcDbEntity
  8
1
  6
Continuous
 62
     7
100
AcDbLine
 10
313.5081906700016
 20
270.8741048150619
 30
0.0
 11
301.4206967266728
 21
270.8741048150619
 31
0.0
  0
LINE
  5
2AA
330
6B
100
AcDbEntity
  8
1
  6
Continuous
 62
     2
100
AcDbLine
 10
313.5081906700016
 20
274.495104815062
 30
0.0
 11
301.4206967266728
 21
274.495104815062
 31
0.0
  0
LINE
  5
2AB
330
6B
100
AcDbEntity
  8
1
  6
Continuous
 62
     2
100
AcDbLine
 10
301.4206967266728
 20
271.2531048150622
 30
0.0
 11
313.5081906700016
 21
271.2531048150622
 31
0.0
  0
LINE
  5
2AC
330
6B
100
AcDbEntity
  8
1
  6
Continuous
 62
     2
100
AcDbLine
 10
301.4206967266728
 20
230.495104815062
 30
0.0
 11
313.5081906700016
 21
230.495104815062
 31
0.0
  0
LINE
  5
2AD
330
6B
100
AcDbEntity
  8
1
  6
Continuous
 62
     2
100
AcDbLine
 10
313.5081906700016
 20
227.2531048150622
 30
0.0
 11
301.4206967266728
 21
227.2531048150622
 31
0.0
  0
ENDBLK
  5
6D
330
6B
100
AcDbEntity
  8
0
100
AcDbBlockEnd
  0
BLOCK
  5
6F
330
6E
100
AcDbEntity
  8
0
100
AcDbBlockBegin
  2
V97-H12
 70
     0
 10
934.311836477862
 20
100.036847201859
 30
0.0
  3
V97-H12
  1

  0
LINE
  5
2AE
330
6E
100
AcDbEntity
  8
0
  6
Continuous
 62
     7
100
AcDbLine
 10
313.5081906700016
 20
289.3741048150619
 30
0.0
 11
313.5081906700016
 21
212.3741048150619
 31
0.0
  0
LINE
  5
2AF
330
6E
100
AcDbEntity
  8
0
  6
Continuous
 62
     7
100
AcDbLine
 10
324.5081906700016
 20
261.8741048150619
 30
0.0
 11
324.5081906700016
 21
239.8741048150619
 31
0.0
  0
LINE
  5
2B0
330
6E
100
AcDbEntity
  8
0
  6
Continuous
 62
     7
100
AcDbLine
 10
314.5081906700016
 20
238.8741048150619
 30
0.0
 11
323.5081906700016
 21
238.8741048150619
 31
0.0
  0
LINE
  5
2B1
330
6E
100
AcDbEntity
  8
0
  6
Continuous
 62
     7
100
AcDbLine
 10
314.5081906700016
 20
262.8741048150619
 30
0.0
 11
323.5081906700016
 21
262.8741048150619
 31
0.0
  0
LINE
  5
2B2
330
6E
100
AcDbEntity
  8
0
  6
Continuous
 62
     7
100
AcDbLine
 10
323.5081906700016
 20
283.3741048150619
 30
0.0
 11
314.5081906700016
 21
283.3741048150619
 31
0.0
  0
LINE
  5
2B3
330
6E
100
AcDbEntity
  8
0
  6
Continuous
 62
     7
100
AcDbLine
 10
323.5081906700016
 20
218.3741048150619
 30
0.0
 11
314.5081906700016
 21
218.3741048150619
 31
0.0
  0
LINE
  5
2B4
330
6E
100
AcDbEntity
  8
0
  6
Continuous
 62
     7
100
AcDbLine
 10
324.5081906700016
 20
213.3741048150619
 30
0.0
 11
324.5081906700016
 21
217.3741048150619
 31
0.0
  0
LINE
  5
2B5
330
6E
100
AcDbEntity
  8
0
  6
Continuous
 62
     7
100
AcDbLine
 10
324.5081906700016
 20
288.3741048150619
 30
0.0
 11
324.5081906700016
 21
284.3741048150619
 31
0.0
  0
LINE
  5
2B6
330
6E
100
AcDbEntity
  8
0
  6
Continuous
 62
     7
100
AcDbLine
 10
313.5081906700016
 20
212.3741048150619
 30
0.0
 11
323.5081906700016
 21
212.3741048150619
 31
0.0
  0
LINE
  5
2B7
330
6E
100
AcDbEntity
  8
0
  6
Continuous
 62
     7
100
AcDbLine
 10
313.5081906700016
 20
289.3741048150619
 30
0.0
 11
323.5081906700016
 21
289.3741048150619
 31
0.0
  0
LINE
  5
2B8
330
6E
100
AcDbEntity
  8
0
  6
Continuous
 62
     7
100
AcDbLine
 10
314.5081906700016
 20
289.3741048150619
 30
0.0
 11
314.5081906700016
 21
283.3741048150619
 31
0.0
  0
LINE
  5
2B9
330
6E
100
AcDbEntity
  8
0
  6
Continuous
 62
     7
100
AcDbLine
 10
314.5081906700016
 20
218.3741048150619
 30
0.0
 11
314.5081906700016
 21
212.3741048150619
 31
0.0
  0
LINE
  5
2BA
330
6E
100
AcDbEntity
  8
0
  6
Continuous
 62
     7
100
AcDbLine
 10
314.5081906700016
 20
238.8741048150619
 30
0.0
 11
314.5081906700016
 21
218.3741048150619
 31
0.0
  0
LINE
  5
2BB
330
6E
100
AcDbEntity
  8
0
  6
Continuous
 62
     7
100
AcDbLine
 10
314.5081906700016
 20
262.8741048150619
 30
0.0
 11
314.5081906700016
 21
238.8741048150619
 31
0.0
  0
LINE
  5
2BC
330
6E
100
AcDbEntity
  8
0
  6
Continuous
 62
     7
100
AcDbLine
 10
314.5081906700016
 20
283.3741048150619
 30
0.0
 11
314.5081906700016
 21
262.8741048150619
 31
0.0
  0
LINE
  5
2BD
330
6E
100
AcDbEntity
  8
0
  6
Continuous
 62
     7
100
AcDbLine
 10
223.8957761155216
 20
288.3741048150619
 30
0.0
 11
223.8957761155216
 21
213.3741048150619
 31
0.0
  0
LINE
  5
2BE
330
6E
100
AcDbEntity
  8
0
  6
Continuous
 62
     7
100
AcDbLine
 10
222.8957761155216
 20
212.3741048150619
 30
0.0
 11
218.3455347136824
 21
212.3741048150619
 31
0.0
  0
LINE
  5
2BF
330
6E
100
AcDbEntity
  8
0
  6
Continuous
 62
     7
100
AcDbLine
 10
222.8957761155216
 20
289.3741048150619
 30
0.0
 11
218.3455347136824
 21
289.3741048150619
 31
0.0
  0
LINE
  5
2C0
330
6E
100
AcDbEntity
  8
0
  6
Continuous
 62
     7
100
AcDbLine
 10
111.2952933118522
 20
221.8741048150619
 30
0.0
 11
115.8455347136824
 21
221.8741048150619
 31
0.0
  0
LINE
  5
2C1
330
6E
100
AcDbEntity
  8
0
  6
Continuous
 62
     7
100
AcDbLine
 10
110.2952933118522
 20
222.8741048150619
 30
0.0
 11
110.2952933118522
 21
297.8741048150619
 31
0.0
  0
LINE
  5
2C2
330
6E
100
AcDbEntity
  8
0
  6
Continuous
 62
     7
100
AcDbLine
 10
111.2952933118522
 20
298.8741048150619
 30
0.0
 11
115.8455347136824
 21
298.8741048150619
 31
0.0
  0
LINE
  5
2C3
330
6E
100
AcDbEntity
  8
1
  6
Continuous
 62
     7
100
AcDbLine
 10
223.8957761155216
 20
415.7933704499692
 30
0.0
 11
223.8957761155216
 21
416.7933704499692
 31
0.0
  0
LINE
  5
2C4
330
6E
100
AcDbEntity
  8
1
  6
Continuous
 62
     7
100
AcDbLine
 10
223.8957761155216
 20
415.7933704499692
 30
0.0
 11
208.6955347136827
 21
415.7933704499692
 31
0.0
  0
LINE
  5
2C5
330
6E
100
AcDbEntity
  8
1
  6
Continuous
 62
     7
100
AcDbLine
 10
223.8957761155216
 20
416.7933704499692
 30
0.0
 11
209.6955347136827
 21
416.7933704499692
 31
0.0
  0
LINE
  5
2C6
330
6E
100
AcDbEntity
  8
1
  6
Continuous
 62
     7
100
AcDbLine
 10
209.6955347136827
 20
416.7933704499692
 30
0.0
 11
209.6955347136827
 21
426.7933704499692
 31
0.0
  0
LINE
  5
2C7
330
6E
100
AcDbEntity
  8
1
  6
Continuous
 62
     7
100
AcDbLine
 10
209.6955347136827
 20
426.7933704499692
 30
0.0
 11
208.6955347136827
 21
426.7933704499692
 31
0.0
  0
LINE
  5
2C8
330
6E
100
AcDbEntity
  8
1
  6
Continuous
 62
     7
100
AcDbLine
 10
110.2952933118522
 20
416.7933704499692
 30
0.0
 11
110.2952933118522
 21
415.7933704499692
 31
0.0
  0
LINE
  5
2C9
330
6E
100
AcDbEntity
  8
1
  6
Continuous
 62
     7
100
AcDbLine
 10
125.495534713682
 20
415.7933704499692
 30
0.0
 11
110.2952933118522
 21
415.7933704499692
 31
0.0
  0
LINE
  5
2CA
330
6E
100
AcDbEntity
  8
1
  6
Continuous
 62
     7
100
AcDbLine
 10
124.495534713682
 20
416.7933704499692
 30
0.0
 11
110.2952933118522
 21
416.7933704499692
 31
0.0
  0
LINE
  5
2CB
330
6E
100
AcDbEntity
  8
1
  6
Continuous
 62
     7
100
AcDbLine
 10
124.495534713682
 20
426.7933704499692
 30
0.0
 11
124.495534713682
 21
416.7933704499692
 31
0.0
  0
LINE
  5
2CC
330
6E
100
AcDbEntity
  8
1
  6
Continuous
 62
     7
100
AcDbLine
 10
125.495534713682
 20
426.7933704499692
 30
0.0
 11
124.495534713682
 21
426.7933704499692
 31
0.0
  0
LINE
  5
2CD
330
6E
100
AcDbEntity
  8
1
  6
CENTER_DASH_DASH
 62
     2
100
AcDbLine
 10
223.8957761155216
 20
389.5058765066369
 30
0.0
 11
223.8957761155216
 21
390.5058765066369
 31
0.0
  0
LINE
  5
2CE
330
6E
100
AcDbEntity
  8
1
  6
CENTER_DASH_DASH
 62
     2
100
AcDbLine
 10
223.8957761155216
 20
389.5058765066369
 30
0.0
 11
208.6955347136827
 21
389.5058765066369
 31
0.0
  0
LINE
  5
2CF
330
6E
100
AcDbEntity
  8
1
  6
CENTER_DASH_DASH
 62
     2
100
AcDbLine
 10
223.8957761155216
 20
390.5058765066369
 30
0.0
 11
209.6955347136827
 21
390.5058765066369
 31
0.0
  0
LINE
  5
2D0
330
6E
100
AcDbEntity
  8
1
  6
CENTER_DASH_DASH
 62
     2
100
AcDbLine
 10
209.6955347136827
 20
390.5058765066369
 30
0.0
 11
209.6955347136827
 21
400.5058765066369
 31
0.0
  0
LINE
  5
2D1
330
6E
100
AcDbEntity
  8
1
  6
CENTER_DASH_DASH
 62
     2
100
AcDbLine
 10
209.6955347136827
 20
400.5058765066369
 30
0.0
 11
208.6955347136827
 21
400.5058765066369
 31
0.0
  0
LINE
  5
2D2
330
6E
100
AcDbEntity
  8
1
  6
CENTER_DASH_DASH
 62
     2
100
AcDbLine
 10
110.2952933118522
 20
390.5058765066369
 30
0.0
 11
110.2952933118522
 21
389.5058765066369
 31
0.0
  0
LINE
  5
2D3
330
6E
100
AcDbEntity
  8
1
  6
CENTER_DASH_DASH
 62
     2
100
AcDbLine
 10
125.495534713682
 20
389.5058765066369
 30
0.0
 11
110.2952933118522
 21
389.5058765066369
 31
0.0
  0
LINE
  5
2D4
330
6E
100
AcDbEntity
  8
1
  6
CENTER_DASH_DASH
 62
     2
100
AcDbLine
 10
124.495534713682
 20
390.5058765066369
 30
0.0
 11
110.2952933118522
 21
390.5058765066369
 31
0.0
  0
LINE
  5
2D5
330
6E
100
AcDbEntity
  8
1
  6
CENTER_DASH_DASH
 62
     2
100
AcDbLine
 10
124.495534713682
 20
400.5058765066369
 30
0.0
 11
124.495534713682
 21
390.5058765066369
 31
0.0
  0
LINE
  5
2D6
330
6E
100
AcDbEntity
  8
1
  6
CENTER_DASH_DASH
 62
     2
100
AcDbLine
 10
125.495534713682
 20
400.5058765066369
 30
0.0
 11
124.495534713682
 21
400.5058765066369
 31
0.0
  0
ARC
  5
2D7
330
6E
100
AcDbEntity
  8
0
  6
Continuous
 62
     7
100
AcDbCircle
 10
323.5081906700016
 20
213.3741048150619
 30
0.0
 40
1.0
100
AcDbArc
 50
269.9999984645173
 51
0.0
  0
ARC
  5
2D8
330
6E
100
AcDbEntity
  8
0
  6
Continuous
 62
     7
100
AcDbCircle
 10
323.5081906700016
 20
217.3741048150619
 30
0.0
 40
1.0
100
AcDbArc
 50
0.0
 51
90.00000153548264
  0
ARC
  5
2D9
330
6E
100
AcDbEntity
  8
0
  6
Continuous
 62
     7
100
AcDbCircle
 10
323.5081906700016
 20
284.3741048150619
 30
0.0
 40
1.0
100
AcDbArc
 50
269.9999984645173
 51
0.0
  0
ARC
  5
2DA
330
6E
100
AcDbEntity
  8
0
  6
Continuous
 62
     7
100
AcDbCircle
 10
323.5081906700016
 20
288.3741048150619
 30
0.0
 40
1.0
100
AcDbArc
 50
0.0
 51
90.00000153548264
  0
ARC
  5
2DB
330
6E
100
AcDbEntity
  8
0
  6
Continuous
 62
     7
100
AcDbCircle
 10
323.5081906700016
 20
239.8741048150619
 30
0.0
 40
1.0
100
AcDbArc
 50
269.9999984645173
 51
0.0
  0
ARC
  5
2DC
330
6E
100
AcDbEntity
  8
0
  6
Continuous
 62
     7
100
AcDbCircle
 10
323.5081906700016
 20
261.8741048150619
 30
0.0
 40
1.0
100
AcDbArc
 50
0.0
 51
90.00000153548264
  0
ARC
  5
2DD
330
6E
100
AcDbEntity
  8
0
  6
Continuous
 62
     7
100
AcDbCircle
 10
222.8957761155216
 20
213.3741048150619
 30
0.0
 40
1.0
100
AcDbArc
 50
269.999998464519
 51
0.0
  0
ARC
  5
2DE
330
6E
100
AcDbEntity
  8
0
  6
Continuous
 62
     7
100
AcDbCircle
 10
222.8957761155216
 20
288.3741048150619
 30
0.0
 40
1.0
100
AcDbArc
 50
0.0
 51
90.00000153548102
  0
ARC
  5
2DF
330
6E
100
AcDbEntity
  8
0
  6
Continuous
 62
     7
100
AcDbCircle
 10
111.2952933118522
 20
222.8741048150619
 30
0.0
 40
1.000000000000001
100
AcDbArc
 50
180.0000030704132
 51
269.9999984644156
  0
ARC
  5
2E0
330
6E
100
AcDbEntity
  8
0
  6
Continuous
 62
     7
100
AcDbCircle
 10
111.2952933118522
 20
297.8741048150619
 30
0.0
 40
1.0
100
AcDbArc
 50
90.00000153558442
 51
180.0000030704116
  0
ENDBLK
  5
70
330
6E
100
AcDbEntity
  8
0
100
AcDbBlockEnd
  0
BLOCK
  5
72
330
71
100
AcDbEntity
  8
0
100
AcDbBlockBegin
  2
V97-H11
 70
     0
 10
870.3613366859518
 20
675.6735769298471
 30
0.0
  3
V97-H11
  1

  0
LINE
  5
2E1
330
71
100
AcDbEntity
  8
0
  6
Continuous
 62
     7
100
AcDbLine
 10
330.6706605549716
 20
309.1241048150632
 30
0.0
 11
302.4206967266728
 21
309.1241048150632
 31
0.0
  0
LINE
  5
2E2
330
71
100
AcDbEntity
  8
0
  6
Continuous
 62
     7
100
AcDbLine
 10
283.4206605549716
 20
308.1241048150632
 30
0.0
 11
302.4206967266728
 21
308.1241048150632
 31
0.0
  0
LINE
  5
2E3
330
71
100
AcDbEntity
  8
0
  6
Continuous
 62
     7
100
AcDbLine
 10
283.4206605549716
 20
307.1241048150632
 30
0.0
 11
302.4206967266728
 21
307.1241048150632
 31
0.0
  0
LINE
  5
2E4
330
71
100
AcDbEntity
  8
0
  6
Continuous
 62
     7
100
AcDbLine
 10
301.4206967266728
 20
289.8741048150632
 30
0.0
 11
301.4206967266728
 21
304.6241048150632
 31
0.0
  0
LINE
  5
2E5
330
71
100
AcDbEntity
  8
0
  6
Continuous
 62
     7
100
AcDbLine
 10
302.4206967266728
 20
287.8741048150632
 30
0.0
 11
302.4206967266728
 21
289.8741048150632
 31
0.0
  0
LINE
  5
2E6
330
71
100
AcDbEntity
  8
0
  6
Continuous
 62
     7
100
AcDbLine
 10
303.4206967266728
 20
224.6241048150619
 30
0.0
 11
312.4206605549716
 21
224.6241048150619
 31
0.0
  0
LINE
  5
2E7
330
71
100
AcDbEntity
  8
0
  6
Continuous
 62
     7
100
AcDbLine
 10
284.4206605549716
 20
233.1241048150619
 30
0.0
 11
312.4206605549716
 21
233.1241048150619
 31
0.0
  0
LINE
  5
2E8
330
71
100
AcDbEntity
  8
0
  6
Continuous
 62
     7
100
AcDbLine
 10
284.4206605549716
 20
268.6241048150619
 30
0.0
 11
312.4206605549825
 21
268.6241048150619
 31
0.0
  0
LINE
  5
2E9
330
71
100
AcDbEntity
  8
0
  6
Continuous
 62
     7
100
AcDbLine
 10
284.4206605549716
 20
277.1241048150619
 30
0.0
 11
312.4206605549825
 21
277.1241048150619
 31
0.0
  0
LINE
  5
2EA
330
71
100
AcDbEntity
  8
0
  6
Continuous
 62
     7
100
AcDbLine
 10
332.6706605549716
 20
306.6241048150632
 30
0.0
 11
332.6706605549716
 21
304.6241048150632
 31
0.0
  0
LINE
  5
2EB
330
71
100
AcDbEntity
  8
0
  6
Continuous
 62
     7
100
AcDbLine
 10
330.6706605549716
 20
306.6241048150632
 30
0.0
 11
330.6706605549716
 21
309.1241048150632
 31
0.0
  0
LINE
  5
2EC
330
71
100
AcDbEntity
  8
0
  6
Continuous
 62
     7
100
AcDbLine
 10
330.6706605549716
 20
209.6241048150619
 30
0.0
 11
302.4206967266728
 21
209.6241048150619
 31
0.0
  0
LINE
  5
2ED
330
71
100
AcDbEntity
  8
0
  6
Continuous
 62
     7
100
AcDbLine
 10
330.6706605549716
 20
214.8741048150619
 30
0.0
 11
330.6706605549716
 21
212.1241048150619
 31
0.0
  0
LINE
  5
2EE
330
71
100
AcDbEntity
  8
0
  6
Continuous
 62
     7
100
AcDbLine
 10
301.4206967266728
 20
304.6241048150632
 30
0.0
 11
302.4206967266728
 21
304.6241048150632
 31
0.0
  0
LINE
  5
2EF
330
71
100
AcDbEntity
  8
0
  6
Continuous
 62
     7
100
AcDbLine
 10
333.6706605549716
 20
225.3741048150619
 30
0.0
 11
333.6706605549716
 21
232.3741048150619
 31
0.0
  0
LINE
  5
2F0
330
71
100
AcDbEntity
  8
0
  6
Continuous
 62
     7
100
AcDbLine
 10
333.6706605549716
 20
269.3741048150619
 30
0.0
 11
333.6706605549716
 21
276.3741048150619
 31
0.0
  0
LINE
  5
2F1
330
71
100
AcDbEntity
  8
0
  6
Continuous
 62
     7
100
AcDbLine
 10
301.4206967266728
 20
214.2241048150622
 30
0.0
 11
302.4206967266728
 21
214.2241048150622
 31
0.0
  0
LINE
  5
2F2
330
71
100
AcDbEntity
  8
0
  6
Continuous
 62
     7
100
AcDbLine
 10
302.4206967266728
 20
289.8741048150632
 30
0.0
 11
301.4206967266728
 21
289.8741048150632
 31
0.0
  0
LINE
  5
2F3
330
71
100
AcDbEntity
  8
0
  6
Continuous
 62
     7
100
AcDbLine
 10
301.4206967266728
 20
221.2241048150609
 30
0.0
 11
302.4206967266728
 21
221.2241048150609
 31
0.0
  0
LINE
  5
2F4
330
71
100
AcDbEntity
  8
0
  6
Continuous
 62
     7
100
AcDbLine
 10
302.4206967266728
 20
287.8741048150632
 30
0.0
 11
284.4206605549716
 21
287.8741048150632
 31
0.0
  0
LINE
  5
2F5
330
71
100
AcDbEntity
  8
0
  6
Continuous
 62
     7
100
AcDbLine
 10
330.6706605549716
 20
214.8741048150619
 30
0.0
 11
332.6706605549716
 21
214.8741048150619
 31
0.0
  0
LINE
  5
2F6
330
71
100
AcDbEntity
  8
0
  6
Continuous
 62
     7
100
AcDbLine
 10
299.4206605549716
 20
258.8741048150619
 30
0.0
 11
313.5081906700016
 21
258.8741048150619
 31
0.0
  0
LINE
  5
2F7
330
71
100
AcDbEntity
  8
0
  6
Continuous
 62
     7
100
AcDbLine
 10
299.4206605549716
 20
242.8741048150619
 30
0.0
 11
313.5081906700016
 21
242.8741048150619
 31
0.0
  0
LINE
  5
2F8
330
71
100
AcDbEntity
  8
0
  6
Continuous
 62
     7
100
AcDbLine
 10
299.4206605549716
 20
255.8741048150619
 30
0.0
 11
299.4206605549716
 21
245.8741048150619
 31
0.0
  0
LINE
  5
2F9
330
71
100
AcDbEntity
  8
0
  6
Continuous
 62
     7
100
AcDbLine
 10
310.3129654003915
 20
255.8741048150619
 30
0.0
 11
310.3129654003915
 21
245.8741048150619
 31
0.0
  0
LINE
  5
2FA
330
71
100
AcDbEntity
  8
0
  6
DASH_CENTER
 62
     2
100
AcDbLine
 10
304.6168129776816
 20
254.3922197304441
 30
0.0
 11
304.6168129776816
 21
247.2925103880652
 31
0.0
  0
LINE
  5
2FB
330
71
100
AcDbEntity
  8
0
  6
Continuous
 62
     7
100
AcDbLine
 10
332.6706605549716
 20
290.2741048150629
 30
0.0
 11
331.6706605549716
 21
290.2741048150629
 31
0.0
  0
LINE
  5
2FC
330
71
100
AcDbEntity
  8
0
  6
Continuous
 62
     7
100
AcDbLine
 10
313.5081906700016
 20
244.8741048150619
 30
0.0
 11
299.4206605549716
 21
244.8741048150619
 31
0.0
  0
LINE
  5
2FD
330
71
100
AcDbEntity
  8
0
  6
Continuous
 62
     7
100
AcDbLine
 10
313.5081906700016
 20
256.8741048150619
 30
0.0
 11
299.4206605549716
 21
256.8741048150619
 31
0.0
  0
LINE
  5
2FE
330
71
100
AcDbEntity
  8
0
  6
DASH_CENTER
 62
     2
100
AcDbLine
 10
297.2750174238627
 20
250.8741048150619
 30
0.0
 11
324.5565556978727
 21
250.8741048150619
 31
0.0
  0
LINE
  5
2FF
330
71
100
AcDbEntity
  8
1
  6
Continuous
 62
     7
100
AcDbLine
 10
332.6706605549716
 20
212.1241048150619
 30
0.0
 11
330.6706605549716
 21
212.1241048150619
 31
0.0
  0
LINE
  5
300
330
71
100
AcDbEntity
  8
0
  6
Continuous
 62
     7
100
AcDbLine
 10
330.6706605549716
 20
212.1241048150619
 30
0.0
 11
330.6706605549716
 21
209.6241048150619
 31
0.0
  0
LINE
  5
301
330
71
100
AcDbEntity
  8
0
  6
Continuous
 62
     7
100
AcDbLine
 10
332.6706605549716
 20
214.8741048150619
 30
0.0
 11
332.6706605549716
 21
212.1241048150619
 31
0.0
  0
LINE
  5
302
330
71
100
AcDbEntity
  8
0
  6
Continuous
 62
     7
100
AcDbLine
 10
330.6706605549716
 20
211.6241048150619
 30
0.0
 11
331.1706605549716
 21
211.6241048150619
 31
0.0
  0
LINE
  5
303
330
71
100
AcDbEntity
  8
0
  6
Continuous
 62
     7
100
AcDbLine
 10
330.6706605549716
 20
210.6241048150619
 30
0.0
 11
331.1706605549716
 21
210.6241048150619
 31
0.0
  0
LINE
  5
304
330
71
100
AcDbEntity
  8
0
  6
Continuous
 62
     7
100
AcDbLine
 10
331.6706605549716
 20
214.8741048150619
 30
0.0
 11
331.6706605549716
 21
212.1241048150619
 31
0.0
  0
LINE
  5
305
330
71
100
AcDbEntity
  8
0
  6
Continuous
 62
     7
100
AcDbLine
 10
302.4206967266728
 20
223.6241048150619
 30
0.0
 11
302.4206967266728
 21
221.2241048150609
 31
0.0
  0
LINE
  5
306
330
71
100
AcDbEntity
  8
0
  6
Continuous
 62
     7
100
AcDbLine
 10
302.4206967266728
 20
214.2241048150622
 30
0.0
 11
302.4206967266728
 21
209.6241048150619
 31
0.0
  0
LINE
  5
307
330
71
100
AcDbEntity
  8
0
  6
Continuous
 62
     7
100
AcDbLine
 10
330.6706605549716
 20
307.1241048150632
 30
0.0
 11
331.1706605549716
 21
307.1241048150632
 31
0.0
  0
LINE
  5
308
330
71
100
AcDbEntity
  8
0
  6
Continuous
 62
     7
100
AcDbLine
 10
302.4206967266728
 20
309.1241048150632
 30
0.0
 11
302.4206605549716
 21
309.1241048150632
 31
0.0
  0
LINE
  5
309
330
71
100
AcDbEntity
  8
0
  6
Continuous
 62
     7
100
AcDbLine
 10
330.6706605549716
 20
308.1241048150632
 30
0.0
 11
331.1706605549716
 21
308.1241048150632
 31
0.0
  0
LINE
  5
30A
330
71
100
AcDbEntity
  8
1
  6
Continuous
 62
     7
100
AcDbLine
 10
332.6706605549716
 20
306.6241048150632
 30
0.0
 11
330.6706605549716
 21
306.6241048150632
 31
0.0
  0
LINE
  5
30B
330
71
100
AcDbEntity
  8
1
  6
Continuous
 62
     7
100
AcDbLine
 10
330.6706605549716
 20
304.6241048150632
 30
0.0
 11
332.6706605549716
 21
304.6241048150632
 31
0.0
  0
LINE
  5
30C
330
71
100
AcDbEntity
  8
0
  6
Continuous
 62
     7
100
AcDbLine
 10
332.6706605549716
 20
304.6241048150632
 30
0.0
 11
332.6706605549716
 21
214.8741048150619
 31
0.0
  0
LINE
  5
30D
330
71
100
AcDbEntity
  8
1
  6
Continuous
 62
     7
100
AcDbLine
 10
330.6706605549716
 20
304.6241048150632
 30
0.0
 11
330.6706605549716
 21
290.2741048150629
 31
0.0
  0
LINE
  5
30E
330
71
100
AcDbEntity
  8
1
  6
Continuous
 62
     7
100
AcDbLine
 10
330.6706605549716
 20
290.2741048150629
 30
0.0
 11
331.6706605549716
 21
290.2741048150629
 31
0.0
  0
LINE
  5
30F
330
71
100
AcDbEntity
  8
0
  6
Continuous
 62
     7
100
AcDbLine
 10
331.6706605549716
 20
304.6241048150632
 30
0.0
 11
331.6706605549716
 21
290.2741048150629
 31
0.0
  0
LINE
  5
310
330
71
100
AcDbEntity
  8
0
  6
Continuous
 62
     7
100
AcDbLine
 10
302.4206967266728
 20
304.6241048150632
 30
0.0
 11
302.4206967266728
 21
309.1241048150632
 31
0.0
  0
LINE
  5
311
330
71
100
AcDbEntity
  8
0
  6
Continuous
 62
     7
100
AcDbLine
 10
333.6706605549716
 20
278.8741048150619
 30
0.0
 11
333.6706605549716
 21
285.8741048150619
 31
0.0
  0
LINE
  5
312
330
71
100
AcDbEntity
  8
0
  6
Continuous
 62
     7
100
AcDbLine
 10
333.6706605549716
 20
235.6241048150619
 30
0.0
 11
333.6706605549716
 21
241.8741048150619
 31
0.0
  0
LINE
  5
313
330
71
100
AcDbEntity
  8
1
  6
DASH_CENTER
 62
     2
100
AcDbLine
 10
148.6669386164613
 20
415.0058765066369
 30
0.0
 11
140.3454530802319
 21
415.0058765066369
 31
0.0
  0
LINE
  5
314
330
71
100
AcDbEntity
  8
1
  6
DASH_CENTER
 62
     2
100
AcDbLine
 10
144.495534713682
 20
410.8344726038558
 30
0.0
 11
144.495534713682
 21
419.155958140092
 31
0.0
  0
LINE
  5
315
330
71
100
AcDbEntity
  8
1
  6
DASH_CENTER
 62
     2
100
AcDbLine
 10
189.6955347136827
 20
410.8344726038558
 30
0.0
 11
189.6955347136827
 21
419.155958140092
 31
0.0
  0
LINE
  5
316
330
71
100
AcDbEntity
  8
1
  6
DASH_CENTER
 62
     2
100
AcDbLine
 10
193.866938616462
 20
415.0058765066369
 30
0.0
 11
185.5454530802326
 21
415.0058765066369
 31
0.0
  0
LINE
  5
317
330
71
100
AcDbEntity
  8
1
  6
Continuous
 62
     7
100
AcDbLine
 10
126.495534713682
 20
404.5058765066369
 30
0.0
 11
134.495534713682
 21
404.5058765066369
 31
0.0
  0
LINE
  5
318
330
71
100
AcDbEntity
  8
1
  6
Continuous
 62
     7
100
AcDbLine
 10
126.495534713682
 20
404.5058765066369
 30
0.0
 11
126.495534713682
 21
384.5058765066369
 31
0.0
  0
LINE
  5
319
330
71
100
AcDbEntity
  8
1
  6
Continuous
 62
     7
100
AcDbLine
 10
126.495534713682
 20
433.0058765066369
 30
0.0
 11
134.495534713682
 21
433.0058765066369
 31
0.0
  0
LINE
  5
31A
330
71
100
AcDbEntity
  8
1
  6
Continuous
 62
     7
100
AcDbLine
 10
126.495534713682
 20
434.0058765066369
 30
0.0
 11
126.495534713682
 21
433.0058765066369
 31
0.0
  0
LINE
  5
31B
330
71
100
AcDbEntity
  8
1
  6
Continuous
 62
     7
100
AcDbLine
 10
207.6955347136827
 20
404.5058765066369
 30
0.0
 11
208.6955347136827
 21
404.5058765066369
 31
0.0
  0
LINE
  5
31C
330
71
100
AcDbEntity
  8
1
  6
Continuous
 62
     7
100
AcDbLine
 10
207.6955347136827
 20
404.5058765066369
 30
0.0
 11
207.6955347136827
 21
384.5058765066369
 31
0.0
  0
LINE
  5
31D
330
71
100
AcDbEntity
  8
1
  6
Continuous
 62
     7
100
AcDbLine
 10
207.6955347136827
 20
433.0058765066369
 30
0.0
 11
208.6955347136827
 21
433.0058765066369
 31
0.0
  0
LINE
  5
31E
330
71
100
AcDbEntity
  8
1
  6
Continuous
 62
     7
100
AcDbLine
 10
207.6955347136827
 20
434.0058765066369
 30
0.0
 11
207.6955347136827
 21
433.0058765066369
 31
0.0
  0
LINE
  5
31F
330
71
100
AcDbEntity
  8
1
  6
Continuous
 62
     7
100
AcDbLine
 10
135.495534713682
 20
432.0058765066369
 30
0.0
 11
135.495534713682
 21
405.5058765066369
 31
0.0
  0
LINE
  5
320
330
71
100
AcDbEntity
  8
1
  6
Continuous
 62
     7
100
AcDbLine
 10
198.6955347136827
 20
432.0058765066369
 30
0.0
 11
198.6955347136827
 21
405.5058765066369
 31
0.0
  0
LINE
  5
321
330
71
100
AcDbEntity
  8
1
  6
Continuous
 62
     7
100
AcDbLine
 10
208.6955347136827
 20
404.5058765066369
 30
0.0
 11
208.6955347136827
 21
384.5058765066369
 31
0.0
  0
LINE
  5
322
330
71
100
AcDbEntity
  8
1
  6
Continuous
 62
     7
100
AcDbLine
 10
199.6955347136827
 20
404.5058765066369
 30
0.0
 11
207.6955347136827
 21
404.5058765066369
 31
0.0
  0
LINE
  5
323
330
71
100
AcDbEntity
  8
1
  6
Continuous
 62
     7
100
AcDbLine
 10
208.6955347136827
 20
433.0058765066369
 30
0.0
 11
208.6955347136827
 21
404.5058765066369
 31
0.0
  0
LINE
  5
324
330
71
100
AcDbEntity
  8
1
  6
Continuous
 62
     7
100
AcDbLine
 10
199.6955347136827
 20
433.0058765066369
 30
0.0
 11
207.6955347136827
 21
433.0058765066369
 31
0.0
  0
LINE
  5
325
330
71
100
AcDbEntity
  8
1
  6
Continuous
 62
     7
100
AcDbLine
 10
125.495534713682
 20
404.5058765066369
 30
0.0
 11
125.495534713682
 21
384.5058765066369
 31
0.0
  0
LINE
  5
326
330
71
100
AcDbEntity
  8
1
  6
Continuous
 62
     7
100
AcDbLine
 10
125.495534713682
 20
404.5058765066369
 30
0.0
 11
126.495534713682
 21
404.5058765066369
 31
0.0
  0
LINE
  5
327
330
71
100
AcDbEntity
  8
1
  6
Continuous
 62
     7
100
AcDbLine
 10
125.495534713682
 20
433.0058765066369
 30
0.0
 11
125.495534713682
 21
404.5058765066369
 31
0.0
  0
LINE
  5
328
330
71
100
AcDbEntity
  8
1
  6
Continuous
 62
     7
100
AcDbLine
 10
125.495534713682
 20
433.0058765066369
 30
0.0
 11
126.495534713682
 21
433.0058765066369
 31
0.0
  0
LINE
  5
329
330
71
100
AcDbEntity
  8
1
  6
Continuous
 62
     7
100
AcDbLine
 10
126.495534713682
 20
434.0058765066369
 30
0.0
 11
207.6955347136827
 21
434.0058765066369
 31
0.0
  0
ARC
  5
32A
330
71
100
AcDbEntity
  8
1
  6
Continuous
 62
     7
100
AcDbCircle
 10
320.9206967266728
 20
218.3741048150619
 30
0.0
 40
2.099999999998488
100
AcDbArc
 50
0.0
 51
180.0
  0
ARC
  5
32B
330
71
100
AcDbEntity
  8
1
  6
Continuous
 62
     7
100
AcDbCircle
 10
312.9206967266728
 20
218.3741048150619
 30
0.0
 40
2.099999999999169
100
AcDbArc
 50
73.75417716192746
 51
133.669179647633
  0
ARC
  5
32C
330
71
100
AcDbEntity
  8
0
  6
Continuous
 62
     7
100
AcDbCircle
 10
331.1706605549716
 20
306.6241048150632
 30
0.0
 40
0.5
100
AcDbArc
 50
0.0
 51
90.00000153433948
  0
ARC
  5
32D
330
71
100
AcDbEntity
  8
0
  6
Continuous
 62
     7
100
AcDbCircle
 10
331.1706605549716
 20
306.6241048150632
 30
0.0
 40
1.5
100
AcDbArc
 50
0.0
 51
90.00000153509507
  0
ARC
  5
32E
330
71
100
AcDbEntity
  8
0
  6
Continuous
 62
     7
100
AcDbCircle
 10
331.1706605549716
 20
212.1241048150619
 30
0.0
 40
0.5000000000000001
100
AcDbArc
 50
269.9999984656606
 51
0.0
  0
ARC
  5
32F
330
71
100
AcDbEntity
  8
0
  6
Continuous
 62
     7
100
AcDbCircle
 10
331.1706605549716
 20
212.1241048150619
 30
0.0
 40
1.500000000000001
100
AcDbArc
 50
269.9999984649049
 51
0.0
  0
ARC
  5
330
330
71
100
AcDbEntity
  8
0
  6
Continuous
 62
     7
100
AcDbCircle
 10
333.1706605549716
 20
225.3741048150619
 30
0.0
 40
0.5000000000000001
100
AcDbArc
 50
269.9999984656606
 51
0.0
  0
ARC
  5
331
330
71
100
AcDbEntity
  8
0
  6
Continuous
 62
     7
100
AcDbCircle
 10
333.1706605549716
 20
224.3741048150619
 30
0.0
 40
0.5000000000000001
100
AcDbArc
 50
90.00000153433948
 51
180.0000030704475
  0
ARC
  5
332
330
71
100
AcDbEntity
  8
0
  6
Continuous
 62
     7
100
AcDbCircle
 10
333.1706605549716
 20
233.3741048150619
 30
0.0
 40
0.5000000000000007
100
AcDbArc
 50
180.0000030704475
 51
269.9999984656606
  0
ARC
  5
333
330
71
100
AcDbEntity
  8
0
  6
Continuous
 62
     7
100
AcDbCircle
 10
333.1706605549716
 20
232.3741048150619
 30
0.0
 40
0.5
100
AcDbArc
 50
0.0
 51
90.00000153433948
  0
ARC
  5
334
330
71
100
AcDbEntity
  8
0
  6
Continuous
 62
     7
100
AcDbCircle
 10
333.1706605549716
 20
269.3741048150619
 30
0.0
 40
0.5000000000000001
100
AcDbArc
 50
269.9999984656606
 51
0.0
  0
ARC
  5
335
330
71
100
AcDbEntity
  8
0
  6
Continuous
 62
     7
100
AcDbCircle
 10
333.1706605549716
 20
268.3741048150619
 30
0.0
 40
0.5000000000000001
100
AcDbArc
 50
90.00000153433948
 51
180.0000030704507
  0
ARC
  5
336
330
71
100
AcDbEntity
  8
0
  6
Continuous
 62
     7
100
AcDbCircle
 10
333.1706605549716
 20
277.3741048150619
 30
0.0
 40
0.5000000000000007
100
AcDbArc
 50
180.0000030704507
 51
269.9999984656606
  0
ARC
  5
337
330
71
100
AcDbEntity
  8
0
  6
Continuous
 62
     7
100
AcDbCircle
 10
333.1706605549716
 20
276.3741048150619
 30
0.0
 40
0.5
100
AcDbArc
 50
0.0
 51
90.00000153433948
  0
ARC
  5
338
330
71
100
AcDbEntity
  8
0
  6
Continuous
 62
     7
100
AcDbCircle
 10
299.4206605549716
 20
257.8741048150619
 30
0.0
 40
1.0
100
AcDbArc
 50
90.00000153496154
 51
179.9999969295135
  0
ARC
  5
339
330
71
100
AcDbEntity
  8
0
  6
Continuous
 62
     7
100
AcDbCircle
 10
299.4206605549716
 20
243.8741048150619
 30
0.0
 40
1.000000000000001
100
AcDbArc
 50
179.9999969295135
 51
269.9999984650385
  0
ARC
  5
33A
330
71
100
AcDbEntity
  8
0
  6
Continuous
 62
     7
100
AcDbCircle
 10
299.4206605549716
 20
257.8741048150619
 30
0.0
 40
1.000000000000001
100
AcDbArc
 50
179.9999969295135
 51
269.9999984650385
  0
ARC
  5
33B
330
71
100
AcDbEntity
  8
0
  6
Continuous
 62
     7
100
AcDbCircle
 10
299.4206605549716
 20
243.8741048150619
 30
0.0
 40
1.0
100
AcDbArc
 50
90.00000153496154
 51
179.9999969295135
  0
ARC
  5
33C
330
71
100
AcDbEntity
  8
0
  6
Continuous
 62
     7
100
AcDbCircle
 10
304.6168129776816
 20
250.3841410649188
 30
0.0
 40
1.760036249858494
100
AcDbArc
 50
222.0899555367186
 51
317.9100413928939
  0
ARC
  5
33D
330
71
100
AcDbEntity
  8
0
  6
Continuous
 62
     7
100
AcDbCircle
 10
304.0743682565426
 20
250.8741048150619
 30
0.0
 40
2.491001879657524
100
AcDbArc
 50
317.9100413927914
 51
42.08995860723042
  0
ARC
  5
33E
330
71
100
AcDbEntity
  8
0
  6
Continuous
 62
     7
100
AcDbCircle
 10
304.6168129776816
 20
251.3640685652049
 30
0.0
 40
1.760036249860919
100
AcDbArc
 50
42.08995860711636
 51
137.9100444632711
  0
ARC
  5
33F
330
71
100
AcDbEntity
  8
0
  6
Continuous
 62
     7
100
AcDbCircle
 10
305.1592576988223
 20
250.8741048150619
 30
0.0
 40
2.491001879651592
100
AcDbArc
 50
137.9100444631062
 51
222.0899555368875
  0
ARC
  5
340
330
71
100
AcDbEntity
  8
0
  6
Continuous
 62
     7
100
AcDbCircle
 10
305.1168129776816
 20
250.3841410649188
 30
0.0
 40
1.760036249858494
100
AcDbArc
 50
222.0899555367186
 51
261.831224286819
  0
ARC
  5
341
330
71
100
AcDbEntity
  8
0
  6
Continuous
 62
     7
100
AcDbCircle
 10
305.1168129776816
 20
251.3640685652049
 30
0.0
 40
1.760036249856403
100
AcDbArc
 50
98.16877571317855
 51
137.9100444632711
  0
ARC
  5
342
330
71
100
AcDbEntity
  8
0
  6
Continuous
 62
     7
100
AcDbCircle
 10
305.6592576988223
 20
250.8741048150619
 30
0.0
 40
2.491001879651592
100
AcDbArc
 50
137.9100444631062
 51
222.0899555368875
  0
ARC
  5
343
330
71
100
AcDbEntity
  8
0
  6
Continuous
 62
     7
100
AcDbCircle
 10
303.4206967266728
 20
223.6241048150619
 30
0.0
 40
1.0
100
AcDbArc
 50
90.0000015355836
 51
179.9999969295135
  0
ARC
  5
344
330
71
100
AcDbEntity
  8
0
  6
Continuous
 62
     7
100
AcDbCircle
 10
284.4206605549716
 20
286.8741048150632
 30
0.0
 40
1.0
100
AcDbArc
 50
90.00000153496154
 51
179.9999969295884
  0
ARC
  5
345
330
71
100
AcDbEntity
  8
0
  6
Continuous
 62
     7
100
AcDbCircle
 10
284.4206605549716
 20
234.1241048150619
 30
0.0
 40
1.000000000000001
100
AcDbArc
 50
179.9999969295135
 51
269.9999984650385
  0
ARC
  5
346
330
71
100
AcDbEntity
  8
0
  6
Continuous
 62
     7
100
AcDbCircle
 10
284.4206605549716
 20
267.6241048150619
 30
0.0
 40
1.0
100
AcDbArc
 50
90.00000153496154
 51
179.9999969295135
  0
ARC
  5
347
330
71
100
AcDbEntity
  8
0
  6
Continuous
 62
     7
100
AcDbCircle
 10
284.4206605549716
 20
278.1241048150619
 30
0.0
 40
1.000000000000001
100
AcDbArc
 50
179.9999969295135
 51
269.9999984650385
  0
ARC
  5
348
330
71
100
AcDbEntity
  8
0
  6
Continuous
 62
     7
100
AcDbCircle
 10
312.9206967266728
 20
218.3741048150619
 30
0.0
 40
2.100000000006063
100
AcDbArc
 50
133.669179647633
 51
286.2458228380747
  0
ARC
  5
349
330
71
100
AcDbEntity
  8
0
  6
Continuous
 62
     7
100
AcDbCircle
 10
312.9206967266728
 20
289.3741048150632
 30
0.0
 40
2.100000000006392
100
AcDbArc
 50
133.6691796476244
 51
286.2458228380723
  0
ARC
  5
34A
330
71
100
AcDbEntity
  8
0
  6
Continuous
 62
     7
100
AcDbCircle
 10
312.9206967266728
 20
289.3741048150632
 30
0.0
 40
2.099999999998488
100
AcDbArc
 50
0.0
 51
133.6691796476244
  0
ARC
  5
34B
330
71
100
AcDbEntity
  8
0
  6
Continuous
 62
     7
100
AcDbCircle
 10
320.9206967266728
 20
289.3741048150632
 30
0.0
 40
2.099999999998488
100
AcDbArc
 50
0.0
 51
180.0
  0
ARC
  5
34C
330
71
100
AcDbEntity
  8
1
  6
Continuous
 62
     7
100
AcDbCircle
 10
312.4206605549716
 20
228.8741048150619
 30
0.0
 40
4.250000000002634
100
AcDbArc
 50
299.4184030303705
 51
60.58159696963798
  0
ARC
  5
34D
330
71
100
AcDbEntity
  8
1
  6
Continuous
 62
     7
100
AcDbCircle
 10
312.4206605549825
 20
272.8741048150619
 30
0.0
 40
4.249999999999315
100
AcDbArc
 50
75.17370503746102
 51
90.0
  0
ARC
  5
34E
330
71
100
AcDbEntity
  8
1
  6
Continuous
 62
     7
100
AcDbCircle
 10
312.4206605549825
 20
272.8741048150619
 30
0.0
 40
4.25
100
AcDbArc
 50
270.0
 51
284.8262949625401
  0
ARC
  5
34F
330
71
100
AcDbEntity
  8
1
  6
Continuous
 62
     7
100
AcDbCircle
 10
312.4206605549825
 20
272.8741048150619
 30
0.0
 40
4.249999999998193
100
AcDbArc
 50
299.4184030302362
 51
60.58159696975963
  0
ARC
  5
350
330
71
100
AcDbEntity
  8
1
  6
Continuous
 62
     7
100
AcDbCircle
 10
312.4206605549825
 20
228.8741048150641
 30
0.0
 40
4.2499999999972
100
AcDbArc
 50
75.17370503745347
 51
90.00000000014636
  0
ARC
  5
351
330
71
100
AcDbEntity
  8
1
  6
Continuous
 62
     7
100
AcDbCircle
 10
312.4206605549825
 20
228.8741048150641
 30
0.0
 40
4.250000000002188
100
AcDbArc
 50
269.9999999998536
 51
284.8262949625327
  0
ARC
  5
352
330
71
100
AcDbEntity
  8
1
  6
Continuous
 62
     7
100
AcDbCircle
 10
312.9206967266728
 20
218.3741048150619
 30
0.0
 40
2.099999999998488
100
AcDbArc
 50
0.0
 51
40.89159599463186
  0
ARC
  5
353
330
71
100
AcDbEntity
  8
0
  6
Continuous
 62
     7
100
AcDbCircle
 10
333.1706605549716
 20
278.8741048150619
 30
0.0
 40
0.5000000000000001
100
AcDbArc
 50
269.9999984656606
 51
0.0
  0
ARC
  5
354
330
71
100
AcDbEntity
  8
0
  6
Continuous
 62
     7
100
AcDbCircle
 10
333.1706605549716
 20
277.8741048150619
 30
0.0
 40
0.5000000000000001
100
AcDbArc
 50
90.00000153433948
 51
180.0000030703465
  0
ARC
  5
355
330
71
100
AcDbEntity
  8
0
  6
Continuous
 62
     7
100
AcDbCircle
 10
333.1706605549716
 20
286.8741048150619
 30
0.0
 40
0.5000000000000007
100
AcDbArc
 50
180.0000030703465
 51
269.9999984656606
  0
ARC
  5
356
330
71
100
AcDbEntity
  8
0
  6
Continuous
 62
     7
100
AcDbCircle
 10
333.1706605549716
 20
285.8741048150619
 30
0.0
 40
0.5
100
AcDbArc
 50
0.0
 51
90.00000153433948
  0
ARC
  5
357
330
71
100
AcDbEntity
  8
0
  6
Continuous
 62
     7
100
AcDbCircle
 10
333.1706605549716
 20
242.8741048150619
 30
0.0
 40
0.5000000000000007
100
AcDbArc
 50
180.0000030703432
 51
269.9999984656606
  0
ARC
  5
358
330
71
100
AcDbEntity
  8
0
  6
Continuous
 62
     7
100
AcDbCircle
 10
333.1706605549716
 20
241.8741048150619
 30
0.0
 40
0.5
100
AcDbArc
 50
0.0
 51
90.00000153433948
  0
CIRCLE
  5
359
330
71
100
AcDbEntity
  8
0
  6
Continuous
 62
     7
100
AcDbCircle
 10
189.6955347136827
 20
415.0058765066369
 30
0.0
 40
2.0
  0
CIRCLE
  5
35A
330
71
100
AcDbEntity
  8
0
  6
Continuous
 62
     7
100
AcDbCircle
 10
144.495534713682
 20
415.0058765066369
 30
0.0
 40
2.0
  0
ARC
  5
35B
330
71
100
AcDbEntity
  8
1
  6
Continuous
 62
     7
100
AcDbCircle
 10
126.495534713682
 20
433.0058765066369
 30
0.0
 40
1.0
100
AcDbArc
 50
90.0
 51
180.0
  0
ARC
  5
35C
330
71
100
AcDbEntity
  8
1
  6
Continuous
 62
     7
100
AcDbCircle
 10
207.6955347136827
 20
433.0058765066369
 30
0.0
 40
1.0
100
AcDbArc
 50
0.0
 51
90.0
  0
ARC
  5
35D
330
71
100
AcDbEntity
  8
1
  6
Continuous
 62
     7
100
AcDbCircle
 10
199.6955347136827
 20
405.5058765066369
 30
0.0
 40
1.0
100
AcDbArc
 50
180.0
 51
270.0
  0
ARC
  5
35E
330
71
100
AcDbEntity
  8
1
  6
Continuous
 62
     7
100
AcDbCircle
 10
134.495534713682
 20
405.5058765066369
 30
0.0
 40
1.0
100
AcDbArc
 50
270.0
 51
0.0
  0
ARC
  5
35F
330
71
100
AcDbEntity
  8
1
  6
Continuous
 62
     7
100
AcDbCircle
 10
134.495534713682
 20
432.0058765066369
 30
0.0
 40
1.0
100
AcDbArc
 50
0.0
 51
90.0
  0
ARC
  5
360
330
71
100
AcDbEntity
  8
1
  6
Continuous
 62
     7
100
AcDbCircle
 10
199.6955347136827
 20
432.0058765066369
 30
0.0
 40
1.0
100
AcDbArc
 50
90.0
 51
180.0
  0
ENDBLK
  5
73
330
71
100
AcDbEntity
  8
0
100
AcDbBlockEnd
  0
BLOCK
  5
75
330
74
100
AcDbEntity
  8
0
100
AcDbBlockBegin
  2
V97-30-Z1__1
 70
     0
 10
531.0570954073228
 20
246.171677069397
 30
0.0
  3
V97-30-Z1__1
  1

  0
LINE
  5
361
330
74
100
AcDbEntity
  8
1
  6
Continuous
 62
     7
100
AcDbLine
 10
326.950511178602
 20
449.788914313001
 30
0.0
 11
328.4408279783729
 21
450.095744242366
 31
0.0
  0
LINE
  5
362
330
74
100
AcDbEntity
  8
1
  6
Continuous
 62
     7
100
AcDbLine
 10
326.1570969980621
 20
451.163147985138
 30
0.0
 11
329.3070954073228
 21
451.8116770693982
 31
0.0
  0
LINE
  5
363
330
74
100
AcDbEntity
  8
0
  6
Continuous
 62
     7
100
AcDbLine
 10
324.1570954073213
 20
468.4116770693981
 30
0.0
 11
324.1570954073213
 21
467.6616770693981
 31
0.0
  0
LINE
  5
364
330
74
100
AcDbEntity
  8
0
  6
Continuous
 62
     7
100
AcDbLine
 10
331.0570954073228
 20
468.4116770693981
 30
0.0
 11
324.1570954073213
 21
468.4116770693981
 31
0.0
  0
LINE
  5
365
330
74
100
AcDbEntity
  8
0
  6
Continuous
 62
     7
100
AcDbLine
 10
331.0570954073228
 20
467.6616770693981
 30
0.0
 11
331.0570954073228
 21
468.4116770693981
 31
0.0
  0
LINE
  5
366
330
74
100
AcDbEntity
  8
0
  6
Continuous
 62
     7
100
AcDbLine
 10
329.3070954073228
 20
465.9116770693981
 30
0.0
 11
331.0570954073228
 21
467.6616770693981
 31
0.0
  0
LINE
  5
367
330
74
100
AcDbEntity
  8
0
  6
Continuous
 62
     7
100
AcDbLine
 10
329.3070954073228
 20
461.611677069398
 30
0.0
 11
329.3070954073228
 21
465.9116770693981
 31
0.0
  0
LINE
  5
368
330
74
100
AcDbEntity
  8
0
  6
Continuous
 62
     7
100
AcDbLine
 10
325.9070954073213
 20
465.9116770693981
 30
0.0
 11
325.9070954073213
 21
461.611677069398
 31
0.0
  0
LINE
  5
369
330
74
100
AcDbEntity
  8
0
  6
Continuous
 62
     7
100
AcDbLine
 10
324.1570954073213
 20
467.6616770693981
 30
0.0
 11
325.9070954073213
 21
465.9116770693981
 31
0.0
  0
LINE
  5
36A
330
74
100
AcDbEntity
  8
0
  6
Continuous
 62
     7
100
AcDbLine
 10
324.1570954073213
 20
467.6616770693981
 30
0.0
 11
331.0570954073228
 21
467.6616770693981
 31
0.0
  0
LINE
  5
36B
330
74
100
AcDbEntity
  8
0
  6
Continuous
 62
     7
100
AcDbLine
 10
329.0470954073226
 20
461.611677069398
 30
0.0
 11
329.3070954073228
 21
461.611677069398
 31
0.0
  0
LINE
  5
36C
330
74
100
AcDbEntity
  8
0
  6
Continuous
 62
     7
100
AcDbLine
 10
329.0470954073226
 20
451.6658302322971
 30
0.0
 11
329.0470954073226
 21
461.611677069398
 31
0.0
  0
LINE
  5
36D
330
74
100
AcDbEntity
  8
0
  6
Continuous
 62
     7
100
AcDbLine
 10
327.6070954073221
 20
449.1716770693979
 30
0.0
 11
329.0470954073226
 21
451.6658302322971
 31
0.0
  0
LINE
  5
36E
330
74
100
AcDbEntity
  8
0
  6
Continuous
 62
     7
100
AcDbLine
 10
326.1670954073215
 20
451.6658302322971
 30
0.0
 11
327.6070954073221
 21
449.1716770693979
 31
0.0
  0
LINE
  5
36F
330
74
100
AcDbEntity
  8
0
  6
Continuous
 62
     7
100
AcDbLine
 10
326.1670954073215
 20
461.611677069398
 30
0.0
 11
326.1670954073215
 21
451.6658302322971
 31
0.0
  0
LINE
  5
370
330
74
100
AcDbEntity
  8
0
  6
Continuous
 62
     7
100
AcDbLine
 10
325.9070954073213
 20
461.611677069398
 30
0.0
 11
326.1670954073215
 21
461.611677069398
 31
0.0
  0
LINE
  5
371
330
74
100
AcDbEntity
  8
0
  6
Continuous
 62
     7
100
AcDbLine
 10
325.9070954073213
 20
460.9116770693981
 30
0.0
 11
329.3070954073228
 21
461.611677069398
 31
0.0
  0
LINE
  5
372
330
74
100
AcDbEntity
  8
0
  6
Continuous
 62
     7
100
AcDbLine
 10
325.9070954073213
 20
459.5116770693981
 30
0.0
 11
329.3070954073228
 21
460.2116770693979
 31
0.0
  0
LINE
  5
373
330
74
100
AcDbEntity
  8
0
  6
Continuous
 62
     7
100
AcDbLine
 10
325.9070954073213
 20
458.111677069398
 30
0.0
 11
329.3070954073228
 21
458.8116770693982
 31
0.0
  0
LINE
  5
374
330
74
100
AcDbEntity
  8
0
  6
Continuous
 62
     7
100
AcDbLine
 10
325.9070954073213
 20
456.7116770693979
 30
0.0
 11
329.3070954073228
 21
457.4116770693981
 31
0.0
  0
LINE
  5
375
330
74
100
AcDbEntity
  8
0
  6
Continuous
 62
     7
100
AcDbLine
 10
325.9070954073213
 20
455.3116770693982
 30
0.0
 11
329.3070954073228
 21
456.0116770693981
 31
0.0
  0
LINE
  5
376
330
74
100
AcDbEntity
  8
0
  6
Continuous
 62
     7
100
AcDbLine
 10
325.9070954073213
 20
453.9116770693981
 30
0.0
 11
329.3070954073228
 21
454.611677069398
 31
0.0
  0
LINE
  5
377
330
74
100
AcDbEntity
  8
0
  6
Continuous
 62
     7
100
AcDbLine
 10
325.9070954073213
 20
452.5116770693981
 30
0.0
 11
329.3070954073228
 21
453.2116770693979
 31
0.0
  0
LINE
  5
378
330
74
100
AcDbEntity
  8
0
  6
Continuous
 62
     7
100
AcDbLine
 10
325.9070954073213
 20
465.9116770693981
 30
0.0
 11
329.3070954073228
 21
465.9116770693981
 31
0.0
  0
LINE
  5
379
330
74
100
AcDbEntity
  8
0
  6
Continuous
 62
     7
100
AcDbLine
 10
326.1670954073215
 20
461.611677069398
 30
0.0
 11
329.0470954073226
 21
461.611677069398
 31
0.0
  0
LINE
  5
37A
330
74
100
AcDbEntity
  8
0
  6
DASH_CENTER
 62
     2
100
AcDbLine
 10
327.6070954073221
 20
446.1716770693979
 30
0.0
 11
327.6070954073221
 21
471.4116770693981
 31
0.0
  0
ENDBLK
  5
76
330
74
100
AcDbEntity
  8
0
100
AcDbBlockEnd
  0
BLOCK
  5
78
330
77
100
AcDbEntity
  8
0
100
AcDbBlockBegin
  2
V97-30-Z1__2
 70
     0
 10
521.0570954073228
 20
246.171677069397
 30
0.0
  3
V97-30-Z1__2
  1

  0
LINE
  5
37B
330
77
100
AcDbEntity
  8
0
  6
DASH_CENTER
 62
     2
100
AcDbLine
 10
317.6070954073221
 20
446.1716770693979
 30
0.0
 11
317.6070954073221
 21
471.4116770693981
 31
0.0
  0
LINE
  5
37C
330
77
100
AcDbEntity
  8
0
  6
Continuous
 62
     7
100
AcDbLine
 10
316.1670954073215
 20
461.611677069398
 30
0.0
 11
319.0470954073226
 21
461.611677069398
 31
0.0
  0
LINE
  5
37D
330
77
100
AcDbEntity
  8
0
  6
Continuous
 62
     7
100
AcDbLine
 10
315.9070954073213
 20
465.9116770693981
 30
0.0
 11
319.3070954073228
 21
465.9116770693981
 31
0.0
  0
LINE
  5
37E
330
77
100
AcDbEntity
  8
0
  6
Continuous
 62
     7
100
AcDbLine
 10
315.9070954073213
 20
452.5116770693981
 30
0.0
 11
319.3070954073228
 21
453.2116770693979
 31
0.0
  0
LINE
  5
37F
330
77
100
AcDbEntity
  8
0
  6
Continuous
 62
     7
100
AcDbLine
 10
315.9070954073213
 20
453.9116770693981
 30
0.0
 11
319.3070954073228
 21
454.611677069398
 31
0.0
  0
LINE
  5
380
330
77
100
AcDbEntity
  8
0
  6
Continuous
 62
     7
100
AcDbLine
 10
315.9070954073213
 20
455.3116770693982
 30
0.0
 11
319.3070954073228
 21
456.0116770693981
 31
0.0
  0
LINE
  5
381
330
77
100
AcDbEntity
  8
0
  6
Continuous
 62
     7
100
AcDbLine
 10
315.9070954073213
 20
456.7116770693979
 30
0.0
 11
319.3070954073228
 21
457.4116770693981
 31
0.0
  0
LINE
  5
382
330
77
100
AcDbEntity
  8
0
  6
Continuous
 62
     7
100
AcDbLine
 10
315.9070954073213
 20
458.111677069398
 30
0.0
 11
319.3070954073228
 21
458.8116770693982
 31
0.0
  0
LINE
  5
383
330
77
100
AcDbEntity
  8
0
  6
Continuous
 62
     7
100
AcDbLine
 10
315.9070954073213
 20
459.5116770693981
 30
0.0
 11
319.3070954073228
 21
460.2116770693979
 31
0.0
  0
LINE
  5
384
330
77
100
AcDbEntity
  8
0
  6
Continuous
 62
     7
100
AcDbLine
 10
315.9070954073213
 20
460.9116770693981
 30
0.0
 11
319.3070954073228
 21
461.611677069398
 31
0.0
  0
LINE
  5
385
330
77
100
AcDbEntity
  8
0
  6
Continuous
 62
     7
100
AcDbLine
 10
315.9070954073213
 20
461.611677069398
 30
0.0
 11
316.1670954073215
 21
461.611677069398
 31
0.0
  0
LINE
  5
386
330
77
100
AcDbEntity
  8
0
  6
Continuous
 62
     7
100
AcDbLine
 10
316.1670954073215
 20
461.611677069398
 30
0.0
 11
316.1670954073215
 21
451.6658302322971
 31
0.0
  0
LINE
  5
387
330
77
100
AcDbEntity
  8
0
  6
Continuous
 62
     7
100
AcDbLine
 10
316.1670954073215
 20
451.6658302322971
 30
0.0
 11
317.6070954073221
 21
449.1716770693979
 31
0.0
  0
LINE
  5
388
330
77
100
AcDbEntity
  8
0
  6
Continuous
 62
     7
100
AcDbLine
 10
317.6070954073221
 20
449.1716770693979
 30
0.0
 11
319.0470954073226
 21
451.6658302322971
 31
0.0
  0
LINE
  5
389
330
77
100
AcDbEntity
  8
0
  6
Continuous
 62
     7
100
AcDbLine
 10
319.0470954073226
 20
451.6658302322971
 30
0.0
 11
319.0470954073226
 21
461.611677069398
 31
0.0
  0
LINE
  5
38A
330
77
100
AcDbEntity
  8
0
  6
Continuous
 62
     7
100
AcDbLine
 10
319.0470954073226
 20
461.611677069398
 30
0.0
 11
319.3070954073228
 21
461.611677069398
 31
0.0
  0
LINE
  5
38B
330
77
100
AcDbEntity
  8
0
  6
Continuous
 62
     7
100
AcDbLine
 10
314.1570954073213
 20
467.6616770693981
 30
0.0
 11
321.0570954073228
 21
467.6616770693981
 31
0.0
  0
LINE
  5
38C
330
77
100
AcDbEntity
  8
0
  6
Continuous
 62
     7
100
AcDbLine
 10
314.1570954073213
 20
467.6616770693981
 30
0.0
 11
315.9070954073213
 21
465.9116770693981
 31
0.0
  0
LINE
  5
38D
330
77
100
AcDbEntity
  8
0
  6
Continuous
 62
     7
100
AcDbLine
 10
315.9070954073213
 20
465.9116770693981
 30
0.0
 11
315.9070954073213
 21
461.611677069398
 31
0.0
  0
LINE
  5
38E
330
77
100
AcDbEntity
  8
0
  6
Continuous
 62
     7
100
AcDbLine
 10
319.3070954073228
 20
461.611677069398
 30
0.0
 11
319.3070954073228
 21
465.9116770693981
 31
0.0
  0
LINE
  5
38F
330
77
100
AcDbEntity
  8
0
  6
Continuous
 62
     7
100
AcDbLine
 10
319.3070954073228
 20
465.9116770693981
 30
0.0
 11
321.0570954073228
 21
467.6616770693981
 31
0.0
  0
LINE
  5
390
330
77
100
AcDbEntity
  8
0
  6
Continuous
 62
     7
100
AcDbLine
 10
321.0570954073228
 20
467.6616770693981
 30
0.0
 11
321.0570954073228
 21
468.4116770693981
 31
0.0
  0
LINE
  5
391
330
77
100
AcDbEntity
  8
0
  6
Continuous
 62
     7
100
AcDbLine
 10
321.0570954073228
 20
468.4116770693981
 30
0.0
 11
314.1570954073213
 21
468.4116770693981
 31
0.0
  0
LINE
  5
392
330
77
100
AcDbEntity
  8
0
  6
Continuous
 62
     7
100
AcDbLine
 10
314.1570954073213
 20
468.4116770693981
 30
0.0
 11
314.1570954073213
 21
467.6616770693981
 31
0.0
  0
LINE
  5
393
330
77
100
AcDbEntity
  8
1
  6
Continuous
 62
     7
100
AcDbLine
 10
316.1570969980621
 20
451.163147985138
 30
0.0
 11
319.3070954073228
 21
451.8116770693982
 31
0.0
  0
LINE
  5
394
330
77
100
AcDbEntity
  8
1
  6
Continuous
 62
     7
100
AcDbLine
 10
316.950511178602
 20
449.788914313001
 30
0.0
 11
318.4408279783729
 21
450.095744242366
 31
0.0
  0
ENDBLK
  5
79
330
77
100
AcDbEntity
  8
0
100
AcDbBlockEnd
  0
BLOCK
  5
7B
330
7A
100
AcDbEntity
  8
0
100
AcDbBlockBegin
  2
88-249
 70
     0
 10
429.1318430265328
 20
484.4629202315869
 30
0.0
  3
88-249
  1

  0
LINE
  5
395
330
7A
100
AcDbEntity
  8
1
  6
Continuous
 62
     7
100
AcDbLine
 10
189.0955347136824
 20
374.4023290350501
 30
0.0
 11
189.0955347136824
 21
376.1410714311
 31
0.0
  0
LINE
  5
396
330
7A
100
AcDbEntity
  8
1
  6
Continuous
 62
     7
100
AcDbLine
 10
145.1033615783927
 20
376.1410714311
 30
0.0
 11
145.1033615783927
 21
374.4023290350501
 31
0.0
  0
LINE
  5
397
330
7A
100
AcDbEntity
  8
1
  6
Continuous
 62
     7
100
AcDbLine
 10
189.0955347136824
 20
235.3021466640371
 30
0.0
 11
189.0955347136824
 21
233.53437971107
 31
0.0
  0
LINE
  5
398
330
7A
100
AcDbEntity
  8
1
  6
Continuous
 62
     7
100
AcDbLine
 10
145.1033615783927
 20
235.7146980718139
 30
0.0
 11
145.1033615783927
 21
233.53437971107
 31
0.0
  0
LINE
  5
399
330
7A
100
AcDbEntity
  8
1
  6
Continuous
 62
     7
100
AcDbLine
 10
263.7397669435813
 20
251.1667862269842
 30
0.0
 11
263.3067542416829
 21
250.9167862269842
 31
0.0
  0
LINE
  5
39A
330
7A
100
AcDbEntity
  8
1
  6
Continuous
 62
     7
100
AcDbLine
 10
262.7577161360114
 20
248.8677481213072
 30
0.0
 11
276.6706967266728
 21
224.7697588535712
 31
0.0
  0
LINE
  5
39B
330
7A
100
AcDbEntity
  8
1
  6
Continuous
 62
     7
100
AcDbLine
 10
276.6706967266728
 20
229.7697588535721
 30
0.0
 11
264.4227796454725
 21
250.9837735250922
 31
0.0
  0
SPLINE
  5
39C
330
7A
100
AcDbEntity
  8
1
  6
Continuous
 62
     7
100
AcDbSpline
210
0.0
220
0.0
230
1.0
 70
     8
 71
     3
 72
    11
 73
     7
 74
     5
 42
0.000000001
 43
0.0000000001
 44
0.00000001
 40
0.0
 40
0.0
 40
0.0
 40
0.0
 40
0.3342042433682063
 40
0.6706304992045473
 40
1.156392312264842
 40
1.638188417998813
 40
1.638188417998813
 40
1.638188417998813
 40
1.638188417998813
 10
145.3460244825128
 20
377.7558765066428
 30
0.0
 10
145.3161143980739
 20
377.6485307445844
 30
0.0
 10
145.25609538134
 20
377.4331255105559
 30
0.0
 10
145.1782108336779
 20
377.0554374372459
 30
0.0
 10
145.1159119526422
 20
376.6243901246571
 30
0.0
 10
145.107533584654
 20
376.3017368453852
 30
0.0
 10
145.1033615783927
 20
376.1410714311151
 30
0.0
 11
145.3460244825128
 21
377.7558765066428
 31
0.0
 11
145.2599824631383
 21
377.4329380490012
 31
0.0
 11
145.1909635423359
 21
377.1036676212485
 31
0.0
 11
145.1252620693785
 21
376.6223695261819
 31
0.0
 11
145.1033615783927
 21
376.1410714311151
 31
0.0
  0
SPLINE
  5
39D
330
7A
100
AcDbEntity
  8
1
  6
Continuous
 62
     7
100
AcDbSpline
210
0.0
220
0.0
230
1.0
 70
     8
 71
     3
 72
     9
 73
     5
 74
     3
 42
0.000000001
 43
0.0000000001
 44
0.00000001
 40
0.0
 40
0.0
 40
0.0
 40
0.0
 40
0.4817961056149684
 40
0.9675579190841319
 40
0.9675579190841319
 40
0.9675579190841319
 40
0.9675579190841319
 10
189.0955347136824
 20
376.1410714311151
 30
0.0
 10
189.0918251562303
 20
376.3018302261313
 30
0.0
 10
189.0843754877001
 20
376.6246710351696
 30
0.0
 10
189.0334831993932
 20
376.943566410211
 30
0.0
 10
189.0079327497424
 20
377.103667621248
 30
0.0
 11
189.0955347136824
 21
376.1410714311151
 31
0.0
 11
189.0736342226974
 21
376.6223695261818
 31
0.0
 11
189.0079327497424
 21
377.103667621248
 31
0.0
  0
SPLINE
  5
39E
330
7A
100
AcDbEntity
  8
1
  6
Continuous
 62
     7
100
AcDbSpline
210
0.0
220
0.0
230
1.0
 70
     8
 71
     3
 72
    45
 73
    41
 74
    39
 42
0.000000001
 43
0.0000000001
 44
0.00000001
 40
0.0
 40
0.0
 40
0.0
 40
0.0
 40
0.4817960966766456
 40
0.9675579134422261
 40
1.976274992204224
 40
2.982829407691615
 40
4.101563590706895
 40
5.217825255192896
 40
6.486801545513992
 40
7.754115886032984
 40
9.18699654622279
 40
10.61888432750497
 40
12.20835405790684
 40
13.79724007999775
 40
15.52123844207292
 40
17.24489660748
 40
19.0713667917744
 40
20.89764802075492
 40
22.78803728355591
 40
24.67834192323718
 40
26.59041058340703
 40
28.50247924357688
 40
30.39278388325668
 40
32.28317314605354
 40
34.10945437503014
 40
35.9359245593232
 40
37.65958272473049
 40
39.38358108680634
 40
40.97246710889759
 40
42.56193683929887
 40
43.99382462058037
 40
45.42670528077019
 40
46.6940196212905
 40
47.96299591161481
 40
49.07925757610329
 40
50.19799175911926
 40
51.20454617460603
 40
52.21326325336679
 40
52.69902507013214
 40
53.18082116680875
 40
53.18082116680875
 40
53.18082116680875
 40
53.18082116680875
 10
145.1033615783927
 20
376.1410714311151
 30
0.0
 10
145.1075640370884
 20
375.9803982389229
 30
0.0
 10
145.1160035546405
 20
375.6577293354766
 30
0.0
 10
145.2097939994125
 20
375.0046087512481
 30
0.0
 10
145.423340799463
 20
374.1945382560499
 30
0.0
 10
145.8623819590152
 20
373.2418521609471
 30
0.0
 10
146.4508305786686
 20
372.331561420023
 30
0.0
 10
147.208920744829
 20
371.4394424645902
 30
0.0
 10
148.0989091495008
 20
370.6051098101296
 30
0.0
 10
149.1487522833205
 20
369.797128403542
 30
0.0
 10
150.3113072758447
 20
369.055390641174
 30
0.0
 10
151.6205012539493
 20
368.352561461186
 30
0.0
 10
153.0230735963264
 20
367.7216529339039
 30
0.0
 10
154.5523418940992
 20
367.1432312529119
 30
0.0
 10
156.1552596031802
 20
366.64102064933
 30
0.0
 10
157.8586895518924
 20
366.2033255533901
 30
0.0
 10
159.6154075293367
 20
365.8451052691585
 30
0.0
 10
161.4417190967175
 20
365.5605548553601
 30
0.0
 10
163.3003135355293
 20
365.3577225458581
 30
0.0
 10
165.1944727004299
 20
365.2342290110248
 30
0.0
 10
167.0994481460421
 20
365.1936020620122
 30
0.0
 10
169.0044235916537
 20
365.2342290110248
 30
0.0
 10
170.8985827565525
 20
365.357722545858
 30
0.0
 10
172.7571771953612
 20
365.56055485536
 30
0.0
 10
174.5834887627387
 20
365.8451052691589
 30
0.0
 10
176.3402067401812
 20
366.2033255533903
 30
0.0
 10
178.0436366888933
 20
366.64102064933
 30
0.0
 10
179.6465543979749
 20
367.143231252912
 30
0.0
 10
181.1758226957479
 20
367.7216529339034
 30
0.0
 10
182.5783950381247
 20
368.3525614611856
 30
0.0
 10
183.8875890162289
 20
369.0553906411735
 30
0.0
 10
185.050144008753
 20
369.7971284035418
 30
0.0
 10
186.0999871425741
 20
370.6051098101304
 30
0.0
 10
186.9899755472497
 20
371.43944246459
 30
0.0
 10
187.7480657134142
 20
372.3315614200221
 30
0.0
 10
188.336514333069
 20
373.2418521609469
 30
0.0
 10
188.7755554926202
 20
374.1945382560494
 30
0.0
 10
188.9891022926664
 20
375.0046087512484
 30
0.0
 10
189.0828927374352
 20
375.6577293354767
 30
0.0
 10
189.0913322549868
 20
375.9803982389229
 30
0.0
 10
189.0955347136824
 20
376.1410714311151
 30
0.0
 11
145.1033615783927
 21
376.1410714311151
 31
0.0
 11
145.1252620693789
 21
375.659773336033
 31
0.0
 11
145.1909635423375
 21
375.1784752409508
 31
0.0
 11
145.4511465275037
 21
374.2038907372378
 31
0.0
 11
145.8664234635714
 21
373.2869955112578
 31
0.0
 11
146.4707773401868
 21
372.3455484537332
 31
0.0
 11
147.1901475536512
 21
371.4919990421471
 31
0.0
 11
148.1125437775009
 21
370.6205140853523
 31
0.0
 11
149.1149820183087
 21
369.8451411366659
 31
0.0
 11
150.3205972244899
 21
369.0707775533261
 31
0.0
 11
151.5811800671269
 21
368.3916358057205
 31
0.0
 11
153.0293846034371
 21
367.7365650898629
 31
0.0
 11
154.5150040875169
 21
367.1730994409311
 31
0.0
 11
156.1594378026087
 21
366.6554044474258
 31
0.0
 11
157.8286359575541
 21
366.2255498353077
 31
0.0
 11
159.6179595987942
 21
365.8590607672968
 31
0.0
 11
161.4223980165587
 21
365.5774491213235
 31
0.0
 11
163.3015251089739
 21
365.3714080338654
 31
0.0
 11
165.1878236293936
 21
365.2484059352506
 31
0.0
 11
167.0994481460421
 21
365.2071959656082
 31
0.0
 11
169.0110726626906
 21
365.2484059352506
 31
0.0
 11
170.8973711831088
 21
365.3714080338654
 31
0.0
 11
172.7764982755198
 21
365.5774491213235
 31
0.0
 11
174.5809366932804
 21
365.8590607672969
 31
0.0
 11
176.3702603345191
 21
366.2255498353078
 31
0.0
 11
178.0394584894647
 21
366.6554044474258
 31
0.0
 11
179.6838922045573
 21
367.1730994409311
 31
0.0
 11
181.1695116886374
 21
367.7365650898627
 31
0.0
 11
182.6177162249471
 21
368.3916358057201
 31
0.0
 11
183.8782990675835
 21
369.0707775533254
 31
0.0
 11
185.0839142737645
 21
369.8451411366655
 31
0.0
 11
186.0863525145738
 21
370.6205140853522
 31
0.0
 11
187.0087487384278
 21
371.4919990421471
 31
0.0
 11
187.728118951896
 21
372.3455484537332
 31
0.0
 11
188.3324728285127
 21
373.2869955112578
 31
0.0
 11
188.7477497645789
 21
374.2038907372378
 31
0.0
 11
189.0079327497405
 21
375.1784752409508
 31
0.0
 11
189.073634222697
 21
375.659773336033
 31
0.0
 11
189.0955347136824
 21
376.1410714311151
 31
0.0
  0
SPLINE
  5
39F
330
7A
100
AcDbEntity
  8
1
  6
Continuous
 62
     7
100
AcDbSpline
210
0.0
220
0.0
230
1.0
 70
     8
 71
     3
 72
    45
 73
    41
 74
    39
 42
0.000000001
 43
0.0000000001
 44
0.00000001
 40
0.0
 40
0.0
 40
0.0
 40
0.0
 40
0.4743496234648936
 40
0.9527405879617843
 40
1.947707092361416
 40
2.940404508794329
 40
4.047809915870079
 40
5.152660347551526
 40
6.413091385430372
 40
7.671842905581734
 40
9.098773157462984
 40
10.52471299082009
 40
12.11038050904868
 40
13.69547066766759
 40
15.41731724649448
 40
17.13882914307599
 40
18.96430908945299
 40
20.78960375543175
 40
22.67969237345324
 40
24.56969816388804
 40
26.48169534323733
 40
28.39369252258662
 40
30.28369831302
 40
32.17378693103733
 40
33.99908159701238
 40
35.82456154338871
 40
37.54607343997059
 40
39.26792001879704
 40
40.85301017741555
 40
42.43867769564458
 40
43.86461752900209
 40
45.2915477808829
 40
46.55029930103499
 40
47.81073033891673
 40
48.91558077060068
 40
50.02298617767708
 40
51.01568359410917
 40
52.01065009850711
 40
52.48904106301517
 40
52.96339068649163
 40
52.96339068649163
 40
52.96339068649163
 40
52.96339068649163
 10
145.1033615783927
 20
374.4023290350342
 30
0.0
 10
145.1075702927344
 20
374.2441362205857
 30
0.0
 10
145.1160235869854
 20
373.9264028289464
 30
0.0
 10
145.2101036520309
 20
373.2829271862871
 30
0.0
 10
145.4238995501566
 20
372.4849292278749
 30
0.0
 10
145.8636116766062
 20
371.546815556004
 30
0.0
 10
146.4523485687228
 20
370.6512741685443
 30
0.0
 10
147.2108207541475
 20
369.7732384615114
 30
0.0
 10
148.1006826301371
 20
368.9527609757396
 30
0.0
 10
149.1506592941521
 20
368.157675242502
 30
0.0
 10
150.3128695178831
 20
367.4281967410814
 30
0.0
 10
151.6220833212468
 20
366.7366023312435
 30
0.0
 10
153.0242883237997
 20
366.1160164245492
 30
0.0
 10
154.5535261031587
 20
365.5468363462855
 30
0.0
 10
156.1561263196818
 20
365.0527748964357
 30
0.0
 10
157.8594962071433
 20
364.6220691346814
 30
0.0
 10
159.6159596130408
 20
364.2696299389619
 30
0.0
 10
161.4421850691843
 20
363.9896217160327
 30
0.0
 10
163.3005813439978
 20
363.7900534061328
 30
0.0
 10
165.1946248785511
 20
363.668528814337
 30
0.0
 10
167.0994481460421
 20
363.6285594400877
 30
0.0
 10
169.0042714135326
 20
363.6685288143371
 30
0.0
 10
170.8983149480839
 20
363.7900534061325
 30
0.0
 10
172.7567112228945
 20
363.9896217160328
 30
0.0
 10
174.582936679035
 20
364.2696299389622
 30
0.0
 10
176.3394000849311
 20
364.6220691346816
 30
0.0
 10
178.0427699723926
 20
365.0527748964353
 30
0.0
 10
179.6453701889153
 20
365.5468363462855
 30
0.0
 10
181.1746079682741
 20
366.1160164245495
 30
0.0
 10
182.5768129708273
 20
366.7366023312435
 30
0.0
 10
183.8860267741912
 20
367.428196741081
 30
0.0
 10
185.0482369979222
 20
368.1576752425024
 30
0.0
 10
186.098213661938
 20
368.9527609757405
 30
0.0
 10
186.9880755379312
 20
369.7732384615113
 30
0.0
 10
187.7465477233599
 20
370.6512741685436
 30
0.0
 10
188.3352846154779
 20
371.5468155560035
 30
0.0
 10
188.7749967419264
 20
372.4849292278742
 30
0.0
 10
188.9887926400476
 20
373.282927186291
 30
0.0
 10
189.0828727050901
 20
373.9264028289575
 30
0.0
 10
189.0913259993407
 20
374.2441362206045
 30
0.0
 10
189.0955347136824
 20
374.4023290350569
 30
0.0
 11
145.1033615783927
 21
374.4023290350342
 31
0.0
 11
145.1252999503686
 21
373.928486991514
 31
0.0
 11
145.1911150662961
 21
373.4546449479936
 31
0.0
 11
145.4516749031154
 21
372.4944017953565
 31
0.0
 11
145.8668484211411
 21
371.5926928022224
 31
0.0
 11
146.4720618088807
 21
370.665296722331
 31
0.0
 11
147.1908437670367
 21
369.8262216532993
 31
0.0
 11
148.1140445629553
 21
368.9680918904062
 31
0.0
 11
149.115695639461
 21
368.2057596079161
 31
0.0
 11
150.3219284664044
 21
367.4434392624138
 31
0.0
 11
151.5817755145916
 21
366.7755397027251
 31
0.0
 11
153.0304236252429
 21
366.1307450627332
 31
0.0
 11
154.5154506056768
 21
365.5764836838376
 31
0.0
 11
156.1601804178269
 21
365.0669549964911
 31
0.0
 11
157.8289402576456
 21
364.6440557130409
 31
0.0
 11
159.6184329486688
 21
364.2833717247949
 31
0.0
 11
161.4225738126658
 21
364.0062862580371
 31
0.0
 11
163.3017547772765
 21
363.8035206776756
 31
0.0
 11
165.1878810401559
 21
363.682485137001
 31
0.0
 11
167.0994481460421
 21
363.641933851353
 31
0.0
 11
169.0110152519282
 21
363.6824851370011
 31
0.0
 11
170.8971415148063
 21
363.8035206776756
 31
0.0
 11
172.7763224794128
 21
364.0062862580372
 31
0.0
 11
174.580463343406
 21
364.2833717247949
 31
0.0
 11
176.3699560344285
 21
364.6440557130409
 31
0.0
 11
178.0387158742476
 21
365.066954996491
 31
0.0
 11
179.6834456863972
 21
365.5764836838376
 31
0.0
 11
181.1684726668307
 21
366.1307450627332
 31
0.0
 11
182.6171207774825
 21
366.7755397027251
 31
0.0
 11
183.8769678256701
 21
367.4434392624138
 31
0.0
 11
185.083200652613
 21
368.2057596079161
 31
0.0
 11
186.0848517291196
 21
368.9680918904063
 31
0.0
 11
187.0080525250423
 21
369.8262216532993
 31
0.0
 11
187.7268344832021
 21
370.665296722331
 31
0.0
 11
188.332047870943
 21
371.5926928022223
 31
0.0
 11
188.7472213889668
 21
372.4944017953564
 31
0.0
 11
189.0077812257805
 21
373.4546449479933
 31
0.0
 11
189.073596341707
 21
373.9284869915251
 31
0.0
 11
189.0955347136824
 21
374.4023290350569
 31
0.0
  0
SPLINE
  5
3A0
330
7A
100
AcDbEntity
  8
1
  6
Continuous
 62
     7
100
AcDbSpline
210
0.0
220
0.0
230
1.0
 70
     8
 71
     3
 72
     9
 73
     5
 74
     3
 42
0.000000001
 43
0.0000000001
 44
0.00000001
 40
0.0
 40
0.0
 40
0.0
 40
0.0
 40
0.3364262561621292
 40
0.670630499609989
 40
0.670630499609989
 40
0.670630499609989
 40
0.670630499609989
 10
189.0079327497424
 20
377.103667621248
 30
0.0
 10
188.9863975646344
 20
377.2137743242112
 30
0.0
 10
188.9434694095167
 20
377.4332604980686
 30
0.0
 10
188.8830042358515
 20
377.6485756413102
 30
0.0
 10
188.8528718095622
 20
377.7558765066278
 30
0.0
 11
189.0079327497424
 21
377.103667621248
 31
0.0
 11
188.9389138289421
 21
377.4329380489935
 31
0.0
 11
188.8528718095622
 21
377.7558765066278
 31
0.0
  0
SPLINE
  5
3A1
330
7A
100
AcDbEntity
  8
1
  6
Continuous
 62
     7
100
AcDbSpline
210
0.0
220
0.0
230
1.0
 70
     8
 71
     3
 72
    23
 73
    19
 74
    17
 42
0.000000001
 43
0.0000000001
 44
0.00000001
 40
0.0
 40
0.0
 40
0.0
 40
0.0
 40
0.7819306715913287
 40
1.56471570871327
 40
3.356907148024197
 40
5.149483305386283
 40
6.857136239424024
 40
8.565350152245575
 40
10.178340780618
 40
11.79208567358551
 40
13.31098139572666
 40
14.83078566130939
 40
16.26869296171949
 40
17.70749822717904
 40
19.09024983696873
 40
20.47358566926811
 40
21.156909970098
 40
21.83757702933523
 40
21.83757702933523
 40
21.83757702933523
 40
21.83757702933523
 10
174.8777448590718
 20
218.9839573499598
 30
0.0
 10
175.1289732370196
 20
219.0534421820579
 30
0.0
 10
175.6317044903594
 20
219.1924877809548
 30
0.0
 10
176.6995877338218
 20
219.5273232952457
 30
0.0
 10
178.0678047650931
 20
220.0282157786733
 30
0.0
 10
179.6792582462633
 20
220.7499483486076
 30
0.0
 10
181.2085594891198
 20
221.5751495711705
 30
0.0
 10
182.6195189689437
 20
222.4836084790907
 30
0.0
 10
183.9264267020884
 20
223.4856826764231
 30
0.0
 10
185.0949113779008
 20
224.555239747562
 30
0.0
 10
186.1388943376991
 20
225.7051231650028
 30
0.0
 10
187.0290466444746
 20
226.9060327236487
 30
0.0
 10
187.776546823922
 20
228.1698182665418
 30
0.0
 10
188.3587413707176
 20
229.4681527468744
 30
0.0
 10
188.7846229985111
 20
230.8069956034024
 30
0.0
 10
188.9940717700845
 20
231.9405248859799
 30
0.0
 10
189.0832055761933
 20
232.85269065403
 30
0.0
 10
189.0914303467884
 20
233.3074453333261
 30
0.0
 10
189.0955347136824
 20
233.53437971107
 30
0.0
 11
174.8777448590718
 21
218.9839573499598
 31
0.0
 11
175.6301885004892
 21
219.1966640388941
 31
0.0
 11
176.3773268697226
 21
219.430194913279
 31
0.0
 11
178.0598125980545
 21
220.0476023354586
 31
0.0
 11
179.6951427798497
 21
220.7817851980651
 31
0.0
 11
181.1972566547376
 21
221.5940243563225
 31
0.0
 11
182.6324019985981
 21
222.5204975694126
 31
0.0
 11
183.9112266261708
 21
223.5035267347505
 31
0.0
 11
185.1001191435825
 21
224.5947220255153
 31
0.0
 11
186.1192929907181
 21
225.7209231110663
 31
0.0
 11
187.0228213263064
 21
226.9429875748879
 31
0.0
 11
187.7524328542464
 21
228.1820373819407
 31
0.0
 11
188.340430016494
 21
229.4952090885946
 31
0.0
 11
188.7565259896772
 21
230.813869833026
 31
0.0
 11
189.0103942031093
 21
232.1737113542058
 31
0.0
 11
189.0742495860391
 21
232.8540455326379
 31
0.0
 11
189.0955347136824
 21
233.53437971107
 31
0.0
  0
SPLINE
  5
3A2
330
7A
100
AcDbEntity
  8
1
  6
Continuous
 62
     7
100
AcDbSpline
210
0.0
220
0.0
230
1.0
 70
     8
 71
     3
 72
     9
 73
     5
 74
     3
 42
0.000000001
 43
0.0000000001
 44
0.00000001
 40
0.0
 40
0.0
 40
0.0
 40
0.0
 40
0.6806670629452143
 40
1.363991366512839
 40
1.363991366512839
 40
1.363991366512839
 40
1.363991366512839
 10
189.0955347136824
 20
233.53437971107
 30
0.0
 10
189.0919596288203
 20
233.761377808687
 30
0.0
 10
189.0847954824426
 20
234.2162601756824
 30
0.0
 10
189.0352268250377
 20
234.6684917681621
 30
0.0
 10
189.0103942031128
 20
234.895048067935
 30
0.0
 11
189.0955347136824
 21
233.53437971107
 31
0.0
 11
189.07424958604
 21
234.2147138895027
 31
0.0
 11
189.0103942031128
 21
234.895048067935
 31
0.0
  0
SPLINE
  5
3A3
330
7A
100
AcDbEntity
  8
1
  6
Continuous
 62
     7
100
AcDbSpline
210
0.0
220
0.0
230
1.0
 70
     8
 71
     3
 72
     9
 73
     5
 74
     3
 42
0.000000001
 43
0.0000000001
 44
0.00000001
 40
0.0
 40
0.0
 40
0.0
 40
0.0
 40
0.6806670629445325
 40
1.363991366511931
 40
1.363991366511931
 40
1.363991366511931
 40
1.363991366511931
 10
189.0955347136824
 20
235.3021466640371
 30
0.0
 10
189.0919596288203
 20
235.5291447616539
 30
0.0
 10
189.0847954824426
 20
235.9840271286488
 30
0.0
 10
189.0352268250377
 20
236.4362587211285
 30
0.0
 10
189.0103942031128
 20
236.6628150209012
 30
0.0
 11
189.0955347136824
 21
235.3021466640371
 31
0.0
 11
189.07424958604
 21
235.9824808424692
 31
0.0
 11
189.0103942031128
 21
236.6628150209012
 31
0.0
  0
SPLINE
  5
3A4
330
7A
100
AcDbEntity
  8
1
  6
Continuous
 62
     7
100
AcDbSpline
210
0.0
220
0.0
230
1.0
 70
     8
 71
     3
 72
    43
 73
    39
 74
    37
 42
0.000000001
 43
0.0000000001
 44
0.00000001
 40
0.0
 40
0.0
 40
0.0
 40
0.0
 40
1.383335829605038
 40
2.766087436138915
 40
4.204892700801574
 40
5.642800001284732
 40
7.16260426712013
 40
8.681499989522855
 40
10.2952448827273
 40
11.90823551128441
 40
13.61644942423752
 40
15.32410235830907
 40
17.11667851550038
 40
18.90886995382036
 40
20.76744902559951
 40
22.62579084642991
 40
24.52622420907297
 40
26.42654490112997
 40
28.34126908390071
 40
30.25599326484537
 40
32.15631395269685
 40
34.05674731216989
 40
35.91508913163857
 40
37.77366820290008
 40
39.56585964104453
 40
41.3584357982
 40
43.06608873229781
 40
44.77430264530956
 40
46.3872932739495
 40
48.00103816727398
 40
49.51993388984794
 40
51.03973815597927
 40
52.47764545708876
 40
53.91645072351216
 40
55.29920233488529
 40
56.68253816948625
 40
57.15912142328573
 40
57.63402517873967
 40
57.63402517873967
 40
57.63402517873967
 40
57.63402517873967
 10
189.0103942031128
 20
236.6628150209012
 30
0.0
 10
188.93746117029
 20
237.1187321407445
 30
0.0
 10
188.7916258929634
 20
238.0303738306843
 30
0.0
 10
188.3567806482952
 20
239.3681375842046
 30
0.0
 10
187.7770796301015
 20
240.6667722505412
 30
0.0
 10
187.0288948644825
 20
241.9304753844146
 30
0.0
 10
186.1389358355577
 20
243.1314081886327
 30
0.0
 10
185.0948995337812
 20
244.2812852734016
 30
0.0
 10
183.9264297840085
 20
245.3508437912242
 30
0.0
 10
182.6195187331801
 20
246.3529189390448
 30
0.0
 10
181.2085569959775
 20
247.2613722527899
 30
0.0
 10
179.6792686371168
 20
248.0865954492017
 30
0.0
 10
178.0677635939352
 20
248.8082419597952
 30
0.0
 10
176.3627311147876
 20
249.4328401504163
 30
0.0
 10
174.5982819982092
 20
249.9466932878401
 30
0.0
 10
172.7691001189627
 20
250.3527845631558
 30
0.0
 10
170.9039853666478
 20
250.6434530398161
 30
0.0
 10
169.0057729394494
 20
250.8196038999439
 30
0.0
 10
167.0955347078064
 20
250.8780152300901
 30
0.0
 10
165.1852964773708
 20
250.8196039037232
 30
0.0
 10
163.2870840532078
 20
250.6434530448869
 30
0.0
 10
161.4219693034935
 20
250.3527845669888
 30
0.0
 10
159.5927874281316
 20
249.9466932904485
 30
0.0
 10
157.8283383054237
 20
249.4328401531822
 30
0.0
 10
156.1233058520666
 20
248.8082419592625
 30
0.0
 10
154.5118007165447
 20
248.0865954589978
 30
0.0
 10
152.9825126874291
 20
247.2613722248235
 30
0.0
 10
151.5715497546929
 20
246.3529190475175
 30
0.0
 10
150.264642929019
 20
245.3508434173631
 30
0.0
 10
149.0961579010443
 20
244.281286643782
 30
0.0
 10
148.0521754391349
 20
243.1314034126959
 30
0.0
 10
147.1620215208522
 20
241.9304928573286
 30
0.0
 10
146.4145269977994
 20
240.6667109243315
 30
0.0
 10
145.8323118583912
 20
239.3683632713872
 30
0.0
 10
145.406504249583
 20
238.029567768008
 30
0.0
 10
145.2093946719891
 20
236.9638397365752
 30
0.0
 10
145.1273761187032
 20
236.189643721197
 30
0.0
 10
145.1113569956798
 20
235.8728268809024
 30
0.0
 10
145.1033615783927
 20
235.7146980718139
 30
0.0
 11
189.0103942031128
 21
236.6628150209012
 31
0.0
 11
188.7565259896781
 21
238.022656542081
 31
0.0
 11
188.340430016494
 21
239.3413172865124
 31
0.0
 11
187.7524328542464
 21
240.6544889931664
 31
0.0
 11
187.0228213263064
 21
241.8935388002192
 31
0.0
 11
186.1192929907181
 21
243.1156032640409
 31
0.0
 11
185.1001191435825
 21
244.2418043495922
 31
0.0
 11
183.9112266261708
 21
245.3329996403572
 31
0.0
 11
182.6324019985981
 21
246.3160288056946
 31
0.0
 11
181.1972566547376
 21
247.2425020187841
 31
0.0
 11
179.6951427798497
 21
248.0547411770416
 31
0.0
 11
178.0598125980551
 21
248.7889240396482
 31
0.0
 11
176.3773268697253
 21
249.4063314618274
 31
0.0
 11
174.5932319410065
 21
249.9272167173613
 31
0.0
 11
172.7791793731376
 21
250.3305126369821
 31
0.0
 11
170.9015349485394
 21
250.623937870814
 31
0.0
 11
169.0093539953759
 21
250.7996363488295
 31
0.0
 11
167.0955347136824
 21
250.8584958501287
 31
0.0
 11
165.1817154319888
 21
250.7996363488295
 31
0.0
 11
163.2895344788265
 21
250.623937870814
 31
0.0
 11
161.4118900542317
 21
250.3305126369821
 31
0.0
 11
159.5978374863664
 21
249.9272167173613
 31
0.0
 11
157.8137425576494
 21
249.4063314618274
 31
0.0
 11
156.1312568293186
 21
248.7889240396482
 31
0.0
 11
154.4959266475194
 21
248.0547411770415
 31
0.0
 11
152.9938127726282
 21
247.2425020187841
 31
0.0
 11
151.5586674287704
 21
246.3160288056946
 31
0.0
 11
150.2798428012017
 21
245.3329996403572
 31
0.0
 11
149.0909502837913
 21
244.2418043495922
 31
0.0
 11
148.0717764366545
 21
243.1156032640409
 31
0.0
 11
147.1682481010628
 21
241.8935388002192
 31
0.0
 11
146.4386365731195
 21
240.6544889931664
 31
0.0
 11
145.8506394108708
 21
239.3413172865125
 31
0.0
 11
145.4345434376886
 21
238.022656542081
 31
0.0
 11
145.1806752242597
 21
236.6628150209014
 31
0.0
 11
145.1316837576043
 21
236.1887565463578
 31
0.0
 11
145.1033615783927
 21
235.7146980718139
 31
0.0
  0
SPLINE
  5
3A5
330
7A
100
AcDbEntity
  8
1
  6
Continuous
 62
     7
100
AcDbSpline
210
0.0
220
0.0
230
1.0
 70
     8
 71
     3
 72
    57
 73
    53
 74
    51
 42
0.000000001
 43
0.0000000001
 44
0.00000001
 40
0.0
 40
0.0
 40
0.0
 40
0.0
 40
1.383335825559322
 40
2.766087435668905
 40
4.204892701978073
 40
5.642800002998534
 40
7.162604269037499
 40
8.681499991528892
 40
10.29524488478518
 40
11.90823551338107
 40
13.61644942636966
 40
15.32410236046312
 40
17.11667851763386
 40
18.90886995580956
 40
20.76744902710168
 40
22.6257908465611
 40
24.5262242059009
 40
26.42654489329136
 40
28.34126907293301
 40
30.25599325256723
 40
32.15631393993396
 40
34.05674729923274
 40
35.91508911863617
 40
37.77366818985761
 40
39.56585962794966
 40
41.35843578501941
 40
43.06608871899128
 40
44.77430263182369
 40
46.38729326023634
 40
48.00103815326805
 40
49.51993387549814
 40
51.03973814121093
 40
52.47764544184132
 40
53.91645070769536
 40
55.29920231840369
 40
56.68253815312154
 40
58.04586763752619
 40
59.40919712194468
 40
60.79253295669909
 40
62.17528456746621
 40
63.61408983339577
 40
65.05199713411191
 40
66.57180139991677
 40
68.09069712223446
 40
69.70444201534724
 40
71.31743264382344
 40
73.0256465566979
 40
74.73329949067627
 40
76.52587564769028
 40
78.31806708549468
 40
79.10085212058735
 40
79.88278277925708
 40
79.88278277925708
 40
79.88278277925708
 40
79.88278277925708
 10
189.0103942031128
 20
234.895048067935
 30
0.0
 10
188.9374611705033
 20
235.3509651864449
 30
0.0
 10
188.7916259001404
 20
236.262606877446
 30
0.0
 10
188.3567806543245
 20
237.6003706314878
 30
0.0
 10
187.7770796334827
 20
238.8990052986273
 30
0.0
 10
187.0288948663708
 20
240.1627084325391
 30
0.0
 10
186.1389358365767
 20
241.3636412364395
 30
0.0
 10
185.0948995342315
 20
242.5135183208401
 30
0.0
 10
183.9264297840766
 20
243.5830768383266
 30
0.0
 10
182.6195187329798
 20
244.5851519858609
 30
0.0
 10
181.2085569956064
 20
245.493605299393
 30
0.0
 10
179.6792686366787
 20
246.318828495698
 30
0.0
 10
178.067763593572
 20
247.0404750063281
 30
0.0
 10
176.3627311147638
 20
247.665073197219
 30
0.0
 10
174.59828199907
 20
248.1789263352508
 30
0.0
 10
172.7691001218596
 20
248.585017611694
 30
0.0
 10
170.9039853729384
 20
248.8756860900103
 30
0.0
 10
169.0057729493479
 20
249.0518369496101
 30
0.0
 10
167.0955347206606
 20
249.1102482773985
 30
0.0
 10
165.1852964919333
 20
249.0518369495038
 30
0.0
 10
163.287084068529
 20
248.8756860897832
 30
0.0
 10
161.4219693191089
 20
248.5850176114493
 30
0.0
 10
159.5927874439895
 20
248.1789263346895
 30
0.0
 10
157.8283383209678
 20
247.6650731975542
 30
0.0
 10
156.1233058689607
 20
247.0404750033269
 30
0.0
 10
154.5118007285586
 20
246.3188285049474
 30
0.0
 10
152.9825127167447
 20
245.4936052653088
 30
0.0
 10
151.5715497210741
 20
244.5851521095076
 30
0.0
 10
150.2646431175071
 20
243.5830764053896
 30
0.0
 10
149.0961572859329
 20
242.5135199016952
 30
0.0
 10
148.0521776552392
 20
241.3636357222505
 30
0.0
 10
147.1620134875944
 20
240.1627286028801
 30
0.0
 10
146.4145552636079
 20
238.8989345039392
 30
0.0
 10
145.83220790753
 20
237.6006311677988
 30
0.0
 10
145.4068755816075
 20
236.261676360567
 30
0.0
 10
145.1541129599551
 20
234.9050994715638
 30
0.0
 10
145.0664589417463
 20
233.5343797062822
 30
0.0
 10
145.1541129603098
 20
232.1636599410476
 30
0.0
 10
145.4068755822332
 20
230.8070830519567
 30
0.0
 10
145.8322079087367
 20
229.4681282451942
 30
0.0
 10
146.4145552641409
 20
228.1698249074699
 30
0.0
 10
147.162013492205
 20
226.9060308149081
 30
0.0
 10
148.0521776452396
 20
225.7051236708293
 30
0.0
 10
149.0961573335027
 20
224.555239587003
 30
0.0
 10
150.2646429385687
 20
223.4856827056371
 30
0.0
 10
151.5715504154211
 20
222.4836084564878
 30
0.0
 10
152.9825099682477
 20
221.5751495638331
 30
0.0
 10
154.5118111911851
 20
220.7499483377397
 30
0.0
 10
156.1232646774107
 20
220.0282157690032
 30
0.0
 10
157.4914817064246
 20
219.5273232870018
 30
0.0
 10
158.5593649441547
 20
219.1924877719661
 30
0.0
 10
159.062096194513
 20
219.0534421809112
 30
0.0
 10
159.3133245683021
 20
218.9839573499598
 30
0.0
 11
189.0103942031128
 21
234.895048067935
 31
0.0
 11
188.7565259896781
 21
236.2548895891143
 31
0.0
 11
188.340430016494
 21
237.573550333546
 31
0.0
 11
187.7524328542464
 21
238.8867220402004
 31
0.0
 11
187.0228213263064
 21
240.1257718472532
 31
0.0
 11
186.1192929907181
 21
241.3478363110747
 31
0.0
 11
185.1001191435825
 21
242.4740373966256
 31
0.0
 11
183.9112266261708
 21
243.5652326873904
 31
0.0
 11
182.6324019985981
 21
244.5482618527282
 31
0.0
 11
181.1972566547376
 21
245.4747350658181
 31
0.0
 11
179.6951427798497
 21
246.2869742240758
 31
0.0
 11
178.0598125980551
 21
247.0211570866824
 31
0.0
 11
176.3773268697253
 21
247.6385645088616
 31
0.0
 11
174.5932319410065
 21
248.1594497643955
 31
0.0
 11
172.7791793731376
 21
248.5627456840161
 31
0.0
 11
170.9015349485394
 21
248.8561709178479
 31
0.0
 11
169.0093539953759
 21
249.0318693958635
 31
0.0
 11
167.0955347136824
 21
249.0907288971628
 31
0.0
 11
165.1817154319888
 21
249.0318693958635
 31
0.0
 11
163.2895344788265
 21
248.8561709178479
 31
0.0
 11
161.4118900542317
 21
248.5627456840161
 31
0.0
 11
159.5978374863664
 21
248.1594497643955
 31
0.0
 11
157.8137425576494
 21
247.6385645088617
 31
0.0
 11
156.1312568293186
 21
247.0211570866825
 31
0.0
 11
154.4959266475194
 21
246.2869742240757
 31
0.0
 11
152.9938127726282
 21
245.4747350658181
 31
0.0
 11
151.5586674287704
 21
244.5482618527282
 31
0.0
 11
150.2798428012017
 21
243.5652326873904
 31
0.0
 11
149.0909502837913
 21
242.4740373966256
 31
0.0
 11
148.0717764366545
 21
241.3478363110747
 31
0.0
 11
147.1682481010628
 21
240.1257718472532
 31
0.0
 11
146.4386365731195
 21
238.8867220402004
 31
0.0
 11
145.8506394108708
 21
237.573550333546
 31
0.0
 11
145.434543437688
 21
236.2548895891141
 31
0.0
 11
145.1806752242572
 21
234.8950480679343
 31
0.0
 11
145.095534713685
 21
233.53437971107
 31
0.0
 11
145.1806752242572
 21
232.1737113542056
 31
0.0
 11
145.434543437688
 21
230.813869833026
 31
0.0
 11
145.8506394108708
 21
229.4952090885946
 31
0.0
 11
146.4386365731195
 21
228.1820373819407
 31
0.0
 11
147.1682481010628
 21
226.9429875748879
 31
0.0
 11
148.0717764366545
 21
225.7209231110663
 31
0.0
 11
149.0909502837913
 21
224.5947220255154
 31
0.0
 11
150.2798428012017
 21
223.5035267347505
 31
0.0
 11
151.5586674287704
 21
222.5204975694125
 31
0.0
 11
152.9938127726282
 21
221.5940243563225
 31
0.0
 11
154.4959266475194
 21
220.7817851980651
 31
0.0
 11
156.1312568293192
 21
220.0476023354587
 31
0.0
 11
157.8137425576518
 21
219.430194913279
 31
0.0
 11
158.5608809268847
 21
219.1966640388941
 31
0.0
 11
159.3133245683021
 21
218.9839573499598
 31
0.0
  0
ARC
  5
3A6
330
7A
100
AcDbEntity
  8
1
  6
Continuous
 62
     7
100
AcDbCircle
 10
264.0567542416829
 20
249.6177481213072
 30
0.0
 40
1.499999999993904
100
AcDbArc
 50
150.000000000006
 51
210.0000000000993
  0
ARC
  5
3A7
330
7A
100
AcDbEntity
  8
1
  6
Continuous
 62
     7
100
AcDbCircle
 10
263.9897669435813
 20
250.7337735250922
 30
0.0
 40
0.4999999999991057
100
AcDbArc
 50
30.00000000005917
 51
120.0000000000136
  0
ARC
  5
3A8
330
7A
100
AcDbEntity
  8
1
  6
Continuous
 62
     7
100
AcDbCircle
 10
264.0567542416829
 20
249.6177481213072
 30
0.0
 40
1.500000000000296
100
AcDbArc
 50
119.9999999999935
 51
150.000000000006
  0
ENDBLK
  5
7C
330
7A
100
AcDbEntity
  8
0
100
AcDbBlockEnd
  0
BLOCK
  5
7E
330
7D
100
AcDbEntity
  8
0
100
AcDbBlockBegin
  2
V097-H7A
 70
     0
 10
2.34768686087227
 20
891.7662751531311
 30
0.0
  3
V097-H7A
  1

  0
LINE
  5
3A9
330
7D
100
AcDbEntity
  8
0
  6
Continuous
 62
     7
100
AcDbLine
 10
273.5375107257914
 20
278.188002559561
 30
0.0
 11
276.4206967266728
 21
277.947032092135
 31
0.0
  0
LINE
  5
3AA
330
7D
100
AcDbEntity
  8
0
  6
Continuous
 62
     7
100
AcDbLine
 10
273.5375162583623
 20
286.1602075329602
 30
0.0
 11
276.4206967266728
 21
286.40117350828
 31
0.0
  0
LINE
  5
3AB
330
7D
100
AcDbEntity
  8
0
  6
Continuous
 62
     7
100
AcDbLine
 10
182.6513607514717
 20
371.2058765066372
 30
0.0
 11
182.6513607648722
 21
371.2058765066372
 31
0.0
  0
LINE
  5
3AC
330
7D
100
AcDbEntity
  8
0
  6
Continuous
 62
     7
100
AcDbLine
 10
183.1498986699316
 20
371.667667120053
 30
0.0
 11
183.6165166415922
 21
377.7558765066369
 31
0.0
  0
LINE
  5
3AD
330
7D
100
AcDbEntity
  8
0
  6
Continuous
 62
     7
100
AcDbLine
 10
182.6913697383825
 20
372.2115832903332
 30
0.0
 11
183.0884205646125
 21
377.7558765066369
 31
0.0
  0
LINE
  5
3AE
330
7D
100
AcDbEntity
  8
0
  6
Continuous
 62
     7
100
AcDbLine
 10
151.0411707574422
 20
371.667667120053
 30
0.0
 11
150.5745527857816
 21
377.7558765066369
 31
0.0
  0
LINE
  5
3AF
330
7D
100
AcDbEntity
  8
0
  6
Continuous
 62
     7
100
AcDbLine
 10
151.4996996889822
 20
372.2115832903332
 30
0.0
 11
151.1026488627522
 21
377.7558765066369
 31
0.0
  0
LINE
  5
3B0
330
7D
100
AcDbEntity
  8
0
  6
Continuous
 62
     2
100
AcDbLine
 10
183.0945057020326
 20
371.2058765066372
 30
0.0
 11
183.1498986698825
 21
371.6676671194032
 31
0.0
  0
LINE
  5
3B1
330
7D
100
AcDbEntity
  8
0
  6
Continuous
 62
     2
100
AcDbLine
 10
182.6513607514717
 20
371.2058765066372
 30
0.0
 11
183.0945057020326
 21
371.2058765066372
 31
0.0
  0
LINE
  5
3B2
330
7D
100
AcDbEntity
  8
0
  6
Continuous
 62
     7
100
AcDbLine
 10
151.5397086624926
 20
371.2058765066372
 30
0.0
 11
182.6513607514717
 21
371.2058765066372
 31
0.0
  0
LINE
  5
3B3
330
7D
100
AcDbEntity
  8
0
  6
Continuous
 62
     2
100
AcDbLine
 10
151.0965637253321
 20
371.2058765066372
 30
0.0
 11
151.0411707574422
 21
371.667667120053
 31
0.0
  0
LINE
  5
3B4
330
7D
100
AcDbEntity
  8
0
  6
Continuous
 62
     2
100
AcDbLine
 10
151.0965637253321
 20
371.2058765066372
 30
0.0
 11
151.5397086491012
 21
371.2058765066372
 31
0.0
  0
LINE
  5
3B5
330
7D
100
AcDbEntity
  8
0
  6
Continuous
 62
     7
100
AcDbLine
 10
181.3455347136824
 20
287.2741048150629
 30
0.0
 11
152.8455347136824
 21
287.2741048150629
 31
0.0
  0
LINE
  5
3B6
330
7D
100
AcDbEntity
  8
0
  6
Continuous
 62
     7
100
AcDbLine
 10
181.3455347136824
 20
277.2741048150629
 30
0.0
 11
152.8455347136824
 21
277.2741048150629
 31
0.0
  0
ARC
  5
3B7
330
7D
100
AcDbEntity
  8
0
  6
Continuous
 62
     7
100
AcDbCircle
 10
273.8706605549724
 20
282.174104815062
 30
0.0
 40
3.999999999999941
100
AcDbArc
 50
94.77747464981387
 51
265.2224458256459
  0
LINE
  5
3B8
330
7D
100
AcDbEntity
  8
0
  6
Continuous
 62
     7
100
AcDbLine
 10
151.0411707554413
 20
371.66766714612
 30
0.0
 11
151.0411707574422
 21
371.667667120053
 31
0.0
  0
ARC
  5
3B9
330
7D
100
AcDbEntity
  8
0
  6
Continuous
 62
     7
100
AcDbCircle
 10
182.6513607648722
 20
371.7058765066372
 30
0.0
 40
0.5000000000000001
100
AcDbArc
 50
269.9999984644164
 51
355.6172539200027
  0
ARC
  5
3BA
330
7D
100
AcDbEntity
  8
0
  6
Continuous
 62
     7
100
AcDbCircle
 10
151.5397086624926
 20
371.7058765066372
 30
0.0
 40
0.4999999999951793
100
AcDbArc
 50
184.3827460053984
 51
269.9999984654586
  0
ARC
  5
3BB
330
7D
100
AcDbEntity
  8
0
  6
Continuous
 62
     7
100
AcDbCircle
 10
167.0955347136824
 20
282.274104815062
 30
0.0
 40
16.00000000000562
100
AcDbArc
 50
16.47074106557253
 51
163.5292589344182
  0
ARC
  5
3BC
330
7D
100
AcDbEntity
  8
0
  6
Continuous
 62
     7
100
AcDbCircle
 10
142.3455347136824
 20
282.2741048150629
 30
0.0
 40
10.00000000000075
100
AcDbArc
 50
340.6838778322406
 51
19.31612216776091
  0
ARC
  5
3BD
330
7D
100
AcDbEntity
  8
0
  6
Continuous
 62
     7
100
AcDbCircle
 10
167.0955347136824
 20
282.274104815062
 30
0.0
 40
15.99999999999627
100
AcDbArc
 50
196.4707410655741
 51
343.5292589344351
  0
ARC
  5
3BE
330
7D
100
AcDbEntity
  8
0
  6
Continuous
 62
     7
100
AcDbCircle
 10
191.8455347136824
 20
282.2741048150629
 30
0.0
 40
10.0
100
AcDbArc
 50
180.0
 51
199.3161221677591
  0
ARC
  5
3BF
330
7D
100
AcDbEntity
  8
0
  6
Continuous
 62
     7
100
AcDbCircle
 10
191.8455347136824
 20
282.2741048150629
 30
0.0
 40
10.00000000000096
100
AcDbArc
 50
160.6838778322393
 51
180.0
  0
CIRCLE
  5
3C0
330
7D
100
AcDbEntity
  8
0
  6
Continuous
 62
     7
100
AcDbCircle
 10
155.0955347136824
 20
282.2741048150629
 30
0.0
 40
1.75
  0
ARC
  5
3C1
330
7D
100
AcDbEntity
  8
0
  6
Continuous
 62
     7
100
AcDbCircle
 10
153.6700296631825
 20
286.243464226714
 30
0.0
 40
2.000000000001579
100
AcDbArc
 50
163.5292589344517
 51
199.3161221677293
  0
ARC
  5
3C2
330
7D
100
AcDbEntity
  8
0
  6
Continuous
 62
     7
100
AcDbCircle
 10
153.6700296631825
 20
278.3047454034131
 30
0.0
 40
2.000000000003662
100
AcDbArc
 50
160.6838778322983
 51
196.4707410655733
  0
ARC
  5
3C3
330
7D
100
AcDbEntity
  8
0
  6
Continuous
 62
     7
100
AcDbCircle
 10
180.5210397641913
 20
278.3047454034131
 30
0.0
 40
2.000000000001946
100
AcDbArc
 50
343.5292589344276
 51
19.31612216778788
  0
ARC
  5
3C4
330
7D
100
AcDbEntity
  8
0
  6
Continuous
 62
     7
100
AcDbCircle
 10
180.5210397641913
 20
286.243464226714
 30
0.0
 40
1.999999999995417
100
AcDbArc
 50
340.6838778321845
 51
16.47074106554741
  0
ENDBLK
  5
7F
330
7D
100
AcDbEntity
  8
0
100
AcDbBlockEnd
  0
BLOCK
  5
81
330
80
100
AcDbEntity
  8
0
100
AcDbBlockBegin
  2
開示A4
 70
     0
 10
0.0
 20
0.0
 30
0.0
  3
開示A4
  1

  0
POINT
  5
3C5
330
80
100
AcDbEntity
  8
1
 62
     4
100
AcDbPoint
 10
34.0
 20
34.00000000000001
 30
0.0
  0
POINT
  5
3C6
330
80
100
AcDbEntity
  8
1
 62
     4
100
AcDbPoint
 10
57.0
 20
12.25
 30
0.0
  0
POINT
  5
3C7
330
80
100
AcDbEntity
  8
1
 62
     4
100
AcDbPoint
 10
57.0
 20
20.75000000000001
 30
0.0
  0
POINT
  5
3C8
330
80
100
AcDbEntity
  8
1
 62
     4
100
AcDbPoint
 10
57.0
 20
24.75000000000001
 30
0.0
  0
POINT
  5
3C9
330
80
100
AcDbEntity
  8
1
 62
     4
100
AcDbPoint
 10
57.0
 20
16.25
 30
0.0
  0
POINT
  5
3CA
330
80
100
AcDbEntity
  8
1
 62
     4
100
AcDbPoint
 10
157.5
 20
19.00000000000001
 30
0.0
  0
POINT
  5
3CB
330
80
100
AcDbEntity
  8
1
 62
     4
100
AcDbPoint
 10
47.5
 20
282.0000000000003
 30
0.0
  0
POINT
  5
3CC
330
80
100
AcDbEntity
  8
1
 62
     4
100
AcDbPoint
 10
57.0
 20
22.75000000000001
 30
0.0
  0
POINT
  5
3CD
330
80
100
AcDbEntity
  8
1
 62
     4
100
AcDbPoint
 10
57.0
 20
14.25
 30
0.0
  0
POINT
  5
3CE
330
80
100
AcDbEntity
  8
1
 62
     4
100
AcDbPoint
 10
157.5
 20
12.5
 30
0.0
  0
POINT
  5
3CF
330
80
100
AcDbEntity
  8
1
 62
     4
100
AcDbPoint
 10
163.25
 20
12.5
 30
0.0
  0
POINT
  5
3D0
330
80
100
AcDbEntity
  8
1
 62
     4
100
AcDbPoint
 10
151.75
 20
12.5
 30
0.0
  0
POINT
  5
3D1
330
80
100
AcDbEntity
  8
1
 62
     4
100
AcDbPoint
 10
134.75
 20
12.5
 30
0.0
  0
POINT
  5
3D2
330
80
100
AcDbEntity
  8
1
 62
     4
100
AcDbPoint
 10
146.25
 20
12.5
 30
0.0
  0
POINT
  5
3D3
330
80
100
AcDbEntity
  8
1
 62
     4
100
AcDbPoint
 10
140.5
 20
12.5
 30
0.0
  0
POINT
  5
3D4
330
80
100
AcDbEntity
  8
1
 62
     4
100
AcDbPoint
 10
140.5
 20
19.00000000000001
 30
0.0
  0
POINT
  5
3D5
330
80
100
AcDbEntity
  8
1
 62
     4
100
AcDbPoint
 10
117.75
 20
12.5
 30
0.0
  0
POINT
  5
3D6
330
80
100
AcDbEntity
  8
1
 62
     4
100
AcDbPoint
 10
129.25
 20
12.5
 30
0.0
  0
POINT
  5
3D7
330
80
100
AcDbEntity
  8
1
 62
     4
100
AcDbPoint
 10
123.5
 20
12.5
 30
0.0
  0
POINT
  5
3D8
330
80
100
AcDbEntity
  8
1
 62
     4
100
AcDbPoint
 10
123.5
 20
19.00000000000001
 30
0.0
  0
POINT
  5
3D9
330
80
100
AcDbEntity
  8
1
 62
     4
100
AcDbPoint
 10
100.75
 20
12.5
 30
0.0
  0
POINT
  5
3DA
330
80
100
AcDbEntity
  8
1
 62
     4
100
AcDbPoint
 10
112.25
 20
12.5
 30
0.0
  0
POINT
  5
3DB
330
80
100
AcDbEntity
  8
1
 62
     4
100
AcDbPoint
 10
106.5
 20
12.5
 30
0.0
  0
POINT
  5
3DC
330
80
100
AcDbEntity
  8
1
 62
     4
100
AcDbPoint
 10
106.5
 20
19.00000000000001
 30
0.0
  0
POINT
  5
3DD
330
80
100
AcDbEntity
  8
1
 62
     4
100
AcDbPoint
 10
85.25
 20
17.0
 30
0.0
  0
POINT
  5
3DE
330
80
100
AcDbEntity
  8
1
 62
     4
100
AcDbPoint
 10
93.75
 20
17.0
 30
0.0
  0
LINE
  5
3DF
330
80
100
AcDbEntity
  8
1
  6
Continuous
 62
     2
100
AcDbLine
 10
81.0
 20
27.00000000000001
 30
0.0
 11
81.0
 21
10.0
 31
0.0
  0
LINE
  5
3E0
330
80
100
AcDbEntity
  8
1
  6
DOT_CENTER
 62
     2
100
AcDbLine
 10
187.0
 20
26.50000000000001
 30
0.0
 11
187.0
 21
20.50000000000001
 31
0.0
  0
LINE
  5
3E1
330
80
100
AcDbEntity
  8
1
  6
DOT_CENTER
 62
     2
100
AcDbLine
 10
184.0
 20
23.50000000000001
 30
0.0
 11
197.0
 21
23.50000000000001
 31
0.0
  0
LINE
  5
3E2
330
80
100
AcDbEntity
  8
1
  6
Continuous
 62
     7
100
AcDbLine
 10
196.0
 20
21.50000000000001
 30
0.0
 11
191.0
 21
22.30000000000001
 31
0.0
  0
LINE
  5
3E3
330
80
100
AcDbEntity
  8
1
  6
Continuous
 62
     7
100
AcDbLine
 10
196.0
 20
25.50000000000001
 30
0.0
 11
196.0
 21
21.50000000000001
 31
0.0
  0
LINE
  5
3E4
330
80
100
AcDbEntity
  8
1
  6
Continuous
 62
     7
100
AcDbLine
 10
191.0
 20
24.70000000000001
 30
0.0
 11
196.0
 21
25.50000000000001
 31
0.0
  0
LINE
  5
3E5
330
80
100
AcDbEntity
  8
1
  6
Continuous
 62
     7
100
AcDbLine
 10
191.0
 20
24.70000000000001
 30
0.0
 11
191.0
 21
22.30000000000001
 31
0.0
  0
LINE
  5
3E6
330
80
100
AcDbEntity
  8
1
  6
Continuous
 62
     2
100
AcDbLine
 10
33.0
 20
27.0
 30
0.0
 11
33.0
 21
10.0
 31
0.0
  0
LINE
  5
3E7
330
80
100
AcDbEntity
  8
1
  6
Continuous
 62
     2
100
AcDbLine
 10
25.0
 20
18.50000000000001
 30
0.0
 11
81.0
 21
18.50000000000001
 31
0.0
  0
LINE
  5
3E8
330
80
100
AcDbEntity
  8
1
  6
Continuous
 62
     7
100
AcDbLine
 10
200.0
 20
287.0000000000003
 30
0.0
 11
105.0
 21
287.0000000000003
 31
0.0
  0
LINE
  5
3E9
330
80
100
AcDbEntity
  8
1
  6
Continuous
 62
     7
100
AcDbLine
 10
200.0
 20
10.0
 30
0.0
 11
200.0
 21
148.5
 31
0.0
  0
LINE
  5
3EA
330
80
100
AcDbEntity
  8
1
  6
Continuous
 62
     7
100
AcDbLine
 10
25.0
 20
10.0
 30
0.0
 11
105.0
 21
10.0
 31
0.0
  0
LINE
  5
3EB
330
80
100
AcDbEntity
  8
1
  6
PHANTOM
 62
     4
100
AcDbLine
 10
0.0
 20
297.0
 30
0.0
 11
0.0
 21
0.0
 31
0.0
  0
LINE
  5
3EC
330
80
100
AcDbEntity
  8
1
  6
PHANTOM
 62
     4
100
AcDbLine
 10
210.0
 20
297.0
 30
0.0
 11
0.0
 21
297.0
 31
0.0
  0
LINE
  5
3ED
330
80
100
AcDbEntity
  8
1
  6
PHANTOM
 62
     4
100
AcDbLine
 10
210.0
 20
0.0
 30
0.0
 11
210.0
 21
297.0
 31
0.0
  0
LINE
  5
3EE
330
80
100
AcDbEntity
  8
1
  6
PHANTOM
 62
     4
100
AcDbLine
 10
0.0
 20
0.0
 30
0.0
 11
210.0
 21
0.0
 31
0.0
  0
LINE
  5
3EF
330
80
100
AcDbEntity
  8
1
  6
Continuous
 62
     7
100
AcDbLine
 10
25.0
 20
41.0
 30
0.0
 11
200.0
 21
41.0
 31
0.0
  0
LINE
  5
3F0
330
80
100
AcDbEntity
  8
1
  6
Continuous
 62
     7
100
AcDbLine
 10
200.0
 20
27.00000000000001
 30
0.0
 11
25.0
 21
27.00000000000001
 31
0.0
  0
LINE
  5
3F1
330
80
100
AcDbEntity
  8
1
  6
Continuous
 62
     2
100
AcDbLine
 10
33.0
 20
41.00000000000001
 30
0.0
 11
33.0
 21
27.0
 31
0.0
  0
LINE
  5
3F2
330
80
100
AcDbEntity
  8
1
  6
Continuous
 62
     2
100
AcDbLine
 10
55.0
 20
287.0000000000003
 30
0.0
 11
55.0
 21
277.0000000000003
 31
0.0
  0
LINE
  5
3F3
330
80
100
AcDbEntity
  8
1
  6
Continuous
 62
     2
100
AcDbLine
 10
40.0
 20
287.0000000000003
 30
0.0
 11
40.0
 21
277.0000000000003
 31
0.0
  0
LINE
  5
3F4
330
80
100
AcDbEntity
  8
1
  6
Continuous
 62
     7
100
AcDbLine
 10
25.0
 20
10.0
 30
0.0
 11
25.0
 21
148.5
 31
0.0
  0
LINE
  5
3F5
330
80
100
AcDbEntity
  8
1
  6
Continuous
 62
     2
100
AcDbLine
 10
55.0
 20
277.0000000000003
 30
0.0
 11
25.0
 21
277.0000000000003
 31
0.0
  0
LINE
  5
3F6
330
80
100
AcDbEntity
  8
1
  6
Continuous
 62
     2
100
AcDbLine
 10
166.0
 20
27.00000000000001
 30
0.0
 11
166.0
 21
10.0
 31
0.0
  0
LINE
  5
3F7
330
80
100
AcDbEntity
  8
1
  6
Continuous
 62
     2
100
AcDbLine
 10
132.0
 20
27.00000000000001
 30
0.0
 11
132.0
 21
9.99999999999999
 31
0.0
  0
LINE
  5
3F8
330
80
100
AcDbEntity
  8
1
  6
Continuous
 62
     2
100
AcDbLine
 10
149.0
 20
27.00000000000001
 30
0.0
 11
149.0
 21
10.0
 31
0.0
  0
LINE
  5
3F9
330
80
100
AcDbEntity
  8
1
  6
Continuous
 62
     2
100
AcDbLine
 10
115.0
 20
27.00000000000001
 30
0.0
 11
115.0
 21
9.99999999999999
 31
0.0
  0
LINE
  5
3FA
330
80
100
AcDbEntity
  8
1
  6
Continuous
 62
     2
100
AcDbLine
 10
98.0
 20
27.00000000000001
 30
0.0
 11
98.0
 21
9.99999999999999
 31
0.0
  0
LINE
  5
3FB
330
80
100
AcDbEntity
  8
1
  6
Continuous
 62
     2
100
AcDbLine
 10
166.0
 20
20.00000000000001
 30
0.0
 11
200.0
 21
20.00000000000001
 31
0.0
  0
LINE
  5
3FC
330
80
100
AcDbEntity
  8
1
  6
Continuous
 62
     2
100
AcDbLine
 10
105.0
 20
287.0000000000003
 30
0.0
 11
105.0
 21
292.0000000000003
 31
0.0
  0
LINE
  5
3FD
330
80
100
AcDbEntity
  8
1
  6
Continuous
 62
     7
100
AcDbLine
 10
105.0
 20
287.0000000000003
 30
0.0
 11
25.0
 21
287.0000000000003
 31
0.0
  0
LINE
  5
3FE
330
80
100
AcDbEntity
  8
1
  6
Continuous
 62
     2
100
AcDbLine
 10
25.0
 20
148.5
 30
0.0
 11
20.0
 21
148.5
 31
0.0
  0
LINE
  5
3FF
330
80
100
AcDbEntity
  8
1
  6
Continuous
 62
     7
100
AcDbLine
 10
25.0
 20
148.5
 30
0.0
 11
25.0
 21
287.0000000000003
 31
0.0
  0
LINE
  5
400
330
80
100
AcDbEntity
  8
1
  6
Continuous
 62
     2
100
AcDbLine
 10
200.0
 20
148.5
 30
0.0
 11
205.0
 21
148.5
 31
0.0
  0
LINE
  5
401
330
80
100
AcDbEntity
  8
1
  6
Continuous
 62
     7
100
AcDbLine
 10
200.0
 20
148.5
 30
0.0
 11
200.0
 21
287.0000000000003
 31
0.0
  0
LINE
  5
402
330
80
100
AcDbEntity
  8
1
  6
Continuous
 62
     2
100
AcDbLine
 10
105.0
 20
10.0
 30
0.0
 11
105.0
 21
5.0
 31
0.0
  0
LINE
  5
403
330
80
100
AcDbEntity
  8
1
  6
Continuous
 62
     7
100
AcDbLine
 10
105.0
 20
10.0
 30
0.0
 11
200.0
 21
10.0
 31
0.0
  0
CIRCLE
  5
404
330
80
100
AcDbEntity
  8
1
  6
DOT_CENTER
 62
     7
100
AcDbCircle
 10
89.5
 20
18.0
 30
0.0
 40
0.1000000000000227
  0
CIRCLE
  5
405
330
80
100
AcDbEntity
  8
1
  6
DOT_CENTER
 62
     7
100
AcDbCircle
 10
89.5
 20
16.0
 30
0.0
 40
0.1000000000000227
  0
CIRCLE
  5
406
330
80
100
AcDbEntity
  8
1
  6
Continuous
 62
     7
100
AcDbCircle
 10
187.0
 20
23.50000000000001
 30
0.0
 40
2.0
  0
CIRCLE
  5
407
330
80
100
AcDbEntity
  8
1
  6
Continuous
 62
     7
100
AcDbCircle
 10
187.0
 20
23.50000000000001
 30
0.0
 40
1.200000000000102
  0
CIRCLE
  5
408
330
80
100
AcDbEntity
  8
1
  6
Continuous
 62
     7
100
AcDbCircle
 10
154.5
 20
12.5
 30
0.0
 40
0.3000000000000114
  0
CIRCLE
  5
409
330
80
100
AcDbEntity
  8
1
  6
Continuous
 62
     7
100
AcDbCircle
 10
160.5
 20
12.5
 30
0.0
 40
0.3000000000000114
  0
CIRCLE
  5
40A
330
80
100
AcDbEntity
  8
1
  6
Continuous
 62
     7
100
AcDbCircle
 10
143.5
 20
12.5
 30
0.0
 40
0.3000000000000114
  0
CIRCLE
  5
40B
330
80
100
AcDbEntity
  8
1
  6
Continuous
 62
     7
100
AcDbCircle
 10
137.5
 20
12.5
 30
0.0
 40
0.3000000000000114
  0
CIRCLE
  5
40C
330
80
100
AcDbEntity
  8
1
  6
Continuous
 62
     7
100
AcDbCircle
 10
126.5
 20
12.5
 30
0.0
 40
0.2999999999999972
  0
CIRCLE
  5
40D
330
80
100
AcDbEntity
  8
1
  6
Continuous
 62
     7
100
AcDbCircle
 10
120.5
 20
12.5
 30
0.0
 40
0.2999999999999972
  0
CIRCLE
  5
40E
330
80
100
AcDbEntity
  8
1
  6
Continuous
 62
     7
100
AcDbCircle
 10
109.5
 20
12.5
 30
0.0
 40
0.2999999999999972
  0
CIRCLE
  5
40F
330
80
100
AcDbEntity
  8
1
  6
Continuous
 62
     7
100
AcDbCircle
 10
103.5
 20
12.5
 30
0.0
 40
0.2999999999999972
  0
MTEXT
  5
410
330
80
100
AcDbEntity
  8
1
 62
   250
100
AcDbMText
 10
25.0
 20
5.0
 30
0.0
 40
3.5
 41
0.0
 71
     4
 72
     1
  1
備考欄の文字列 原点位置=4
  7
CONVERTER_11
 73
     1
 44
0.54545454545455
  0
MTEXT
  5
411
330
80
100
AcDbEntity
  8
1
 62
     2
100
AcDbMText
 10
89.5
 20
24.00000000000001
 30
0.0
 40
3.5
 41
0.0
 71
     5
 72
     1
  1
尺度
  7
CONVERTER_11
 73
     1
 44
0.54545454545455
  0
MTEXT
  5
412
330
80
100
AcDbEntity
  8
1
 62
     2
100
AcDbMText
 10
135.5
 20
25.00000000000001
 30
0.0
 40
3.0
 41
0.0
 71
     5
 72
     1
  1
製図
  7
CONVERTER_11
 73
     1
 44
0.59090909090909
  0
MTEXT
  5
413
330
80
100
AcDbEntity
  8
1
 62
     2
100
AcDbMText
 10
152.5
 20
25.00000000000001
 30
0.0
 40
3.0
 41
0.0
 71
     5
 72
     1
  1
設計
  7
CONVERTER_11
 73
     1
 44
0.59090909090909
  0
MTEXT
  5
414
330
80
100
AcDbEntity
  8
1
 62
     2
100
AcDbMText
 10
118.5
 20
25.00000000000001
 30
0.0
 40
3.0
 41
0.0
 71
     5
 72
     1
  1
検図
  7
CONVERTER_11
 73
     1
 44
0.59090909090909
  0
MTEXT
  5
415
330
80
100
AcDbEntity
  8
1
 62
     2
100
AcDbMText
 10
175.0
 20
23.50000000000001
 30
0.0
 40
3.5
 41
0.0
 71
     5
 72
     1
  1
第三角法
  7
CONVERTER_11
 73
     1
 44
0.54545454545455
  0
MTEXT
  5
416
330
80
100
AcDbEntity
  8
1
 62
     2
100
AcDbMText
 10
101.5
 20
25.00000000000001
 30
0.0
 40
3.0
 41
0.0
 71
     5
 72
     1
  1
承認
  7
CONVERTER_11
 73
     1
 44
0.59090909090909
  0
MTEXT
  5
417
330
80
100
AcDbEntity
  8
1
 62
     2
100
AcDbMText
 10
29.0
 20
14.25
 30
0.0
 40
3.5
 41
0.0
 71
     5
 72
     1
  1
品番
  7
CONVERTER_11
 73
     1
 44
0.72727272727273
  0
MTEXT
  5
418
330
80
100
AcDbEntity
  8
1
 62
     2
100
AcDbMText
 10
29.0
 20
22.75
 30
0.0
 40
3.5
 41
0.0
 71
     5
 72
     1
  1
品名
  7
CONVERTER_11
 73
     1
 44
0.72727272727273
  0
MTEXT
  5
419
330
80
100
AcDbEntity
  8
1
 62
     2
100
AcDbMText
 10
29.0
 20
34.00000000000001
 30
0.0
 40
3.5
 41
0.0
 71
     5
 72
     1
  1
備考
  7
CONVERTER_11
 73
     1
 44
0.45454545454545
  0
MTEXT
  5
41A
330
80
100
AcDbEntity
  8
1
 62
     2
100
AcDbMText
 10
32.5
 20
282.0000000000003
 30
0.0
 40
5.0
 41
0.0
 71
     5
 72
     1
  1
図番
  7
CONVERTER_11
 73
     1
 44
0.45454545454545
  0
MTEXT
  5
41B
330
80
100
AcDbEntity
  8
1
 62
     7
100
AcDbMText
 10
171.5
 20
15.0
 30
0.0
 40
2.5
 41
0.0
 71
     5
 72
     1
  1
株式会社
  7
CONVERTER_11
 73
     1
 44
1.0
  0
MTEXT
  5
41C
330
80
100
AcDbEntity
  8
1
 62
     7
100
AcDbMText
 10
188.5
 20
15.0
 30
0.0
 40
3.0
 41
0.0
 71
     5
 72
     1
  1
三栄水栓製作所
  7
CONVERTER_11
 73
     1
 44
1.0
  0
ENDBLK
  5
82
330
80
100
AcDbEntity
  8
0
100
AcDbBlockEnd
  0
BLOCK
  5
451
330
44A
100
AcDbEntity
  8
0
100
AcDbBlockBegin
  2
*D20
 70
     1
 10
0.0
 20
0.0
 30
0.0
  3
*D20
  1

  0
LINE
  5
44B
330
44A
100
AcDbEntity
  8
1
  6
Continuous
 62
     2
100
AcDbLine
 10
297.9706605549727
 20
140.5252341899914
 30
0.0
 11
324.9706605549727
 21
140.5252341899914
 31
0.0
  0
LINE
  5
44C
330
44A
100
AcDbEntity
  8
1
  6
Continuous
 62
     2
100
AcDbLine
 10
297.9706605549727
 20
161.7838836369916
 30
0.0
 11
297.9706605549727
 21
138.5252341899914
 31
0.0
  0
LINE
  5
44D
330
44A
100
AcDbEntity
  8
1
  6
Continuous
 62
     2
100
AcDbLine
 10
324.9706605549727
 20
161.7838836369916
 30
0.0
 11
324.9706605549727
 21
138.5252341899914
 31
0.0
  0
SOLID
  5
44E
330
44A
100
AcDbEntity
  8
1
 62
     2
100
AcDbTrace
 10
304.9706605549727
 20
141.4468016731032
 30
0.0
 11
304.9706605549727
 21
139.6036667068796
 31
0.0
 12
297.9706605549727
 22
140.5252341899914
 32
0.0
 13
297.9706605549727
 23
140.5252341899914
 33
0.0
  0
SOLID
  5
44F
330
44A
100
AcDbEntity
  8
1
 62
     2
100
AcDbTrace
 10
317.9706605549727
 20
139.6036667068796
 30
0.0
 11
317.9706605549727
 21
141.4468016731032
 31
0.0
 12
324.9706605549727
 22
140.5252341899914
 32
0.0
 13
324.9706605549727
 23
140.5252341899914
 33
0.0
  0
MTEXT
  5
450
330
44A
100
AcDbEntity
  8
1
 62
     7
100
AcDbMText
 10
306.2206605549727
 20
142.5252341899914
 30
0.0
 40
7.0
 41
0.0
 71
     7
 72
     1
  1
27
  7
CONVERTER_16
 11
0.9999999999970619
 21
2.424068405545306E-6
 31
0.0
 73
     1
 44
0.60024009603842
  0
ENDBLK
  5
452
330
44A
100
AcDbEntity
  8
0
100
AcDbBlockEnd
  0
BLOCK
  5
45C
330
455
100
AcDbEntity
  8
0
100
AcDbBlockBegin
  2
*D21
 70
     1
 10
0.0
 20
0.0
 30
0.0
  3
*D21
  1

  0
LINE
  5
456
330
455
100
AcDbEntity
  8
0
  6
Continuous
 62
     2
100
AcDbLine
 10
217.6955347136828
 20
140.5252341899914
 30
0.0
 11
116.495534713682
 21
140.5252341899914
 31
0.0
  0
LINE
  5
457
330
455
100
AcDbEntity
  8
0
  6
Continuous
 62
     2
100
AcDbLine
 10
217.6955347136828
 20
194.824104815064
 30
0.0
 11
217.6955347136828
 21
138.5252341899914
 31
0.0
  0
LINE
  5
458
330
455
100
AcDbEntity
  8
0
  6
Continuous
 62
     2
100
AcDbLine
 10
116.495534713682
 20
194.824104815064
 30
0.0
 11
116.495534713682
 21
138.5252341899914
 31
0.0
  0
SOLID
  5
459
330
455
100
AcDbEntity
  8
0
 62
     2
100
AcDbTrace
 10
210.6955347136828
 20
139.6036667068796
 30
0.0
 11
210.6955347136828
 21
141.4468016731032
 31
0.0
 12
217.6955347136828
 22
140.5252341899914
 32
0.0
 13
217.6955347136828
 23
140.5252341899914
 33
0.0
  0
SOLID
  5
45A
330
455
100
AcDbEntity
  8
0
 62
     2
100
AcDbTrace
 10
123.495534713682
 20
141.4468016731032
 30
0.0
 11
123.495534713682
 21
139.6036667068796
 31
0.0
 12
116.495534713682
 22
140.5252341899914
 32
0.0
 13
116.495534713682
 23
140.5252341899914
 33
0.0
  0
MTEXT
  5
45B
330
455
100
AcDbEntity
  8
0
 62
     7
100
AcDbMText
 10
159.7455347136824
 20
142.5252341899914
 30
0.0
 40
7.0
 41
0.0
 71
     7
 72
     1
  1
102
  7
CONVERTER_16
 11
0.9999999999970619
 21
2.424068405545306E-6
 31
0.0
 73
     1
 44
0.60024009603842
  0
ENDBLK
  5
45D
330
455
100
AcDbEntity
  8
0
100
AcDbBlockEnd
  0
BLOCK
  5
469
330
460
100
AcDbEntity
  8
0
100
AcDbBlockBegin
  2
*D22
 70
     1
 10
0.0
 20
0.0
 30
0.0
  3
*D22
  1

  0
LINE
  5
461
330
460
100
AcDbEntity
  8
0
  6
Continuous
 62
     2
100
AcDbLine
 10
249.4797215850521
 20
208.3504640761287
 30
0.0
 11
256.4797215850526
 21
196.2261084231468
 31
0.0
  0
LINE
  5
462
330
460
100
AcDbEntity
  8
0
  6
Continuous
 62
     2
100
AcDbLine
 10
241.6297215850518
 20
221.9470629155437
 30
0.0
 11
249.4797215850521
 21
208.3504640761287
 31
0.0
  0
LINE
  5
463
330
460
100
AcDbEntity
  8
0
  6
Continuous
 62
     2
100
AcDbLine
 10
226.5166543972733
 20
248.1236631429756
 30
0.0
 11
241.6297215850518
 21
221.9470629155437
 31
0.0
  0
LINE
  5
464
330
460
100
AcDbEntity
  8
0
  6
Continuous
 62
     2
100
AcDbLine
 10
252.0050283833625
 20
227.9372490884739
 30
0.0
 11
239.8976707774829
 21
220.9470629155437
 31
0.0
  0
LINE
  5
465
330
460
100
AcDbEntity
  8
0
  6
Continuous
 62
     2
100
AcDbLine
 10
259.8550283833629
 20
214.3406502490589
 30
0.0
 11
247.7476707774833
 21
207.3504640761286
 31
0.0
  0
SOLID
  5
466
330
460
100
AcDbEntity
  8
0
 62
     2
100
AcDbTrace
 10
237.3316207333751
 20
227.5484570004787
 30
0.0
 11
238.927822436728
 21
228.4700244835906
 31
0.0
 12
241.6297215850518
 22
221.9470629155437
 32
0.0
 13
241.6297215850518
 23
221.9470629155437
 33
0.0
  0
SOLID
  5
467
330
460
100
AcDbEntity
  8
0
 62
     2
100
AcDbTrace
 10
253.7778224367288
 20
202.7490699911936
 30
0.0
 11
252.1816207333759
 21
201.8275025080818
 31
0.0
 12
249.4797215850521
 22
208.3504640761287
 32
0.0
 13
249.4797215850521
 23
208.3504640761287
 33
0.0
  0
MTEXT
  5
468
330
460
100
AcDbEntity
  8
0
 62
     7
100
AcDbMText
 10
230.1849229874913
 20
247.1700355689092
 30
0.0
 40
7.0
 41
0.0
 71
     7
 72
     1
  1
\C7;{\Fgdt;n}\C7;15,7
  7
CONVERTER_16
 11
0.5000000000000347
 21
-0.8660254037844186
 31
0.0
 73
     1
 44
0.60024009603842
  0
ENDBLK
  5
46A
330
460
100
AcDbEntity
  8
0
100
AcDbBlockEnd
  0
BLOCK
  5
476
330
46D
100
AcDbEntity
  8
0
100
AcDbBlockBegin
  2
*D23
 70
     1
 10
0.0
 20
0.0
 30
0.0
  3
*D23
  1

  0
LINE
  5
46E
330
46D
100
AcDbEntity
  8
1
  6
Continuous
 62
     2
100
AcDbLine
 10
353.9706605549727
 20
468.4116770693986
 30
0.0
 11
353.9706605549727
 21
482.4116770693986
 31
0.0
  0
LINE
  5
46F
330
46D
100
AcDbEntity
  8
1
  6
Continuous
 62
     2
100
AcDbLine
 10
353.9706605549727
 20
449.1716770693984
 30
0.0
 11
353.9706605549727
 21
468.4116770693986
 31
0.0
  0
LINE
  5
470
330
46D
100
AcDbEntity
  8
1
  6
Continuous
 62
     2
100
AcDbLine
 10
353.9706605549727
 20
435.1716770693984
 30
0.0
 11
353.9706605549727
 21
449.1716770693984
 31
0.0
  0
LINE
  5
471
330
46D
100
AcDbEntity
  8
1
  6
Continuous
 62
     2
100
AcDbLine
 10
327.607095407322
 20
449.1716770693984
 30
0.0
 11
355.9706605549727
 21
449.1716770693984
 31
0.0
  0
LINE
  5
472
330
46D
100
AcDbEntity
  8
1
  6
Continuous
 62
     2
100
AcDbLine
 10
331.0570954073228
 20
468.4116770693986
 30
0.0
 11
355.9706605549727
 21
468.4116770693986
 31
0.0
  0
SOLID
  5
473
330
46D
100
AcDbEntity
  8
1
 62
     2
100
AcDbTrace
 10
354.8922280380845
 20
442.1716770693984
 30
0.0
 11
353.049093071861
 21
442.1716770693984
 31
0.0
 12
353.9706605549727
 22
449.1716770693984
 32
0.0
 13
353.9706605549727
 23
449.1716770693984
 33
0.0
  0
SOLID
  5
474
330
46D
100
AcDbEntity
  8
1
 62
     2
100
AcDbTrace
 10
353.049093071861
 20
475.4116770693986
 30
0.0
 11
354.8922280380845
 21
475.4116770693986
 31
0.0
 12
353.9706605549727
 22
468.4116770693986
 32
0.0
 13
353.9706605549727
 23
468.4116770693986
 33
0.0
  0
MTEXT
  5
475
330
46D
100
AcDbEntity
  8
1
 62
     7
100
AcDbMText
 10
351.9706605549727
 20
454.5916770693983
 30
0.0
 40
7.0
 41
0.0
 71
     7
 72
     1
  1
19
  7
CONVERTER_16
 11
0.0
 21
1.0
 31
0.0
 73
     1
 44
0.60024009603842
  0
ENDBLK
  5
477
330
46D
100
AcDbEntity
  8
0
100
AcDbBlockEnd
  0
BLOCK
  5
481
330
47A
100
AcDbEntity
  8
0
100
AcDbBlockBegin
  2
*D24
 70
     1
 10
0.0
 20
0.0
 30
0.0
  3
*D24
  1

  0
LINE
  5
47B
330
47A
100
AcDbEntity
  8
1
  6
Continuous
 62
     2
100
AcDbLine
 10
353.9706605549727
 20
197.2241048150631
 30
0.0
 11
353.9706605549727
 21
309.1241048150632
 31
0.0
  0
LINE
  5
47C
330
47A
100
AcDbEntity
  8
1
  6
Continuous
 62
     2
100
AcDbLine
 10
330.6706605549716
 20
309.1241048150632
 30
0.0
 11
355.9706605549727
 21
309.1241048150632
 31
0.0
  0
LINE
  5
47D
330
47A
100
AcDbEntity
  8
1
  6
Continuous
 62
     2
100
AcDbLine
 10
301.4206967266728
 20
197.2241048150631
 30
0.0
 11
355.9706605549727
 21
197.2241048150631
 31
0.0
  0
SOLID
  5
47E
330
47A
100
AcDbEntity
  8
1
 62
     2
100
AcDbTrace
 10
353.049093071861
 20
204.2241048150631
 30
0.0
 11
354.8922280380845
 21
204.2241048150631
 31
0.0
 12
353.9706605549727
 22
197.2241048150631
 32
0.0
 13
353.9706605549727
 23
197.2241048150631
 33
0.0
  0
SOLID
  5
47F
330
47A
100
AcDbEntity
  8
1
 62
     2
100
AcDbTrace
 10
354.8922280380845
 20
302.1241048150632
 30
0.0
 11
353.049093071861
 21
302.1241048150632
 31
0.0
 12
353.9706605549727
 22
309.1241048150632
 32
0.0
 13
353.9706605549727
 23
309.1241048150632
 33
0.0
  0
MTEXT
  5
480
330
47A
100
AcDbEntity
  8
1
 62
     7
100
AcDbMText
 10
351.9706605549727
 20
226.95172473767
 30
0.0
 40
7.0
 41
0.0
 71
     7
 72
     1
  1
112(開口寸法115)
  7
CONVERTER_11
 11
0.0
 21
1.0
 31
0.0
 73
     1
 44
0.45454545454545
  0
ENDBLK
  5
482
330
47A
100
AcDbEntity
  8
0
100
AcDbBlockEnd
  0
BLOCK
  5
48C
330
485
100
AcDbEntity
  8
0
100
AcDbBlockBegin
  2
*D25
 70
     1
 10
0.0
 20
0.0
 30
0.0
  3
*D25
  1

  0
LINE
  5
486
330
485
100
AcDbEntity
  8
1
  6
Continuous
 62
     2
100
AcDbLine
 10
125.495534713682
 20
456.0058765066369
 30
0.0
 11
208.6955347136828
 21
456.0058765066369
 31
0.0
  0
LINE
  5
487
330
485
100
AcDbEntity
  8
1
  6
Continuous
 62
     2
100
AcDbLine
 10
125.495534713682
 20
433.0058765066369
 30
0.0
 11
125.495534713682
 21
458.0058765066369
 31
0.0
  0
LINE
  5
488
330
485
100
AcDbEntity
  8
1
  6
Continuous
 62
     2
100
AcDbLine
 10
208.6955347136828
 20
433.0058765066369
 30
0.0
 11
208.6955347136828
 21
458.0058765066369
 31
0.0
  0
SOLID
  5
489
330
485
100
AcDbEntity
  8
1
 62
     2
100
AcDbTrace
 10
132.495534713682
 20
456.9274439897487
 30
0.0
 11
132.495534713682
 21
455.0843090235252
 31
0.0
 12
125.495534713682
 22
456.0058765066369
 32
0.0
 13
125.495534713682
 23
456.0058765066369
 33
0.0
  0
SOLID
  5
48A
330
485
100
AcDbEntity
  8
1
 62
     2
100
AcDbTrace
 10
201.6955347136828
 20
455.0843090235252
 30
0.0
 11
201.6955347136828
 21
456.9274439897487
 31
0.0
 12
208.6955347136828
 22
456.0058765066369
 32
0.0
 13
208.6955347136828
 23
456.0058765066369
 33
0.0
  0
MTEXT
  5
48B
330
485
100
AcDbEntity
  8
1
 62
     7
100
AcDbMText
 10
138.3955347136824
 20
458.0058765066369
 30
0.0
 40
7.0
 41
0.0
 71
     7
 72
     1
  1
84(開口寸法86)
  7
CONVERTER_11
 11
0.9999999999970619
 21
2.424068405545306E-6
 31
0.0
 73
     1
 44
0.45454545454545
  0
ENDBLK
  5
48D
330
485
100
AcDbEntity
  8
0
100
AcDbBlockEnd
  0
BLOCK
  5
497
330
490
100
AcDbEntity
  8
0
100
AcDbBlockBegin
  2
*D26
 70
     1
 10
0.0
 20
0.0
 30
0.0
  3
*D26
  1

  0
LINE
  5
491
330
490
100
AcDbEntity
  8
1
  6
Continuous
 62
     2
100
AcDbLine
 10
283.4206967266728
 20
163.4202813821398
 30
0.0
 11
246.5774804836328
 21
163.4202813821398
 31
0.0
  0
LINE
  5
492
330
490
100
AcDbEntity
  8
1
  6
Continuous
 62
     2
100
AcDbLine
 10
283.4206967266728
 20
186.8241048150639
 30
0.0
 11
283.4206967266728
 21
161.4202813821398
 31
0.0
  0
LINE
  5
493
330
490
100
AcDbEntity
  8
1
  6
Continuous
 62
     2
100
AcDbLine
 10
246.5774804836328
 20
215.074487879554
 30
0.0
 11
246.5774804836328
 21
161.4202813821398
 31
0.0
  0
SOLID
  5
494
330
490
100
AcDbEntity
  8
1
 62
     2
100
AcDbTrace
 10
276.4206967266728
 20
162.498713899028
 30
0.0
 11
276.4206967266728
 21
164.3418488652516
 31
0.0
 12
283.4206967266728
 22
163.4202813821398
 32
0.0
 13
283.4206967266728
 23
163.4202813821398
 33
0.0
  0
SOLID
  5
495
330
490
100
AcDbEntity
  8
1
 62
     2
100
AcDbTrace
 10
253.5774804836328
 20
164.3418488652516
 30
0.0
 11
253.5774804836328
 21
162.498713899028
 31
0.0
 12
246.5774804836328
 22
163.4202813821398
 32
0.0
 13
246.5774804836328
 23
163.4202813821398
 33
0.0
  0
MTEXT
  5
496
330
490
100
AcDbEntity
  8
1
 62
     7
100
AcDbMText
 10
259.8781282610016
 20
165.4202813821398
 30
0.0
 40
7.0
 41
0.0
 71
     7
 72
     1
  1
37
  7
CONVERTER_16
 11
0.9999999999970619
 21
2.424068405545306E-6
 31
0.0
 73
     1
 44
0.60024009603842
  0
ENDBLK
  5
498
330
490
100
AcDbEntity
  8
0
100
AcDbBlockEnd
  0
BLOCK
  5
4A2
330
49B
100
AcDbEntity
  8
0
100
AcDbBlockBegin
  2
*D27
 70
     1
 10
0.0
 20
0.0
 30
0.0
  3
*D27
  1

  0
LINE
  5
49C
330
49B
100
AcDbEntity
  8
1
  6
Continuous
 62
     2
100
AcDbLine
 10
252.3106702912628
 20
384.5058765066369
 30
0.0
 11
252.3106702912628
 21
415.7933704499692
 31
0.0
  0
LINE
  5
49D
330
49B
100
AcDbEntity
  8
1
  6
Continuous
 62
     2
100
AcDbLine
 10
217.6955347136827
 20
384.5058765066369
 30
0.0
 11
254.3106702912628
 21
384.5058765066369
 31
0.0
  0
LINE
  5
49E
330
49B
100
AcDbEntity
  8
1
  6
Continuous
 62
     2
100
AcDbLine
 10
223.8957761155216
 20
415.7933704499692
 30
0.0
 11
254.3106702912628
 21
415.7933704499692
 31
0.0
  0
SOLID
  5
49F
330
49B
100
AcDbEntity
  8
1
 62
     2
100
AcDbTrace
 10
251.389102808151
 20
391.5058765066369
 30
0.0
 11
253.2322377743746
 21
391.5058765066369
 31
0.0
 12
252.3106702912628
 22
384.5058765066369
 32
0.0
 13
252.3106702912628
 23
384.5058765066369
 33
0.0
  0
SOLID
  5
4A0
330
49B
100
AcDbEntity
  8
1
 62
     2
100
AcDbTrace
 10
253.2322377743746
 20
408.7933704499692
 30
0.0
 11
251.389102808151
 21
408.7933704499692
 31
0.0
 12
252.3106702912628
 22
415.7933704499692
 32
0.0
 13
252.3106702912628
 23
415.7933704499692
 33
0.0
  0
MTEXT
  5
4A1
330
49B
100
AcDbEntity
  8
1
 62
     7
100
AcDbMText
 10
250.3106702912628
 20
389.886425244595
 30
0.0
 40
7.0
 41
0.0
 71
     7
 72
     1
  1
8～15
  7
CONVERTER_11
 11
0.0
 21
1.0
 31
0.0
 73
     1
 44
0.45454545454545
  0
ENDBLK
  5
4A3
330
49B
100
AcDbEntity
  8
0
100
AcDbBlockEnd
  0
BLOCK
  5
4AD
330
4A6
100
AcDbEntity
  8
0
100
AcDbBlockBegin
  2
*D28
 70
     1
 10
0.0
 20
0.0
 30
0.0
  3
*D28
  1

  0
LINE
  5
4A7
330
4A6
100
AcDbEntity
  8
1
  6
Continuous
 62
     2
100
AcDbLine
 10
88.29529331185222
 20
317.0241048150619
 30
0.0
 11
88.29529331185222
 21
186.8241048150639
 31
0.0
  0
LINE
  5
4A8
330
4A6
100
AcDbEntity
  8
1
  6
Continuous
 62
     2
100
AcDbLine
 10
124.495534713682
 20
317.0241048150619
 30
0.0
 11
86.29529331185222
 21
317.0241048150619
 31
0.0
  0
LINE
  5
4A9
330
4A6
100
AcDbEntity
  8
1
  6
Continuous
 62
     2
100
AcDbLine
 10
124.495534713682
 20
186.8241048150639
 30
0.0
 11
86.29529331185222
 21
186.8241048150639
 31
0.0
  0
SOLID
  5
4AA
330
4A6
100
AcDbEntity
  8
1
 62
     2
100
AcDbTrace
 10
89.21686079496399
 20
310.0241048150619
 30
0.0
 11
87.37372582874045
 21
310.0241048150619
 31
0.0
 12
88.29529331185222
 22
317.0241048150619
 32
0.0
 13
88.29529331185222
 23
317.0241048150619
 33
0.0
  0
SOLID
  5
4AB
330
4A6
100
AcDbEntity
  8
1
 62
     2
100
AcDbTrace
 10
87.37372582874045
 20
193.8241048150639
 30
0.0
 11
89.21686079496399
 21
193.8241048150639
 31
0.0
 12
88.29529331185222
 22
186.8241048150639
 32
0.0
 13
88.29529331185222
 23
186.8241048150639
 33
0.0
  0
MTEXT
  5
4AC
330
4A6
100
AcDbEntity
  8
1
 62
     7
100
AcDbMText
 10
86.29529331185222
 20
243.3291571595111
 30
0.0
 40
7.0
 41
0.0
 71
     7
 72
     1
  1
131
  7
CONVERTER_16
 11
0.0
 21
1.0
 31
0.0
 73
     1
 44
0.60024009603842
  0
ENDBLK
  5
4AE
330
4A6
100
AcDbEntity
  8
0
100
AcDbBlockEnd
  0
BLOCK
  5
4B7
330
4B1
100
AcDbEntity
  8
0
100
AcDbBlockBegin
  2
*D29
 70
     1
 10
0.0
 20
0.0
 30
0.0
  3
*D29
  1

  0
LINE
  5
4B2
330
4B1
100
AcDbEntity
  8
1
  6
Continuous
 62
     2
100
AcDbLine
 10
283.4206967266727
 20
339.024104815062
 30
0.0
 11
311.4706605549727
 21
339.024104815062
 31
0.0
  0
LINE
  5
4B3
330
4B1
100
AcDbEntity
  8
1
  6
Continuous
 62
     2
100
AcDbLine
 10
283.4206967266727
 20
317.024104815062
 30
0.0
 11
283.4206967266727
 21
341.024104815062
 31
0.0
  0
LINE
  5
4B4
330
4B1
100
AcDbEntity
  8
1
  6
Continuous
 62
     2
100
AcDbLine
 10
311.4706605549727
 20
297.8391941522542
 30
0.0
 11
311.4706605549727
 21
341.024104815062
 31
0.0
  0
SOLID
  5
4B5
330
4B1
100
AcDbEntity
  8
1
 62
     2
100
AcDbTrace
 10
304.4706605549727
 20
338.1025373319503
 30
0.0
 11
304.4706605549727
 21
339.9456722981737
 31
0.0
 12
311.4706605549727
 22
339.024104815062
 32
0.0
 13
311.4706605549727
 23
339.024104815062
 33
0.0
  0
MTEXT
  5
4B6
330
4B1
100
AcDbEntity
  8
1
 62
     7
100
AcDbMText
 10
291.0410890310213
 20
341.024104815062
 30
0.0
 40
7.0
 41
0.0
 71
     7
 72
     1
  1
29
  7
CONVERTER_16
 11
0.9999999999970619
 21
2.424068405545306E-6
 31
0.0
 73
     1
 44
0.60024009603842
  0
ENDBLK
  5
4B8
330
4B1
100
AcDbEntity
  8
0
100
AcDbBlockEnd
  0
BLOCK
  5
4BA
330
4B9
100
AcDbEntity
  8
0
100
AcDbBlockBegin
  2
_NONE
 70
     0
 10
0.0
 20
0.0
 30
0.0
  3
_NONE
  1

  0
ENDBLK
  5
4BB
330
4B9
100
AcDbEntity
  8
0
100
AcDbBlockEnd
  0
BLOCK
  5
4C7
330
4BE
100
AcDbEntity
  8
0
100
AcDbBlockBegin
  2
*D31
 70
     1
 10
0.0
 20
0.0
 30
0.0
  3
*D31
  1

  0
LINE
  5
4BF
330
4BE
100
AcDbEntity
  8
1
  6
Continuous
 62
     2
100
AcDbLine
 10
276.6706967266728
 20
339.024104815062
 30
0.0
 11
262.6706967266728
 21
339.024104815062
 31
0.0
  0
LINE
  5
4C0
330
4BE
100
AcDbEntity
  8
1
  6
Continuous
 62
     2
100
AcDbLine
 10
283.4206967266728
 20
339.024104815062
 30
0.0
 11
276.6706967266728
 21
339.024104815062
 31
0.0
  0
LINE
  5
4C1
330
4BE
100
AcDbEntity
  8
1
  6
Continuous
 62
     2
100
AcDbLine
 10
297.4206967266728
 20
339.024104815062
 30
0.0
 11
283.4206967266728
 21
339.024104815062
 31
0.0
  0
LINE
  5
4C2
330
4BE
100
AcDbEntity
  8
1
  6
Continuous
 62
     2
100
AcDbLine
 10
283.4206967266728
 20
317.024104815062
 30
0.0
 11
283.4206967266728
 21
341.024104815062
 31
0.0
  0
LINE
  5
4C3
330
4BE
100
AcDbEntity
  8
1
  6
Continuous
 62
     2
100
AcDbLine
 10
276.6706967266728
 20
315.024104815062
 30
0.0
 11
276.6706967266728
 21
341.024104815062
 31
0.0
  0
SOLID
  5
4C4
330
4BE
100
AcDbEntity
  8
1
 62
     2
100
AcDbTrace
 10
290.4206967266728
 20
339.9456722981737
 30
0.0
 11
290.4206967266728
 21
338.1025373319503
 31
0.0
 12
283.4206967266728
 22
339.024104815062
 32
0.0
 13
283.4206967266728
 23
339.024104815062
 33
0.0
  0
SOLID
  5
4C5
330
4BE
100
AcDbEntity
  8
1
 62
     2
100
AcDbTrace
 10
269.6706967266728
 20
338.1025373319503
 30
0.0
 11
269.6706967266728
 21
339.9456722981737
 31
0.0
 12
276.6706967266728
 22
339.024104815062
 32
0.0
 13
276.6706967266728
 23
339.024104815062
 33
0.0
  0
MTEXT
  5
4C6
330
4BE
100
AcDbEntity
  8
1
 62
     7
100
AcDbMText
 10
262.7025392417512
 20
341.024104815062
 30
0.0
 40
7.0
 41
0.0
 71
     7
 72
     1
  1
7
  7
CONVERTER_16
 11
0.9999999999970619
 21
2.424068405545306E-6
 31
0.0
 73
     1
 44
0.60024009603842
  0
ENDBLK
  5
4C8
330
4BE
100
AcDbEntity
  8
0
100
AcDbBlockEnd
  0
BLOCK
  5
4D2
330
4CB
100
AcDbEntity
  8
0
100
AcDbBlockBegin
  2
*D32
 70
     1
 10
0.0
 20
0.0
 30
0.0
  3
*D32
  1

  0
LINE
  5
4CC
330
4CB
100
AcDbEntity
  8
1
  6
Continuous
 62
     2
100
AcDbLine
 10
283.4206967266728
 20
355.024104815062
 30
0.0
 11
332.6706605549716
 21
355.024104815062
 31
0.0
  0
LINE
  5
4CD
330
4CB
100
AcDbEntity
  8
1
  6
Continuous
 62
     2
100
AcDbLine
 10
283.4206967266728
 20
317.024104815062
 30
0.0
 11
283.4206967266728
 21
357.024104815062
 31
0.0
  0
LINE
  5
4CE
330
4CB
100
AcDbEntity
  8
1
  6
Continuous
 62
     2
100
AcDbLine
 10
332.6706605549716
 20
306.6241048150633
 30
0.0
 11
332.6706605549716
 21
357.024104815062
 31
0.0
  0
SOLID
  5
4CF
330
4CB
100
AcDbEntity
  8
1
 62
     2
100
AcDbTrace
 10
290.4206967266728
 20
355.9456722981737
 30
0.0
 11
290.4206967266728
 21
354.1025373319503
 31
0.0
 12
283.4206967266728
 22
355.024104815062
 32
0.0
 13
283.4206967266728
 23
355.024104815062
 33
0.0
  0
SOLID
  5
4D0
330
4CB
100
AcDbEntity
  8
1
 62
     2
100
AcDbTrace
 10
325.6706605549716
 20
354.1025373319503
 30
0.0
 11
325.6706605549716
 21
355.9456722981737
 31
0.0
 12
332.6706605549716
 22
355.024104815062
 32
0.0
 13
332.6706605549716
 23
355.024104815062
 33
0.0
  0
MTEXT
  5
4D1
330
4CB
100
AcDbEntity
  8
1
 62
     7
100
AcDbMText
 10
302.6864973125412
 20
357.024104815062
 30
0.0
 40
7.0
 41
0.0
 71
     7
 72
     1
  1
50
  7
CONVERTER_16
 11
0.9999999999970619
 21
2.424068405545306E-6
 31
0.0
 73
     1
 44
0.60024009603842
  0
ENDBLK
  5
4D3
330
4CB
100
AcDbEntity
  8
0
100
AcDbBlockEnd
  0
BLOCK
  5
4DD
330
4D6
100
AcDbEntity
  8
0
100
AcDbBlockBegin
  2
*D33
 70
     1
 10
0.0
 20
0.0
 30
0.0
  3
*D33
  1

  0
LINE
  5
4D7
330
4D6
100
AcDbEntity
  8
1
  6
Continuous
 62
     2
100
AcDbLine
 10
110.2952933118486
 20
476.0058765066369
 30
0.0
 11
223.895776115518
 21
476.0058765066369
 31
0.0
  0
LINE
  5
4D8
330
4D6
100
AcDbEntity
  8
1
  6
Continuous
 62
     2
100
AcDbLine
 10
110.2952933118523
 20
416.7933704499692
 30
0.0
 11
110.2952933118523
 21
478.0058765066369
 31
0.0
  0
LINE
  5
4D9
330
4D6
100
AcDbEntity
  8
1
  6
Continuous
 62
     2
100
AcDbLine
 10
223.8957761155216
 20
416.7933704499692
 30
0.0
 11
223.8957761155216
 21
478.0058765066369
 31
0.0
  0
SOLID
  5
4DA
330
4D6
100
AcDbEntity
  8
1
 62
     2
100
AcDbTrace
 10
117.2952933118486
 20
476.9274439897487
 30
0.0
 11
117.2952933118486
 21
475.0843090235252
 31
0.0
 12
110.2952933118486
 22
476.0058765066369
 32
0.0
 13
110.2952933118486
 23
476.0058765066369
 33
0.0
  0
SOLID
  5
4DB
330
4D6
100
AcDbEntity
  8
1
 62
     2
100
AcDbTrace
 10
216.895776115518
 20
475.0843090235252
 30
0.0
 11
216.895776115518
 21
476.9274439897487
 31
0.0
 12
223.895776115518
 22
476.0058765066369
 32
0.0
 13
223.895776115518
 23
476.0058765066369
 33
0.0
  0
MTEXT
  5
4DC
330
4D6
100
AcDbEntity
  8
1
 62
     7
100
AcDbMText
 10
160.7955347136824
 20
478.0058765066369
 30
0.0
 40
7.0
 41
0.0
 71
     7
 72
     1
  1
114
  7
CONVERTER_16
 11
0.9999999999970619
 21
2.424068405545306E-6
 31
0.0
 73
     1
 44
0.60024009603842
  0
ENDBLK
  5
4DE
330
4D6
100
AcDbEntity
  8
0
100
AcDbBlockEnd
  0
BLOCK
  5
4E8
330
4E1
100
AcDbEntity
  8
0
100
AcDbBlockBegin
  2
*D34
 70
     1
 10
0.0
 20
0.0
 30
0.0
  3
*D34
  1

  0
LINE
  5
4E2
330
4E1
100
AcDbEntity
  8
0
  6
Continuous
 62
     2
100
AcDbLine
 10
353.9706605549727
 20
197.2241048150631
 30
0.0
 11
353.9706605549727
 21
160.5252341899913
 31
0.0
  0
LINE
  5
4E3
330
4E1
100
AcDbEntity
  8
0
  6
Continuous
 62
     2
100
AcDbLine
 10
301.4206967266728
 20
197.2241048150631
 30
0.0
 11
355.9706605549727
 21
197.2241048150631
 31
0.0
  0
LINE
  5
4E4
330
4E1
100
AcDbEntity
  8
0
  6
Continuous
 62
     2
100
AcDbLine
 10
323.4706605539723
 20
160.5252341899914
 30
0.0
 11
355.9706605549727
 21
160.5252341899914
 31
0.0
  0
SOLID
  5
4E5
330
4E1
100
AcDbEntity
  8
0
 62
     2
100
AcDbTrace
 10
354.8922280380845
 20
190.2241048150631
 30
0.0
 11
353.049093071861
 21
190.2241048150631
 31
0.0
 12
353.9706605549727
 22
197.2241048150631
 32
0.0
 13
353.9706605549727
 23
197.2241048150631
 33
0.0
  0
SOLID
  5
4E6
330
4E1
100
AcDbEntity
  8
0
 62
     2
100
AcDbTrace
 10
353.049093071861
 20
167.5252341899913
 30
0.0
 11
354.8922280380845
 21
167.5252341899913
 31
0.0
 12
353.9706605549727
 22
160.5252341899913
 32
0.0
 13
353.9706605549727
 23
160.5252341899913
 33
0.0
  0
MTEXT
  5
4E7
330
4E1
100
AcDbEntity
  8
0
 62
     7
100
AcDbMText
 10
351.9706605549727
 20
173.6246695025272
 30
0.0
 40
7.0
 41
0.0
 71
     7
 72
     1
  1
37
  7
CONVERTER_16
 11
0.0
 21
1.0
 31
0.0
 73
     1
 44
0.60024009603842
  0
ENDBLK
  5
4E9
330
4E1
100
AcDbEntity
  8
0
100
AcDbBlockEnd
  0
BLOCK
  5
4F3
330
4EC
100
AcDbEntity
  8
0
100
AcDbBlockBegin
  2
*D35
 70
     1
 10
0.0
 20
0.0
 30
0.0
  3
*D35
  1

  0
LINE
  5
4ED
330
4EC
100
AcDbEntity
  8
1
  6
Continuous
 62
     2
100
AcDbLine
 10
88.29529331185222
 20
160.5252341899914
 30
0.0
 11
88.29529331185222
 21
186.824104815064
 31
0.0
  0
LINE
  5
4EE
330
4EC
100
AcDbEntity
  8
1
  6
Continuous
 62
     2
100
AcDbLine
 10
155.0955347146829
 20
160.5252341899914
 30
0.0
 11
86.29529331185222
 21
160.5252341899914
 31
0.0
  0
LINE
  5
4EF
330
4EC
100
AcDbEntity
  8
1
  6
Continuous
 62
     2
100
AcDbLine
 10
124.4955344993214
 20
186.824104815064
 30
0.0
 11
86.29529331185222
 21
186.824104815064
 31
0.0
  0
SOLID
  5
4F0
330
4EC
100
AcDbEntity
  8
1
 62
     2
100
AcDbTrace
 10
87.37372582874045
 20
167.5252341899914
 30
0.0
 11
89.21686079496399
 21
167.5252341899914
 31
0.0
 12
88.29529331185222
 22
160.5252341899914
 32
0.0
 13
88.29529331185222
 23
160.5252341899914
 33
0.0
  0
SOLID
  5
4F1
330
4EC
100
AcDbEntity
  8
1
 62
     2
100
AcDbTrace
 10
89.21686079496399
 20
179.824104815064
 30
0.0
 11
87.37372582874045
 21
179.824104815064
 31
0.0
 12
88.29529331185222
 22
186.824104815064
 32
0.0
 13
88.29529331185222
 23
186.824104815064
 33
0.0
  0
MTEXT
  5
4F2
330
4EC
100
AcDbEntity
  8
1
 62
     7
100
AcDbMText
 10
86.29529331185222
 20
168.4246695025277
 30
0.0
 40
7.0
 41
0.0
 71
     7
 72
     1
  1
26
  7
CONVERTER_16
 11
0.0
 21
1.0
 31
0.0
 73
     1
 44
0.60024009603842
  0
ENDBLK
  5
4F4
330
4EC
100
AcDbEntity
  8
0
100
AcDbBlockEnd
  0
ENDSEC
  0
SECTION
  2
ENTITIES
  0
INSERT
  5
83
330
1F
100
AcDbEntity
  8
1
100
AcDbBlockReference
  2
V96LT-3
 10
507.371250000002
 20
-1.48500000000013
 30
0.0
  0
INSERT
  5
84
330
1F
100
AcDbEntity
  8
0
100
AcDbBlockReference
  2
V972GN-H3
 10
840.9875665666714
 20
221.674104815063
 30
0.0
  0
INSERT
  5
85
330
1F
100
AcDbEntity
  8
0
100
AcDbBlockReference
  2
V97G-H3
 10
682.8456586784214
 20
463.501331622148
 30
0.0
  0
INSERT
  5
86
330
1F
100
AcDbEntity
  8
0
100
AcDbBlockReference
  2
V97G-H2
 10
728.2826524475222
 20
99.78920892163114
 30
0.0
  0
INSERT
  5
87
330
1F
100
AcDbEntity
  8
0
100
AcDbBlockReference
  2
V972GN-H2
 10
920.2317612857423
 20
214.3406502490579
 30
0.0
  0
INSERT
  5
88
330
1F
100
AcDbEntity
  8
0
100
AcDbBlockReference
  2
V972GN-H6
 10
678.2275665666712
 20
-362.0823518789713
 30
0.0
  0
INSERT
  5
89
330
1F
100
AcDbEntity
  8
0
100
AcDbBlockReference
  2
V97D-H1
 10
275.7761987366921
 20
540.3281525258521
 30
0.0
  0
INSERT
  5
8A
330
1F
100
AcDbEntity
  8
1
100
AcDbBlockReference
  2
BIS2
 10
330.4706605549727
 20
231.6241048150619
 30
0.0
  0
INSERT
  5
8B
330
1F
100
AcDbEntity
  8
1
100
AcDbBlockReference
  2
BIS
 10
301.4206967266728
 20
226.8741048150619
 30
0.0
  0
INSERT
  5
8C
330
1F
100
AcDbEntity
  8
0
100
AcDbBlockReference
  2
V97-H12
 10
934.311836477862
 20
100.036847201859
 30
0.0
  0
INSERT
  5
8D
330
1F
100
AcDbEntity
  8
0
100
AcDbBlockReference
  2
V97-H11
 10
870.3613366859518
 20
675.6735769298471
 30
0.0
  0
INSERT
  5
8E
330
1F
100
AcDbEntity
  8
0
100
AcDbBlockReference
  2
V97-30-Z1__1
 10
531.0570954073228
 20
246.171677069397
 30
0.0
  0
INSERT
  5
8F
330
1F
100
AcDbEntity
  8
0
100
AcDbBlockReference
  2
V97-30-Z1__2
 10
521.0570954073228
 20
246.171677069397
 30
0.0
  0
INSERT
  5
90
330
1F
100
AcDbEntity
  8
0
100
AcDbBlockReference
  2
88-249
 10
429.1318430265328
 20
484.4629202315869
 30
0.0
  0
INSERT
  5
91
330
1F
100
AcDbEntity
  8
0
100
AcDbBlockReference
  2
V097-H7A
 10
2.34768686087227
 20
891.7662751531311
 30
0.0
  0
INSERT
  5
92
330
1F
100
AcDbEntity
  8
1
100
AcDbBlockReference
  2
開示A4
 10
0.0
 20
0.0
 30
0.0
 41
2.0
 42
2.0
 43
2.0
  0
LINE
  5
41D
330
1F
100
AcDbEntity
  8
0
  6
DASH_CENTER
 62
     2
100
AcDbLine
 10
248.4912311860426
 20
212.1406702983322
 30
0.0
 11
250.2733020399428
 21
217.9885072454999
 31
0.0
  0
LINE
  5
41E
330
1F
100
AcDbEntity
  8
1
  6
DASH_CENTER
 62
     2
100
AcDbLine
 10
181.8955347136816
 20
235.174104815063
 30
0.0
 11
152.2955347136813
 21
235.174104815063
 31
0.0
  0
LINE
  5
41F
330
1F
100
AcDbEntity
  8
0
  6
DASH_CENTER
 62
     2
100
AcDbLine
 10
280.0396301888613
 20
235.174104815063
 30
0.0
 11
311.4706605549727
 21
235.174104815063
 31
0.0
  0
LINE
  5
420
330
1F
100
AcDbEntity
  8
0
  6
DASH_CENTER
 62
     2
100
AcDbLine
 10
250.2733020399428
 20
217.9885072454999
 30
0.0
 11
280.0396301888613
 21
235.174104815063
 31
0.0
  0
LINE
  5
421
330
1F
100
AcDbEntity
  8
1
  6
DASH_CENTER
 62
     2
100
AcDbLine
 10
167.0955347136824
 20
438.0058765066369
 30
0.0
 11
167.0955347136824
 21
344.505876506636
 31
0.0
  0
LINE
  5
422
330
1F
100
AcDbEntity
  8
0
  6
DASH_CENTER
 62
     2
100
AcDbLine
 10
336.1709629908019
 20
282.3741048150619
 30
0.0
 11
280.4590699764212
 21
282.3741048150619
 31
0.0
  0
LINE
  5
423
330
1F
100
AcDbEntity
  8
0
  6
DASH_CENTER
 62
     2
100
AcDbLine
 10
335.6997433441829
 20
228.8741048150619
 30
0.0
 11
280.4590699764212
 21
228.8741048150619
 31
0.0
  0
LINE
  5
424
330
1F
100
AcDbEntity
  8
0
  6
DASH_CENTER
 62
     2
100
AcDbLine
 10
336.1709629908019
 20
272.8741048150619
 30
0.0
 11
280.4590699764212
 21
272.8741048150619
 31
0.0
  0
LINE
  5
425
330
1F
100
AcDbEntity
  8
0
  6
DASH_CENTER
 62
     2
100
AcDbLine
 10
326.0987689884314
 20
231.674104815063
 30
0.0
 11
337.5835463742824
 21
231.674104815063
 31
0.0
  0
LINE
  5
426
330
1F
100
AcDbEntity
  8
0
  6
DASH_CENTER
 62
     2
100
AcDbLine
 10
336.1709629908019
 20
259.3741048150619
 30
0.0
 11
273.6706967266728
 21
259.3741048150619
 31
0.0
  0
LINE
  5
427
330
1F
100
AcDbEntity
  8
0
  6
DASH_CENTER
 62
     2
100
AcDbLine
 10
311.4706605549727
 20
154.5252341899914
 30
0.0
 11
311.4706605549727
 21
297.8391941522541
 31
0.0
  0
LINE
  5
428
330
1F
100
AcDbEntity
  8
0
  6
DASH_CENTER
 62
     2
100
AcDbLine
 10
222.1167533659027
 20
259.3741048150619
 30
0.0
 11
111.453970322782
 21
259.3741048150619
 31
0.0
  0
LINE
  5
429
330
1F
100
AcDbEntity
  8
0
  6
DASH_CENTER
 62
     2
100
AcDbLine
 10
167.0955347136824
 20
321.524104815062
 30
0.0
 11
167.0955347136824
 21
154.5252341899914
 31
0.0
  0
LINE
  5
42A
330
1F
100
AcDbEntity
  8
0
  6
DASH_CENTER
 62
     2
100
AcDbLine
 10
187.5955347136824
 20
282.2741048150629
 30
0.0
 11
156.5456352610618
 21
282.2741048150629
 31
0.0
  0
LINE
  5
42B
330
1F
100
AcDbEntity
  8
0
  6
DASH_CENTER
 62
     2
100
AcDbLine
 10
156.8455347136824
 20
282.2741048150629
 30
0.0
 11
146.5955347136824
 21
282.2741048150629
 31
0.0
  0
ARC
  5
42C
330
1F
100
AcDbEntity
  8
0
  6
Continuous
 62
     2
100
AcDbCircle
 10
190.4865179388817
 20
68.01648697067596
 30
0.0
 40
16.79999999999325
100
AcDbArc
 50
136.4098669615586
 51
227.6527776629566
  0
LWPOLYLINE
  5
42D
330
1F
100
AcDbEntity
  8
0
  6
Continuous
 62
     7
 60
     1
100
AcDbPolyline
 90
        4
 70
     0
 43
0.0
 10
280.770660554972
 20
239.674104815063
 10
299.9706605549727
 20
239.674104815063
 10
299.9706605549727
 20
242.174104815063
 10
298.9706605549727
 20
242.174104815063
  0
LWPOLYLINE
  5
42E
330
1F
100
AcDbEntity
  8
0
  6
Continuous
 62
     7
 60
     1
100
AcDbPolyline
 90
        3
 70
     0
 43
0.0
 10
271.3706605549724
 20
230.074104815063
 10
280.770660554972
 20
230.074104815063
 10
280.770660554972
 20
230.674104815063
  0
LWPOLYLINE
  5
42F
330
1F
100
AcDbEntity
  8
1
  6
Continuous
 62
     7
 60
     1
100
AcDbPolyline
 90
        3
 70
     0
 43
0.0
 10
277.9206967266728
 20
305.2241048150631
 10
301.4206967266728
 20
305.2241048150631
 10
301.4206967266728
 20
306.7241048150631
  0
SOLID
  5
430
330
1F
100
AcDbEntity
  8
0
 62
     2
100
AcDbTrace
 10
324.3720085522831
 20
153.9341702602958
 30
0.0
 11
322.7514721496629
 21
153.0560994935015
 31
0.0
 12
320.2269355319022
 22
159.6497328994101
 32
0.0
 13
320.2269355319022
 23
159.6497328994101
 33
0.0
  0
LEADER
  5
431
330
1F
100
AcDbEntity
  8
0
  6
Continuous
 62
     2
100
AcDbLeader
  3
Standard
 71
     0
 76
     3
 10
320.2269355319022
 20
159.6497328994101
 30
0.0
 10
345.8654228112628
 20
112.3322460685909
 30
0.0
 10
269.5463002658817
 20
112.3322460685909
 30
0.0
  0
SOLID
  5
432
330
1F
100
AcDbEntity
  8
1
 62
     2
100
AcDbTrace
 10
313.2051962589969
 20
448.7887155013516
 30
0.0
 11
311.6089945556441
 21
449.7102829844636
 31
0.0
 12
315.9070954073213
 22
455.3116770693982
 32
0.0
 13
315.9070954073213
 23
455.3116770693982
 33
0.0
  0
LEADER
  5
433
330
1F
100
AcDbEntity
  8
1
  6
Continuous
 62
     2
100
AcDbLeader
  3
Standard
 71
     0
 76
     3
 10
315.9070954073213
 20
455.3116770693982
 30
0.0
 10
298.9653567557616
 20
425.9677249563501
 30
0.0
 10
264.8762365683015
 20
425.9677249563501
 30
0.0
  0
CIRCLE
  5
434
102
{ACAD_REACTORS
330
435
102
}
330
1F
100
AcDbEntity
  8
1
 62
     2
100
AcDbCircle
 10
194.8985375933733
 20
191.9406297717156
 30
0.0
 40
1.75
  0
HATCH
  5
435
330
1F
100
AcDbEntity
  8
1
 62
     2
100
AcDbHatch
 10
0.0
 20
0.0
 30
0.0
210
0.0
220
0.0
230
1.0
  2
SOLID
 70
     1
 71
     1
 91
        1
 92
        1
 93
        1
 72
     2
 10
194.8985375933733
 20
191.9406297717156
 40
1.75
 50
0.0
 51
360.0
 73
     1
 97
        1
330
434
 75
     0
 76
     1
 98
        0
  0
LEADER
  5
436
330
1F
100
AcDbEntity
  8
1
  6
Continuous
 62
     2
100
AcDbLeader
  3
Standard
 71
     0
 76
     3
 10
194.8985375933733
 20
191.9406297717156
 30
0.0
 10
223.47737591826
 20
142.4406297717152
 30
0.0
 10
279.1576766497735
 20
142.4406297717152
 30
0.0
  0
MTEXT
  5
438
330
1F
100
AcDbEntity
  8
1
 62
     7
100
AcDbMText
 10
114.0
 20
41.50000000000002
 30
0.0
 40
7.0
 41
0.0
 71
     5
 72
     1
  1
シンプレット
  7
CONVERTER_15
 73
     1
 44
0.54545454545455
  0
MTEXT
  5
439
330
1F
100
AcDbEntity
  8
1
 62
     7
100
AcDbMText
 10
251.0562142431467
 20
149.4406297717152
 30
0.0
 40
7.0
 41
0.0
 71
     5
 72
     1
  1
JWWAシール
  7
CONVERTER_11
 73
     1
 44
0.54545454545455
  0
MTEXT
  5
43A
330
1F
100
AcDbEntity
  8
1
 62
     2
100
AcDbMText
 10
68.0
 20
76.75
 30
0.0
 40
6.0
 41
0.0
 71
     4
 72
     1
  1
呼び径 13A
  7
CONVERTER_11
 73
     1
 44
0.54545454545455
  0
MTEXT
  5
43B
330
1F
100
AcDbEntity
  8
1
 62
     2
100
AcDbMText
 10
68.0
 20
68.00000000000003
 30
0.0
 40
6.0
 41
0.0
 71
     4
 72
     1
  1
日本水道協会認証登録品
  7
CONVERTER_11
 73
     1
 44
0.54545454545455
  0
MTEXT
  5
43C
330
1F
100
AcDbEntity
  8
1
 62
     2
100
AcDbMText
 10
68.0
 20
59.25000000000003
 30
0.0
 40
6.0
 41
0.0
 71
     4
 72
     1
  1
登録番号 C-284
  7
CONVERTER_11
 73
     1
 44
0.54545454545455
  0
MTEXT
  5
43D
330
1F
100
AcDbEntity
  8
0
 62
     7
100
AcDbMText
 10
307.7806335523128
 20
117.2452460169252
 30
0.0
 40
7.0
 41
0.0
 71
     5
 72
     1
  1
13A樹脂管JIS品
  7
CONVERTER_11
 73
     1
 44
0.54545454545455
  0
MTEXT
  5
43E
330
1F
100
AcDbEntity
  8
0
 62
     7
100
AcDbMText
 10
308.1964896396912
 20
106.4498246542298
 30
0.0
 40
7.0
 41
0.0
 71
     5
 72
     1
  1
(適用管種は備考欄参照)
  7
CONVERTER_11
 73
     1
 44
0.54545454545455
  0
MTEXT
  5
43F
330
1F
100
AcDbEntity
  8
1
 62
     2
100
AcDbMText
 10
297.9072264397528
 20
59.29648697067614
 30
0.0
 40
6.0
 41
0.0
 71
     4
 72
     1
  1
・ ポリブテン管 JIS K 6778
  7
CONVERTER_11
 73
     1
 44
0.45454545454545
  0
MTEXT
  5
440
330
1F
100
AcDbEntity
  8
1
 62
     2
100
AcDbMText
 10
158.0429931736417
 20
67.65380155686466
 30
0.0
 40
6.0
 41
0.0
 71
     5
 72
     1
  1
適用管種
  7
CONVERTER_11
 73
     1
 44
0.54545454545455
  0
MTEXT
  5
441
330
1F
100
AcDbEntity
  8
1
 62
     2
100
AcDbMText
 10
181.9072264397528
 20
59.29648697067614
 30
0.0
 40
6.0
 41
0.0
 71
     4
 72
     1
  1
水道用ポリブテン管 JIS K 6792
  7
CONVERTER_11
 73
     1
 44
0.45454545454545
  0
MTEXT
  5
442
330
1F
100
AcDbEntity
  8
1
 62
     2
100
AcDbMText
 10
181.9072264397528
 20
68.01648697067594
 30
0.0
 40
6.0
 41
0.0
 71
     4
 72
     1
  1
水道用架橋ポリエチレン管 JIS K 6787 M種 単層
  7
CONVERTER_11
 73
     1
 44
0.45454545454545
  0
MTEXT
  5
443
330
1F
100
AcDbEntity
  8
1
 62
     2
100
AcDbMText
 10
182.3072264397524
 20
77.13648697067629
 30
0.0
 40
6.0
 41
0.0
 71
     4
 72
     1
  1
架橋ポリエチレン管 JIS K 6769 PN15 M種 単層
  7
CONVERTER_11
 73
     1
 44
0.45454545454545
  0
MTEXT
  5
445
330
1F
100
AcDbEntity
  8
1
 62
     7
100
AcDbMText
 10
282.2416411939012
 20
431.4256582671501
 30
0.0
 40
7.0
 41
0.0
 71
     5
 72
     1
  1
3,5X19
  7
CONVERTER_16
 73
     1
 44
0.7202881152461
  0
MTEXT
  5
446
330
1F
100
AcDbEntity
  8
1
 62
     7
100
AcDbMText
 10
114.0
 20
49.5
 30
0.0
 40
7.0
 41
0.0
 71
     5
 72
     1
  1
水道用コンセント
  7
CONVERTER_15
 73
     1
 44
0.54545454545455
  0
MTEXT
  5
447
330
1F
100
AcDbEntity
  8
1
 62
     7
100
AcDbMText
 10
187.4999999999982
 20
34.0
 30
0.0
 40
7.0
 41
0.0
 71
     5
 72
     1
  1
2
  7
CONVERTER_16
 73
     1
 44
0.7202881152461
  0
MTEXT
  5
448
330
1F
100
AcDbEntity
  8
1
 62
     7
100
AcDbMText
 10
170.4999999999982
 20
34.0
 30
0.0
 40
7.0
 41
0.0
 71
     5
 72
     1
  1
1
  7
CONVERTER_16
 73
     1
 44
0.7202881152461
  0
MTEXT
  5
449
330
1F
100
AcDbEntity
  8
1
 62
     7
100
AcDbMText
 10
114.0
 20
28.5
 30
0.0
 40
7.0
 41
0.0
 71
     5
 72
     1
  1
V96LT-3
  7
CONVERTER_16
 73
     1
 44
0.7202881152461
  0
DIMENSION
  5
454
330
1F
100
AcDbEntity
  8
1
100
AcDbDimension
  2
*D20
 10
297.9706605549727
 20
140.5252341899914
 30
0.0
 11
311.4706605549727
 21
146.0252341899914
 31
0.0
 70
    32
  1
<>
 71
     5
 42
-1.0
 53
0.00013888888889
  3
ME10_DIM_10
100
AcDbAlignedDimension
 13
324.9706605549727
 23
161.7838836369915
 33
0.0
 14
297.9706605549727
 24
161.7838836369915
 34
0.0
100
AcDbRotatedDimension
  0
DIMENSION
  5
45F
330
1F
100
AcDbEntity
  8
0
100
AcDbDimension
  2
*D21
 10
217.6955347136828
 20
140.5252341899914
 30
0.0
 11
167.0955347136824
 21
146.0252341899914
 31
0.0
 70
    33
  1
102
 71
     5
 42
-1.0
 53
0.00013888888889
  3
ME10_DIM_11
100
AcDbAlignedDimension
 13
116.495534713682
 23
194.824104815064
 33
0.0
 14
217.6955347136827
 24
194.824104815064
 34
0.0
  0
DIMENSION
  5
46C
330
1F
100
AcDbEntity
  8
0
100
AcDbDimension
  2
*D22
 10
241.6297215850518
 20
221.9470629155437
 30
0.0
 11
237.9704030094126
 21
239.9851886096299
 31
0.0
 70
    33
  1
<>
 71
     5
 42
-1.0
 53
-59.99999999999748
  3
ME10_DIM_12
100
AcDbAlignedDimension
 13
259.8550283833629
 23
214.3406502490589
 33
0.0
 14
252.0050283833625
 24
227.9372490884739
 34
0.0
  0
DIMENSION
  5
479
330
1F
100
AcDbEntity
  8
1
100
AcDbDimension
  2
*D23
 10
353.9706605549727
 20
449.1716770693984
 30
0.0
 11
348.4706605549727
 21
458.7916770693983
 31
0.0
 70
    32
  1
19
 71
     5
 42
-1.0
 53
90.0
  3
ME10_DIM_13
100
AcDbAlignedDimension
 13
331.0570954073228
 23
468.4116770693981
 33
0.0
 14
327.6070954073221
 24
449.1716770693979
 34
0.0
 50
90.0
100
AcDbRotatedDimension
  0
DIMENSION
  5
484
330
1F
100
AcDbEntity
  8
1
100
AcDbDimension
  2
*D24
 10
353.9706605549727
 20
197.2241048150631
 30
0.0
 11
348.4706605549727
 21
257.75172473767
 31
0.0
 70
    32
  1
112(開口寸法115)
 71
     5
 42
-1.0
 53
90.0
  3
ME10_DIM_14
100
AcDbAlignedDimension
 13
330.6706605549716
 23
309.1241048150632
 33
0.0
 14
301.4206967266728
 24
197.2241048150631
 34
0.0
 50
90.0
100
AcDbRotatedDimension
  0
DIMENSION
  5
48F
330
1F
100
AcDbEntity
  8
1
100
AcDbDimension
  2
*D25
 10
125.495534713682
 20
456.0058765066369
 30
0.0
 11
167.0955347136824
 21
461.5058765066369
 31
0.0
 70
    32
  1
84(開口寸法86)
 71
     5
 42
-1.0
 53
0.00013888888889
  3
ME10_DIM_15
100
AcDbAlignedDimension
 13
208.6955347136827
 23
433.0058765066369
 33
0.0
 14
125.495534713682
 24
433.0058765066369
 34
0.0
100
AcDbRotatedDimension
  0
DIMENSION
  5
49A
330
1F
100
AcDbEntity
  8
1
100
AcDbDimension
  2
*D26
 10
283.4206967266728
 20
163.4202813821398
 30
0.0
 11
265.1281282610016
 21
168.9202813821398
 31
0.0
 70
    32
  1
37
 71
     5
 42
-1.0
 53
0.00013888888889
  3
ME10_DIM_16
100
AcDbAlignedDimension
 13
246.5774804836328
 23
215.074487879554
 33
0.0
 14
283.4206967266728
 24
186.824104815064
 34
0.0
100
AcDbRotatedDimension
  0
DIMENSION
  5
4A5
330
1F
100
AcDbEntity
  8
1
100
AcDbDimension
  2
*D27
 10
252.3106702912628
 20
384.5058765066369
 30
0.0
 11
246.8106702912628
 21
400.736425244595
 31
0.0
 70
    32
  1
8～15
 71
     5
 42
-1.0
 53
90.0
  3
ME10_DIM_17
100
AcDbAlignedDimension
 13
223.8957761155216
 23
415.7933704499692
 33
0.0
 14
217.6955347136827
 24
384.5058765066369
 34
0.0
 50
90.0
100
AcDbRotatedDimension
  0
DIMENSION
  5
4B0
330
1F
100
AcDbEntity
  8
1
100
AcDbDimension
  2
*D28
 10
88.29529331185222
 20
317.0241048150619
 30
0.0
 11
82.79529331185222
 21
249.6291571595111
 31
0.0
 70
    32
  1
131
 71
     5
 42
-1.0
 53
90.0
  3
ME10_DIM_18
100
AcDbAlignedDimension
 13
124.495534713682
 23
186.824104815064
 33
0.0
 14
124.495534713682
 24
317.024104815062
 34
0.0
 50
90.0
100
AcDbRotatedDimension
  0
DIMENSION
  5
4BD
330
1F
100
AcDbEntity
  8
1
100
AcDbDimension
  2
*D29
 10
283.4206967266727
 20
339.024104815062
 30
0.0
 11
296.2910890310213
 21
344.524104815062
 31
0.0
 70
    32
  1
29
 71
     5
 42
-1.0
 53
0.00013888888889
  3
ME10_DIM_19
100
AcDbAlignedDimension
 13
311.4706605549727
 23
297.8391941522541
 33
0.0
 14
283.4206967266728
 24
317.024104815062
 34
0.0
100
AcDbRotatedDimension
  0
DIMENSION
  5
4CA
330
1F
100
AcDbEntity
  8
1
100
AcDbDimension
  2
*D31
 10
283.4206967266728
 20
339.024104815062
 30
0.0
 11
264.8025392417512
 21
344.524104815062
 31
0.0
 70
    32
  1
7
 71
     5
 42
-1.0
 53
0.00013888888889
  3
ME10_DIM_20
100
AcDbAlignedDimension
 13
276.6706967266728
 23
315.024104815062
 33
0.0
 14
283.4206967266728
 24
317.024104815062
 34
0.0
100
AcDbRotatedDimension
  0
DIMENSION
  5
4D5
330
1F
100
AcDbEntity
  8
1
100
AcDbDimension
  2
*D32
 10
283.4206967266728
 20
355.024104815062
 30
0.0
 11
307.9364973125412
 21
360.524104815062
 31
0.0
 70
    32
  1
50
 71
     5
 42
-1.0
 53
0.00013888888889
  3
ME10_DIM_21
100
AcDbAlignedDimension
 13
332.6706605549716
 23
306.6241048150632
 33
0.0
 14
283.4206967266728
 24
317.024104815062
 34
0.0
100
AcDbRotatedDimension
  0
DIMENSION
  5
4E0
330
1F
100
AcDbEntity
  8
1
100
AcDbDimension
  2
*D33
 10
110.2952933118486
 20
476.0058765066369
 30
0.0
 11
167.0955347136824
 21
481.5058765066369
 31
0.0
 70
    32
  1
114
 71
     5
 42
-1.0
 53
0.00013888888889
  3
ME10_DIM_22
100
AcDbAlignedDimension
 13
223.8957761155216
 23
416.7933704499692
 33
0.0
 14
110.2952933118522
 24
416.7933704499692
 34
0.0
100
AcDbRotatedDimension
  0
DIMENSION
  5
4EB
330
1F
100
AcDbEntity
  8
0
100
AcDbDimension
  2
*D34
 10
353.9706605549727
 20
197.2241048150631
 30
0.0
 11
348.4706605549727
 21
178.8746695025272
 31
0.0
 70
    32
  1
37
 71
     5
 42
-1.0
 53
90.0
  3
ME10_DIM_23
100
AcDbAlignedDimension
 13
323.4706605539723
 23
160.5252341899914
 33
0.0
 14
301.4206967266728
 24
197.2241048150631
 34
0.0
 50
90.0
100
AcDbRotatedDimension
  0
DIMENSION
  5
4F6
330
1F
100
AcDbEntity
  8
1
100
AcDbDimension
  2
*D35
 10
88.29529331185222
 20
160.5252341899914
 30
0.0
 11
82.79529331185222
 21
173.6746695025277
 31
0.0
 70
    32
  1
26
 71
     5
 42
-1.0
 53
90.0
  3
ME10_DIM_24
100
AcDbAlignedDimension
 13
124.4955344993214
 23
186.824104815064
 33
0.0
 14
155.0955347146829
 24
160.5252341899914
 34
0.0
 50
90.0
100
AcDbRotatedDimension
  0
ENDSEC
  0
SECTION
  2
OBJECTS
  0
DICTIONARY
  5
C
330
0
100
AcDbDictionary
281
     1
  3
ACAD_GROUP
350
D
  3
ACAD_LAYOUT
350
1A
  3
ACAD_MATERIAL
350
3B
  3
ACAD_MLEADERSTYLE
350
4F9
  3
ACAD_MLINESTYLE
350
17
  3
ACAD_PLOTSETTINGS
350
19
  3
ACAD_PLOTSTYLENAME
350
E
  3
ACAD_VISUALSTYLE
350
2A
  3
AcDbVariableDictionary
350
4F7
  0
DICTIONARY
  5
D
102
{ACAD_REACTORS
330
C
102
}
330
C
100
AcDbDictionary
281
     1
  0
DICTIONARY
  5
1A
102
{ACAD_REACTORS
330
C
102
}
330
C
100
AcDbDictionary
281
     1
  3
Layout1
350
1E
  3
Layout2
350
26
  3
Model
350
22
  0
DICTIONARY
  5
3B
102
{ACAD_REACTORS
330
C
102
}
330
C
100
AcDbDictionary
281
     1
  3
ByBlock
350
3D
  3
ByLayer
350
3C
  3
Global
350
3E
  0
DICTIONARY
  5
4F9
102
{ACAD_REACTORS
330
C
102
}
330
C
100
AcDbDictionary
281
     1
  0
DICTIONARY
  5
17
102
{ACAD_REACTORS
330
C
102
}
330
C
100
AcDbDictionary
281
     1
  3
Standard
350
18
  0
DICTIONARY
  5
19
102
{ACAD_REACTORS
330
C
102
}
330
C
100
AcDbDictionary
281
     1
  0
ACDBDICTIONARYWDFLT
  5
E
102
{ACAD_REACTORS
330
C
102
}
330
C
100
AcDbDictionary
281
     1
  3
Normal
350
F
100
AcDbDictionaryWithDefault
340
F
  0
DICTIONARY
  5
2A
102
{ACAD_REACTORS
330
C
102
}
330
C
100
AcDbDictionary
281
     1
  3
2dWireframe
350
2F
  3
3D Hidden
350
31
  3
3dWireframe
350
30
  3
Basic
350
32
  3
Brighten
350
36
  3
ColorChange
350
3A
  3
Conceptual
350
34
  3
Dim
350
35
  3
Facepattern
350
39
  3
Flat
350
2B
  3
FlatWithEdges
350
2C
  3
Gouraud
350
2D
  3
GouraudWithEdges
350
2E
  3
Linepattern
350
38
  3
Realistic
350
33
  3
Thicken
350
37
  0
DICTIONARY
  5
4F7
102
{ACAD_REACTORS
330
C
102
}
330
C
100
AcDbDictionary
281
     1
  3
DIMASSOC
350
4FA
  3
HIDETEXT
350
4FB
  0
LAYOUT
  5
1E
102
{ACAD_REACTORS
330
1A
102
}
330
1A
100
AcDbPlotSettings
  1

  2
none_device
  4

  6

 40
0.0
 41
0.0
 42
0.0
 43
0.0
 44
0.0
 45
0.0
 46
0.0
 47
0.0
 48
0.0
 49
0.0
140
0.0
141
0.0
142
1.0
143
1.0
 70
   688
 72
     0
 73
     0
 74
     5
  7

 75
    16
147
1.0
148
0.0
149
0.0
100
AcDbLayout
  1
Layout1
 70
     1
 71
     1
 10
0.0
 20
0.0
 11
12.0
 21
9.0
 12
0.0
 22
0.0
 32
0.0
 14
1.00000000000000E+20
 24
1.00000000000000E+20
 34
1.00000000000000E+20
 15
-1.00000000000000E+20
 25
-1.00000000000000E+20
 35
-1.00000000000000E+20
146
0.0
 13
0.0
 23
0.0
 33
0.0
 16
1.0
 26
0.0
 36
0.0
 17
0.0
 27
1.0
 37
0.0
 76
     0
330
1B
  0
LAYOUT
  5
26
102
{ACAD_REACTORS
330
1A
102
}
330
1A
100
AcDbPlotSettings
  1

  2
none_device
  4

  6

 40
0.0
 41
0.0
 42
0.0
 43
0.0
 44
0.0
 45
0.0
 46
0.0
 47
0.0
 48
0.0
 49
0.0
140
0.0
141
0.0
142
1.0
143
1.0
 70
   688
 72
     0
 73
     0
 74
     5
  7

 75
    16
147
1.0
148
0.0
149
0.0
100
AcDbLayout
  1
Layout2
 70
     1
 71
     2
 10
0.0
 20
0.0
 11
0.0
 21
0.0
 12
0.0
 22
0.0
 32
0.0
 14
0.0
 24
0.0
 34
0.0
 15
0.0
 25
0.0
 35
0.0
146
0.0
 13
0.0
 23
0.0
 33
0.0
 16
1.0
 26
0.0
 36
0.0
 17
0.0
 27
1.0
 37
0.0
 76
     0
330
23
  0
LAYOUT
  5
22
102
{ACAD_REACTORS
330
1A
102
}
330
1A
100
AcDbPlotSettings
  1

  2
none_device
  4

  6

 40
0.0
 41
0.0
 42
0.0
 43
0.0
 44
0.0
 45
0.0
 46
0.0
 47
0.0
 48
0.0
 49
0.0
140
0.0
141
0.0
142
1.0
143
1.0
 70
  1712
 72
     0
 73
     0
 74
     0
  7

 75
     0
147
1.0
148
0.0
149
0.0
100
AcDbLayout
  1
Model
 70
     1
 71
     0
 10
0.0
 20
0.0
 11
12.0
 21
9.0
 12
0.0
 22
0.0
 32
0.0
 14
0.0
 24
0.0
 34
0.0
 15
420.0
 25
594.0
 35
0.0
146
0.0
 13
0.0
 23
0.0
 33
0.0
 16
1.0
 26
0.0
 36
0.0
 17
0.0
 27
1.0
 37
0.0
 76
     0
330
1F
331
29
  0
MATERIAL
  5
3D
102
{ACAD_REACTORS
330
3B
102
}
102
{ACAD_XDICTIONARY
360
51E
102
}
330
3B
100
AcDbMaterial
  1
ByBlock
  0
MATERIAL
  5
3C
102
{ACAD_REACTORS
330
3B
102
}
102
{ACAD_XDICTIONARY
360
51C
102
}
330
3B
100
AcDbMaterial
  1
ByLayer
  0
MATERIAL
  5
3E
102
{ACAD_REACTORS
330
3B
102
}
102
{ACAD_XDICTIONARY
360
520
102
}
330
3B
100
AcDbMaterial
  1
Global
  0
MLINESTYLE
  5
18
102
{ACAD_REACTORS
330
17
102
}
330
17
100
AcDbMlineStyle
  2
Standard
 70
     0
  3

 62
   256
 51
90.0
 52
90.0
 71
     2
 49
0.5
 62
   256
  6
BYLAYER
 49
-0.5
 62
   256
  6
BYLAYER
  0
ACDBPLACEHOLDER
  5
F
102
{ACAD_REACTORS
330
E
102
}
330
E
  0
VISUALSTYLE
  5
2F
102
{ACAD_REACTORS
330
2A
102
}
102
{ACAD_XDICTIONARY
360
504
102
}
330
2A
100
AcDbVisualStyle
  2
2dWireframe
 70
     4
 71
     0
 72
     2
 73
     0
 90
        0
 40
-0.6
 41
-30.0
 62
     5
 63
     7
 74
     1
 91
        4
 64
     7
 65
   257
 75
     1
175
     1
 42
1.0
 92
        0
 66
   257
 43
1.0
 76
     1
 77
     6
 78
     2
 67
     7
 79
     5
170
     0
171
     0
290
     0
174
     0
 93
        1
 44
0.0
173
     0
291
     0
 45
0.0
1001
ACAD
1000
AcDbSavedByObjectVersion
1070
     0
  0
VISUALSTYLE
  5
31
102
{ACAD_REACTORS
330
2A
102
}
102
{ACAD_XDICTIONARY
360
508
102
}
330
2A
100
AcDbVisualStyle
  2
3D Hidden
 70
     6
 71
     1
 72
     2
 73
     2
 90
        0
 40
-0.6
 41
-30.0
 62
     5
 63
     7
 74
     2
 91
        2
 64
     7
 65
   257
 75
     2
175
     1
 42
40.0
 92
        0
 66
   257
 43
1.0
 76
     1
 77
     6
 78
     2
 67
     7
 79
     3
170
     0
171
     0
290
     0
174
     0
 93
        1
 44
0.0
173
     0
291
     0
 45
0.0
1001
ACAD
1000
AcDbSavedByObjectVersion
1070
     0
  0
VISUALSTYLE
  5
30
102
{ACAD_REACTORS
330
2A
102
}
102
{ACAD_XDICTIONARY
360
506
102
}
330
2A
100
AcDbVisualStyle
  2
3dWireframe
 70
     5
 71
     0
 72
     2
 73
     0
 90
        0
 40
-0.6
 41
-30.0
 62
     5
 63
     7
 74
     1
 91
        4
 64
     7
 65
   257
 75
     1
175
     1
 42
1.0
 92
        0
 66
   257
 43
1.0
 76
     1
 77
     6
 78
     2
 67
     7
 79
     5
170
     0
171
     0
290
     0
174
     0
 93
        1
 44
0.0
173
     0
291
     0
 45
0.0
1001
ACAD
1000
AcDbSavedByObjectVersion
1070
     0
  0
VISUALSTYLE
  5
32
102
{ACAD_REACTORS
330
2A
102
}
102
{ACAD_XDICTIONARY
360
50A
102
}
330
2A
100
AcDbVisualStyle
  2
Basic
 70
     7
 71
     1
 72
     0
 73
     1
 90
        0
 40
-0.6
 41
-30.0
 62
     5
 63
     7
 74
     0
 91
        4
 64
     7
 65
   257
 75
     1
175
     1
 42
1.0
 92
        8
 66
     7
 43
1.0
 76
     1
 77
     6
 78
     2
 67
     7
 79
     5
170
     0
171
     0
290
     0
174
     0
 93
        1
 44
0.0
173
     0
291
     1
 45
0.0
1001
ACAD
1000
AcDbSavedByObjectVersion
1070
     0
  0
VISUALSTYLE
  5
36
102
{ACAD_REACTORS
330
2A
102
}
102
{ACAD_XDICTIONARY
360
512
102
}
330
2A
100
AcDbVisualStyle
  2
Brighten
 70
    12
 71
     2
 72
     2
 73
     0
 90
        0
 40
-0.6
 41
-30.0
 62
     5
 63
     7
 74
     1
 91
        4
 64
     7
 65
   257
 75
     1
175
     1
 42
1.0
 92
        8
 66
     7
 43
1.0
 76
     1
 77
     6
 78
     2
 67
     7
 79
     5
170
     0
171
     0
290
     0
174
     0
 93
        1
 44
50.0
173
     0
291
     1
 45
0.0
1001
ACAD
1000
AcDbSavedByObjectVersion
1070
     0
  0
VISUALSTYLE
  5
3A
102
{ACAD_REACTORS
330
2A
102
}
102
{ACAD_XDICTIONARY
360
51A
102
}
330
2A
100
AcDbVisualStyle
  2
ColorChange
 70
    16
 71
     2
 72
     2
 73
     3
 90
        0
 40
-0.6
 41
-30.0
 62
     5
 63
     8
 74
     1
 91
        4
 64
     7
 65
   257
 75
     1
175
     1
 42
1.0
 92
        8
 66
     8
 43
1.0
 76
     1
 77
     6
 78
     2
 67
     7
 79
     5
170
     0
171
     0
290
     0
174
     0
 93
        1
 44
0.0
173
     0
291
     1
 45
0.0
1001
ACAD
1000
AcDbSavedByObjectVersion
1070
     0
  0
VISUALSTYLE
  5
34
102
{ACAD_REACTORS
330
2A
102
}
102
{ACAD_XDICTIONARY
360
50E
102
}
330
2A
100
AcDbVisualStyle
  2
Conceptual
 70
     9
 71
     3
 72
     2
 73
     0
 90
        0
 40
-0.6
 41
-30.0
 62
     5
 63
     7
 74
     2
 91
        2
 64
     7
 65
   257
 75
     1
175
     1
 42
40.0
 92
        8
 66
     7
 43
1.0
 76
     1
 77
     6
 78
     2
 67
     7
 79
     3
170
     0
171
     0
290
     0
174
     0
 93
        1
 44
0.0
173
     0
291
     0
 45
0.0
1001
ACAD
1000
AcDbSavedByObjectVersion
1070
     0
  0
VISUALSTYLE
  5
35
102
{ACAD_REACTORS
330
2A
102
}
102
{ACAD_XDICTIONARY
360
510
102
}
330
2A
100
AcDbVisualStyle
  2
Dim
 70
    11
 71
     2
 72
     2
 73
     0
 90
        0
 40
-0.6
 41
-30.0
 62
     5
 63
     7
 74
     1
 91
        4
 64
     7
 65
   257
 75
     1
175
     1
 42
1.0
 92
        8
 66
     7
 43
1.0
 76
     1
 77
     6
 78
     2
 67
     7
 79
     5
170
     0
171
     0
290
     0
174
     0
 93
        1
 44
-50.0
173
     0
291
     1
 45
0.0
1001
ACAD
1000
AcDbSavedByObjectVersion
1070
     0
  0
VISUALSTYLE
  5
39
102
{ACAD_REACTORS
330
2A
102
}
102
{ACAD_XDICTIONARY
360
518
102
}
330
2A
100
AcDbVisualStyle
  2
Facepattern
 70
    15
 71
     2
 72
     2
 73
     0
 90
        0
 40
-0.6
 41
-30.0
 62
     5
 63
     7
 74
     1
 91
        4
 64
     7
 65
   257
 75
     1
175
     1
 42
1.0
 92
        8
 66
     7
 43
1.0
 76
     1
 77
     6
 78
     2
 67
     7
 79
     5
170
     0
171
     0
290
     0
174
     0
 93
        1
 44
0.0
173
     0
291
     1
 45
0.0
1001
ACAD
1000
AcDbSavedByObjectVersion
1070
     0
  0
VISUALSTYLE
  5
2B
102
{ACAD_REACTORS
330
2A
102
}
102
{ACAD_XDICTIONARY
360
4FC
102
}
330
2A
100
AcDbVisualStyle
  2
Flat
 70
     0
 71
     2
 72
     1
 73
     1
 90
        2
 40
-0.6
 41
30.0
 62
     5
 63
     7
 74
     0
 91
        4
 64
     7
 65
   257
 75
     1
175
     1
 42
1.0
 92
        8
 66
     7
 43
1.0
 76
     1
 77
     6
 78
     2
 67
     7
 79
     5
170
     0
171
     0
290
     0
174
     0
 93
       13
 44
0.0
173
     0
291
     1
 45
0.0
1001
ACAD
1000
AcDbSavedByObjectVersion
1070
     0
  0
VISUALSTYLE
  5
2C
102
{ACAD_REACTORS
330
2A
102
}
102
{ACAD_XDICTIONARY
360
4FE
102
}
330
2A
100
AcDbVisualStyle
  2
FlatWithEdges
 70
     1
 71
     2
 72
     1
 73
     1
 90
        2
 40
-0.6
 41
30.0
 62
     5
 63
     7
 74
     1
 91
        4
 64
     7
 65
   257
 75
     1
175
     1
 42
1.0
 92
        0
 66
   257
 43
1.0
 76
     1
 77
     6
 78
     2
 67
     7
 79
     5
170
     0
171
     0
290
     0
174
     0
 93
       13
 44
0.0
173
     0
291
     1
 45
0.0
1001
ACAD
1000
AcDbSavedByObjectVersion
1070
     0
  0
VISUALSTYLE
  5
2D
102
{ACAD_REACTORS
330
2A
102
}
102
{ACAD_XDICTIONARY
360
500
102
}
330
2A
100
AcDbVisualStyle
  2
Gouraud
 70
     2
 71
     2
 72
     2
 73
     1
 90
        2
 40
-0.6
 41
30.0
 62
     5
 63
     7
 74
     0
 91
        4
 64
     7
 65
   257
 75
     1
175
     1
 42
1.0
 92
        0
 66
     7
 43
1.0
 76
     1
 77
     6
 78
     2
 67
     7
 79
     5
170
     0
171
     0
290
     0
174
     0
 93
       13
 44
0.0
173
     0
291
     1
 45
0.0
1001
ACAD
1000
AcDbSavedByObjectVersion
1070
     0
  0
VISUALSTYLE
  5
2E
102
{ACAD_REACTORS
330
2A
102
}
102
{ACAD_XDICTIONARY
360
502
102
}
330
2A
100
AcDbVisualStyle
  2
GouraudWithEdges
 70
     3
 71
     2
 72
     2
 73
     1
 90
        2
 40
-0.6
 41
30.0
 62
     5
 63
     7
 74
     1
 91
        4
 64
     7
 65
   257
 75
     1
175
     1
 42
1.0
 92
        0
 66
   257
 43
1.0
 76
     1
 77
     6
 78
     2
 67
     7
 79
     5
170
     0
171
     0
290
     0
174
     0
 93
       13
 44
0.0
173
     0
291
     1
 45
0.0
1001
ACAD
1000
AcDbSavedByObjectVersion
1070
     0
  0
VISUALSTYLE
  5
38
102
{ACAD_REACTORS
330
2A
102
}
102
{ACAD_XDICTIONARY
360
516
102
}
330
2A
100
AcDbVisualStyle
  2
Linepattern
 70
    14
 71
     2
 72
     2
 73
     0
 90
        0
 40
-0.6
 41
-30.0
 62
     5
 63
     7
 74
     1
 91
        4
 64
     7
 65
   257
 75
     7
175
     7
 42
1.0
 92
        8
 66
     7
 43
1.0
 76
     1
 77
     6
 78
     2
 67
     7
 79
     5
170
     0
171
     0
290
     0
174
     0
 93
        1
 44
0.0
173
     0
291
     1
 45
0.0
1001
ACAD
1000
AcDbSavedByObjectVersion
1070
     0
  0
VISUALSTYLE
  5
33
102
{ACAD_REACTORS
330
2A
102
}
102
{ACAD_XDICTIONARY
360
50C
102
}
330
2A
100
AcDbVisualStyle
  2
Realistic
 70
     8
 71
     2
 72
     2
 73
     0
 90
        0
 40
-0.6
 41
-30.0
 62
     5
 63
     7
 74
     1
 91
        0
 64
     7
 65
   257
 75
     1
175
     1
 42
1.0
 92
        8
 66
     8
 43
1.0
 76
     1
 77
     6
 78
     2
 67
     7
 79
     5
170
     0
171
     0
290
     0
174
     0
 93
       13
 44
0.0
173
     0
291
     0
 45
0.0
1001
ACAD
1000
AcDbSavedByObjectVersion
1070
     0
  0
VISUALSTYLE
  5
37
102
{ACAD_REACTORS
330
2A
102
}
102
{ACAD_XDICTIONARY
360
514
102
}
330
2A
100
AcDbVisualStyle
  2
Thicken
 70
    13
 71
     2
 72
     2
 73
     0
 90
        0
 40
-0.6
 41
-30.0
 62
     5
 63
     7
 74
     1
 91
        4
 64
     7
 65
   257
 75
     1
175
     1
 42
1.0
 92
       12
 66
     7
 43
1.0
 76
     1
 77
     6
 78
     2
 67
     7
 79
     5
170
     0
171
     0
290
     0
174
     0
 93
        1
 44
0.0
173
     0
291
     1
 45
0.0
1001
ACAD
1000
AcDbSavedByObjectVersion
1070
     0
  0
DICTIONARYVAR
  5
4FA
102
{ACAD_REACTORS
330
4F7
102
}
330
4F7
100
DictionaryVariables
280
     0
  1
2
  0
DICTIONARYVAR
  5
4FB
102
{ACAD_REACTORS
330
4F7
102
}
330
4F7
100
DictionaryVariables
280
     0
  1
1
  0
DICTIONARY
  5
51E
330
3D
100
AcDbDictionary
280
     1
281
     1
  3
ACAD_XREC_ROUNDTRIP
360
51F
  0
DICTIONARY
  5
51C
330
3C
100
AcDbDictionary
280
     1
281
     1
  3
ACAD_XREC_ROUNDTRIP
360
51D
  0
DICTIONARY
  5
520
330
3E
100
AcDbDictionary
280
     1
281
     1
  3
ACAD_XREC_ROUNDTRIP
360
521
  0
DICTIONARY
  5
504
330
2F
100
AcDbDictionary
280
     1
281
     1
  3
ACAD_XREC_ROUNDTRIP
360
505
  0
DICTIONARY
  5
508
330
31
100
AcDbDictionary
280
     1
281
     1
  3
ACAD_XREC_ROUNDTRIP
360
509
  0
DICTIONARY
  5
506
330
30
100
AcDbDictionary
280
     1
281
     1
  3
ACAD_XREC_ROUNDTRIP
360
507
  0
DICTIONARY
  5
50A
330
32
100
AcDbDictionary
280
     1
281
     1
  3
ACAD_XREC_ROUNDTRIP
360
50B
  0
DICTIONARY
  5
512
330
36
100
AcDbDictionary
280
     1
281
     1
  3
ACAD_XREC_ROUNDTRIP
360
513
  0
DICTIONARY
  5
51A
330
3A
100
AcDbDictionary
280
     1
281
     1
  3
ACAD_XREC_ROUNDTRIP
360
51B
  0
DICTIONARY
  5
50E
330
34
100
AcDbDictionary
280
     1
281
     1
  3
ACAD_XREC_ROUNDTRIP
360
50F
  0
DICTIONARY
  5
510
330
35
100
AcDbDictionary
280
     1
281
     1
  3
ACAD_XREC_ROUNDTRIP
360
511
  0
DICTIONARY
  5
518
330
39
100
AcDbDictionary
280
     1
281
     1
  3
ACAD_XREC_ROUNDTRIP
360
519
  0
DICTIONARY
  5
4FC
330
2B
100
AcDbDictionary
280
     1
281
     1
  3
ACAD_XREC_ROUNDTRIP
360
4FD
  0
DICTIONARY
  5
4FE
330
2C
100
AcDbDictionary
280
     1
281
     1
  3
ACAD_XREC_ROUNDTRIP
360
4FF
  0
DICTIONARY
  5
500
330
2D
100
AcDbDictionary
280
     1
281
     1
  3
ACAD_XREC_ROUNDTRIP
360
501
  0
DICTIONARY
  5
502
330
2E
100
AcDbDictionary
280
     1
281
     1
  3
ACAD_XREC_ROUNDTRIP
360
503
  0
DICTIONARY
  5
516
330
38
100
AcDbDictionary
280
     1
281
     1
  3
ACAD_XREC_ROUNDTRIP
360
517
  0
DICTIONARY
  5
50C
330
33
100
AcDbDictionary
280
     1
281
     1
  3
ACAD_XREC_ROUNDTRIP
360
50D
  0
DICTIONARY
  5
514
330
37
100
AcDbDictionary
280
     1
281
     1
  3
ACAD_XREC_ROUNDTRIP
360
515
  0
XRECORD
  5
51F
102
{ACAD_REACTORS
330
51E
102
}
330
51E
100
AcDbXrecord
280
     1
102
MATERIAL
148
0.0
149
0.0
149
0.0
 93
        0
 94
      127
282
     0
 72
     1
 77
     1
171
     1
175
     1
179
     1
273
     0
  0
XRECORD
  5
51D
102
{ACAD_REACTORS
330
51C
102
}
330
51C
100
AcDbXrecord
280
     1
102
MATERIAL
148
0.0
149
0.0
149
0.0
 93
        0
 94
      127
282
     0
 72
     1
 77
     1
171
     1
175
     1
179
     1
273
     0
  0
XRECORD
  5
521
102
{ACAD_REACTORS
330
520
102
}
330
520
100
AcDbXrecord
280
     1
102
MATERIAL
148
0.0
149
0.0
149
0.0
 93
        0
 94
      127
282
     0
 72
     1
 77
     1
171
     1
175
     1
179
     1
273
     0
  0
XRECORD
  5
505
102
{ACAD_REACTORS
330
504
102
}
330
504
100
AcDbXrecord
280
     1
102
RTVSPropertyOp0
 70
     1
102
RTVSPropertyOp1
 70
     1
102
RTVSPropertyOp2
 70
     1
102
RTVSPropertyOp3
 70
     1
102
RTVSPropertyOp4
 70
     1
102
RTVSPropertyOp5
 70
     1
102
RTVSPropertyOp6
 70
     1
102
RTVSPropertyOp7
 70
     1
102
RTVSPropertyOp8
 70
     1
102
RTVSPropertyOp9
 70
     1
102
RTVSPropertyOp10
 70
     1
102
RTVSPropertyOp11
 70
     1
102
RTVSPropertyOp12
 70
     1
102
RTVSPropertyOp13
 70
     1
102
RTVSPropertyOp14
 70
     1
102
RTVSPropertyOp15
 70
     1
102
RTVSPropertyOp16
 70
     1
102
RTVSPropertyOp17
 70
     1
102
RTVSPropertyOp18
 70
     1
102
RTVSPropertyOp19
 70
     1
102
RTVSPropertyOp20
 70
     1
102
RTVSPropertyOp21
 70
     1
102
RTVSPropertyOp22
 70
     1
102
RTVSPropertyOp23
 70
     1
102
RTVSPropertyOp24
 70
     1
102
RTVSPropertyOp25
 70
     1
102
RTVSPropertyOp26
 70
     1
102
RTVSPropertyOp27
 70
     1
102
RTVSPropertyOp28
 70
     1
102
RTVSPropertyOp29
 70
     1
102
RTVSPropertyOp30
 70
     1
102
RTVSPropertyOp31
 70
     1
102
RTVSPropertyOp32
 70
     1
  0
XRECORD
  5
509
102
{ACAD_REACTORS
330
508
102
}
330
508
100
AcDbXrecord
280
     1
102
RTVSPropertyOp0
 70
     1
102
RTVSPropertyOp1
 70
     1
102
RTVSPropertyOp2
 70
     1
102
RTVSPropertyOp3
 70
     1
102
RTVSPropertyOp4
 70
     1
102
RTVSPropertyOp5
 70
     1
102
RTVSPropertyOp6
 70
     1
102
RTVSPropertyOp7
 70
     1
102
RTVSPropertyOp8
 70
     1
102
RTVSPropertyOp9
 70
     1
102
RTVSPropertyOp10
 70
     1
102
RTVSPropertyOp11
 70
     1
102
RTVSPropertyOp12
 70
     1
102
RTVSPropertyOp13
 70
     1
102
RTVSPropertyOp14
 70
     1
102
RTVSPropertyOp15
 70
     1
102
RTVSPropertyOp16
 70
     1
102
RTVSPropertyOp17
 70
     1
102
RTVSPropertyOp18
 70
     1
102
RTVSPropertyOp19
 70
     1
102
RTVSPropertyOp20
 70
     1
102
RTVSPropertyOp21
 70
     1
102
RTVSPropertyOp22
 70
     1
102
RTVSPropertyOp23
 70
     1
102
RTVSPropertyOp24
 70
     1
102
RTVSPropertyOp25
 70
     1
102
RTVSPropertyOp26
 70
     1
102
RTVSPropertyOp27
 70
     1
102
RTVSPropertyOp28
 70
     1
102
RTVSPropertyOp29
 70
     1
102
RTVSPropertyOp30
 70
     1
102
RTVSPropertyOp31
 70
     1
102
RTVSPropertyOp32
 70
     1
  0
XRECORD
  5
507
102
{ACAD_REACTORS
330
506
102
}
330
506
100
AcDbXrecord
280
     1
102
RTVSPropertyOp0
 70
     1
102
RTVSPropertyOp1
 70
     1
102
RTVSPropertyOp2
 70
     1
102
RTVSPropertyOp3
 70
     1
102
RTVSPropertyOp4
 70
     1
102
RTVSPropertyOp5
 70
     1
102
RTVSPropertyOp6
 70
     1
102
RTVSPropertyOp7
 70
     1
102
RTVSPropertyOp8
 70
     1
102
RTVSPropertyOp9
 70
     1
102
RTVSPropertyOp10
 70
     1
102
RTVSPropertyOp11
 70
     1
102
RTVSPropertyOp12
 70
     1
102
RTVSPropertyOp13
 70
     1
102
RTVSPropertyOp14
 70
     1
102
RTVSPropertyOp15
 70
     1
102
RTVSPropertyOp16
 70
     1
102
RTVSPropertyOp17
 70
     1
102
RTVSPropertyOp18
 70
     1
102
RTVSPropertyOp19
 70
     1
102
RTVSPropertyOp20
 70
     1
102
RTVSPropertyOp21
 70
     1
102
RTVSPropertyOp22
 70
     1
102
RTVSPropertyOp23
 70
     1
102
RTVSPropertyOp24
 70
     1
102
RTVSPropertyOp25
 70
     1
102
RTVSPropertyOp26
 70
     1
102
RTVSPropertyOp27
 70
     1
102
RTVSPropertyOp28
 70
     1
102
RTVSPropertyOp29
 70
     1
102
RTVSPropertyOp30
 70
     1
102
RTVSPropertyOp31
 70
     1
102
RTVSPropertyOp32
 70
     1
  0
XRECORD
  5
50B
102
{ACAD_REACTORS
330
50A
102
}
330
50A
100
AcDbXrecord
280
     1
102
RTVSPropertyOp0
 70
     1
102
RTVSPropertyOp1
 70
     1
102
RTVSPropertyOp2
 70
     1
102
RTVSPropertyOp3
 70
     1
102
RTVSPropertyOp4
 70
     1
102
RTVSPropertyOp5
 70
     1
102
RTVSPropertyOp6
 70
     1
102
RTVSPropertyOp7
 70
     1
102
RTVSPropertyOp8
 70
     1
102
RTVSPropertyOp9
 70
     1
102
RTVSPropertyOp10
 70
     1
102
RTVSPropertyOp11
 70
     1
102
RTVSPropertyOp12
 70
     1
102
RTVSPropertyOp13
 70
     1
102
RTVSPropertyOp14
 70
     1
102
RTVSPropertyOp15
 70
     1
102
RTVSPropertyOp16
 70
     1
102
RTVSPropertyOp17
 70
     1
102
RTVSPropertyOp18
 70
     1
102
RTVSPropertyOp19
 70
     1
102
RTVSPropertyOp20
 70
     1
102
RTVSPropertyOp21
 70
     1
102
RTVSPropertyOp22
 70
     1
102
RTVSPropertyOp23
 70
     1
102
RTVSPropertyOp24
 70
     1
102
RTVSPropertyOp25
 70
     1
102
RTVSPropertyOp26
 70
     1
102
RTVSPropertyOp27
 70
     1
102
RTVSPropertyOp28
 70
     1
102
RTVSPropertyOp29
 70
     1
102
RTVSPropertyOp30
 70
     1
102
RTVSPropertyOp31
 70
     1
102
RTVSPropertyOp32
 70
     1
  0
XRECORD
  5
513
102
{ACAD_REACTORS
330
512
102
}
330
512
100
AcDbXrecord
280
     1
102
RTVSPropertyOp0
 70
     1
102
RTVSPropertyOp1
 70
     1
102
RTVSPropertyOp2
 70
     1
102
RTVSPropertyOp3
 70
     1
102
RTVSPropertyOp4
 70
     1
102
RTVSPropertyOp5
 70
     1
102
RTVSPropertyOp6
 70
     1
102
RTVSPropertyOp7
 70
     1
102
RTVSPropertyOp8
 70
     1
102
RTVSPropertyOp9
 70
     1
102
RTVSPropertyOp10
 70
     1
102
RTVSPropertyOp11
 70
     1
102
RTVSPropertyOp12
 70
     1
102
RTVSPropertyOp13
 70
     1
102
RTVSPropertyOp14
 70
     1
102
RTVSPropertyOp15
 70
     1
102
RTVSPropertyOp16
 70
     1
102
RTVSPropertyOp17
 70
     1
102
RTVSPropertyOp18
 70
     1
102
RTVSPropertyOp19
 70
     1
102
RTVSPropertyOp20
 70
     1
102
RTVSPropertyOp21
 70
     1
102
RTVSPropertyOp22
 70
     1
102
RTVSPropertyOp23
 70
     1
102
RTVSPropertyOp24
 70
     1
102
RTVSPropertyOp25
 70
     1
102
RTVSPropertyOp26
 70
     1
102
RTVSPropertyOp27
 70
     1
102
RTVSPropertyOp28
 70
     1
102
RTVSPropertyOp29
 70
     1
102
RTVSPropertyOp30
 70
     1
102
RTVSPropertyOp31
 70
     1
102
RTVSPropertyOp32
 70
     1
  0
XRECORD
  5
51B
102
{ACAD_REACTORS
330
51A
102
}
330
51A
100
AcDbXrecord
280
     1
102
RTVSPropertyOp0
 70
     1
102
RTVSPropertyOp1
 70
     1
102
RTVSPropertyOp2
 70
     1
102
RTVSPropertyOp3
 70
     1
102
RTVSPropertyOp4
 70
     1
102
RTVSPropertyOp5
 70
     1
102
RTVSPropertyOp6
 70
     1
102
RTVSPropertyOp7
 70
     1
102
RTVSPropertyOp8
 70
     1
102
RTVSPropertyOp9
 70
     1
102
RTVSPropertyOp10
 70
     1
102
RTVSPropertyOp11
 70
     1
102
RTVSPropertyOp12
 70
     1
102
RTVSPropertyOp13
 70
     1
102
RTVSPropertyOp14
 70
     1
102
RTVSPropertyOp15
 70
     1
102
RTVSPropertyOp16
 70
     1
102
RTVSPropertyOp17
 70
     1
102
RTVSPropertyOp18
 70
     1
102
RTVSPropertyOp19
 70
     1
102
RTVSPropertyOp20
 70
     1
102
RTVSPropertyOp21
 70
     1
102
RTVSPropertyOp22
 70
     1
102
RTVSPropertyOp23
 70
     1
102
RTVSPropertyOp24
 70
     1
102
RTVSPropertyOp25
 70
     1
102
RTVSPropertyOp26
 70
     1
102
RTVSPropertyOp27
 70
     1
102
RTVSPropertyOp28
 70
     1
102
RTVSPropertyOp29
 70
     1
102
RTVSPropertyOp30
 70
     1
102
RTVSPropertyOp31
 70
     1
102
RTVSPropertyOp32
 70
     1
  0
XRECORD
  5
50F
102
{ACAD_REACTORS
330
50E
102
}
330
50E
100
AcDbXrecord
280
     1
102
RTVSPropertyOp0
 70
     1
102
RTVSPropertyOp1
 70
     1
102
RTVSPropertyOp2
 70
     1
102
RTVSPropertyOp3
 70
     1
102
RTVSPropertyOp4
 70
     1
102
RTVSPropertyOp5
 70
     1
102
RTVSPropertyOp6
 70
     1
102
RTVSPropertyOp7
 70
     1
102
RTVSPropertyOp8
 70
     1
102
RTVSPropertyOp9
 70
     1
102
RTVSPropertyOp10
 70
     1
102
RTVSPropertyOp11
 70
     1
102
RTVSPropertyOp12
 70
     1
102
RTVSPropertyOp13
 70
     1
102
RTVSPropertyOp14
 70
     1
102
RTVSPropertyOp15
 70
     1
102
RTVSPropertyOp16
 70
     1
102
RTVSPropertyOp17
 70
     1
102
RTVSPropertyOp18
 70
     1
102
RTVSPropertyOp19
 70
     1
102
RTVSPropertyOp20
 70
     1
102
RTVSPropertyOp21
 70
     1
102
RTVSPropertyOp22
 70
     1
102
RTVSPropertyOp23
 70
     1
102
RTVSPropertyOp24
 70
     1
102
RTVSPropertyOp25
 70
     1
102
RTVSPropertyOp26
 70
     1
102
RTVSPropertyOp27
 70
     1
102
RTVSPropertyOp28
 70
     1
102
RTVSPropertyOp29
 70
     1
102
RTVSPropertyOp30
 70
     1
102
RTVSPropertyOp31
 70
     1
102
RTVSPropertyOp32
 70
     1
  0
XRECORD
  5
511
102
{ACAD_REACTORS
330
510
102
}
330
510
100
AcDbXrecord
280
     1
102
RTVSPropertyOp0
 70
     1
102
RTVSPropertyOp1
 70
     1
102
RTVSPropertyOp2
 70
     1
102
RTVSPropertyOp3
 70
     1
102
RTVSPropertyOp4
 70
     1
102
RTVSPropertyOp5
 70
     1
102
RTVSPropertyOp6
 70
     1
102
RTVSPropertyOp7
 70
     1
102
RTVSPropertyOp8
 70
     1
102
RTVSPropertyOp9
 70
     1
102
RTVSPropertyOp10
 70
     1
102
RTVSPropertyOp11
 70
     1
102
RTVSPropertyOp12
 70
     1
102
RTVSPropertyOp13
 70
     1
102
RTVSPropertyOp14
 70
     1
102
RTVSPropertyOp15
 70
     1
102
RTVSPropertyOp16
 70
     1
102
RTVSPropertyOp17
 70
     1
102
RTVSPropertyOp18
 70
     1
102
RTVSPropertyOp19
 70
     1
102
RTVSPropertyOp20
 70
     1
102
RTVSPropertyOp21
 70
     1
102
RTVSPropertyOp22
 70
     1
102
RTVSPropertyOp23
 70
     1
102
RTVSPropertyOp24
 70
     1
102
RTVSPropertyOp25
 70
     1
102
RTVSPropertyOp26
 70
     1
102
RTVSPropertyOp27
 70
     1
102
RTVSPropertyOp28
 70
     1
102
RTVSPropertyOp29
 70
     1
102
RTVSPropertyOp30
 70
     1
102
RTVSPropertyOp31
 70
     1
102
RTVSPropertyOp32
 70
     1
  0
XRECORD
  5
519
102
{ACAD_REACTORS
330
518
102
}
330
518
100
AcDbXrecord
280
     1
102
RTVSPropertyOp0
 70
     1
102
RTVSPropertyOp1
 70
     1
102
RTVSPropertyOp2
 70
     1
102
RTVSPropertyOp3
 70
     1
102
RTVSPropertyOp4
 70
     1
102
RTVSPropertyOp5
 70
     1
102
RTVSPropertyOp6
 70
     1
102
RTVSPropertyOp7
 70
     1
102
RTVSPropertyOp8
 70
     1
102
RTVSPropertyOp9
 70
     1
102
RTVSPropertyOp10
 70
     1
102
RTVSPropertyOp11
 70
     1
102
RTVSPropertyOp12
 70
     1
102
RTVSPropertyOp13
 70
     1
102
RTVSPropertyOp14
 70
     1
102
RTVSPropertyOp15
 70
     1
102
RTVSPropertyOp16
 70
     1
102
RTVSPropertyOp17
 70
     1
102
RTVSPropertyOp18
 70
     1
102
RTVSPropertyOp19
 70
     1
102
RTVSPropertyOp20
 70
     1
102
RTVSPropertyOp21
 70
     1
102
RTVSPropertyOp22
 70
     1
102
RTVSPropertyOp23
 70
     1
102
RTVSPropertyOp24
 70
     1
102
RTVSPropertyOp25
 70
     1
102
RTVSPropertyOp26
 70
     1
102
RTVSPropertyOp27
 70
     1
102
RTVSPropertyOp28
 70
     1
102
RTVSPropertyOp29
 70
     1
102
RTVSPropertyOp30
 70
     1
102
RTVSPropertyOp31
 70
     1
102
RTVSPropertyOp32
 70
     1
  0
XRECORD
  5
4FD
102
{ACAD_REACTORS
330
4FC
102
}
330
4FC
100
AcDbXrecord
280
     1
102
RTVSPropertyOp0
 70
     1
102
RTVSPropertyOp1
 70
     1
102
RTVSPropertyOp2
 70
     1
102
RTVSPropertyOp3
 70
     1
102
RTVSPropertyOp4
 70
     1
102
RTVSPropertyOp5
 70
     1
102
RTVSPropertyOp6
 70
     1
102
RTVSPropertyOp7
 70
     1
102
RTVSPropertyOp8
 70
     1
102
RTVSPropertyOp9
 70
     1
102
RTVSPropertyOp10
 70
     1
102
RTVSPropertyOp11
 70
     1
102
RTVSPropertyOp12
 70
     1
102
RTVSPropertyOp13
 70
     1
102
RTVSPropertyOp14
 70
     1
102
RTVSPropertyOp15
 70
     1
102
RTVSPropertyOp16
 70
     1
102
RTVSPropertyOp17
 70
     1
102
RTVSPropertyOp18
 70
     1
102
RTVSPropertyOp19
 70
     1
102
RTVSPropertyOp20
 70
     1
102
RTVSPropertyOp21
 70
     1
102
RTVSPropertyOp22
 70
     1
102
RTVSPropertyOp23
 70
     1
102
RTVSPropertyOp24
 70
     1
102
RTVSPropertyOp25
 70
     1
102
RTVSPropertyOp26
 70
     1
102
RTVSPropertyOp27
 70
     1
102
RTVSPropertyOp28
 70
     1
102
RTVSPropertyOp29
 70
     1
102
RTVSPropertyOp30
 70
     1
102
RTVSPropertyOp31
 70
     1
102
RTVSPropertyOp32
 70
     1
  0
XRECORD
  5
4FF
102
{ACAD_REACTORS
330
4FE
102
}
330
4FE
100
AcDbXrecord
280
     1
102
RTVSPropertyOp0
 70
     1
102
RTVSPropertyOp1
 70
     1
102
RTVSPropertyOp2
 70
     1
102
RTVSPropertyOp3
 70
     1
102
RTVSPropertyOp4
 70
     1
102
RTVSPropertyOp5
 70
     1
102
RTVSPropertyOp6
 70
     1
102
RTVSPropertyOp7
 70
     1
102
RTVSPropertyOp8
 70
     1
102
RTVSPropertyOp9
 70
     1
102
RTVSPropertyOp10
 70
     1
102
RTVSPropertyOp11
 70
     1
102
RTVSPropertyOp12
 70
     1
102
RTVSPropertyOp13
 70
     1
102
RTVSPropertyOp14
 70
     1
102
RTVSPropertyOp15
 70
     1
102
RTVSPropertyOp16
 70
     1
102
RTVSPropertyOp17
 70
     1
102
RTVSPropertyOp18
 70
     1
102
RTVSPropertyOp19
 70
     1
102
RTVSPropertyOp20
 70
     1
102
RTVSPropertyOp21
 70
     1
102
RTVSPropertyOp22
 70
     1
102
RTVSPropertyOp23
 70
     1
102
RTVSPropertyOp24
 70
     1
102
RTVSPropertyOp25
 70
     1
102
RTVSPropertyOp26
 70
     1
102
RTVSPropertyOp27
 70
     1
102
RTVSPropertyOp28
 70
     1
102
RTVSPropertyOp29
 70
     1
102
RTVSPropertyOp30
 70
     1
102
RTVSPropertyOp31
 70
     1
102
RTVSPropertyOp32
 70
     1
  0
XRECORD
  5
501
102
{ACAD_REACTORS
330
500
102
}
330
500
100
AcDbXrecord
280
     1
102
RTVSPropertyOp0
 70
     1
102
RTVSPropertyOp1
 70
     1
102
RTVSPropertyOp2
 70
     1
102
RTVSPropertyOp3
 70
     1
102
RTVSPropertyOp4
 70
     1
102
RTVSPropertyOp5
 70
     1
102
RTVSPropertyOp6
 70
     1
102
RTVSPropertyOp7
 70
     1
102
RTVSPropertyOp8
 70
     1
102
RTVSPropertyOp9
 70
     1
102
RTVSPropertyOp10
 70
     1
102
RTVSPropertyOp11
 70
     1
102
RTVSPropertyOp12
 70
     1
102
RTVSPropertyOp13
 70
     1
102
RTVSPropertyOp14
 70
     1
102
RTVSPropertyOp15
 70
     1
102
RTVSPropertyOp16
 70
     1
102
RTVSPropertyOp17
 70
     1
102
RTVSPropertyOp18
 70
     1
102
RTVSPropertyOp19
 70
     1
102
RTVSPropertyOp20
 70
     1
102
RTVSPropertyOp21
 70
     1
102
RTVSPropertyOp22
 70
     1
102
RTVSPropertyOp23
 70
     1
102
RTVSPropertyOp24
 70
     1
102
RTVSPropertyOp25
 70
     1
102
RTVSPropertyOp26
 70
     1
102
RTVSPropertyOp27
 70
     1
102
RTVSPropertyOp28
 70
     1
102
RTVSPropertyOp29
 70
     1
102
RTVSPropertyOp30
 70
     1
102
RTVSPropertyOp31
 70
     1
102
RTVSPropertyOp32
 70
     1
  0
XRECORD
  5
503
102
{ACAD_REACTORS
330
502
102
}
330
502
100
AcDbXrecord
280
     1
102
RTVSPropertyOp0
 70
     1
102
RTVSPropertyOp1
 70
     1
102
RTVSPropertyOp2
 70
     1
102
RTVSPropertyOp3
 70
     1
102
RTVSPropertyOp4
 70
     1
102
RTVSPropertyOp5
 70
     1
102
RTVSPropertyOp6
 70
     1
102
RTVSPropertyOp7
 70
     1
102
RTVSPropertyOp8
 70
     1
102
RTVSPropertyOp9
 70
     1
102
RTVSPropertyOp10
 70
     1
102
RTVSPropertyOp11
 70
     1
102
RTVSPropertyOp12
 70
     1
102
RTVSPropertyOp13
 70
     1
102
RTVSPropertyOp14
 70
     1
102
RTVSPropertyOp15
 70
     1
102
RTVSPropertyOp16
 70
     1
102
RTVSPropertyOp17
 70
     1
102
RTVSPropertyOp18
 70
     1
102
RTVSPropertyOp19
 70
     1
102
RTVSPropertyOp20
 70
     1
102
RTVSPropertyOp21
 70
     1
102
RTVSPropertyOp22
 70
     1
102
RTVSPropertyOp23
 70
     1
102
RTVSPropertyOp24
 70
     1
102
RTVSPropertyOp25
 70
     1
102
RTVSPropertyOp26
 70
     1
102
RTVSPropertyOp27
 70
     1
102
RTVSPropertyOp28
 70
     1
102
RTVSPropertyOp29
 70
     1
102
RTVSPropertyOp30
 70
     1
102
RTVSPropertyOp31
 70
     1
102
RTVSPropertyOp32
 70
     1
  0
XRECORD
  5
517
102
{ACAD_REACTORS
330
516
102
}
330
516
100
AcDbXrecord
280
     1
102
RTVSPropertyOp0
 70
     1
102
RTVSPropertyOp1
 70
     1
102
RTVSPropertyOp2
 70
     1
102
RTVSPropertyOp3
 70
     1
102
RTVSPropertyOp4
 70
     1
102
RTVSPropertyOp5
 70
     1
102
RTVSPropertyOp6
 70
     1
102
RTVSPropertyOp7
 70
     1
102
RTVSPropertyOp8
 70
     1
102
RTVSPropertyOp9
 70
     1
102
RTVSPropertyOp10
 70
     1
102
RTVSPropertyOp11
 70
     1
102
RTVSPropertyOp12
 70
     1
102
RTVSPropertyOp13
 70
     1
102
RTVSPropertyOp14
 70
     1
102
RTVSPropertyOp15
 70
     1
102
RTVSPropertyOp16
 70
     1
102
RTVSPropertyOp17
 70
     1
102
RTVSPropertyOp18
 70
     1
102
RTVSPropertyOp19
 70
     1
102
RTVSPropertyOp20
 70
     1
102
RTVSPropertyOp21
 70
     1
102
RTVSPropertyOp22
 70
     1
102
RTVSPropertyOp23
 70
     1
102
RTVSPropertyOp24
 70
     1
102
RTVSPropertyOp25
 70
     1
102
RTVSPropertyOp26
 70
     1
102
RTVSPropertyOp27
 70
     1
102
RTVSPropertyOp28
 70
     1
102
RTVSPropertyOp29
 70
     1
102
RTVSPropertyOp30
 70
     1
102
RTVSPropertyOp31
 70
     1
102
RTVSPropertyOp32
 70
     1
  0
XRECORD
  5
50D
102
{ACAD_REACTORS
330
50C
102
}
330
50C
100
AcDbXrecord
280
     1
102
RTVSPropertyOp0
 70
     1
102
RTVSPropertyOp1
 70
     1
102
RTVSPropertyOp2
 70
     1
102
RTVSPropertyOp3
 70
     1
102
RTVSPropertyOp4
 70
     1
102
RTVSPropertyOp5
 70
     1
102
RTVSPropertyOp6
 70
     1
102
RTVSPropertyOp7
 70
     1
102
RTVSPropertyOp8
 70
     1
102
RTVSPropertyOp9
 70
     1
102
RTVSPropertyOp10
 70
     1
102
RTVSPropertyOp11
 70
     1
102
RTVSPropertyOp12
 70
     1
102
RTVSPropertyOp13
 70
     1
102
RTVSPropertyOp14
 70
     1
102
RTVSPropertyOp15
 70
     1
102
RTVSPropertyOp16
 70
     1
102
RTVSPropertyOp17
 70
     1
102
RTVSPropertyOp18
 70
     1
102
RTVSPropertyOp19
 70
     1
102
RTVSPropertyOp20
 70
     1
102
RTVSPropertyOp21
 70
     1
102
RTVSPropertyOp22
 70
     1
102
RTVSPropertyOp23
 70
     1
102
RTVSPropertyOp24
 70
     1
102
RTVSPropertyOp25
 70
     1
102
RTVSPropertyOp26
 70
     1
102
RTVSPropertyOp27
 70
     1
102
RTVSPropertyOp28
 70
     1
102
RTVSPropertyOp29
 70
     1
102
RTVSPropertyOp30
 70
     1
102
RTVSPropertyOp31
 70
     1
102
RTVSPropertyOp32
 70
     1
  0
XRECORD
  5
515
102
{ACAD_REACTORS
330
514
102
}
330
514
100
AcDbXrecord
280
     1
102
RTVSPropertyOp0
 70
     1
102
RTVSPropertyOp1
 70
     1
102
RTVSPropertyOp2
 70
     1
102
RTVSPropertyOp3
 70
     1
102
RTVSPropertyOp4
 70
     1
102
RTVSPropertyOp5
 70
     1
102
RTVSPropertyOp6
 70
     1
102
RTVSPropertyOp7
 70
     1
102
RTVSPropertyOp8
 70
     1
102
RTVSPropertyOp9
 70
     1
102
RTVSPropertyOp10
 70
     1
102
RTVSPropertyOp11
 70
     1
102
RTVSPropertyOp12
 70
     1
102
RTVSPropertyOp13
 70
     1
102
RTVSPropertyOp14
 70
     1
102
RTVSPropertyOp15
 70
     1
102
RTVSPropertyOp16
 70
     1
102
RTVSPropertyOp17
 70
     1
102
RTVSPropertyOp18
 70
     1
102
RTVSPropertyOp19
 70
     1
102
RTVSPropertyOp20
 70
     1
102
RTVSPropertyOp21
 70
     1
102
RTVSPropertyOp22
 70
     1
102
RTVSPropertyOp23
 70
     1
102
RTVSPropertyOp24
 70
     1
102
RTVSPropertyOp25
 70
     1
102
RTVSPropertyOp26
 70
     1
102
RTVSPropertyOp27
 70
     1
102
RTVSPropertyOp28
 70
     1
102
RTVSPropertyOp29
 70
     1
102
RTVSPropertyOp30
 70
     1
102
RTVSPropertyOp31
 70
     1
102
RTVSPropertyOp32
 70
     1
  0
ENDSEC
  0
EOF
