  0
SECTION
  2
HEADER
  9
$ACADVER
  1
AC1015
  9
$ACADMAINTVER
 70
     6
  9
$DWGCODEPAGE
  3
DOS932
  9
$INSBASE
 10
0.0
 20
0.0
 30
0.0
  9
$EXTMIN
 10
0.0
 20
0.0
 30
0.0
  9
$EXTMAX
 10
420.0
 20
594.0
 30
0.0
  9
$LIMMIN
 10
0.0
 20
0.0
  9
$LIMMAX
 10
12.0
 20
9.0
  9
$ORTHOMODE
 70
     0
  9
$REGENMODE
 70
     1
  9
$FILLMODE
 70
     1
  9
$QTEXTMODE
 70
     0
  9
$MIRRTEXT
 70
     1
  9
$LTSCALE
 40
1.0
  9
$ATTMODE
 70
     1
  9
$TEXTSIZE
 40
0.2
  9
$TRACEWID
 40
0.05
  9
$TEXTSTYLE
  7
Standard
  9
$CLAYER
  8
0
  9
$CELTYPE
  6
ByLayer
  9
$CECOLOR
 62
   256
  9
$CELTSCALE
 40
1.0
  9
$DISPSILH
 70
     0
  9
$DIMSCALE
 40
1.0
  9
$DIMASZ
 40
0.18
  9
$DIMEXO
 40
0.0625
  9
$DIMDLI
 40
0.38
  9
$DIMRND
 40
0.0
  9
$DIMDLE
 40
0.0
  9
$DIMEXE
 40
0.18
  9
$DIMTP
 40
0.0
  9
$DIMTM
 40
0.0
  9
$DIMTXT
 40
0.18
  9
$DIMCEN
 40
0.09
  9
$DIMTSZ
 40
0.0
  9
$DIMTOL
 70
     0
  9
$DIMLIM
 70
     0
  9
$DIMTIH
 70
     1
  9
$DIMTOH
 70
     1
  9
$DIMSE1
 70
     0
  9
$DIMSE2
 70
     0
  9
$DIMTAD
 70
     0
  9
$DIMZIN
 70
     0
  9
$DIMBLK
  1

  9
$DIMASO
 70
     1
  9
$DIMSHO
 70
     1
  9
$DIMPOST
  1

  9
$DIMAPOST
  1

  9
$DIMALT
 70
     0
  9
$DIMALTD
 70
     2
  9
$DIMALTF
 40
25.4
  9
$DIMLFAC
 40
1.0
  9
$DIMTOFL
 70
     0
  9
$DIMTVP
 40
0.0
  9
$DIMTIX
 70
     0
  9
$DIMSOXD
 70
     0
  9
$DIMSAH
 70
     0
  9
$DIMBLK1
  1

  9
$DIMBLK2
  1

  9
$DIMSTYLE
  2
Standard
  9
$DIMCLRD
 70
     0
  9
$DIMCLRE
 70
     0
  9
$DIMCLRT
 70
     0
  9
$DIMTFAC
 40
1.0
  9
$DIMGAP
 40
0.09
  9
$DIMJUST
 70
     0
  9
$DIMSD1
 70
     0
  9
$DIMSD2
 70
     0
  9
$DIMTOLJ
 70
     1
  9
$DIMTZIN
 70
     0
  9
$DIMALTZ
 70
     0
  9
$DIMALTTZ
 70
     0
  9
$DIMUPT
 70
     0
  9
$DIMDEC
 70
     4
  9
$DIMTDEC
 70
     4
  9
$DIMALTU
 70
     2
  9
$DIMALTTD
 70
     2
  9
$DIMTXSTY
  7
Standard
  9
$DIMAUNIT
 70
     0
  9
$DIMADEC
 70
     0
  9
$DIMALTRND
 40
0.0
  9
$DIMAZIN
 70
     0
  9
$DIMDSEP
 70
    46
  9
$DIMATFIT
 70
     3
  9
$DIMFRAC
 70
     0
  9
$DIMLDRBLK
  1

  9
$DIMLUNIT
 70
     2
  9
$DIMLWD
 70
    -2
  9
$DIMLWE
 70
    -2
  9
$DIMTMOVE
 70
     0
  9
$LUNITS
 70
     2
  9
$LUPREC
 70
     4
  9
$SKETCHINC
 40
0.1
  9
$FILLETRAD
 40
0.5
  9
$AUNITS
 70
     0
  9
$AUPREC
 70
     0
  9
$MENU
  1
.
  9
$ELEVATION
 40
0.0
  9
$PELEVATION
 40
0.0
  9
$THICKNESS
 40
0.0
  9
$LIMCHECK
 70
     0
  9
$CHAMFERA
 40
0.5
  9
$CHAMFERB
 40
0.5
  9
$CHAMFERC
 40
1.0
  9
$CHAMFERD
 40
0.0
  9
$SKPOLY
 70
     0
  9
$TDCREATE
 40
2456143.577322581
  9
$TDUCREATE
 40
2456143.202322581
  9
$TDUPDATE
 40
2456143.577322593
  9
$TDUUPDATE
 40
2456143.202322593
  9
$TDINDWG
 40
0.0000000116
  9
$TDUSRTIMER
 40
0.0000000116
  9
$USRTIMER
 70
     1
  9
$ANGBASE
 50
0.0
  9
$ANGDIR
 70
     0
  9
$PDMODE
 70
     0
  9
$PDSIZE
 40
0.0
  9
$PLINEWID
 40
0.0
  9
$SPLFRAME
 70
     0
  9
$SPLINETYPE
 70
     6
  9
$SPLINESEGS
 70
     8
  9
$HANDSEED
  5
488
  9
$SURFTAB1
 70
     6
  9
$SURFTAB2
 70
     6
  9
$SURFTYPE
 70
     6
  9
$SURFU
 70
     6
  9
$SURFV
 70
     6
  9
$UCSBASE
  2

  9
$UCSNAME
  2

  9
$UCSORG
 10
0.0
 20
0.0
 30
0.0
  9
$UCSXDIR
 10
1.0
 20
0.0
 30
0.0
  9
$UCSYDIR
 10
0.0
 20
1.0
 30
0.0
  9
$UCSORTHOREF
  2

  9
$UCSORTHOVIEW
 70
     0
  9
$UCSORGTOP
 10
0.0
 20
0.0
 30
0.0
  9
$UCSORGBOTTOM
 10
0.0
 20
0.0
 30
0.0
  9
$UCSORGLEFT
 10
0.0
 20
0.0
 30
0.0
  9
$UCSORGRIGHT
 10
0.0
 20
0.0
 30
0.0
  9
$UCSORGFRONT
 10
0.0
 20
0.0
 30
0.0
  9
$UCSORGBACK
 10
0.0
 20
0.0
 30
0.0
  9
$PUCSBASE
  2

  9
$PUCSNAME
  2

  9
$PUCSORG
 10
0.0
 20
0.0
 30
0.0
  9
$PUCSXDIR
 10
1.0
 20
0.0
 30
0.0
  9
$PUCSYDIR
 10
0.0
 20
1.0
 30
0.0
  9
$PUCSORTHOREF
  2

  9
$PUCSORTHOVIEW
 70
     0
  9
$PUCSORGTOP
 10
0.0
 20
0.0
 30
0.0
  9
$PUCSORGBOTTOM
 10
0.0
 20
0.0
 30
0.0
  9
$PUCSORGLEFT
 10
0.0
 20
0.0
 30
0.0
  9
$PUCSORGRIGHT
 10
0.0
 20
0.0
 30
0.0
  9
$PUCSORGFRONT
 10
0.0
 20
0.0
 30
0.0
  9
$PUCSORGBACK
 10
0.0
 20
0.0
 30
0.0
  9
$USERI1
 70
     0
  9
$USERI2
 70
     0
  9
$USERI3
 70
     0
  9
$USERI4
 70
     0
  9
$USERI5
 70
     0
  9
$USERR1
 40
13.2
  9
$USERR2
 40
0.0
  9
$USERR3
 40
0.0
  9
$USERR4
 40
0.0
  9
$USERR5
 40
0.0
  9
$WORLDVIEW
 70
     1
  9
$SHADEDGE
 70
     3
  9
$SHADEDIF
 70
    70
  9
$TILEMODE
 70
     1
  9
$MAXACTVP
 70
    64
  9
$PINSBASE
 10
0.0
 20
0.0
 30
0.0
  9
$PLIMCHECK
 70
     0
  9
$PEXTMIN
 10
1.00000000000000E+20
 20
1.00000000000000E+20
 30
1.00000000000000E+20
  9
$PEXTMAX
 10
-1.00000000000000E+20
 20
-1.00000000000000E+20
 30
-1.00000000000000E+20
  9
$PLIMMIN
 10
0.0
 20
0.0
  9
$PLIMMAX
 10
12.0
 20
9.0
  9
$UNITMODE
 70
     0
  9
$VISRETAIN
 70
     1
  9
$PLINEGEN
 70
     0
  9
$PSLTSCALE
 70
     1
  9
$TREEDEPTH
 70
  3020
  9
$CMLSTYLE
  2
Standard
  9
$CMLJUST
 70
     0
  9
$CMLSCALE
 40
1.0
  9
$PROXYGRAPHICS
 70
     1
  9
$MEASUREMENT
 70
     1
  9
$CELWEIGHT
370
    -1
  9
$ENDCAPS
280
     0
  9
$JOINSTYLE
280
     0
  9
$LWDISPLAY
290
     0
  9
$INSUNITS
 70
     1
  9
$HYPERLINKBASE
  1

  9
$STYLESHEET
  1

  9
$XEDIT
290
     1
  9
$CEPSNTYPE
380
     0
  9
$PSTYLEMODE
290
     0
  9
$FINGERPRINTGUID
  2
{FAEB1C30-E019-11D5-929B-00C0DF256EC4}
  9
$VERSIONGUID
  2
{FAEB1C32-E019-11D5-929B-00C0DF256EC4}
  9
$EXTNAMES
290
     1
  9
$PSVPSCALE
 40
0.0
  9
$OLESTARTUP
290
     0
  0
ENDSEC
  0
SECTION
  2
CLASSES
  0
CLASS
  1
ACDBDICTIONARYWDFLT
  2
AcDbDictionaryWithDefault
  3
ObjectDBX Classes
 90
        0
280
     0
281
     0
  0
CLASS
  1
TABLESTYLE
  2
AcDbTableStyle
  3
ObjectDBX Classes
 90
     2047
280
     0
281
     0
  0
CLASS
  1
DICTIONARYVAR
  2
AcDbDictionaryVar
  3
ObjectDBX Classes
 90
        0
280
     0
281
     0
  0
CLASS
  1

  2
exOdDbCircle
  3

 90
        0
280
     0
281
     1
  0
CLASS
  1

  2
exOdDbSpline
  3

 90
        0
280
     0
281
     1
  0
CLASS
  1

  2
exOdDbPolyline
  3

 90
        0
280
     0
281
     1
  0
CLASS
  1
ACDBPLACEHOLDER
  2
AcDbPlaceHolder
  3
ObjectDBX Classes
 90
        0
280
     0
281
     0
  0
CLASS
  1
LAYOUT
  2
AcDbLayout
  3
ObjectDBX Classes
 90
        0
280
     0
281
     0
  0
ENDSEC
  0
SECTION
  2
TABLES
  0
TABLE
  2
VPORT
  5
8
330
0
100
AcDbSymbolTable
 70
     2
  0
VPORT
  5
29
330
8
100
AcDbSymbolTableRecord
100
AcDbViewportTableRecord
  2
*Active
 70
     0
 10
0.0
 20
0.0
 11
1.0
 21
1.0
 12
210.0
 22
297.0
 13
0.0
 23
0.0
 14
0.5
 24
0.5
 15
0.5
 25
0.5
 16
0.0
 26
0.0
 36
1.0
 17
0.0
 27
0.0
 37
0.0
 40
653.4000000000001
 41
1.60267857142857
 42
50.0
 43
0.0
 44
0.0
 50
0.0
 51
0.0
 71
     0
 72
   100
 73
     1
 74
     3
 75
     0
 76
     0
 77
     0
 78
     0
281
     0
 65
     1
110
0.0
120
0.0
130
0.0
111
1.0
121
0.0
131
0.0
112
0.0
122
1.0
132
0.0
 79
     0
146
0.0
  0
ENDTAB
  0
TABLE
  2
LTYPE
  5
5
330
0
100
AcDbSymbolTable
 70
     8
  0
LTYPE
  5
14
330
5
100
AcDbSymbolTableRecord
100
AcDbLinetypeTableRecord
  2
ByBlock
 70
     0
  3

 72
    65
 73
     0
 40
0.0
  0
LTYPE
  5
15
330
5
100
AcDbSymbolTableRecord
100
AcDbLinetypeTableRecord
  2
ByLayer
 70
     0
  3

 72
    65
 73
     0
 40
0.0
  0
LTYPE
  5
16
330
5
100
AcDbSymbolTableRecord
100
AcDbLinetypeTableRecord
  2
Continuous
 70
     0
  3
Solid line
 72
    65
 73
     0
 40
0.0
  0
LTYPE
  5
2E
330
5
100
AcDbSymbolTableRecord
100
AcDbLinetypeTableRecord
  2
DASHED
 70
     0
  3
Dashed
 72
    65
 73
     2
 40
15.0
 49
7.0
 74
     0
 49
-8.0
 74
     0
  0
LTYPE
  5
2F
330
5
100
AcDbSymbolTableRecord
100
AcDbLinetypeTableRecord
  2
DOTTED
 70
     0
  3
Dotted
 72
    65
 73
     2
 40
1.0
 49
0.0
 74
     0
 49
-1.0
 74
     0
  0
LTYPE
  5
30
330
5
100
AcDbSymbolTableRecord
100
AcDbLinetypeTableRecord
  2
DOT_CENTER
 70
     0
  3
Dot_Center
 72
    65
 73
     4
 40
14.0
 49
12.0
 74
     0
 49
-1.0
 74
     0
 49
0.0
 74
     0
 49
-1.0
 74
     0
  0
LTYPE
  5
31
330
5
100
AcDbSymbolTableRecord
100
AcDbLinetypeTableRecord
  2
LONG_DASHED
 70
     0
  3
Long_Dashed
 72
    65
 73
     2
 40
15.0
 49
10.0
 74
     0
 49
-5.0
 74
     0
  0
LTYPE
  5
32
330
5
100
AcDbSymbolTableRecord
100
AcDbLinetypeTableRecord
  2
DASH_CENTER
 70
     0
  3
Dash_Center
 72
    65
 73
     4
 40
14.0
 49
11.0
 74
     0
 49
-1.0
 74
     0
 49
1.0
 74
     0
 49
-1.0
 74
     0
  0
LTYPE
  5
33
330
5
100
AcDbSymbolTableRecord
100
AcDbLinetypeTableRecord
  2
PHANTOM
 70
     0
  3
Phantom
 72
    65
 73
     6
 40
13.0
 49
10.0
 74
     0
 49
-1.0
 74
     0
 49
0.0
 74
     0
 49
-1.0
 74
     0
 49
0.0
 74
     0
 49
-1.0
 74
     0
  0
LTYPE
  5
34
330
5
100
AcDbSymbolTableRecord
100
AcDbLinetypeTableRecord
  2
CENTER_DASH_DASH
 70
     0
  3
Center_Dash_Dash
 72
    65
 73
     6
 40
14.0
 49
9.0
 74
     0
 49
-1.0
 74
     0
 49
1.0
 74
     0
 49
-1.0
 74
     0
 49
1.0
 74
     0
 49
-1.0
 74
     0
  0
ENDTAB
  0
TABLE
  2
LAYER
  5
2
330
0
100
AcDbSymbolTable
 70
     2
  0
LAYER
  5
10
330
2
100
AcDbSymbolTableRecord
100
AcDbLayerTableRecord
  2
0
 70
     0
 62
     7
  6
Continuous
370
    -3
390
F
  0
LAYER
  5
35
330
2
100
AcDbSymbolTableRecord
100
AcDbLayerTableRecord
  2
1
 70
     0
 62
     7
  6
Continuous
370
    -3
390
F
  0
ENDTAB
  0
TABLE
  2
STYLE
  5
3
330
0
100
AcDbSymbolTable
 70
     6
  0
STYLE
  5
11
330
3
100
AcDbSymbolTableRecord
100
AcDbTextStyleTableRecord
  2
Standard
 70
     0
 40
0.0
 41
1.0
 50
0.0
 71
     0
 42
0.2
  3
txt
  4

  0
STYLE
  5
292
330
3
100
AcDbSymbolTableRecord
100
AcDbTextStyleTableRecord
  2
CONVERTER_1
 70
     0
 40
0.0
 41
0.89
 50
0.0
 71
     0
 42
0.2
  3
msmincho.ttc
  4

1001
ACAD
1000
MS Mincho
1071
    32785
  0
STYLE
  5
294
330
3
100
AcDbSymbolTableRecord
100
AcDbTextStyleTableRecord
  2
CONVERTER_2
 70
     0
 40
0.0
 41
0.979
 50
0.0
 71
     0
 42
0.2
  3
MSMINCHO.TTC
  4

1001
ACAD
1000
MS Mincho
1071
    32785
  0
STYLE
  5
297
330
3
100
AcDbSymbolTableRecord
100
AcDbTextStyleTableRecord
  2
CONVERTER_3
 70
     0
 40
0.0
 41
0.76
 50
10.0
 71
     0
 42
0.2
  3
simplex.shx
  4

  0
STYLE
  5
29A
330
3
100
AcDbSymbolTableRecord
100
AcDbTextStyleTableRecord
  2
CONVERTER_4
 70
     0
 40
0.0
 41
0.95
 50
10.0
 71
     0
 42
0.2
  3
simplex.shx
  4

  0
STYLE
  5
3DB
330
3
100
AcDbSymbolTableRecord
100
AcDbTextStyleTableRecord
  2
CONVERTER_5
 70
     0
 40
0.0
 41
0.9
 50
0.0
 71
     0
 42
0.2
  3
txt.shx
  4

  0
ENDTAB
  0
TABLE
  2
VIEW
  5
6
330
0
100
AcDbSymbolTable
 70
     0
  0
ENDTAB
  0
TABLE
  2
UCS
  5
7
330
0
100
AcDbSymbolTable
 70
     0
  0
ENDTAB
  0
TABLE
  2
APPID
  5
9
330
0
100
AcDbSymbolTable
 70
     1
  0
APPID
  5
12
330
9
100
AcDbSymbolTableRecord
100
AcDbRegAppTableRecord
  2
ACAD
 70
     0
  0
ENDTAB
  0
TABLE
  2
DIMSTYLE
  5
A
330
0
100
AcDbSymbolTable
 70
    15
100
AcDbDimStyleTable
  0
DIMSTYLE
105
27
330
A
100
AcDbSymbolTableRecord
100
AcDbDimStyleTableRecord
  2
Standard
 70
     0
340
11
  0
DIMSTYLE
105
3ED
102
{ACAD_REACTORS
330
3EE
102
}
330
A
100
AcDbSymbolTableRecord
100
AcDbDimStyleTableRecord
  2
ME10_DIM_0
 70
     0
 41
7.0
 42
0.0
 44
2.0
 73
     0
 74
     0
 77
     1
 78
     8
140
7.0
147
0.625
172
     1
173
     1
176
     2
177
     2
178
     7
271
     2
340
3DB
  0
DIMSTYLE
105
3FA
102
{ACAD_REACTORS
330
3FB
102
}
330
A
100
AcDbSymbolTableRecord
100
AcDbDimStyleTableRecord
  2
ME10_DIM_1
 70
     0
 41
7.0
 42
0.0
 44
2.0
 73
     0
 74
     0
 77
     1
 78
     8
140
7.0
147
0.625
172
     1
173
     1
176
     2
177
     2
178
     7
271
     2
340
3DB
  0
DIMSTYLE
105
407
102
{ACAD_REACTORS
330
408
102
}
330
A
100
AcDbSymbolTableRecord
100
AcDbDimStyleTableRecord
  2
ME10_DIM_2
 70
     0
  3
{\Fgdt;n}<>
 41
7.0
 42
0.0
 44
2.0
 73
     0
 74
     0
 77
     1
 78
     8
140
7.0
147
0.625
172
     1
173
     1
176
     2
177
     2
178
     7
271
     2
340
3DB
  0
DIMSTYLE
105
414
102
{ACAD_REACTORS
330
415
102
}
330
A
100
AcDbSymbolTableRecord
100
AcDbDimStyleTableRecord
  2
ME10_DIM_3
 70
     0
 41
7.0
 42
0.0
 44
2.0
 73
     0
 74
     0
 77
     1
 78
     8
140
7.0
147
0.625
172
     1
173
     1
176
     2
177
     2
178
     7
271
     2
340
3DB
  0
DIMSTYLE
105
41F
102
{ACAD_REACTORS
330
420
102
}
330
A
100
AcDbSymbolTableRecord
100
AcDbDimStyleTableRecord
  2
ME10_DIM_4
 70
     0
 41
7.0
 42
0.0
 44
2.0
 73
     0
 74
     0
 77
     1
 78
     8
140
7.0
147
0.625
172
     1
173
     1
176
     2
177
     2
178
     7
271
     2
340
292
  0
DIMSTYLE
105
42A
102
{ACAD_REACTORS
330
42B
102
}
330
A
100
AcDbSymbolTableRecord
100
AcDbDimStyleTableRecord
  2
ME10_DIM_5
 70
     0
 41
7.0
 42
0.0
 44
2.0
 73
     0
 74
     0
 77
     1
 78
     8
140
7.0
147
0.625
172
     1
173
     1
176
     2
177
     2
178
     7
271
     2
340
292
  0
DIMSTYLE
105
435
102
{ACAD_REACTORS
330
436
102
}
330
A
100
AcDbSymbolTableRecord
100
AcDbDimStyleTableRecord
  2
ME10_DIM_6
 70
     0
 41
7.0
 42
0.0
 44
2.0
 73
     0
 74
     0
 77
     1
 78
     8
140
7.0
147
0.625
172
     1
173
     1
176
     2
177
     2
178
     7
271
     2
340
3DB
  0
DIMSTYLE
105
440
102
{ACAD_REACTORS
330
441
102
}
330
A
100
AcDbSymbolTableRecord
100
AcDbDimStyleTableRecord
  2
ME10_DIM_7
 70
     0
 41
7.0
 42
0.0
 44
2.0
 73
     0
 74
     0
 77
     1
 78
     8
140
7.0
147
0.625
172
     1
173
     1
176
     2
177
     2
178
     7
271
     2
340
292
  0
DIMSTYLE
105
44B
102
{ACAD_REACTORS
330
44C
102
}
330
A
100
AcDbSymbolTableRecord
100
AcDbDimStyleTableRecord
  2
ME10_DIM_8
 70
     0
 41
7.0
 42
0.0
 44
2.0
 73
     0
 74
     0
 77
     1
 78
     8
140
7.0
147
0.625
172
     1
173
     1
176
     2
177
     2
178
     7
271
     2
340
3DB
  0
DIMSTYLE
105
458
102
{ACAD_REACTORS
330
459
102
}
330
A
100
AcDbSymbolTableRecord
100
AcDbDimStyleTableRecord
  2
ME10_DIM_9
 70
     0
 41
7.0
 42
0.0
 44
2.0
 73
     0
 74
     0
 77
     1
 78
     8
140
7.0
147
0.625
172
     1
173
     1
176
     2
177
     2
178
     7
271
     2
340
3DB
344
455
  0
DIMSTYLE
105
465
102
{ACAD_REACTORS
330
466
102
}
330
A
100
AcDbSymbolTableRecord
100
AcDbDimStyleTableRecord
  2
ME10_DIM_10
 70
     0
 41
7.0
 42
0.0
 44
2.0
 73
     0
 74
     0
 77
     1
 78
     8
140
7.0
147
0.625
172
     1
173
     1
176
     2
177
     2
178
     7
271
     2
340
3DB
  0
DIMSTYLE
105
470
102
{ACAD_REACTORS
330
471
102
}
330
A
100
AcDbSymbolTableRecord
100
AcDbDimStyleTableRecord
  2
ME10_DIM_11
 70
     0
 41
7.0
 42
0.0
 44
2.0
 73
     0
 74
     0
 77
     1
 78
     8
140
7.0
147
0.625
172
     1
173
     1
176
     2
177
     2
178
     7
271
     2
340
3DB
  0
DIMSTYLE
105
47B
102
{ACAD_REACTORS
330
47C
102
}
330
A
100
AcDbSymbolTableRecord
100
AcDbDimStyleTableRecord
  2
ME10_DIM_12
 70
     0
 41
7.0
 42
0.0
 44
2.0
 73
     0
 74
     0
 77
     1
 78
     8
140
7.0
147
0.625
172
     1
173
     1
176
     2
177
     2
178
     7
271
     2
340
3DB
  0
DIMSTYLE
105
486
102
{ACAD_REACTORS
330
487
102
}
330
A
100
AcDbSymbolTableRecord
100
AcDbDimStyleTableRecord
  2
ME10_DIM_13
 70
     0
 41
7.0
 42
0.0
 44
2.0
 73
     0
 74
     0
 77
     1
 78
     8
140
7.0
147
0.625
172
     1
173
     1
176
     2
177
     2
178
     7
271
     2
340
3DB
  0
ENDTAB
  0
TABLE
  2
BLOCK_RECORD
  5
1
330
0
100
AcDbSymbolTable
 70
    31
  0
BLOCK_RECORD
  5
1F
330
1
100
AcDbSymbolTableRecord
100
AcDbBlockTableRecord
  2
*Model_Space
340
22
  0
BLOCK_RECORD
  5
1B
330
1
100
AcDbSymbolTableRecord
100
AcDbBlockTableRecord
  2
*Paper_Space
340
1E
  0
BLOCK_RECORD
  5
23
330
1
100
AcDbSymbolTableRecord
100
AcDbBlockTableRecord
  2
*Paper_Space0
340
26
  0
BLOCK_RECORD
  5
36
330
1
100
AcDbSymbolTableRecord
100
AcDbBlockTableRecord
  2
V097-H7A
340
0
102
{BLKREFS
331
63
102
}
  0
BLOCK_RECORD
  5
39
330
1
100
AcDbSymbolTableRecord
100
AcDbBlockTableRecord
  2
88-249
340
0
102
{BLKREFS
331
64
102
}
  0
BLOCK_RECORD
  5
3C
330
1
100
AcDbSymbolTableRecord
100
AcDbBlockTableRecord
  2
V97-30-Z1__1
340
0
102
{BLKREFS
331
65
102
}
  0
BLOCK_RECORD
  5
3F
330
1
100
AcDbSymbolTableRecord
100
AcDbBlockTableRecord
  2
V97-30-Z1__2
340
0
102
{BLKREFS
331
66
102
}
  0
BLOCK_RECORD
  5
42
330
1
100
AcDbSymbolTableRecord
100
AcDbBlockTableRecord
  2
V97-H11
340
0
102
{BLKREFS
331
67
102
}
  0
BLOCK_RECORD
  5
45
330
1
100
AcDbSymbolTableRecord
100
AcDbBlockTableRecord
  2
V97-H12
340
0
102
{BLKREFS
331
68
102
}
  0
BLOCK_RECORD
  5
48
330
1
100
AcDbSymbolTableRecord
100
AcDbBlockTableRecord
  2
BIS
340
0
102
{BLKREFS
331
69
102
}
  0
BLOCK_RECORD
  5
4B
330
1
100
AcDbSymbolTableRecord
100
AcDbBlockTableRecord
  2
BIS2
340
0
102
{BLKREFS
331
6A
102
}
  0
BLOCK_RECORD
  5
4E
330
1
100
AcDbSymbolTableRecord
100
AcDbBlockTableRecord
  2
V97D-H1
340
0
102
{BLKREFS
331
6B
102
}
  0
BLOCK_RECORD
  5
51
330
1
100
AcDbSymbolTableRecord
100
AcDbBlockTableRecord
  2
V972GN-H6
340
0
102
{BLKREFS
331
6C
102
}
  0
BLOCK_RECORD
  5
54
330
1
100
AcDbSymbolTableRecord
100
AcDbBlockTableRecord
  2
V972GN-H2
340
0
102
{BLKREFS
331
6D
102
}
  0
BLOCK_RECORD
  5
57
330
1
100
AcDbSymbolTableRecord
100
AcDbBlockTableRecord
  2
V97G-H2
340
0
102
{BLKREFS
331
6E
102
}
  0
BLOCK_RECORD
  5
5A
330
1
100
AcDbSymbolTableRecord
100
AcDbBlockTableRecord
  2
V97G-H3
340
0
102
{BLKREFS
331
6F
102
}
  0
BLOCK_RECORD
  5
5D
330
1
100
AcDbSymbolTableRecord
100
AcDbBlockTableRecord
  2
V972GN-H3
340
0
102
{BLKREFS
331
70
102
}
  0
BLOCK_RECORD
  5
60
330
1
100
AcDbSymbolTableRecord
100
AcDbBlockTableRecord
  2
_J__A4
340
0
102
{BLKREFS
331
71
102
}
  0
BLOCK_RECORD
  5
3E4
330
1
100
AcDbSymbolTableRecord
100
AcDbBlockTableRecord
  2
*D016
340
0
  0
BLOCK_RECORD
  5
3EF
330
1
100
AcDbSymbolTableRecord
100
AcDbBlockTableRecord
  2
*D117
340
0
  0
BLOCK_RECORD
  5
3FC
330
1
100
AcDbSymbolTableRecord
100
AcDbBlockTableRecord
  2
*D218
340
0
  0
BLOCK_RECORD
  5
409
330
1
100
AcDbSymbolTableRecord
100
AcDbBlockTableRecord
  2
*D319
340
0
  0
BLOCK_RECORD
  5
416
330
1
100
AcDbSymbolTableRecord
100
AcDbBlockTableRecord
  2
*D420
340
0
  0
BLOCK_RECORD
  5
421
330
1
100
AcDbSymbolTableRecord
100
AcDbBlockTableRecord
  2
*D521
340
0
  0
BLOCK_RECORD
  5
42C
330
1
100
AcDbSymbolTableRecord
100
AcDbBlockTableRecord
  2
*D622
340
0
  0
BLOCK_RECORD
  5
437
330
1
100
AcDbSymbolTableRecord
100
AcDbBlockTableRecord
  2
*D723
340
0
  0
BLOCK_RECORD
  5
442
330
1
100
AcDbSymbolTableRecord
100
AcDbBlockTableRecord
  2
*D824
340
0
  0
BLOCK_RECORD
  5
44D
330
1
100
AcDbSymbolTableRecord
100
AcDbBlockTableRecord
  2
*D925
340
0
  0
BLOCK_RECORD
  5
455
330
1
100
AcDbSymbolTableRecord
100
AcDbBlockTableRecord
  2
_None
340
0
  0
BLOCK_RECORD
  5
45A
330
1
100
AcDbSymbolTableRecord
100
AcDbBlockTableRecord
  2
*D1027
340
0
  0
BLOCK_RECORD
  5
467
330
1
100
AcDbSymbolTableRecord
100
AcDbBlockTableRecord
  2
*D1128
340
0
  0
BLOCK_RECORD
  5
472
330
1
100
AcDbSymbolTableRecord
100
AcDbBlockTableRecord
  2
*D1229
340
0
  0
BLOCK_RECORD
  5
47D
330
1
100
AcDbSymbolTableRecord
100
AcDbBlockTableRecord
  2
*D1330
340
0
  0
ENDTAB
  0
ENDSEC
  0
SECTION
  2
BLOCKS
  0
BLOCK
  5
20
330
1F
100
AcDbEntity
  8
0
100
AcDbBlockBegin
  2
*Model_Space
 70
     0
 71
     0
 10
0.0
 20
0.0
 30
0.0
  3
*Model_Space
  1

  0
ENDBLK
  5
21
330
1F
100
AcDbEntity
  8
0
100
AcDbBlockEnd
  0
BLOCK
  5
1C
330
1B
100
AcDbEntity
 67
     1
  8
0
100
AcDbBlockBegin
  2
*Paper_Space
 70
     0
 71
     0
 10
0.0
 20
0.0
 30
0.0
  3
*Paper_Space
  1

  0
ENDBLK
  5
1D
330
1B
100
AcDbEntity
 67
     1
  8
0
100
AcDbBlockEnd
  0
BLOCK
  5
24
330
23
100
AcDbEntity
  8
0
100
AcDbBlockBegin
  2
*Paper_Space0
 70
     0
 71
     0
 10
0.0
 20
0.0
 30
0.0
  3
*Paper_Space0
  1

  0
ENDBLK
  5
25
330
23
100
AcDbEntity
  8
0
100
AcDbBlockEnd
  0
BLOCK
  5
37
330
36
100
AcDbEntity
  8
0
100
AcDbBlockBegin
  2
V097-H7A
 70
     0
 71
     0
 10
2.34768686087227
 20
891.7662751531316
 30
0.0
  3
V097-H7A
  1

  0
LINE
  5
72
330
36
100
AcDbEntity
  8
0
  6
Continuous
 62
     7
100
AcDbLine
 10
273.5375107257914
 20
278.1880025595615
 30
0.0
 11
276.4206967266728
 21
277.9470320921355
 31
0.0
  0
LINE
  5
73
330
36
100
AcDbEntity
  8
0
  6
Continuous
 62
     7
100
AcDbLine
 10
273.5375162583623
 20
286.1602075329606
 30
0.0
 11
276.4206967266728
 21
286.4011735082804
 31
0.0
  0
LINE
  5
74
330
36
100
AcDbEntity
  8
0
  6
Continuous
 62
     7
100
AcDbLine
 10
182.6513607514717
 20
371.2058765066377
 30
0.0
 11
182.6513607648722
 21
371.2058765066377
 31
0.0
  0
LINE
  5
75
330
36
100
AcDbEntity
  8
0
  6
Continuous
 62
     7
100
AcDbLine
 10
183.1498986699316
 20
371.6676671200535
 30
0.0
 11
183.6165166415922
 21
377.7558765066374
 31
0.0
  0
LINE
  5
76
330
36
100
AcDbEntity
  8
0
  6
Continuous
 62
     7
100
AcDbLine
 10
182.6913697383825
 20
372.2115832903337
 30
0.0
 11
183.0884205646125
 21
377.7558765066374
 31
0.0
  0
LINE
  5
77
330
36
100
AcDbEntity
  8
0
  6
Continuous
 62
     7
100
AcDbLine
 10
151.0411707574422
 20
371.6676671200535
 30
0.0
 11
150.5745527857816
 21
377.7558765066374
 31
0.0
  0
LINE
  5
78
330
36
100
AcDbEntity
  8
0
  6
Continuous
 62
     7
100
AcDbLine
 10
151.4996996889822
 20
372.2115832903337
 30
0.0
 11
151.1026488627522
 21
377.7558765066374
 31
0.0
  0
LINE
  5
79
330
36
100
AcDbEntity
  8
0
  6
Continuous
 62
     2
100
AcDbLine
 10
183.0945057020326
 20
371.2058765066377
 30
0.0
 11
183.1498986698825
 21
371.6676671194036
 31
0.0
  0
LINE
  5
7A
330
36
100
AcDbEntity
  8
0
  6
Continuous
 62
     2
100
AcDbLine
 10
182.6513607514717
 20
371.2058765066377
 30
0.0
 11
183.0945057020326
 21
371.2058765066377
 31
0.0
  0
LINE
  5
7B
330
36
100
AcDbEntity
  8
0
  6
Continuous
 62
     7
100
AcDbLine
 10
151.5397086624926
 20
371.2058765066377
 30
0.0
 11
182.6513607514717
 21
371.2058765066377
 31
0.0
  0
LINE
  5
7C
330
36
100
AcDbEntity
  8
0
  6
Continuous
 62
     2
100
AcDbLine
 10
151.0965637253321
 20
371.2058765066377
 30
0.0
 11
151.0411707574422
 21
371.6676671200535
 31
0.0
  0
LINE
  5
7D
330
36
100
AcDbEntity
  8
0
  6
Continuous
 62
     2
100
AcDbLine
 10
151.0965637253321
 20
371.2058765066377
 30
0.0
 11
151.5397086491012
 21
371.2058765066377
 31
0.0
  0
LINE
  5
7E
330
36
100
AcDbEntity
  8
0
  6
Continuous
 62
     7
100
AcDbLine
 10
181.3455347136824
 20
287.2741048150633
 30
0.0
 11
152.8455347136824
 21
287.2741048150633
 31
0.0
  0
LINE
  5
7F
330
36
100
AcDbEntity
  8
0
  6
Continuous
 62
     7
100
AcDbLine
 10
181.3455347136824
 20
277.2741048150633
 30
0.0
 11
152.8455347136824
 21
277.2741048150633
 31
0.0
  0
ARC
  5
80
330
36
100
AcDbEntity
  8
0
  6
Continuous
 62
     7
100
AcDbCircle
 10
273.8706605549724
 20
282.1741048150625
 30
0.0
 40
3.999999999999828
100
AcDbArc
 50
94.77747464981401
 51
-94.77755417435405
  0
LINE
  5
81
330
36
100
AcDbEntity
  8
0
  6
Continuous
 62
     7
100
AcDbLine
 10
151.0411707554413
 20
371.6676671461205
 30
0.0
 11
151.0411707574422
 21
371.6676671200535
 31
0.0
  0
ARC
  5
82
330
36
100
AcDbEntity
  8
0
  6
Continuous
 62
     7
100
AcDbCircle
 10
182.6513607648722
 20
371.7058765066377
 30
0.0
 40
0.5000000000000001
100
AcDbArc
 50
-90.00000153558361
 51
-4.38274608001031
  0
ARC
  5
83
330
36
100
AcDbEntity
  8
0
  6
Continuous
 62
     7
100
AcDbCircle
 10
151.5397086624926
 20
371.7058765066377
 30
0.0
 40
0.4999999999951793
100
AcDbArc
 50
-175.6172539946016
 51
-90.0000015345414
  0
ARC
  5
84
330
36
100
AcDbEntity
  8
0
  6
Continuous
 62
     7
100
AcDbCircle
 10
167.0955347136824
 20
282.2741048150624
 30
0.0
 40
16.00000000000566
100
AcDbArc
 50
16.47074106557292
 51
163.5292589344179
  0
ARC
  5
85
330
36
100
AcDbEntity
  8
0
  6
Continuous
 62
     7
100
AcDbCircle
 10
142.3455347136824
 20
282.2741048150633
 30
0.0
 40
10.00000000000074
100
AcDbArc
 50
-19.31612216775907
 51
19.31612216776153
  0
ARC
  5
86
330
36
100
AcDbEntity
  8
0
  6
Continuous
 62
     7
100
AcDbCircle
 10
167.0955347136824
 20
282.2741048150624
 30
0.0
 40
15.99999999999627
100
AcDbArc
 50
-163.5292589344259
 51
-16.47074106556492
  0
ARC
  5
87
330
36
100
AcDbEntity
  8
0
  6
Continuous
 62
     7
100
AcDbCircle
 10
191.8455347136824
 20
282.2741048150633
 30
0.0
 40
10.0
100
AcDbArc
 50
180.0
 51
-160.6838778322412
  0
ARC
  5
88
330
36
100
AcDbEntity
  8
0
  6
Continuous
 62
     7
100
AcDbCircle
 10
191.8455347136824
 20
282.2741048150633
 30
0.0
 40
10.00000000000099
100
AcDbArc
 50
160.6838778322387
 51
180.0
  0
CIRCLE
  5
89
330
36
100
AcDbEntity
  8
0
  6
Continuous
 62
     7
100
AcDbCircle
 10
155.0955347136824
 20
282.2741048150633
 30
0.0
 40
1.75
  0
ARC
  5
8A
330
36
100
AcDbEntity
  8
0
  6
Continuous
 62
     7
100
AcDbCircle
 10
153.6700296631825
 20
286.2434642267144
 30
0.0
 40
2.000000000001612
100
AcDbArc
 50
163.5292589344485
 51
-160.6838778322737
  0
ARC
  5
8B
330
36
100
AcDbEntity
  8
0
  6
Continuous
 62
     7
100
AcDbCircle
 10
153.6700296631825
 20
278.3047454034136
 30
0.0
 40
2.000000000003642
100
AcDbArc
 50
160.6838778322999
 51
-163.5292589344236
  0
ARC
  5
8C
330
36
100
AcDbEntity
  8
0
  6
Continuous
 62
     7
100
AcDbCircle
 10
180.5210397641913
 20
278.3047454034136
 30
0.0
 40
2.000000000001978
100
AcDbArc
 50
-16.47074106557552
 51
19.31612216778634
  0
ARC
  5
8D
330
36
100
AcDbEntity
  8
0
  6
Continuous
 62
     7
100
AcDbCircle
 10
180.5210397641913
 20
286.2434642267144
 30
0.0
 40
1.999999999995379
100
AcDbArc
 50
-19.31612216781247
 51
16.47074106555053
  0
ENDBLK
  5
38
330
36
100
AcDbEntity
  8
0
100
AcDbBlockEnd
  0
BLOCK
  5
3A
330
39
100
AcDbEntity
  8
0
100
AcDbBlockBegin
  2
88-249
 70
     0
 71
     0
 10
429.1318430265328
 20
484.4629202315873
 30
0.0
  3
88-249
  1

  0
LINE
  5
8E
330
39
100
AcDbEntity
  8
1
  6
Continuous
 62
     7
100
AcDbLine
 10
189.0955347136824
 20
374.4023290350506
 30
0.0
 11
189.0955347136824
 21
376.1410714311005
 31
0.0
  0
LINE
  5
8F
330
39
100
AcDbEntity
  8
1
  6
Continuous
 62
     7
100
AcDbLine
 10
145.1033615783927
 20
376.1410714311005
 30
0.0
 11
145.1033615783927
 21
374.4023290350506
 31
0.0
  0
LINE
  5
90
330
39
100
AcDbEntity
  8
1
  6
Continuous
 62
     7
100
AcDbLine
 10
189.0955347136824
 20
235.3021466640375
 30
0.0
 11
189.0955347136824
 21
233.5343797110704
 31
0.0
  0
LINE
  5
91
330
39
100
AcDbEntity
  8
1
  6
Continuous
 62
     7
100
AcDbLine
 10
145.1033615783927
 20
235.7146980718144
 30
0.0
 11
145.1033615783927
 21
233.5343797110704
 31
0.0
  0
LINE
  5
92
330
39
100
AcDbEntity
  8
1
  6
Continuous
 62
     7
100
AcDbLine
 10
263.7397669435813
 20
251.1667862269846
 30
0.0
 11
263.3067542416829
 21
250.9167862269846
 31
0.0
  0
LINE
  5
93
330
39
100
AcDbEntity
  8
1
  6
Continuous
 62
     7
100
AcDbLine
 10
262.7577161360114
 20
248.8677481213076
 30
0.0
 11
276.6706967266728
 21
224.7697588535716
 31
0.0
  0
LINE
  5
94
330
39
100
AcDbEntity
  8
1
  6
Continuous
 62
     7
100
AcDbLine
 10
276.6706967266728
 20
229.7697588535725
 30
0.0
 11
264.4227796454725
 21
250.9837735250926
 31
0.0
  0
SPLINE
  5
95
330
39
100
AcDbEntity
  8
1
  6
Continuous
 62
     7
100
AcDbSpline
210
0.0
220
0.0
230
1.0
 70
     8
 71
     3
 72
    11
 73
     7
 74
     5
 42
0.0000000001
 43
0.0000000001
 44
0.00000001
 40
0.0
 40
0.0
 40
0.0
 40
0.0
 40
0.3342042437222942
 40
0.6706305001607669
 40
1.156392314081413
 40
1.63818842014745
 40
1.63818842014745
 40
1.63818842014745
 40
1.63818842014745
 10
145.3460244825128
 20
377.7558765066433
 30
0.0
 10
145.3161143980422
 20
377.6485307444713
 30
0.0
 10
145.2560953669104
 20
377.4331255139039
 30
0.0
 10
145.1782108264514
 20
377.0554374382824
 30
0.0
 10
145.1159119373507
 20
376.6243901259921
 30
0.0
 10
145.1075335846568
 20
376.3017368454964
 30
0.0
 10
145.1033615783927
 20
376.1410714311155
 30
0.0
 11
145.3460244825128
 21
377.7558765066433
 31
0.0
 11
145.2599824631383
 21
377.4329380490017
 31
0.0
 11
145.1909635423359
 21
377.1036676212489
 31
0.0
 11
145.1252620693785
 21
376.6223695261824
 31
0.0
 11
145.1033615783927
 21
376.1410714311155
 31
0.0
  0
SPLINE
  5
96
330
39
100
AcDbEntity
  8
1
  6
Continuous
 62
     7
100
AcDbSpline
210
0.0
220
0.0
230
1.0
 70
     8
 71
     3
 72
     9
 73
     5
 74
     3
 42
0.0000000001
 43
0.0000000001
 44
0.00000001
 40
0.0
 40
0.0
 40
0.0
 40
0.0
 40
0.4817961060658291
 40
0.9675579199858144
 40
0.9675579199858144
 40
0.9675579199858144
 40
0.9675579199858144
 10
189.0955347136824
 20
376.1410714311155
 30
0.0
 10
189.0918251562268
 20
376.3018302262821
 30
0.0
 10
189.0843755076087
 20
376.6246710369745
 30
0.0
 10
189.0334831994169
 20
376.9435664100628
 30
0.0
 10
189.0079327497424
 20
377.1036676212484
 30
0.0
 11
189.0955347136824
 21
376.1410714311155
 31
0.0
 11
189.0736342226974
 21
376.6223695261822
 31
0.0
 11
189.0079327497424
 21
377.1036676212484
 31
0.0
  0
SPLINE
  5
97
330
39
100
AcDbEntity
  8
1
  6
Continuous
 62
     7
100
AcDbSpline
210
0.0
220
0.0
230
1.0
 70
     8
 71
     3
 72
    45
 73
    41
 74
    39
 42
0.0000000001
 43
0.0000000001
 44
0.00000001
 40
0.0
 40
0.0
 40
0.0
 40
0.0
 40
0.4817961060811598
 40
0.9675579200174518
 40
1.976274996628983
 40
2.982829410982553
 40
4.101563593128503
 40
5.217825256914772
 40
6.486801546563872
 40
7.754115886492429
 40
9.186996546065338
 40
10.61888432675616
 40
12.2083540564974
 40
13.79724007789842
 40
15.52123843915956
 40
17.2448966036552
 40
19.07136678684242
 40
20.89764801454323
 40
22.7880372758251
 40
24.67834191381364
 40
26.59041057216501
 40
28.50247923051637
 40
30.39278386850344
 40
32.28317312978118
 40
34.10945435747806
 40
35.93592454066395
 40
37.65958270515979
 40
39.38358106642161
 40
40.97246708782298
 40
42.56193681756359
 40
43.9938245982537
 40
45.42670525782662
 40
46.69401959775657
 40
47.96299588740889
 40
49.07925755119767
 40
50.19799173334427
 40
51.20454614769722
 40
52.21326322430757
 40
52.69902503824351
 40
53.1808211443247
 40
53.1808211443247
 40
53.1808211443247
 40
53.1808211443247
 10
145.1033615783927
 20
376.1410714311155
 30
0.0
 10
145.1075640371704
 20
375.980398235787
 30
0.0
 10
145.1160035455487
 20
375.6577293293505
 30
0.0
 10
145.2097940184616
 20
375.0046087472248
 30
0.0
 10
145.4233408060748
 20
374.1945382527475
 30
0.0
 10
145.8623819700543
 20
373.2418521597792
 30
0.0
 10
146.4508305884549
 20
372.3315614197928
 30
0.0
 10
147.2089207549362
 20
371.4394424653552
 30
0.0
 10
148.0989091593864
 20
370.6051098117234
 30
0.0
 10
149.1487522930626
 20
369.7971284059423
 30
0.0
 10
150.3113072853502
 20
369.0553906443348
 30
0.0
 10
151.6205012631587
 20
368.3525614651098
 30
0.0
 10
153.0230736051661
 20
367.7216529385868
 30
0.0
 10
154.5523419024651
 20
367.1432312583823
 30
0.0
 10
156.1552596109542
 20
366.641020655605
 30
0.0
 10
157.8586895589057
 20
366.2033255605004
 30
0.0
 10
159.6154075353969
 20
365.8451052771011
 30
0.0
 10
161.4417191015826
 20
365.5605548640995
 30
0.0
 10
163.3003135389602
 20
365.357722555277
 30
0.0
 10
165.1944727022076
 20
365.234229020913
 30
0.0
 10
167.0994481460421
 20
365.1936020720694
 30
0.0
 10
169.0044235898761
 20
365.234229020913
 30
0.0
 10
170.8985827531217
 20
365.3577225552768
 30
0.0
 10
172.757177190496
 20
365.5605548640993
 30
0.0
 10
174.5834887566786
 20
365.8451052771015
 30
0.0
 10
176.3402067331679
 20
366.2033255605005
 30
0.0
 10
178.0436366811194
 20
366.641020655605
 30
0.0
 10
179.6465543896089
 20
367.1432312583822
 30
0.0
 10
181.1758226869082
 20
367.7216529385865
 30
0.0
 10
182.5783950289153
 20
368.3525614651092
 30
0.0
 10
183.8875890067235
 20
369.0553906443341
 30
0.0
 10
185.0501439990109
 20
369.7971284059422
 30
0.0
 10
186.0999871326884
 20
370.6051098117241
 30
0.0
 10
186.9899755371424
 20
371.439442465355
 30
0.0
 10
187.7480657036279
 20
372.3315614197921
 30
0.0
 10
188.3365143220298
 20
373.2418521597785
 30
0.0
 10
188.7755554860084
 20
374.1945382527471
 30
0.0
 10
188.9891022736173
 20
375.0046087472252
 30
0.0
 10
189.0828927465269
 20
375.6577293293505
 30
0.0
 10
189.0913322549049
 20
375.9803982357871
 30
0.0
 10
189.0955347136824
 20
376.1410714311155
 30
0.0
 11
145.1033615783927
 21
376.1410714311155
 31
0.0
 11
145.1252620693789
 21
375.6597733360335
 31
0.0
 11
145.1909635423375
 21
375.1784752409513
 31
0.0
 11
145.4511465275037
 21
374.2038907372382
 31
0.0
 11
145.8664234635714
 21
373.2869955112583
 31
0.0
 11
146.4707773401868
 21
372.3455484537337
 31
0.0
 11
147.1901475536512
 21
371.4919990421475
 31
0.0
 11
148.1125437775009
 21
370.6205140853528
 31
0.0
 11
149.1149820183087
 21
369.8451411366664
 31
0.0
 11
150.3205972244899
 21
369.0707775533266
 31
0.0
 11
151.5811800671269
 21
368.391635805721
 31
0.0
 11
153.0293846034371
 21
367.7365650898634
 31
0.0
 11
154.5150040875169
 21
367.1730994409315
 31
0.0
 11
156.1594378026087
 21
366.6554044474262
 31
0.0
 11
157.8286359575541
 21
366.2255498353082
 31
0.0
 11
159.6179595987942
 21
365.8590607672973
 31
0.0
 11
161.4223980165587
 21
365.577449121324
 31
0.0
 11
163.3015251089739
 21
365.3714080338659
 31
0.0
 11
165.1878236293936
 21
365.2484059352511
 31
0.0
 11
167.0994481460421
 21
365.2071959656087
 31
0.0
 11
169.0110726626906
 21
365.2484059352511
 31
0.0
 11
170.8973711831088
 21
365.3714080338659
 31
0.0
 11
172.7764982755198
 21
365.577449121324
 31
0.0
 11
174.5809366932804
 21
365.8590607672974
 31
0.0
 11
176.3702603345191
 21
366.2255498353082
 31
0.0
 11
178.0394584894648
 21
366.6554044474262
 31
0.0
 11
179.6838922045573
 21
367.1730994409315
 31
0.0
 11
181.1695116886374
 21
367.7365650898632
 31
0.0
 11
182.6177162249471
 21
368.3916358057205
 31
0.0
 11
183.8782990675835
 21
369.0707775533258
 31
0.0
 11
185.0839142737645
 21
369.8451411366659
 31
0.0
 11
186.0863525145738
 21
370.6205140853527
 31
0.0
 11
187.0087487384278
 21
371.4919990421475
 31
0.0
 11
187.728118951896
 21
372.3455484537337
 31
0.0
 11
188.3324728285127
 21
373.2869955112583
 31
0.0
 11
188.7477497645789
 21
374.2038907372382
 31
0.0
 11
189.0079327497405
 21
375.1784752409513
 31
0.0
 11
189.073634222697
 21
375.6597733360335
 31
0.0
 11
189.0955347136824
 21
376.1410714311155
 31
0.0
  0
SPLINE
  5
98
330
39
100
AcDbEntity
  8
1
  6
Continuous
 62
     7
100
AcDbSpline
210
0.0
220
0.0
230
1.0
 70
     8
 71
     3
 72
    45
 73
    41
 74
    39
 42
0.0000000001
 43
0.0000000001
 44
0.00000001
 40
0.0
 40
0.0
 40
0.0
 40
0.0
 40
0.4743496330475202
 40
0.9527405941787711
 40
1.94770709650435
 40
2.940404511817269
 40
4.047809918024573
 40
5.152660349006462
 40
6.413091386210645
 40
7.671842905769564
 40
9.098773157030143
 40
10.52471298979245
 40
12.11038050735595
 40
13.69547066528135
 40
15.41731724329122
 40
17.13882913896154
 40
18.96430908423689
 40
20.78960374895055
 40
22.67969236548005
 40
24.5696981542622
 40
26.48169533184214
 40
28.39369250942209
 40
30.28369829820281
 40
32.17378691472818
 40
33.99908157943811
 40
35.82456152471278
 40
37.54607342038349
 40
39.2679199983929
 40
40.85301015631792
 40
42.43867767388186
 40
43.86461750664454
 40
45.29154775790472
 40
46.55029927746429
 40
47.8107303146715
 40
48.91558074565585
 40
50.0229861518638
 40
51.01568356717594
 40
52.01065006949966
 40
52.4890410306422
 40
52.96339066370128
 40
52.96339066370128
 40
52.96339066370128
 40
52.96339066370128
 10
145.1033615783927
 20
374.4023290350347
 30
0.0
 10
145.1075702928194
 20
374.2441362173905
 30
0.0
 10
145.1160235787593
 20
373.9264028229135
 30
0.0
 10
145.2101036710037
 20
373.2829271824252
 30
0.0
 10
145.4238995569021
 20
372.4849292248431
 30
0.0
 10
145.8636116876454
 20
371.546815555069
 30
0.0
 10
146.4523485785154
 20
370.6512741685309
 30
0.0
 10
147.2108207642346
 20
369.7732384624841
 30
0.0
 10
148.1006826399887
 20
368.9527609775322
 30
0.0
 10
149.1506593038448
 20
368.1576752450934
 30
0.0
 10
150.3128695273259
 20
367.4281967444246
 30
0.0
 10
151.6220833303804
 20
366.7366023353408
 30
0.0
 10
153.0242883325512
 20
366.1160164293955
 30
0.0
 10
154.5535261114248
 20
365.546836351907
 30
0.0
 10
156.1561263273459
 20
365.0527749028462
 30
0.0
 10
157.8594962140402
 20
364.6220691419072
 30
0.0
 10
159.6159596189844
 20
364.2696299469949
 30
0.0
 10
161.4421850739428
 20
363.9896217248328
 30
0.0
 10
163.3005813473453
 20
363.7900534155816
 30
0.0
 10
165.1946248802826
 20
363.6685288242315
 30
0.0
 10
167.0994481460421
 20
363.6285594501417
 30
0.0
 10
169.0042714118011
 20
363.6685288242314
 30
0.0
 10
170.8983149447365
 20
363.7900534155814
 30
0.0
 10
172.7567112181359
 20
363.9896217248329
 30
0.0
 10
174.5829366730914
 20
364.2696299469951
 30
0.0
 10
176.3394000780343
 20
364.6220691419072
 30
0.0
 10
178.0427699647285
 20
365.0527749028461
 30
0.0
 10
179.6453701806493
 20
365.5468363519067
 30
0.0
 10
181.1746079595226
 20
366.1160164293958
 30
0.0
 10
182.5768129616936
 20
366.7366023353408
 30
0.0
 10
183.8860267647485
 20
367.4281967444243
 30
0.0
 10
185.0482369882295
 20
368.1576752450937
 30
0.0
 10
186.0982136520865
 20
368.952760977533
 30
0.0
 10
186.9880755278441
 20
369.773238462484
 30
0.0
 10
187.7465477135673
 20
370.6512741685302
 30
0.0
 10
188.3352846044388
 20
371.5468155550682
 30
0.0
 10
188.7749967351808
 20
372.4849292248426
 30
0.0
 10
188.988792621075
 20
373.2829271824288
 30
0.0
 10
189.0828727133161
 20
373.9264028229248
 30
0.0
 10
189.0913259992558
 20
374.2441362174093
 30
0.0
 10
189.0955347136824
 20
374.4023290350574
 30
0.0
 11
145.1033615783927
 21
374.4023290350347
 31
0.0
 11
145.1252999503686
 21
373.9284869915146
 31
0.0
 11
145.1911150662961
 21
373.4546449479942
 31
0.0
 11
145.4516749031154
 21
372.494401795357
 31
0.0
 11
145.8668484211411
 21
371.5926928022228
 31
0.0
 11
146.4720618088807
 21
370.6652967223314
 31
0.0
 11
147.1908437670367
 21
369.8262216532998
 31
0.0
 11
148.1140445629553
 21
368.9680918904068
 31
0.0
 11
149.115695639461
 21
368.2057596079166
 31
0.0
 11
150.3219284664044
 21
367.4434392624143
 31
0.0
 11
151.5817755145916
 21
366.7755397027256
 31
0.0
 11
153.0304236252429
 21
366.1307450627336
 31
0.0
 11
154.5154506056769
 21
365.5764836838381
 31
0.0
 11
156.1601804178269
 21
365.0669549964916
 31
0.0
 11
157.8289402576456
 21
364.6440557130414
 31
0.0
 11
159.6184329486688
 21
364.2833717247955
 31
0.0
 11
161.4225738126658
 21
364.0062862580376
 31
0.0
 11
163.3017547772765
 21
363.803520677676
 31
0.0
 11
165.1878810401559
 21
363.6824851370014
 31
0.0
 11
167.0994481460421
 21
363.6419338513534
 31
0.0
 11
169.0110152519282
 21
363.6824851370014
 31
0.0
 11
170.8971415148063
 21
363.803520677676
 31
0.0
 11
172.7763224794128
 21
364.0062862580377
 31
0.0
 11
174.580463343406
 21
364.2833717247954
 31
0.0
 11
176.3699560344285
 21
364.6440557130413
 31
0.0
 11
178.0387158742476
 21
365.0669549964915
 31
0.0
 11
179.6834456863972
 21
365.576483683838
 31
0.0
 11
181.1684726668307
 21
366.1307450627336
 31
0.0
 11
182.6171207774825
 21
366.7755397027256
 31
0.0
 11
183.8769678256701
 21
367.4434392624143
 31
0.0
 11
185.083200652613
 21
368.2057596079166
 31
0.0
 11
186.0848517291196
 21
368.9680918904068
 31
0.0
 11
187.0080525250423
 21
369.8262216532998
 31
0.0
 11
187.7268344832021
 21
370.6652967223314
 31
0.0
 11
188.332047870943
 21
371.5926928022227
 31
0.0
 11
188.7472213889668
 21
372.4944017953569
 31
0.0
 11
189.0077812257805
 21
373.4546449479938
 31
0.0
 11
189.073596341707
 21
373.9284869915256
 31
0.0
 11
189.0955347136824
 21
374.4023290350574
 31
0.0
  0
SPLINE
  5
99
330
39
100
AcDbEntity
  8
1
  6
Continuous
 62
     7
100
AcDbSpline
210
0.0
220
0.0
230
1.0
 70
     8
 71
     3
 72
     9
 73
     5
 74
     3
 42
0.0000000001
 43
0.0000000001
 44
0.00000001
 40
0.0
 40
0.0
 40
0.0
 40
0.0
 40
0.3364262564310927
 40
0.6706305001476367
 40
0.6706305001476367
 40
0.6706305001476367
 40
0.6706305001476367
 10
189.0079327497424
 20
377.1036676212484
 30
0.0
 10
188.9863975646172
 20
377.2137743242997
 30
0.0
 10
188.9434694289703
 20
377.4332605026979
 30
0.0
 10
188.8830042358758
 20
377.6485756412244
 30
0.0
 10
188.8528718095622
 20
377.7558765066283
 30
0.0
 11
189.0079327497424
 21
377.1036676212484
 31
0.0
 11
188.9389138289421
 21
377.4329380489941
 31
0.0
 11
188.8528718095622
 21
377.7558765066283
 31
0.0
  0
SPLINE
  5
9A
330
39
100
AcDbEntity
  8
1
  6
Continuous
 62
     7
100
AcDbSpline
210
0.0
220
0.0
230
1.0
 70
     8
 71
     3
 72
    23
 73
    19
 74
    17
 42
0.0000000001
 43
0.0000000001
 44
0.00000001
 40
0.0
 40
0.0
 40
0.0
 40
0.0
 40
0.781930667659776
 40
1.564715703331572
 40
3.356907141488441
 40
5.149483298653202
 40
6.85713623275236
 40
8.565350145755604
 40
10.17834077436793
 40
11.79208566763484
 40
13.31098139011922
 40
14.83078565611752
 40
16.26869295704499
 40
17.70749822321817
 40
19.09024983424735
 40
20.47358566929087
 40
21.15690997317008
 40
21.83757703642614
 40
21.83757703642614
 40
21.83757703642614
 40
21.83757703642614
 10
174.8777448590718
 20
218.9839573499603
 30
0.0
 10
175.1289732357564
 20
219.053442181709
 30
0.0
 10
175.6317044910702
 20
219.1924877670499
 30
0.0
 10
176.6995877300731
 20
219.527323288967
 30
0.0
 10
178.0678047612801
 20
220.028215768906
 30
0.0
 10
179.6792582416235
 20
220.749948340075
 30
0.0
 10
181.2085594846251
 20
221.5751495622366
 30
0.0
 10
182.6195189647206
 20
222.4836084700703
 30
0.0
 10
183.9264266983285
 20
223.4856826671758
 30
0.0
 10
185.0949113747311
 20
224.5552397380999
 30
0.0
 10
186.1388943353051
 20
225.7051231553135
 30
0.0
 10
187.0290466429703
 20
226.9060327138017
 30
0.0
 10
187.7765468237422
 20
228.1698182565931
 30
0.0
 10
188.3587413717036
 20
229.4681527371506
 30
0.0
 10
188.784623003038
 20
230.806995594507
 30
0.0
 10
188.9940717736865
 20
231.9405248790419
 30
0.0
 10
189.0832055899833
 20
232.8526906498725
 30
0.0
 10
189.0914303467642
 20
233.3074453319866
 30
0.0
 10
189.0955347136824
 20
233.5343797110704
 30
0.0
 11
174.8777448590718
 21
218.9839573499603
 31
0.0
 11
175.6301885004892
 21
219.1966640388946
 31
0.0
 11
176.3773268697226
 21
219.4301949132795
 31
0.0
 11
178.0598125980545
 21
220.047602335459
 31
0.0
 11
179.6951427798497
 21
220.7817851980655
 31
0.0
 11
181.1972566547376
 21
221.5940243563229
 31
0.0
 11
182.6324019985981
 21
222.5204975694129
 31
0.0
 11
183.9112266261708
 21
223.5035267347508
 31
0.0
 11
185.1001191435825
 21
224.5947220255157
 31
0.0
 11
186.1192929907181
 21
225.7209231110666
 31
0.0
 11
187.0228213263064
 21
226.9429875748883
 31
0.0
 11
187.7524328542464
 21
228.1820373819411
 31
0.0
 11
188.340430016494
 21
229.495209088595
 31
0.0
 11
188.7565259896772
 21
230.8138698330265
 31
0.0
 11
189.0103942031093
 21
232.1737113542062
 31
0.0
 11
189.0742495860391
 21
232.8540455326383
 31
0.0
 11
189.0955347136824
 21
233.5343797110704
 31
0.0
  0
SPLINE
  5
9B
330
39
100
AcDbEntity
  8
1
  6
Continuous
 62
     7
100
AcDbSpline
210
0.0
220
0.0
230
1.0
 70
     8
 71
     3
 72
     9
 73
     5
 74
     3
 42
0.0000000001
 43
0.0000000001
 44
0.00000001
 40
0.0
 40
0.0
 40
0.0
 40
0.0
 40
0.6806670632567505
 40
1.363991367135937
 40
1.363991367135937
 40
1.363991367135937
 40
1.363991367135937
 10
189.0955347136824
 20
233.5343797110704
 30
0.0
 10
189.0919596288187
 20
233.7613778087913
 30
0.0
 10
189.084795502399
 20
234.216260176929
 30
0.0
 10
189.035226825049
 20
234.6684917680594
 30
0.0
 10
189.0103942031128
 20
234.8950480679355
 30
0.0
 11
189.0955347136824
 21
233.5343797110704
 31
0.0
 11
189.07424958604
 21
234.2147138895032
 31
0.0
 11
189.0103942031128
 21
234.8950480679355
 31
0.0
  0
SPLINE
  5
9C
330
39
100
AcDbEntity
  8
1
  6
Continuous
 62
     7
100
AcDbSpline
210
0.0
220
0.0
230
1.0
 70
     8
 71
     3
 72
     9
 73
     5
 74
     3
 42
0.0000000001
 43
0.0000000001
 44
0.00000001
 40
0.0
 40
0.0
 40
0.0
 40
0.0
 40
0.6806670632560687
 40
1.363991367135
 40
1.363991367135
 40
1.363991367135
 40
1.363991367135
 10
189.0955347136824
 20
235.3021466640375
 30
0.0
 10
189.0919596288187
 20
235.5291447617582
 30
0.0
 10
189.084795502399
 20
235.9840271298957
 30
0.0
 10
189.0352268250491
 20
236.4362587210257
 30
0.0
 10
189.0103942031128
 20
236.6628150209017
 30
0.0
 11
189.0955347136824
 21
235.3021466640375
 31
0.0
 11
189.07424958604
 21
235.9824808424696
 31
0.0
 11
189.0103942031128
 21
236.6628150209017
 31
0.0
  0
SPLINE
  5
9D
330
39
100
AcDbEntity
  8
1
  6
Continuous
 62
     7
100
AcDbSpline
210
0.0
220
0.0
230
1.0
 70
     8
 71
     3
 72
    43
 73
    39
 74
    37
 42
0.0000000001
 43
0.0000000001
 44
0.00000001
 40
0.0
 40
0.0
 40
0.0
 40
0.0
 40
1.383335835044083
 40
2.766087446073511
 40
4.204892712246664
 40
5.642800013174112
 40
7.162604279172495
 40
8.681500001657104
 40
10.29524489492409
 40
11.90823552353611
 40
13.61644943653905
 40
15.32410237063827
 40
17.11667852780252
 40
18.90886996595738
 40
20.76744903721388
 40
22.62579085662557
 40
24.52622421590816
 40
26.42654490323742
 40
28.34126908281922
 40
30.25599326240102
 40
32.15631394972921
 40
34.05674730900841
 40
35.91508912841663
 40
37.77366819967133
 40
39.5658596378271
 40
41.35843579499561
 40
43.06608872909768
 40
44.77430264209837
 40
46.38729327070721
 40
48.00103816397328
 40
49.51993388645865
 40
51.03973815245907
 40
52.47764545338819
 40
53.91645071956179
 40
55.29920233059062
 40
56.68253816563352
 40
57.15912142288413
 40
57.63402518484247
 40
57.63402518484247
 40
57.63402518484247
 40
57.63402518484247
 10
189.0103942031128
 20
236.6628150209017
 30
0.0
 10
188.9374611700033
 20
237.1187321425376
 30
0.0
 10
188.7916259055811
 20
238.0303738384
 30
0.0
 10
188.3567806487177
 20
239.3681375928636
 30
0.0
 10
187.7770796282154
 20
240.666772259991
 30
0.0
 10
187.0288948599001
 20
241.9304753932413
 30
0.0
 10
186.1389358298551
 20
243.1314081968163
 30
0.0
 10
185.0948995272107
 20
244.2812852809486
 30
0.0
 10
183.9264297769068
 20
245.3508437982675
 30
0.0
 10
182.6195187257081
 20
246.3529189456912
 30
0.0
 10
181.2085569882861
 20
247.2613722591656
 30
0.0
 10
179.6792686293457
 20
248.0865954554547
 30
0.0
 10
178.0677635862552
 20
248.8082419661009
 30
0.0
 10
176.3627311074852
 20
249.4328401570336
 30
0.0
 10
174.5982819918446
 20
249.9466932951229
 30
0.0
 10
172.7691001146976
 20
250.3527845716347
 30
0.0
 10
170.9039853658435
 20
250.6434530500218
 30
0.0
 10
169.0057729423189
 20
250.8196039096906
 30
0.0
 10
167.0955347136905
 20
250.8780152375396
 30
0.0
 10
165.1852964850138
 20
250.8196039096939
 30
0.0
 10
163.2870840616355
 20
250.6434530500094
 30
0.0
 10
161.4219693122583
 20
250.3527845716819
 30
0.0
 10
159.5927874370324
 20
249.9466932949509
 30
0.0
 10
157.8283383143531
 20
249.4328401576651
 30
0.0
 10
156.1233058609597
 20
248.808241963835
 30
0.0
 10
154.5118007253489
 20
248.0865954637515
 30
0.0
 10
152.9825126960991
 20
247.2613722298256
 30
0.0
 10
151.5715497631817
 20
246.3529190528293
 30
0.0
 10
150.2646429372707
 20
245.3508434230411
 30
0.0
 10
149.0961579090077
 20
244.2812866498726
 30
0.0
 10
148.0521754467001
 20
243.1314034192634
 30
0.0
 10
147.1620215280148
 20
241.9304928644074
 30
0.0
 10
146.4145270041005
 20
240.6667109320364
 30
0.0
 10
145.8323118645965
 20
239.3683632797205
 30
0.0
 10
145.4065042515317
 20
238.0295677771046
 30
0.0
 10
145.2093946784118
 20
236.9638397447463
 30
0.0
 10
145.1273761063446
 20
236.1896437274981
 30
0.0
 10
145.1113569957893
 20
235.8728268830687
 30
0.0
 10
145.1033615783927
 20
235.7146980718144
 30
0.0
 11
189.0103942031128
 21
236.6628150209017
 31
0.0
 11
188.7565259896781
 21
238.0226565420815
 31
0.0
 11
188.340430016494
 21
239.3413172865129
 31
0.0
 11
187.7524328542464
 21
240.6544889931668
 31
0.0
 11
187.0228213263064
 21
241.8935388002196
 31
0.0
 11
186.1192929907181
 21
243.1156032640414
 31
0.0
 11
185.1001191435825
 21
244.2418043495926
 31
0.0
 11
183.9112266261708
 21
245.3329996403576
 31
0.0
 11
182.6324019985981
 21
246.316028805695
 31
0.0
 11
181.1972566547376
 21
247.2425020187845
 31
0.0
 11
179.6951427798497
 21
248.054741177042
 31
0.0
 11
178.0598125980551
 21
248.7889240396486
 31
0.0
 11
176.3773268697253
 21
249.4063314618279
 31
0.0
 11
174.5932319410065
 21
249.9272167173617
 31
0.0
 11
172.7791793731376
 21
250.3305126369825
 31
0.0
 11
170.9015349485394
 21
250.6239378708144
 31
0.0
 11
169.0093539953759
 21
250.79963634883
 31
0.0
 11
167.0955347136824
 21
250.8584958501292
 31
0.0
 11
165.1817154319888
 21
250.79963634883
 31
0.0
 11
163.2895344788265
 21
250.6239378708144
 31
0.0
 11
161.4118900542317
 21
250.3305126369825
 31
0.0
 11
159.5978374863664
 21
249.9272167173617
 31
0.0
 11
157.8137425576495
 21
249.4063314618279
 31
0.0
 11
156.1312568293186
 21
248.7889240396487
 31
0.0
 11
154.4959266475194
 21
248.054741177042
 31
0.0
 11
152.9938127726282
 21
247.2425020187845
 31
0.0
 11
151.5586674287704
 21
246.316028805695
 31
0.0
 11
150.2798428012017
 21
245.3329996403576
 31
0.0
 11
149.0909502837913
 21
244.2418043495926
 31
0.0
 11
148.0717764366546
 21
243.1156032640413
 31
0.0
 11
147.1682481010628
 21
241.8935388002196
 31
0.0
 11
146.4386365731195
 21
240.6544889931669
 31
0.0
 11
145.8506394108708
 21
239.341317286513
 31
0.0
 11
145.4345434376886
 21
238.0226565420815
 31
0.0
 11
145.1806752242597
 21
236.6628150209019
 31
0.0
 11
145.1316837576043
 21
236.1887565463583
 31
0.0
 11
145.1033615783927
 21
235.7146980718144
 31
0.0
  0
SPLINE
  5
9E
330
39
100
AcDbEntity
  8
1
  6
Continuous
 62
     7
100
AcDbSpline
210
0.0
220
0.0
230
1.0
 70
     8
 71
     3
 72
    57
 73
    53
 74
    51
 42
0.0000000001
 43
0.0000000001
 44
0.00000001
 40
0.0
 40
0.0
 40
0.0
 40
0.0
 40
1.383335835043496
 40
2.766087446073223
 40
4.204892712246843
 40
5.642800013174315
 40
7.162604279172447
 40
8.681500001656783
 40
10.29524489492365
 40
11.90823552353592
 40
13.61644943653913
 40
15.32410237063841
 40
17.11667852780266
 40
18.90886996595752
 40
20.76744903721401
 40
22.62579085662567
 40
24.52622421590824
 40
26.42654490323751
 40
28.34126908281932
 40
30.25599326240112
 40
32.15631394972932
 40
34.05674730900849
 40
35.91508912841669
 40
37.77366819967137
 40
39.56585963782715
 40
41.35843579499564
 40
43.06608872909779
 40
44.77430264209874
 40
46.38729327070786
 40
48.00103816397377
 40
49.51993388645887
 40
51.03973815245904
 40
52.4776454533882
 40
53.91645071956227
 40
55.29920233059182
 40
56.68253816563517
 40
58.04586765035712
 40
59.40919713507912
 40
60.79253297012225
 40
62.1752845811513
 40
63.61408984732495
 40
65.05199714825412
 40
66.57180141425445
 40
68.09069713673959
 40
69.70444203000554
 40
71.31743265861473
 40
73.02564657161574
 40
74.73329950571775
 40
76.52587566288663
 40
78.31806710104418
 40
79.10085213671562
 40
79.88278280437535
 40
79.88278280437535
 40
79.88278280437535
 40
79.88278280437535
 10
189.0103942031128
 20
234.8950480679355
 30
0.0
 10
188.9374611700033
 20
235.3509651895712
 30
0.0
 10
188.791625905581
 20
236.2626068854335
 30
0.0
 10
188.3567806487178
 20
237.6003706398972
 30
0.0
 10
187.7770796282154
 20
238.8990053070249
 30
0.0
 10
187.0288948599003
 20
240.1627084402754
 30
0.0
 10
186.1389358298552
 20
241.3636412438501
 30
0.0
 10
185.0948995272106
 20
242.513518327982
 30
0.0
 10
183.9264297769067
 20
243.5830768453007
 30
0.0
 10
182.6195187257081
 20
244.5851519927248
 30
0.0
 10
181.2085569882861
 20
245.4936053061996
 30
0.0
 10
179.6792686293458
 20
246.318828502489
 30
0.0
 10
178.0677635862552
 20
247.0404750131352
 30
0.0
 10
176.3627311074852
 20
247.6650732040677
 30
0.0
 10
174.5982819918446
 20
248.1789263421571
 30
0.0
 10
172.7691001146975
 20
248.5850176186686
 30
0.0
 10
170.9039853658435
 20
248.8756860970559
 30
0.0
 10
169.0057729423187
 20
249.0518369567247
 30
0.0
 10
167.0955347136909
 20
249.1102482845737
 30
0.0
 10
165.1852964850123
 20
249.0518369567285
 30
0.0
 10
163.2870840616414
 20
248.8756860970412
 30
0.0
 10
161.4219693122365
 20
248.5850176187232
 30
0.0
 10
159.5927874371115
 20
248.1789263419587
 30
0.0
 10
157.828338314062
 20
247.6650732047969
 30
0.0
 10
156.1233058620032
 20
247.0404750105195
 30
0.0
 10
154.5118007215269
 20
246.3188285120668
 30
0.0
 10
152.9825127096155
 20
245.4936052723293
 30
0.0
 10
151.5715497138274
 20
244.5851521164053
 30
0.0
 10
150.264643110123
 20
243.5830764121383
 30
0.0
 10
149.0961572783965
 20
242.513519908272
 30
0.0
 10
148.052177647536
 20
241.3636357286292
 30
0.0
 10
147.162013479716
 20
240.1627286090399
 30
0.0
 10
146.4145552555464
 20
238.8989345098568
 30
0.0
 10
145.832207899284
 20
237.6006311734564
 30
0.0
 10
145.4068755731756
 20
236.2616763659459
 30
0.0
 10
145.1541129513421
 20
234.9050994766503
 30
0.0
 10
145.0664589329574
 20
233.5343797110642
 30
0.0
 10
145.1541129513551
 20
232.1636599455155
 30
0.0
 10
145.4068755731228
 20
230.8070830561063
 30
0.0
 10
145.8322078994852
 20
229.4681282490209
 30
0.0
 10
146.414555254761
 20
228.1698249109761
 30
0.0
 10
147.1620134827122
 20
226.9060308180945
 30
0.0
 10
148.0521776356469
 20
225.705123673702
 30
0.0
 10
149.096157323824
 20
224.5552395895654
 30
0.0
 10
150.2646429288148
 20
223.4856827078904
 30
0.0
 10
151.571550405607
 20
222.4836084584449
 30
0.0
 10
152.9825099583657
 20
221.5751495654192
 30
0.0
 10
154.51181118132
 20
220.7499483391728
 30
0.0
 10
156.1232646673339
 20
220.0282157691598
 30
0.0
 10
157.4914816971694
 20
219.5273232889404
 30
0.0
 10
158.5593649363252
 20
219.1924877670541
 30
0.0
 10
159.0620961916246
 20
219.0534421817105
 30
0.0
 10
159.3133245683021
 20
218.9839573499603
 30
0.0
 11
189.0103942031128
 21
234.8950480679355
 31
0.0
 11
188.7565259896781
 21
236.2548895891147
 31
0.0
 11
188.340430016494
 21
237.5735503335465
 31
0.0
 11
187.7524328542464
 21
238.8867220402009
 31
0.0
 11
187.0228213263064
 21
240.1257718472537
 31
0.0
 11
186.1192929907181
 21
241.3478363110751
 31
0.0
 11
185.1001191435825
 21
242.474037396626
 31
0.0
 11
183.9112266261708
 21
243.5652326873909
 31
0.0
 11
182.6324019985981
 21
244.5482618527286
 31
0.0
 11
181.1972566547376
 21
245.4747350658186
 31
0.0
 11
179.6951427798497
 21
246.2869742240763
 31
0.0
 11
178.0598125980551
 21
247.0211570866829
 31
0.0
 11
176.3773268697253
 21
247.6385645088622
 31
0.0
 11
174.5932319410065
 21
248.159449764396
 31
0.0
 11
172.7791793731376
 21
248.5627456840166
 31
0.0
 11
170.9015349485394
 21
248.8561709178484
 31
0.0
 11
169.0093539953759
 21
249.031869395864
 31
0.0
 11
167.0955347136824
 21
249.0907288971633
 31
0.0
 11
165.1817154319888
 21
249.031869395864
 31
0.0
 11
163.2895344788265
 21
248.8561709178484
 31
0.0
 11
161.4118900542317
 21
248.5627456840166
 31
0.0
 11
159.5978374863664
 21
248.159449764396
 31
0.0
 11
157.8137425576495
 21
247.6385645088622
 31
0.0
 11
156.1312568293186
 21
247.0211570866829
 31
0.0
 11
154.4959266475194
 21
246.2869742240763
 31
0.0
 11
152.9938127726282
 21
245.4747350658186
 31
0.0
 11
151.5586674287704
 21
244.5482618527286
 31
0.0
 11
150.2798428012017
 21
243.5652326873908
 31
0.0
 11
149.0909502837913
 21
242.474037396626
 31
0.0
 11
148.0717764366546
 21
241.3478363110751
 31
0.0
 11
147.1682481010628
 21
240.1257718472537
 31
0.0
 11
146.4386365731195
 21
238.8867220402009
 31
0.0
 11
145.8506394108708
 21
237.5735503335465
 31
0.0
 11
145.434543437688
 21
236.2548895891145
 31
0.0
 11
145.1806752242572
 21
234.8950480679347
 31
0.0
 11
145.095534713685
 21
233.5343797110704
 31
0.0
 11
145.1806752242572
 21
232.1737113542061
 31
0.0
 11
145.434543437688
 21
230.8138698330265
 31
0.0
 11
145.8506394108708
 21
229.4952090885951
 31
0.0
 11
146.4386365731195
 21
228.1820373819411
 31
0.0
 11
147.1682481010628
 21
226.9429875748883
 31
0.0
 11
148.0717764366545
 21
225.7209231110666
 31
0.0
 11
149.0909502837913
 21
224.5947220255158
 31
0.0
 11
150.2798428012017
 21
223.5035267347508
 31
0.0
 11
151.5586674287704
 21
222.5204975694129
 31
0.0
 11
152.9938127726282
 21
221.5940243563229
 31
0.0
 11
154.4959266475194
 21
220.7817851980655
 31
0.0
 11
156.1312568293192
 21
220.0476023354591
 31
0.0
 11
157.8137425576518
 21
219.4301949132795
 31
0.0
 11
158.5608809268848
 21
219.1966640388946
 31
0.0
 11
159.3133245683021
 21
218.9839573499603
 31
0.0
  0
ARC
  5
9F
330
39
100
AcDbEntity
  8
1
  6
Continuous
 62
     7
100
AcDbCircle
 10
264.0567542416829
 20
249.6177481213076
 30
0.0
 40
1.49999999999389
100
AcDbArc
 50
150.0000000000069
 51
-149.9999999999007
  0
ARC
  5
A0
330
39
100
AcDbEntity
  8
1
  6
Continuous
 62
     7
100
AcDbCircle
 10
263.9897669435813
 20
250.7337735250926
 30
0.0
 40
0.4999999999991057
100
AcDbArc
 50
30.00000000005917
 51
120.000000000012
  0
ARC
  5
A1
330
39
100
AcDbEntity
  8
1
  6
Continuous
 62
     7
100
AcDbCircle
 10
264.0567542416829
 20
249.6177481213076
 30
0.0
 40
1.500000000000296
100
AcDbArc
 50
119.9999999999935
 51
150.0000000000069
  0
ENDBLK
  5
3B
330
39
100
AcDbEntity
  8
0
100
AcDbBlockEnd
  0
BLOCK
  5
3D
330
3C
100
AcDbEntity
  8
0
100
AcDbBlockBegin
  2
V97-30-Z1__1
 70
     0
 71
     0
 10
521.0570954073228
 20
246.1716770693975
 30
0.0
  3
V97-30-Z1__1
  1

  0
LINE
  5
A2
330
3C
100
AcDbEntity
  8
0
  6
DASH_CENTER
 62
     2
100
AcDbLine
 10
317.6070954073221
 20
446.1716770693984
 30
0.0
 11
317.6070954073221
 21
471.4116770693986
 31
0.0
  0
LINE
  5
A3
330
3C
100
AcDbEntity
  8
0
  6
Continuous
 62
     7
100
AcDbLine
 10
316.1670954073215
 20
461.6116770693984
 30
0.0
 11
319.0470954073226
 21
461.6116770693984
 31
0.0
  0
LINE
  5
A4
330
3C
100
AcDbEntity
  8
0
  6
Continuous
 62
     7
100
AcDbLine
 10
315.9070954073213
 20
465.9116770693986
 30
0.0
 11
319.3070954073228
 21
465.9116770693986
 31
0.0
  0
LINE
  5
A5
330
3C
100
AcDbEntity
  8
0
  6
Continuous
 62
     7
100
AcDbLine
 10
315.9070954073213
 20
452.5116770693985
 30
0.0
 11
319.3070954073228
 21
453.2116770693983
 31
0.0
  0
LINE
  5
A6
330
3C
100
AcDbEntity
  8
0
  6
Continuous
 62
     7
100
AcDbLine
 10
315.9070954073213
 20
453.9116770693986
 30
0.0
 11
319.3070954073228
 21
454.6116770693984
 31
0.0
  0
LINE
  5
A7
330
3C
100
AcDbEntity
  8
0
  6
Continuous
 62
     7
100
AcDbLine
 10
315.9070954073213
 20
455.3116770693987
 30
0.0
 11
319.3070954073228
 21
456.0116770693985
 31
0.0
  0
LINE
  5
A8
330
3C
100
AcDbEntity
  8
0
  6
Continuous
 62
     7
100
AcDbLine
 10
315.9070954073213
 20
456.7116770693983
 30
0.0
 11
319.3070954073228
 21
457.4116770693986
 31
0.0
  0
LINE
  5
A9
330
3C
100
AcDbEntity
  8
0
  6
Continuous
 62
     7
100
AcDbLine
 10
315.9070954073213
 20
458.1116770693984
 30
0.0
 11
319.3070954073228
 21
458.8116770693987
 31
0.0
  0
LINE
  5
AA
330
3C
100
AcDbEntity
  8
0
  6
Continuous
 62
     7
100
AcDbLine
 10
315.9070954073213
 20
459.5116770693985
 30
0.0
 11
319.3070954073228
 21
460.2116770693983
 31
0.0
  0
LINE
  5
AB
330
3C
100
AcDbEntity
  8
0
  6
Continuous
 62
     7
100
AcDbLine
 10
315.9070954073213
 20
460.9116770693986
 30
0.0
 11
319.3070954073228
 21
461.6116770693984
 31
0.0
  0
LINE
  5
AC
330
3C
100
AcDbEntity
  8
0
  6
Continuous
 62
     7
100
AcDbLine
 10
315.9070954073213
 20
461.6116770693984
 30
0.0
 11
316.1670954073215
 21
461.6116770693984
 31
0.0
  0
LINE
  5
AD
330
3C
100
AcDbEntity
  8
0
  6
Continuous
 62
     7
100
AcDbLine
 10
316.1670954073215
 20
461.6116770693984
 30
0.0
 11
316.1670954073215
 21
451.6658302322976
 31
0.0
  0
LINE
  5
AE
330
3C
100
AcDbEntity
  8
0
  6
Continuous
 62
     7
100
AcDbLine
 10
316.1670954073215
 20
451.6658302322976
 30
0.0
 11
317.6070954073221
 21
449.1716770693984
 31
0.0
  0
LINE
  5
AF
330
3C
100
AcDbEntity
  8
0
  6
Continuous
 62
     7
100
AcDbLine
 10
317.6070954073221
 20
449.1716770693984
 30
0.0
 11
319.0470954073226
 21
451.6658302322976
 31
0.0
  0
LINE
  5
B0
330
3C
100
AcDbEntity
  8
0
  6
Continuous
 62
     7
100
AcDbLine
 10
319.0470954073226
 20
451.6658302322976
 30
0.0
 11
319.0470954073226
 21
461.6116770693984
 31
0.0
  0
LINE
  5
B1
330
3C
100
AcDbEntity
  8
0
  6
Continuous
 62
     7
100
AcDbLine
 10
319.0470954073226
 20
461.6116770693984
 30
0.0
 11
319.3070954073228
 21
461.6116770693984
 31
0.0
  0
LINE
  5
B2
330
3C
100
AcDbEntity
  8
0
  6
Continuous
 62
     7
100
AcDbLine
 10
314.1570954073213
 20
467.6616770693986
 30
0.0
 11
321.0570954073228
 21
467.6616770693986
 31
0.0
  0
LINE
  5
B3
330
3C
100
AcDbEntity
  8
0
  6
Continuous
 62
     7
100
AcDbLine
 10
314.1570954073213
 20
467.6616770693986
 30
0.0
 11
315.9070954073213
 21
465.9116770693986
 31
0.0
  0
LINE
  5
B4
330
3C
100
AcDbEntity
  8
0
  6
Continuous
 62
     7
100
AcDbLine
 10
315.9070954073213
 20
465.9116770693986
 30
0.0
 11
315.9070954073213
 21
461.6116770693984
 31
0.0
  0
LINE
  5
B5
330
3C
100
AcDbEntity
  8
0
  6
Continuous
 62
     7
100
AcDbLine
 10
319.3070954073228
 20
461.6116770693984
 30
0.0
 11
319.3070954073228
 21
465.9116770693986
 31
0.0
  0
LINE
  5
B6
330
3C
100
AcDbEntity
  8
0
  6
Continuous
 62
     7
100
AcDbLine
 10
319.3070954073228
 20
465.9116770693986
 30
0.0
 11
321.0570954073228
 21
467.6616770693986
 31
0.0
  0
LINE
  5
B7
330
3C
100
AcDbEntity
  8
0
  6
Continuous
 62
     7
100
AcDbLine
 10
321.0570954073228
 20
467.6616770693986
 30
0.0
 11
321.0570954073228
 21
468.4116770693986
 31
0.0
  0
LINE
  5
B8
330
3C
100
AcDbEntity
  8
0
  6
Continuous
 62
     7
100
AcDbLine
 10
321.0570954073228
 20
468.4116770693986
 30
0.0
 11
314.1570954073213
 21
468.4116770693986
 31
0.0
  0
LINE
  5
B9
330
3C
100
AcDbEntity
  8
0
  6
Continuous
 62
     7
100
AcDbLine
 10
314.1570954073213
 20
468.4116770693986
 30
0.0
 11
314.1570954073213
 21
467.6616770693986
 31
0.0
  0
LINE
  5
BA
330
3C
100
AcDbEntity
  8
1
  6
Continuous
 62
     7
100
AcDbLine
 10
316.1570969980621
 20
451.1631479851385
 30
0.0
 11
319.3070954073228
 21
451.8116770693987
 31
0.0
  0
LINE
  5
BB
330
3C
100
AcDbEntity
  8
1
  6
Continuous
 62
     7
100
AcDbLine
 10
316.950511178602
 20
449.7889143130014
 30
0.0
 11
318.4408279783729
 21
450.0957442423664
 31
0.0
  0
ENDBLK
  5
3E
330
3C
100
AcDbEntity
  8
0
100
AcDbBlockEnd
  0
BLOCK
  5
40
330
3F
100
AcDbEntity
  8
0
100
AcDbBlockBegin
  2
V97-30-Z1__2
 70
     0
 71
     0
 10
531.0570954073228
 20
246.1716770693975
 30
0.0
  3
V97-30-Z1__2
  1

  0
LINE
  5
BC
330
3F
100
AcDbEntity
  8
1
  6
Continuous
 62
     7
100
AcDbLine
 10
326.950511178602
 20
449.7889143130014
 30
0.0
 11
328.4408279783729
 21
450.0957442423664
 31
0.0
  0
LINE
  5
BD
330
3F
100
AcDbEntity
  8
1
  6
Continuous
 62
     7
100
AcDbLine
 10
326.1570969980621
 20
451.1631479851385
 30
0.0
 11
329.3070954073228
 21
451.8116770693987
 31
0.0
  0
LINE
  5
BE
330
3F
100
AcDbEntity
  8
0
  6
Continuous
 62
     7
100
AcDbLine
 10
324.1570954073213
 20
468.4116770693986
 30
0.0
 11
324.1570954073213
 21
467.6616770693986
 31
0.0
  0
LINE
  5
BF
330
3F
100
AcDbEntity
  8
0
  6
Continuous
 62
     7
100
AcDbLine
 10
331.0570954073228
 20
468.4116770693986
 30
0.0
 11
324.1570954073213
 21
468.4116770693986
 31
0.0
  0
LINE
  5
C0
330
3F
100
AcDbEntity
  8
0
  6
Continuous
 62
     7
100
AcDbLine
 10
331.0570954073228
 20
467.6616770693986
 30
0.0
 11
331.0570954073228
 21
468.4116770693986
 31
0.0
  0
LINE
  5
C1
330
3F
100
AcDbEntity
  8
0
  6
Continuous
 62
     7
100
AcDbLine
 10
329.3070954073228
 20
465.9116770693986
 30
0.0
 11
331.0570954073228
 21
467.6616770693986
 31
0.0
  0
LINE
  5
C2
330
3F
100
AcDbEntity
  8
0
  6
Continuous
 62
     7
100
AcDbLine
 10
329.3070954073228
 20
461.6116770693984
 30
0.0
 11
329.3070954073228
 21
465.9116770693986
 31
0.0
  0
LINE
  5
C3
330
3F
100
AcDbEntity
  8
0
  6
Continuous
 62
     7
100
AcDbLine
 10
325.9070954073213
 20
465.9116770693986
 30
0.0
 11
325.9070954073213
 21
461.6116770693984
 31
0.0
  0
LINE
  5
C4
330
3F
100
AcDbEntity
  8
0
  6
Continuous
 62
     7
100
AcDbLine
 10
324.1570954073213
 20
467.6616770693986
 30
0.0
 11
325.9070954073213
 21
465.9116770693986
 31
0.0
  0
LINE
  5
C5
330
3F
100
AcDbEntity
  8
0
  6
Continuous
 62
     7
100
AcDbLine
 10
324.1570954073213
 20
467.6616770693986
 30
0.0
 11
331.0570954073228
 21
467.6616770693986
 31
0.0
  0
LINE
  5
C6
330
3F
100
AcDbEntity
  8
0
  6
Continuous
 62
     7
100
AcDbLine
 10
329.0470954073226
 20
461.6116770693984
 30
0.0
 11
329.3070954073228
 21
461.6116770693984
 31
0.0
  0
LINE
  5
C7
330
3F
100
AcDbEntity
  8
0
  6
Continuous
 62
     7
100
AcDbLine
 10
329.0470954073226
 20
451.6658302322976
 30
0.0
 11
329.0470954073226
 21
461.6116770693984
 31
0.0
  0
LINE
  5
C8
330
3F
100
AcDbEntity
  8
0
  6
Continuous
 62
     7
100
AcDbLine
 10
327.6070954073221
 20
449.1716770693984
 30
0.0
 11
329.0470954073226
 21
451.6658302322976
 31
0.0
  0
LINE
  5
C9
330
3F
100
AcDbEntity
  8
0
  6
Continuous
 62
     7
100
AcDbLine
 10
326.1670954073215
 20
451.6658302322976
 30
0.0
 11
327.6070954073221
 21
449.1716770693984
 31
0.0
  0
LINE
  5
CA
330
3F
100
AcDbEntity
  8
0
  6
Continuous
 62
     7
100
AcDbLine
 10
326.1670954073215
 20
461.6116770693984
 30
0.0
 11
326.1670954073215
 21
451.6658302322976
 31
0.0
  0
LINE
  5
CB
330
3F
100
AcDbEntity
  8
0
  6
Continuous
 62
     7
100
AcDbLine
 10
325.9070954073213
 20
461.6116770693984
 30
0.0
 11
326.1670954073215
 21
461.6116770693984
 31
0.0
  0
LINE
  5
CC
330
3F
100
AcDbEntity
  8
0
  6
Continuous
 62
     7
100
AcDbLine
 10
325.9070954073213
 20
460.9116770693986
 30
0.0
 11
329.3070954073228
 21
461.6116770693984
 31
0.0
  0
LINE
  5
CD
330
3F
100
AcDbEntity
  8
0
  6
Continuous
 62
     7
100
AcDbLine
 10
325.9070954073213
 20
459.5116770693985
 30
0.0
 11
329.3070954073228
 21
460.2116770693983
 31
0.0
  0
LINE
  5
CE
330
3F
100
AcDbEntity
  8
0
  6
Continuous
 62
     7
100
AcDbLine
 10
325.9070954073213
 20
458.1116770693984
 30
0.0
 11
329.3070954073228
 21
458.8116770693987
 31
0.0
  0
LINE
  5
CF
330
3F
100
AcDbEntity
  8
0
  6
Continuous
 62
     7
100
AcDbLine
 10
325.9070954073213
 20
456.7116770693983
 30
0.0
 11
329.3070954073228
 21
457.4116770693986
 31
0.0
  0
LINE
  5
D0
330
3F
100
AcDbEntity
  8
0
  6
Continuous
 62
     7
100
AcDbLine
 10
325.9070954073213
 20
455.3116770693987
 30
0.0
 11
329.3070954073228
 21
456.0116770693985
 31
0.0
  0
LINE
  5
D1
330
3F
100
AcDbEntity
  8
0
  6
Continuous
 62
     7
100
AcDbLine
 10
325.9070954073213
 20
453.9116770693986
 30
0.0
 11
329.3070954073228
 21
454.6116770693984
 31
0.0
  0
LINE
  5
D2
330
3F
100
AcDbEntity
  8
0
  6
Continuous
 62
     7
100
AcDbLine
 10
325.9070954073213
 20
452.5116770693985
 30
0.0
 11
329.3070954073228
 21
453.2116770693983
 31
0.0
  0
LINE
  5
D3
330
3F
100
AcDbEntity
  8
0
  6
Continuous
 62
     7
100
AcDbLine
 10
325.9070954073213
 20
465.9116770693986
 30
0.0
 11
329.3070954073228
 21
465.9116770693986
 31
0.0
  0
LINE
  5
D4
330
3F
100
AcDbEntity
  8
0
  6
Continuous
 62
     7
100
AcDbLine
 10
326.1670954073215
 20
461.6116770693984
 30
0.0
 11
329.0470954073226
 21
461.6116770693984
 31
0.0
  0
LINE
  5
D5
330
3F
100
AcDbEntity
  8
0
  6
DASH_CENTER
 62
     2
100
AcDbLine
 10
327.6070954073221
 20
446.1716770693984
 30
0.0
 11
327.6070954073221
 21
471.4116770693986
 31
0.0
  0
ENDBLK
  5
41
330
3F
100
AcDbEntity
  8
0
100
AcDbBlockEnd
  0
BLOCK
  5
43
330
42
100
AcDbEntity
  8
0
100
AcDbBlockBegin
  2
V97-H11
 70
     0
 71
     0
 10
870.3613366859518
 20
675.6735769298475
 30
0.0
  3
V97-H11
  1

  0
LINE
  5
D6
330
42
100
AcDbEntity
  8
0
  6
Continuous
 62
     7
100
AcDbLine
 10
330.6706605549716
 20
309.1241048150637
 30
0.0
 11
302.4206967266728
 21
309.1241048150637
 31
0.0
  0
LINE
  5
D7
330
42
100
AcDbEntity
  8
0
  6
Continuous
 62
     7
100
AcDbLine
 10
283.4206605549716
 20
308.1241048150637
 30
0.0
 11
302.4206967266728
 21
308.1241048150637
 31
0.0
  0
LINE
  5
D8
330
42
100
AcDbEntity
  8
0
  6
Continuous
 62
     7
100
AcDbLine
 10
283.4206605549716
 20
307.1241048150637
 30
0.0
 11
302.4206967266728
 21
307.1241048150637
 31
0.0
  0
LINE
  5
D9
330
42
100
AcDbEntity
  8
0
  6
Continuous
 62
     7
100
AcDbLine
 10
301.4206967266728
 20
289.8741048150637
 30
0.0
 11
301.4206967266728
 21
304.6241048150637
 31
0.0
  0
LINE
  5
DA
330
42
100
AcDbEntity
  8
0
  6
Continuous
 62
     7
100
AcDbLine
 10
302.4206967266728
 20
287.8741048150637
 30
0.0
 11
302.4206967266728
 21
289.8741048150637
 31
0.0
  0
LINE
  5
DB
330
42
100
AcDbEntity
  8
0
  6
Continuous
 62
     7
100
AcDbLine
 10
303.4206967266728
 20
224.6241048150623
 30
0.0
 11
312.4206605549716
 21
224.6241048150623
 31
0.0
  0
LINE
  5
DC
330
42
100
AcDbEntity
  8
0
  6
Continuous
 62
     7
100
AcDbLine
 10
284.4206605549716
 20
233.1241048150623
 30
0.0
 11
312.4206605549716
 21
233.1241048150623
 31
0.0
  0
LINE
  5
DD
330
42
100
AcDbEntity
  8
0
  6
Continuous
 62
     7
100
AcDbLine
 10
284.4206605549716
 20
268.6241048150623
 30
0.0
 11
312.4206605549825
 21
268.6241048150623
 31
0.0
  0
LINE
  5
DE
330
42
100
AcDbEntity
  8
0
  6
Continuous
 62
     7
100
AcDbLine
 10
284.4206605549716
 20
277.1241048150623
 30
0.0
 11
312.4206605549825
 21
277.1241048150623
 31
0.0
  0
LINE
  5
DF
330
42
100
AcDbEntity
  8
0
  6
Continuous
 62
     7
100
AcDbLine
 10
332.6706605549716
 20
306.6241048150637
 30
0.0
 11
332.6706605549716
 21
304.6241048150637
 31
0.0
  0
LINE
  5
E0
330
42
100
AcDbEntity
  8
0
  6
Continuous
 62
     7
100
AcDbLine
 10
330.6706605549716
 20
306.6241048150637
 30
0.0
 11
330.6706605549716
 21
309.1241048150637
 31
0.0
  0
LINE
  5
E1
330
42
100
AcDbEntity
  8
0
  6
Continuous
 62
     7
100
AcDbLine
 10
330.6706605549716
 20
209.6241048150623
 30
0.0
 11
302.4206967266728
 21
209.6241048150623
 31
0.0
  0
LINE
  5
E2
330
42
100
AcDbEntity
  8
0
  6
Continuous
 62
     7
100
AcDbLine
 10
330.6706605549716
 20
214.8741048150623
 30
0.0
 11
330.6706605549716
 21
212.1241048150623
 31
0.0
  0
LINE
  5
E3
330
42
100
AcDbEntity
  8
0
  6
Continuous
 62
     7
100
AcDbLine
 10
301.4206967266728
 20
304.6241048150637
 30
0.0
 11
302.4206967266728
 21
304.6241048150637
 31
0.0
  0
LINE
  5
E4
330
42
100
AcDbEntity
  8
0
  6
Continuous
 62
     7
100
AcDbLine
 10
333.6706605549716
 20
225.3741048150623
 30
0.0
 11
333.6706605549716
 21
232.3741048150623
 31
0.0
  0
LINE
  5
E5
330
42
100
AcDbEntity
  8
0
  6
Continuous
 62
     7
100
AcDbLine
 10
333.6706605549716
 20
269.3741048150623
 30
0.0
 11
333.6706605549716
 21
276.3741048150623
 31
0.0
  0
LINE
  5
E6
330
42
100
AcDbEntity
  8
0
  6
Continuous
 62
     7
100
AcDbLine
 10
301.4206967266728
 20
214.2241048150627
 30
0.0
 11
302.4206967266728
 21
214.2241048150627
 31
0.0
  0
LINE
  5
E7
330
42
100
AcDbEntity
  8
0
  6
Continuous
 62
     7
100
AcDbLine
 10
302.4206967266728
 20
289.8741048150637
 30
0.0
 11
301.4206967266728
 21
289.8741048150637
 31
0.0
  0
LINE
  5
E8
330
42
100
AcDbEntity
  8
0
  6
Continuous
 62
     7
100
AcDbLine
 10
301.4206967266728
 20
221.2241048150613
 30
0.0
 11
302.4206967266728
 21
221.2241048150613
 31
0.0
  0
LINE
  5
E9
330
42
100
AcDbEntity
  8
0
  6
Continuous
 62
     7
100
AcDbLine
 10
302.4206967266728
 20
287.8741048150637
 30
0.0
 11
284.4206605549716
 21
287.8741048150637
 31
0.0
  0
LINE
  5
EA
330
42
100
AcDbEntity
  8
0
  6
Continuous
 62
     7
100
AcDbLine
 10
330.6706605549716
 20
214.8741048150623
 30
0.0
 11
332.6706605549716
 21
214.8741048150623
 31
0.0
  0
LINE
  5
EB
330
42
100
AcDbEntity
  8
0
  6
Continuous
 62
     7
100
AcDbLine
 10
299.4206605549716
 20
258.8741048150623
 30
0.0
 11
313.5081906700016
 21
258.8741048150623
 31
0.0
  0
LINE
  5
EC
330
42
100
AcDbEntity
  8
0
  6
Continuous
 62
     7
100
AcDbLine
 10
299.4206605549716
 20
242.8741048150623
 30
0.0
 11
313.5081906700016
 21
242.8741048150623
 31
0.0
  0
LINE
  5
ED
330
42
100
AcDbEntity
  8
0
  6
Continuous
 62
     7
100
AcDbLine
 10
299.4206605549716
 20
255.8741048150623
 30
0.0
 11
299.4206605549716
 21
245.8741048150623
 31
0.0
  0
LINE
  5
EE
330
42
100
AcDbEntity
  8
0
  6
Continuous
 62
     7
100
AcDbLine
 10
310.3129654003915
 20
255.8741048150623
 30
0.0
 11
310.3129654003915
 21
245.8741048150623
 31
0.0
  0
LINE
  5
EF
330
42
100
AcDbEntity
  8
0
  6
DASH_CENTER
 62
     2
100
AcDbLine
 10
304.6168129776816
 20
254.3922197304446
 30
0.0
 11
304.6168129776816
 21
247.2925103880657
 31
0.0
  0
LINE
  5
F0
330
42
100
AcDbEntity
  8
0
  6
Continuous
 62
     7
100
AcDbLine
 10
332.6706605549716
 20
290.2741048150633
 30
0.0
 11
331.6706605549716
 21
290.2741048150633
 31
0.0
  0
LINE
  5
F1
330
42
100
AcDbEntity
  8
0
  6
Continuous
 62
     7
100
AcDbLine
 10
313.5081906700016
 20
244.8741048150623
 30
0.0
 11
299.4206605549716
 21
244.8741048150623
 31
0.0
  0
LINE
  5
F2
330
42
100
AcDbEntity
  8
0
  6
Continuous
 62
     7
100
AcDbLine
 10
313.5081906700016
 20
256.8741048150623
 30
0.0
 11
299.4206605549716
 21
256.8741048150623
 31
0.0
  0
LINE
  5
F3
330
42
100
AcDbEntity
  8
0
  6
DASH_CENTER
 62
     2
100
AcDbLine
 10
297.2750174238627
 20
250.8741048150623
 30
0.0
 11
324.5565556978727
 21
250.8741048150623
 31
0.0
  0
LINE
  5
F4
330
42
100
AcDbEntity
  8
1
  6
Continuous
 62
     7
100
AcDbLine
 10
332.6706605549716
 20
212.1241048150623
 30
0.0
 11
330.6706605549716
 21
212.1241048150623
 31
0.0
  0
LINE
  5
F5
330
42
100
AcDbEntity
  8
0
  6
Continuous
 62
     7
100
AcDbLine
 10
330.6706605549716
 20
212.1241048150623
 30
0.0
 11
330.6706605549716
 21
209.6241048150623
 31
0.0
  0
LINE
  5
F6
330
42
100
AcDbEntity
  8
0
  6
Continuous
 62
     7
100
AcDbLine
 10
332.6706605549716
 20
214.8741048150623
 30
0.0
 11
332.6706605549716
 21
212.1241048150623
 31
0.0
  0
LINE
  5
F7
330
42
100
AcDbEntity
  8
0
  6
Continuous
 62
     7
100
AcDbLine
 10
330.6706605549716
 20
211.6241048150623
 30
0.0
 11
331.1706605549716
 21
211.6241048150623
 31
0.0
  0
LINE
  5
F8
330
42
100
AcDbEntity
  8
0
  6
Continuous
 62
     7
100
AcDbLine
 10
330.6706605549716
 20
210.6241048150623
 30
0.0
 11
331.1706605549716
 21
210.6241048150623
 31
0.0
  0
LINE
  5
F9
330
42
100
AcDbEntity
  8
0
  6
Continuous
 62
     7
100
AcDbLine
 10
331.6706605549716
 20
214.8741048150623
 30
0.0
 11
331.6706605549716
 21
212.1241048150623
 31
0.0
  0
LINE
  5
FA
330
42
100
AcDbEntity
  8
0
  6
Continuous
 62
     7
100
AcDbLine
 10
302.4206967266728
 20
223.6241048150623
 30
0.0
 11
302.4206967266728
 21
221.2241048150613
 31
0.0
  0
LINE
  5
FB
330
42
100
AcDbEntity
  8
0
  6
Continuous
 62
     7
100
AcDbLine
 10
302.4206967266728
 20
214.2241048150627
 30
0.0
 11
302.4206967266728
 21
209.6241048150623
 31
0.0
  0
LINE
  5
FC
330
42
100
AcDbEntity
  8
0
  6
Continuous
 62
     7
100
AcDbLine
 10
330.6706605549716
 20
307.1241048150637
 30
0.0
 11
331.1706605549716
 21
307.1241048150637
 31
0.0
  0
LINE
  5
FD
330
42
100
AcDbEntity
  8
0
  6
Continuous
 62
     7
100
AcDbLine
 10
302.4206967266728
 20
309.1241048150637
 30
0.0
 11
302.4206605549716
 21
309.1241048150637
 31
0.0
  0
LINE
  5
FE
330
42
100
AcDbEntity
  8
0
  6
Continuous
 62
     7
100
AcDbLine
 10
330.6706605549716
 20
308.1241048150637
 30
0.0
 11
331.1706605549716
 21
308.1241048150637
 31
0.0
  0
LINE
  5
FF
330
42
100
AcDbEntity
  8
1
  6
Continuous
 62
     7
100
AcDbLine
 10
332.6706605549716
 20
306.6241048150637
 30
0.0
 11
330.6706605549716
 21
306.6241048150637
 31
0.0
  0
LINE
  5
100
330
42
100
AcDbEntity
  8
1
  6
Continuous
 62
     7
100
AcDbLine
 10
330.6706605549716
 20
304.6241048150637
 30
0.0
 11
332.6706605549716
 21
304.6241048150637
 31
0.0
  0
LINE
  5
101
330
42
100
AcDbEntity
  8
0
  6
Continuous
 62
     7
100
AcDbLine
 10
332.6706605549716
 20
304.6241048150637
 30
0.0
 11
332.6706605549716
 21
214.8741048150623
 31
0.0
  0
LINE
  5
102
330
42
100
AcDbEntity
  8
1
  6
Continuous
 62
     7
100
AcDbLine
 10
330.6706605549716
 20
304.6241048150637
 30
0.0
 11
330.6706605549716
 21
290.2741048150633
 31
0.0
  0
LINE
  5
103
330
42
100
AcDbEntity
  8
1
  6
Continuous
 62
     7
100
AcDbLine
 10
330.6706605549716
 20
290.2741048150633
 30
0.0
 11
331.6706605549716
 21
290.2741048150633
 31
0.0
  0
LINE
  5
104
330
42
100
AcDbEntity
  8
0
  6
Continuous
 62
     7
100
AcDbLine
 10
331.6706605549716
 20
304.6241048150637
 30
0.0
 11
331.6706605549716
 21
290.2741048150633
 31
0.0
  0
LINE
  5
105
330
42
100
AcDbEntity
  8
0
  6
Continuous
 62
     7
100
AcDbLine
 10
302.4206967266728
 20
304.6241048150637
 30
0.0
 11
302.4206967266728
 21
309.1241048150637
 31
0.0
  0
LINE
  5
106
330
42
100
AcDbEntity
  8
0
  6
Continuous
 62
     7
100
AcDbLine
 10
333.6706605549716
 20
278.8741048150623
 30
0.0
 11
333.6706605549716
 21
285.8741048150623
 31
0.0
  0
LINE
  5
107
330
42
100
AcDbEntity
  8
0
  6
Continuous
 62
     7
100
AcDbLine
 10
333.6706605549716
 20
235.6241048150623
 30
0.0
 11
333.6706605549716
 21
241.8741048150623
 31
0.0
  0
LINE
  5
108
330
42
100
AcDbEntity
  8
1
  6
PHANTOM
 62
     4
100
AcDbLine
 10
148.6669386164613
 20
415.0058765066374
 30
0.0
 11
140.3454530802319
 21
415.0058765066374
 31
0.0
  0
LINE
  5
109
330
42
100
AcDbEntity
  8
1
  6
PHANTOM
 62
     4
100
AcDbLine
 10
144.495534713682
 20
410.8344726038563
 30
0.0
 11
144.495534713682
 21
419.1559581400925
 31
0.0
  0
LINE
  5
10A
330
42
100
AcDbEntity
  8
1
  6
PHANTOM
 62
     4
100
AcDbLine
 10
189.6955347136827
 20
410.8344726038563
 30
0.0
 11
189.6955347136827
 21
419.1559581400925
 31
0.0
  0
LINE
  5
10B
330
42
100
AcDbEntity
  8
1
  6
PHANTOM
 62
     4
100
AcDbLine
 10
193.866938616462
 20
415.0058765066374
 30
0.0
 11
185.5454530802326
 21
415.0058765066374
 31
0.0
  0
LINE
  5
10C
330
42
100
AcDbEntity
  8
1
  6
Continuous
 62
     7
100
AcDbLine
 10
126.495534713682
 20
404.5058765066374
 30
0.0
 11
134.495534713682
 21
404.5058765066374
 31
0.0
  0
LINE
  5
10D
330
42
100
AcDbEntity
  8
1
  6
Continuous
 62
     7
100
AcDbLine
 10
126.495534713682
 20
404.5058765066374
 30
0.0
 11
126.495534713682
 21
384.5058765066374
 31
0.0
  0
LINE
  5
10E
330
42
100
AcDbEntity
  8
1
  6
Continuous
 62
     7
100
AcDbLine
 10
126.495534713682
 20
433.0058765066374
 30
0.0
 11
134.495534713682
 21
433.0058765066374
 31
0.0
  0
LINE
  5
10F
330
42
100
AcDbEntity
  8
1
  6
Continuous
 62
     7
100
AcDbLine
 10
126.495534713682
 20
434.0058765066374
 30
0.0
 11
126.495534713682
 21
433.0058765066374
 31
0.0
  0
LINE
  5
110
330
42
100
AcDbEntity
  8
1
  6
Continuous
 62
     7
100
AcDbLine
 10
207.6955347136827
 20
404.5058765066374
 30
0.0
 11
208.6955347136827
 21
404.5058765066374
 31
0.0
  0
LINE
  5
111
330
42
100
AcDbEntity
  8
1
  6
Continuous
 62
     7
100
AcDbLine
 10
207.6955347136827
 20
404.5058765066374
 30
0.0
 11
207.6955347136827
 21
384.5058765066374
 31
0.0
  0
LINE
  5
112
330
42
100
AcDbEntity
  8
1
  6
Continuous
 62
     7
100
AcDbLine
 10
207.6955347136827
 20
433.0058765066374
 30
0.0
 11
208.6955347136827
 21
433.0058765066374
 31
0.0
  0
LINE
  5
113
330
42
100
AcDbEntity
  8
1
  6
Continuous
 62
     7
100
AcDbLine
 10
207.6955347136827
 20
434.0058765066374
 30
0.0
 11
207.6955347136827
 21
433.0058765066374
 31
0.0
  0
LINE
  5
114
330
42
100
AcDbEntity
  8
1
  6
Continuous
 62
     7
100
AcDbLine
 10
135.495534713682
 20
432.0058765066374
 30
0.0
 11
135.495534713682
 21
405.5058765066374
 31
0.0
  0
LINE
  5
115
330
42
100
AcDbEntity
  8
1
  6
Continuous
 62
     7
100
AcDbLine
 10
198.6955347136827
 20
432.0058765066374
 30
0.0
 11
198.6955347136827
 21
405.5058765066374
 31
0.0
  0
LINE
  5
116
330
42
100
AcDbEntity
  8
1
  6
Continuous
 62
     7
100
AcDbLine
 10
208.6955347136827
 20
404.5058765066374
 30
0.0
 11
208.6955347136827
 21
384.5058765066374
 31
0.0
  0
LINE
  5
117
330
42
100
AcDbEntity
  8
1
  6
Continuous
 62
     7
100
AcDbLine
 10
199.6955347136827
 20
404.5058765066374
 30
0.0
 11
207.6955347136827
 21
404.5058765066374
 31
0.0
  0
LINE
  5
118
330
42
100
AcDbEntity
  8
1
  6
Continuous
 62
     7
100
AcDbLine
 10
208.6955347136827
 20
433.0058765066374
 30
0.0
 11
208.6955347136827
 21
404.5058765066374
 31
0.0
  0
LINE
  5
119
330
42
100
AcDbEntity
  8
1
  6
Continuous
 62
     7
100
AcDbLine
 10
199.6955347136827
 20
433.0058765066374
 30
0.0
 11
207.6955347136827
 21
433.0058765066374
 31
0.0
  0
LINE
  5
11A
330
42
100
AcDbEntity
  8
1
  6
Continuous
 62
     7
100
AcDbLine
 10
125.495534713682
 20
404.5058765066374
 30
0.0
 11
125.495534713682
 21
384.5058765066374
 31
0.0
  0
LINE
  5
11B
330
42
100
AcDbEntity
  8
1
  6
Continuous
 62
     7
100
AcDbLine
 10
125.495534713682
 20
404.5058765066374
 30
0.0
 11
126.495534713682
 21
404.5058765066374
 31
0.0
  0
LINE
  5
11C
330
42
100
AcDbEntity
  8
1
  6
Continuous
 62
     7
100
AcDbLine
 10
125.495534713682
 20
433.0058765066374
 30
0.0
 11
125.495534713682
 21
404.5058765066374
 31
0.0
  0
LINE
  5
11D
330
42
100
AcDbEntity
  8
1
  6
Continuous
 62
     7
100
AcDbLine
 10
125.495534713682
 20
433.0058765066374
 30
0.0
 11
126.495534713682
 21
433.0058765066374
 31
0.0
  0
LINE
  5
11E
330
42
100
AcDbEntity
  8
1
  6
Continuous
 62
     7
100
AcDbLine
 10
126.495534713682
 20
434.0058765066374
 30
0.0
 11
207.6955347136827
 21
434.0058765066374
 31
0.0
  0
ARC
  5
11F
330
42
100
AcDbEntity
  8
1
  6
Continuous
 62
     7
100
AcDbCircle
 10
320.9206967266728
 20
218.3741048150623
 30
0.0
 40
2.099999999998488
100
AcDbArc
 50
0.0
 51
180.0
  0
ARC
  5
120
330
42
100
AcDbEntity
  8
1
  6
Continuous
 62
     7
100
AcDbCircle
 10
312.9206967266728
 20
218.3741048150623
 30
0.0
 40
2.099999999999278
100
AcDbArc
 50
73.75417716192833
 51
133.6691796476314
  0
ARC
  5
121
330
42
100
AcDbEntity
  8
0
  6
Continuous
 62
     7
100
AcDbCircle
 10
331.1706605549716
 20
306.6241048150637
 30
0.0
 40
0.5
100
AcDbArc
 50
0.0
 51
90.00000153433948
  0
ARC
  5
122
330
42
100
AcDbEntity
  8
0
  6
Continuous
 62
     7
100
AcDbCircle
 10
331.1706605549716
 20
306.6241048150637
 30
0.0
 40
1.5
100
AcDbArc
 50
0.0
 51
90.00000153509507
  0
ARC
  5
123
330
42
100
AcDbEntity
  8
0
  6
Continuous
 62
     7
100
AcDbCircle
 10
331.1706605549716
 20
212.1241048150623
 30
0.0
 40
0.5000000000000001
100
AcDbArc
 50
-90.00000153433948
 51
0.0
  0
ARC
  5
124
330
42
100
AcDbEntity
  8
0
  6
Continuous
 62
     7
100
AcDbCircle
 10
331.1706605549716
 20
212.1241048150623
 30
0.0
 40
1.500000000000001
100
AcDbArc
 50
-90.00000153509507
 51
0.0
  0
ARC
  5
125
330
42
100
AcDbEntity
  8
0
  6
Continuous
 62
     7
100
AcDbCircle
 10
333.1706605549716
 20
225.3741048150623
 30
0.0
 40
0.5000000000000001
100
AcDbArc
 50
-90.00000153433948
 51
0.0
  0
ARC
  5
126
330
42
100
AcDbEntity
  8
0
  6
Continuous
 62
     7
100
AcDbCircle
 10
333.1706605549716
 20
224.3741048150623
 30
0.0
 40
0.5000000000000001
100
AcDbArc
 50
90.00000153433948
 51
-179.9999969295623
  0
ARC
  5
127
330
42
100
AcDbEntity
  8
0
  6
Continuous
 62
     7
100
AcDbCircle
 10
333.1706605549716
 20
233.3741048150623
 30
0.0
 40
0.5000000000000007
100
AcDbArc
 50
-179.9999969295623
 51
-90.00000153433948
  0
ARC
  5
128
330
42
100
AcDbEntity
  8
0
  6
Continuous
 62
     7
100
AcDbCircle
 10
333.1706605549716
 20
232.3741048150623
 30
0.0
 40
0.5
100
AcDbArc
 50
0.0
 51
90.00000153433948
  0
ARC
  5
129
330
42
100
AcDbEntity
  8
0
  6
Continuous
 62
     7
100
AcDbCircle
 10
333.1706605549716
 20
269.3741048150623
 30
0.0
 40
0.5000000000000001
100
AcDbArc
 50
-90.00000153433948
 51
0.0
  0
ARC
  5
12A
330
42
100
AcDbEntity
  8
0
  6
Continuous
 62
     7
100
AcDbCircle
 10
333.1706605549716
 20
268.3741048150623
 30
0.0
 40
0.5000000000000001
100
AcDbArc
 50
90.00000153433948
 51
-179.9999969295623
  0
ARC
  5
12B
330
42
100
AcDbEntity
  8
0
  6
Continuous
 62
     7
100
AcDbCircle
 10
333.1706605549716
 20
277.3741048150623
 30
0.0
 40
0.5000000000000007
100
AcDbArc
 50
-179.9999969295623
 51
-90.00000153433948
  0
ARC
  5
12C
330
42
100
AcDbEntity
  8
0
  6
Continuous
 62
     7
100
AcDbCircle
 10
333.1706605549716
 20
276.3741048150623
 30
0.0
 40
0.5
100
AcDbArc
 50
0.0
 51
90.00000153433948
  0
ARC
  5
12D
330
42
100
AcDbEntity
  8
0
  6
Continuous
 62
     7
100
AcDbCircle
 10
299.4206605549716
 20
257.8741048150623
 30
0.0
 40
1.0
100
AcDbArc
 50
90.00000153496154
 51
179.999996929507
  0
ARC
  5
12E
330
42
100
AcDbEntity
  8
0
  6
Continuous
 62
     7
100
AcDbCircle
 10
299.4206605549716
 20
243.8741048150623
 30
0.0
 40
1.000000000000001
100
AcDbArc
 50
179.9999969295086
 51
-90.00000153496154
  0
ARC
  5
12F
330
42
100
AcDbEntity
  8
0
  6
Continuous
 62
     7
100
AcDbCircle
 10
299.4206605549716
 20
257.8741048150623
 30
0.0
 40
1.000000000000001
100
AcDbArc
 50
179.999996929507
 51
-90.00000153496154
  0
ARC
  5
130
330
42
100
AcDbEntity
  8
0
  6
Continuous
 62
     7
100
AcDbCircle
 10
299.4206605549716
 20
243.8741048150623
 30
0.0
 40
1.0
100
AcDbArc
 50
90.00000153496154
 51
179.9999969295086
  0
ARC
  5
131
330
42
100
AcDbEntity
  8
0
  6
Continuous
 62
     7
100
AcDbCircle
 10
304.6168129776816
 20
250.3841410649193
 30
0.0
 40
1.760036249858514
100
AcDbArc
 50
-137.9100444632807
 51
-42.08995860710606
  0
ARC
  5
132
330
42
100
AcDbEntity
  8
0
  6
Continuous
 62
     7
100
AcDbCircle
 10
304.0743682565426
 20
250.8741048150623
 30
0.0
 40
2.491001879657448
100
AcDbArc
 50
-42.08995860720665
 51
42.08995860723042
  0
ARC
  5
133
330
42
100
AcDbEntity
  8
0
  6
Continuous
 62
     7
100
AcDbCircle
 10
304.6168129776816
 20
251.3640685652053
 30
0.0
 40
1.760036249860976
100
AcDbArc
 50
42.08995860711841
 51
137.910044463269
  0
ARC
  5
134
330
42
100
AcDbEntity
  8
0
  6
Continuous
 62
     7
100
AcDbCircle
 10
305.1592576988223
 20
250.8741048150623
 30
0.0
 40
2.491001879651592
100
AcDbArc
 50
137.9100444631062
 51
-137.9100444631145
  0
ARC
  5
135
330
42
100
AcDbEntity
  8
0
  6
Continuous
 62
     7
100
AcDbCircle
 10
305.1168129776816
 20
250.3841410649193
 30
0.0
 40
1.760036249858514
100
AcDbArc
 50
-137.9100444632807
 51
-98.16877571318051
  0
ARC
  5
136
330
42
100
AcDbEntity
  8
0
  6
Continuous
 62
     7
100
AcDbCircle
 10
305.1168129776816
 20
251.3640685652053
 30
0.0
 40
1.760036249856403
100
AcDbArc
 50
98.16877571317855
 51
137.910044463269
  0
ARC
  5
137
330
42
100
AcDbEntity
  8
0
  6
Continuous
 62
     7
100
AcDbCircle
 10
305.6592576988223
 20
250.8741048150623
 30
0.0
 40
2.491001879651592
100
AcDbArc
 50
137.9100444631062
 51
-137.9100444631145
  0
ARC
  5
138
330
42
100
AcDbEntity
  8
0
  6
Continuous
 62
     7
100
AcDbCircle
 10
303.4206967266728
 20
223.6241048150623
 30
0.0
 40
1.0
100
AcDbArc
 50
90.00000153558361
 51
179.9999969295086
  0
ARC
  5
139
330
42
100
AcDbEntity
  8
0
  6
Continuous
 62
     7
100
AcDbCircle
 10
284.4206605549716
 20
286.8741048150637
 30
0.0
 40
1.0
100
AcDbArc
 50
90.00000153496154
 51
179.9999969295851
  0
ARC
  5
13A
330
42
100
AcDbEntity
  8
0
  6
Continuous
 62
     7
100
AcDbCircle
 10
284.4206605549716
 20
234.1241048150623
 30
0.0
 40
1.000000000000001
100
AcDbArc
 50
179.9999969295086
 51
-90.00000153496154
  0
ARC
  5
13B
330
42
100
AcDbEntity
  8
0
  6
Continuous
 62
     7
100
AcDbCircle
 10
284.4206605549716
 20
267.6241048150623
 30
0.0
 40
1.0
100
AcDbArc
 50
90.00000153496154
 51
179.999996929507
  0
ARC
  5
13C
330
42
100
AcDbEntity
  8
0
  6
Continuous
 62
     7
100
AcDbCircle
 10
284.4206605549716
 20
278.1241048150623
 30
0.0
 40
1.000000000000001
100
AcDbArc
 50
179.999996929507
 51
-90.00000153496154
  0
ARC
  5
13D
330
42
100
AcDbEntity
  8
0
  6
Continuous
 62
     7
100
AcDbCircle
 10
312.9206967266728
 20
218.3741048150623
 30
0.0
 40
2.100000000006125
100
AcDbArc
 50
133.6691796476314
 51
-73.75417716192463
  0
ARC
  5
13E
330
42
100
AcDbEntity
  8
0
  6
Continuous
 62
     7
100
AcDbCircle
 10
312.9206967266728
 20
289.3741048150637
 30
0.0
 40
2.100000000006434
100
AcDbArc
 50
133.6691796476233
 51
-73.7541771619281
  0
ARC
  5
13F
330
42
100
AcDbEntity
  8
0
  6
Continuous
 62
     7
100
AcDbCircle
 10
312.9206967266728
 20
289.3741048150637
 30
0.0
 40
2.099999999998488
100
AcDbArc
 50
0.0
 51
133.6691796476233
  0
ARC
  5
140
330
42
100
AcDbEntity
  8
0
  6
Continuous
 62
     7
100
AcDbCircle
 10
320.9206967266728
 20
289.3741048150637
 30
0.0
 40
2.099999999998488
100
AcDbArc
 50
0.0
 51
180.0
  0
ARC
  5
141
330
42
100
AcDbEntity
  8
1
  6
Continuous
 62
     7
100
AcDbCircle
 10
312.4206605549716
 20
228.8741048150623
 30
0.0
 40
4.250000000002634
100
AcDbArc
 50
-60.58159696962951
 51
60.58159696963873
  0
ARC
  5
142
330
42
100
AcDbEntity
  8
1
  6
Continuous
 62
     7
100
AcDbCircle
 10
312.4206605549825
 20
272.8741048150623
 30
0.0
 40
4.249999999999315
100
AcDbArc
 50
75.17370503746102
 51
90.0
  0
ARC
  5
143
330
42
100
AcDbEntity
  8
1
  6
Continuous
 62
     7
100
AcDbCircle
 10
312.4206605549825
 20
272.8741048150623
 30
0.0
 40
4.25
100
AcDbArc
 50
-90.0
 51
-75.17370503745985
  0
ARC
  5
144
330
42
100
AcDbEntity
  8
1
  6
Continuous
 62
     7
100
AcDbCircle
 10
312.4206605549825
 20
272.8741048150623
 30
0.0
 40
4.249999999998094
100
AcDbArc
 50
-60.58159696976303
 51
60.5815969697604
  0
ARC
  5
145
330
42
100
AcDbEntity
  8
1
  6
Continuous
 62
     7
100
AcDbCircle
 10
312.4206605549825
 20
228.8741048150646
 30
0.0
 40
4.249999999997089
100
AcDbArc
 50
75.17370503745308
 51
90.00000000014637
  0
ARC
  5
146
330
42
100
AcDbEntity
  8
1
  6
Continuous
 62
     7
100
AcDbCircle
 10
312.4206605549825
 20
228.8741048150646
 30
0.0
 40
4.250000000002302
100
AcDbArc
 50
-90.00000000014637
 51
-75.17370503746768
  0
ARC
  5
147
330
42
100
AcDbEntity
  8
1
  6
Continuous
 62
     7
100
AcDbCircle
 10
312.9206967266728
 20
218.3741048150623
 30
0.0
 40
2.099999999998488
100
AcDbArc
 50
0.0
 51
40.89159599463361
  0
ARC
  5
148
330
42
100
AcDbEntity
  8
0
  6
Continuous
 62
     7
100
AcDbCircle
 10
333.1706605549716
 20
278.8741048150623
 30
0.0
 40
0.5000000000000001
100
AcDbArc
 50
-90.00000153433948
 51
0.0
  0
ARC
  5
149
330
42
100
AcDbEntity
  8
0
  6
Continuous
 62
     7
100
AcDbCircle
 10
333.1706605549716
 20
277.8741048150623
 30
0.0
 40
0.5000000000000001
100
AcDbArc
 50
90.00000153433948
 51
-179.9999969296665
  0
ARC
  5
14A
330
42
100
AcDbEntity
  8
0
  6
Continuous
 62
     7
100
AcDbCircle
 10
333.1706605549716
 20
286.8741048150623
 30
0.0
 40
0.5000000000000007
100
AcDbArc
 50
-179.9999969296665
 51
-90.00000153433948
  0
ARC
  5
14B
330
42
100
AcDbEntity
  8
0
  6
Continuous
 62
     7
100
AcDbCircle
 10
333.1706605549716
 20
285.8741048150623
 30
0.0
 40
0.5
100
AcDbArc
 50
0.0
 51
90.00000153433948
  0
ARC
  5
14C
330
42
100
AcDbEntity
  8
0
  6
Continuous
 62
     7
100
AcDbCircle
 10
333.1706605549716
 20
242.8741048150623
 30
0.0
 40
0.5000000000000007
100
AcDbArc
 50
-179.9999969296665
 51
-90.00000153433948
  0
ARC
  5
14D
330
42
100
AcDbEntity
  8
0
  6
Continuous
 62
     7
100
AcDbCircle
 10
333.1706605549716
 20
241.8741048150623
 30
0.0
 40
0.5
100
AcDbArc
 50
0.0
 51
90.00000153433948
  0
CIRCLE
  5
14E
330
42
100
AcDbEntity
  8
0
  6
Continuous
 62
     7
100
AcDbCircle
 10
189.6955347136827
 20
415.0058765066374
 30
0.0
 40
2.0
  0
CIRCLE
  5
14F
330
42
100
AcDbEntity
  8
0
  6
Continuous
 62
     7
100
AcDbCircle
 10
144.495534713682
 20
415.0058765066374
 30
0.0
 40
2.0
  0
ARC
  5
150
330
42
100
AcDbEntity
  8
1
  6
Continuous
 62
     7
100
AcDbCircle
 10
126.495534713682
 20
433.0058765066374
 30
0.0
 40
1.0
100
AcDbArc
 50
90.0
 51
180.0
  0
ARC
  5
151
330
42
100
AcDbEntity
  8
1
  6
Continuous
 62
     7
100
AcDbCircle
 10
207.6955347136827
 20
433.0058765066374
 30
0.0
 40
1.0
100
AcDbArc
 50
0.0
 51
90.0
  0
ARC
  5
152
330
42
100
AcDbEntity
  8
1
  6
Continuous
 62
     7
100
AcDbCircle
 10
199.6955347136827
 20
405.5058765066374
 30
0.0
 40
1.0
100
AcDbArc
 50
180.0
 51
-90.0
  0
ARC
  5
153
330
42
100
AcDbEntity
  8
1
  6
Continuous
 62
     7
100
AcDbCircle
 10
134.495534713682
 20
405.5058765066374
 30
0.0
 40
1.0
100
AcDbArc
 50
-90.0
 51
0.0
  0
ARC
  5
154
330
42
100
AcDbEntity
  8
1
  6
Continuous
 62
     7
100
AcDbCircle
 10
134.495534713682
 20
432.0058765066374
 30
0.0
 40
1.0
100
AcDbArc
 50
0.0
 51
90.0
  0
ARC
  5
155
330
42
100
AcDbEntity
  8
1
  6
Continuous
 62
     7
100
AcDbCircle
 10
199.6955347136827
 20
432.0058765066374
 30
0.0
 40
1.0
100
AcDbArc
 50
90.0
 51
180.0
  0
ENDBLK
  5
44
330
42
100
AcDbEntity
  8
0
100
AcDbBlockEnd
  0
BLOCK
  5
46
330
45
100
AcDbEntity
  8
0
100
AcDbBlockBegin
  2
V97-H12
 70
     0
 71
     0
 10
934.311836477862
 20
100.0368472018595
 30
0.0
  3
V97-H12
  1

  0
LINE
  5
156
330
45
100
AcDbEntity
  8
0
  6
Continuous
 62
     7
100
AcDbLine
 10
313.5081906700016
 20
289.3741048150623
 30
0.0
 11
313.5081906700016
 21
212.3741048150623
 31
0.0
  0
LINE
  5
157
330
45
100
AcDbEntity
  8
0
  6
Continuous
 62
     7
100
AcDbLine
 10
324.5081906700016
 20
261.8741048150623
 30
0.0
 11
324.5081906700016
 21
239.8741048150623
 31
0.0
  0
LINE
  5
158
330
45
100
AcDbEntity
  8
0
  6
Continuous
 62
     7
100
AcDbLine
 10
314.5081906700016
 20
238.8741048150623
 30
0.0
 11
323.5081906700016
 21
238.8741048150623
 31
0.0
  0
LINE
  5
159
330
45
100
AcDbEntity
  8
0
  6
Continuous
 62
     7
100
AcDbLine
 10
314.5081906700016
 20
262.8741048150623
 30
0.0
 11
323.5081906700016
 21
262.8741048150623
 31
0.0
  0
LINE
  5
15A
330
45
100
AcDbEntity
  8
0
  6
Continuous
 62
     7
100
AcDbLine
 10
323.5081906700016
 20
283.3741048150623
 30
0.0
 11
314.5081906700016
 21
283.3741048150623
 31
0.0
  0
LINE
  5
15B
330
45
100
AcDbEntity
  8
0
  6
Continuous
 62
     7
100
AcDbLine
 10
323.5081906700016
 20
218.3741048150623
 30
0.0
 11
314.5081906700016
 21
218.3741048150623
 31
0.0
  0
LINE
  5
15C
330
45
100
AcDbEntity
  8
0
  6
Continuous
 62
     7
100
AcDbLine
 10
324.5081906700016
 20
213.3741048150623
 30
0.0
 11
324.5081906700016
 21
217.3741048150623
 31
0.0
  0
LINE
  5
15D
330
45
100
AcDbEntity
  8
0
  6
Continuous
 62
     7
100
AcDbLine
 10
324.5081906700016
 20
288.3741048150623
 30
0.0
 11
324.5081906700016
 21
284.3741048150623
 31
0.0
  0
LINE
  5
15E
330
45
100
AcDbEntity
  8
0
  6
Continuous
 62
     7
100
AcDbLine
 10
313.5081906700016
 20
212.3741048150623
 30
0.0
 11
323.5081906700016
 21
212.3741048150623
 31
0.0
  0
LINE
  5
15F
330
45
100
AcDbEntity
  8
0
  6
Continuous
 62
     7
100
AcDbLine
 10
313.5081906700016
 20
289.3741048150623
 30
0.0
 11
323.5081906700016
 21
289.3741048150623
 31
0.0
  0
LINE
  5
160
330
45
100
AcDbEntity
  8
0
  6
Continuous
 62
     7
100
AcDbLine
 10
314.5081906700016
 20
289.3741048150623
 30
0.0
 11
314.5081906700016
 21
283.3741048150623
 31
0.0
  0
LINE
  5
161
330
45
100
AcDbEntity
  8
0
  6
Continuous
 62
     7
100
AcDbLine
 10
314.5081906700016
 20
218.3741048150623
 30
0.0
 11
314.5081906700016
 21
212.3741048150623
 31
0.0
  0
LINE
  5
162
330
45
100
AcDbEntity
  8
0
  6
Continuous
 62
     7
100
AcDbLine
 10
314.5081906700016
 20
238.8741048150623
 30
0.0
 11
314.5081906700016
 21
218.3741048150623
 31
0.0
  0
LINE
  5
163
330
45
100
AcDbEntity
  8
0
  6
Continuous
 62
     7
100
AcDbLine
 10
314.5081906700016
 20
262.8741048150623
 30
0.0
 11
314.5081906700016
 21
238.8741048150623
 31
0.0
  0
LINE
  5
164
330
45
100
AcDbEntity
  8
0
  6
Continuous
 62
     7
100
AcDbLine
 10
314.5081906700016
 20
283.3741048150623
 30
0.0
 11
314.5081906700016
 21
262.8741048150623
 31
0.0
  0
LINE
  5
165
330
45
100
AcDbEntity
  8
0
  6
Continuous
 62
     7
100
AcDbLine
 10
223.8957761155216
 20
288.3741048150623
 30
0.0
 11
223.8957761155216
 21
213.3741048150623
 31
0.0
  0
LINE
  5
166
330
45
100
AcDbEntity
  8
0
  6
Continuous
 62
     7
100
AcDbLine
 10
222.8957761155216
 20
212.3741048150623
 30
0.0
 11
218.3455347136824
 21
212.3741048150623
 31
0.0
  0
LINE
  5
167
330
45
100
AcDbEntity
  8
0
  6
Continuous
 62
     7
100
AcDbLine
 10
222.8957761155216
 20
289.3741048150623
 30
0.0
 11
218.3455347136824
 21
289.3741048150623
 31
0.0
  0
LINE
  5
168
330
45
100
AcDbEntity
  8
0
  6
Continuous
 62
     7
100
AcDbLine
 10
111.2952933118522
 20
221.8741048150623
 30
0.0
 11
115.8455347136824
 21
221.8741048150623
 31
0.0
  0
LINE
  5
169
330
45
100
AcDbEntity
  8
0
  6
Continuous
 62
     7
100
AcDbLine
 10
110.2952933118522
 20
222.8741048150623
 30
0.0
 11
110.2952933118522
 21
297.8741048150623
 31
0.0
  0
LINE
  5
16A
330
45
100
AcDbEntity
  8
0
  6
Continuous
 62
     7
100
AcDbLine
 10
111.2952933118522
 20
298.8741048150623
 30
0.0
 11
115.8455347136824
 21
298.8741048150623
 31
0.0
  0
LINE
  5
16B
330
45
100
AcDbEntity
  8
1
  6
Continuous
 62
     7
100
AcDbLine
 10
223.8957761155216
 20
415.7933704499696
 30
0.0
 11
223.8957761155216
 21
416.7933704499696
 31
0.0
  0
LINE
  5
16C
330
45
100
AcDbEntity
  8
1
  6
Continuous
 62
     7
100
AcDbLine
 10
223.8957761155216
 20
415.7933704499696
 30
0.0
 11
208.6955347136827
 21
415.7933704499696
 31
0.0
  0
LINE
  5
16D
330
45
100
AcDbEntity
  8
1
  6
Continuous
 62
     7
100
AcDbLine
 10
223.8957761155216
 20
416.7933704499696
 30
0.0
 11
209.6955347136827
 21
416.7933704499696
 31
0.0
  0
LINE
  5
16E
330
45
100
AcDbEntity
  8
1
  6
Continuous
 62
     7
100
AcDbLine
 10
209.6955347136827
 20
416.7933704499696
 30
0.0
 11
209.6955347136827
 21
426.7933704499696
 31
0.0
  0
LINE
  5
16F
330
45
100
AcDbEntity
  8
1
  6
Continuous
 62
     7
100
AcDbLine
 10
209.6955347136827
 20
426.7933704499696
 30
0.0
 11
208.6955347136827
 21
426.7933704499696
 31
0.0
  0
LINE
  5
170
330
45
100
AcDbEntity
  8
1
  6
Continuous
 62
     7
100
AcDbLine
 10
110.2952933118522
 20
416.7933704499696
 30
0.0
 11
110.2952933118522
 21
415.7933704499696
 31
0.0
  0
LINE
  5
171
330
45
100
AcDbEntity
  8
1
  6
Continuous
 62
     7
100
AcDbLine
 10
125.495534713682
 20
415.7933704499696
 30
0.0
 11
110.2952933118522
 21
415.7933704499696
 31
0.0
  0
LINE
  5
172
330
45
100
AcDbEntity
  8
1
  6
Continuous
 62
     7
100
AcDbLine
 10
124.495534713682
 20
416.7933704499696
 30
0.0
 11
110.2952933118522
 21
416.7933704499696
 31
0.0
  0
LINE
  5
173
330
45
100
AcDbEntity
  8
1
  6
Continuous
 62
     7
100
AcDbLine
 10
124.495534713682
 20
426.7933704499696
 30
0.0
 11
124.495534713682
 21
416.7933704499696
 31
0.0
  0
LINE
  5
174
330
45
100
AcDbEntity
  8
1
  6
Continuous
 62
     7
100
AcDbLine
 10
125.495534713682
 20
426.7933704499696
 30
0.0
 11
124.495534713682
 21
426.7933704499696
 31
0.0
  0
LINE
  5
175
330
45
100
AcDbEntity
  8
1
  6
CENTER_DASH_DASH
 62
     2
100
AcDbLine
 10
223.8957761155216
 20
389.5058765066374
 30
0.0
 11
223.8957761155216
 21
390.5058765066374
 31
0.0
  0
LINE
  5
176
330
45
100
AcDbEntity
  8
1
  6
CENTER_DASH_DASH
 62
     2
100
AcDbLine
 10
223.8957761155216
 20
389.5058765066374
 30
0.0
 11
208.6955347136827
 21
389.5058765066374
 31
0.0
  0
LINE
  5
177
330
45
100
AcDbEntity
  8
1
  6
CENTER_DASH_DASH
 62
     2
100
AcDbLine
 10
223.8957761155216
 20
390.5058765066374
 30
0.0
 11
209.6955347136827
 21
390.5058765066374
 31
0.0
  0
LINE
  5
178
330
45
100
AcDbEntity
  8
1
  6
CENTER_DASH_DASH
 62
     2
100
AcDbLine
 10
209.6955347136827
 20
390.5058765066374
 30
0.0
 11
209.6955347136827
 21
400.5058765066374
 31
0.0
  0
LINE
  5
179
330
45
100
AcDbEntity
  8
1
  6
CENTER_DASH_DASH
 62
     2
100
AcDbLine
 10
209.6955347136827
 20
400.5058765066374
 30
0.0
 11
208.6955347136827
 21
400.5058765066374
 31
0.0
  0
LINE
  5
17A
330
45
100
AcDbEntity
  8
1
  6
CENTER_DASH_DASH
 62
     2
100
AcDbLine
 10
110.2952933118522
 20
390.5058765066374
 30
0.0
 11
110.2952933118522
 21
389.5058765066374
 31
0.0
  0
LINE
  5
17B
330
45
100
AcDbEntity
  8
1
  6
CENTER_DASH_DASH
 62
     2
100
AcDbLine
 10
125.495534713682
 20
389.5058765066374
 30
0.0
 11
110.2952933118522
 21
389.5058765066374
 31
0.0
  0
LINE
  5
17C
330
45
100
AcDbEntity
  8
1
  6
CENTER_DASH_DASH
 62
     2
100
AcDbLine
 10
124.495534713682
 20
390.5058765066374
 30
0.0
 11
110.2952933118522
 21
390.5058765066374
 31
0.0
  0
LINE
  5
17D
330
45
100
AcDbEntity
  8
1
  6
CENTER_DASH_DASH
 62
     2
100
AcDbLine
 10
124.495534713682
 20
400.5058765066374
 30
0.0
 11
124.495534713682
 21
390.5058765066374
 31
0.0
  0
LINE
  5
17E
330
45
100
AcDbEntity
  8
1
  6
CENTER_DASH_DASH
 62
     2
100
AcDbLine
 10
125.495534713682
 20
400.5058765066374
 30
0.0
 11
124.495534713682
 21
400.5058765066374
 31
0.0
  0
ARC
  5
17F
330
45
100
AcDbEntity
  8
0
  6
Continuous
 62
     7
100
AcDbCircle
 10
323.5081906700016
 20
213.3741048150623
 30
0.0
 40
1.0
100
AcDbArc
 50
-90.00000153548264
 51
0.0
  0
ARC
  5
180
330
45
100
AcDbEntity
  8
0
  6
Continuous
 62
     7
100
AcDbCircle
 10
323.5081906700016
 20
217.3741048150623
 30
0.0
 40
1.0
100
AcDbArc
 50
0.0
 51
90.00000153548264
  0
ARC
  5
181
330
45
100
AcDbEntity
  8
0
  6
Continuous
 62
     7
100
AcDbCircle
 10
323.5081906700016
 20
284.3741048150623
 30
0.0
 40
1.0
100
AcDbArc
 50
-90.00000153548264
 51
0.0
  0
ARC
  5
182
330
45
100
AcDbEntity
  8
0
  6
Continuous
 62
     7
100
AcDbCircle
 10
323.5081906700016
 20
288.3741048150623
 30
0.0
 40
1.0
100
AcDbArc
 50
0.0
 51
90.00000153548264
  0
ARC
  5
183
330
45
100
AcDbEntity
  8
0
  6
Continuous
 62
     7
100
AcDbCircle
 10
323.5081906700016
 20
239.8741048150623
 30
0.0
 40
1.0
100
AcDbArc
 50
-90.00000153548264
 51
0.0
  0
ARC
  5
184
330
45
100
AcDbEntity
  8
0
  6
Continuous
 62
     7
100
AcDbCircle
 10
323.5081906700016
 20
261.8741048150623
 30
0.0
 40
1.0
100
AcDbArc
 50
0.0
 51
90.00000153548264
  0
ARC
  5
185
330
45
100
AcDbEntity
  8
0
  6
Continuous
 62
     7
100
AcDbCircle
 10
222.8957761155216
 20
213.3741048150623
 30
0.0
 40
1.0
100
AcDbArc
 50
-90.00000153548102
 51
0.0
  0
ARC
  5
186
330
45
100
AcDbEntity
  8
0
  6
Continuous
 62
     7
100
AcDbCircle
 10
222.8957761155216
 20
288.3741048150623
 30
0.0
 40
1.0
100
AcDbArc
 50
0.0
 51
90.00000153548102
  0
ARC
  5
187
330
45
100
AcDbEntity
  8
0
  6
Continuous
 62
     7
100
AcDbCircle
 10
111.2952933118522
 20
222.8741048150623
 30
0.0
 40
1.000000000000001
100
AcDbArc
 50
-179.9999969295868
 51
-90.00000153558442
  0
ARC
  5
188
330
45
100
AcDbEntity
  8
0
  6
Continuous
 62
     7
100
AcDbCircle
 10
111.2952933118522
 20
297.8741048150623
 30
0.0
 40
1.0
100
AcDbArc
 50
90.00000153558442
 51
-179.9999969295884
  0
ENDBLK
  5
47
330
45
100
AcDbEntity
  8
0
100
AcDbBlockEnd
  0
BLOCK
  5
49
330
48
100
AcDbEntity
  8
0
100
AcDbBlockBegin
  2
BIS
 70
     0
 71
     0
 10
301.4206967266728
 20
226.8741048150623
 30
0.0
  3
BIS
  1

  0
LINE
  5
189
330
48
100
AcDbEntity
  8
1
  6
Continuous
 62
     7
100
AcDbLine
 10
301.4206967266728
 20
230.8741048150623
 30
0.0
 11
313.5081906700016
 21
230.8741048150623
 31
0.0
  0
LINE
  5
18A
330
48
100
AcDbEntity
  8
1
  6
Continuous
 62
     7
100
AcDbLine
 10
301.4206967266728
 20
226.8741048150623
 30
0.0
 11
313.5081906700016
 21
226.8741048150623
 31
0.0
  0
LINE
  5
18B
330
48
100
AcDbEntity
  8
1
  6
Continuous
 62
     7
100
AcDbLine
 10
301.4206967266728
 20
274.8741048150623
 30
0.0
 11
313.5081906700016
 21
274.8741048150623
 31
0.0
  0
LINE
  5
18C
330
48
100
AcDbEntity
  8
1
  6
Continuous
 62
     7
100
AcDbLine
 10
313.5081906700016
 20
270.8741048150623
 30
0.0
 11
301.4206967266728
 21
270.8741048150623
 31
0.0
  0
LINE
  5
18D
330
48
100
AcDbEntity
  8
1
  6
Continuous
 62
     2
100
AcDbLine
 10
313.5081906700016
 20
274.4951048150624
 30
0.0
 11
301.4206967266728
 21
274.4951048150624
 31
0.0
  0
LINE
  5
18E
330
48
100
AcDbEntity
  8
1
  6
Continuous
 62
     2
100
AcDbLine
 10
301.4206967266728
 20
271.2531048150627
 30
0.0
 11
313.5081906700016
 21
271.2531048150627
 31
0.0
  0
LINE
  5
18F
330
48
100
AcDbEntity
  8
1
  6
Continuous
 62
     2
100
AcDbLine
 10
301.4206967266728
 20
230.4951048150624
 30
0.0
 11
313.5081906700016
 21
230.4951048150624
 31
0.0
  0
LINE
  5
190
330
48
100
AcDbEntity
  8
1
  6
Continuous
 62
     2
100
AcDbLine
 10
313.5081906700016
 20
227.2531048150627
 30
0.0
 11
301.4206967266728
 21
227.2531048150627
 31
0.0
  0
ENDBLK
  5
4A
330
48
100
AcDbEntity
  8
0
100
AcDbBlockEnd
  0
BLOCK
  5
4C
330
4B
100
AcDbEntity
  8
0
100
AcDbBlockBegin
  2
BIS2
 70
     0
 71
     0
 10
330.4706605549727
 20
231.6241048150623
 30
0.0
  3
BIS2
  1

  0
LINE
  5
191
330
4B
100
AcDbEntity
  8
1
  6
Continuous
 62
     7
100
AcDbLine
 10
332.6706605549716
 20
235.6241048150623
 30
0.0
 11
334.2206605549727
 21
235.6241048150623
 31
0.0
  0
LINE
  5
192
330
4B
100
AcDbEntity
  8
1
  6
Continuous
 62
     7
100
AcDbLine
 10
334.2206605549727
 20
231.6241048150623
 30
0.0
 11
333.6706605549716
 21
231.6241048150623
 31
0.0
  0
LINE
  5
193
330
4B
100
AcDbEntity
  8
1
  6
Continuous
 62
     7
100
AcDbLine
 10
334.2206605549727
 20
235.6241048150623
 30
0.0
 11
334.4706605549727
 21
235.3741048150623
 31
0.0
  0
LINE
  5
194
330
4B
100
AcDbEntity
  8
1
  6
Continuous
 62
     2
100
AcDbLine
 10
332.6706605549716
 20
235.3741048150623
 30
0.0
 11
334.4706605549727
 21
235.3741048150623
 31
0.0
  0
LINE
  5
195
330
4B
100
AcDbEntity
  8
1
  6
Continuous
 62
     7
100
AcDbLine
 10
334.4706605549727
 20
235.3741048150623
 30
0.0
 11
334.4706605549727
 21
231.8741048150623
 31
0.0
  0
LINE
  5
196
330
4B
100
AcDbEntity
  8
1
  6
Continuous
 62
     7
100
AcDbLine
 10
334.4706605549727
 20
231.8741048150623
 30
0.0
 11
334.2206605549727
 21
231.6241048150623
 31
0.0
  0
LINE
  5
197
330
4B
100
AcDbEntity
  8
1
  6
Continuous
 62
     7
100
AcDbLine
 10
334.2206605549727
 20
235.6241048150623
 30
0.0
 11
334.2206605549727
 21
231.6241048150623
 31
0.0
  0
LINE
  5
198
330
4B
100
AcDbEntity
  8
1
  6
DASH_CENTER
 62
     2
100
AcDbLine
 10
335.9706605549727
 20
233.6241048150623
 30
0.0
 11
330.4706605549727
 21
233.6241048150623
 31
0.0
  0
LINE
  5
199
330
4B
100
AcDbEntity
  8
1
  6
Continuous
 62
     2
100
AcDbLine
 10
333.6706605549716
 20
231.8741048150623
 30
0.0
 11
334.4706605549727
 21
231.8741048150623
 31
0.0
  0
ENDBLK
  5
4D
330
4B
100
AcDbEntity
  8
0
100
AcDbBlockEnd
  0
BLOCK
  5
4F
330
4E
100
AcDbEntity
  8
0
100
AcDbBlockBegin
  2
V97D-H1
 70
     0
 71
     0
 10
275.7761987366921
 20
540.3281525258526
 30
0.0
  3
V97D-H1
  1

  0
LINE
  5
19A
330
4E
100
AcDbEntity
  8
1
  6
Continuous
 62
     7
100
AcDbLine
 10
301.4206967266728
 20
277.1241048150623
 30
0.0
 11
301.4206967266728
 21
268.6241048150623
 31
0.0
  0
LINE
  5
19B
330
4E
100
AcDbEntity
  8
1
  6
Continuous
 62
     7
100
AcDbLine
 10
301.4206967266728
 20
233.1241048150623
 30
0.0
 11
301.4206967266728
 21
197.2241048150636
 31
0.0
  0
LINE
  5
19C
330
4E
100
AcDbEntity
  8
1
  6
Continuous
 62
     7
100
AcDbLine
 10
301.4206967266728
 20
258.8741048150623
 30
0.0
 11
301.4206967266728
 21
256.8741048150623
 31
0.0
  0
LINE
  5
19D
330
4E
100
AcDbEntity
  8
1
  6
Continuous
 62
     7
100
AcDbLine
 10
301.4206967266728
 20
244.8741048150623
 30
0.0
 11
301.4206967266728
 21
242.8741048150623
 31
0.0
  0
LINE
  5
19E
330
4E
100
AcDbEntity
  8
0
  6
Continuous
 62
     7
100
AcDbLine
 10
124.495534713682
 20
186.8241048150644
 30
0.0
 11
209.6955347136827
 21
186.8241048150644
 31
0.0
  0
LINE
  5
19F
330
4E
100
AcDbEntity
  8
0
  6
Continuous
 62
     7
100
AcDbLine
 10
217.6955347136827
 20
194.8241048150644
 30
0.0
 11
217.6955347136827
 21
309.0241048150624
 31
0.0
  0
LINE
  5
1A0
330
4E
100
AcDbEntity
  8
0
  6
Continuous
 62
     7
100
AcDbLine
 10
124.495534713682
 20
317.0241048150624
 30
0.0
 11
209.6955347136827
 21
317.0241048150624
 31
0.0
  0
LINE
  5
1A1
330
4E
100
AcDbEntity
  8
0
  6
Continuous
 62
     7
100
AcDbLine
 10
116.495534713682
 20
194.8241048150644
 30
0.0
 11
116.495534713682
 21
309.0241048150624
 31
0.0
  0
LINE
  5
1A2
330
4E
100
AcDbEntity
  8
0
  6
Continuous
 62
     7
100
AcDbLine
 10
118.3762519788015
 20
380.6500112968065
 30
0.0
 11
129.3907949584918
 21
377.8337929213176
 31
0.0
  0
LINE
  5
1A3
330
4E
100
AcDbEntity
  8
0
  6
Continuous
 62
     7
100
AcDbLine
 10
204.495534713682
 20
377.7558765066374
 30
0.0
 11
215.8148174485723
 21
380.6500112968065
 31
0.0
  0
LINE
  5
1A4
330
4E
100
AcDbEntity
  8
0
  6
Continuous
 62
     7
100
AcDbLine
 10
116.495534713682
 20
384.5058765066374
 30
0.0
 11
217.6955347136827
 21
384.5058765066374
 31
0.0
  0
LINE
  5
1A5
330
4E
100
AcDbEntity
  8
0
  6
Continuous
 62
     7
100
AcDbLine
 10
116.495534713682
 20
384.5058765066374
 30
0.0
 11
116.495534713682
 21
383.0720948821254
 31
0.0
  0
LINE
  5
1A6
330
4E
100
AcDbEntity
  8
0
  6
Continuous
 62
     7
100
AcDbLine
 10
217.6955347136827
 20
384.5058765066374
 30
0.0
 11
217.6955347136827
 21
383.0720948821254
 31
0.0
  0
LINE
  5
1A7
330
4E
100
AcDbEntity
  8
1
  6
Continuous
 62
     7
100
AcDbLine
 10
276.6706967266728
 20
227.2741048150633
 30
0.0
 11
276.6706967266728
 21
188.8241048150644
 31
0.0
  0
LINE
  5
1A8
330
4E
100
AcDbEntity
  8
1
  6
Continuous
 62
     7
100
AcDbLine
 10
276.6706967266728
 20
243.0741048150635
 30
0.0
 11
276.6706967266728
 21
227.2741048150633
 31
0.0
  0
LINE
  5
1A9
330
4E
100
AcDbEntity
  8
1
  6
Continuous
 62
     7
100
AcDbLine
 10
276.6706967266728
 20
315.0241048150624
 30
0.0
 11
276.6706967266728
 21
243.0741048150635
 31
0.0
  0
LINE
  5
1AA
330
4E
100
AcDbEntity
  8
1
  6
Continuous
 62
     7
100
AcDbLine
 10
278.6706967266728
 20
317.0241048150624
 30
0.0
 11
283.4206967266728
 21
317.0241048150624
 31
0.0
  0
LINE
  5
1AB
330
4E
100
AcDbEntity
  8
1
  6
Continuous
 62
     7
100
AcDbLine
 10
278.6706967266728
 20
186.8241048150644
 30
0.0
 11
283.4206967266728
 21
186.8241048150644
 31
0.0
  0
LINE
  5
1AC
330
4E
100
AcDbEntity
  8
1
  6
Continuous
 62
     7
100
AcDbLine
 10
280.7122566317121
 20
192.8241048150644
 30
0.0
 11
280.7122566317121
 21
311.0241048150624
 31
0.0
  0
LINE
  5
1AD
330
4E
100
AcDbEntity
  8
0
  6
Continuous
 62
     7
100
AcDbLine
 10
133.6955347136827
 20
305.2241048150636
 30
0.0
 11
200.495534713682
 21
305.2241048150636
 31
0.0
  0
LINE
  5
1AE
330
4E
100
AcDbEntity
  8
0
  6
Continuous
 62
     7
100
AcDbLine
 10
129.6955347136827
 20
202.7241048150636
 30
0.0
 11
129.6955347136827
 21
301.2241048150636
 31
0.0
  0
LINE
  5
1AF
330
4E
100
AcDbEntity
  8
0
  6
Continuous
 62
     7
100
AcDbLine
 10
204.495534713682
 20
202.7241048150636
 30
0.0
 11
204.495534713682
 21
301.2241048150636
 31
0.0
  0
LINE
  5
1B0
330
4E
100
AcDbEntity
  8
0
  6
Continuous
 62
     7
100
AcDbLine
 10
133.6955347136827
 20
198.7241048150636
 30
0.0
 11
200.495534713682
 21
198.7241048150636
 31
0.0
  0
LINE
  5
1B1
330
4E
100
AcDbEntity
  8
1
  6
Continuous
 62
     7
100
AcDbLine
 10
283.4206967266728
 20
197.2241048150636
 30
0.0
 11
301.4206967266728
 21
197.2241048150636
 31
0.0
  0
LINE
  5
1B2
330
4E
100
AcDbEntity
  8
1
  6
Continuous
 62
     7
100
AcDbLine
 10
283.4206967266728
 20
186.8241048150644
 30
0.0
 11
283.4206967266728
 21
317.0241048150624
 31
0.0
  0
LINE
  5
1B3
330
4E
100
AcDbEntity
  8
0
  6
Continuous
 62
     7
100
AcDbLine
 10
130.0100776933723
 20
377.7558765066374
 30
0.0
 11
204.495534713682
 21
377.7558765066374
 31
0.0
  0
ARC
  5
1B4
330
4E
100
AcDbEntity
  8
0
  6
Continuous
 62
     7
100
AcDbCircle
 10
209.6955347136827
 20
194.8241048150644
 30
0.0
 40
8.000000000000002
100
AcDbArc
 50
-90.00000153524469
 51
0.0
  0
ARC
  5
1B5
330
4E
100
AcDbEntity
  8
0
  6
Continuous
 62
     7
100
AcDbCircle
 10
209.6955347136827
 20
309.0241048150624
 30
0.0
 40
8.0
100
AcDbArc
 50
0.0
 51
90.00000153524469
  0
ARC
  5
1B6
330
4E
100
AcDbEntity
  8
0
  6
Continuous
 62
     7
100
AcDbCircle
 10
124.495534713682
 20
309.0241048150624
 30
0.0
 40
8.000000000000002
100
AcDbArc
 50
90.00000153524479
 51
-179.9999969295326
  0
ARC
  5
1B7
330
4E
100
AcDbEntity
  8
0
  6
Continuous
 62
     7
100
AcDbCircle
 10
124.495534713682
 20
194.8241048150644
 30
0.0
 40
8.000000000000011
100
AcDbArc
 50
-179.9999969295263
 51
-90.00000153524479
  0
ARC
  5
1B8
330
4E
100
AcDbEntity
  8
1
  6
Continuous
 62
     7
100
AcDbCircle
 10
272.7733060838618
 20
310.0376646501854
 30
0.0
 40
8.000000000005903
100
AcDbArc
 50
7.08288337933693
 51
54.69216085848695
  0
ARC
  5
1B9
330
4E
100
AcDbEntity
  8
1
  6
Continuous
 62
     7
100
AcDbCircle
 10
272.7733060838618
 20
193.8105449799405
 30
0.0
 40
8.000000000004803
100
AcDbArc
 50
-54.69216085848319
 51
-7.08288337933026
  0
ARC
  5
1BA
330
4E
100
AcDbEntity
  8
0
  6
Continuous
 62
     7
100
AcDbCircle
 10
200.495534713682
 20
301.2241048150636
 30
0.0
 40
4.0
100
AcDbArc
 50
0.0
 51
90.0
  0
ARC
  5
1BB
330
4E
100
AcDbEntity
  8
0
  6
Continuous
 62
     7
100
AcDbCircle
 10
133.6955347136827
 20
301.2241048150636
 30
0.0
 40
4.0
100
AcDbArc
 50
90.0
 51
180.0
  0
ARC
  5
1BC
330
4E
100
AcDbEntity
  8
0
  6
Continuous
 62
     7
100
AcDbCircle
 10
131.6955347136827
 20
295.2241048150636
 30
0.0
 40
2.000000000000043
100
AcDbArc
 50
151.0449756281379
 51
-179.9999969295477
  0
ARC
  5
1BD
330
4E
100
AcDbEntity
  8
0
  6
Continuous
 62
     7
100
AcDbCircle
 10
133.6955347136827
 20
202.7241048150636
 30
0.0
 40
4.0
100
AcDbArc
 50
180.0
 51
-90.0
  0
ARC
  5
1BE
330
4E
100
AcDbEntity
  8
0
  6
Continuous
 62
     7
100
AcDbCircle
 10
187.8464240730118
 20
295.2241048150636
 30
0.0
 40
10.00000000000003
100
AcDbArc
 50
70.05155641117547
 51
90.00000153523983
  0
ARC
  5
1BF
330
4E
100
AcDbEntity
  8
0
  6
Continuous
 62
     7
100
AcDbCircle
 10
194.495534713682
 20
230.3732154557374
 30
0.0
 40
9.999999999999982
100
AcDbArc
 50
-12.83856814098362
 51
0.0
  0
ARC
  5
1C0
330
4E
100
AcDbEntity
  8
0
  6
Continuous
 62
     7
100
AcDbCircle
 10
200.495534713682
 20
202.7241048150636
 30
0.0
 40
4.0
100
AcDbArc
 50
-90.0
 51
0.0
  0
ARC
  5
1C1
330
4E
100
AcDbEntity
  8
0
  6
Continuous
 62
     7
100
AcDbCircle
 10
139.6955347136827
 20
205.0749941743907
 30
0.0
 40
9.999999999999977
100
AcDbArc
 50
167.1614318590166
 51
-179.9999969295283
  0
ARC
  5
1C2
330
4E
100
AcDbEntity
  8
0
  6
Continuous
 62
     7
100
AcDbCircle
 10
202.495534713682
 20
295.2241048150636
 30
0.0
 40
2.0
100
AcDbArc
 50
0.0
 51
28.9550243718621
  0
ARC
  5
1C3
330
4E
100
AcDbEntity
  8
0
  6
Continuous
 62
     7
100
AcDbCircle
 10
146.3446453543529
 20
295.2241048150636
 30
0.0
 40
10.0
100
AcDbArc
 50
90.00000153518774
 51
109.9484435887756
  0
ARC
  5
1C4
330
4E
100
AcDbEntity
  8
0
  6
Continuous
 62
     7
100
AcDbCircle
 10
194.495534713682
 20
205.0749941743907
 30
0.0
 40
10.0
100
AcDbArc
 50
0.0
 51
12.83856814097854
  0
ARC
  5
1C5
330
4E
100
AcDbEntity
  8
0
  6
Continuous
 62
     7
100
AcDbCircle
 10
131.6955347136827
 20
223.7241048150636
 30
0.0
 40
2.000000000000003
100
AcDbArc
 50
-179.9999969295477
 51
-151.0449756281614
  0
ARC
  5
1C6
330
4E
100
AcDbEntity
  8
0
  6
Continuous
 62
     7
100
AcDbCircle
 10
215.1955347136827
 20
383.0720948821254
 30
0.0
 40
2.500000000000713
100
AcDbArc
 50
-75.65777396945204
 51
0.0
  0
ARC
  5
1C7
330
4E
100
AcDbEntity
  8
0
  6
Continuous
 62
     7
100
AcDbCircle
 10
130.0100776933723
 20
380.2558765066374
 30
0.0
 40
2.499999999999335
100
AcDbArc
 50
-104.3422260303402
 51
-90.0
  0
ARC
  5
1C8
330
4E
100
AcDbEntity
  8
0
  6
Continuous
 62
     7
100
AcDbCircle
 10
118.995534713682
 20
383.0720948821254
 30
0.0
 40
2.5
100
AcDbArc
 50
180.0
 51
-104.3422260303454
  0
ARC
  5
1C9
330
4E
100
AcDbEntity
  8
1
  6
Continuous
 62
     7
100
AcDbCircle
 10
278.6706967266728
 20
315.0241048150624
 30
0.0
 40
2.0
100
AcDbArc
 50
90.0
 51
180.0
  0
ARC
  5
1CA
330
4E
100
AcDbEntity
  8
1
  6
Continuous
 62
     7
100
AcDbCircle
 10
278.6706967266728
 20
188.8241048150644
 30
0.0
 40
2.0
100
AcDbArc
 50
180.0
 51
-90.0
  0
ENDBLK
  5
50
330
4E
100
AcDbEntity
  8
0
100
AcDbBlockEnd
  0
BLOCK
  5
52
330
51
100
AcDbEntity
  8
0
100
AcDbBlockBegin
  2
V972GN-H6
 70
     0
 71
     0
 10
678.2275665666712
 20
-362.0823518789707
 30
0.0
  3
V972GN-H6
  1

  0
LINE
  5
1CB
330
51
100
AcDbEntity
  8
0
  6
Continuous
 62
     7
100
AcDbLine
 10
133.9455347136827
 20
199.1241048150623
 30
0.0
 11
167.0955347136824
 21
199.1241048150623
 31
0.0
  0
LINE
  5
1CC
330
51
100
AcDbEntity
  8
0
  6
Continuous
 62
     7
100
AcDbLine
 10
167.0955347136824
 20
199.1241048150623
 30
0.0
 11
200.245534713682
 21
199.1241048150623
 31
0.0
  0
LINE
  5
1CD
330
51
100
AcDbEntity
  8
0
  6
Continuous
 62
     7
100
AcDbLine
 10
133.9455347136827
 20
304.6241048150623
 30
0.0
 11
200.245534713682
 21
304.6241048150623
 31
0.0
  0
LINE
  5
1CE
330
51
100
AcDbEntity
  8
0
  6
Continuous
 62
     7
100
AcDbLine
 10
129.9455347136827
 20
300.6241048150623
 30
0.0
 11
129.9455347136827
 21
203.1241048150623
 31
0.0
  0
LINE
  5
1CF
330
51
100
AcDbEntity
  8
0
  6
Continuous
 62
     7
100
AcDbLine
 10
204.245534713682
 20
300.6241048150623
 30
0.0
 11
204.245534713682
 21
203.1241048150623
 31
0.0
  0
LINE
  5
1D0
330
51
100
AcDbEntity
  8
0
  6
Continuous
 62
     7
100
AcDbLine
 10
204.245534713682
 20
293.8741048150646
 30
0.0
 11
204.495534713682
 21
293.8741048150646
 31
0.0
  0
LINE
  5
1D1
330
51
100
AcDbEntity
  8
0
  6
Continuous
 62
     7
100
AcDbLine
 10
135.0918927114926
 20
280.6359082139384
 30
0.0
 11
138.4738587227421
 21
282.3268912195636
 31
0.0
  0
LINE
  5
1D2
330
51
100
AcDbEntity
  8
0
  6
Continuous
 62
     7
100
AcDbLine
 10
135.0918927114926
 20
284.9123014161883
 30
0.0
 11
138.4738587227421
 21
283.2213184105635
 31
0.0
  0
LINE
  5
1D3
330
51
100
AcDbEntity
  8
0
  6
Continuous
 62
     7
100
AcDbLine
 10
134.3682859137425
 20
281.0831218094386
 30
0.0
 11
134.3682859137425
 21
284.4650878206885
 31
0.0
  0
LINE
  5
1D4
330
51
100
AcDbEntity
  8
0
  6
Continuous
 62
     2
100
AcDbLine
 10
147.779000924982
 20
273.6233806312735
 30
0.0
 11
144.389112279272
 21
270.2334919855684
 31
0.0
  0
LINE
  5
1D5
330
51
100
AcDbEntity
  8
0
  6
Continuous
 62
     2
100
AcDbLine
 10
147.4763738014317
 20
273.6035962202036
 30
0.0
 11
144.1203609941313
 21
270.2475834128954
 31
0.0
  0
LINE
  5
1D6
330
51
100
AcDbEntity
  8
0
  6
Continuous
 62
     2
100
AcDbLine
 10
147.1388126251823
 20
273.5488777564215
 30
0.0
 11
143.8865437616914
 21
270.2966088929325
 31
0.0
  0
LINE
  5
1D7
330
51
100
AcDbEntity
  8
0
  6
Continuous
 62
     2
100
AcDbLine
 10
146.7627817341527
 20
273.4556895778633
 30
0.0
 11
143.6911962440317
 21
270.3841040877464
 31
0.0
  0
LINE
  5
1D8
330
51
100
AcDbEntity
  8
0
  6
Continuous
 62
     2
100
AcDbLine
 10
146.3408511370326
 20
273.3166016932287
 30
0.0
 11
143.5417484324426
 21
270.5174989886386
 31
0.0
  0
LINE
  5
1D9
330
51
100
AcDbEntity
  8
0
  6
Continuous
 62
     2
100
AcDbLine
 10
145.8575120264013
 20
273.1161052950683
 30
0.0
 11
143.4537091343827
 21
270.7123024030534
 31
0.0
  0
LINE
  5
1DA
330
51
100
AcDbEntity
  8
0
  6
Continuous
 62
     2
100
AcDbLine
 10
145.2733197656817
 20
272.8147557468205
 30
0.0
 11
143.4665229864222
 21
271.0079589675584
 31
0.0
  0
LINE
  5
1DB
330
51
100
AcDbEntity
  8
0
  6
Continuous
 62
     2
100
AcDbLine
 10
144.3552094422012
 20
272.1794881358164
 30
0.0
 11
143.8132549012025
 21
271.6375335948183
 31
0.0
  0
LINE
  5
1DC
330
51
100
AcDbEntity
  8
0
  6
Continuous
 62
     2
100
AcDbLine
 10
148.0477522101319
 20
273.6092892039474
 30
0.0
 11
144.6917394028224
 21
270.2532763966397
 31
0.0
  0
LINE
  5
1DD
330
51
100
AcDbEntity
  8
0
  6
Continuous
 62
     2
100
AcDbLine
 10
148.2815694425626
 20
273.5602637239094
 30
0.0
 11
145.0293005790827
 21
270.3079948604204
 31
0.0
  0
LINE
  5
1DE
330
51
100
AcDbEntity
  8
0
  6
Continuous
 62
     2
100
AcDbLine
 10
148.4769169602223
 20
273.4727685290955
 30
0.0
 11
145.4053314701123
 21
270.4011830389786
 31
0.0
  0
LINE
  5
1DF
330
51
100
AcDbEntity
  8
0
  6
Continuous
 62
     2
100
AcDbLine
 10
148.6263647718115
 20
273.3393736282046
 30
0.0
 11
145.8272620672215
 21
270.5402709236146
 31
0.0
  0
LINE
  5
1E0
330
51
100
AcDbEntity
  8
0
  6
Continuous
 62
     2
100
AcDbLine
 10
148.7144040698713
 20
273.1445702137894
 30
0.0
 11
146.3106011778527
 21
270.7407673217736
 31
0.0
  0
LINE
  5
1E1
330
51
100
AcDbEntity
  8
0
  6
Continuous
 62
     2
100
AcDbLine
 10
148.7015902178428
 20
272.8489136492844
 30
0.0
 11
146.8947934385815
 21
271.0421168700223
 31
0.0
  0
LINE
  5
1E2
330
51
100
AcDbEntity
  8
0
  6
Continuous
 62
     2
100
AcDbLine
 10
148.3548583030515
 20
272.2193390220236
 30
0.0
 11
147.8129037620529
 21
271.6773844810264
 31
0.0
  0
LINE
  5
1E3
330
51
100
AcDbEntity
  8
0
  6
Continuous
 62
     2
100
AcDbLine
 10
145.6466645992623
 20
275.5395914409496
 30
0.0
 11
144.2219374154829
 21
274.1148642571584
 31
0.0
  0
LINE
  5
1E4
330
51
100
AcDbEntity
  8
0
  6
Continuous
 62
     2
100
AcDbLine
 10
145.2895589839318
 20
275.4653285380846
 30
0.0
 11
143.8773790042415
 21
274.0531485583965
 31
0.0
  0
LINE
  5
1E5
330
51
100
AcDbEntity
  8
0
  6
Continuous
 62
     2
100
AcDbLine
 10
144.9195624744716
 20
275.3781747411017
 30
0.0
 11
143.5457114871224
 21
274.0043237537525
 31
0.0
  0
LINE
  5
1E6
330
51
100
AcDbEntity
  8
0
  6
Continuous
 62
     2
100
AcDbLine
 10
144.5355423516012
 20
275.2769973307077
 30
0.0
 11
143.2280675834118
 21
273.9695225625183
 31
0.0
  0
LINE
  5
1E7
330
51
100
AcDbEntity
  8
0
  6
Continuous
 62
     2
100
AcDbLine
 10
144.1351921812129
 20
275.1594898727904
 30
0.0
 11
142.9267537272226
 21
273.9510514188087
 31
0.0
  0
LINE
  5
1E8
330
51
100
AcDbEntity
  8
0
  6
Continuous
 62
     2
100
AcDbLine
 10
143.7139869436014
 20
275.0211273476593
 30
0.0
 11
142.6462949382621
 21
273.9534353423123
 31
0.0
  0
LINE
  5
1E9
330
51
100
AcDbEntity
  8
0
  6
Continuous
 62
     2
100
AcDbLine
 10
143.261864829552
 20
274.8518479460804
 30
0.0
 11
142.3967530257323
 21
273.9867361422635
 31
0.0
  0
LINE
  5
1EA
330
51
100
AcDbEntity
  8
0
  6
Continuous
 62
     2
100
AcDbLine
 10
142.7457221863115
 20
274.6185480153145
 30
0.0
 11
142.2112316424027
 21
274.0840574714025
 31
0.0
  0
LINE
  5
1EB
330
51
100
AcDbEntity
  8
0
  6
Continuous
 62
     2
100
AcDbLine
 10
145.9912230105019
 20
275.6013071397124
 30
0.0
 11
144.5790430308225
 21
274.1891271600234
 31
0.0
  0
LINE
  5
1EC
330
51
100
AcDbEntity
  8
0
  6
Continuous
 62
     2
100
AcDbLine
 10
146.3228905276228
 20
275.6501319443564
 30
0.0
 11
144.9490395402718
 21
274.2762809570077
 31
0.0
  0
LINE
  5
1ED
330
51
100
AcDbEntity
  8
0
  6
Continuous
 62
     2
100
AcDbLine
 10
146.6405344313316
 20
275.6849331355893
 30
0.0
 11
145.3330596631422
 21
274.3774583674017
 31
0.0
  0
LINE
  5
1EE
330
51
100
AcDbEntity
  8
0
  6
Continuous
 62
     2
100
AcDbLine
 10
146.9418482875117
 20
275.7034042793007
 30
0.0
 11
145.7334098335323
 21
274.4949658253177
 31
0.0
  0
LINE
  5
1EF
330
51
100
AcDbEntity
  8
0
  6
Continuous
 62
     2
100
AcDbLine
 10
147.2223070764921
 20
275.7010203557966
 30
0.0
 11
146.154615071142
 21
274.6333283504496
 31
0.0
  0
LINE
  5
1F0
330
51
100
AcDbEntity
  8
0
  6
Continuous
 62
     2
100
AcDbLine
 10
147.4718489890129
 20
275.6677195558455
 30
0.0
 11
146.6067371851914
 21
274.8026077520276
 31
0.0
  0
LINE
  5
1F1
330
51
100
AcDbEntity
  8
0
  6
Continuous
 62
     2
100
AcDbLine
 10
147.6573703723425
 20
275.5703982267064
 30
0.0
 11
147.1228798284319
 21
275.0359076827945
 31
0.0
  0
LINE
  5
1F2
330
51
100
AcDbEntity
  8
0
  6
Continuous
 62
     2
100
AcDbLine
 10
150.1956796502727
 20
270.4849961845107
 30
0.0
 11
146.123225038793
 21
266.4125415730296
 31
0.0
  0
LINE
  5
1F3
330
51
100
AcDbEntity
  8
0
  6
Continuous
 62
     2
100
AcDbLine
 10
150.0012767156713
 20
270.5734359623843
 30
0.0
 11
145.9564934165228
 21
266.5286526632326
 31
0.0
  0
LINE
  5
1F4
330
51
100
AcDbEntity
  8
0
  6
Continuous
 62
     2
100
AcDbLine
 10
149.778622566022
 20
270.6336245252014
 30
0.0
 11
145.8180130093115
 21
266.6730149684936
 31
0.0
  0
LINE
  5
1F5
330
51
100
AcDbEntity
  8
0
  6
Continuous
 62
     2
100
AcDbLine
 10
149.5258487072624
 20
270.6636933789173
 30
0.0
 11
145.7096523111923
 21
266.8474969828535
 31
0.0
  0
LINE
  5
1F6
330
51
100
AcDbEntity
  8
0
  6
Continuous
 62
     2
100
AcDbLine
 10
149.2393383680519
 20
270.6600257521855
 30
0.0
 11
145.6350280935312
 21
267.0557154776625
 31
0.0
  0
LINE
  5
1F7
330
51
100
AcDbEntity
  8
0
  6
Continuous
 62
     2
100
AcDbLine
 10
148.9126293072113
 20
270.6161594038144
 30
0.0
 11
145.6006025975021
 21
267.3041326941107
 31
0.0
  0
LINE
  5
1F8
330
51
100
AcDbEntity
  8
0
  6
Continuous
 62
     2
100
AcDbLine
 10
148.5336803185419
 20
270.5200531276237
 30
0.0
 11
145.6184170292927
 21
267.6047898383786
 31
0.0
  0
LINE
  5
1F9
330
51
100
AcDbEntity
  8
0
  6
Continuous
 62
     2
100
AcDbLine
 10
148.0764523852322
 20
270.3456679067863
 30
0.0
 11
145.7145104057327
 21
267.9837259272927
 31
0.0
  0
LINE
  5
1FA
330
51
100
AcDbEntity
  8
0
  6
Continuous
 62
     2
100
AcDbLine
 10
147.4581419644219
 20
270.0102001984506
 30
0.0
 11
145.9716862696714
 21
268.5237445037064
 31
0.0
  0
LINE
  5
1FB
330
51
100
AcDbEntity
  8
0
  6
Continuous
 62
     2
100
AcDbLine
 10
150.3624112725429
 20
270.3688850943086
 30
0.0
 11
146.3176279733925
 21
266.3241017951555
 31
0.0
  0
LINE
  5
1FC
330
51
100
AcDbEntity
  8
0
  6
Continuous
 62
     2
100
AcDbLine
 10
150.5008916797615
 20
270.2245227890467
 30
0.0
 11
146.5402821230528
 21
266.2639132323384
 31
0.0
  0
LINE
  5
1FD
330
51
100
AcDbEntity
  8
0
  6
Continuous
 62
     2
100
AcDbLine
 10
150.6092523778716
 20
270.0500407746854
 30
0.0
 11
146.7930559818124
 21
266.2338443786225
 31
0.0
  0
LINE
  5
1FE
330
51
100
AcDbEntity
  8
0
  6
Continuous
 62
     2
100
AcDbLine
 10
150.6838765955417
 20
269.8418222798773
 30
0.0
 11
147.0795663210229
 21
266.2375120053534
 31
0.0
  0
LINE
  5
1FF
330
51
100
AcDbEntity
  8
0
  6
Continuous
 62
     2
100
AcDbLine
 10
150.7183020915727
 20
269.5934050634296
 30
0.0
 11
147.4062753818616
 21
266.2813783537245
 31
0.0
  0
LINE
  5
200
330
51
100
AcDbEntity
  8
0
  6
Continuous
 62
     2
100
AcDbLine
 10
150.7004876597712
 20
269.2927479191617
 30
0.0
 11
147.7852243705329
 21
266.3774846299166
 31
0.0
  0
LINE
  5
201
330
51
100
AcDbEntity
  8
0
  6
Continuous
 62
     2
100
AcDbLine
 10
150.6043942833312
 20
268.9138118302476
 30
0.0
 11
148.2424523038426
 21
266.5518698507535
 31
0.0
  0
LINE
  5
202
330
51
100
AcDbEntity
  8
0
  6
Continuous
 62
     2
100
AcDbLine
 10
150.3472184193925
 20
268.3737932538334
 30
0.0
 11
148.8607627246529
 21
266.8873375590897
 31
0.0
  0
LINE
  5
203
330
51
100
AcDbEntity
  8
0
  6
Continuous
 62
     2
100
AcDbLine
 10
153.4811026156312
 20
266.4896811493254
 30
0.0
 11
149.661130675122
 21
262.6697092088207
 31
0.0
  0
LINE
  5
204
330
51
100
AcDbEntity
  8
0
  6
Continuous
 62
     2
100
AcDbLine
 10
153.327138222332
 20
266.6185594685026
 30
0.0
 11
149.5269822562113
 21
262.8184035023814
 31
0.0
  0
LINE
  5
205
330
51
100
AcDbEntity
  8
0
  6
Continuous
 62
     2
100
AcDbLine
 10
153.1530429095328
 20
266.7273068681825
 30
0.0
 11
149.4129647567916
 21
262.9872287154394
 31
0.0
  0
LINE
  5
206
330
51
100
AcDbEntity
  8
0
  6
Continuous
 62
     2
100
AcDbLine
 10
152.9578195564027
 20
266.8149262275224
 30
0.0
 11
149.3200752977118
 21
263.1771819688374
 31
0.0
  0
LINE
  5
207
330
51
100
AcDbEntity
  8
0
  6
Continuous
 62
     2
100
AcDbLine
 10
152.7396103017927
 20
266.8795596853906
 30
0.0
 11
149.2501717401119
 21
263.3901211237076
 31
0.0
  0
LINE
  5
208
330
51
100
AcDbEntity
  8
0
  6
Continuous
 62
     2
100
AcDbLine
 10
152.4953086296227
 20
266.9181007256943
 30
0.0
 11
149.206360600072
 21
263.6291526961404
 31
0.0
  0
LINE
  5
209
330
51
100
AcDbEntity
  8
0
  6
Continuous
 62
     2
100
AcDbLine
 10
152.2197369232817
 20
266.9253717318293
 30
0.0
 11
149.1938194941922
 21
263.8994543027434
 31
0.0
  0
LINE
  5
20A
330
51
100
AcDbEntity
  8
0
  6
Continuous
 62
     2
100
AcDbLine
 10
151.9037263622213
 20
266.8922038832457
 30
0.0
 11
149.2217172430428
 21
264.2101947640645
 31
0.0
  0
LINE
  5
20B
330
51
100
AcDbEntity
  8
0
  6
Continuous
 62
     2
100
AcDbLine
 10
151.5286393854422
 20
266.7999596189407
 30
0.0
 11
149.3086914076121
 21
264.5800116411074
 31
0.0
  0
LINE
  5
20C
330
51
100
AcDbEntity
  8
0
  6
Continuous
 62
     2
100
AcDbLine
 10
151.0429130666817
 20
266.5970760126525
 30
0.0
 11
149.5063049141627
 21
265.0604678601335
 31
0.0
  0
LINE
  5
20D
330
51
100
AcDbEntity
  8
0
  6
Continuous
 62
     2
100
AcDbLine
 10
153.6152510345419
 20
266.3409868557656
 30
0.0
 11
149.8150950684212
 21
262.5408308896444
 31
0.0
  0
LINE
  5
20E
330
51
100
AcDbEntity
  8
0
  6
Continuous
 62
     2
100
AcDbLine
 10
153.7292685339617
 20
266.1721616427076
 30
0.0
 11
149.9891903812113
 21
262.4320834899645
 31
0.0
  0
LINE
  5
20F
330
51
100
AcDbEntity
  8
0
  6
Continuous
 62
     2
100
AcDbLine
 10
153.8221579930323
 20
265.9822083893096
 30
0.0
 11
150.1844137343524
 21
262.3444641306246
 31
0.0
  0
LINE
  5
210
330
51
100
AcDbEntity
  8
0
  6
Continuous
 62
     2
100
AcDbLine
 10
153.8920615506413
 20
265.7692692344394
 30
0.0
 11
150.4026229889623
 21
262.2798306727564
 31
0.0
  0
LINE
  5
211
330
51
100
AcDbEntity
  8
0
  6
Continuous
 62
     2
100
AcDbLine
 10
153.9358726906812
 20
265.5302376620066
 30
0.0
 11
150.6469246611323
 21
262.2412896324527
 31
0.0
  0
LINE
  5
212
330
51
100
AcDbEntity
  8
0
  6
Continuous
 62
     2
100
AcDbLine
 10
153.9484137965519
 20
265.2599360554036
 30
0.0
 11
150.9224963674624
 21
262.2340186263173
 31
0.0
  0
LINE
  5
213
330
51
100
AcDbEntity
  8
0
  6
Continuous
 62
     2
100
AcDbLine
 10
153.9205160477013
 20
264.9491955940825
 30
0.0
 11
151.2385069285228
 21
262.2671864749013
 31
0.0
  0
LINE
  5
214
330
51
100
AcDbEntity
  8
0
  6
Continuous
 62
     2
100
AcDbLine
 10
153.8335418831412
 20
264.5793787170396
 30
0.0
 11
151.613593905302
 21
262.3594307392064
 31
0.0
  0
LINE
  5
215
330
51
100
AcDbEntity
  8
0
  6
Continuous
 62
     2
100
AcDbLine
 10
153.6359283765924
 20
264.0989224980144
 30
0.0
 11
152.0993202240625
 21
262.5623143454945
 31
0.0
  0
LINE
  5
216
330
51
100
AcDbEntity
  8
0
  6
Continuous
 62
     2
100
AcDbLine
 10
160.8805354367323
 20
262.5244470628973
 30
0.0
 11
157.3581649006319
 21
259.0020765268023
 31
0.0
  0
LINE
  5
217
330
51
100
AcDbEntity
  8
0
  6
Continuous
 62
     2
100
AcDbLine
 10
160.7334269036928
 20
262.6601812423396
 30
0.0
 11
157.2224307211927
 21
259.1491850598354
 31
0.0
  0
LINE
  5
218
330
51
100
AcDbEntity
  8
0
  6
Continuous
 62
     2
100
AcDbLine
 10
160.5748323822118
 20
262.7844294333345
 30
0.0
 11
157.0981825301915
 21
259.3077795813147
 31
0.0
  0
LINE
  5
219
330
51
100
AcDbEntity
  8
0
  6
Continuous
 62
     2
100
AcDbLine
 10
160.4044057156025
 20
262.8968454791957
 30
0.0
 11
156.9857664843312
 21
259.4782062479285
 31
0.0
  0
LINE
  5
21A
330
51
100
AcDbEntity
  8
0
  6
Continuous
 62
     2
100
AcDbLine
 10
160.2215297108014
 20
262.9968121868715
 30
0.0
 11
156.8857997766627
 21
259.6610822527273
 31
0.0
  0
LINE
  5
21B
330
51
100
AcDbEntity
  8
0
  6
Continuous
 62
     2
100
AcDbLine
 10
160.0252447974126
 20
263.0833699859504
 30
0.0
 11
156.7992419775819
 21
259.8573671661225
 31
0.0
  0
LINE
  5
21C
330
51
100
AcDbEntity
  8
0
  6
Continuous
 62
     2
100
AcDbLine
 10
159.8141215966025
 20
263.1550894976153
 30
0.0
 11
156.7275224659115
 21
260.0684903669326
 31
0.0
  0
LINE
  5
21D
330
51
100
AcDbEntity
  8
0
  6
Continuous
 62
     2
100
AcDbLine
 10
159.5860315645623
 20
263.2098421780593
 30
0.0
 11
156.6727697854713
 21
260.2965803989623
 31
0.0
  0
LINE
  5
21E
330
51
100
AcDbEntity
  8
0
  6
Continuous
 62
     2
100
AcDbLine
 10
159.3377102358118
 20
263.2443635617783
 30
0.0
 11
156.6382484017522
 21
260.5449017277183
 31
0.0
  0
LINE
  5
21F
330
51
100
AcDbEntity
  8
0
  6
Continuous
 62
     2
100
AcDbLine
 10
159.0638391742523
 20
263.2533352126975
 30
0.0
 11
156.6292767508312
 21
260.8187727892746
 31
0.0
  0
LINE
  5
220
330
51
100
AcDbEntity
  8
0
  6
Continuous
 62
     2
100
AcDbLine
 10
158.7547906199616
 20
263.2271293708814
 30
0.0
 11
156.6554825926523
 21
261.1278213435644
 31
0.0
  0
LINE
  5
221
330
51
100
AcDbEntity
  8
0
  6
Continuous
 62
     2
100
AcDbLine
 10
158.3894110465917
 20
263.1445925099797
 30
0.0
 11
156.7380194535526
 21
261.4932009169415
 31
0.0
  0
LINE
  5
222
330
51
100
AcDbEntity
  8
0
  6
Continuous
 62
     2
100
AcDbLine
 10
157.8932222837029
 20
262.9312464595687
 30
0.0
 11
156.9513655039627
 21
261.9893896798267
 31
0.0
  0
LINE
  5
223
330
51
100
AcDbEntity
  8
0
  6
Continuous
 62
     2
100
AcDbLine
 10
161.0162696161715
 20
262.3773385298646
 30
0.0
 11
157.5052734336623
 21
258.8663423473613
 31
0.0
  0
LINE
  5
224
330
51
100
AcDbEntity
  8
0
  6
Continuous
 62
     2
100
AcDbLine
 10
161.1405178071618
 20
262.2187440083844
 30
0.0
 11
157.6638679551415
 21
258.7420941563664
 31
0.0
  0
LINE
  5
225
330
51
100
AcDbEntity
  8
0
  6
Continuous
 62
     2
100
AcDbLine
 10
161.2529338530221
 20
262.0483173417706
 30
0.0
 11
157.8342946217617
 21
258.6296781105057
 31
0.0
  0
LINE
  5
226
330
51
100
AcDbEntity
  8
0
  6
Continuous
 62
     2
100
AcDbLine
 10
161.3529005607015
 20
261.8654413369736
 30
0.0
 11
158.0171706265519
 21
258.5297114028285
 31
0.0
  0
LINE
  5
227
330
51
100
AcDbEntity
  8
0
  6
Continuous
 62
     2
100
AcDbLine
 10
161.4394583597823
 20
261.6691564235775
 30
0.0
 11
158.2134555399516
 21
258.4431536037496
 31
0.0
  0
LINE
  5
228
330
51
100
AcDbEntity
  8
0
  6
Continuous
 62
     2
100
AcDbLine
 10
161.5111778714527
 20
261.4580332227697
 30
0.0
 11
158.4245787407617
 21
258.3714340920824
 31
0.0
  0
LINE
  5
229
330
51
100
AcDbEntity
  8
0
  6
Continuous
 62
     2
100
AcDbLine
 10
161.565930551893
 20
261.2299431907377
 30
0.0
 11
158.6526687727928
 21
258.3166814116394
 31
0.0
  0
LINE
  5
22A
330
51
100
AcDbEntity
  8
0
  6
Continuous
 62
     2
100
AcDbLine
 10
161.600451935612
 20
260.9816218619817
 30
0.0
 11
158.9009901015525
 21
258.2821600279217
 31
0.0
  0
LINE
  5
22B
330
51
100
AcDbEntity
  8
0
  6
Continuous
 62
     2
100
AcDbLine
 10
161.6094235865312
 20
260.7077508004254
 30
0.0
 11
159.1748611631028
 21
258.2731883770025
 31
0.0
  0
LINE
  5
22C
330
51
100
AcDbEntity
  8
0
  6
Continuous
 62
     2
100
AcDbLine
 10
161.5832177447119
 20
260.3987022461347
 30
0.0
 11
159.4839097173917
 21
258.2993942188195
 31
0.0
  0
LINE
  5
22D
330
51
100
AcDbEntity
  8
0
  6
Continuous
 62
     2
100
AcDbLine
 10
161.5006808838116
 20
260.0333226727576
 30
0.0
 11
159.8492892907725
 21
258.3819310797217
 31
0.0
  0
LINE
  5
22E
330
51
100
AcDbEntity
  8
0
  6
Continuous
 62
     2
100
AcDbLine
 10
161.2873348334015
 20
259.5371339098724
 30
0.0
 11
160.3454780536522
 21
258.5952771301313
 31
0.0
  0
LINE
  5
22F
330
51
100
AcDbEntity
  8
0
  6
Continuous
 62
     2
100
AcDbLine
 10
157.8618668367617
 20
263.7600422520395
 30
0.0
 11
157.4706977759615
 21
263.3688731912403
 31
0.0
  0
LINE
  5
230
330
51
100
AcDbEntity
  8
0
  6
Continuous
 62
     2
100
AcDbLine
 10
156.4554797403416
 20
262.3536551556176
 30
0.0
 11
154.2221555827218
 21
260.1203309980047
 31
0.0
  0
LINE
  5
231
330
51
100
AcDbEntity
  8
0
  6
Continuous
 62
     2
100
AcDbLine
 10
157.6989222054326
 20
263.8799403331846
 30
0.0
 11
154.1022575015813
 21
260.2832756293324
 31
0.0
  0
LINE
  5
232
330
51
100
AcDbEntity
  8
0
  6
Continuous
 62
     2
100
AcDbLine
 10
157.5244231510715
 20
263.9882839913003
 30
0.0
 11
153.993913843462
 21
260.4577746836903
 31
0.0
  0
LINE
  5
233
330
51
100
AcDbEntity
  8
0
  6
Continuous
 62
     2
100
AcDbLine
 10
157.3377031688324
 20
264.0844067215376
 30
0.0
 11
153.8977911132315
 21
260.6444946659294
 31
0.0
  0
LINE
  5
234
330
51
100
AcDbEntity
  8
0
  6
Continuous
 62
     2
100
AcDbLine
 10
157.1377629585622
 20
264.1673092237375
 30
0.0
 11
153.8148886110321
 21
260.8444348762023
 31
0.0
  0
LINE
  5
235
330
51
100
AcDbEntity
  8
0
  6
Continuous
 62
     2
100
AcDbLine
 10
156.9231418878717
 20
264.2355308655233
 30
0.0
 11
153.7466669692421
 21
261.0590559468924
 31
0.0
  0
LINE
  5
236
330
51
100
AcDbEntity
  8
0
  6
Continuous
 62
     2
100
AcDbLine
 10
156.6916896575312
 20
264.2869213476574
 30
0.0
 11
153.6952764871021
 21
261.2905081772315
 31
0.0
  0
LINE
  5
237
330
51
100
AcDbEntity
  8
0
  6
Continuous
 62
     2
100
AcDbLine
 10
156.440135099152
 20
264.3182095017473
 30
0.0
 11
153.6639883330226
 21
261.5420627356175
 31
0.0
  0
LINE
  5
238
330
51
100
AcDbEntity
  8
0
  6
Continuous
 62
     2
100
AcDbLine
 10
156.1631867508313
 20
264.3241038659035
 30
0.0
 11
153.6580939688629
 21
261.8190110839364
 31
0.0
  0
LINE
  5
239
330
51
100
AcDbEntity
  8
0
  6
Continuous
 62
     2
100
AcDbLine
 10
155.8513452468724
 20
264.2951050744237
 30
0.0
 11
153.6870927603413
 21
262.1308525878903
 31
0.0
  0
LINE
  5
23A
330
51
100
AcDbEntity
  8
0
  6
Continuous
 62
     2
100
AcDbLine
 10
155.4840230564514
 20
264.2106255964795
 30
0.0
 11
153.7715722382818
 21
262.4981747783095
 31
0.0
  0
LINE
  5
23B
330
51
100
AcDbEntity
  8
0
  6
Continuous
 62
     2
100
AcDbLine
 10
154.9915957444027
 20
264.0010409969013
 30
0.0
 11
153.9811568378627
 21
262.9906020903613
 31
0.0
  0
LINE
  5
23C
330
51
100
AcDbEntity
  8
0
  6
Continuous
 62
     2
100
AcDbLine
 10
158.0136647256823
 20
263.6289974284805
 30
0.0
 11
158.005008368862
 21
263.6203410716694
 31
0.0
  0
LINE
  5
23D
330
51
100
AcDbEntity
  8
0
  6
Continuous
 62
     2
100
AcDbLine
 10
156.2040118599125
 20
261.8193445627126
 30
0.0
 11
154.3532004062818
 21
259.9685331090864
 31
0.0
  0
LINE
  5
23E
330
51
100
AcDbEntity
  8
0
  6
Continuous
 62
     2
100
AcDbLine
 10
156.0952241674113
 20
261.4277141577427
 30
0.0
 11
154.4952023123224
 21
259.8276923026515
 31
0.0
  0
LINE
  5
23F
330
51
100
AcDbEntity
  8
0
  6
Continuous
 62
     2
100
AcDbLine
 10
156.046697207772
 20
261.0963444856207
 30
0.0
 11
154.6481717971328
 21
259.6978190749874
 31
0.0
  0
LINE
  5
240
330
51
100
AcDbEntity
  8
0
  6
Continuous
 62
     2
100
AcDbLine
 10
156.0352589738122
 20
260.8020635391954
 30
0.0
 11
154.8123204835829
 21
259.5791250489565
 31
0.0
  0
LINE
  5
241
330
51
100
AcDbEntity
  8
0
  6
Continuous
 62
     2
100
AcDbLine
 10
156.0503752185323
 20
260.5343370714336
 30
0.0
 11
154.9880811431613
 21
259.4720429960667
 31
0.0
  0
LINE
  5
242
330
51
100
AcDbEntity
  8
0
  6
Continuous
 62
     2
100
AcDbLine
 10
156.086204462832
 20
260.2873236032647
 30
0.0
 11
155.1761513997026
 21
259.3772705401366
 31
0.0
  0
LINE
  5
243
330
51
100
AcDbEntity
  8
0
  6
Continuous
 62
     2
100
AcDbLine
 10
156.1391258354015
 20
260.0574022633587
 30
0.0
 11
155.3775722092523
 21
259.2958486372013
 31
0.0
  0
LINE
  5
244
330
51
100
AcDbEntity
  8
0
  6
Continuous
 62
     2
100
AcDbLine
 10
156.2067338743327
 20
259.8421675898103
 30
0.0
 11
155.5938642392921
 21
259.2292979547724
 31
0.0
  0
LINE
  5
245
330
51
100
AcDbEntity
  8
0
  6
Continuous
 62
     2
100
AcDbLine
 10
156.2873587968225
 20
259.6399497998295
 30
0.0
 11
155.8272712985727
 21
259.1798623015834
 31
0.0
  0
LINE
  5
246
330
51
100
AcDbEntity
  8
0
  6
Continuous
 62
     2
100
AcDbLine
 10
156.3798116876424
 20
259.4495599781753
 30
0.0
 11
156.0812240247724
 21
259.1509723152994
 31
0.0
  0
LINE
  5
247
330
51
100
AcDbEntity
  8
0
  6
Continuous
 62
     2
100
AcDbLine
 10
156.4832387174029
 20
259.2701442954544
 30
0.0
 11
156.3613199940319
 21
259.1482255720875
 31
0.0
  0
LINE
  5
248
330
51
100
AcDbEntity
  8
0
  6
Continuous
 62
     7
100
AcDbLine
 10
204.495534713682
 20
289.5741048150644
 30
0.0
 11
204.245534713682
 21
289.5741048150644
 31
0.0
  0
LINE
  5
249
330
51
100
AcDbEntity
  8
1
  6
Continuous
 62
     7
100
AcDbLine
 10
186.2804173005625
 20
259.1781402060924
 30
0.0
 11
188.0276173005623
 21
259.1781402060924
 31
0.0
  0
LINE
  5
24A
330
51
100
AcDbEntity
  8
1
  6
Continuous
 62
     7
100
AcDbLine
 10
186.1348173005626
 20
258.9597402060927
 30
0.0
 11
187.8820173005624
 21
258.9597402060927
 31
0.0
  0
LINE
  5
24B
330
51
100
AcDbEntity
  8
1
  6
Continuous
 62
     7
100
AcDbLine
 10
176.4898772725228
 20
263.3648021680024
 30
0.0
 11
176.5831634996812
 21
263.8938546521163
 31
0.0
  0
LINE
  5
24C
330
51
100
AcDbEntity
  8
1
  6
Continuous
 62
     7
100
AcDbLine
 10
176.2404233237012
 20
263.4498620159266
 30
0.0
 11
176.4345259706515
 21
263.0508893360407
 31
0.0
  0
LINE
  5
24D
330
51
100
AcDbEntity
  8
1
  6
Continuous
 62
     7
100
AcDbLine
 10
176.9519873720728
 20
263.0508893360407
 30
0.0
 11
176.4345259706515
 21
263.0508893360407
 31
0.0
  0
LINE
  5
24E
330
51
100
AcDbEntity
  8
1
  6
Continuous
 62
     7
100
AcDbLine
 10
173.2285687711628
 20
261.1394895497106
 30
0.0
 11
173.5925687711624
 21
261.1394895497106
 31
0.0
  0
LINE
  5
24F
330
51
100
AcDbEntity
  8
1
  6
Continuous
 62
     7
100
AcDbLine
 10
173.2285687711628
 20
261.1394895497106
 30
0.0
 11
173.0966249011017
 21
260.8543549780093
 31
0.0
  0
LINE
  5
250
330
51
100
AcDbEntity
  8
1
  6
Continuous
 62
     7
100
AcDbLine
 10
173.493399901452
 20
261.6680409817345
 30
0.0
 11
173.4811135319324
 21
261.6973202940853
 31
0.0
  0
LINE
  5
251
330
51
100
AcDbEntity
  8
1
  6
Continuous
 62
     7
100
AcDbLine
 10
175.5828553972424
 20
260.7725048150624
 30
0.0
 11
181.8711347136814
 21
260.7725048150624
 31
0.0
  0
LINE
  5
252
330
51
100
AcDbEntity
  8
1
  6
Continuous
 62
     7
100
AcDbLine
 10
189.3692844145826
 20
260.7725048150624
 30
0.0
 11
200.2895347136819
 21
260.7725048150624
 31
0.0
  0
LINE
  5
253
330
51
100
AcDbEntity
  8
1
  6
Continuous
 62
     7
100
AcDbLine
 10
201.6685150885114
 20
264.0048248150624
 30
0.0
 11
199.3389150885123
 21
264.0048248150624
 31
0.0
  0
LINE
  5
254
330
51
100
AcDbEntity
  8
1
  6
Continuous
 62
     7
100
AcDbLine
 10
192.6600532342127
 20
265.6056071089574
 30
0.0
 11
191.1125150885127
 21
265.6056071089574
 31
0.0
  0
LINE
  5
255
330
51
100
AcDbEntity
  8
1
  6
Continuous
 62
     7
100
AcDbLine
 10
187.7855421381119
 20
263.9757048150636
 30
0.0
 11
187.0575421381127
 21
263.9757048150636
 31
0.0
  0
LINE
  5
256
330
51
100
AcDbEntity
  8
1
  6
Continuous
 62
     7
100
AcDbLine
 10
182.0126113253918
 20
263.9757048150636
 30
0.0
 11
181.2846113253927
 21
263.9757048150636
 31
0.0
  0
LINE
  5
257
330
51
100
AcDbEntity
  8
1
  6
Continuous
 62
     7
100
AcDbLine
 10
178.0261046683827
 20
263.9757048150636
 30
0.0
 11
179.4821046683828
 21
263.9757048150636
 31
0.0
  0
LINE
  5
258
330
51
100
AcDbEntity
  8
1
  6
Continuous
 62
     7
100
AcDbLine
 10
184.8795638544816
 20
260.7725048150624
 30
0.0
 11
186.9543638544819
 21
260.7725048150624
 31
0.0
  0
LINE
  5
259
330
51
100
AcDbEntity
  8
1
  6
Continuous
 62
     7
100
AcDbLine
 10
183.0069587260623
 20
260.7725048150624
 30
0.0
 11
183.7349587260615
 21
260.7725048150624
 31
0.0
  0
LINE
  5
25A
330
51
100
AcDbEntity
  8
1
  6
Continuous
 62
     7
100
AcDbLine
 10
201.7070249011013
 20
264.2232248150635
 30
0.0
 11
200.8334249011023
 21
264.2232248150635
 31
0.0
  0
LINE
  5
25B
330
51
100
AcDbEntity
  8
1
  6
Continuous
 62
     7
100
AcDbLine
 10
192.6985630468025
 20
265.8240071089576
 30
0.0
 11
191.1510249011026
 21
265.8240071089576
 31
0.0
  0
LINE
  5
25C
330
51
100
AcDbEntity
  8
1
  6
Continuous
 62
     7
100
AcDbLine
 10
187.8240519507017
 20
264.1941048150634
 30
0.0
 11
187.0960519507025
 21
264.1941048150634
 31
0.0
  0
LINE
  5
25D
330
51
100
AcDbEntity
  8
1
  6
Continuous
 62
     7
100
AcDbLine
 10
182.0511211379817
 20
264.1941048150634
 30
0.0
 11
181.3231211379825
 21
264.1941048150634
 31
0.0
  0
LINE
  5
25E
330
51
100
AcDbEntity
  8
1
  6
Continuous
 62
     7
100
AcDbLine
 10
178.0646144809725
 20
264.1941048150634
 30
0.0
 11
179.5206144809727
 21
264.1941048150634
 31
0.0
  0
LINE
  5
25F
330
51
100
AcDbEntity
  8
1
  6
Continuous
 62
     7
100
AcDbLine
 10
177.1006249011025
 20
263.8938546521163
 30
0.0
 11
176.5831634996812
 21
263.8938546521163
 31
0.0
  0
LINE
  5
260
330
51
100
AcDbEntity
  8
1
  6
Continuous
 62
     7
100
AcDbLine
 10
176.9519873720728
 20
263.0508893360407
 30
0.0
 11
177.1006249011025
 21
263.8938546521163
 31
0.0
  0
LINE
  5
261
330
51
100
AcDbEntity
  8
1
  6
Continuous
 62
     7
100
AcDbLine
 10
172.7326249011021
 20
260.8543549780093
 30
0.0
 11
173.0966249011017
 21
260.8543549780093
 31
0.0
  0
LINE
  5
262
330
51
100
AcDbEntity
  8
1
  6
Continuous
 62
     7
100
AcDbLine
 10
172.8812624301227
 20
261.6973202940853
 30
0.0
 11
173.4811135319324
 21
261.6973202940853
 31
0.0
  0
LINE
  5
263
330
51
100
AcDbEntity
  8
1
  6
Continuous
 62
     7
100
AcDbLine
 10
172.8812624301227
 20
261.6973202940853
 30
0.0
 11
172.7326249011021
 21
260.8543549780093
 31
0.0
  0
LINE
  5
264
330
51
100
AcDbEntity
  8
1
  6
Continuous
 62
     7
100
AcDbLine
 10
188.6030249011019
 20
260.5541048150635
 30
0.0
 11
200.2510249011029
 21
260.5541048150635
 31
0.0
  0
LINE
  5
265
330
51
100
AcDbEntity
  8
1
  6
Continuous
 62
     7
100
AcDbLine
 10
184.8410540419027
 20
260.5541048150635
 30
0.0
 11
186.9158540419012
 21
260.5541048150635
 31
0.0
  0
LINE
  5
266
330
51
100
AcDbEntity
  8
1
  6
Continuous
 62
     7
100
AcDbLine
 10
182.9684489134725
 20
260.5541048150635
 30
0.0
 11
183.6964489134716
 21
260.5541048150635
 31
0.0
  0
LINE
  5
267
330
51
100
AcDbEntity
  8
1
  6
Continuous
 62
     7
100
AcDbLine
 10
174.7710249011016
 20
260.5541048150635
 30
0.0
 11
181.8326249011025
 21
260.5541048150635
 31
0.0
  0
LINE
  5
268
330
51
100
AcDbEntity
  8
0
  6
Continuous
 62
     7
100
AcDbLine
 10
129.6955347136827
 20
229.1741048150616
 30
0.0
 11
129.9455347136827
 21
229.1741048150616
 31
0.0
  0
LINE
  5
269
330
51
100
AcDbEntity
  8
0
  6
Continuous
 62
     7
100
AcDbLine
 10
129.9455347136827
 20
224.8741048150614
 30
0.0
 11
129.6955347136827
 21
224.8741048150614
 31
0.0
  0
LINE
  5
26A
330
51
100
AcDbEntity
  8
0
  6
Continuous
 62
     7
100
AcDbLine
 10
129.6955347136827
 20
289.5741048150644
 30
0.0
 11
129.9455347136827
 21
289.5741048150644
 31
0.0
  0
LINE
  5
26B
330
51
100
AcDbEntity
  8
0
  6
Continuous
 62
     7
100
AcDbLine
 10
129.9455347136827
 20
293.8741048150646
 30
0.0
 11
129.6955347136827
 21
293.8741048150646
 31
0.0
  0
ARC
  5
26C
330
51
100
AcDbEntity
  8
1
  6
Continuous
 62
     7
100
AcDbCircle
 10
167.0955347136824
 20
235.1741048150634
 30
0.0
 40
11.79999999999919
100
AcDbArc
 50
0.0
 51
-145.4184488010085
  0
ARC
  5
26D
330
51
100
AcDbEntity
  8
1
  6
Continuous
 62
     7
100
AcDbCircle
 10
167.0955347136824
 20
235.1741048150634
 30
0.0
 40
11.8000000000004
100
AcDbArc
 50
-34.58155119899158
 51
0.0
  0
ARC
  5
26E
330
51
100
AcDbEntity
  8
0
  6
Continuous
 62
     7
100
AcDbCircle
 10
133.9455347136827
 20
300.6241048150623
 30
0.0
 40
4.0
100
AcDbArc
 50
90.0
 51
180.0
  0
ARC
  5
26F
330
51
100
AcDbEntity
  8
0
  6
Continuous
 62
     7
100
AcDbCircle
 10
200.245534713682
 20
300.6241048150623
 30
0.0
 40
4.0
100
AcDbArc
 50
0.0
 51
90.0
  0
ARC
  5
270
330
51
100
AcDbEntity
  8
0
  6
Continuous
 62
     7
100
AcDbCircle
 10
133.9455347136827
 20
203.1241048150623
 30
0.0
 40
4.000000000000005
100
AcDbArc
 50
-179.9999969295363
 51
-90.00000153524448
  0
ARC
  5
271
330
51
100
AcDbEntity
  8
0
  6
Continuous
 62
     7
100
AcDbCircle
 10
200.245534713682
 20
203.1241048150623
 30
0.0
 40
4.000000000000001
100
AcDbArc
 50
-90.00000153524448
 51
0.0
  0
ARC
  5
272
330
51
100
AcDbEntity
  8
0
  6
Continuous
 62
     7
100
AcDbCircle
 10
134.8682859137425
 20
281.0831218094386
 30
0.0
 40
0.5000000000000007
100
AcDbArc
 50
-179.9999969296144
 51
-63.4349499043857
  0
ARC
  5
273
330
51
100
AcDbEntity
  8
0
  6
Continuous
 62
     7
100
AcDbCircle
 10
134.8682859137425
 20
284.4650878206885
 30
0.0
 40
0.5000000000027289
100
AcDbArc
 50
63.4349499043857
 51
-179.9999969295102
  0
ARC
  5
274
330
51
100
AcDbEntity
  8
0
  6
Continuous
 62
     7
100
AcDbCircle
 10
138.250251924992
 20
282.7741048150633
 30
0.0
 40
0.5000000000027289
100
AcDbArc
 50
-63.4349499043857
 51
63.4349499043857
  0
ARC
  5
275
330
51
100
AcDbEntity
  8
0
  6
Continuous
 62
     7
100
AcDbCircle
 10
167.0955347136824
 20
211.1291048150633
 30
0.0
 40
45.00000000000386
100
AcDbArc
 50
57.53112152221154
 51
90.00000153523392
  0
ARC
  5
276
330
51
100
AcDbEntity
  8
0
  6
Continuous
 62
     7
100
AcDbCircle
 10
182.3955347136816
 20
235.1741048150634
 30
0.0
 40
16.50000000000688
100
AcDbArc
 50
-9.20708193010118
 51
57.53112152220864
  0
ARC
  5
277
330
51
100
AcDbEntity
  8
0
  6
Continuous
 62
     7
100
AcDbCircle
 10
167.0955347136824
 20
237.6541048150634
 30
0.0
 40
32.00000000000001
100
AcDbArc
 50
-90.0000015352222
 51
-9.20708193010465
  0
ARC
  5
278
330
51
100
AcDbEntity
  8
0
  6
Continuous
 62
     7
100
AcDbCircle
 10
167.0955347136824
 20
237.6541048150634
 30
0.0
 40
31.99999999999789
100
AcDbArc
 50
-170.7929211403616
 51
-90.0000015352222
  0
ARC
  5
279
330
51
100
AcDbEntity
  8
0
  6
Continuous
 62
     7
100
AcDbCircle
 10
151.7955347136813
 20
235.1741048150634
 30
0.0
 40
16.50000000000109
100
AcDbArc
 50
122.4688815482539
 51
-170.7929211403621
  0
ARC
  5
27A
330
51
100
AcDbEntity
  8
0
  6
Continuous
 62
     7
100
AcDbCircle
 10
167.0955347136824
 20
211.1291048150633
 30
0.0
 40
44.99999999999999
100
AcDbArc
 50
90.00000153523392
 51
122.4688815482516
  0
ARC
  5
27B
330
51
100
AcDbEntity
  8
0
  6
Continuous
 62
     7
100
AcDbCircle
 10
147.5228995412526
 20
275.4952532771513
 30
0.0
 40
0.156498001169154
100
AcDbArc
 50
-59.30098886070645
 51
88.24157755716431
  0
ARC
  5
27C
330
51
100
AcDbEntity
  8
0
  6
Continuous
 62
     7
100
AcDbCircle
 10
147.229365276562
 20
265.9338538059633
 30
0.0
 40
9.722402151440775
100
AcDbArc
 50
88.24157755430137
 51
120.6990142100411
  0
ARC
  5
27D
330
51
100
AcDbEntity
  8
0
  6
Continuous
 62
     7
100
AcDbCircle
 10
142.3457024734926
 20
274.1592024209576
 30
0.0
 40
0.1564980011694319
100
AcDbArc
 50
120.6990142100369
 51
-91.75842551631972
  0
ARC
  5
27E
330
51
100
AcDbEntity
  8
0
  6
Continuous
 62
     7
100
AcDbCircle
 10
142.6392367381923
 20
283.7206018921443
 30
0.0
 40
9.722402151440621
100
AcDbArc
 50
-91.75842551625622
 51
-59.30098886044586
  0
ARC
  5
27F
330
51
100
AcDbEntity
  8
0
  6
Continuous
 62
     7
100
AcDbCircle
 10
148.1338380288617
 20
272.9919898307994
 30
0.0
 40
0.6042898518267914
100
AcDbArc
 50
-35.19710931721275
 51
90.04326935992847
  0
ARC
  5
280
330
51
100
AcDbEntity
  8
0
  6
Continuous
 62
     7
100
AcDbCircle
 10
148.1376300166012
 20
267.9705944557595
 30
0.0
 40
5.625686658655054
100
AcDbArc
 50
90.04326936009404
 51
144.8028937531701
  0
ARC
  5
281
330
51
100
AcDbEntity
  8
0
  6
Continuous
 62
     7
100
AcDbCircle
 10
144.0342751753924
 20
270.8648827860434
 30
0.0
 40
0.6042898518232827
100
AcDbArc
 50
144.8028937529684
 51
-89.95673371017345
  0
ARC
  5
282
330
51
100
AcDbEntity
  8
0
  6
Continuous
 62
     7
100
AcDbCircle
 10
144.030483187662
 20
275.8862781610824
 30
0.0
 40
5.625686658654248
100
AcDbArc
 50
-89.95673371037499
 51
-35.19710931734824
  0
ARC
  5
283
330
51
100
AcDbEntity
  8
0
  6
Continuous
 62
     7
100
AcDbCircle
 10
146.7138383708716
 20
267.3667752506544
 30
0.0
 40
1.133078469089885
100
AcDbArc
 50
160.7481639321386
 51
-87.12091508992739
  0
ARC
  5
284
330
51
100
AcDbEntity
  8
0
  6
Continuous
 62
     7
100
AcDbCircle
 10
146.5513707019527
 20
270.5972707117894
 30
0.0
 40
4.367656751933373
100
AcDbArc
 50
-87.12091508987753
 51
-19.25183913831196
  0
ARC
  5
285
330
51
100
AcDbEntity
  8
0
  6
Continuous
 62
     7
100
AcDbCircle
 10
149.6050663182014
 20
269.5307625068845
 30
0.0
 40
1.133078469092586
100
AcDbArc
 50
-19.2518391382425
 51
92.87908798018852
  0
ARC
  5
286
330
51
100
AcDbEntity
  8
0
  6
Continuous
 62
     7
100
AcDbCircle
 10
149.7675339871221
 20
266.3002670457504
 30
0.0
 40
4.367656751933994
100
AcDbArc
 50
92.87908798050994
 51
160.7481639321368
  0
ARC
  5
287
330
51
100
AcDbEntity
  8
0
  6
Continuous
 62
     7
100
AcDbCircle
 10
152.3885744309719
 20
265.3635620157015
 30
0.0
 40
1.569099495367354
100
AcDbArc
 50
-7.60341252393278
 51
95.19998206621037
  0
ARC
  5
288
330
51
100
AcDbEntity
  8
0
  6
Continuous
 62
     7
100
AcDbCircle
 10
152.5531093020418
 20
263.5556213120785
 30
0.0
 40
3.384511655622962
100
AcDbArc
 50
95.19998206630058
 51
172.3965905465119
  0
ARC
  5
289
330
51
100
AcDbEntity
  8
0
  6
Continuous
 62
     7
100
AcDbCircle
 10
150.7536588597814
 20
263.7958283424464
 30
0.0
 40
1.569099495369759
100
AcDbArc
 50
172.3965905465618
 51
-84.80002100416843
  0
ARC
  5
28A
330
51
100
AcDbEntity
  8
0
  6
Continuous
 62
     7
100
AcDbCircle
 10
150.5891239887023
 20
265.6037690460685
 30
0.0
 40
3.384511655622178
100
AcDbArc
 50
-84.8000210041737
 51
-7.60341252395955
  0
ARC
  5
28B
330
51
100
AcDbEntity
  8
0
  6
Continuous
 62
     7
100
AcDbCircle
 10
156.2466311368225
 20
261.7355666979397
 30
0.0
 40
2.589881780216176
100
AcDbArc
 50
46.84532444170344
 51
-83.21068618580095
  0
ARC
  5
28C
330
51
100
AcDbEntity
  8
0
  6
Continuous
 62
     7
100
AcDbCircle
 10
158.9897635355628
 20
260.8345893960154
 30
0.0
 40
2.954683593338218
100
AcDbArc
 50
109.200688537541
 51
-145.5660502815024
  0
ARC
  5
28D
330
51
100
AcDbEntity
  8
1
  6
Continuous
 62
     7
100
AcDbCircle
 10
174.2149112848128
 20
261.7650220297956
 30
0.0
 40
0.7280000000015591
100
AcDbArc
 50
-172.3445434334794
 51
-138.4099910161693
  0
ARC
  5
28E
330
51
100
AcDbEntity
  8
1
  6
Continuous
 62
     7
100
AcDbCircle
 10
200.2895347136819
 20
263.3703553271303
 30
0.0
 40
2.597850512067907
100
AcDbArc
 50
-90.0
 51
-55.91215248063894
  0
ARC
  5
28F
330
51
100
AcDbEntity
  8
1
  6
Continuous
 62
     7
100
AcDbCircle
 10
200.2510249011029
 20
263.1519553271305
 30
0.0
 40
2.597850512066998
100
AcDbArc
 50
-90.0
 51
-55.91215248067501
  0
CIRCLE
  5
290
330
51
100
AcDbEntity
  8
0
  6
Continuous
 62
     7
100
AcDbCircle
 10
159.1193501686812
 20
260.7632617948507
 30
0.0
 40
2.490692091920209
  0
CIRCLE
  5
291
330
51
100
AcDbEntity
  8
0
  6
Continuous
 62
     7
100
AcDbCircle
 10
167.0955347136824
 20
282.2741048150624
 30
0.0
 40
17.5
  0
MTEXT
  5
293
330
51
100
AcDbEntity
  8
0
 62
     7
100
AcDbMText
 10
189.9887429171013
 20
256.7476431214905
 30
0.0
 40
3.2
 41
0.0
 71
     5
 72
     1
  1
水道用コンセント
  7
CONVERTER_1
 73
     1
 44
0.7202881152461
  0
TEXT
  5
295
330
51
100
AcDbEntity
  8
0
 62
     7
100
AcDbText
 10
164.0955347136824
 20
256.8278690683455
 30
0.0
 40
6.0
  1
開
 41
0.979
  7
CONVERTER_2
100
AcDbText
  0
TEXT
  5
296
330
51
100
AcDbEntity
  8
0
 62
     7
100
AcDbText
 10
141.3027766078412
 20
279.6194675223314
 30
0.0
 40
6.0
  1
閉
 41
0.979
  7
CONVERTER_2
100
AcDbText
  0
MTEXT
  5
298
330
51
100
AcDbEntity
  8
1
 62
     7
100
AcDbMText
 10
174.7710249011016
 20
260.5541048150635
 30
0.0
 40
5.0
 41
0.0
 71
     8
 72
     1
  1
s
  7
CONVERTER_3
 73
     1
 44
1.32052821128451
  0
MTEXT
  5
299
330
51
100
AcDbEntity
  8
1
 62
     7
100
AcDbMText
 10
183.2886249011026
 20
260.5541048150635
 30
0.0
 40
5.0
 41
0.0
 71
     8
 72
     1
  1
m
  7
CONVERTER_3
 73
     1
 44
1.32052821128451
  0
MTEXT
  5
29B
330
51
100
AcDbEntity
  8
1
 62
     7
100
AcDbMText
 10
178.9206249011022
 20
260.5541048150635
 30
0.0
 40
5.0
 41
0.0
 71
     8
 72
     1
  1
i
  7
CONVERTER_4
 73
     1
 44
1.32052821128451
  0
MTEXT
  5
29C
330
51
100
AcDbEntity
  8
1
 62
     7
100
AcDbMText
 10
199.6686249011018
 20
260.5541048150635
 30
0.0
 40
5.0
 41
0.0
 71
     8
 72
     1
  1
t
  7
CONVERTER_4
 73
     1
 44
1.32052821128451
  0
MTEXT
  5
29D
330
51
100
AcDbEntity
  8
1
 62
     7
100
AcDbMText
 10
195.3006249011014
 20
260.5541048150635
 30
0.0
 40
5.0
 41
0.0
 71
     8
 72
     1
  1
e
  7
CONVERTER_4
 73
     1
 44
1.32052821128451
  0
MTEXT
  5
29E
330
51
100
AcDbEntity
  8
1
 62
     7
100
AcDbMText
 10
192.0246249011016
 20
260.5541048150635
 30
0.0
 40
5.0
 41
0.0
 71
     8
 72
     1
  1
l
  7
CONVERTER_4
 73
     1
 44
1.32052821128451
  0
MTEXT
  5
29F
330
51
100
AcDbEntity
  8
1
 62
     7
100
AcDbMText
 10
188.7486249011017
 20
260.5541048150635
 30
0.0
 40
5.0
 41
0.0
 71
     8
 72
     1
  1
p
  7
CONVERTER_4
 73
     1
 44
1.32052821128451
  0
MTEXT
  5
2A0
330
51
100
AcDbEntity
  8
1
 62
     7
100
AcDbMText
 10
182.9974249011029
 20
260.5541048150635
 30
0.0
 40
5.0
 41
0.0
 71
     8
 72
     1
  1
m
  7
CONVERTER_3
 73
     1
 44
1.32052821128451
  0
MTEXT
  5
2A1
330
51
100
AcDbEntity
  8
1
 62
     7
100
AcDbMText
 10
178.6294249011025
 20
260.5541048150635
 30
0.0
 40
5.0
 41
0.0
 71
     8
 72
     1
  1
i
  7
CONVERTER_4
 73
     1
 44
1.32052821128451
  0
MTEXT
  5
2A2
330
51
100
AcDbEntity
  8
1
 62
     7
100
AcDbMText
 10
174.4798249011019
 20
260.5541048150635
 30
0.0
 40
5.0
 41
0.0
 71
     8
 72
     1
  1
s
  7
CONVERTER_3
 73
     1
 44
1.32052821128451
  0
MTEXT
  5
2A3
330
51
100
AcDbEntity
  8
1
 62
     7
100
AcDbMText
 10
199.3774249011021
 20
260.5541048150635
 30
0.0
 40
5.0
 41
0.0
 71
     8
 72
     1
  1
t
  7
CONVERTER_4
 73
     1
 44
1.32052821128451
  0
MTEXT
  5
2A4
330
51
100
AcDbEntity
  8
1
 62
     7
100
AcDbMText
 10
195.0094249011017
 20
260.5541048150635
 30
0.0
 40
5.0
 41
0.0
 71
     8
 72
     1
  1
e
  7
CONVERTER_4
 73
     1
 44
1.32052821128451
  0
MTEXT
  5
2A5
330
51
100
AcDbEntity
  8
1
 62
     7
100
AcDbMText
 10
191.7334249011019
 20
260.5541048150635
 30
0.0
 40
5.0
 41
0.0
 71
     8
 72
     1
  1
l
  7
CONVERTER_4
 73
     1
 44
1.32052821128451
  0
MTEXT
  5
2A6
330
51
100
AcDbEntity
  8
1
 62
     7
100
AcDbMText
 10
188.4574249011021
 20
260.5541048150635
 30
0.0
 40
5.0
 41
0.0
 71
     8
 72
     1
  1
p
  7
CONVERTER_4
 73
     1
 44
1.32052821128451
  0
ENDBLK
  5
53
330
51
100
AcDbEntity
  8
0
100
AcDbBlockEnd
  0
BLOCK
  5
55
330
54
100
AcDbEntity
  8
0
100
AcDbBlockBegin
  2
V972GN-H2
 70
     0
 71
     0
 10
920.2317612857423
 20
214.3406502490584
 30
0.0
  3
V972GN-H2
  1

  0
LINE
  5
2A7
330
54
100
AcDbEntity
  8
0
  6
Continuous
 62
     7
100
AcDbLine
 10
268.8577161360117
 20
238.3022381951414
 30
0.0
 11
266.9533928319725
 21
237.2027766229294
 31
0.0
  0
LINE
  5
2A8
330
54
100
AcDbEntity
  8
1
  6
Continuous
 62
     7
100
AcDbLine
 10
159.245534713682
 20
357.0152081633364
 30
0.0
 11
159.245534713682
 21
364.7875441275846
 31
0.0
  0
LINE
  5
2A9
330
54
100
AcDbEntity
  8
1
  6
Continuous
 62
     7
100
AcDbLine
 10
174.9455347136827
 20
357.0152081633364
 30
0.0
 11
174.9455347136827
 21
364.3499438003055
 31
0.0
  0
LINE
  5
2AA
330
54
100
AcDbEntity
  8
0
  6
Continuous
 62
     7
100
AcDbLine
 10
158.745534713682
 20
227.7056209371026
 30
0.0
 11
158.745534713682
 21
229.9306209371025
 31
0.0
  0
LINE
  5
2AB
330
54
100
AcDbEntity
  8
0
  6
Continuous
 62
     7
100
AcDbLine
 10
175.4455347136827
 20
227.7056209371026
 30
0.0
 11
175.4455347136827
 21
229.9306209371025
 31
0.0
  0
LINE
  5
2AC
330
54
100
AcDbEntity
  8
0
  6
Continuous
 62
     7
100
AcDbLine
 10
159.2955347136813
 20
219.1806209371025
 30
0.0
 11
159.2955347136813
 21
224.4306209371025
 31
0.0
  0
LINE
  5
2AD
330
54
100
AcDbEntity
  8
0
  6
Continuous
 62
     7
100
AcDbLine
 10
174.8955347136816
 20
219.1806209371025
 30
0.0
 11
174.8955347136816
 21
224.4306209371025
 31
0.0
  0
LINE
  5
2AE
330
54
100
AcDbEntity
  8
0
  6
Continuous
 62
     7
100
AcDbLine
 10
261.8192243374524
 20
234.2385630605563
 30
0.0
 11
263.9365637133215
 21
233.6712236846906
 31
0.0
  0
LINE
  5
2AF
330
54
100
AcDbEntity
  8
0
  6
Continuous
 62
     7
100
AcDbLine
 10
270.219224337452
 20
219.6893362769774
 30
0.0
 11
270.7865637133218
 21
221.8066756528433
 31
0.0
  0
LINE
  5
2B0
330
54
100
AcDbEntity
  8
0
  6
Continuous
 62
     7
100
AcDbLine
 10
269.3965002038622
 20
219.2143362769784
 30
0.0
 11
270.219224337452
 21
219.6893362769774
 31
0.0
  0
LINE
  5
2B1
330
54
100
AcDbEntity
  8
0
  6
Continuous
 62
     7
100
AcDbLine
 10
261.8192243374524
 20
234.2385630605563
 30
0.0
 11
260.9965002038625
 21
233.7635630605564
 31
0.0
  0
LINE
  5
2B2
330
54
100
AcDbEntity
  8
0
  6
Continuous
 62
     7
100
AcDbLine
 10
259.8550283833629
 20
214.3406502490593
 30
0.0
 11
268.6884875019714
 21
219.4406502490597
 31
0.0
  0
LINE
  5
2B3
330
54
100
AcDbEntity
  8
0
  6
Continuous
 62
     7
100
AcDbLine
 10
252.0050283833625
 20
227.9372490884744
 30
0.0
 11
260.8384875019729
 21
233.0372490884743
 31
0.0
  0
LINE
  5
2B4
330
54
100
AcDbEntity
  8
0
  6
Continuous
 62
     7
100
AcDbLine
 10
251.8952207622315
 20
227.5274414673395
 30
0.0
 11
252.0050283833625
 21
227.9372490884744
 31
0.0
  0
LINE
  5
2B5
330
54
100
AcDbEntity
  8
0
  6
Continuous
 62
     7
100
AcDbLine
 10
259.4452207622326
 20
214.4504578701944
 30
0.0
 11
259.8550283833629
 21
214.3406502490593
 31
0.0
  0
LINE
  5
2B6
330
54
100
AcDbEntity
  8
0
  6
Continuous
 62
     7
100
AcDbLine
 10
260.8384875019729
 20
233.0372490884743
 30
0.0
 11
260.9965002038625
 21
233.7635630605564
 31
0.0
  0
LINE
  5
2B7
330
54
100
AcDbEntity
  8
0
  6
Continuous
 62
     7
100
AcDbLine
 10
268.6884875019714
 20
219.4406502490597
 30
0.0
 11
269.3965002038622
 21
219.2143362769784
 31
0.0
  0
LINE
  5
2B8
330
54
100
AcDbEntity
  8
0
  6
Continuous
 62
     7
100
AcDbLine
 10
251.8952207622315
 20
227.5274414673395
 30
0.0
 11
259.4452207622326
 21
214.4504578701944
 31
0.0
  0
LINE
  5
2B9
330
54
100
AcDbEntity
  8
0
  6
Continuous
 62
     7
100
AcDbLine
 10
263.9365637133215
 20
233.6712236846906
 30
0.0
 11
265.6686145208914
 21
234.6712236846906
 31
0.0
  0
LINE
  5
2BA
330
54
100
AcDbEntity
  8
0
  6
Continuous
 62
     7
100
AcDbLine
 10
270.7865637133218
 20
221.8066756528433
 30
0.0
 11
272.5186145208918
 21
222.8066756528433
 31
0.0
  0
LINE
  5
2BB
330
54
100
AcDbEntity
  8
0
  6
Continuous
 62
     7
100
AcDbLine
 10
273.6991522013923
 20
222.4903515347205
 30
0.0
 11
272.5186145208918
 21
222.8066756528433
 31
0.0
  0
LINE
  5
2BC
330
54
100
AcDbEntity
  8
0
  6
Continuous
 62
     7
100
AcDbLine
 10
266.0215411793924
 20
235.9883639055656
 30
0.0
 11
265.6686145208914
 21
234.6712236846906
 31
0.0
  0
LINE
  5
2BD
330
54
100
AcDbEntity
  8
0
  6
Continuous
 62
     7
100
AcDbLine
 10
275.6716809964328
 20
242.2362826415547
 30
0.0
 11
271.0227796454728
 21
239.5522381951414
 31
0.0
  0
LINE
  5
2BE
330
54
100
AcDbEntity
  8
0
  6
Continuous
 62
     7
100
AcDbLine
 10
276.6706967266728
 20
223.5295656513963
 30
0.0
 11
275.2167902915917
 21
222.6901523797296
 31
0.0
  0
LINE
  5
2BF
330
54
100
AcDbEntity
  8
1
  6
Continuous
 62
     7
100
AcDbLine
 10
260.8384875019729
 20
233.0372490884743
 30
0.0
 11
268.6884875019714
 21
219.4406502490597
 31
0.0
  0
LINE
  5
2C0
330
54
100
AcDbEntity
  8
1
  6
Continuous
 62
     7
100
AcDbLine
 10
269.3965002038622
 20
219.2143362769784
 30
0.0
 11
260.9965002038625
 21
233.7635630605564
 31
0.0
  0
LINE
  5
2C1
330
54
100
AcDbEntity
  8
1
  6
Continuous
 62
     7
100
AcDbLine
 10
261.8192243374524
 20
234.2385630605563
 30
0.0
 11
270.219224337452
 21
219.6893362769774
 31
0.0
  0
LINE
  5
2C2
330
54
100
AcDbEntity
  8
1
  6
Continuous
 62
     7
100
AcDbLine
 10
270.7865637133218
 20
221.8066756528433
 30
0.0
 11
263.9365637133215
 21
233.6712236846906
 31
0.0
  0
LINE
  5
2C3
330
54
100
AcDbEntity
  8
1
  6
Continuous
 62
     7
100
AcDbLine
 10
265.6686145208914
 20
234.6712236846906
 30
0.0
 11
272.5186145208918
 21
222.8066756528433
 31
0.0
  0
LINE
  5
2C4
330
54
100
AcDbEntity
  8
1
  6
Continuous
 62
     7
100
AcDbLine
 10
259.8550283833629
 20
214.3406502490593
 30
0.0
 11
252.0050283833625
 21
227.9372490884744
 31
0.0
  0
ARC
  5
2C5
330
54
100
AcDbEntity
  8
0
  6
Continuous
 62
     7
100
AcDbCircle
 10
167.0955347136824
 20
235.1741046007023
 30
0.0
 40
8.000000000000002
100
AcDbArc
 50
0.00000153524184
 51
-179.9999984647681
  0
ARC
  5
2C6
330
54
100
AcDbEntity
  8
0
  6
Continuous
 62
     7
100
AcDbCircle
 10
165.1520618611521
 20
229.9306209371025
 30
0.0
 40
7.906527147472152
100
AcDbArc
 50
132.3950538642037
 51
-144.3459133553296
  0
ARC
  5
2C7
330
54
100
AcDbEntity
  8
0
  6
Continuous
 62
     7
100
AcDbCircle
 10
167.0955347136824
 20
227.8018773933654
 30
0.0
 40
10.78899758158595
100
AcDbArc
 50
47.60494920624786
 51
132.3950538641717
  0
ARC
  5
2C8
330
54
100
AcDbEntity
  8
0
  6
Continuous
 62
     7
100
AcDbCircle
 10
169.0390075662126
 20
229.9306209371025
 30
0.0
 40
7.906527147473653
100
AcDbArc
 50
-35.65408971511183
 51
47.60494920624645
  0
ARC
  5
2C9
330
54
100
AcDbEntity
  8
0
  6
Continuous
 62
     7
100
AcDbCircle
 10
165.2772247964822
 20
229.9306209371025
 30
0.0
 40
6.531690082796702
100
AcDbArc
 50
132.0899601424115
 51
-179.9999969295286
  0
ARC
  5
2CA
330
54
100
AcDbEntity
  8
0
  6
Continuous
 62
     7
100
AcDbCircle
 10
167.0955347136824
 20
227.9175483053073
 30
0.0
 40
9.244384753397526
100
AcDbArc
 50
47.9100429279852
 51
132.0899601424561
  0
ARC
  5
2CB
330
54
100
AcDbEntity
  8
0
  6
Continuous
 62
     7
100
AcDbCircle
 10
168.9138446308825
 20
229.9306209371025
 30
0.0
 40
6.531690082800196
100
AcDbArc
 50
0.0
 51
47.91004292802643
  0
ARC
  5
2CC
330
54
100
AcDbEntity
  8
0
  6
Continuous
 62
     7
100
AcDbCircle
 10
165.2772247964822
 20
227.7056209371026
 30
0.0
 40
6.531690082796702
100
AcDbArc
 50
132.0899601424115
 51
-168.7365177592895
  0
ARC
  5
2CD
330
54
100
AcDbEntity
  8
0
  6
Continuous
 62
     7
100
AcDbCircle
 10
167.0955347136824
 20
225.6925483053074
 30
0.0
 40
9.244384753397505
100
AcDbArc
 50
47.91004292798508
 51
132.0899601424582
  0
ARC
  5
2CE
330
54
100
AcDbEntity
  8
0
  6
Continuous
 62
     7
100
AcDbCircle
 10
168.9138446308825
 20
227.7056209371026
 30
0.0
 40
6.531690082798033
100
AcDbArc
 50
-11.26348531118129
 51
47.91004292802659
  0
ARC
  5
2CF
330
54
100
AcDbEntity
  8
0
  6
Continuous
 62
     7
100
AcDbCircle
 10
167.0955347136824
 20
225.2912324465383
 30
0.0
 40
7.528361236301855
100
AcDbArc
 50
49.32552560556128
 51
130.6744774648527
  0
ARC
  5
2D0
330
54
100
AcDbEntity
  8
0
  6
Continuous
 62
     7
100
AcDbCircle
 10
165.2772247964822
 20
225.1556209371024
 30
0.0
 40
6.531690082796027
100
AcDbArc
 50
132.0899601424168
 51
-175.8412234822797
  0
ARC
  5
2D1
330
54
100
AcDbEntity
  8
0
  6
Continuous
 62
     7
100
AcDbCircle
 10
168.9138446308825
 20
225.1556209371024
 30
0.0
 40
6.531690082804507
100
AcDbArc
 50
-4.15877958819231
 51
47.91004292802643
  0
ARC
  5
2D2
330
54
100
AcDbEntity
  8
0
  6
Continuous
 62
     7
100
AcDbCircle
 10
167.0955347136824
 20
223.1425483053076
 30
0.0
 40
9.244384753397229
100
AcDbArc
 50
47.91004292798354
 51
132.0899601424578
  0
ARC
  5
2D3
330
54
100
AcDbEntity
  8
0
  6
Continuous
 62
     7
100
AcDbCircle
 10
168.9138446308825
 20
224.6806209371025
 30
0.0
 40
6.531690082805655
100
AcDbArc
 50
-23.32683921759148
 51
47.91004292802643
  0
ARC
  5
2D4
330
54
100
AcDbEntity
  8
0
  6
Continuous
 62
     7
100
AcDbCircle
 10
167.0955347136824
 20
222.6675483053073
 30
0.0
 40
9.244384753397526
100
AcDbArc
 50
47.9100429279852
 51
132.0899601424561
  0
ARC
  5
2D5
330
54
100
AcDbEntity
  8
0
  6
Continuous
 62
     7
100
AcDbCircle
 10
165.2772247964822
 20
224.6806209371025
 30
0.0
 40
6.531690082796702
100
AcDbArc
 50
132.0899601424115
 51
-156.6731638528252
  0
ARC
  5
2D6
330
54
100
AcDbEntity
  8
0
  6
Continuous
 62
     7
100
AcDbCircle
 10
165.3969937131915
 20
224.4306209371025
 30
0.0
 40
6.101458999508561
100
AcDbArc
 50
132.0899601425202
 51
-179.9999969295293
  0
ARC
  5
2D7
330
54
100
AcDbEntity
  8
0
  6
Continuous
 62
     7
100
AcDbCircle
 10
167.0955347136824
 20
222.5501459038087
 30
0.0
 40
8.635473182812849
100
AcDbArc
 50
47.91004292799755
 51
132.0899601424643
  0
ARC
  5
2D8
330
54
100
AcDbEntity
  8
0
  6
Continuous
 62
     7
100
AcDbCircle
 10
168.7940757141823
 20
224.4306209371025
 30
0.0
 40
6.1014589994993
100
AcDbArc
 50
0.0
 51
47.91004292804568
  0
ARC
  5
2D9
330
54
100
AcDbEntity
  8
0
  6
Continuous
 62
     7
100
AcDbCircle
 10
167.0955347136824
 20
217.3001459038087
 30
0.0
 40
8.635473182812849
100
AcDbArc
 50
47.91004292799755
 51
132.0899601424643
  0
ARC
  5
2DA
330
54
100
AcDbEntity
  8
0
  6
Continuous
 62
     7
100
AcDbCircle
 10
165.3969937131915
 20
219.1806209371025
 30
0.0
 40
6.101458999508561
100
AcDbArc
 50
132.0899601425202
 51
-132.0899601425145
  0
ARC
  5
2DB
330
54
100
AcDbEntity
  8
0
  6
Continuous
 62
     7
100
AcDbCircle
 10
167.0955347136824
 20
217.8530876447644
 30
0.0
 40
6.487083174670777
100
AcDbArc
 50
47.71349158288171
 51
132.2865114875197
  0
ARC
  5
2DC
330
54
100
AcDbEntity
  8
0
  6
Continuous
 62
     7
100
AcDbCircle
 10
167.0955347136824
 20
217.3651175577334
 30
0.0
 40
7.315503379368894
100
AcDbArc
 50
48.37814388143657
 51
131.6218591890121
  0
ARC
  5
2DD
330
54
100
AcDbEntity
  8
0
  6
Continuous
 62
     7
100
AcDbCircle
 10
165.482416469602
 20
219.1806209371025
 30
0.0
 40
4.886881755920395
100
AcDbArc
 50
131.6218591890483
 51
-131.6218591890483
  0
ARC
  5
2DE
330
54
100
AcDbEntity
  8
0
  6
Continuous
 62
     7
100
AcDbCircle
 10
165.8881436237425
 20
219.1806209371025
 30
0.0
 40
4.692608910059538
100
AcDbArc
 50
132.2865114875389
 51
-132.2865114875282
  0
ARC
  5
2DF
330
54
100
AcDbEntity
  8
0
  6
Continuous
 62
     7
100
AcDbCircle
 10
167.0955347136824
 20
221.0610959703954
 30
0.0
 40
8.635473182811674
100
AcDbArc
 50
-132.0899601424687
 51
-103.4402493836001
  0
ARC
  5
2E0
330
54
100
AcDbEntity
  8
0
  6
Continuous
 62
     7
100
AcDbCircle
 10
167.0955347136824
 20
221.0610959703954
 30
0.0
 40
8.635473182811301
100
AcDbArc
 50
-76.55975368687341
 51
-47.91004292799351
  0
ARC
  5
2E1
330
54
100
AcDbEntity
  8
0
  6
Continuous
 62
     7
100
AcDbCircle
 10
168.7940757141823
 20
219.1806209371025
 30
0.0
 40
6.101458999500013
100
AcDbArc
 50
-47.9100429280514
 51
47.91004292804568
  0
ARC
  5
2E2
330
54
100
AcDbEntity
  8
0
  6
Continuous
 62
     7
100
AcDbCircle
 10
167.0955347136824
 20
220.5081542294397
 30
0.0
 40
6.4870831746657
100
AcDbArc
 50
-64.91771986347447
 51
-47.71349158288171
  0
ARC
  5
2E3
330
54
100
AcDbEntity
  8
0
  6
Continuous
 62
     7
100
AcDbCircle
 10
168.7086529577628
 20
219.1806209371025
 30
0.0
 40
4.886881755920206
100
AcDbArc
 50
-48.37814388142079
 51
48.37814388142079
  0
ARC
  5
2E4
330
54
100
AcDbEntity
  8
0
  6
Continuous
 62
     7
100
AcDbCircle
 10
168.3029258036222
 20
219.1806209371025
 30
0.0
 40
4.692608910059056
100
AcDbArc
 50
-47.71349158294825
 51
47.71349158294825
  0
ARC
  5
2E5
330
54
100
AcDbEntity
  8
0
  6
Continuous
 62
     7
100
AcDbCircle
 10
167.0955347136824
 20
220.9961243164703
 30
0.0
 40
7.315503379368043
100
AcDbArc
 50
-67.91918627804536
 51
-48.37814388142991
  0
ARC
  5
2E6
330
54
100
AcDbEntity
  8
0
  6
Continuous
 62
     7
100
AcDbCircle
 10
267.9533928319725
 20
235.4707258153603
 30
0.0
 40
2.000000000000189
100
AcDbArc
 50
119.9999999999969
 51
165.0000000000081
  0
ARC
  5
2E7
330
54
100
AcDbEntity
  8
0
  6
Continuous
 62
     7
100
AcDbCircle
 10
274.2167902915917
 20
224.4222031872987
 30
0.0
 40
1.99999999999859
100
AcDbArc
 50
-104.9999999998435
 51
-60.00000000000313
  0
ARC
  5
2E8
330
54
100
AcDbEntity
  8
0
  6
Continuous
 62
     7
100
AcDbCircle
 10
279.1716809964328
 20
236.1741048150634
 30
0.0
 40
6.999999999998107
100
AcDbArc
 50
110.933457866807
 51
119.999999999999
  0
ARC
  5
2E9
330
54
100
AcDbEntity
  8
0
  6
Continuous
 62
     7
100
AcDbCircle
 10
167.0955347136824
 20
220.5081542294397
 30
0.0
 40
6.487083174663022
100
AcDbArc
 50
-132.2865114875197
 51
-115.0822801365255
  0
ARC
  5
2EA
330
54
100
AcDbEntity
  8
0
  6
Continuous
 62
     7
100
AcDbCircle
 10
167.0955347136824
 20
220.9961243164703
 30
0.0
 40
7.315503379366462
100
AcDbArc
 50
-131.6218591890121
 51
-112.0808137219546
  0
SPLINE
  5
2EB
330
54
100
AcDbEntity
  8
1
  6
Continuous
 62
     7
100
AcDbSpline
210
0.0
220
0.0
230
1.0
 70
     8
 71
     3
 72
    31
 73
    27
 74
    25
 42
0.0000000001
 43
0.0000000001
 44
0.00000001
 40
0.0
 40
0.0
 40
0.0
 40
0.0
 40
0.1361405060349137
 40
0.272259043827479
 40
0.8132017872405701
 40
1.354781737394389
 40
1.948948841227498
 40
2.542854705700654
 40
3.179704000961832
 40
3.816669046927758
 40
4.483624821519621
 40
5.150550115998105
 40
5.832927813109368
 40
6.51532177456704
 40
7.197715851506008
 40
7.880093446699892
 40
8.547018250623237
 40
9.213974471930017
 40
9.850940964680751
 40
10.48778898759322
 40
11.08169118157312
 40
11.67586127341234
 40
12.21744853717636
 40
12.75838696247465
 40
12.9031702080229
 40
13.04798029954456
 40
13.04798029954456
 40
13.04798029954456
 40
13.04798029954456
 10
173.3396459407322
 20
363.4703541189574
 30
0.0
 10
173.3013879716245
 20
363.4459470747587
 30
0.0
 10
173.2248782068864
 20
363.3971369247911
 30
0.0
 10
172.9946525209101
 20
363.2540317088314
 30
0.0
 10
172.6372285602085
 20
363.0598069873036
 30
0.0
 10
172.127375042612
 20
362.8300455053357
 30
0.0
 10
171.588366341418
 20
362.6244456655298
 30
0.0
 10
171.008309499452
 20
362.4402371602852
 30
0.0
 10
170.4053658598581
 20
362.2839396590011
 30
0.0
 10
169.771467203332
 20
362.1535528787027
 30
0.0
 10
169.1222345248924
 20
362.0515863278843
 30
0.0
 10
168.453977348544
 20
361.9778837269803
 30
0.0
 10
167.7779785032149
 20
361.9334982205475
 30
0.0
 10
167.0955346770589
 20
361.9187518550309
 30
0.0
 10
166.4130908736377
 20
361.9334978150768
 30
0.0
 10
165.737092180658
 20
361.9778834967
 30
0.0
 10
165.0688352067907
 20
362.0515875598952
 30
0.0
 10
164.4196020829465
 20
362.1535538040088
 30
0.0
 10
163.7857021677065
 20
362.2839353190855
 30
0.0
 10
163.18275968829
 20
362.4402338701111
 30
0.0
 10
162.6027091085893
 20
362.624460427182
 30
0.0
 10
162.0636978218835
 20
362.8300562367086
 30
0.0
 10
161.5538162429338
 20
363.0597595152406
 30
0.0
 10
161.1938531711812
 20
363.2553787301447
 30
0.0
 10
160.9588708359509
 20
363.4017782334968
 30
0.0
 10
160.8775852489519
 20
363.4538453386522
 30
0.0
 10
160.8369386877712
 20
363.4798813046004
 30
0.0
 11
173.3396459407322
 21
363.4703541189574
 31
0.0
 11
173.2247296264278
 21
363.3973576937701
 31
0.0
 11
173.1089835921721
 21
363.3257259139173
 31
0.0
 11
172.6344997905077
 21
363.0659487524705
 31
0.0
 11
172.1414174497222
 21
362.8419428426955
 31
0.0
 11
171.586435280894
 21
362.6297416656013
 31
0.0
 11
171.0205347136816
 21
362.4495175720836
 31
0.0
 11
170.4041936716485
 21
362.289203053776
 31
0.0
 11
169.7803928387912
 21
362.1603737453524
 31
0.0
 11
169.121552183331
 21
362.0566481652183
 31
0.0
 11
168.4586729083712
 21
361.9832968513647
 31
0.0
 11
167.7777675689299
 21
361.9384946166525
 31
0.0
 11
167.0955347136824
 21
361.9236672819375
 31
0.0
 11
166.4133017363273
 21
361.9384943130147
 31
0.0
 11
165.7323965190026
 21
361.9832968513647
 31
0.0
 11
165.069517835363
 21
362.0566490487713
 31
0.0
 11
164.4106765885827
 21
362.1603737453524
 31
0.0
 11
163.7868736517165
 21
362.2892000192418
 31
0.0
 11
163.1705347136813
 21
362.4495175720836
 31
0.0
 11
162.6046412561504
 21
362.6297518938371
 31
0.0
 11
162.0496519776425
 21
362.8419428426955
 31
0.0
 11
161.5565464617155
 21
363.0659154178777
 31
0.0
 11
161.0820858352017
 21
363.3257259139173
 31
0.0
 11
160.9590406639427
 21
363.4020284303983
 31
0.0
 11
160.8369386877712
 21
363.4798813046004
 31
0.0
  0
SPLINE
  5
2EC
330
54
100
AcDbEntity
  8
1
  6
Continuous
 62
     7
100
AcDbSpline
210
0.0
220
0.0
230
1.0
 70
     8
 71
     3
 72
    43
 73
    39
 74
    37
 42
0.0000000001
 43
0.0000000001
 44
0.00000001
 40
0.0
 40
0.0
 40
0.0
 40
0.0
 40
0.3483130105977305
 40
0.6928134390835108
 40
1.067092550001455
 40
1.445054294599354
 40
1.870376546757449
 40
2.294221510422899
 40
2.776573208658044
 40
3.25958748738432
 40
3.80089541131571
 40
4.342019355364642
 40
4.936023137129472
 40
5.530113431970203
 40
6.167023179696189
 40
6.803922581131061
 40
7.470857719586467
 40
8.137804895679922
 40
8.820190772189445
 40
9.502576322662646
 40
10.18496187314028
 40
10.86734774965435
 40
11.5342949257479
 40
12.20123006420331
 40
12.83812946563282
 40
13.47503921335346
 40
14.06912950819502
 40
14.66313328996068
 40
15.20425723401376
 40
15.7455651579492
 40
16.22857943667187
 40
16.71093113490327
 40
17.13477609856824
 40
17.56009835072667
 40
17.93806009532793
 40
18.31233920624781
 40
18.65683963473206
 40
19.00515264532963
 40
19.00515264532963
 40
19.00515264532963
 40
19.00515264532963
 10
159.245534713682
 20
357.0152081633364
 30
0.0
 10
159.2578079349079
 20
356.8997672955105
 30
0.0
 10
159.2822200365162
 20
356.6701491583297
 30
0.0
 10
159.3555102910623
 20
356.3203471566911
 30
0.0
 10
159.5060866762723
 20
355.9842748254154
 30
0.0
 10
159.7220795477629
 20
355.6554182015085
 30
0.0
 10
159.9854956320152
 20
355.3412489917963
 30
0.0
 10
160.3070035042202
 20
355.0341567420216
 30
0.0
 10
160.6729868739549
 20
354.7492026883264
 30
0.0
 10
161.0954991982331
 20
354.4767639197478
 30
0.0
 10
161.5546569817781
 20
354.2278033368867
 30
0.0
 10
162.0636417349061
 20
353.9962292336869
 30
0.0
 10
162.6024955724695
 20
353.7905459535746
 30
0.0
 10
163.1827511695907
 20
353.6068825708909
 30
0.0
 10
163.7857523946657
 20
353.4506079491884
 30
0.0
 10
164.4196114448253
 20
353.3200651186282
 30
0.0
 10
165.0688236850822
 20
353.2180927415629
 30
0.0
 10
165.7370883646695
 20
353.1444322111528
 30
0.0
 10
166.4130938212478
 20
353.1000459085713
 30
0.0
 10
167.0955347136839
 20
353.0852892918946
 30
0.0
 10
167.7779756061214
 20
353.1000459085711
 30
0.0
 10
168.4539810627029
 20
353.1444322111528
 30
0.0
 10
169.1222457422916
 20
353.2180927415623
 30
0.0
 10
169.7714579825469
 20
353.3200651186279
 30
0.0
 10
170.4053170327027
 20
353.4506079491884
 30
0.0
 10
171.0083182577742
 20
353.6068825708916
 30
0.0
 10
171.5885738548939
 20
353.7905459535758
 30
0.0
 10
172.1274276924593
 20
353.9962292336876
 30
0.0
 10
172.6364124455917
 20
354.2278033368857
 30
0.0
 10
173.0955702291388
 20
354.4767639197456
 30
0.0
 10
173.5180825534149
 20
354.7492026883261
 30
0.0
 10
173.8840659231454
 20
355.0341567420223
 30
0.0
 10
174.2055737953477
 20
355.341248991798
 30
0.0
 10
174.4689898796016
 20
355.6554182015099
 30
0.0
 10
174.6849827510993
 20
355.9842748254141
 30
0.0
 10
174.8355591363144
 20
356.3203471566895
 30
0.0
 10
174.9088493908565
 20
356.6701491583294
 30
0.0
 10
174.9332614924594
 20
356.8997672955103
 30
0.0
 10
174.9455347136827
 20
357.0152081633364
 30
0.0
 11
159.245534713682
 21
357.0152081633364
 31
0.0
 11
159.2882112714858
 21
356.669519481477
 31
0.0
 11
159.3647938525428
 21
356.3336390659933
 31
0.0
 11
159.5141714179503
 21
355.9904609842013
 31
0.0
 11
159.7189476405129
 21
355.6727791007825
 31
0.0
 11
159.991521770167
 21
355.3462789292295
 31
0.0
 11
160.2972352939723
 21
355.0527081633363
 31
0.0
 11
160.676904734236
 21
354.75519467302
 31
0.0
 11
161.0820858352017
 21
354.4922667953165
 31
0.0
 11
161.5575000551908
 21
354.2334317359774
 31
0.0
 11
162.0496519776425
 21
354.0084837240943
 31
0.0
 11
162.6043486604599
 21
353.7959935294445
 31
0.0
 11
163.1705347136813
 21
353.6160584534823
 31
0.0
 11
163.786960456948
 21
353.4558294617657
 31
0.0
 11
164.4106765885827
 21
353.3269146267517
 31
0.0
 11
165.0694925712906
 21
353.2231650251374
 31
0.0
 11
165.7323965190026
 21
353.1498377327634
 31
0.0
 11
166.4133103779196
 21
353.1050403980829
 31
0.0
 11
167.0955347136824
 21
353.0902081633367
 31
0.0
 11
167.7777590494497
 21
353.1050403980828
 31
0.0
 11
168.4586729083712
 21
353.1498377327634
 31
0.0
 11
169.1215768560833
 21
353.223165025137
 31
0.0
 11
169.7803928387912
 21
353.3269146267517
 31
0.0
 11
170.4041089704205
 21
353.4558294617658
 31
0.0
 11
171.0205347136816
 21
353.6160584534823
 31
0.0
 11
171.5867207669036
 21
353.7959935294453
 31
0.0
 11
172.1414174497222
 21
354.0084837240943
 31
0.0
 11
172.6335693721788
 21
354.2334317359766
 31
0.0
 11
173.1089835921721
 21
354.4922667953165
 31
0.0
 11
173.5141646931337
 21
354.7551946730198
 31
0.0
 11
173.8938341333924
 21
355.0527081633363
 31
0.0
 11
174.1995476571961
 21
355.3462789292305
 31
0.0
 11
174.4721217868519
 21
355.6727791007825
 31
0.0
 11
174.6768980094212
 21
355.9904609842009
 31
0.0
 11
174.8262755748328
 21
356.3336390659933
 31
0.0
 11
174.9028581558861
 21
356.6695194814763
 31
0.0
 11
174.9455347136827
 21
357.0152081633364
 31
0.0
  0
SPLINE
  5
2ED
330
54
100
AcDbEntity
  8
1
  6
Continuous
 62
     7
100
AcDbSpline
210
0.0
220
0.0
230
1.0
 70
     8
 71
     3
 72
    27
 73
    23
 74
    21
 42
0.0000000001
 43
0.0000000001
 44
0.00000001
 40
0.0
 40
0.0
 40
0.0
 40
0.0
 40
0.1122490703727184
 40
0.2244927836289352
 40
0.7822115915600298
 40
1.34032821915351
 40
1.937594752014519
 40
2.534704113562341
 40
3.159444455294553
 40
3.784253653546362
 40
4.423229742949838
 40
5.062180638692727
 40
5.701130925570809
 40
6.340107514462512
 40
6.964919115396046
 40
7.589657403405065
 40
8.186760572834897
 40
8.784031974970782
 40
9.34216039915828
 40
9.899873000205053
 40
10.03352586852316
 40
10.16718909507449
 40
10.16718909507449
 40
10.16718909507449
 40
10.16718909507449
 10
162.1662249045421
 20
353.9554778457405
 30
0.0
 10
162.2002856450882
 20
353.9399905102653
 30
0.0
 10
162.2684055006226
 20
353.9090165784518
 30
0.0
 10
162.5065653368788
 20
353.8028795203712
 30
0.0
 10
162.8879347264852
 20
353.6530554708292
 30
0.0
 10
163.431641062478
 20
353.477660441707
 30
0.0
 10
163.9964237077435
 20
353.3273917866944
 30
0.0
 10
164.5898230425505
 20
353.2014498281714
 30
0.0
 10
165.1977562490143
 20
353.1033327249949
 30
0.0
 10
165.8234964791919
 20
353.032579367302
 30
0.0
 10
166.4565209149273
 20
352.9898815181959
 30
0.0
 10
167.0955345261577
 20
352.9756593495034
 30
0.0
 10
167.7345482112118
 20
352.9898847191099
 30
0.0
 10
168.3675733637335
 20
353.0325811116664
 30
0.0
 10
168.9933151014278
 20
353.1033231436567
 30
0.0
 10
169.6012464952409
 20
353.2014429986708
 30
0.0
 10
170.1946364420705
 20
353.3274251144166
 30
0.0
 10
170.7594228335133
 20
353.4776839595432
 30
0.0
 10
171.3031758989581
 20
353.6529436729096
 30
0.0
 10
171.6911908154282
 20
353.8054091578701
 30
0.0
 10
171.9421601574653
 20
353.9178703950278
 30
0.0
 10
172.0231416387462
 20
353.9550431518496
 30
0.0
 10
172.0636339483626
 20
353.9736302504643
 30
0.0
 11
162.1662249045421
 21
353.9554778457405
 31
0.0
 11
162.268464985402
 21
353.9091440603857
 31
0.0
 11
162.3710457824927
 21
353.8635827694275
 31
0.0
 11
162.8897178523918
 21
353.6585716657609
 31
0.0
 11
163.4205347136813
 21
353.4861546429147
 31
0.0
 11
163.9976475646821
 21
353.3323103434249
 31
0.0
 11
164.5816866602418
 21
353.2080608987344
 31
0.0
 11
165.1983991640744
 21
353.1082301309113
 31
0.0
 11
165.8192206078329
 21
353.0377512745804
 31
0.0
 11
166.4567433988012
 21
352.9946800100839
 31
0.0
 11
167.0955347136824
 21
352.9804005422016
 31
0.0
 11
167.7343253659405
 21
352.9946824079521
 31
0.0
 11
168.3718488195318
 21
353.0377512745804
 31
0.0
 11
168.9926734739439
 21
353.1082231493621
 31
0.0
 11
169.6093827671321
 21
353.2080608987344
 31
0.0
 11
170.1934104236127
 21
353.3323343528947
 31
0.0
 11
170.7705347136816
 21
353.4861546429147
 31
0.0
 11
171.301390316205
 21
353.6584905566284
 31
0.0
 11
171.8200236448829
 21
353.8635827694275
 31
0.0
 11
171.942073349712
 21
353.9180525662033
 31
0.0
 11
172.0636339483626
 21
353.9736302504643
 31
0.0
  0
SPLINE
  5
2EE
330
54
100
AcDbEntity
  8
0
  6
Continuous
 62
     7
100
AcDbSpline
210
0.0
220
0.0
230
1.0
 70
     8
 71
     3
 72
    35
 73
    31
 74
    29
 42
0.0000000001
 43
0.0000000001
 44
0.00000001
 40
0.0
 40
0.0
 40
0.0
 40
0.0
 40
0.9447139899797167
 40
1.888800357035935
 40
2.22417237609068
 40
2.559544223843568
 40
2.899912400629502
 40
3.240280704624017
 40
3.577162972596982
 40
3.914047004639734
 40
4.321835494100847
 40
4.729631799003894
 40
5.107672690078018
 40
5.485698578931654
 40
5.678656363798139
 40
5.871614152886686
 40
6.194528535092096
 40
6.517446370690287
 40
6.818478215536779
 40
7.119513543434655
 40
7.526978090189231
 40
7.934443350173961
 40
8.27273173790701
 40
8.611017431026513
 40
8.958217309841526
 40
9.305416812797438
 40
9.653317287844413
 40
10.00122232208945
 40
10.83476844103035
 40
11.66852901183539
 40
11.66852901183539
 40
11.66852901183539
 40
11.66852901183539
 10
161.3762970270818
 20
364.0282110635494
 30
0.0
 10
161.6659886129843
 20
363.9041890863323
 30
0.0
 10
162.2451793275145
 20
363.6562275261857
 30
0.0
 10
162.9570868250823
 20
363.4439331410413
 30
0.0
 10
163.4789220782986
 20
363.312111530277
 30
0.0
 10
163.8077808518599
 20
363.2380705021152
 30
0.0
 10
164.1399243552295
 20
363.1716004175058
 30
0.0
 10
164.4740417039735
 20
363.1128818201248
 30
0.0
 10
164.8082407960769
 20
363.0618558063375
 30
0.0
 10
165.1657600786009
 20
363.0152401972556
 30
0.0
 10
165.547800669785
 20
362.9745702272044
 30
0.0
 10
165.9444195145007
 20
362.9424563129942
 30
0.0
 10
166.3317760959165
 20
362.9203524203523
 30
0.0
 10
166.6479614958354
 20
362.9095154107567
 30
0.0
 10
166.9025758112582
 20
362.9051384274376
 30
0.0
 10
167.13885336556
 20
362.9037895082801
 30
0.0
 10
167.4184554942349
 20
362.9064619198304
 30
0.0
 10
167.7339653006573
 20
362.9155565163818
 30
0.0
 10
168.0419618295274
 20
362.930221105806
 30
0.0
 10
168.3777623283257
 20
362.9523367257442
 30
0.0
 10
168.7483751312113
 20
362.9847623374706
 30
0.0
 10
169.1303876758325
 20
363.0279788463012
 30
0.0
 10
169.4884017057273
 20
363.0771472594369
 30
0.0
 10
169.8254036813304
 20
363.1310525845473
 30
0.0
 10
170.1640095596352
 20
363.1932016677072
 30
0.0
 10
170.5041379738699
 20
363.2642189389319
 30
0.0
 10
170.84263698941
 20
363.343789006091
 30
0.0
 10
171.3354873350578
 20
363.4739788972877
 30
0.0
 10
171.9785230029935
 20
363.6718834146994
 30
0.0
 10
172.4906352026275
 20
363.8885811851076
 30
0.0
 10
172.7467242368221
 20
363.9969440063323
 30
0.0
 11
161.3762970270818
 21
364.0282110635494
 31
0.0
 11
162.2517189385999
 21
363.6730758784474
 31
0.0
 11
163.1540641999614
 21
363.3954572591875
 31
0.0
 11
163.4792730784118
 21
363.3135208415093
 31
0.0
 11
163.8064276962237
 21
363.2397364779253
 31
0.0
 11
164.1401718456384
 21
363.1729132895846
 31
0.0
 11
164.4753930294281
 21
363.1139443121237
 31
0.0
 11
164.8084119118876
 21
363.0630710735789
 31
0.0
 11
165.1424646773882
 21
363.0194866622972
 31
0.0
 11
165.5479577687945
 21
362.9762801239182
 31
0.0
 11
165.9544207199792
 21
362.9433302285192
 31
0.0
 11
166.3318470791431
 21
362.9217835644521
 31
0.0
 11
166.7096508326504
 21
362.9088260770644
 31
0.0
 11
166.9025800799052
 21
362.9055075993594
 31
0.0
 11
167.0955347136862
 21
362.9044041174247
 31
0.0
 11
167.4184342713727
 21
362.9074982862898
 31
0.0
 11
167.7412177913407
 21
362.9168110616265
 31
0.0
 11
168.0419087941911
 21
362.9311321096495
 31
0.0
 11
168.3422930846106
 21
362.9509196489549
 31
0.0
 11
168.7482031724661
 21
362.986477453149
 31
0.0
 11
169.1530807451746
 21
363.0323259996047
 31
0.0
 11
169.4882193940887
 21
363.0783816103274
 31
0.0
 11
169.8222544300415
 21
363.1318400514323
 31
0.0
 11
170.1637381913303
 21
363.1945823547467
 31
0.0
 11
170.5036000411729
 21
363.2655852974633
 31
0.0
 11
170.8422387135647
 21
363.345326065572
 31
0.0
 11
171.1786593938079
 21
363.4339772852918
 31
0.0
 11
171.9734783169014
 21
363.6850987935181
 31
0.0
 11
172.7467242368221
 21
363.9969440063323
 31
0.0
  0
SPLINE
  5
2EF
330
54
100
AcDbEntity
  8
0
  6
Continuous
 62
     7
100
AcDbSpline
210
0.0
220
0.0
230
1.0
 70
     8
 71
     3
 72
    47
 73
    43
 74
    41
 42
0.0000000001
 43
0.0000000001
 44
0.00000001
 40
0.0
 40
0.0
 40
0.0
 40
0.0
 40
0.6668410370902904
 40
1.333735364141736
 40
1.563663682223762
 40
1.793563238463877
 40
2.063314750365323
 40
2.333087190608953
 40
2.736047970780543
 40
3.13903020358377
 40
3.492270476910826
 40
3.845494942691407
 40
4.152106087018405
 40
4.458716165816948
 40
4.794022454120472
 40
5.129335056208656
 40
5.520194016904747
 40
5.911052936782228
 40
6.237559675616843
 40
6.564059928823287
 40
6.839622259940077
 40
7.115186282098941
 40
7.463163128334919
 40
7.811140049349501
 40
8.159435422748471
 40
8.507745628595975
 40
9.093708566436025
 40
9.679670403667915
 40
10.06827360112374
 40
10.45686295672223
 40
10.82366193579309
 40
11.19045582548328
 40
11.62780899877091
 40
12.06521487539953
 40
12.38059482594864
 40
12.6958579905267
 40
13.05477943058452
 40
13.41396627093316
 40
13.745189340542
 40
14.07598960806423
 40
14.85581481035812
 40
15.63585906202389
 40
15.63585906202389
 40
15.63585906202389
 40
15.63585906202389
 10
159.748005452102
 20
364.2463538989746
 30
0.0
 10
159.9190313868573
 20
364.1039569579299
 30
0.0
 10
160.2610969237413
 20
363.8191516963258
 30
0.0
 10
160.7082895553074
 20
363.5480400317273
 30
0.0
 10
161.0388846366868
 20
363.3699614074635
 30
0.0
 10
161.2563939366323
 20
363.2610669551535
 30
0.0
 10
161.4889059279927
 20
363.1527437200675
 30
0.0
 10
161.7774849671817
 20
363.028462428937
 30
0.0
 10
162.1116025810325
 20
362.8980366462647
 30
0.0
 10
162.4767299784313
 20
362.7713517602994
 30
0.0
 10
162.829966810344
 20
362.6616853734915
 30
0.0
 10
163.1552892439079
 20
362.5709544003397
 30
0.0
 10
163.467729939971
 20
362.4923503363432
 30
0.0
 10
163.7760622316445
 20
362.4222425851402
 30
0.0
 10
164.0953121953841
 20
362.3573717811277
 30
0.0
 10
164.4436247928972
 20
362.2949851358196
 30
0.0
 10
164.811657829952
 20
362.2382184200986
 30
0.0
 10
165.178098435357
 20
362.1911779421123
 30
0.0
 10
165.5241602857299
 20
362.1547057815777
 30
0.0
 10
165.8325931393049
 20
362.1284957989967
 30
0.0
 10
166.1245021106106
 20
362.1090584127143
 30
0.0
 10
166.4238444198115
 20
362.0941293637702
 30
0.0
 10
166.7475517555372
 20
362.0840673782163
 30
0.0
 10
167.0956406601268
 20
362.0804825179652
 30
0.0
 10
167.4438419246263
 20
362.0840825171943
 30
0.0
 10
167.8711851634195
 20
362.0973724220846
 30
0.0
 10
168.3771583074669
 20
362.1272878304027
 30
0.0
 10
168.8951089996405
 20
362.1766345659715
 30
0.0
 10
169.3459548976702
 20
362.2335758917837
 30
0.0
 10
169.7230048218472
 20
362.2908319752834
 30
0.0
 10
170.0913455427137
 20
362.3562163869581
 30
0.0
 10
170.4738231160441
 20
362.4342637012531
 30
0.0
 10
170.8767650557996
 20
362.5289833790735
 30
0.0
 10
171.2598593600537
 20
362.6323155900798
 30
0.0
 10
171.6008555983248
 20
362.7347602072357
 30
0.0
 10
171.9138591975771
 20
362.839053770917
 30
0.0
 10
172.2363082325724
 20
362.9604145122144
 30
0.0
 10
172.5605035262616
 20
363.0917281071763
 30
0.0
 10
172.8749652217357
 20
363.2221341550177
 30
0.0
 10
173.3110259626732
 20
363.4248086503159
 30
0.0
 10
173.8487235965828
 20
363.7594087915506
 30
0.0
 10
174.2508485941507
 20
364.0893963091905
 30
0.0
 10
174.4519393277424
 20
364.2544132377566
 30
0.0
 11
159.748005452102
 21
364.2463538989746
 31
0.0
 11
160.2709249268835
 21
363.832551782448
 31
0.0
 11
160.836938687766
 21
363.4798813046007
 31
0.0
 11
161.0394353494434
 21
363.370967882721
 31
0.0
 11
161.2449423725633
 21
363.2679112506791
 31
0.0
 11
161.4894390513867
 21
363.1539496246052
 31
0.0
 11
161.7371812410947
 21
363.0471742671781
 31
0.0
 11
162.1124796683214
 21
362.9004483973469
 31
0.0
 11
162.4931288650493
 21
362.7681575473781
 31
0.0
 11
162.8304546366248
 21
362.6633242772242
 31
0.0
 11
163.1706672438453
 21
362.568335303579
 31
0.0
 11
163.4680025152017
 21
362.4934879239792
 31
0.0
 11
163.7669720856369
 21
362.4254663364158
 31
0.0
 11
164.0955532760195
 21
362.3586478636508
 31
0.0
 11
164.4256045784044
 21
362.2994813282348
 31
0.0
 11
164.8118886566132
 21
362.2398546724603
 31
0.0
 11
165.199560819489
 21
362.1900451414549
 31
0.0
 11
165.5242668803989
 21
362.155801536026
 31
0.0
 11
165.8495927768691
 21
362.1281342913182
 31
0.0
 11
166.124545983773
 21
362.1098222094094
 31
0.0
 11
166.3997677611608
 21
362.0960925495505
 31
0.0
 11
166.7475763333903
 21
362.0852720782098
 31
0.0
 11
167.0955347136842
 21
362.0816799838302
 31
0.0
 11
167.4438114114243
 21
362.0852867749784
 31
0.0
 11
167.7919531192033
 21
362.0961196325076
 31
0.0
 11
168.3768896363787
 21
362.1307871302076
 31
0.0
 11
168.9602015338936
 21
362.1864513459103
 31
0.0
 11
169.3457368624897
 21
362.2351848608377
 31
0.0
 11
169.7299157956954
 21
362.2935649478997
 31
0.0
 11
170.0910544487345
 21
362.357755011995
 31
0.0
 11
170.4504254654825
 21
362.431173196633
 31
0.0
 11
170.876167107447
 21
362.5312823994173
 31
0.0
 11
171.2984724057209
 21
362.6452215759945
 31
0.0
 11
171.600425113899
 21
362.7362659345912
 31
0.0
 11
171.8994206255588
 21
362.8362286623803
 31
0.0
 11
172.2356725646011
 21
362.9617644486067
 31
0.0
 11
172.5689517476544
 21
363.0957053774633
 31
0.0
 11
172.8741841837626
 21
363.2243206245709
 31
0.0
 11
173.173449468845
 21
363.3652784414429
 31
0.0
 11
173.8382905667493
 21
363.7728488778955
 31
0.0
 11
174.4519393277424
 21
364.2544132377566
 31
0.0
  0
ENDBLK
  5
56
330
54
100
AcDbEntity
  8
0
100
AcDbBlockEnd
  0
BLOCK
  5
58
330
57
100
AcDbEntity
  8
0
100
AcDbBlockBegin
  2
V97G-H2
 70
     0
 71
     0
 10
728.2826524475222
 20
99.7892089216316
 30
0.0
  3
V97G-H2
  1

  0
LINE
  5
2F0
330
57
100
AcDbEntity
  8
0
  6
Continuous
 62
     7
100
AcDbLine
 10
252.3769194920424
 20
226.5931147933657
 30
0.0
 11
255.5769194920413
 21
221.0505522091453
 31
0.0
  0
LINE
  5
2F1
330
57
100
AcDbEntity
  8
1
  6
Continuous
 62
     7
100
AcDbLine
 10
258.8769194920424
 20
215.3347845441685
 30
0.0
 11
258.9202207622329
 21
215.3597845441686
 31
0.0
  0
LINE
  5
2F2
330
57
100
AcDbEntity
  8
1
  6
Continuous
 62
     7
100
AcDbLine
 10
252.3769194920424
 20
226.5931147933657
 30
0.0
 11
252.4202207622329
 21
226.6181147933653
 31
0.0
  0
LINE
  5
2F3
330
57
100
AcDbEntity
  8
0
  6
Continuous
 62
     7
100
AcDbLine
 10
255.5769194920413
 20
221.0505522091453
 30
0.0
 11
258.8769194920424
 21
215.3347845441685
 31
0.0
  0
SPLINE
  5
2F4
330
57
100
AcDbEntity
  8
1
  6
Continuous
 62
     7
100
AcDbSpline
210
0.0
220
0.0
230
1.0
 70
     8
 71
     3
 72
    19
 73
    15
 74
    13
 42
0.0000000001
 43
0.0000000001
 44
0.00000001
 40
0.0
 40
0.0
 40
0.0
 40
0.0
 40
0.351190505314936
 40
0.701406042412086
 40
1.043339731656505
 40
1.386021091836531
 40
1.720687137148921
 40
2.054915715857538
 40
2.383264777268319
 40
2.712016821153984
 40
3.037805193361396
 40
3.362896976693141
 40
3.55345268695396
 40
3.744221625520475
 40
3.744221625520475
 40
3.744221625520475
 40
3.744221625520475
 10
164.3315479920329
 20
219.4969103376957
 30
0.0
 10
164.2402549798355
 20
219.5701842067219
 30
0.0
 10
164.0579224013172
 20
219.7165285232911
 30
0.0
 10
163.7989640585029
 20
219.9493927566592
 30
0.0
 10
163.5691858582895
 20
220.2076087144508
 30
0.0
 10
163.3689917139585
 20
220.4826849977446
 30
0.0
 10
163.1948640884273
 20
220.7719469851736
 30
0.0
 10
163.0505110203941
 20
221.0719818315089
 30
0.0
 10
162.9375687375182
 20
221.3831000340103
 30
0.0
 10
162.8559949827109
 20
221.7009232777181
 30
0.0
 10
162.8050223698022
 20
222.0239741403402
 30
0.0
 10
162.791133107952
 20
222.304818257618
 30
0.0
 10
162.8022976922738
 20
222.5401431853284
 30
0.0
 10
162.8128513993989
 20
222.6668133467686
 30
0.0
 10
162.8181312036613
 20
222.7301838430644
 30
0.0
 11
164.3315479920329
 21
219.4969103376957
 31
0.0
 11
164.0597353489444
 21
219.7192898738059
 31
0.0
 11
163.8015436082715
 21
219.9559075981474
 31
0.0
 11
163.5737301764391
 21
220.2108971824779
 31
0.0
 11
163.3716254774117
 21
220.4876356966856
 31
0.0
 11
163.1993738525353
 21
220.774569033216
 31
0.0
 11
163.0548564443016
 21
221.0759383441005
 31
0.0
 11
162.9426904822262
 21
221.3845350114206
 31
0.0
 11
162.8608613757315
 21
221.7029402621456
 31
0.0
 11
162.8107792607576
 21
222.0248561598973
 31
0.0
 11
162.7955347136813
 21
222.3495903148214
 31
0.0
 11
162.8034248188844
 21
222.5399826070837
 31
0.0
 11
162.8181312036613
 21
222.7301838430644
 31
0.0
  0
SPLINE
  5
2F5
330
57
100
AcDbEntity
  8
1
  6
Continuous
 62
     7
100
AcDbSpline
210
0.0
220
0.0
230
1.0
 70
     8
 71
     3
 72
    19
 73
    15
 74
    13
 42
0.0000000001
 43
0.0000000001
 44
0.00000001
 40
0.0
 40
0.0
 40
0.0
 40
0.0
 40
0.3511905053137941
 40
0.7014060424106126
 40
1.043339731659101
 40
1.38602109184207
 40
1.720687137150643
 40
2.054915715856955
 40
2.383264777270793
 40
2.712016821157638
 40
3.03780519336365
 40
3.362896976695607
 40
3.553452686956323
 40
3.744221625522237
 40
3.744221625522237
 40
3.744221625522237
 40
3.744221625522237
 10
169.8595214353318
 20
219.4969103376957
 30
0.0
 10
169.9508144475282
 20
219.5701842067224
 30
0.0
 10
170.133147026045
 20
219.7165285232927
 30
0.0
 10
170.3921053688602
 20
219.949392756661
 30
0.0
 10
170.6218835690804
 20
220.2076087144493
 30
0.0
 10
170.8220777134158
 20
220.4826849977415
 30
0.0
 10
170.99620533894
 20
220.7719469851739
 30
0.0
 10
171.1405584069673
 20
221.0719818315104
 30
0.0
 10
171.2535006898511
 20
221.3831000340094
 30
0.0
 10
171.3350744446653
 20
221.7009232777168
 30
0.0
 10
171.3860470575651
 20
222.0239741403406
 30
0.0
 10
171.3999363194087
 20
222.3048182576179
 30
0.0
 10
171.3887717350925
 20
222.5401431853281
 30
0.0
 10
171.3782180279724
 20
222.6668133467686
 30
0.0
 10
171.3729382237125
 20
222.7301838430644
 30
0.0
 11
169.8595214353318
 21
219.4969103376957
 31
0.0
 11
170.131334078418
 21
219.719289873807
 31
0.0
 11
170.3895258190914
 21
219.9559075981474
 31
0.0
 11
170.6173392509307
 21
220.2108971824772
 31
0.0
 11
170.8194439499621
 21
220.4876356966856
 31
0.0
 11
170.991695574832
 21
220.7745690332155
 31
0.0
 11
171.1362129830613
 21
221.0759383440995
 31
0.0
 11
171.2483789451431
 21
221.3845350114205
 31
0.0
 11
171.3302080516423
 21
221.7029402621456
 31
0.0
 11
171.3802901666098
 21
222.0248561598969
 31
0.0
 11
171.3955347136816
 21
222.3495903148214
 31
0.0
 11
171.3876446084823
 21
222.5399826070837
 31
0.0
 11
171.3729382237125
 21
222.7301838430644
 31
0.0
  0
SPLINE
  5
2F6
330
57
100
AcDbEntity
  8
1
  6
Continuous
 62
     7
100
AcDbSpline
210
0.0
220
0.0
230
1.0
 70
     8
 71
     3
 72
    19
 73
    15
 74
    13
 42
0.0000000001
 43
0.0000000001
 44
0.00000001
 40
0.0
 40
0.0
 40
0.0
 40
0.0
 40
0.1108484321597119
 40
0.2216991388323261
 40
0.7145338758451363
 40
1.207825858548825
 40
1.689478506793809
 40
2.170736441537356
 40
2.639991965297794
 40
3.109874390050281
 40
3.569577376095819
 40
4.02791245177278
 40
4.481764116061323
 40
4.937281834643366
 40
4.937281834643366
 40
4.937281834643366
 40
4.937281834643366
 10
164.3455347136824
 20
216.4432976334197
 30
0.0
 10
164.3120969559666
 20
216.4590201663621
 30
0.0
 10
164.2452207544216
 20
216.4904655548596
 30
0.0
 10
164.0306895599048
 20
216.5939354014316
 30
0.0
 10
163.7098764533423
 20
216.770484916553
 30
0.0
 10
163.3023152564108
 20
217.0421420591815
 30
0.0
 10
162.9213321960147
 20
217.3438103526318
 30
0.0
 10
162.5734742346542
 20
217.6716999472391
 30
0.0
 10
162.2594489317479
 20
218.0268947034331
 30
0.0
 10
161.9823434095421
 20
218.4026263416382
 30
0.0
 10
161.7404635081084
 20
218.7977129351262
 30
0.0
 10
161.5430223280086
 20
219.2114886377953
 30
0.0
 10
161.399462847878
 20
219.6450247606313
 30
0.0
 10
161.3221995024013
 20
219.9381282542138
 30
0.0
 10
161.2834970526328
 20
220.0849484982423
 30
0.0
 11
164.3455347136824
 21
216.4432976334197
 31
0.0
 11
164.2452997873525
 21
216.4906298048879
 31
0.0
 11
164.1455347136816
 21
216.5389496687667
 31
0.0
 11
163.7136505111877
 21
216.776356731936
 31
0.0
 11
163.3030878165318
 21
217.0498073745694
 31
0.0
 11
162.9257434764733
 21
217.3491408384307
 31
0.0
 11
162.5758724992829
 21
217.6795943133307
 31
0.0
 11
162.2649771816588
 21
218.0310837840963
 31
0.0
 11
161.9859848313517
 21
218.4091747276025
 31
0.0
 11
161.7472128630185
 21
218.8020039303325
 31
0.0
 11
161.5513482510523
 21
219.2163806856834
 31
0.0
 11
161.4041679618211
 21
219.6457049170509
 31
0.0
 11
161.2834970526328
 21
220.0849484982423
 31
0.0
  0
SPLINE
  5
2F7
330
57
100
AcDbEntity
  8
1
  6
Continuous
 62
     7
100
AcDbSpline
210
0.0
220
0.0
230
1.0
 70
     8
 71
     3
 72
    19
 73
    15
 74
    13
 42
0.0000000001
 43
0.0000000001
 44
0.00000001
 40
0.0
 40
0.0
 40
0.0
 40
0.0
 40
0.1108484321588881
 40
0.2216991388305822
 40
0.7145338758441482
 40
1.207825858548562
 40
1.68947850679371
 40
2.170736441537155
 40
2.639991965296726
 40
3.10987439004884
 40
3.569577376097421
 40
4.027912451776576
 40
4.481764116063518
 40
4.937281834644606
 40
4.937281834644606
 40
4.937281834644606
 40
4.937281834644606
 10
169.8455347136824
 20
216.4432976334197
 30
0.0
 10
169.8789724713978
 20
216.4590201663621
 30
0.0
 10
169.9458486729422
 20
216.4904655548597
 30
0.0
 10
170.1603798674584
 20
216.5939354014322
 30
0.0
 10
170.481192974021
 20
216.7704849165536
 30
0.0
 10
170.8887541709538
 20
217.0421420591813
 30
0.0
 10
171.2697372313506
 20
217.3438103526311
 30
0.0
 10
171.6175951927107
 20
217.6716999472385
 30
0.0
 10
171.9316204956145
 20
218.0268947034342
 30
0.0
 10
172.2087260178205
 20
218.4026263416396
 30
0.0
 10
172.4506059192605
 20
218.7977129351255
 30
0.0
 10
172.6480470993661
 20
219.2114886377936
 30
0.0
 10
172.7916065794938
 20
219.6450247606305
 30
0.0
 10
172.8688699249657
 20
219.9381282542134
 30
0.0
 10
172.9075723747319
 20
220.0849484982423
 30
0.0
 11
169.8455347136824
 21
216.4432976334197
 31
0.0
 11
169.9457696400114
 21
216.4906298048879
 31
0.0
 11
170.0455347136813
 21
216.5389496687667
 31
0.0
 11
170.4774189161758
 21
216.7763567319365
 31
0.0
 11
170.8879816108329
 21
217.0498073745694
 31
0.0
 11
171.265325950892
 21
217.3491408384303
 31
0.0
 11
171.6151969280818
 21
217.6795943133307
 31
0.0
 11
171.9260922457038
 21
218.031083784097
 31
0.0
 11
172.2050845960112
 21
218.4091747276025
 31
0.0
 11
172.4438565643505
 21
218.8020039303323
 31
0.0
 11
172.6397211763215
 21
219.2163806856834
 31
0.0
 11
172.78690146555
 21
219.6457049170501
 31
0.0
 11
172.9075723747319
 21
220.0849484982423
 31
0.0
  0
ENDBLK
  5
59
330
57
100
AcDbEntity
  8
0
100
AcDbBlockEnd
  0
BLOCK
  5
5B
330
5A
100
AcDbEntity
  8
0
100
AcDbBlockBegin
  2
V97G-H3
 70
     0
 71
     0
 10
682.8456586784214
 20
463.5013316221484
 30
0.0
  3
V97G-H3
  1

  0
LINE
  5
2F8
330
5A
100
AcDbEntity
  8
1
  6
Continuous
 62
     7
100
AcDbLine
 10
166.5955347136824
 20
347.6623274732133
 30
0.0
 11
166.5955347136824
 21
348.1367375606833
 31
0.0
  0
LINE
  5
2F9
330
5A
100
AcDbEntity
  8
1
  6
Continuous
 62
     7
100
AcDbLine
 10
167.5955347136824
 20
347.6623274732133
 30
0.0
 11
167.5955347136824
 21
348.1367375606833
 31
0.0
  0
LINE
  5
2FA
330
5A
100
AcDbEntity
  8
1
  6
Continuous
 62
     7
100
AcDbLine
 10
167.5955347136824
 20
347.6623274732133
 30
0.0
 11
166.5955347136824
 21
347.6623274732133
 31
0.0
  0
LINE
  5
2FB
330
5A
100
AcDbEntity
  8
0
  6
Continuous
 62
     7
100
AcDbLine
 10
165.0955347136824
 20
210.6064832739785
 30
0.0
 11
169.0955347136824
 21
210.6064832739785
 31
0.0
  0
LINE
  5
2FC
330
5A
100
AcDbEntity
  8
0
  6
Continuous
 62
     7
100
AcDbLine
 10
165.0955347136824
 20
209.8904578701945
 30
0.0
 11
169.0955347136824
 21
209.8904578701945
 31
0.0
  0
LINE
  5
2FD
330
5A
100
AcDbEntity
  8
0
  6
Continuous
 62
     7
100
AcDbLine
 10
250.9810969697719
 20
213.4072809980594
 30
0.0
 11
252.6296008344525
 21
210.5154578701945
 31
0.0
  0
LINE
  5
2FE
330
5A
100
AcDbEntity
  8
0
  6
Continuous
 62
     7
100
AcDbLine
 10
252.6296008344525
 20
210.5154578701945
 30
0.0
 11
251.5436558533329
 21
209.8964073892203
 31
0.0
  0
LINE
  5
2FF
330
5A
100
AcDbEntity
  8
0
  6
Continuous
 62
     7
100
AcDbLine
 10
251.1344569424327
 20
210.0084620692546
 30
0.0
 11
250.7877886730821
 21
210.6165912586785
 31
0.0
  0
LINE
  5
300
330
5A
100
AcDbEntity
  8
0
  6
Continuous
 62
     7
100
AcDbLine
 10
247.0518905711015
 20
214.2422726252053
 30
0.0
 11
250.7877886730821
 21
210.6165912586785
 31
0.0
  0
LINE
  5
301
330
5A
100
AcDbEntity
  8
0
  6
Continuous
 62
     7
100
AcDbLine
 10
246.5774804836328
 20
215.0744878795545
 30
0.0
 11
248.0085249046515
 21
219.6796613023425
 31
0.0
  0
LINE
  5
302
330
5A
100
AcDbEntity
  8
0
  6
Continuous
 62
     7
100
AcDbLine
 10
247.0518905711015
 20
214.2422726252053
 30
0.0
 11
246.5774804836328
 21
215.0744878795545
 31
0.0
  0
LINE
  5
303
330
5A
100
AcDbEntity
  8
0
  6
Continuous
 62
     7
100
AcDbLine
 10
254.2982977585325
 20
223.2651900152364
 30
0.0
 11
248.0085249046515
 21
219.6796613023425
 31
0.0
  0
LINE
  5
304
330
5A
100
AcDbEntity
  8
0
  6
Continuous
 62
     7
100
AcDbLine
 10
256.9983384076622
 20
218.5885824284496
 30
0.0
 11
252.5332238083229
 21
216.0432128301786
 31
0.0
  0
LINE
  5
305
330
5A
100
AcDbEntity
  8
0
  6
Continuous
 62
     7
100
AcDbLine
 10
251.4555070572424
 20
212.5750657437106
 30
0.0
 11
252.5332238083229
 21
216.0432128301786
 31
0.0
  0
LINE
  5
306
330
5A
100
AcDbEntity
  8
0
  6
Continuous
 62
     7
100
AcDbLine
 10
247.0518905711015
 20
214.2422726252053
 30
0.0
 11
248.5950599477219
 21
219.2082698337285
 31
0.0
  0
LINE
  5
307
330
5A
100
AcDbEntity
  8
0
  6
Continuous
 62
     7
100
AcDbLine
 10
248.5937086730119
 20
214.1491550577835
 30
0.0
 11
249.8519207543013
 21
218.1981452581263
 31
0.0
  0
LINE
  5
308
330
5A
100
AcDbEntity
  8
0
  6
Continuous
 62
     7
100
AcDbLine
 10
249.5486639917126
 20
213.8524054338946
 30
0.0
 11
250.8068760730021
 21
217.9013956342374
 31
0.0
  0
LINE
  5
309
330
5A
100
AcDbEntity
  8
1
  6
Continuous
 62
     7
100
AcDbLine
 10
248.5937086730119
 20
214.1491550577835
 30
0.0
 11
249.5486639917126
 21
213.8524054338946
 31
0.0
  0
LINE
  5
30A
330
5A
100
AcDbEntity
  8
0
  6
Continuous
 62
     7
100
AcDbLine
 10
251.9425594271725
 20
216.5013158796983
 30
0.0
 11
250.9810969697719
 21
213.4072809980594
 31
0.0
  0
LINE
  5
30B
330
5A
100
AcDbEntity
  8
0
  6
Continuous
 62
     7
100
AcDbLine
 10
256.6530828991527
 20
219.1865825107757
 30
0.0
 11
251.9425594271725
 21
216.5013158796983
 31
0.0
  0
LINE
  5
30C
330
5A
100
AcDbEntity
  8
0
  6
Continuous
 62
     7
100
AcDbLine
 10
254.6483030278723
 20
222.6589631058387
 30
0.0
 11
248.5950599477219
 21
219.2082698337285
 31
0.0
  0
LINE
  5
30D
330
5A
100
AcDbEntity
  8
0
  6
Continuous
 62
     7
100
AcDbLine
 10
255.3983143192927
 20
221.3599054428414
 30
0.0
 11
249.8519207543013
 21
218.1981452581263
 31
0.0
  0
LINE
  5
30E
330
5A
100
AcDbEntity
  8
0
  6
Continuous
 62
     7
100
AcDbLine
 10
255.7636875456119
 20
220.7270604511296
 30
0.0
 11
250.8068760730021
 21
217.9013956342374
 31
0.0
  0
LINE
  5
30F
330
5A
100
AcDbEntity
  8
1
  6
Continuous
 62
     7
100
AcDbLine
 10
166.5955347136824
 20
219.6796613023425
 30
0.0
 11
167.5955347136824
 21
219.6796613023425
 31
0.0
  0
LINE
  5
310
330
5A
100
AcDbEntity
  8
1
  6
Continuous
 62
     7
100
AcDbLine
 10
166.5955347136824
 20
215.0744878795545
 30
0.0
 11
167.5955347136824
 21
215.0744878795545
 31
0.0
  0
LINE
  5
311
330
5A
100
AcDbEntity
  8
1
  6
Continuous
 62
     7
100
AcDbLine
 10
167.5955347136824
 20
214.2422726252053
 30
0.0
 11
166.5955347136824
 21
214.2422726252053
 31
0.0
  0
LINE
  5
312
330
5A
100
AcDbEntity
  8
1
  6
Continuous
 62
     7
100
AcDbLine
 10
166.5955347136824
 20
214.2422726252053
 30
0.0
 11
166.5955347136824
 21
219.2082698337285
 31
0.0
  0
LINE
  5
313
330
5A
100
AcDbEntity
  8
0
  6
Continuous
 62
     7
100
AcDbLine
 10
166.5955347136824
 20
224.2422182589844
 30
0.0
 11
167.5955347136824
 21
224.2422182589844
 31
0.0
  0
LINE
  5
314
330
5A
100
AcDbEntity
  8
1
  6
Continuous
 62
     7
100
AcDbLine
 10
167.5955347136824
 20
214.2422726252053
 30
0.0
 11
167.5955347136824
 21
219.2082698337285
 31
0.0
  0
LINE
  5
315
330
5A
100
AcDbEntity
  8
0
  6
Continuous
 62
     7
100
AcDbLine
 10
167.5955347136824
 20
224.2422182589844
 30
0.0
 11
168.2185921963919
 21
224.2422182589844
 31
0.0
  0
LINE
  5
316
330
5A
100
AcDbEntity
  8
1
  6
Continuous
 62
     7
100
AcDbLine
 10
166.5955347136824
 20
214.2422726252053
 30
0.0
 11
165.0955347136824
 21
214.2422726252053
 31
0.0
  0
LINE
  5
317
330
5A
100
AcDbEntity
  8
0
  6
Continuous
 62
     7
100
AcDbLine
 10
165.0955347136824
 20
214.2422726252053
 30
0.0
 11
165.0955347136824
 21
214.1491550577835
 31
0.0
  0
LINE
  5
318
330
5A
100
AcDbEntity
  8
1
  6
Continuous
 62
     7
100
AcDbLine
 10
167.5955347136824
 20
214.2422726252053
 30
0.0
 11
169.0955347136824
 21
214.2422726252053
 31
0.0
  0
LINE
  5
319
330
5A
100
AcDbEntity
  8
0
  6
Continuous
 62
     7
100
AcDbLine
 10
169.0955347136824
 20
214.2422726252053
 30
0.0
 11
169.0955347136824
 21
214.1491550577835
 31
0.0
  0
LINE
  5
31A
330
5A
100
AcDbEntity
  8
1
  6
Continuous
 62
     7
100
AcDbLine
 10
169.0955347136824
 20
219.2082698337285
 30
0.0
 11
167.5955347136824
 21
219.2082698337285
 31
0.0
  0
LINE
  5
31B
330
5A
100
AcDbEntity
  8
0
  6
Continuous
 62
     7
100
AcDbLine
 10
169.0955347136824
 20
219.2082698337285
 30
0.0
 11
169.0955347136824
 21
218.1981452581263
 31
0.0
  0
LINE
  5
31C
330
5A
100
AcDbEntity
  8
1
  6
Continuous
 62
     7
100
AcDbLine
 10
167.5955347136824
 20
219.2082698337285
 30
0.0
 11
167.5955347136824
 21
224.2422182589844
 31
0.0
  0
LINE
  5
31D
330
5A
100
AcDbEntity
  8
1
  6
Continuous
 62
     7
100
AcDbLine
 10
166.5955347136824
 20
219.2082698337285
 30
0.0
 11
165.0955347136824
 21
219.2082698337285
 31
0.0
  0
LINE
  5
31E
330
5A
100
AcDbEntity
  8
0
  6
Continuous
 62
     7
100
AcDbLine
 10
165.0955347136824
 20
219.2082698337285
 30
0.0
 11
165.0955347136824
 21
218.1981452581263
 31
0.0
  0
LINE
  5
31F
330
5A
100
AcDbEntity
  8
1
  6
Continuous
 62
     7
100
AcDbLine
 10
166.5955347136824
 20
219.2082698337285
 30
0.0
 11
166.5955347136824
 21
224.2422182589844
 31
0.0
  0
LINE
  5
320
330
5A
100
AcDbEntity
  8
1
  6
Continuous
 62
     7
100
AcDbLine
 10
169.0955347136824
 20
213.8524054338946
 30
0.0
 11
169.8455347136824
 21
213.8524054338946
 31
0.0
  0
LINE
  5
321
330
5A
100
AcDbEntity
  8
0
  6
Continuous
 62
     7
100
AcDbLine
 10
169.0955347136824
 20
213.8524054338946
 30
0.0
 11
169.0955347136824
 21
209.8904578701945
 31
0.0
  0
LINE
  5
322
330
5A
100
AcDbEntity
  8
1
  6
Continuous
 62
     7
100
AcDbLine
 10
165.0955347136824
 20
213.8524054338946
 30
0.0
 11
164.3455347136824
 21
213.8524054338946
 31
0.0
  0
LINE
  5
323
330
5A
100
AcDbEntity
  8
0
  6
Continuous
 62
     7
100
AcDbLine
 10
165.0955347136824
 20
213.8524054338946
 30
0.0
 11
165.0955347136824
 21
209.8904578701945
 31
0.0
  0
LINE
  5
324
330
5A
100
AcDbEntity
  8
1
  6
Continuous
 62
     7
100
AcDbLine
 10
169.8455347136824
 20
213.8524054338946
 30
0.0
 11
169.8455347136824
 21
214.1491550577835
 31
0.0
  0
LINE
  5
325
330
5A
100
AcDbEntity
  8
1
  6
Continuous
 62
     7
100
AcDbLine
 10
164.3455347136824
 20
213.8524054338946
 30
0.0
 11
164.3455347136824
 21
214.1491550577835
 31
0.0
  0
LINE
  5
326
330
5A
100
AcDbEntity
  8
1
  6
Continuous
 62
     7
100
AcDbLine
 10
169.8455347136824
 20
214.1491550577835
 30
0.0
 11
169.0955347136824
 21
214.1491550577835
 31
0.0
  0
LINE
  5
327
330
5A
100
AcDbEntity
  8
0
  6
Continuous
 62
     7
100
AcDbLine
 10
169.0955347136824
 20
214.1491550577835
 30
0.0
 11
169.0955347136824
 21
213.8524054338946
 31
0.0
  0
LINE
  5
328
330
5A
100
AcDbEntity
  8
1
  6
Continuous
 62
     7
100
AcDbLine
 10
169.8455347136824
 20
214.1491550577835
 30
0.0
 11
169.8455347136824
 21
218.1981452581263
 31
0.0
  0
LINE
  5
329
330
5A
100
AcDbEntity
  8
1
  6
Continuous
 62
     7
100
AcDbLine
 10
169.8455347136824
 20
218.1981452581263
 30
0.0
 11
169.0955347136824
 21
218.1981452581263
 31
0.0
  0
LINE
  5
32A
330
5A
100
AcDbEntity
  8
0
  6
Continuous
 62
     7
100
AcDbLine
 10
169.0955347136824
 20
218.1981452581263
 30
0.0
 11
169.0955347136824
 21
214.2422726252053
 31
0.0
  0
LINE
  5
32B
330
5A
100
AcDbEntity
  8
1
  6
Continuous
 62
     7
100
AcDbLine
 10
169.8455347136824
 20
218.1981452581263
 30
0.0
 11
169.8455347136824
 21
223.7284385376925
 31
0.0
  0
LINE
  5
32C
330
5A
100
AcDbEntity
  8
1
  6
Continuous
 62
     7
100
AcDbLine
 10
164.3455347136824
 20
218.1981452581263
 30
0.0
 11
165.0955347136824
 21
218.1981452581263
 31
0.0
  0
LINE
  5
32D
330
5A
100
AcDbEntity
  8
0
  6
Continuous
 62
     7
100
AcDbLine
 10
165.0955347136824
 20
218.1981452581263
 30
0.0
 11
165.0955347136824
 21
214.2422726252053
 31
0.0
  0
LINE
  5
32E
330
5A
100
AcDbEntity
  8
1
  6
Continuous
 62
     7
100
AcDbLine
 10
164.3455347136824
 20
218.1981452581263
 30
0.0
 11
164.3455347136824
 21
223.7284385376925
 31
0.0
  0
LINE
  5
32F
330
5A
100
AcDbEntity
  8
1
  6
Continuous
 62
     7
100
AcDbLine
 10
164.3455347136824
 20
214.1491550577835
 30
0.0
 11
165.0955347136824
 21
214.1491550577835
 31
0.0
  0
LINE
  5
330
330
5A
100
AcDbEntity
  8
0
  6
Continuous
 62
     7
100
AcDbLine
 10
165.0955347136824
 20
214.1491550577835
 30
0.0
 11
165.0955347136824
 21
213.8524054338946
 31
0.0
  0
LINE
  5
331
330
5A
100
AcDbEntity
  8
1
  6
Continuous
 62
     7
100
AcDbLine
 10
164.3455347136824
 20
214.1491550577835
 30
0.0
 11
164.3455347136824
 21
218.1981452581263
 31
0.0
  0
LINE
  5
332
330
5A
100
AcDbEntity
  8
0
  6
Continuous
 62
     7
100
AcDbLine
 10
169.0955347136824
 20
224.0241692448594
 30
0.0
 11
169.0955347136824
 21
219.2082698337285
 31
0.0
  0
LINE
  5
333
330
5A
100
AcDbEntity
  8
0
  6
Continuous
 62
     7
100
AcDbLine
 10
165.9724772309728
 20
224.2422182589844
 30
0.0
 11
166.5955347136824
 21
224.2422182589844
 31
0.0
  0
LINE
  5
334
330
5A
100
AcDbEntity
  8
0
  6
Continuous
 62
     7
100
AcDbLine
 10
165.0955347136824
 20
224.0241692448594
 30
0.0
 11
165.0955347136824
 21
219.2082698337285
 31
0.0
  0
LINE
  5
335
330
5A
100
AcDbEntity
  8
1
  6
Continuous
 62
     7
100
AcDbLine
 10
167.5955347136824
 20
349.0933718942374
 30
0.0
 11
166.5955347136824
 21
349.0933718942374
 31
0.0
  0
LINE
  5
336
330
5A
100
AcDbEntity
  8
1
  6
Continuous
 62
     7
100
AcDbLine
 10
166.5955347136824
 20
349.0933718942374
 30
0.0
 11
166.5955347136824
 21
349.6799069373055
 31
0.0
  0
LINE
  5
337
330
5A
100
AcDbEntity
  8
1
  6
Continuous
 62
     7
100
AcDbLine
 10
167.5955347136824
 20
349.0933718942374
 30
0.0
 11
167.5955347136824
 21
349.6799069373055
 31
0.0
  0
LINE
  5
338
330
5A
100
AcDbEntity
  8
1
  6
Continuous
 62
     7
100
AcDbLine
 10
169.0955347136824
 20
348.1367375606833
 30
0.0
 11
167.5955347136824
 21
348.1367375606833
 31
0.0
  0
LINE
  5
339
330
5A
100
AcDbEntity
  8
1
  6
Continuous
 62
     7
100
AcDbLine
 10
167.5955347136824
 20
348.1367375606833
 30
0.0
 11
167.5955347136824
 21
349.0933718942374
 31
0.0
  0
LINE
  5
33A
330
5A
100
AcDbEntity
  8
1
  6
Continuous
 62
     7
100
AcDbLine
 10
166.5955347136824
 20
348.1367375606833
 30
0.0
 11
165.0955347136824
 21
348.1367375606833
 31
0.0
  0
LINE
  5
33B
330
5A
100
AcDbEntity
  8
1
  6
Continuous
 62
     7
100
AcDbLine
 10
166.5955347136824
 20
348.1367375606833
 30
0.0
 11
166.5955347136824
 21
349.0933718942374
 31
0.0
  0
LINE
  5
33C
330
5A
100
AcDbEntity
  8
1
  6
Continuous
 62
     7
100
AcDbLine
 10
166.5955347136824
 20
349.6799069373055
 30
0.0
 11
165.0955347136824
 21
349.6799069373055
 31
0.0
  0
LINE
  5
33D
330
5A
100
AcDbEntity
  8
1
  6
Continuous
 62
     7
100
AcDbLine
 10
166.5955347136824
 20
349.6799069373055
 30
0.0
 11
166.5955347136824
 21
352.9891388925335
 31
0.0
  0
LINE
  5
33E
330
5A
100
AcDbEntity
  8
1
  6
Continuous
 62
     7
100
AcDbLine
 10
167.5955347136824
 20
349.6799069373055
 30
0.0
 11
169.0955347136824
 21
349.6799069373055
 31
0.0
  0
LINE
  5
33F
330
5A
100
AcDbEntity
  8
1
  6
Continuous
 62
     7
100
AcDbLine
 10
167.5955347136824
 20
349.6799069373055
 30
0.0
 11
167.5955347136824
 21
352.9891410288733
 31
0.0
  0
LINE
  5
340
330
5A
100
AcDbEntity
  8
1
  6
Continuous
 62
     7
100
AcDbLine
 10
169.0955347136824
 20
348.1367375606833
 30
0.0
 11
169.0955347136824
 21
349.6785556625905
 31
0.0
  0
LINE
  5
341
330
5A
100
AcDbEntity
  8
1
  6
Continuous
 62
     7
100
AcDbLine
 10
165.0955347136824
 20
348.1367375606833
 30
0.0
 11
165.0955347136824
 21
349.6785556625905
 31
0.0
  0
LINE
  5
342
330
5A
100
AcDbEntity
  8
1
  6
Continuous
 62
     7
100
AcDbLine
 10
169.8455347136824
 20
350.9367677438795
 30
0.0
 11
169.0955347136824
 21
350.9367677438795
 31
0.0
  0
LINE
  5
343
330
5A
100
AcDbEntity
  8
1
  6
Continuous
 62
     7
100
AcDbLine
 10
169.0955347136824
 20
350.9367677438795
 30
0.0
 11
169.0955347136824
 21
353.1227453689503
 31
0.0
  0
LINE
  5
344
330
5A
100
AcDbEntity
  8
1
  6
Continuous
 62
     7
100
AcDbLine
 10
165.0955347136824
 20
350.9367677438795
 30
0.0
 11
164.3455347136824
 21
350.9367677438795
 31
0.0
  0
LINE
  5
345
330
5A
100
AcDbEntity
  8
1
  6
Continuous
 62
     7
100
AcDbLine
 10
165.0955347136824
 20
350.9367677438795
 30
0.0
 11
165.0955347136824
 21
353.1227532791713
 31
0.0
  0
LINE
  5
346
330
5A
100
AcDbEntity
  8
1
  6
Continuous
 62
     7
100
AcDbLine
 10
169.8455347136824
 20
349.6785556625905
 30
0.0
 11
169.0955347136824
 21
349.6785556625905
 31
0.0
  0
LINE
  5
347
330
5A
100
AcDbEntity
  8
1
  6
Continuous
 62
     7
100
AcDbLine
 10
169.0955347136824
 20
349.6785556625905
 30
0.0
 11
169.0955347136824
 21
350.9367677438795
 31
0.0
  0
LINE
  5
348
330
5A
100
AcDbEntity
  8
1
  6
Continuous
 62
     7
100
AcDbLine
 10
164.3455347136824
 20
349.6785556625905
 30
0.0
 11
165.0955347136824
 21
349.6785556625905
 31
0.0
  0
LINE
  5
349
330
5A
100
AcDbEntity
  8
1
  6
Continuous
 62
     7
100
AcDbLine
 10
165.0955347136824
 20
349.6785556625905
 30
0.0
 11
165.0955347136824
 21
350.9367677438795
 31
0.0
  0
LINE
  5
34A
330
5A
100
AcDbEntity
  8
1
  6
Continuous
 62
     7
100
AcDbLine
 10
169.8455347136824
 20
349.6785556625905
 30
0.0
 11
169.8455347136824
 21
353.2546865516065
 31
0.0
  0
LINE
  5
34B
330
5A
100
AcDbEntity
  8
1
  6
Continuous
 62
     7
100
AcDbLine
 10
164.3455347136824
 20
349.6785556625905
 30
0.0
 11
164.3455347136824
 21
353.2546753345305
 31
0.0
  0
ARC
  5
34C
330
5A
100
AcDbEntity
  8
0
  6
Continuous
 62
     7
100
AcDbCircle
 10
251.3950837379016
 20
210.1570341846887
 30
0.0
 40
0.3000000000015788
100
AcDbArc
 50
-150.3143971705621
 51
-60.31439717098591
  0
ENDBLK
  5
5C
330
5A
100
AcDbEntity
  8
0
100
AcDbBlockEnd
  0
BLOCK
  5
5E
330
5D
100
AcDbEntity
  8
0
100
AcDbBlockBegin
  2
V972GN-H3
 70
     0
 71
     0
 10
840.9875665666714
 20
221.6741048150634
 30
0.0
  3
V972GN-H3
  1

  0
ARC
  5
34D
330
5D
100
AcDbEntity
  8
0
  6
Continuous
 62
     7
100
AcDbCircle
 10
167.0955347136824
 20
235.1741048150634
 30
0.0
 40
11.5
100
AcDbArc
 50
0.0
 51
-148.5851825381891
  0
ARC
  5
34E
330
5D
100
AcDbEntity
  8
0
  6
Continuous
 62
     7
100
AcDbCircle
 10
167.0955347136824
 20
235.1741048150634
 30
0.0
 40
8.299999999999187
100
AcDbArc
 50
0.0
 51
-176.4103667645758
  0
ARC
  5
34F
330
5D
100
AcDbEntity
  8
0
  6
Continuous
 62
     7
100
AcDbCircle
 10
167.0955347136824
 20
235.1741048150634
 30
0.0
 40
8.300000000004173
100
AcDbArc
 50
-3.58963323542037
 51
0.0
  0
ARC
  5
350
330
5D
100
AcDbEntity
  8
0
  6
Continuous
 62
     7
100
AcDbCircle
 10
167.0955347136824
 20
235.1741048150634
 30
0.0
 40
11.50000000000255
100
AcDbArc
 50
-31.41481746178756
 51
0.0
  0
ENDBLK
  5
5F
330
5D
100
AcDbEntity
  8
0
100
AcDbBlockEnd
  0
BLOCK
  5
61
330
60
100
AcDbEntity
  8
0
100
AcDbBlockBegin
  2
_J__A4
 70
     0
 71
     0
 10
0.0
 20
0.0
 30
0.0
  3
_J__A4
  1

  0
POINT
  5
351
330
60
100
AcDbEntity
  8
1
 62
     4
100
AcDbPoint
 10
93.75
 20
17.0
 30
0.0
  0
POINT
  5
352
330
60
100
AcDbEntity
  8
1
 62
     4
100
AcDbPoint
 10
85.25
 20
17.0
 30
0.0
  0
POINT
  5
353
330
60
100
AcDbEntity
  8
1
 62
     4
100
AcDbPoint
 10
106.5
 20
19.00000000000001
 30
0.0
  0
POINT
  5
354
330
60
100
AcDbEntity
  8
1
 62
     4
100
AcDbPoint
 10
106.5
 20
12.5
 30
0.0
  0
POINT
  5
355
330
60
100
AcDbEntity
  8
1
 62
     4
100
AcDbPoint
 10
112.25
 20
12.5
 30
0.0
  0
POINT
  5
356
330
60
100
AcDbEntity
  8
1
 62
     4
100
AcDbPoint
 10
100.75
 20
12.5
 30
0.0
  0
POINT
  5
357
330
60
100
AcDbEntity
  8
1
 62
     4
100
AcDbPoint
 10
123.5
 20
19.00000000000001
 30
0.0
  0
POINT
  5
358
330
60
100
AcDbEntity
  8
1
 62
     4
100
AcDbPoint
 10
123.5
 20
12.5
 30
0.0
  0
POINT
  5
359
330
60
100
AcDbEntity
  8
1
 62
     4
100
AcDbPoint
 10
129.25
 20
12.5
 30
0.0
  0
POINT
  5
35A
330
60
100
AcDbEntity
  8
1
 62
     4
100
AcDbPoint
 10
117.75
 20
12.5
 30
0.0
  0
POINT
  5
35B
330
60
100
AcDbEntity
  8
1
 62
     4
100
AcDbPoint
 10
140.5
 20
19.00000000000001
 30
0.0
  0
POINT
  5
35C
330
60
100
AcDbEntity
  8
1
 62
     4
100
AcDbPoint
 10
140.5
 20
12.5
 30
0.0
  0
POINT
  5
35D
330
60
100
AcDbEntity
  8
1
 62
     4
100
AcDbPoint
 10
146.25
 20
12.5
 30
0.0
  0
POINT
  5
35E
330
60
100
AcDbEntity
  8
1
 62
     4
100
AcDbPoint
 10
134.75
 20
12.5
 30
0.0
  0
POINT
  5
35F
330
60
100
AcDbEntity
  8
1
 62
     4
100
AcDbPoint
 10
151.75
 20
12.5
 30
0.0
  0
POINT
  5
360
330
60
100
AcDbEntity
  8
1
 62
     4
100
AcDbPoint
 10
163.25
 20
12.5
 30
0.0
  0
POINT
  5
361
330
60
100
AcDbEntity
  8
1
 62
     4
100
AcDbPoint
 10
157.5
 20
12.5
 30
0.0
  0
POINT
  5
362
330
60
100
AcDbEntity
  8
1
 62
     4
100
AcDbPoint
 10
57.0
 20
14.25
 30
0.0
  0
POINT
  5
363
330
60
100
AcDbEntity
  8
1
 62
     4
100
AcDbPoint
 10
57.0
 20
22.75000000000001
 30
0.0
  0
POINT
  5
364
330
60
100
AcDbEntity
  8
1
 62
     4
100
AcDbPoint
 10
47.5
 20
282.0000000000003
 30
0.0
  0
POINT
  5
365
330
60
100
AcDbEntity
  8
1
 62
     4
100
AcDbPoint
 10
157.5
 20
19.00000000000001
 30
0.0
  0
POINT
  5
366
330
60
100
AcDbEntity
  8
1
 62
     4
100
AcDbPoint
 10
57.0
 20
16.25
 30
0.0
  0
POINT
  5
367
330
60
100
AcDbEntity
  8
1
 62
     4
100
AcDbPoint
 10
57.0
 20
24.75000000000001
 30
0.0
  0
POINT
  5
368
330
60
100
AcDbEntity
  8
1
 62
     4
100
AcDbPoint
 10
57.0
 20
20.75000000000001
 30
0.0
  0
POINT
  5
369
330
60
100
AcDbEntity
  8
1
 62
     4
100
AcDbPoint
 10
57.0
 20
12.25
 30
0.0
  0
POINT
  5
36A
330
60
100
AcDbEntity
  8
1
 62
     4
100
AcDbPoint
 10
34.0
 20
34.00000000000001
 30
0.0
  0
LINE
  5
36B
330
60
100
AcDbEntity
  8
1
  6
Continuous
 62
     7
100
AcDbLine
 10
105.0
 20
10.0
 30
0.0
 11
200.0
 21
10.0
 31
0.0
  0
LINE
  5
36C
330
60
100
AcDbEntity
  8
1
  6
Continuous
 62
     2
100
AcDbLine
 10
105.0
 20
10.0
 30
0.0
 11
105.0
 21
5.0
 31
0.0
  0
LINE
  5
36D
330
60
100
AcDbEntity
  8
1
  6
Continuous
 62
     7
100
AcDbLine
 10
200.0
 20
148.5
 30
0.0
 11
200.0
 21
287.0000000000003
 31
0.0
  0
LINE
  5
36E
330
60
100
AcDbEntity
  8
1
  6
Continuous
 62
     2
100
AcDbLine
 10
200.0
 20
148.5
 30
0.0
 11
205.0
 21
148.5
 31
0.0
  0
LINE
  5
36F
330
60
100
AcDbEntity
  8
1
  6
Continuous
 62
     7
100
AcDbLine
 10
25.0
 20
148.5
 30
0.0
 11
25.0
 21
287.0000000000003
 31
0.0
  0
LINE
  5
370
330
60
100
AcDbEntity
  8
1
  6
Continuous
 62
     2
100
AcDbLine
 10
25.0
 20
148.5
 30
0.0
 11
20.0
 21
148.5
 31
0.0
  0
LINE
  5
371
330
60
100
AcDbEntity
  8
1
  6
Continuous
 62
     7
100
AcDbLine
 10
105.0
 20
287.0000000000003
 30
0.0
 11
25.0
 21
287.0000000000003
 31
0.0
  0
LINE
  5
372
330
60
100
AcDbEntity
  8
1
  6
Continuous
 62
     2
100
AcDbLine
 10
105.0
 20
287.0000000000003
 30
0.0
 11
105.0
 21
292.0000000000003
 31
0.0
  0
LINE
  5
373
330
60
100
AcDbEntity
  8
1
  6
Continuous
 62
     2
100
AcDbLine
 10
166.0
 20
20.00000000000001
 30
0.0
 11
200.0
 21
20.00000000000001
 31
0.0
  0
LINE
  5
374
330
60
100
AcDbEntity
  8
1
  6
Continuous
 62
     2
100
AcDbLine
 10
98.0
 20
27.00000000000001
 30
0.0
 11
98.0
 21
9.99999999999999
 31
0.0
  0
LINE
  5
375
330
60
100
AcDbEntity
  8
1
  6
Continuous
 62
     2
100
AcDbLine
 10
115.0
 20
27.00000000000001
 30
0.0
 11
115.0
 21
9.99999999999999
 31
0.0
  0
LINE
  5
376
330
60
100
AcDbEntity
  8
1
  6
Continuous
 62
     2
100
AcDbLine
 10
149.0
 20
27.00000000000001
 30
0.0
 11
149.0
 21
10.0
 31
0.0
  0
LINE
  5
377
330
60
100
AcDbEntity
  8
1
  6
Continuous
 62
     2
100
AcDbLine
 10
132.0
 20
27.00000000000001
 30
0.0
 11
132.0
 21
9.99999999999999
 31
0.0
  0
LINE
  5
378
330
60
100
AcDbEntity
  8
1
  6
Continuous
 62
     2
100
AcDbLine
 10
166.0
 20
27.00000000000001
 30
0.0
 11
166.0
 21
10.0
 31
0.0
  0
LINE
  5
379
330
60
100
AcDbEntity
  8
1
  6
Continuous
 62
     2
100
AcDbLine
 10
55.0
 20
277.0000000000003
 30
0.0
 11
25.0
 21
277.0000000000003
 31
0.0
  0
LINE
  5
37A
330
60
100
AcDbEntity
  8
1
  6
Continuous
 62
     7
100
AcDbLine
 10
25.0
 20
10.0
 30
0.0
 11
25.0
 21
148.5
 31
0.0
  0
LINE
  5
37B
330
60
100
AcDbEntity
  8
1
  6
Continuous
 62
     2
100
AcDbLine
 10
40.0
 20
287.0000000000003
 30
0.0
 11
40.0
 21
277.0000000000003
 31
0.0
  0
LINE
  5
37C
330
60
100
AcDbEntity
  8
1
  6
Continuous
 62
     2
100
AcDbLine
 10
55.0
 20
287.0000000000003
 30
0.0
 11
55.0
 21
277.0000000000003
 31
0.0
  0
LINE
  5
37D
330
60
100
AcDbEntity
  8
1
  6
Continuous
 62
     2
100
AcDbLine
 10
33.0
 20
41.00000000000001
 30
0.0
 11
33.0
 21
27.0
 31
0.0
  0
LINE
  5
37E
330
60
100
AcDbEntity
  8
1
  6
Continuous
 62
     7
100
AcDbLine
 10
200.0
 20
27.00000000000001
 30
0.0
 11
25.0
 21
27.00000000000001
 31
0.0
  0
LINE
  5
37F
330
60
100
AcDbEntity
  8
1
  6
Continuous
 62
     7
100
AcDbLine
 10
25.0
 20
41.0
 30
0.0
 11
200.0
 21
41.0
 31
0.0
  0
LINE
  5
380
330
60
100
AcDbEntity
  8
1
  6
PHANTOM
 62
     4
100
AcDbLine
 10
0.0
 20
0.0
 30
0.0
 11
210.0
 21
0.0
 31
0.0
  0
LINE
  5
381
330
60
100
AcDbEntity
  8
1
  6
PHANTOM
 62
     4
100
AcDbLine
 10
210.0
 20
0.0
 30
0.0
 11
210.0
 21
297.0
 31
0.0
  0
LINE
  5
382
330
60
100
AcDbEntity
  8
1
  6
PHANTOM
 62
     4
100
AcDbLine
 10
210.0
 20
297.0
 30
0.0
 11
0.0
 21
297.0
 31
0.0
  0
LINE
  5
383
330
60
100
AcDbEntity
  8
1
  6
PHANTOM
 62
     4
100
AcDbLine
 10
0.0
 20
297.0
 30
0.0
 11
0.0
 21
0.0
 31
0.0
  0
LINE
  5
384
330
60
100
AcDbEntity
  8
1
  6
Continuous
 62
     7
100
AcDbLine
 10
25.0
 20
10.0
 30
0.0
 11
105.0
 21
10.0
 31
0.0
  0
LINE
  5
385
330
60
100
AcDbEntity
  8
1
  6
Continuous
 62
     7
100
AcDbLine
 10
200.0
 20
10.0
 30
0.0
 11
200.0
 21
148.5
 31
0.0
  0
LINE
  5
386
330
60
100
AcDbEntity
  8
1
  6
Continuous
 62
     7
100
AcDbLine
 10
200.0
 20
287.0000000000003
 30
0.0
 11
105.0
 21
287.0000000000003
 31
0.0
  0
LINE
  5
387
330
60
100
AcDbEntity
  8
1
  6
Continuous
 62
     2
100
AcDbLine
 10
25.0
 20
18.50000000000001
 30
0.0
 11
81.0
 21
18.50000000000001
 31
0.0
  0
LINE
  5
388
330
60
100
AcDbEntity
  8
1
  6
Continuous
 62
     2
100
AcDbLine
 10
33.0
 20
27.0
 30
0.0
 11
33.0
 21
10.0
 31
0.0
  0
LINE
  5
389
330
60
100
AcDbEntity
  8
1
  6
Continuous
 62
     7
100
AcDbLine
 10
191.0
 20
24.70000000000001
 30
0.0
 11
191.0
 21
22.30000000000001
 31
0.0
  0
LINE
  5
38A
330
60
100
AcDbEntity
  8
1
  6
Continuous
 62
     7
100
AcDbLine
 10
191.0
 20
24.70000000000001
 30
0.0
 11
196.0
 21
25.50000000000001
 31
0.0
  0
LINE
  5
38B
330
60
100
AcDbEntity
  8
1
  6
Continuous
 62
     7
100
AcDbLine
 10
196.0
 20
25.50000000000001
 30
0.0
 11
196.0
 21
21.50000000000001
 31
0.0
  0
LINE
  5
38C
330
60
100
AcDbEntity
  8
1
  6
Continuous
 62
     7
100
AcDbLine
 10
196.0
 20
21.50000000000001
 30
0.0
 11
191.0
 21
22.30000000000001
 31
0.0
  0
LINE
  5
38D
330
60
100
AcDbEntity
  8
1
  6
DOT_CENTER
 62
     2
100
AcDbLine
 10
184.0
 20
23.50000000000001
 30
0.0
 11
197.0
 21
23.50000000000001
 31
0.0
  0
LINE
  5
38E
330
60
100
AcDbEntity
  8
1
  6
DOT_CENTER
 62
     2
100
AcDbLine
 10
187.0
 20
26.50000000000001
 30
0.0
 11
187.0
 21
20.50000000000001
 31
0.0
  0
LINE
  5
38F
330
60
100
AcDbEntity
  8
1
  6
Continuous
 62
     2
100
AcDbLine
 10
81.0
 20
27.00000000000001
 30
0.0
 11
81.0
 21
10.0
 31
0.0
  0
CIRCLE
  5
390
330
60
100
AcDbEntity
  8
1
  6
Continuous
 62
     7
100
AcDbCircle
 10
103.5
 20
12.5
 30
0.0
 40
0.2999999999999972
  0
CIRCLE
  5
391
330
60
100
AcDbEntity
  8
1
  6
Continuous
 62
     7
100
AcDbCircle
 10
109.5
 20
12.5
 30
0.0
 40
0.2999999999999972
  0
CIRCLE
  5
392
330
60
100
AcDbEntity
  8
1
  6
Continuous
 62
     7
100
AcDbCircle
 10
120.5
 20
12.5
 30
0.0
 40
0.2999999999999972
  0
CIRCLE
  5
393
330
60
100
AcDbEntity
  8
1
  6
Continuous
 62
     7
100
AcDbCircle
 10
126.5
 20
12.5
 30
0.0
 40
0.2999999999999972
  0
CIRCLE
  5
394
330
60
100
AcDbEntity
  8
1
  6
Continuous
 62
     7
100
AcDbCircle
 10
137.5
 20
12.5
 30
0.0
 40
0.3000000000000114
  0
CIRCLE
  5
395
330
60
100
AcDbEntity
  8
1
  6
Continuous
 62
     7
100
AcDbCircle
 10
143.5
 20
12.5
 30
0.0
 40
0.3000000000000114
  0
CIRCLE
  5
396
330
60
100
AcDbEntity
  8
1
  6
Continuous
 62
     7
100
AcDbCircle
 10
160.5
 20
12.5
 30
0.0
 40
0.3000000000000114
  0
CIRCLE
  5
397
330
60
100
AcDbEntity
  8
1
  6
Continuous
 62
     7
100
AcDbCircle
 10
154.5
 20
12.5
 30
0.0
 40
0.3000000000000114
  0
CIRCLE
  5
398
330
60
100
AcDbEntity
  8
1
  6
Continuous
 62
     7
100
AcDbCircle
 10
187.0
 20
23.50000000000001
 30
0.0
 40
1.200000000000102
  0
CIRCLE
  5
399
330
60
100
AcDbEntity
  8
1
  6
Continuous
 62
     7
100
AcDbCircle
 10
187.0
 20
23.50000000000001
 30
0.0
 40
2.0
  0
CIRCLE
  5
39A
330
60
100
AcDbEntity
  8
1
  6
DOT_CENTER
 62
     7
100
AcDbCircle
 10
89.5
 20
16.0
 30
0.0
 40
0.1000000000000227
  0
CIRCLE
  5
39B
330
60
100
AcDbEntity
  8
1
  6
DOT_CENTER
 62
     7
100
AcDbCircle
 10
89.5
 20
18.0
 30
0.0
 40
0.1000000000000227
  0
MTEXT
  5
39C
330
60
100
AcDbEntity
  8
1
 62
     7
100
AcDbMText
 10
188.5
 20
15.0
 30
0.0
 40
3.0
 41
0.0
 71
     5
 72
     1
  1
三栄水栓製作所
  7
CONVERTER_1
 73
     1
 44
1.32052821128451
  0
MTEXT
  5
39D
330
60
100
AcDbEntity
  8
1
 62
     7
100
AcDbMText
 10
171.5
 20
15.0
 30
0.0
 40
2.5
 41
0.0
 71
     5
 72
     1
  1
株式会社
  7
CONVERTER_1
 73
     1
 44
1.32052821128451
  0
MTEXT
  5
39E
330
60
100
AcDbEntity
  8
1
 62
     2
100
AcDbMText
 10
32.5
 20
282.0000000000003
 30
0.0
 40
5.0
 41
0.0
 71
     5
 72
     1
  1
図番
  7
CONVERTER_1
 73
     1
 44
0.60024009603842
  0
MTEXT
  5
39F
330
60
100
AcDbEntity
  8
1
 62
     2
100
AcDbMText
 10
29.0
 20
34.00000000000001
 30
0.0
 40
3.5
 41
0.0
 71
     5
 72
     1
  1
備考
  7
CONVERTER_1
 73
     1
 44
0.60024009603842
  0
MTEXT
  5
3A0
330
60
100
AcDbEntity
  8
1
 62
     2
100
AcDbMText
 10
29.0
 20
22.75
 30
0.0
 40
3.5
 41
0.0
 71
     5
 72
     1
  1
品名
  7
CONVERTER_1
 73
     1
 44
0.96038415366146
  0
MTEXT
  5
3A1
330
60
100
AcDbEntity
  8
1
 62
     2
100
AcDbMText
 10
29.0
 20
14.25
 30
0.0
 40
3.5
 41
0.0
 71
     5
 72
     1
  1
品番
  7
CONVERTER_1
 73
     1
 44
0.96038415366146
  0
MTEXT
  5
3A2
330
60
100
AcDbEntity
  8
1
 62
     2
100
AcDbMText
 10
101.5
 20
25.00000000000001
 30
0.0
 40
3.0
 41
0.0
 71
     5
 72
     1
  1
承認
  7
CONVERTER_1
 73
     1
 44
0.78031212484994
  0
MTEXT
  5
3A3
330
60
100
AcDbEntity
  8
1
 62
     2
100
AcDbMText
 10
175.0
 20
23.50000000000001
 30
0.0
 40
3.5
 41
0.0
 71
     5
 72
     1
  1
第三角法
  7
CONVERTER_1
 73
     1
 44
0.7202881152461
  0
MTEXT
  5
3A4
330
60
100
AcDbEntity
  8
1
 62
     2
100
AcDbMText
 10
118.5
 20
25.00000000000001
 30
0.0
 40
3.0
 41
0.0
 71
     5
 72
     1
  1
検図
  7
CONVERTER_1
 73
     1
 44
0.78031212484994
  0
MTEXT
  5
3A5
330
60
100
AcDbEntity
  8
1
 62
     2
100
AcDbMText
 10
152.5
 20
25.00000000000001
 30
0.0
 40
3.0
 41
0.0
 71
     5
 72
     1
  1
設計
  7
CONVERTER_1
 73
     1
 44
0.78031212484994
  0
MTEXT
  5
3A6
330
60
100
AcDbEntity
  8
1
 62
     2
100
AcDbMText
 10
135.5
 20
25.00000000000001
 30
0.0
 40
3.0
 41
0.0
 71
     5
 72
     1
  1
製図
  7
CONVERTER_1
 73
     1
 44
0.78031212484994
  0
MTEXT
  5
3A7
330
60
100
AcDbEntity
  8
1
 62
     2
100
AcDbMText
 10
89.5
 20
24.00000000000001
 30
0.0
 40
3.5
 41
0.0
 71
     5
 72
     1
  1
尺度
  7
CONVERTER_1
 73
     1
 44
0.7202881152461
  0
MTEXT
  5
3A8
330
60
100
AcDbEntity
  8
1
 62
   250
100
AcDbMText
 10
25.0
 20
5.0
 30
0.0
 40
3.5
 41
0.0
 71
     4
 72
     1
  1
備考欄の文字列 原点位置=4
  7
CONVERTER_1
 73
     1
 44
0.7202881152461
  0
ENDBLK
  5
62
330
60
100
AcDbEntity
  8
0
100
AcDbBlockEnd
  0
BLOCK
  5
3EB
330
3E4
100
AcDbEntity
  8
0
100
AcDbBlockBegin
  2
*D016
 70
     1
 71
     0
 10
0.0
 20
0.0
 30
0.0
  3
*D016
  1

  0
LINE
  5
3E5
330
3E4
100
AcDbEntity
  8
0
  6
Continuous
 62
     2
100
AcDbLine
 10
353.9123491219016
 20
197.2241048150636
 30
0.0
 11
353.9123491219016
 21
174.174104815063
 31
0.0
  0
LINE
  5
3E6
330
3E4
100
AcDbEntity
  8
0
  6
Continuous
 62
     2
100
AcDbLine
 10
301.4498469181381
 20
174.174104815063
 30
0.0
 11
355.9123491219016
 21
174.174104815063
 31
0.0
  0
LINE
  5
3E7
330
3E4
100
AcDbEntity
  8
0
  6
Continuous
 62
     2
100
AcDbLine
 10
301.4206967266728
 20
197.2241048150636
 30
0.0
 11
355.9123491219016
 21
197.2241048150636
 31
0.0
  0
SOLID
  5
3E8
330
3E4
100
AcDbEntity
  8
0
 62
     2
100
AcDbTrace
 10
354.8339166050134
 20
190.2241048150636
 30
0.0
 11
352.9907816387899
 21
190.2241048150636
 31
0.0
 12
353.9123491219016
 22
197.2241048150636
 32
0.0
 13
353.9123491219016
 23
197.2241048150636
 33
0.0
  0
SOLID
  5
3E9
330
3E4
100
AcDbEntity
  8
0
 62
     2
100
AcDbTrace
 10
352.9907816387899
 20
181.174104815063
 30
0.0
 11
354.8339166050134
 21
181.174104815063
 31
0.0
 12
353.9123491219016
 22
174.174104815063
 32
0.0
 13
353.9123491219016
 23
174.174104815063
 33
0.0
  0
MTEXT
  5
3EA
330
3E4
100
AcDbEntity
  8
0
 62
     7
100
AcDbMText
 10
351.9123491219016
 20
180.3988213642506
 30
0.0
 40
7.0
 41
0.0
 71
     7
 72
     1
  1
23
  7
CONVERTER_5
 11
0.0
 21
1.0
 31
0.0
 73
     1
 44
0.60024009603842
  0
ENDBLK
  5
3EC
330
3E4
100
AcDbEntity
  8
0
100
AcDbBlockEnd
  0
BLOCK
  5
3F8
330
3EF
100
AcDbEntity
  8
0
100
AcDbBlockBegin
  2
*D117
 70
     1
 71
     0
 10
0.0
 20
0.0
 30
0.0
  3
*D117
  1

  0
LINE
  5
3F0
330
3EF
100
AcDbEntity
  8
0
  6
Continuous
 62
     2
100
AcDbLine
 10
88.47286925200206
 20
160.1741048150634
 30
0.0
 11
88.47286925200206
 21
174.1741048150634
 31
0.0
  0
LINE
  5
3F1
330
3EF
100
AcDbEntity
  8
0
  6
Continuous
 62
     2
100
AcDbLine
 10
88.47286925200206
 20
174.1741048150634
 30
0.0
 11
88.47286925200206
 21
186.8241048150644
 31
0.0
  0
LINE
  5
3F2
330
3EF
100
AcDbEntity
  8
0
  6
Continuous
 62
     2
100
AcDbLine
 10
88.47286925200206
 20
186.8241048150644
 30
0.0
 11
88.47286925200206
 21
200.8241048150644
 31
0.0
  0
LINE
  5
3F3
330
3EF
100
AcDbEntity
  8
0
  6
Continuous
 62
     2
100
AcDbLine
 10
124.4955344993214
 20
186.8241048150644
 30
0.0
 11
86.47286925200206
 21
186.8241048150644
 31
0.0
  0
LINE
  5
3F4
330
3EF
100
AcDbEntity
  8
0
  6
Continuous
 62
     2
100
AcDbLine
 10
154.5955347136824
 20
174.1741048150634
 30
0.0
 11
86.47286925200206
 21
174.1741048150634
 31
0.0
  0
SOLID
  5
3F5
330
3EF
100
AcDbEntity
  8
0
 62
     2
100
AcDbTrace
 10
89.39443673511383
 20
167.1741048150634
 30
0.0
 11
87.55130176889028
 21
167.1741048150634
 31
0.0
 12
88.47286925200206
 22
174.1741048150634
 32
0.0
 13
88.47286925200206
 23
174.1741048150634
 33
0.0
  0
SOLID
  5
3F6
330
3EF
100
AcDbEntity
  8
0
 62
     2
100
AcDbTrace
 10
87.55130176889028
 20
193.8241048150644
 30
0.0
 11
89.39443673511383
 21
193.8241048150644
 31
0.0
 12
88.47286925200206
 22
186.8241048150644
 32
0.0
 13
88.47286925200206
 23
186.8241048150644
 33
0.0
  0
MTEXT
  5
3F7
330
3EF
100
AcDbEntity
  8
0
 62
     7
100
AcDbMText
 10
86.47286925200206
 20
175.7459229634904
 30
0.0
 40
7.0
 41
0.0
 71
     7
 72
     1
  1
13
  7
CONVERTER_5
 11
0.0
 21
1.0
 31
0.0
 73
     1
 44
0.60024009603842
  0
ENDBLK
  5
3F9
330
3EF
100
AcDbEntity
  8
0
100
AcDbBlockEnd
  0
BLOCK
  5
405
330
3FC
100
AcDbEntity
  8
0
100
AcDbBlockBegin
  2
*D218
 70
     1
 71
     0
 10
0.0
 20
0.0
 30
0.0
  3
*D218
  1

  0
LINE
  5
3FD
330
3FC
100
AcDbEntity
  8
0
  6
Continuous
 62
     2
100
AcDbLine
 10
237.4991561297045
 20
259.8195737049389
 30
0.0
 11
254.9310757179003
 21
229.6266033047315
 31
0.0
  0
LINE
  5
3FE
330
3FC
100
AcDbEntity
  8
0
  6
Continuous
 62
     2
100
AcDbLine
 10
254.9310757179003
 20
229.6266033047315
 30
0.0
 11
262.7810757179007
 21
216.0300044653166
 31
0.0
  0
LINE
  5
3FF
330
3FC
100
AcDbEntity
  8
0
  6
Continuous
 62
     2
100
AcDbLine
 10
262.7810757179007
 20
216.0300044653166
 30
0.0
 11
269.7810757179011
 21
203.9056488123347
 31
0.0
  0
LINE
  5
400
330
3FC
100
AcDbEntity
  8
0
  6
Continuous
 62
     2
100
AcDbLine
 10
259.8550283833629
 20
214.3406502490594
 30
0.0
 11
264.5131265254694
 21
217.0300044653167
 31
0.0
  0
LINE
  5
401
330
3FC
100
AcDbEntity
  8
0
  6
Continuous
 62
     2
100
AcDbLine
 10
252.0050283833623
 20
227.9372490884742
 30
0.0
 11
256.6631265254691
 21
230.6266033047315
 31
0.0
  0
SOLID
  5
402
330
3FC
100
AcDbEntity
  8
0
 62
     2
100
AcDbTrace
 10
250.6329748662237
 20
235.2279973896665
 30
0.0
 11
252.2291765695766
 21
236.1495648727783
 31
0.0
 12
254.9310757179003
 22
229.6266033047315
 32
0.0
 13
254.9310757179003
 23
229.6266033047315
 33
0.0
  0
SOLID
  5
403
330
3FC
100
AcDbEntity
  8
0
 62
     2
100
AcDbTrace
 10
267.0791765695774
 20
210.4286103803817
 30
0.0
 11
265.4829748662245
 21
209.5070428972698
 31
0.0
 12
262.7810757179007
 22
216.0300044653166
 32
0.0
 13
262.7810757179007
 23
216.0300044653166
 33
0.0
  0
MTEXT
  5
404
330
3FC
100
AcDbEntity
  8
0
 62
     7
100
AcDbMText
 10
238.2974247199223
 20
263.836931948595
 30
0.0
 40
7.0
 41
0.0
 71
     7
 72
     1
  1
\C7;{\Fgdt;n}\C7;15,7
  7
CONVERTER_5
 11
0.5000000000000353
 21
-0.8660254037844183
 31
0.0
 73
     1
 44
0.60024009603842
  0
ENDBLK
  5
406
330
3FC
100
AcDbEntity
  8
0
100
AcDbBlockEnd
  0
BLOCK
  5
412
330
409
100
AcDbEntity
  8
0
100
AcDbBlockBegin
  2
*D319
 70
     1
 71
     0
 10
0.0
 20
0.0
 30
0.0
  3
*D319
  1

  0
LINE
  5
40A
330
409
100
AcDbEntity
  8
1
  6
Continuous
 62
     2
100
AcDbLine
 10
348.8433691341015
 20
435.1716770693984
 30
0.0
 11
348.8433691341015
 21
449.1716770693984
 31
0.0
  0
LINE
  5
40B
330
409
100
AcDbEntity
  8
1
  6
Continuous
 62
     2
100
AcDbLine
 10
348.8433691341015
 20
449.1716770693984
 30
0.0
 11
348.8433691341015
 21
468.4116770693986
 31
0.0
  0
LINE
  5
40C
330
409
100
AcDbEntity
  8
1
  6
Continuous
 62
     2
100
AcDbLine
 10
348.8433691341015
 20
468.4116770693986
 30
0.0
 11
348.8433691341015
 21
482.4116770693986
 31
0.0
  0
LINE
  5
40D
330
409
100
AcDbEntity
  8
1
  6
Continuous
 62
     2
100
AcDbLine
 10
331.0570954073228
 20
468.4116770693986
 30
0.0
 11
350.8433691341015
 21
468.4116770693986
 31
0.0
  0
LINE
  5
40E
330
409
100
AcDbEntity
  8
1
  6
Continuous
 62
     2
100
AcDbLine
 10
327.6070954073221
 20
449.1716770693984
 30
0.0
 11
350.8433691341015
 21
449.1716770693984
 31
0.0
  0
SOLID
  5
40F
330
409
100
AcDbEntity
  8
1
 62
     2
100
AcDbTrace
 10
349.7649366172133
 20
442.1716770693984
 30
0.0
 11
347.9218016509898
 21
442.1716770693984
 31
0.0
 12
348.8433691341015
 22
449.1716770693984
 32
0.0
 13
348.8433691341015
 23
449.1716770693984
 33
0.0
  0
SOLID
  5
410
330
409
100
AcDbEntity
  8
1
 62
     2
100
AcDbTrace
 10
347.9218016509898
 20
475.4116770693986
 30
0.0
 11
349.7649366172133
 21
475.4116770693986
 31
0.0
 12
348.8433691341015
 22
468.4116770693986
 32
0.0
 13
348.8433691341015
 23
468.4116770693986
 33
0.0
  0
MTEXT
  5
411
330
409
100
AcDbEntity
  8
1
 62
     7
100
AcDbMText
 10
346.8433691341015
 20
454.3756669045704
 30
0.0
 40
7.0
 41
0.0
 71
     7
 72
     1
  1
19
  7
CONVERTER_5
 11
0.0
 21
1.0
 31
0.0
 73
     1
 44
0.60024009603842
  0
ENDBLK
  5
413
330
409
100
AcDbEntity
  8
0
100
AcDbBlockEnd
  0
BLOCK
  5
41D
330
416
100
AcDbEntity
  8
0
100
AcDbBlockBegin
  2
*D420
 70
     1
 71
     0
 10
0.0
 20
0.0
 30
0.0
  3
*D420
  1

  0
LINE
  5
417
330
416
100
AcDbEntity
  8
1
  6
Continuous
 62
     2
100
AcDbLine
 10
353.9706605549727
 20
197.2241048150635
 30
0.0
 11
353.9706605549727
 21
309.1241048150636
 31
0.0
  0
LINE
  5
418
330
416
100
AcDbEntity
  8
1
  6
Continuous
 62
     2
100
AcDbLine
 10
301.4206967266728
 20
197.2241048150635
 30
0.0
 11
355.9706605549727
 21
197.2241048150635
 31
0.0
  0
LINE
  5
419
330
416
100
AcDbEntity
  8
1
  6
Continuous
 62
     2
100
AcDbLine
 10
330.6706605549716
 20
309.1241048150636
 30
0.0
 11
355.9706605549727
 21
309.1241048150636
 31
0.0
  0
SOLID
  5
41A
330
416
100
AcDbEntity
  8
1
 62
     2
100
AcDbTrace
 10
353.049093071861
 20
204.2241048150635
 30
0.0
 11
354.8922280380845
 21
204.2241048150635
 31
0.0
 12
353.9706605549727
 22
197.2241048150635
 32
0.0
 13
353.9706605549727
 23
197.2241048150635
 33
0.0
  0
SOLID
  5
41B
330
416
100
AcDbEntity
  8
1
 62
     2
100
AcDbTrace
 10
354.8922280380845
 20
302.1241048150636
 30
0.0
 11
353.049093071861
 21
302.1241048150636
 31
0.0
 12
353.9706605549727
 22
309.1241048150636
 32
0.0
 13
353.9706605549727
 23
309.1241048150636
 33
0.0
  0
MTEXT
  5
41C
330
416
100
AcDbEntity
  8
1
 62
     7
100
AcDbMText
 10
351.9706605549727
 20
226.9517247376704
 30
0.0
 40
7.0
 41
0.0
 71
     7
 72
     1
  1
113(開口寸法115)
  7
CONVERTER_1
 11
0.0
 21
1.0
 31
0.0
 73
     1
 44
0.60024009603842
  0
ENDBLK
  5
41E
330
416
100
AcDbEntity
  8
0
100
AcDbBlockEnd
  0
BLOCK
  5
428
330
421
100
AcDbEntity
  8
0
100
AcDbBlockBegin
  2
*D521
 70
     1
 71
     0
 10
0.0
 20
0.0
 30
0.0
  3
*D521
  1

  0
LINE
  5
422
330
421
100
AcDbEntity
  8
1
  6
Continuous
 62
     2
100
AcDbLine
 10
125.495534713682
 20
450.3770997423803
 30
0.0
 11
208.6955347136827
 21
450.3770997423803
 31
0.0
  0
LINE
  5
423
330
421
100
AcDbEntity
  8
1
  6
Continuous
 62
     2
100
AcDbLine
 10
208.6955347136827
 20
433.0058765066374
 30
0.0
 11
208.6955347136827
 21
452.3770997423803
 31
0.0
  0
LINE
  5
424
330
421
100
AcDbEntity
  8
1
  6
Continuous
 62
     2
100
AcDbLine
 10
125.495534713682
 20
433.0058765066374
 30
0.0
 11
125.495534713682
 21
452.3770997423803
 31
0.0
  0
SOLID
  5
425
330
421
100
AcDbEntity
  8
1
 62
     2
100
AcDbTrace
 10
132.495534713682
 20
451.2986672254921
 30
0.0
 11
132.495534713682
 21
449.4555322592686
 31
0.0
 12
125.495534713682
 22
450.3770997423803
 32
0.0
 13
125.495534713682
 23
450.3770997423803
 33
0.0
  0
SOLID
  5
426
330
421
100
AcDbEntity
  8
1
 62
     2
100
AcDbTrace
 10
201.6955347136827
 20
449.4555322592686
 30
0.0
 11
201.6955347136827
 21
451.2986672254921
 31
0.0
 12
208.6955347136827
 22
450.3770997423803
 32
0.0
 13
208.6955347136827
 23
450.3770997423803
 33
0.0
  0
MTEXT
  5
427
330
421
100
AcDbEntity
  8
1
 62
     7
100
AcDbMText
 10
138.5260587317014
 20
452.3770997423803
 30
0.0
 40
7.0
 41
0.0
 71
     7
 72
     1
  1
84(開口寸法86)
  7
CONVERTER_1
 11
0.9999999999970621
 21
2.424068405545307E-6
 31
0.0
 73
     1
 44
0.60024009603842
  0
ENDBLK
  5
429
330
421
100
AcDbEntity
  8
0
100
AcDbBlockEnd
  0
BLOCK
  5
433
330
42C
100
AcDbEntity
  8
0
100
AcDbBlockBegin
  2
*D622
 70
     1
 71
     0
 10
0.0
 20
0.0
 30
0.0
  3
*D622
  1

  0
LINE
  5
42D
330
42C
100
AcDbEntity
  8
1
  6
Continuous
 62
     2
100
AcDbLine
 10
283.4206967266728
 20
163.4202813821403
 30
0.0
 11
246.5774804836328
 21
163.4202813821403
 31
0.0
  0
LINE
  5
42E
330
42C
100
AcDbEntity
  8
1
  6
Continuous
 62
     2
100
AcDbLine
 10
246.5774804836328
 20
215.0744878795545
 30
0.0
 11
246.5774804836328
 21
161.4202813821403
 31
0.0
  0
LINE
  5
42F
330
42C
100
AcDbEntity
  8
1
  6
Continuous
 62
     2
100
AcDbLine
 10
283.4206967266728
 20
186.8241048150644
 30
0.0
 11
283.4206967266728
 21
161.4202813821403
 31
0.0
  0
SOLID
  5
430
330
42C
100
AcDbEntity
  8
1
 62
     2
100
AcDbTrace
 10
276.4206967266728
 20
162.4987138990285
 30
0.0
 11
276.4206967266728
 21
164.3418488652521
 31
0.0
 12
283.4206967266728
 22
163.4202813821403
 32
0.0
 13
283.4206967266728
 23
163.4202813821403
 33
0.0
  0
SOLID
  5
431
330
42C
100
AcDbEntity
  8
1
 62
     2
100
AcDbTrace
 10
253.5774804836328
 20
164.3418488652521
 30
0.0
 11
253.5774804836328
 21
162.4987138990285
 31
0.0
 12
246.5774804836328
 22
163.4202813821403
 32
0.0
 13
246.5774804836328
 23
163.4202813821403
 33
0.0
  0
MTEXT
  5
432
330
42C
100
AcDbEntity
  8
1
 62
     7
100
AcDbMText
 10
259.8781282610016
 20
165.4202813821403
 30
0.0
 40
7.0
 41
0.0
 71
     7
 72
     1
  1
37
  7
CONVERTER_5
 11
0.9999999999970621
 21
2.424068405545307E-6
 31
0.0
 73
     1
 44
0.60024009603842
  0
ENDBLK
  5
434
330
42C
100
AcDbEntity
  8
0
100
AcDbBlockEnd
  0
BLOCK
  5
43E
330
437
100
AcDbEntity
  8
0
100
AcDbBlockBegin
  2
*D723
 70
     1
 71
     0
 10
0.0
 20
0.0
 30
0.0
  3
*D723
  1

  0
LINE
  5
438
330
437
100
AcDbEntity
  8
1
  6
Continuous
 62
     2
100
AcDbLine
 10
252.3106702912628
 20
384.5058765066374
 30
0.0
 11
252.3106702912628
 21
415.7933704499697
 31
0.0
  0
LINE
  5
439
330
437
100
AcDbEntity
  8
1
  6
Continuous
 62
     2
100
AcDbLine
 10
223.8957761155216
 20
415.7933704499697
 30
0.0
 11
254.3106702912628
 21
415.7933704499697
 31
0.0
  0
LINE
  5
43A
330
437
100
AcDbEntity
  8
1
  6
Continuous
 62
     2
100
AcDbLine
 10
217.6955347136827
 20
384.5058765066374
 30
0.0
 11
254.3106702912628
 21
384.5058765066374
 31
0.0
  0
SOLID
  5
43B
330
437
100
AcDbEntity
  8
1
 62
     2
100
AcDbTrace
 10
251.389102808151
 20
391.5058765066374
 30
0.0
 11
253.2322377743746
 21
391.5058765066374
 31
0.0
 12
252.3106702912628
 22
384.5058765066374
 32
0.0
 13
252.3106702912628
 23
384.5058765066374
 33
0.0
  0
SOLID
  5
43C
330
437
100
AcDbEntity
  8
1
 62
     2
100
AcDbTrace
 10
253.2322377743746
 20
408.7933704499697
 30
0.0
 11
251.389102808151
 21
408.7933704499697
 31
0.0
 12
252.3106702912628
 22
415.7933704499697
 32
0.0
 13
252.3106702912628
 23
415.7933704499697
 33
0.0
  0
MTEXT
  5
43D
330
437
100
AcDbEntity
  8
1
 62
     7
100
AcDbMText
 10
250.3106702912628
 20
389.8864252445955
 30
0.0
 40
7.0
 41
0.0
 71
     7
 72
     1
  1
8～15
  7
CONVERTER_1
 11
0.0
 21
1.0
 31
0.0
 73
     1
 44
0.60024009603842
  0
ENDBLK
  5
43F
330
437
100
AcDbEntity
  8
0
100
AcDbBlockEnd
  0
BLOCK
  5
449
330
442
100
AcDbEntity
  8
0
100
AcDbBlockBegin
  2
*D824
 70
     1
 71
     0
 10
0.0
 20
0.0
 30
0.0
  3
*D824
  1

  0
LINE
  5
443
330
442
100
AcDbEntity
  8
1
  6
Continuous
 62
     2
100
AcDbLine
 10
88.29529331185222
 20
317.0241048150624
 30
0.0
 11
88.29529331185222
 21
186.8241048150644
 31
0.0
  0
LINE
  5
444
330
442
100
AcDbEntity
  8
1
  6
Continuous
 62
     2
100
AcDbLine
 10
124.495534713682
 20
186.8241048150644
 30
0.0
 11
86.29529331185222
 21
186.8241048150644
 31
0.0
  0
LINE
  5
445
330
442
100
AcDbEntity
  8
1
  6
Continuous
 62
     2
100
AcDbLine
 10
124.495534713682
 20
317.0241048150624
 30
0.0
 11
86.29529331185222
 21
317.0241048150624
 31
0.0
  0
SOLID
  5
446
330
442
100
AcDbEntity
  8
1
 62
     2
100
AcDbTrace
 10
89.21686079496399
 20
310.0241048150624
 30
0.0
 11
87.37372582874045
 21
310.0241048150624
 31
0.0
 12
88.29529331185222
 22
317.0241048150624
 32
0.0
 13
88.29529331185222
 23
317.0241048150624
 33
0.0
  0
SOLID
  5
447
330
442
100
AcDbEntity
  8
1
 62
     2
100
AcDbTrace
 10
87.37372582874045
 20
193.8241048150644
 30
0.0
 11
89.21686079496399
 21
193.8241048150644
 31
0.0
 12
88.29529331185222
 22
186.8241048150644
 32
0.0
 13
88.29529331185222
 23
186.8241048150644
 33
0.0
  0
MTEXT
  5
448
330
442
100
AcDbEntity
  8
1
 62
     7
100
AcDbMText
 10
86.29529331185222
 20
243.3291571595116
 30
0.0
 40
7.0
 41
0.0
 71
     7
 72
     1
  1
131
  7
CONVERTER_5
 11
0.0
 21
1.0
 31
0.0
 73
     1
 44
0.60024009603842
  0
ENDBLK
  5
44A
330
442
100
AcDbEntity
  8
0
100
AcDbBlockEnd
  0
BLOCK
  5
453
330
44D
100
AcDbEntity
  8
0
100
AcDbBlockBegin
  2
*D925
 70
     1
 71
     0
 10
0.0
 20
0.0
 30
0.0
  3
*D925
  1

  0
LINE
  5
44E
330
44D
100
AcDbEntity
  8
1
  6
Continuous
 62
     2
100
AcDbLine
 10
283.4206967266727
 20
339.0241048150624
 30
0.0
 11
311.4706605549727
 21
339.0241048150624
 31
0.0
  0
LINE
  5
44F
330
44D
100
AcDbEntity
  8
1
  6
Continuous
 62
     2
100
AcDbLine
 10
311.4706605549727
 20
297.8391941522546
 30
0.0
 11
311.4706605549727
 21
341.0241048150624
 31
0.0
  0
LINE
  5
450
330
44D
100
AcDbEntity
  8
1
  6
Continuous
 62
     2
100
AcDbLine
 10
283.4206967266727
 20
317.0241048150624
 30
0.0
 11
283.4206967266727
 21
341.0241048150624
 31
0.0
  0
SOLID
  5
451
330
44D
100
AcDbEntity
  8
1
 62
     2
100
AcDbTrace
 10
304.4706605549727
 20
338.1025373319507
 30
0.0
 11
304.4706605549727
 21
339.9456722981741
 31
0.0
 12
311.4706605549727
 22
339.0241048150624
 32
0.0
 13
311.4706605549727
 23
339.0241048150624
 33
0.0
  0
MTEXT
  5
452
330
44D
100
AcDbEntity
  8
1
 62
     7
100
AcDbMText
 10
291.0410890310213
 20
341.0241048150624
 30
0.0
 40
7.0
 41
0.0
 71
     7
 72
     1
  1
29
  7
CONVERTER_5
 11
0.9999999999970621
 21
2.424068405545307E-6
 31
0.0
 73
     1
 44
0.60024009603842
  0
ENDBLK
  5
454
330
44D
100
AcDbEntity
  8
0
100
AcDbBlockEnd
  0
BLOCK
  5
456
330
455
100
AcDbEntity
  8
0
100
AcDbBlockBegin
  2
_None
 70
     0
 71
     0
 10
0.0
 20
0.0
 30
0.0
  3
_None
  1

  0
ENDBLK
  5
457
330
455
100
AcDbEntity
  8
0
100
AcDbBlockEnd
  0
BLOCK
  5
463
330
45A
100
AcDbEntity
  8
0
100
AcDbBlockBegin
  2
*D1027
 70
     1
 71
     0
 10
0.0
 20
0.0
 30
0.0
  3
*D1027
  1

  0
LINE
  5
45B
330
45A
100
AcDbEntity
  8
1
  6
Continuous
 62
     2
100
AcDbLine
 10
297.4206967266728
 20
339.0241048150624
 30
0.0
 11
283.4206967266728
 21
339.0241048150624
 31
0.0
  0
LINE
  5
45C
330
45A
100
AcDbEntity
  8
1
  6
Continuous
 62
     2
100
AcDbLine
 10
283.4206967266728
 20
339.0241048150624
 30
0.0
 11
276.6706967266728
 21
339.0241048150624
 31
0.0
  0
LINE
  5
45D
330
45A
100
AcDbEntity
  8
1
  6
Continuous
 62
     2
100
AcDbLine
 10
276.6706967266728
 20
339.0241048150624
 30
0.0
 11
262.6706967266728
 21
339.0241048150624
 31
0.0
  0
LINE
  5
45E
330
45A
100
AcDbEntity
  8
1
  6
Continuous
 62
     2
100
AcDbLine
 10
276.6706967266728
 20
315.0241048150624
 30
0.0
 11
276.6706967266728
 21
341.0241048150624
 31
0.0
  0
LINE
  5
45F
330
45A
100
AcDbEntity
  8
1
  6
Continuous
 62
     2
100
AcDbLine
 10
283.4206967266728
 20
317.0241048150624
 30
0.0
 11
283.4206967266728
 21
341.0241048150624
 31
0.0
  0
SOLID
  5
460
330
45A
100
AcDbEntity
  8
1
 62
     2
100
AcDbTrace
 10
290.4206967266728
 20
339.9456722981741
 30
0.0
 11
290.4206967266728
 21
338.1025373319507
 31
0.0
 12
283.4206967266728
 22
339.0241048150624
 32
0.0
 13
283.4206967266728
 23
339.0241048150624
 33
0.0
  0
SOLID
  5
461
330
45A
100
AcDbEntity
  8
1
 62
     2
100
AcDbTrace
 10
269.6706967266728
 20
338.1025373319507
 30
0.0
 11
269.6706967266728
 21
339.9456722981741
 31
0.0
 12
276.6706967266728
 22
339.0241048150624
 32
0.0
 13
276.6706967266728
 23
339.0241048150624
 33
0.0
  0
MTEXT
  5
462
330
45A
100
AcDbEntity
  8
1
 62
     7
100
AcDbMText
 10
262.7025392417512
 20
341.0241048150624
 30
0.0
 40
7.0
 41
0.0
 71
     7
 72
     1
  1
7
  7
CONVERTER_5
 11
0.9999999999970621
 21
2.424068405545307E-6
 31
0.0
 73
     1
 44
0.60024009603842
  0
ENDBLK
  5
464
330
45A
100
AcDbEntity
  8
0
100
AcDbBlockEnd
  0
BLOCK
  5
46E
330
467
100
AcDbEntity
  8
0
100
AcDbBlockBegin
  2
*D1128
 70
     1
 71
     0
 10
0.0
 20
0.0
 30
0.0
  3
*D1128
  1

  0
LINE
  5
468
330
467
100
AcDbEntity
  8
1
  6
Continuous
 62
     2
100
AcDbLine
 10
283.4206967266728
 20
355.0241048150624
 30
0.0
 11
332.6706605549716
 21
355.0241048150624
 31
0.0
  0
LINE
  5
469
330
467
100
AcDbEntity
  8
1
  6
Continuous
 62
     2
100
AcDbLine
 10
332.6706605549716
 20
306.6241048150637
 30
0.0
 11
332.6706605549716
 21
357.0241048150624
 31
0.0
  0
LINE
  5
46A
330
467
100
AcDbEntity
  8
1
  6
Continuous
 62
     2
100
AcDbLine
 10
283.4206967266728
 20
317.0241048150624
 30
0.0
 11
283.4206967266728
 21
357.0241048150624
 31
0.0
  0
SOLID
  5
46B
330
467
100
AcDbEntity
  8
1
 62
     2
100
AcDbTrace
 10
290.4206967266728
 20
355.9456722981741
 30
0.0
 11
290.4206967266728
 21
354.1025373319507
 31
0.0
 12
283.4206967266728
 22
355.0241048150624
 32
0.0
 13
283.4206967266728
 23
355.0241048150624
 33
0.0
  0
SOLID
  5
46C
330
467
100
AcDbEntity
  8
1
 62
     2
100
AcDbTrace
 10
325.6706605549716
 20
354.1025373319507
 30
0.0
 11
325.6706605549716
 21
355.9456722981741
 31
0.0
 12
332.6706605549716
 22
355.0241048150624
 32
0.0
 13
332.6706605549716
 23
355.0241048150624
 33
0.0
  0
MTEXT
  5
46D
330
467
100
AcDbEntity
  8
1
 62
     7
100
AcDbMText
 10
302.6864973125412
 20
357.0241048150624
 30
0.0
 40
7.0
 41
0.0
 71
     7
 72
     1
  1
50
  7
CONVERTER_5
 11
0.9999999999970621
 21
2.424068405545307E-6
 31
0.0
 73
     1
 44
0.60024009603842
  0
ENDBLK
  5
46F
330
467
100
AcDbEntity
  8
0
100
AcDbBlockEnd
  0
BLOCK
  5
479
330
472
100
AcDbEntity
  8
0
100
AcDbBlockBegin
  2
*D1229
 70
     1
 71
     0
 10
0.0
 20
0.0
 30
0.0
  3
*D1229
  1

  0
LINE
  5
473
330
472
100
AcDbEntity
  8
1
  6
Continuous
 62
     2
100
AcDbLine
 10
110.2952933118523
 20
470.4513789736807
 30
0.0
 11
223.8957761155216
 21
470.4513789736807
 31
0.0
  0
LINE
  5
474
330
472
100
AcDbEntity
  8
1
  6
Continuous
 62
     2
100
AcDbLine
 10
223.8957761155216
 20
416.7933704499696
 30
0.0
 11
223.8957761155216
 21
472.4513789736807
 31
0.0
  0
LINE
  5
475
330
472
100
AcDbEntity
  8
1
  6
Continuous
 62
     2
100
AcDbLine
 10
110.2952933118523
 20
416.7933704499696
 30
0.0
 11
110.2952933118523
 21
472.4513789736807
 31
0.0
  0
SOLID
  5
476
330
472
100
AcDbEntity
  8
1
 62
     2
100
AcDbTrace
 10
117.2952933118523
 20
471.3729464567924
 30
0.0
 11
117.2952933118523
 21
469.5298114905689
 31
0.0
 12
110.2952933118523
 22
470.4513789736807
 32
0.0
 13
110.2952933118523
 23
470.4513789736807
 33
0.0
  0
SOLID
  5
477
330
472
100
AcDbEntity
  8
1
 62
     2
100
AcDbTrace
 10
216.8957761155216
 20
469.5298114905689
 30
0.0
 11
216.8957761155216
 21
471.3729464567924
 31
0.0
 12
223.8957761155216
 22
470.4513789736807
 32
0.0
 13
223.8957761155216
 23
470.4513789736807
 33
0.0
  0
MTEXT
  5
478
330
472
100
AcDbEntity
  8
1
 62
     7
100
AcDbMText
 10
160.1685387607024
 20
472.4513789736807
 30
0.0
 40
7.0
 41
0.0
 71
     7
 72
     1
  1
114
  7
CONVERTER_5
 11
0.9999999999970621
 21
2.424068405545307E-6
 31
0.0
 73
     1
 44
0.60024009603842
  0
ENDBLK
  5
47A
330
472
100
AcDbEntity
  8
0
100
AcDbBlockEnd
  0
BLOCK
  5
484
330
47D
100
AcDbEntity
  8
0
100
AcDbBlockBegin
  2
*D1330
 70
     1
 71
     0
 10
0.0
 20
0.0
 30
0.0
  3
*D1330
  1

  0
LINE
  5
47E
330
47D
100
AcDbEntity
  8
0
  6
Continuous
 62
     2
100
AcDbLine
 10
116.495534713682
 20
328.2525427079104
 30
0.0
 11
217.6955347136828
 21
328.2525427079104
 31
0.0
  0
LINE
  5
47F
330
47D
100
AcDbEntity
  8
0
  6
Continuous
 62
     2
100
AcDbLine
 10
217.6955347136828
 20
309.0241048150624
 30
0.0
 11
217.6955347136828
 21
330.2525427079104
 31
0.0
  0
LINE
  5
480
330
47D
100
AcDbEntity
  8
0
  6
Continuous
 62
     2
100
AcDbLine
 10
116.495534713682
 20
309.0241043863443
 30
0.0
 11
116.495534713682
 21
330.2525427079104
 31
0.0
  0
SOLID
  5
481
330
47D
100
AcDbEntity
  8
0
 62
     2
100
AcDbTrace
 10
123.495534713682
 20
329.1741101910221
 30
0.0
 11
123.495534713682
 21
327.3309752247986
 31
0.0
 12
116.495534713682
 22
328.2525427079104
 32
0.0
 13
116.495534713682
 23
328.2525427079104
 33
0.0
  0
SOLID
  5
482
330
47D
100
AcDbEntity
  8
0
 62
     2
100
AcDbTrace
 10
210.6955347136828
 20
327.3309752247986
 30
0.0
 11
210.6955347136828
 21
329.1741101910221
 31
0.0
 12
217.6955347136828
 22
328.2525427079104
 32
0.0
 13
217.6955347136828
 23
328.2525427079104
 33
0.0
  0
MTEXT
  5
483
330
47D
100
AcDbEntity
  8
0
 62
     7
100
AcDbMText
 10
158.7112906464012
 20
330.2525427079104
 30
0.0
 40
7.0
 41
0.0
 71
     7
 72
     1
  1
102
  7
CONVERTER_5
 11
0.9999999999970621
 21
2.424068405545307E-6
 31
0.0
 73
     1
 44
0.60024009603842
  0
ENDBLK
  5
485
330
47D
100
AcDbEntity
  8
0
100
AcDbBlockEnd
  0
ENDSEC
  0
SECTION
  2
ENTITIES
  0
INSERT
  5
63
330
1F
100
AcDbEntity
  8
0
100
AcDbBlockReference
  2
V097-H7A
 10
2.34768686087227
 20
891.7662751531316
 30
0.0
  0
INSERT
  5
64
330
1F
100
AcDbEntity
  8
0
100
AcDbBlockReference
  2
88-249
 10
429.1318430265328
 20
484.4629202315873
 30
0.0
  0
INSERT
  5
65
330
1F
100
AcDbEntity
  8
0
100
AcDbBlockReference
  2
V97-30-Z1__1
 10
521.0570954073228
 20
246.1716770693975
 30
0.0
  0
INSERT
  5
66
330
1F
100
AcDbEntity
  8
0
100
AcDbBlockReference
  2
V97-30-Z1__2
 10
531.0570954073228
 20
246.1716770693975
 30
0.0
  0
INSERT
  5
67
330
1F
100
AcDbEntity
  8
0
100
AcDbBlockReference
  2
V97-H11
 10
870.3613366859518
 20
675.6735769298475
 30
0.0
  0
INSERT
  5
68
330
1F
100
AcDbEntity
  8
0
100
AcDbBlockReference
  2
V97-H12
 10
934.311836477862
 20
100.0368472018595
 30
0.0
  0
INSERT
  5
69
330
1F
100
AcDbEntity
  8
1
100
AcDbBlockReference
  2
BIS
 10
301.4206967266728
 20
226.8741048150623
 30
0.0
  0
INSERT
  5
6A
330
1F
100
AcDbEntity
  8
1
100
AcDbBlockReference
  2
BIS2
 10
330.4706605549727
 20
231.6241048150623
 30
0.0
  0
INSERT
  5
6B
330
1F
100
AcDbEntity
  8
0
100
AcDbBlockReference
  2
V97D-H1
 10
275.7761987366921
 20
540.3281525258526
 30
0.0
  0
INSERT
  5
6C
330
1F
100
AcDbEntity
  8
0
100
AcDbBlockReference
  2
V972GN-H6
 10
678.2275665666712
 20
-362.0823518789707
 30
0.0
  0
INSERT
  5
6D
330
1F
100
AcDbEntity
  8
0
100
AcDbBlockReference
  2
V972GN-H2
 10
920.2317612857423
 20
214.3406502490584
 30
0.0
  0
INSERT
  5
6E
330
1F
100
AcDbEntity
  8
0
100
AcDbBlockReference
  2
V97G-H2
 10
728.2826524475222
 20
99.7892089216316
 30
0.0
  0
INSERT
  5
6F
330
1F
100
AcDbEntity
  8
0
100
AcDbBlockReference
  2
V97G-H3
 10
682.8456586784214
 20
463.5013316221484
 30
0.0
  0
INSERT
  5
70
330
1F
100
AcDbEntity
  8
0
100
AcDbBlockReference
  2
V972GN-H3
 10
840.9875665666714
 20
221.6741048150634
 30
0.0
  0
INSERT
  5
71
330
1F
100
AcDbEntity
  8
1
100
AcDbBlockReference
  2
_J__A4
 10
0.0
 20
0.0
 30
0.0
 41
2.0
 42
2.0
 43
2.0
  0
LINE
  5
3A9
330
1F
100
AcDbEntity
  8
0
  6
Continuous
 62
     7
100
AcDbLine
 10
154.5955347136824
 20
174.1741048150634
 30
0.0
 11
177.0302544101814
 21
174.1741048150634
 31
0.0
  0
LINE
  5
3AA
330
1F
100
AcDbEntity
  8
0
  6
Continuous
 62
     7
100
AcDbLine
 10
154.5955347136824
 20
174.1741048150634
 30
0.0
 11
154.0955347136824
 21
174.6741048150634
 31
0.0
  0
LINE
  5
3AB
330
1F
100
AcDbEntity
  8
0
  6
Continuous
 62
     7
100
AcDbLine
 10
180.0955347136824
 20
174.6741048150634
 30
0.0
 11
179.5955347136824
 21
174.1741048150634
 31
0.0
  0
LINE
  5
3AC
330
1F
100
AcDbEntity
  8
0
  6
Continuous
 62
     7
100
AcDbLine
 10
154.0955347136824
 20
174.6741048150634
 30
0.0
 11
180.0955347136824
 21
174.6741048150634
 31
0.0
  0
LINE
  5
3AD
330
1F
100
AcDbEntity
  8
0
  6
Continuous
 62
     7
100
AcDbLine
 10
298.4706605549727
 20
174.6741048150634
 30
0.0
 11
298.9706605549727
 21
174.1741048150634
 31
0.0
  0
LINE
  5
3AE
330
1F
100
AcDbEntity
  8
0
  6
Continuous
 62
     7
100
AcDbLine
 10
324.4706605549727
 20
174.6741048150634
 30
0.0
 11
298.4706605549727
 21
174.6741048150634
 31
0.0
  0
LINE
  5
3AF
330
1F
100
AcDbEntity
  8
0
  6
Continuous
 62
     7
100
AcDbLine
 10
323.9706605549727
 20
174.1741048150634
 30
0.0
 11
321.4053802514718
 21
174.1741048150634
 31
0.0
  0
LINE
  5
3B0
330
1F
100
AcDbEntity
  8
0
  6
Continuous
 62
     7
100
AcDbLine
 10
324.4706605549727
 20
174.6741048150634
 30
0.0
 11
323.9706605549727
 21
174.1741048150634
 31
0.0
  0
LINE
  5
3B1
330
1F
100
AcDbEntity
  8
0
  6
Continuous
 62
     7
100
AcDbLine
 10
324.4706605549727
 20
174.1741048150634
 30
0.0
 11
323.9706605549727
 21
174.1741048150634
 31
0.0
  0
LINE
  5
3B2
330
1F
100
AcDbEntity
  8
0
  6
Continuous
 62
     7
100
AcDbLine
 10
324.4706605549727
 20
209.6241048150623
 30
0.0
 11
324.4706605549727
 21
174.6741048150634
 31
0.0
  0
LINE
  5
3B3
330
1F
100
AcDbEntity
  8
0
  6
Continuous
 62
     7
100
AcDbLine
 10
301.4498469181417
 20
174.1741048150634
 30
0.0
 11
298.9706605549727
 21
174.1741048150634
 31
0.0
  0
LINE
  5
3B4
330
1F
100
AcDbEntity
  8
0
  6
Continuous
 62
     7
100
AcDbLine
 10
321.4053802514718
 20
174.1741048150634
 30
0.0
 11
301.4498469181417
 21
174.1741048150634
 31
0.0
  0
LINE
  5
3B5
330
1F
100
AcDbEntity
  8
0
  6
Continuous
 62
     7
100
AcDbLine
 10
177.0302544101814
 20
174.1741048150634
 30
0.0
 11
179.5955347136824
 21
174.1741048150634
 31
0.0
  0
LINE
  5
3B6
330
1F
100
AcDbEntity
  8
1
  6
Continuous
 62
     7
100
AcDbLine
 10
306.4706605549727
 20
197.3741048150637
 30
0.0
 11
306.4706605549727
 21
209.6241048150623
 31
0.0
  0
LINE
  5
3B7
330
1F
100
AcDbEntity
  8
1
  6
Continuous
 62
     7
100
AcDbLine
 10
316.4706605549727
 20
209.6241048150623
 30
0.0
 11
316.4706605549727
 21
197.3741048150637
 31
0.0
  0
LINE
  5
3B8
330
1F
100
AcDbEntity
  8
1
  6
Continuous
 62
     7
100
AcDbLine
 10
316.4706605549727
 20
197.3741048150637
 30
0.0
 11
306.4706605549727
 21
197.3741048150637
 31
0.0
  0
LINE
  5
3B9
330
1F
100
AcDbEntity
  8
1
  6
Continuous
 62
     2
100
AcDbLine
 10
306.4706605549727
 20
197.3741048150637
 30
0.0
 11
316.4706605549727
 21
209.6241048150623
 31
0.0
  0
LINE
  5
3BA
330
1F
100
AcDbEntity
  8
1
  6
Continuous
 62
     2
100
AcDbLine
 10
316.4706605549727
 20
197.3741048150637
 30
0.0
 11
306.4706605549727
 21
209.6241048150623
 31
0.0
  0
LINE
  5
3BB
330
1F
100
AcDbEntity
  8
0
  6
Continuous
 62
     7
100
AcDbLine
 10
154.0955347136824
 20
186.8241048150644
 30
0.0
 11
154.0955347136824
 21
174.6741048150634
 31
0.0
  0
LINE
  5
3BC
330
1F
100
AcDbEntity
  8
0
  6
Continuous
 62
     7
100
AcDbLine
 10
180.0955347136824
 20
186.8241048150644
 30
0.0
 11
180.0955347136824
 21
174.6741048150634
 31
0.0
  0
LINE
  5
3BD
330
1F
100
AcDbEntity
  8
0
  6
Continuous
 62
     7
100
AcDbLine
 10
298.4706605549727
 20
197.2241048150636
 30
0.0
 11
298.4706605549727
 21
174.6741048150634
 31
0.0
  0
LINE
  5
3BE
330
1F
100
AcDbEntity
  8
1
  6
DASH_CENTER
 62
     2
100
AcDbLine
 10
181.8955347136816
 20
235.1741048150634
 30
0.0
 11
152.2955347136813
 21
235.1741048150634
 31
0.0
  0
LINE
  5
3BF
330
1F
100
AcDbEntity
  8
0
  6
DASH_CENTER
 62
     2
100
AcDbLine
 10
280.0396301888613
 20
235.1741048150634
 30
0.0
 11
311.4706605549727
 21
235.1741048150634
 31
0.0
  0
LINE
  5
3C0
330
1F
100
AcDbEntity
  8
0
  6
DASH_CENTER
 62
     2
100
AcDbLine
 10
250.2733020399428
 20
217.9885072455004
 30
0.0
 11
280.0396301888613
 21
235.1741048150634
 31
0.0
  0
LINE
  5
3C1
330
1F
100
AcDbEntity
  8
1
  6
DASH_CENTER
 62
     2
100
AcDbLine
 10
167.0955347136824
 20
438.0058765066374
 30
0.0
 11
167.0955347136824
 21
344.5058765066365
 31
0.0
  0
LINE
  5
3C2
330
1F
100
AcDbEntity
  8
0
  6
DASH_CENTER
 62
     2
100
AcDbLine
 10
336.1709629908019
 20
282.3741048150623
 30
0.0
 11
280.4590699764212
 21
282.3741048150623
 31
0.0
  0
LINE
  5
3C3
330
1F
100
AcDbEntity
  8
0
  6
DASH_CENTER
 62
     2
100
AcDbLine
 10
335.6997433441829
 20
228.8741048150623
 30
0.0
 11
280.4590699764212
 21
228.8741048150623
 31
0.0
  0
LINE
  5
3C4
330
1F
100
AcDbEntity
  8
0
  6
DASH_CENTER
 62
     2
100
AcDbLine
 10
336.1709629908019
 20
272.8741048150623
 30
0.0
 11
280.4590699764212
 21
272.8741048150623
 31
0.0
  0
LINE
  5
3C5
330
1F
100
AcDbEntity
  8
0
  6
DASH_CENTER
 62
     2
100
AcDbLine
 10
326.0987689884314
 20
231.6741048150634
 30
0.0
 11
337.5835463742824
 21
231.6741048150634
 31
0.0
  0
LINE
  5
3C6
330
1F
100
AcDbEntity
  8
0
  6
DASH_CENTER
 62
     2
100
AcDbLine
 10
333.866650483893
 20
259.3741048150623
 30
0.0
 11
267.220696726672
 21
259.3741048150623
 31
0.0
  0
LINE
  5
3C7
330
1F
100
AcDbEntity
  8
0
  6
DASH_CENTER
 62
     2
100
AcDbLine
 10
311.4706605549727
 20
167.2463629622944
 30
0.0
 11
311.4706605549727
 21
297.8391941522546
 31
0.0
  0
LINE
  5
3C8
330
1F
100
AcDbEntity
  8
0
  6
DASH_CENTER
 62
     2
100
AcDbLine
 10
222.1167533659027
 20
259.3741048150623
 30
0.0
 11
111.453970322782
 21
259.3741048150623
 31
0.0
  0
LINE
  5
3C9
330
1F
100
AcDbEntity
  8
0
  6
DASH_CENTER
 62
     2
100
AcDbLine
 10
167.0955347136824
 20
321.5241048150624
 30
0.0
 11
167.0955347136824
 21
167.7463629622944
 31
0.0
  0
LINE
  5
3CA
330
1F
100
AcDbEntity
  8
0
  6
DASH_CENTER
 62
     2
100
AcDbLine
 10
187.5955347136824
 20
282.2741048150633
 30
0.0
 11
156.5456352610618
 21
282.2741048150633
 31
0.0
  0
LINE
  5
3CB
330
1F
100
AcDbEntity
  8
0
  6
DASH_CENTER
 62
     2
100
AcDbLine
 10
156.8455347136824
 20
282.2741048150633
 30
0.0
 11
146.5955347136824
 21
282.2741048150633
 31
0.0
  0
LINE
  5
3CC
330
1F
100
AcDbEntity
  8
1
  6
DASH_CENTER
 62
     2
100
AcDbLine
 10
193.6955347136827
 20
415.0058765066374
 30
0.0
 11
185.6955347136827
 21
415.0058765066374
 31
0.0
  0
LINE
  5
3CD
330
1F
100
AcDbEntity
  8
1
  6
DASH_CENTER
 62
     2
100
AcDbLine
 10
189.6955347136827
 20
411.0058765066374
 30
0.0
 11
189.6955347136827
 21
419.0058765066374
 31
0.0
  0
LINE
  5
3CE
330
1F
100
AcDbEntity
  8
1
  6
DASH_CENTER
 62
     2
100
AcDbLine
 10
140.495534713682
 20
415.0058765066374
 30
0.0
 11
148.495534713682
 21
415.0058765066374
 31
0.0
  0
LINE
  5
3CF
330
1F
100
AcDbEntity
  8
1
  6
DASH_CENTER
 62
     2
100
AcDbLine
 10
144.495534713682
 20
411.0058765066374
 30
0.0
 11
144.495534713682
 21
419.0058765066374
 31
0.0
  0
LINE
  5
3D0
330
1F
100
AcDbEntity
  8
1
  6
DASH_CENTER
 62
     2
100
AcDbLine
 10
250.2733020399428
 20
217.9885072455004
 30
0.0
 11
247.8488063807819
 21
210.0325635955277
 31
0.0
  0
ARC
  5
3D1
330
1F
100
AcDbEntity
  8
1
  6
Continuous
 62
     7
100
AcDbCircle
 10
311.4706605549727
 20
209.3741048150664
 30
0.0
 40
13.00000000000249
100
AcDbArc
 50
-112.6198649480359
 51
-67.38013505196415
  0
LWPOLYLINE
  5
3D2
330
1F
100
AcDbEntity
  8
0
  6
Continuous
 62
     7
 60
     1
100
AcDbPolyline
 90
        2
 70
     0
 43
0.0
 10
301.4498469181417
 20
174.1741048150634
 10
301.4498469181417
 20
190.1741048150634
  0
LWPOLYLINE
  5
3D3
330
1F
100
AcDbEntity
  8
0
  6
Continuous
 62
     7
 60
     1
100
AcDbPolyline
 90
        2
 70
     0
 43
0.0
 10
321.4053802514718
 20
174.1741048150634
 10
324.4706605549727
 20
174.1741048150634
  0
LWPOLYLINE
  5
3D4
330
1F
100
AcDbEntity
  8
0
  6
Continuous
 62
     7
 60
     1
100
AcDbPolyline
 90
        4
 70
     0
 43
0.0
 10
280.770660554972
 20
239.6741048150634
 10
299.9706605549727
 20
239.6741048150634
 10
299.9706605549727
 20
242.1741048150634
 10
298.9706605549727
 20
242.1741048150634
  0
LWPOLYLINE
  5
3D5
330
1F
100
AcDbEntity
  8
0
  6
Continuous
 62
     7
 60
     1
100
AcDbPolyline
 90
        3
 70
     0
 43
0.0
 10
271.3706605549724
 20
230.0741048150635
 10
280.770660554972
 20
230.0741048150635
 10
280.770660554972
 20
230.6741048150634
  0
LWPOLYLINE
  5
3D6
330
1F
100
AcDbEntity
  8
1
  6
Continuous
 62
     7
 60
     1
100
AcDbPolyline
 90
        3
 70
     0
 43
0.0
 10
277.9206967266728
 20
305.2241048150636
 10
301.4206967266728
 20
305.2241048150636
 10
301.4206967266728
 20
306.7241048150636
  0
SOLID
  5
3D7
330
1F
100
AcDbEntity
  8
1
 62
     2
100
AcDbTrace
 10
320.2034811031472
 20
168.5727107301274
 30
0.0
 11
318.607279399794
 21
167.6511432470159
 31
0.0
 12
315.9053802514718
 22
174.1741048150634
 32
0.0
 13
315.9053802514718
 23
174.1741048150634
 33
0.0
  0
LEADER
  5
3D8
330
1F
100
AcDbEntity
  8
1
  6
Continuous
 62
     2
100
AcDbLeader
  3
Standard
 71
     0
 76
     3
 10
315.9053802514718
 20
174.1741048150634
 30
0.0
 10
329.2905033912812
 20
150.9903914713386
 30
0.0
 10
357.8686422406918
 20
150.9903914713386
 30
0.0
  0
SOLID
  5
3D9
330
1F
100
AcDbEntity
  8
1
 62
     2
100
AcDbTrace
 10
313.2051962589969
 20
448.7887155013521
 30
0.0
 11
311.6089945556441
 21
449.7102829844641
 31
0.0
 12
315.9070954073213
 22
455.3116770693987
 32
0.0
 13
315.9070954073213
 23
455.3116770693987
 33
0.0
  0
LEADER
  5
3DA
330
1F
100
AcDbEntity
  8
1
  6
Continuous
 62
     2
100
AcDbLeader
  3
Standard
 71
     0
 76
     3
 10
315.9070954073213
 20
455.3116770693987
 30
0.0
 10
298.9653567557616
 20
425.9677249563506
 30
0.0
 10
266.8762365683015
 20
425.9677249563506
 30
0.0
  0
MTEXT
  5
3DC
330
1F
100
AcDbEntity
  8
0
 62
     7
100
AcDbMText
 10
344.977475863132
 20
156.9903914713386
 30
0.0
 40
7.0
 41
0.0
 71
     5
 72
     1
  1
Rp1/2
  7
CONVERTER_5
 73
     1
 44
0.60024009603842
  0
MTEXT
  5
3DD
330
1F
100
AcDbEntity
  8
1
 62
     7
100
AcDbMText
 10
282.7416411939012
 20
431.9677249563506
 30
0.0
 40
7.0
 41
0.0
 71
     5
 72
     1
  1
3,5X19
  7
CONVERTER_5
 73
     1
 44
0.7202881152461
  0
MTEXT
  5
3DE
330
1F
100
AcDbEntity
  8
1
 62
     7
100
AcDbMText
 10
114.0
 20
49.50000000000003
 30
0.0
 40
7.0
 41
0.0
 71
     5
 72
     1
  1
水道用コンセント
  7
CONVERTER_1
 73
     1
 44
0.7202881152461
  0
MTEXT
  5
3DF
330
1F
100
AcDbEntity
  8
1
 62
     7
100
AcDbMText
 10
114.0
 20
41.50000000000003
 30
0.0
 40
7.0
 41
0.0
 71
     5
 72
     1
  1
シンプレット
  7
CONVERTER_1
 73
     1
 44
0.7202881152461
  0
MTEXT
  5
3E0
330
1F
100
AcDbEntity
  8
1
 62
     7
100
AcDbMText
 10
114.0
 20
28.5
 30
0.0
 40
7.0
 41
0.0
 71
     5
 72
     1
  1
V96LT
  7
CONVERTER_5
 73
     1
 44
0.7202881152461
  0
MTEXT
  5
3E1
330
1F
100
AcDbEntity
  8
1
 62
     7
100
AcDbMText
 10
170.5
 20
34.0
 30
0.0
 40
7.0
 41
0.0
 71
     5
 72
     1
  1
1
  7
CONVERTER_5
 73
     1
 44
0.7202881152461
  0
MTEXT
  5
3E2
330
1F
100
AcDbEntity
  8
1
 62
     7
100
AcDbMText
 10
187.5
 20
34.0
 30
0.0
 40
7.0
 41
0.0
 71
     5
 72
     1
  1
2
  7
CONVERTER_5
 73
     1
 44
0.7202881152461
  0
MTEXT
  5
3E3
330
1F
100
AcDbEntity
  8
1
 62
     7
100
AcDbMText
 10
68.0
 20
68.00000000000001
 30
0.0
 40
7.0
 41
0.0
 71
     4
 72
     1
  1
JIS
  7
CONVERTER_5
 73
     1
 44
0.7202881152461
  0
DIMENSION
  5
3EE
330
1F
100
AcDbEntity
  8
0
100
AcDbDimension
  2
*D016
 10
353.9123491219016
 20
197.2241048150636
 30
0.0
 11
348.4123491219016
 21
185.6488213642506
 31
0.0
  1
23
 71
     5
 42
0.0
 53
90.0
  3
ME10_DIM_0
100
AcDbAlignedDimension
 13
301.4498469181417
 23
174.1741048150634
 33
0.0
 14
301.4206967266728
 24
197.2241048150636
 34
0.0
 50
90.0
100
AcDbRotatedDimension
  0
DIMENSION
  5
3FB
330
1F
100
AcDbEntity
  8
0
100
AcDbDimension
  2
*D117
 10
88.47286925200206
 20
174.1741048150634
 30
0.0
 11
82.97286925200206
 21
179.9459229634904
 31
0.0
  1
13
 71
     5
 42
0.0
 53
90.0
  3
ME10_DIM_1
100
AcDbAlignedDimension
 13
124.4955344993214
 23
186.8241048150644
 33
0.0
 14
154.5955347136824
 24
174.1741048150634
 34
0.0
 50
90.0
100
AcDbRotatedDimension
  0
DIMENSION
  5
408
330
1F
100
AcDbEntity
  8
0
100
AcDbDimension
  2
*D218
 10
254.9310757179003
 20
229.6266033047315
 30
0.0
 11
248.9529047418438
 21
251.6810991715932
 31
0.0
 70
     1
  1
<>
 71
     5
 42
0.0
 53
-59.99999999999768
  3
ME10_DIM_2
100
AcDbAlignedDimension
 13
259.8550283833629
 23
214.3406502490593
 33
0.0
 14
252.0050283833625
 24
227.9372490884744
 34
0.0
  0
DIMENSION
  5
415
330
1F
100
AcDbEntity
  8
1
100
AcDbDimension
  2
*D319
 10
348.8433691341015
 20
449.1716770693984
 30
0.0
 11
343.3433691341015
 21
458.5756669045704
 31
0.0
  1
19
 71
     5
 42
0.0
 53
90.0
  3
ME10_DIM_3
100
AcDbAlignedDimension
 13
331.0570954073228
 23
468.4116770693986
 33
0.0
 14
327.6070954073221
 24
449.1716770693984
 34
0.0
 50
90.0
100
AcDbRotatedDimension
  0
DIMENSION
  5
420
330
1F
100
AcDbEntity
  8
1
100
AcDbDimension
  2
*D420
 10
353.9706605549727
 20
197.2241048150635
 30
0.0
 11
348.4706605549727
 21
257.7517247376704
 31
0.0
  1
113(開口寸法115)
 71
     5
 42
0.0
 53
90.0
  3
ME10_DIM_4
100
AcDbAlignedDimension
 13
330.6706605549716
 23
309.1241048150637
 33
0.0
 14
301.4206967266728
 24
197.2241048150636
 34
0.0
 50
90.0
100
AcDbRotatedDimension
  0
DIMENSION
  5
42B
330
1F
100
AcDbEntity
  8
1
100
AcDbDimension
  2
*D521
 10
125.495534713682
 20
450.3770997423803
 30
0.0
 11
167.2260587317014
 21
455.8770997423803
 31
0.0
  1
84(開口寸法86)
 71
     5
 42
0.0
 53
0.00013888888889
  3
ME10_DIM_5
100
AcDbAlignedDimension
 13
208.6955347136827
 23
433.0058765066374
 33
0.0
 14
125.495534713682
 24
433.0058765066374
 34
0.0
100
AcDbRotatedDimension
  0
DIMENSION
  5
436
330
1F
100
AcDbEntity
  8
1
100
AcDbDimension
  2
*D622
 10
283.4206967266728
 20
163.4202813821403
 30
0.0
 11
265.1281282610016
 21
168.9202813821403
 31
0.0
  1
37
 71
     5
 42
0.0
 53
0.00013888888889
  3
ME10_DIM_6
100
AcDbAlignedDimension
 13
246.5774804836328
 23
215.0744878795545
 33
0.0
 14
283.4206967266728
 24
186.8241048150644
 34
0.0
100
AcDbRotatedDimension
  0
DIMENSION
  5
441
330
1F
100
AcDbEntity
  8
1
100
AcDbDimension
  2
*D723
 10
252.3106702912628
 20
384.5058765066374
 30
0.0
 11
246.8106702912628
 21
400.7364252445955
 31
0.0
  1
8～15
 71
     5
 42
0.0
 53
90.0
  3
ME10_DIM_7
100
AcDbAlignedDimension
 13
223.8957761155216
 23
415.7933704499696
 33
0.0
 14
217.6955347136827
 24
384.5058765066374
 34
0.0
 50
90.0
100
AcDbRotatedDimension
  0
DIMENSION
  5
44C
330
1F
100
AcDbEntity
  8
1
100
AcDbDimension
  2
*D824
 10
88.29529331185222
 20
317.0241048150624
 30
0.0
 11
82.79529331185222
 21
249.6291571595116
 31
0.0
  1
131
 71
     5
 42
0.0
 53
90.0
  3
ME10_DIM_8
100
AcDbAlignedDimension
 13
124.495534713682
 23
186.8241048150644
 33
0.0
 14
124.495534713682
 24
317.0241048150624
 34
0.0
 50
90.0
100
AcDbRotatedDimension
  0
DIMENSION
  5
459
330
1F
100
AcDbEntity
  8
1
100
AcDbDimension
  2
*D925
 10
283.4206967266727
 20
339.0241048150624
 30
0.0
 11
296.2910890310213
 21
344.5241048150624
 31
0.0
  1
29
 71
     5
 42
0.0
 53
0.00013888888889
  3
ME10_DIM_9
100
AcDbAlignedDimension
 13
311.4706605549727
 23
297.8391941522546
 33
0.0
 14
283.4206967266728
 24
317.0241048150624
 34
0.0
100
AcDbRotatedDimension
  0
DIMENSION
  5
466
330
1F
100
AcDbEntity
  8
1
100
AcDbDimension
  2
*D1027
 10
283.4206967266728
 20
339.0241048150624
 30
0.0
 11
264.8025392417512
 21
344.5241048150624
 31
0.0
  1
7
 71
     5
 42
0.0
 53
0.00013888888889
  3
ME10_DIM_10
100
AcDbAlignedDimension
 13
276.6706967266728
 23
315.0241048150624
 33
0.0
 14
283.4206967266728
 24
317.0241048150624
 34
0.0
100
AcDbRotatedDimension
  0
DIMENSION
  5
471
330
1F
100
AcDbEntity
  8
1
100
AcDbDimension
  2
*D1128
 10
283.4206967266728
 20
355.0241048150624
 30
0.0
 11
307.9364973125412
 21
360.5241048150624
 31
0.0
  1
50
 71
     5
 42
0.0
 53
0.00013888888889
  3
ME10_DIM_11
100
AcDbAlignedDimension
 13
332.6706605549716
 23
306.6241048150637
 33
0.0
 14
283.4206967266728
 24
317.0241048150624
 34
0.0
100
AcDbRotatedDimension
  0
DIMENSION
  5
47C
330
1F
100
AcDbEntity
  8
1
100
AcDbDimension
  2
*D1229
 10
110.2952933118523
 20
470.4513789736807
 30
0.0
 11
166.4685387607024
 21
475.9513789736807
 31
0.0
  1
114
 71
     5
 42
0.0
 53
0.00013888888889
  3
ME10_DIM_12
100
AcDbAlignedDimension
 13
223.8957761155216
 23
416.7933704499696
 33
0.0
 14
110.2952933118522
 24
416.7933704499696
 34
0.0
100
AcDbRotatedDimension
  0
DIMENSION
  5
487
330
1F
100
AcDbEntity
  8
0
100
AcDbDimension
  2
*D1330
 10
116.495534713682
 20
328.2525427079104
 30
0.0
 11
166.0612906464012
 21
333.7525427079104
 31
0.0
  1
102
 71
     5
 42
0.0
 53
0.00013888888889
  3
ME10_DIM_13
100
AcDbAlignedDimension
 13
217.6955347136827
 23
309.0241048150624
 33
0.0
 14
116.495534713682
 24
309.0241043863443
 34
0.0
100
AcDbRotatedDimension
  0
ENDSEC
  0
SECTION
  2
OBJECTS
  0
DICTIONARY
  5
C
330
0
100
AcDbDictionary
281
     1
  3
ACAD_GROUP
350
D
  3
ACAD_LAYOUT
350
1A
  3
ACAD_MLINESTYLE
350
17
  3
ACAD_PLOTSETTINGS
350
19
  3
ACAD_PLOTSTYLENAME
350
E
  3
ACAD_TABLESTYLE
350
2A
  3
AcDbVariableDictionary
350
2C
  0
DICTIONARY
  5
D
102
{ACAD_REACTORS
330
C
102
}
330
C
100
AcDbDictionary
281
     1
  0
DICTIONARY
  5
1A
102
{ACAD_REACTORS
330
C
102
}
330
C
100
AcDbDictionary
281
     1
  3
Layout1
350
1E
  3
Layout2
350
26
  3
Model
350
22
  0
DICTIONARY
  5
17
102
{ACAD_REACTORS
330
C
102
}
330
C
100
AcDbDictionary
281
     1
  3
Standard
350
18
  0
DICTIONARY
  5
19
102
{ACAD_REACTORS
330
C
102
}
330
C
100
AcDbDictionary
281
     1
  0
ACDBDICTIONARYWDFLT
  5
E
102
{ACAD_REACTORS
330
C
102
}
330
C
100
AcDbDictionary
281
     1
  3
Normal
350
F
100
AcDbDictionaryWithDefault
340
F
  0
DICTIONARY
  5
2A
102
{ACAD_REACTORS
330
C
102
}
330
C
100
AcDbDictionary
281
     1
  3
Standard
350
2B
  0
DICTIONARY
  5
2C
102
{ACAD_REACTORS
330
C
102
}
330
C
100
AcDbDictionary
281
     1
  3
CTABLESTYLE
350
2D
  0
LAYOUT
  5
1E
102
{ACAD_REACTORS
330
1A
102
}
330
1A
100
AcDbPlotSettings
  1

  2

  4

  6

 40
0.0
 41
0.0
 42
0.0
 43
0.0
 44
0.0
 45
0.0
 46
0.0
 47
0.0
 48
0.0
 49
0.0
140
0.0
141
0.0
142
1.0
143
1.0
 70
   688
 72
     0
 73
     0
 74
     5
  7

 75
    16
147
1.0
148
0.0
149
0.0
100
AcDbLayout
  1
Layout1
 70
     1
 71
     1
 10
0.0
 20
0.0
 11
12.0
 21
9.0
 12
0.0
 22
0.0
 32
0.0
 14
1.00000000000000E+20
 24
1.00000000000000E+20
 34
1.00000000000000E+20
 15
-1.00000000000000E+20
 25
-1.00000000000000E+20
 35
-1.00000000000000E+20
146
0.0
 13
0.0
 23
0.0
 33
0.0
 16
1.0
 26
0.0
 36
0.0
 17
0.0
 27
1.0
 37
0.0
 76
     0
330
1B
  0
LAYOUT
  5
26
102
{ACAD_REACTORS
330
1A
102
}
330
1A
100
AcDbPlotSettings
  1

  2

  4

  6

 40
0.0
 41
0.0
 42
0.0
 43
0.0
 44
0.0
 45
0.0
 46
0.0
 47
0.0
 48
0.0
 49
0.0
140
0.0
141
0.0
142
1.0
143
1.0
 70
   688
 72
     0
 73
     0
 74
     5
  7

 75
    16
147
1.0
148
0.0
149
0.0
100
AcDbLayout
  1
Layout2
 70
     1
 71
     2
 10
0.0
 20
0.0
 11
0.0
 21
0.0
 12
0.0
 22
0.0
 32
0.0
 14
0.0
 24
0.0
 34
0.0
 15
0.0
 25
0.0
 35
0.0
146
0.0
 13
0.0
 23
0.0
 33
0.0
 16
1.0
 26
0.0
 36
0.0
 17
0.0
 27
1.0
 37
0.0
 76
     0
330
23
  0
LAYOUT
  5
22
102
{ACAD_REACTORS
330
1A
102
}
330
1A
100
AcDbPlotSettings
  1

  2

  4

  6

 40
0.0
 41
0.0
 42
0.0
 43
0.0
 44
0.0
 45
0.0
 46
0.0
 47
0.0
 48
0.0
 49
0.0
140
0.0
141
0.0
142
1.0
143
1.0
 70
  1712
 72
     0
 73
     0
 74
     0
  7

 75
     0
147
1.0
148
0.0
149
0.0
100
AcDbLayout
  1
Model
 70
     1
 71
     0
 10
0.0
 20
0.0
 11
0.0
 21
0.0
 12
0.0
 22
0.0
 32
0.0
 14
0.0
 24
0.0
 34
0.0
 15
420.0
 25
594.0
 35
0.0
146
0.0
 13
0.0
 23
0.0
 33
0.0
 16
1.0
 26
0.0
 36
0.0
 17
0.0
 27
1.0
 37
0.0
 76
     0
330
1F
  0
MLINESTYLE
  5
18
102
{ACAD_REACTORS
330
17
102
}
330
17
100
AcDbMlineStyle
  2
Standard
 70
     0
  3

 62
   256
 51
90.0
 52
90.0
 71
     2
 49
0.5
 62
   256
  6
BYLAYER
 49
-0.5
 62
   256
  6
BYLAYER
  0
ACDBPLACEHOLDER
  5
F
102
{ACAD_REACTORS
330
E
102
}
330
E
  0
TABLESTYLE
  5
2B
102
{ACAD_REACTORS
330
2A
102
}
330
2A
100
AcDbTableStyle
  3
Standard
 70
     0
 71
     0
 40
0.06
 41
0.06
280
     0
281
     0
  7
Standard
140
0.18
170
     2
 62
     0
 63
     7
283
     0
274
    -2
284
     1
 64
     0
275
    -2
285
     1
 65
     0
276
    -2
286
     1
 66
     0
277
    -2
287
     1
 67
     0
278
    -2
288
     1
 68
     0
279
    -2
289
     1
 69
     0
  7
Standard
140
0.25
170
     5
 62
     0
 63
     7
283
     0
274
    -2
284
     1
 64
     0
275
    -2
285
     1
 65
     0
276
    -2
286
     1
 66
     0
277
    -2
287
     1
 67
     0
278
    -2
288
     1
 68
     0
279
    -2
289
     1
 69
     0
  7
Standard
140
0.18
170
     5
 62
     0
 63
     7
283
     0
274
    -2
284
     1
 64
     0
275
    -2
285
     1
 65
     0
276
    -2
286
     1
 66
     0
277
    -2
287
     1
 67
     0
278
    -2
288
     1
 68
     0
279
    -2
289
     1
 69
     0
  0
DICTIONARYVAR
  5
2D
102
{ACAD_REACTORS
330
2C
102
}
330
2C
100
DictionaryVariables
280
     0
  1
Standard
  0
ENDSEC
  0
EOF
