  0
SECTION
  2
HEADER
  9
$ACADVER
  1
AC1015
  9
$ACADMAINTVER
 70
     6
  9
$DWGCODEPAGE
  3
ANSI_932
  9
$INSBASE
 10
0.0
 20
0.0
 30
0.0
  9
$EXTMIN
 10
0.0
 20
0.0
 30
0.0
  9
$EXTMAX
 10
420.0
 20
594.0
 30
0.0
  9
$LIMMIN
 10
0.0
 20
0.0
  9
$LIMMAX
 10
12.0
 20
9.0
  9
$ORTHOMODE
 70
     0
  9
$REGENMODE
 70
     1
  9
$FILLMODE
 70
     1
  9
$QTEXTMODE
 70
     0
  9
$MIRRTEXT
 70
     1
  9
$LTSCALE
 40
1.0
  9
$ATTMODE
 70
     1
  9
$TEXTSIZE
 40
0.2
  9
$TRACEWID
 40
0.05
  9
$TEXTSTYLE
  7
Standard
  9
$CLAYER
  8
0
  9
$CELTYPE
  6
ByLayer
  9
$CECOLOR
 62
   256
  9
$CELTSCALE
 40
1.0
  9
$DISPSILH
 70
     0
  9
$DIMSCALE
 40
1.0
  9
$DIMASZ
 40
0.18
  9
$DIMEXO
 40
0.0625
  9
$DIMDLI
 40
0.38
  9
$DIMRND
 40
0.0
  9
$DIMDLE
 40
0.0
  9
$DIMEXE
 40
0.18
  9
$DIMTP
 40
0.0
  9
$DIMTM
 40
0.0
  9
$DIMTXT
 40
0.18
  9
$DIMCEN
 40
0.09
  9
$DIMTSZ
 40
0.0
  9
$DIMTOL
 70
     0
  9
$DIMLIM
 70
     0
  9
$DIMTIH
 70
     1
  9
$DIMTOH
 70
     1
  9
$DIMSE1
 70
     0
  9
$DIMSE2
 70
     0
  9
$DIMTAD
 70
     0
  9
$DIMZIN
 70
     0
  9
$DIMBLK
  1

  9
$DIMASO
 70
     1
  9
$DIMSHO
 70
     1
  9
$DIMPOST
  1

  9
$DIMAPOST
  1

  9
$DIMALT
 70
     0
  9
$DIMALTD
 70
     2
  9
$DIMALTF
 40
25.4
  9
$DIMLFAC
 40
1.0
  9
$DIMTOFL
 70
     0
  9
$DIMTVP
 40
0.0
  9
$DIMTIX
 70
     0
  9
$DIMSOXD
 70
     0
  9
$DIMSAH
 70
     0
  9
$DIMBLK1
  1

  9
$DIMBLK2
  1

  9
$DIMSTYLE
  2
Standard
  9
$DIMCLRD
 70
     0
  9
$DIMCLRE
 70
     0
  9
$DIMCLRT
 70
     0
  9
$DIMTFAC
 40
1.0
  9
$DIMGAP
 40
0.09
  9
$DIMJUST
 70
     0
  9
$DIMSD1
 70
     0
  9
$DIMSD2
 70
     0
  9
$DIMTOLJ
 70
     1
  9
$DIMTZIN
 70
     0
  9
$DIMALTZ
 70
     0
  9
$DIMALTTZ
 70
     0
  9
$DIMUPT
 70
     0
  9
$DIMDEC
 70
     4
  9
$DIMTDEC
 70
     4
  9
$DIMALTU
 70
     2
  9
$DIMALTTD
 70
     2
  9
$DIMTXSTY
  7
Standard
  9
$DIMAUNIT
 70
     0
  9
$DIMADEC
 70
     0
  9
$DIMALTRND
 40
0.0
  9
$DIMAZIN
 70
     0
  9
$DIMDSEP
 70
    46
  9
$DIMATFIT
 70
     3
  9
$DIMFRAC
 70
     0
  9
$DIMLDRBLK
  1

  9
$DIMLUNIT
 70
     2
  9
$DIMLWD
 70
    -2
  9
$DIMLWE
 70
    -2
  9
$DIMTMOVE
 70
     0
  9
$LUNITS
 70
     2
  9
$LUPREC
 70
     4
  9
$SKETCHINC
 40
0.1
  9
$FILLETRAD
 40
0.5
  9
$AUNITS
 70
     0
  9
$AUPREC
 70
     0
  9
$MENU
  1
.
  9
$ELEVATION
 40
0.0
  9
$PELEVATION
 40
0.0
  9
$THICKNESS
 40
0.0
  9
$LIMCHECK
 70
     0
  9
$CHAMFERA
 40
0.5
  9
$CHAMFERB
 40
0.5
  9
$CHAMFERC
 40
1.0
  9
$CHAMFERD
 40
0.0
  9
$SKPOLY
 70
     0
  9
$TDCREATE
 40
2456575.570555602
  9
$TDUCREATE
 40
2456575.195555602
  9
$TDUPDATE
 40
2456575.570557222
  9
$TDUUPDATE
 40
2456575.195557222
  9
$TDINDWG
 40
0.0000000116
  9
$TDUSRTIMER
 40
0.0000000116
  9
$USRTIMER
 70
     1
  9
$ANGBASE
 50
0.0
  9
$ANGDIR
 70
     0
  9
$PDMODE
 70
     0
  9
$PDSIZE
 40
0.0
  9
$PLINEWID
 40
0.0
  9
$SPLFRAME
 70
     0
  9
$SPLINETYPE
 70
     6
  9
$SPLINESEGS
 70
     8
  9
$HANDSEED
  5
516
  9
$SURFTAB1
 70
     6
  9
$SURFTAB2
 70
     6
  9
$SURFTYPE
 70
     6
  9
$SURFU
 70
     6
  9
$SURFV
 70
     6
  9
$UCSBASE
  2

  9
$UCSNAME
  2

  9
$UCSORG
 10
0.0
 20
0.0
 30
0.0
  9
$UCSXDIR
 10
1.0
 20
0.0
 30
0.0
  9
$UCSYDIR
 10
0.0
 20
1.0
 30
0.0
  9
$UCSORTHOREF
  2

  9
$UCSORTHOVIEW
 70
     0
  9
$UCSORGTOP
 10
0.0
 20
0.0
 30
0.0
  9
$UCSORGBOTTOM
 10
0.0
 20
0.0
 30
0.0
  9
$UCSORGLEFT
 10
0.0
 20
0.0
 30
0.0
  9
$UCSORGRIGHT
 10
0.0
 20
0.0
 30
0.0
  9
$UCSORGFRONT
 10
0.0
 20
0.0
 30
0.0
  9
$UCSORGBACK
 10
0.0
 20
0.0
 30
0.0
  9
$PUCSBASE
  2

  9
$PUCSNAME
  2

  9
$PUCSORG
 10
0.0
 20
0.0
 30
0.0
  9
$PUCSXDIR
 10
1.0
 20
0.0
 30
0.0
  9
$PUCSYDIR
 10
0.0
 20
1.0
 30
0.0
  9
$PUCSORTHOREF
  2

  9
$PUCSORTHOVIEW
 70
     0
  9
$PUCSORGTOP
 10
0.0
 20
0.0
 30
0.0
  9
$PUCSORGBOTTOM
 10
0.0
 20
0.0
 30
0.0
  9
$PUCSORGLEFT
 10
0.0
 20
0.0
 30
0.0
  9
$PUCSORGRIGHT
 10
0.0
 20
0.0
 30
0.0
  9
$PUCSORGFRONT
 10
0.0
 20
0.0
 30
0.0
  9
$PUCSORGBACK
 10
0.0
 20
0.0
 30
0.0
  9
$USERI1
 70
     0
  9
$USERI2
 70
     0
  9
$USERI3
 70
     0
  9
$USERI4
 70
     0
  9
$USERI5
 70
     0
  9
$USERR1
 40
18.1
  9
$USERR2
 40
0.0
  9
$USERR3
 40
0.0
  9
$USERR4
 40
0.0
  9
$USERR5
 40
0.0
  9
$WORLDVIEW
 70
     1
  9
$SHADEDGE
 70
     3
  9
$SHADEDIF
 70
    70
  9
$TILEMODE
 70
     1
  9
$MAXACTVP
 70
    64
  9
$PINSBASE
 10
0.0
 20
0.0
 30
0.0
  9
$PLIMCHECK
 70
     0
  9
$PEXTMIN
 10
1.00000000000000E+20
 20
1.00000000000000E+20
 30
1.00000000000000E+20
  9
$PEXTMAX
 10
-1.00000000000000E+20
 20
-1.00000000000000E+20
 30
-1.00000000000000E+20
  9
$PLIMMIN
 10
0.0
 20
0.0
  9
$PLIMMAX
 10
12.0
 20
9.0
  9
$UNITMODE
 70
     0
  9
$VISRETAIN
 70
     1
  9
$PLINEGEN
 70
     0
  9
$PSLTSCALE
 70
     1
  9
$TREEDEPTH
 70
  3020
  9
$CMLSTYLE
  2
Standard
  9
$CMLJUST
 70
     0
  9
$CMLSCALE
 40
1.0
  9
$PROXYGRAPHICS
 70
     1
  9
$MEASUREMENT
 70
     1
  9
$CELWEIGHT
370
    -1
  9
$ENDCAPS
280
     0
  9
$JOINSTYLE
280
     0
  9
$LWDISPLAY
290
     0
  9
$INSUNITS
 70
     4
  9
$HYPERLINKBASE
  1

  9
$STYLESHEET
  1

  9
$XEDIT
290
     1
  9
$CEPSNTYPE
380
     0
  9
$PSTYLEMODE
290
     1
  9
$FINGERPRINTGUID
  2
{F6DB3072-1731-40BE-A17F-56729CB9405D}
  9
$VERSIONGUID
  2
{FAEB1C32-E019-11D5-929B-00C0DF256EC4}
  9
$EXTNAMES
290
     1
  9
$PSVPSCALE
 40
0.0
  9
$OLESTARTUP
290
     0
  0
ENDSEC
  0
SECTION
  2
CLASSES
  0
CLASS
  1
ACDBDICTIONARYWDFLT
  2
AcDbDictionaryWithDefault
  3
ObjectDBX Classes
 90
        0
280
     0
281
     0
  0
CLASS
  1
VISUALSTYLE
  2
AcDbVisualStyle
  3
ObjectDBX Classes
 90
     4095
280
     0
281
     0
  0
CLASS
  1
MATERIAL
  2
AcDbMaterial
  3
ObjectDBX Classes
 90
     1153
280
     0
281
     0
  0
CLASS
  1
DICTIONARYVAR
  2
AcDbDictionaryVar
  3
ObjectDBX Classes
 90
        0
280
     0
281
     0
  0
CLASS
  1
ACDBPLACEHOLDER
  2
AcDbPlaceHolder
  3
ObjectDBX Classes
 90
        0
280
     0
281
     0
  0
CLASS
  1
LAYOUT
  2
AcDbLayout
  3
ObjectDBX Classes
 90
        0
280
     0
281
     0
  0
ENDSEC
  0
SECTION
  2
TABLES
  0
TABLE
  2
VPORT
  5
8
330
0
100
AcDbSymbolTable
 70
     1
  0
VPORT
  5
29
330
8
100
AcDbSymbolTableRecord
100
AcDbViewportTableRecord
  2
*Active
 70
     0
 10
0.0
 20
0.0
 11
1.0
 21
1.0
 12
210.0
 22
297.0
 13
0.0
 23
0.0
 14
0.5
 24
0.5
 15
0.5
 25
0.5
 16
0.0
 26
0.0
 36
1.0
 17
0.0
 27
0.0
 37
0.0
 40
653.4000000000001
 41
1.60267857142857
 42
50.0
 43
0.0
 44
0.0
 50
0.0
 51
0.0
 71
     0
 72
   100
 73
     1
 74
     3
 75
     0
 76
     0
 77
     0
 78
     0
281
     0
 65
     1
110
0.0
120
0.0
130
0.0
111
1.0
121
0.0
131
0.0
112
0.0
122
1.0
132
0.0
 79
     0
146
0.0
  0
ENDTAB
  0
TABLE
  2
LTYPE
  5
5
330
0
100
AcDbSymbolTable
 70
     8
  0
LTYPE
  5
14
330
5
100
AcDbSymbolTableRecord
100
AcDbLinetypeTableRecord
  2
ByBlock
 70
     0
  3

 72
    65
 73
     0
 40
0.0
  0
LTYPE
  5
15
330
5
100
AcDbSymbolTableRecord
100
AcDbLinetypeTableRecord
  2
ByLayer
 70
     0
  3

 72
    65
 73
     0
 40
0.0
  0
LTYPE
  5
16
330
5
100
AcDbSymbolTableRecord
100
AcDbLinetypeTableRecord
  2
Continuous
 70
     0
  3
Solid line
 72
    65
 73
     0
 40
0.0
  0
LTYPE
  5
3F
330
5
100
AcDbSymbolTableRecord
100
AcDbLinetypeTableRecord
  2
DASHED
 70
     0
  3
Dashed
 72
    65
 73
     2
 40
15.0
 49
7.0
 74
     0
 49
-8.0
 74
     0
  0
LTYPE
  5
40
330
5
100
AcDbSymbolTableRecord
100
AcDbLinetypeTableRecord
  2
DOTTED
 70
     0
  3
Dotted
 72
    65
 73
     2
 40
1.0
 49
0.0
 74
     0
 49
-1.0
 74
     0
  0
LTYPE
  5
41
330
5
100
AcDbSymbolTableRecord
100
AcDbLinetypeTableRecord
  2
DOT_CENTER
 70
     0
  3
Dot_Center
 72
    65
 73
     4
 40
14.0
 49
12.0
 74
     0
 49
-1.0
 74
     0
 49
0.0
 74
     0
 49
-1.0
 74
     0
  0
LTYPE
  5
42
330
5
100
AcDbSymbolTableRecord
100
AcDbLinetypeTableRecord
  2
LONG_DASHED
 70
     0
  3
Long_Dashed
 72
    65
 73
     2
 40
15.0
 49
10.0
 74
     0
 49
-5.0
 74
     0
  0
LTYPE
  5
43
330
5
100
AcDbSymbolTableRecord
100
AcDbLinetypeTableRecord
  2
DASH_CENTER
 70
     0
  3
Dash_Center
 72
    65
 73
     4
 40
14.0
 49
11.0
 74
     0
 49
-1.0
 74
     0
 49
1.0
 74
     0
 49
-1.0
 74
     0
  0
LTYPE
  5
44
330
5
100
AcDbSymbolTableRecord
100
AcDbLinetypeTableRecord
  2
PHANTOM
 70
     0
  3
Phantom
 72
    65
 73
     6
 40
13.0
 49
10.0
 74
     0
 49
-1.0
 74
     0
 49
0.0
 74
     0
 49
-1.0
 74
     0
 49
0.0
 74
     0
 49
-1.0
 74
     0
  0
LTYPE
  5
45
330
5
100
AcDbSymbolTableRecord
100
AcDbLinetypeTableRecord
  2
CENTER_DASH_DASH
 70
     0
  3
Center_Dash_Dash
 72
    65
 73
     6
 40
14.0
 49
9.0
 74
     0
 49
-1.0
 74
     0
 49
1.0
 74
     0
 49
-1.0
 74
     0
 49
1.0
 74
     0
 49
-1.0
 74
     0
  0
ENDTAB
  0
TABLE
  2
LAYER
  5
2
330
0
100
AcDbSymbolTable
 70
     2
  0
LAYER
  5
10
330
2
100
AcDbSymbolTableRecord
100
AcDbLayerTableRecord
  2
0
 70
     0
 62
     7
  6
Continuous
370
    -3
390
F
  0
LAYER
  5
46
330
2
100
AcDbSymbolTableRecord
100
AcDbLayerTableRecord
  2
1
 70
     0
 62
     7
  6
Continuous
370
    -3
390
F
  0
ENDTAB
  0
TABLE
  2
STYLE
  5
3
330
0
100
AcDbSymbolTable
 70
     6
  0
STYLE
  5
11
330
3
100
AcDbSymbolTableRecord
100
AcDbTextStyleTableRecord
  2
Standard
 70
     0
 40
0.0
 41
1.0
 50
0.0
 71
     0
 42
0.2
  3
txt
  4

  0
STYLE
  5
D6
330
3
100
AcDbSymbolTableRecord
100
AcDbTextStyleTableRecord
  2
CONVERTER_11
 70
     0
 40
0.0
 41
0.89
 50
0.0
 71
     0
 42
0.2
  3
MS Mincho.ttf
  4

1001
ACAD
1000
MS Mincho
1071
    32785
  0
STYLE
  5
32B
330
3
100
AcDbSymbolTableRecord
100
AcDbTextStyleTableRecord
  2
CONVERTER_12
 70
     0
 40
0.0
 41
0.95
 50
10.0
 71
     0
 42
0.2
  3
simplex.shx
  4

  0
STYLE
  5
330
330
3
100
AcDbSymbolTableRecord
100
AcDbTextStyleTableRecord
  2
CONVERTER_13
 70
     0
 40
0.0
 41
0.76
 50
10.0
 71
     0
 42
0.2
  3
simplex.shx
  4

  0
STYLE
  5
33B
330
3
100
AcDbSymbolTableRecord
100
AcDbTextStyleTableRecord
  2
CONVERTER_14
 70
     0
 40
0.0
 41
0.979
 50
0.0
 71
     0
 42
0.2
  3
msmincho.ttc
  4

1001
ACAD
1000
MS Mincho
1071
    32785
  0
STYLE
  5
437
330
3
100
AcDbSymbolTableRecord
100
AcDbTextStyleTableRecord
  2
CONVERTER_15
 70
     0
 40
0.0
 41
0.9
 50
0.0
 71
     0
 42
0.2
  3
txt.shx
  4

  0
ENDTAB
  0
TABLE
  2
VIEW
  5
6
330
0
100
AcDbSymbolTable
 70
     0
  0
ENDTAB
  0
TABLE
  2
UCS
  5
7
330
0
100
AcDbSymbolTable
 70
     0
  0
ENDTAB
  0
TABLE
  2
APPID
  5
9
330
0
100
AcDbSymbolTable
 70
     1
  0
APPID
  5
12
330
9
100
AcDbSymbolTableRecord
100
AcDbRegAppTableRecord
  2
ACAD
 70
     0
  0
ENDTAB
  0
TABLE
  2
DIMSTYLE
  5
A
330
0
100
AcDbSymbolTable
 70
    15
100
AcDbDimStyleTable
  0
DIMSTYLE
105
27
330
A
100
AcDbSymbolTableRecord
100
AcDbDimStyleTableRecord
  2
Standard
 70
     0
178
     0
340
11
  0
DIMSTYLE
105
452
102
{ACAD_REACTORS
330
453
102
}
330
A
100
AcDbSymbolTableRecord
100
AcDbDimStyleTableRecord
  2
ME10_DIM_10
 70
     0
 41
7.0
 42
0.0
 44
2.0
 73
     0
 74
     0
 77
     1
 78
     8
140
7.0
147
2.0
172
     1
173
     1
174
     1
175
     1
176
     2
177
     2
271
     2
178
     7
271
     2
340
437
  0
DIMSTYLE
105
45D
102
{ACAD_REACTORS
330
45E
102
}
330
A
100
AcDbSymbolTableRecord
100
AcDbDimStyleTableRecord
  2
ME10_DIM_11
 70
     0
 41
7.0
 42
0.0
 44
2.0
 73
     0
 74
     0
 77
     1
 78
     8
140
7.0
147
2.0
172
     1
173
     1
174
     1
175
     1
176
     2
177
     2
271
     2
178
     7
271
     2
340
437
  0
DIMSTYLE
105
468
102
{ACAD_REACTORS
330
469
102
}
330
A
100
AcDbSymbolTableRecord
100
AcDbDimStyleTableRecord
  2
ME10_DIM_12
 70
     0
 41
7.0
 42
0.0
 44
2.0
 73
     0
 74
     0
 77
     1
 78
     8
140
7.0
147
2.0
172
     1
173
     1
174
     1
175
     1
176
     2
177
     2
271
     2
178
     7
271
     2
340
437
  0
DIMSTYLE
105
475
102
{ACAD_REACTORS
330
476
102
}
330
A
100
AcDbSymbolTableRecord
100
AcDbDimStyleTableRecord
  2
ME10_DIM_13
 70
     0
 41
7.0
 42
0.0
 44
2.0
 73
     0
 74
     0
 77
     1
 78
     8
140
7.0
147
2.0
172
     1
173
     1
174
     1
175
     1
176
     2
177
     2
271
     2
178
     7
271
     2
340
437
  0
DIMSTYLE
105
482
102
{ACAD_REACTORS
330
483
102
}
330
A
100
AcDbSymbolTableRecord
100
AcDbDimStyleTableRecord
  2
ME10_DIM_14
 70
     0
 41
7.0
 42
0.0
 44
2.0
 73
     0
 74
     0
 77
     1
 78
     8
140
7.0
147
2.0
172
     1
173
     1
174
     1
175
     1
176
     2
177
     2
271
     2
178
     7
271
     2
340
437
344
47F
  0
DIMSTYLE
105
48D
102
{ACAD_REACTORS
330
48E
102
}
330
A
100
AcDbSymbolTableRecord
100
AcDbDimStyleTableRecord
  2
ME10_DIM_15
 70
     0
 41
7.0
 42
0.0
 44
2.0
 73
     0
 74
     0
 77
     1
 78
     8
140
7.0
147
2.0
172
     1
173
     1
174
     1
175
     1
176
     2
177
     2
271
     2
178
     7
271
     2
340
437
  0
DIMSTYLE
105
498
102
{ACAD_REACTORS
330
499
102
}
330
A
100
AcDbSymbolTableRecord
100
AcDbDimStyleTableRecord
  2
ME10_DIM_16
 70
     0
 41
7.0
 42
0.0
 44
2.0
 73
     0
 74
     0
 77
     1
 78
     8
140
7.0
147
2.0
172
     1
173
     1
174
     1
175
     1
176
     2
177
     2
271
     2
178
     7
271
     2
340
437
  0
DIMSTYLE
105
4A3
102
{ACAD_REACTORS
330
4A4
102
}
330
A
100
AcDbSymbolTableRecord
100
AcDbDimStyleTableRecord
  2
ME10_DIM_17
 70
     0
 41
7.0
 42
0.0
 44
2.0
 73
     0
 74
     0
 77
     1
 78
     8
140
7.0
147
2.0
172
     1
173
     1
174
     1
175
     1
176
     2
177
     2
271
     2
178
     7
271
     2
340
D6
  0
DIMSTYLE
105
4AE
102
{ACAD_REACTORS
330
4AF
102
}
330
A
100
AcDbSymbolTableRecord
100
AcDbDimStyleTableRecord
  2
ME10_DIM_18
 70
     0
 41
7.0
 42
0.0
 44
2.0
 73
     0
 74
     0
 77
     1
 78
     8
140
7.0
147
2.0
172
     1
173
     1
174
     1
175
     1
176
     2
177
     2
271
     2
178
     7
271
     2
340
437
  0
DIMSTYLE
105
4B9
102
{ACAD_REACTORS
330
4BA
102
}
330
A
100
AcDbSymbolTableRecord
100
AcDbDimStyleTableRecord
  2
ME10_DIM_19
 70
     0
 41
7.0
 42
0.0
 44
2.0
 73
     0
 74
     0
 77
     1
 78
     8
140
7.0
147
2.0
172
     1
173
     1
174
     1
175
     1
176
     2
177
     2
271
     2
178
     7
271
     2
340
D6
  0
DIMSTYLE
105
4C4
102
{ACAD_REACTORS
330
4C5
102
}
330
A
100
AcDbSymbolTableRecord
100
AcDbDimStyleTableRecord
  2
ME10_DIM_20
 70
     0
 41
7.0
 42
0.0
 44
2.0
 73
     0
 74
     0
 77
     1
 78
     8
140
7.0
147
2.0
172
     1
173
     1
174
     1
175
     1
176
     2
177
     2
271
     2
178
     7
271
     2
340
D6
  0
DIMSTYLE
105
4CF
102
{ACAD_REACTORS
330
4D0
102
}
330
A
100
AcDbSymbolTableRecord
100
AcDbDimStyleTableRecord
  2
ME10_DIM_21
 70
     0
 41
7.0
 42
0.0
 44
2.0
 73
     0
 74
     0
 77
     1
 78
     8
140
7.0
147
2.0
172
     1
173
     1
174
     1
175
     1
176
     2
177
     2
271
     2
178
     7
271
     2
340
437
  0
DIMSTYLE
105
4DC
102
{ACAD_REACTORS
330
4DD
102
}
330
A
100
AcDbSymbolTableRecord
100
AcDbDimStyleTableRecord
  2
ME10_DIM_22
 70
     0
 41
7.0
 42
0.0
 44
2.0
 73
     0
 74
     0
 77
     1
 78
     8
140
7.0
147
2.0
172
     1
173
     1
174
     1
175
     1
176
     2
177
     2
271
     2
178
     7
271
     2
340
437
  0
DIMSTYLE
105
4E9
102
{ACAD_REACTORS
330
4EA
102
}
330
A
100
AcDbSymbolTableRecord
100
AcDbDimStyleTableRecord
  2
ME10_DIM_23
 70
     0
  3
{\Fgdt;n}<>
 41
7.0
 42
0.0
 44
2.0
 73
     0
 74
     0
 77
     1
 78
     8
140
7.0
147
2.0
172
     1
173
     1
174
     1
175
     1
176
     2
177
     2
271
     2
178
     7
271
     2
340
437
  0
ENDTAB
  0
TABLE
  2
BLOCK_RECORD
  5
1
330
0
100
AcDbSymbolTable
 70
    33
  0
BLOCK_RECORD
  5
1F
330
1
100
AcDbSymbolTableRecord
100
AcDbBlockTableRecord
  2
*Model_Space
340
22
  0
BLOCK_RECORD
  5
1B
330
1
100
AcDbSymbolTableRecord
100
AcDbBlockTableRecord
  2
*Paper_Space
340
1E
  0
BLOCK_RECORD
  5
23
330
1
100
AcDbSymbolTableRecord
100
AcDbBlockTableRecord
  2
*Paper_Space0
340
26
  0
BLOCK_RECORD
  5
47
330
1
100
AcDbSymbolTableRecord
100
AcDbBlockTableRecord
  2
開示A4
340
0
102
{BLKREFS
331
7A
102
}
  0
BLOCK_RECORD
  5
4A
330
1
100
AcDbSymbolTableRecord
100
AcDbBlockTableRecord
  2
T601-3-H4
340
0
102
{BLKREFS
331
7B
102
}
  0
BLOCK_RECORD
  5
4D
330
1
100
AcDbSymbolTableRecord
100
AcDbBlockTableRecord
  2
V097-H7A
340
0
102
{BLKREFS
331
7C
102
}
  0
BLOCK_RECORD
  5
50
330
1
100
AcDbSymbolTableRecord
100
AcDbBlockTableRecord
  2
88-249
340
0
102
{BLKREFS
331
7D
102
}
  0
BLOCK_RECORD
  5
53
330
1
100
AcDbSymbolTableRecord
100
AcDbBlockTableRecord
  2
V97-30-Z1__1
340
0
102
{BLKREFS
331
7E
102
}
  0
BLOCK_RECORD
  5
56
330
1
100
AcDbSymbolTableRecord
100
AcDbBlockTableRecord
  2
V97-30-Z1__2
340
0
102
{BLKREFS
331
7F
102
}
  0
BLOCK_RECORD
  5
59
330
1
100
AcDbSymbolTableRecord
100
AcDbBlockTableRecord
  2
V97-H11
340
0
102
{BLKREFS
331
80
102
}
  0
BLOCK_RECORD
  5
5C
330
1
100
AcDbSymbolTableRecord
100
AcDbBlockTableRecord
  2
V97-H12
340
0
102
{BLKREFS
331
81
102
}
  0
BLOCK_RECORD
  5
5F
330
1
100
AcDbSymbolTableRecord
100
AcDbBlockTableRecord
  2
BIS
340
0
102
{BLKREFS
331
82
102
}
  0
BLOCK_RECORD
  5
62
330
1
100
AcDbSymbolTableRecord
100
AcDbBlockTableRecord
  2
BIS2
340
0
102
{BLKREFS
331
83
102
}
  0
BLOCK_RECORD
  5
65
330
1
100
AcDbSymbolTableRecord
100
AcDbBlockTableRecord
  2
V97D-H1
340
0
102
{BLKREFS
331
84
102
}
  0
BLOCK_RECORD
  5
68
330
1
100
AcDbSymbolTableRecord
100
AcDbBlockTableRecord
  2
V972GN-H6
340
0
102
{BLKREFS
331
85
102
}
  0
BLOCK_RECORD
  5
6B
330
1
100
AcDbSymbolTableRecord
100
AcDbBlockTableRecord
  2
V972GN-H2
340
0
102
{BLKREFS
331
86
102
}
  0
BLOCK_RECORD
  5
6E
330
1
100
AcDbSymbolTableRecord
100
AcDbBlockTableRecord
  2
V97G-H2
340
0
102
{BLKREFS
331
87
102
}
  0
BLOCK_RECORD
  5
71
330
1
100
AcDbSymbolTableRecord
100
AcDbBlockTableRecord
  2
V97G-H3
340
0
102
{BLKREFS
331
88
102
}
  0
BLOCK_RECORD
  5
74
330
1
100
AcDbSymbolTableRecord
100
AcDbBlockTableRecord
  2
V972GN-H3
340
0
102
{BLKREFS
331
89
102
}
  0
BLOCK_RECORD
  5
77
330
1
100
AcDbSymbolTableRecord
100
AcDbBlockTableRecord
  2
V96-3-H1
340
0
102
{BLKREFS
331
8A
102
}
  0
BLOCK_RECORD
  5
449
330
1
100
AcDbSymbolTableRecord
100
AcDbBlockTableRecord
  2
*D18
340
0
  0
BLOCK_RECORD
  5
454
330
1
100
AcDbSymbolTableRecord
100
AcDbBlockTableRecord
  2
*D19
340
0
  0
BLOCK_RECORD
  5
45F
330
1
100
AcDbSymbolTableRecord
100
AcDbBlockTableRecord
  2
*D20
340
0
  0
BLOCK_RECORD
  5
46A
330
1
100
AcDbSymbolTableRecord
100
AcDbBlockTableRecord
  2
*D21
340
0
  0
BLOCK_RECORD
  5
477
330
1
100
AcDbSymbolTableRecord
100
AcDbBlockTableRecord
  2
*D22
340
0
  0
BLOCK_RECORD
  5
47F
330
1
100
AcDbSymbolTableRecord
100
AcDbBlockTableRecord
  2
_NONE
340
0
  0
BLOCK_RECORD
  5
484
330
1
100
AcDbSymbolTableRecord
100
AcDbBlockTableRecord
  2
*D24
340
0
  0
BLOCK_RECORD
  5
48F
330
1
100
AcDbSymbolTableRecord
100
AcDbBlockTableRecord
  2
*D25
340
0
  0
BLOCK_RECORD
  5
49A
330
1
100
AcDbSymbolTableRecord
100
AcDbBlockTableRecord
  2
*D26
340
0
  0
BLOCK_RECORD
  5
4A5
330
1
100
AcDbSymbolTableRecord
100
AcDbBlockTableRecord
  2
*D27
340
0
  0
BLOCK_RECORD
  5
4B0
330
1
100
AcDbSymbolTableRecord
100
AcDbBlockTableRecord
  2
*D28
340
0
  0
BLOCK_RECORD
  5
4BB
330
1
100
AcDbSymbolTableRecord
100
AcDbBlockTableRecord
  2
*D29
340
0
  0
BLOCK_RECORD
  5
4C6
330
1
100
AcDbSymbolTableRecord
100
AcDbBlockTableRecord
  2
*D30
340
0
  0
BLOCK_RECORD
  5
4D1
330
1
100
AcDbSymbolTableRecord
100
AcDbBlockTableRecord
  2
*D31
340
0
  0
BLOCK_RECORD
  5
4DE
330
1
100
AcDbSymbolTableRecord
100
AcDbBlockTableRecord
  2
*D32
340
0
  0
ENDTAB
  0
ENDSEC
  0
SECTION
  2
BLOCKS
  0
BLOCK
  5
20
330
1F
100
AcDbEntity
  8
0
100
AcDbBlockBegin
  2
*Model_Space
 70
     0
 10
0.0
 20
0.0
 30
0.0
  3
*Model_Space
  1

  0
ENDBLK
  5
21
330
1F
100
AcDbEntity
  8
0
100
AcDbBlockEnd
  0
BLOCK
  5
1C
330
1B
100
AcDbEntity
 67
     1
  8
0
100
AcDbBlockBegin
  2
*Paper_Space
 70
     0
 10
0.0
 20
0.0
 30
0.0
  3
*Paper_Space
  1

  0
ENDBLK
  5
1D
330
1B
100
AcDbEntity
 67
     1
  8
0
100
AcDbBlockEnd
  0
BLOCK
  5
24
330
23
100
AcDbEntity
  8
0
100
AcDbBlockBegin
  2
*Paper_Space0
 70
     0
 10
0.0
 20
0.0
 30
0.0
  3
*Paper_Space0
  1

  0
ENDBLK
  5
25
330
23
100
AcDbEntity
  8
0
100
AcDbBlockEnd
  0
BLOCK
  5
48
330
47
100
AcDbEntity
  8
0
100
AcDbBlockBegin
  2
開示A4
 70
     0
 10
0.0
 20
0.0
 30
0.0
  3
開示A4
  1

  0
POINT
  5
8B
330
47
100
AcDbEntity
  8
1
 62
     4
100
AcDbPoint
 10
93.75
 20
17.0
 30
0.0
  0
POINT
  5
8C
330
47
100
AcDbEntity
  8
1
 62
     4
100
AcDbPoint
 10
85.25
 20
17.0
 30
0.0
  0
POINT
  5
8D
330
47
100
AcDbEntity
  8
1
 62
     4
100
AcDbPoint
 10
106.5
 20
19.00000000000001
 30
0.0
  0
POINT
  5
8E
330
47
100
AcDbEntity
  8
1
 62
     4
100
AcDbPoint
 10
106.5
 20
12.5
 30
0.0
  0
POINT
  5
8F
330
47
100
AcDbEntity
  8
1
 62
     4
100
AcDbPoint
 10
112.25
 20
12.5
 30
0.0
  0
POINT
  5
90
330
47
100
AcDbEntity
  8
1
 62
     4
100
AcDbPoint
 10
100.75
 20
12.5
 30
0.0
  0
POINT
  5
91
330
47
100
AcDbEntity
  8
1
 62
     4
100
AcDbPoint
 10
123.5
 20
19.00000000000001
 30
0.0
  0
POINT
  5
92
330
47
100
AcDbEntity
  8
1
 62
     4
100
AcDbPoint
 10
123.5
 20
12.5
 30
0.0
  0
POINT
  5
93
330
47
100
AcDbEntity
  8
1
 62
     4
100
AcDbPoint
 10
129.25
 20
12.5
 30
0.0
  0
POINT
  5
94
330
47
100
AcDbEntity
  8
1
 62
     4
100
AcDbPoint
 10
117.75
 20
12.5
 30
0.0
  0
POINT
  5
95
330
47
100
AcDbEntity
  8
1
 62
     4
100
AcDbPoint
 10
140.5
 20
19.00000000000001
 30
0.0
  0
POINT
  5
96
330
47
100
AcDbEntity
  8
1
 62
     4
100
AcDbPoint
 10
140.5
 20
12.5
 30
0.0
  0
POINT
  5
97
330
47
100
AcDbEntity
  8
1
 62
     4
100
AcDbPoint
 10
146.25
 20
12.5
 30
0.0
  0
POINT
  5
98
330
47
100
AcDbEntity
  8
1
 62
     4
100
AcDbPoint
 10
134.75
 20
12.5
 30
0.0
  0
POINT
  5
99
330
47
100
AcDbEntity
  8
1
 62
     4
100
AcDbPoint
 10
151.75
 20
12.5
 30
0.0
  0
POINT
  5
9A
330
47
100
AcDbEntity
  8
1
 62
     4
100
AcDbPoint
 10
163.25
 20
12.5
 30
0.0
  0
POINT
  5
9B
330
47
100
AcDbEntity
  8
1
 62
     4
100
AcDbPoint
 10
157.5
 20
12.5
 30
0.0
  0
POINT
  5
9C
330
47
100
AcDbEntity
  8
1
 62
     4
100
AcDbPoint
 10
57.0
 20
14.25
 30
0.0
  0
POINT
  5
9D
330
47
100
AcDbEntity
  8
1
 62
     4
100
AcDbPoint
 10
57.0
 20
22.75000000000001
 30
0.0
  0
POINT
  5
9E
330
47
100
AcDbEntity
  8
1
 62
     4
100
AcDbPoint
 10
47.5
 20
282.0000000000003
 30
0.0
  0
POINT
  5
9F
330
47
100
AcDbEntity
  8
1
 62
     4
100
AcDbPoint
 10
157.5
 20
19.00000000000001
 30
0.0
  0
POINT
  5
A0
330
47
100
AcDbEntity
  8
1
 62
     4
100
AcDbPoint
 10
57.0
 20
16.25
 30
0.0
  0
POINT
  5
A1
330
47
100
AcDbEntity
  8
1
 62
     4
100
AcDbPoint
 10
57.0
 20
24.75000000000001
 30
0.0
  0
POINT
  5
A2
330
47
100
AcDbEntity
  8
1
 62
     4
100
AcDbPoint
 10
57.0
 20
20.75000000000001
 30
0.0
  0
POINT
  5
A3
330
47
100
AcDbEntity
  8
1
 62
     4
100
AcDbPoint
 10
57.0
 20
12.25
 30
0.0
  0
POINT
  5
A4
330
47
100
AcDbEntity
  8
1
 62
     4
100
AcDbPoint
 10
34.0
 20
34.00000000000001
 30
0.0
  0
LINE
  5
A5
330
47
100
AcDbEntity
  8
1
  6
Continuous
 62
     7
100
AcDbLine
 10
105.0
 20
10.0
 30
0.0
 11
200.0
 21
10.0
 31
0.0
  0
LINE
  5
A6
330
47
100
AcDbEntity
  8
1
  6
Continuous
 62
     2
100
AcDbLine
 10
105.0
 20
10.0
 30
0.0
 11
105.0
 21
5.0
 31
0.0
  0
LINE
  5
A7
330
47
100
AcDbEntity
  8
1
  6
Continuous
 62
     7
100
AcDbLine
 10
200.0
 20
148.5
 30
0.0
 11
200.0
 21
287.0000000000003
 31
0.0
  0
LINE
  5
A8
330
47
100
AcDbEntity
  8
1
  6
Continuous
 62
     2
100
AcDbLine
 10
200.0
 20
148.5
 30
0.0
 11
205.0
 21
148.5
 31
0.0
  0
LINE
  5
A9
330
47
100
AcDbEntity
  8
1
  6
Continuous
 62
     7
100
AcDbLine
 10
25.0
 20
148.5
 30
0.0
 11
25.0
 21
287.0000000000003
 31
0.0
  0
LINE
  5
AA
330
47
100
AcDbEntity
  8
1
  6
Continuous
 62
     2
100
AcDbLine
 10
25.0
 20
148.5
 30
0.0
 11
20.0
 21
148.5
 31
0.0
  0
LINE
  5
AB
330
47
100
AcDbEntity
  8
1
  6
Continuous
 62
     7
100
AcDbLine
 10
105.0
 20
287.0000000000003
 30
0.0
 11
25.0
 21
287.0000000000003
 31
0.0
  0
LINE
  5
AC
330
47
100
AcDbEntity
  8
1
  6
Continuous
 62
     2
100
AcDbLine
 10
105.0
 20
287.0000000000003
 30
0.0
 11
105.0
 21
292.0000000000003
 31
0.0
  0
LINE
  5
AD
330
47
100
AcDbEntity
  8
1
  6
Continuous
 62
     2
100
AcDbLine
 10
166.0
 20
20.00000000000001
 30
0.0
 11
200.0
 21
20.00000000000001
 31
0.0
  0
LINE
  5
AE
330
47
100
AcDbEntity
  8
1
  6
Continuous
 62
     2
100
AcDbLine
 10
98.0
 20
27.00000000000001
 30
0.0
 11
98.0
 21
9.99999999999999
 31
0.0
  0
LINE
  5
AF
330
47
100
AcDbEntity
  8
1
  6
Continuous
 62
     2
100
AcDbLine
 10
115.0
 20
27.00000000000001
 30
0.0
 11
115.0
 21
9.99999999999999
 31
0.0
  0
LINE
  5
B0
330
47
100
AcDbEntity
  8
1
  6
Continuous
 62
     2
100
AcDbLine
 10
149.0
 20
27.00000000000001
 30
0.0
 11
149.0
 21
10.0
 31
0.0
  0
LINE
  5
B1
330
47
100
AcDbEntity
  8
1
  6
Continuous
 62
     2
100
AcDbLine
 10
132.0
 20
27.00000000000001
 30
0.0
 11
132.0
 21
9.99999999999999
 31
0.0
  0
LINE
  5
B2
330
47
100
AcDbEntity
  8
1
  6
Continuous
 62
     2
100
AcDbLine
 10
166.0
 20
27.00000000000001
 30
0.0
 11
166.0
 21
10.0
 31
0.0
  0
LINE
  5
B3
330
47
100
AcDbEntity
  8
1
  6
Continuous
 62
     2
100
AcDbLine
 10
55.0
 20
277.0000000000003
 30
0.0
 11
25.0
 21
277.0000000000003
 31
0.0
  0
LINE
  5
B4
330
47
100
AcDbEntity
  8
1
  6
Continuous
 62
     7
100
AcDbLine
 10
25.0
 20
10.0
 30
0.0
 11
25.0
 21
148.5
 31
0.0
  0
LINE
  5
B5
330
47
100
AcDbEntity
  8
1
  6
Continuous
 62
     2
100
AcDbLine
 10
40.0
 20
287.0000000000003
 30
0.0
 11
40.0
 21
277.0000000000003
 31
0.0
  0
LINE
  5
B6
330
47
100
AcDbEntity
  8
1
  6
Continuous
 62
     2
100
AcDbLine
 10
55.0
 20
287.0000000000003
 30
0.0
 11
55.0
 21
277.0000000000003
 31
0.0
  0
LINE
  5
B7
330
47
100
AcDbEntity
  8
1
  6
Continuous
 62
     2
100
AcDbLine
 10
33.0
 20
41.00000000000001
 30
0.0
 11
33.0
 21
27.0
 31
0.0
  0
LINE
  5
B8
330
47
100
AcDbEntity
  8
1
  6
Continuous
 62
     7
100
AcDbLine
 10
200.0
 20
27.00000000000001
 30
0.0
 11
25.0
 21
27.00000000000001
 31
0.0
  0
LINE
  5
B9
330
47
100
AcDbEntity
  8
1
  6
Continuous
 62
     7
100
AcDbLine
 10
25.0
 20
41.0
 30
0.0
 11
200.0
 21
41.0
 31
0.0
  0
LINE
  5
BA
330
47
100
AcDbEntity
  8
1
  6
PHANTOM
 62
     4
100
AcDbLine
 10
0.0
 20
0.0
 30
0.0
 11
210.0
 21
0.0
 31
0.0
  0
LINE
  5
BB
330
47
100
AcDbEntity
  8
1
  6
PHANTOM
 62
     4
100
AcDbLine
 10
210.0
 20
0.0
 30
0.0
 11
210.0
 21
297.0
 31
0.0
  0
LINE
  5
BC
330
47
100
AcDbEntity
  8
1
  6
PHANTOM
 62
     4
100
AcDbLine
 10
210.0
 20
297.0
 30
0.0
 11
0.0
 21
297.0
 31
0.0
  0
LINE
  5
BD
330
47
100
AcDbEntity
  8
1
  6
PHANTOM
 62
     4
100
AcDbLine
 10
0.0
 20
297.0
 30
0.0
 11
0.0
 21
0.0
 31
0.0
  0
LINE
  5
BE
330
47
100
AcDbEntity
  8
1
  6
Continuous
 62
     7
100
AcDbLine
 10
25.0
 20
10.0
 30
0.0
 11
105.0
 21
10.0
 31
0.0
  0
LINE
  5
BF
330
47
100
AcDbEntity
  8
1
  6
Continuous
 62
     7
100
AcDbLine
 10
200.0
 20
10.0
 30
0.0
 11
200.0
 21
148.5
 31
0.0
  0
LINE
  5
C0
330
47
100
AcDbEntity
  8
1
  6
Continuous
 62
     7
100
AcDbLine
 10
200.0
 20
287.0000000000003
 30
0.0
 11
105.0
 21
287.0000000000003
 31
0.0
  0
LINE
  5
C1
330
47
100
AcDbEntity
  8
1
  6
Continuous
 62
     2
100
AcDbLine
 10
25.0
 20
18.50000000000001
 30
0.0
 11
81.0
 21
18.50000000000001
 31
0.0
  0
LINE
  5
C2
330
47
100
AcDbEntity
  8
1
  6
Continuous
 62
     2
100
AcDbLine
 10
33.0
 20
27.0
 30
0.0
 11
33.0
 21
10.0
 31
0.0
  0
LINE
  5
C3
330
47
100
AcDbEntity
  8
1
  6
Continuous
 62
     7
100
AcDbLine
 10
191.0
 20
24.70000000000001
 30
0.0
 11
191.0
 21
22.30000000000001
 31
0.0
  0
LINE
  5
C4
330
47
100
AcDbEntity
  8
1
  6
Continuous
 62
     7
100
AcDbLine
 10
191.0
 20
24.70000000000001
 30
0.0
 11
196.0
 21
25.50000000000001
 31
0.0
  0
LINE
  5
C5
330
47
100
AcDbEntity
  8
1
  6
Continuous
 62
     7
100
AcDbLine
 10
196.0
 20
25.50000000000001
 30
0.0
 11
196.0
 21
21.50000000000001
 31
0.0
  0
LINE
  5
C6
330
47
100
AcDbEntity
  8
1
  6
Continuous
 62
     7
100
AcDbLine
 10
196.0
 20
21.50000000000001
 30
0.0
 11
191.0
 21
22.30000000000001
 31
0.0
  0
LINE
  5
C7
330
47
100
AcDbEntity
  8
1
  6
DOT_CENTER
 62
     2
100
AcDbLine
 10
184.0
 20
23.50000000000001
 30
0.0
 11
197.0
 21
23.50000000000001
 31
0.0
  0
LINE
  5
C8
330
47
100
AcDbEntity
  8
1
  6
DOT_CENTER
 62
     2
100
AcDbLine
 10
187.0
 20
26.50000000000001
 30
0.0
 11
187.0
 21
20.50000000000001
 31
0.0
  0
LINE
  5
C9
330
47
100
AcDbEntity
  8
1
  6
Continuous
 62
     2
100
AcDbLine
 10
81.0
 20
27.00000000000001
 30
0.0
 11
81.0
 21
10.0
 31
0.0
  0
CIRCLE
  5
CA
330
47
100
AcDbEntity
  8
1
  6
Continuous
 62
     7
100
AcDbCircle
 10
103.5
 20
12.5
 30
0.0
 40
0.2999999999999972
  0
CIRCLE
  5
CB
330
47
100
AcDbEntity
  8
1
  6
Continuous
 62
     7
100
AcDbCircle
 10
109.5
 20
12.5
 30
0.0
 40
0.2999999999999972
  0
CIRCLE
  5
CC
330
47
100
AcDbEntity
  8
1
  6
Continuous
 62
     7
100
AcDbCircle
 10
120.5
 20
12.5
 30
0.0
 40
0.2999999999999972
  0
CIRCLE
  5
CD
330
47
100
AcDbEntity
  8
1
  6
Continuous
 62
     7
100
AcDbCircle
 10
126.5
 20
12.5
 30
0.0
 40
0.2999999999999972
  0
CIRCLE
  5
CE
330
47
100
AcDbEntity
  8
1
  6
Continuous
 62
     7
100
AcDbCircle
 10
137.5
 20
12.5
 30
0.0
 40
0.3000000000000114
  0
CIRCLE
  5
CF
330
47
100
AcDbEntity
  8
1
  6
Continuous
 62
     7
100
AcDbCircle
 10
143.5
 20
12.5
 30
0.0
 40
0.3000000000000114
  0
CIRCLE
  5
D0
330
47
100
AcDbEntity
  8
1
  6
Continuous
 62
     7
100
AcDbCircle
 10
160.5
 20
12.5
 30
0.0
 40
0.3000000000000114
  0
CIRCLE
  5
D1
330
47
100
AcDbEntity
  8
1
  6
Continuous
 62
     7
100
AcDbCircle
 10
154.5
 20
12.5
 30
0.0
 40
0.3000000000000114
  0
CIRCLE
  5
D2
330
47
100
AcDbEntity
  8
1
  6
Continuous
 62
     7
100
AcDbCircle
 10
187.0
 20
23.50000000000001
 30
0.0
 40
1.200000000000102
  0
CIRCLE
  5
D3
330
47
100
AcDbEntity
  8
1
  6
Continuous
 62
     7
100
AcDbCircle
 10
187.0
 20
23.50000000000001
 30
0.0
 40
2.0
  0
CIRCLE
  5
D4
330
47
100
AcDbEntity
  8
1
  6
DOT_CENTER
 62
     7
100
AcDbCircle
 10
89.5
 20
16.0
 30
0.0
 40
0.1000000000000227
  0
CIRCLE
  5
D5
330
47
100
AcDbEntity
  8
1
  6
DOT_CENTER
 62
     7
100
AcDbCircle
 10
89.5
 20
18.0
 30
0.0
 40
0.1000000000000227
  0
MTEXT
  5
D7
330
47
100
AcDbEntity
  8
1
 62
     7
100
AcDbMText
 10
188.5
 20
15.0
 30
0.0
 40
3.0
 41
0.0
 71
     5
 72
     1
  1
三栄水栓製作所
  7
CONVERTER_11
 73
     1
 44
1.0
  0
MTEXT
  5
D8
330
47
100
AcDbEntity
  8
1
 62
     7
100
AcDbMText
 10
171.5
 20
15.0
 30
0.0
 40
2.5
 41
0.0
 71
     5
 72
     1
  1
株式会社
  7
CONVERTER_11
 73
     1
 44
1.0
  0
MTEXT
  5
D9
330
47
100
AcDbEntity
  8
1
 62
     2
100
AcDbMText
 10
32.5
 20
282.0000000000003
 30
0.0
 40
5.0
 41
0.0
 71
     5
 72
     1
  1
図番
  7
CONVERTER_11
 73
     1
 44
0.45454545454545
  0
MTEXT
  5
DA
330
47
100
AcDbEntity
  8
1
 62
     2
100
AcDbMText
 10
29.0
 20
34.00000000000001
 30
0.0
 40
3.5
 41
0.0
 71
     5
 72
     1
  1
備考
  7
CONVERTER_11
 73
     1
 44
0.45454545454545
  0
MTEXT
  5
DB
330
47
100
AcDbEntity
  8
1
 62
     2
100
AcDbMText
 10
29.0
 20
22.75
 30
0.0
 40
3.5
 41
0.0
 71
     5
 72
     1
  1
品名
  7
CONVERTER_11
 73
     1
 44
0.72727272727273
  0
MTEXT
  5
DC
330
47
100
AcDbEntity
  8
1
 62
     2
100
AcDbMText
 10
29.0
 20
14.25
 30
0.0
 40
3.5
 41
0.0
 71
     5
 72
     1
  1
品番
  7
CONVERTER_11
 73
     1
 44
0.72727272727273
  0
MTEXT
  5
DD
330
47
100
AcDbEntity
  8
1
 62
     2
100
AcDbMText
 10
101.5
 20
25.00000000000001
 30
0.0
 40
3.0
 41
0.0
 71
     5
 72
     1
  1
承認
  7
CONVERTER_11
 73
     1
 44
0.59090909090909
  0
MTEXT
  5
DE
330
47
100
AcDbEntity
  8
1
 62
     2
100
AcDbMText
 10
175.0
 20
23.50000000000001
 30
0.0
 40
3.5
 41
0.0
 71
     5
 72
     1
  1
第三角法
  7
CONVERTER_11
 73
     1
 44
0.54545454545455
  0
MTEXT
  5
DF
330
47
100
AcDbEntity
  8
1
 62
     2
100
AcDbMText
 10
118.5
 20
25.00000000000001
 30
0.0
 40
3.0
 41
0.0
 71
     5
 72
     1
  1
検図
  7
CONVERTER_11
 73
     1
 44
0.59090909090909
  0
MTEXT
  5
E0
330
47
100
AcDbEntity
  8
1
 62
     2
100
AcDbMText
 10
152.5
 20
25.00000000000001
 30
0.0
 40
3.0
 41
0.0
 71
     5
 72
     1
  1
設計
  7
CONVERTER_11
 73
     1
 44
0.59090909090909
  0
MTEXT
  5
E1
330
47
100
AcDbEntity
  8
1
 62
     2
100
AcDbMText
 10
135.5
 20
25.00000000000001
 30
0.0
 40
3.0
 41
0.0
 71
     5
 72
     1
  1
製図
  7
CONVERTER_11
 73
     1
 44
0.59090909090909
  0
MTEXT
  5
E2
330
47
100
AcDbEntity
  8
1
 62
     2
100
AcDbMText
 10
89.5
 20
24.00000000000001
 30
0.0
 40
3.5
 41
0.0
 71
     5
 72
     1
  1
尺度
  7
CONVERTER_11
 73
     1
 44
0.54545454545455
  0
MTEXT
  5
E3
330
47
100
AcDbEntity
  8
1
 62
   250
100
AcDbMText
 10
25.0
 20
5.0
 30
0.0
 40
3.5
 41
0.0
 71
     4
 72
     1
  1
備考欄の文字列 原点位置=4
  7
CONVERTER_11
 73
     1
 44
0.54545454545455
  0
ENDBLK
  5
49
330
47
100
AcDbEntity
  8
0
100
AcDbBlockEnd
  0
BLOCK
  5
4B
330
4A
100
AcDbEntity
  8
0
100
AcDbBlockBegin
  2
T601-3-H4
 70
     0
 10
73.82370804517268
 20
-88.67054073931558
 30
0.0
  3
T601-3-H4
  1

  0
LINE
  5
E4
330
4A
100
AcDbEntity
  8
1
  6
Continuous
 62
     7
100
AcDbLine
 10
316.9373608577826
 20
224.0626711223918
 30
0.0
 11
316.9373608577826
 21
222.856899756453
 31
0.0
  0
LINE
  5
E5
330
4A
100
AcDbEntity
  8
1
  6
Continuous
 62
     7
100
AcDbLine
 10
316.9373608577826
 20
222.856899756453
 30
0.0
 11
316.9373608577826
 21
205.8213205696107
 31
0.0
  0
LINE
  5
E6
330
4A
100
AcDbEntity
  8
1
  6
Continuous
 62
     7
100
AcDbLine
 10
316.9373608577826
 20
205.8213205696107
 30
0.0
 11
315.4373608567821
 21
204.5626711223918
 31
0.0
  0
LINE
  5
E7
330
4A
100
AcDbEntity
  8
1
  6
Continuous
 62
     7
100
AcDbLine
 10
289.9373608577735
 20
222.856899756453
 30
0.0
 11
289.9373608577735
 21
224.0626711223918
 31
0.0
  0
LINE
  5
E8
330
4A
100
AcDbEntity
  8
1
  6
Continuous
 62
     7
100
AcDbLine
 10
289.9373608577735
 20
224.0626711223918
 30
0.0
 11
289.9373608577735
 21
224.0626711223918
 31
0.0
  0
LINE
  5
E9
330
4A
100
AcDbEntity
  8
1
  6
Continuous
 62
     7
100
AcDbLine
 10
289.9373608577735
 20
205.8213205696107
 30
0.0
 11
289.9373608577735
 21
222.856899756453
 31
0.0
  0
LINE
  5
EA
330
4A
100
AcDbEntity
  8
1
  6
Continuous
 62
     7
100
AcDbLine
 10
166.8564636504834
 20
207.573744292391
 30
0.0
 11
166.8564636504834
 21
222.8568997563907
 31
0.0
  0
LINE
  5
EB
330
4A
100
AcDbEntity
  8
1
  6
Continuous
 62
     7
100
AcDbLine
 10
159.0622350164831
 20
224.0626711223918
 30
0.0
 11
172.5622350164831
 21
224.0626711223918
 31
0.0
  0
LINE
  5
EC
330
4A
100
AcDbEntity
  8
1
  6
Continuous
 62
     7
100
AcDbLine
 10
145.5622350164831
 20
224.0626711223918
 30
0.0
 11
159.0622350164831
 21
224.0626711223918
 31
0.0
  0
LINE
  5
ED
330
4A
100
AcDbEntity
  8
1
  6
Continuous
 62
     7
100
AcDbLine
 10
151.2680063824828
 20
222.8568997563907
 30
0.0
 11
151.2680063824828
 21
207.573744292391
 31
0.0
  0
LINE
  5
EE
330
4A
100
AcDbEntity
  8
1
  6
Continuous
 62
     7
100
AcDbLine
 10
291.4373608587721
 20
204.5626711223918
 30
0.0
 11
289.9373608577735
 21
205.8213205696107
 31
0.0
  0
LINE
  5
EF
330
4A
100
AcDbEntity
  8
1
  6
Continuous
 62
     7
100
AcDbLine
 10
291.4373608587721
 20
204.5626711223918
 30
0.0
 11
303.4373608577735
 21
204.5626711223918
 31
0.0
  0
LINE
  5
F0
330
4A
100
AcDbEntity
  8
1
  6
Continuous
 62
     7
100
AcDbLine
 10
303.4373608577735
 20
224.0626711223918
 30
0.0
 11
316.9373608577735
 21
224.0626711223918
 31
0.0
  0
LINE
  5
F1
330
4A
100
AcDbEntity
  8
1
  6
Continuous
 62
     7
100
AcDbLine
 10
303.4373608577735
 20
204.5626711223918
 30
0.0
 11
315.4373608567821
 21
204.5626711223918
 31
0.0
  0
LINE
  5
F2
330
4A
100
AcDbEntity
  8
1
  6
Continuous
 62
     7
100
AcDbLine
 10
289.9373608577735
 20
224.0626711223918
 30
0.0
 11
303.4373608577735
 21
224.0626711223918
 31
0.0
  0
LINE
  5
F3
330
4A
100
AcDbEntity
  8
1
  6
Continuous
 62
     7
100
AcDbLine
 10
303.4373608577735
 20
222.8568997563907
 30
0.0
 11
303.4373608577735
 21
207.573744292391
 31
0.0
  0
LINE
  5
F4
330
4A
100
AcDbEntity
  8
1
  6
Continuous
 62
     7
100
AcDbLine
 10
174.6506922844819
 20
207.573744292391
 30
0.0
 11
171.0622350154827
 21
204.5626711223918
 31
0.0
  0
LINE
  5
F5
330
4A
100
AcDbEntity
  8
1
  6
Continuous
 62
     7
100
AcDbLine
 10
171.0622350164831
 20
224.0626711223918
 30
0.0
 11
172.5622350164831
 21
224.0626711223918
 31
0.0
  0
LINE
  5
F6
330
4A
100
AcDbEntity
  8
1
  6
Continuous
 62
     7
100
AcDbLine
 10
174.6506922844819
 20
222.8568997563907
 30
0.0
 11
174.6506922844819
 21
207.573744292391
 31
0.0
  0
LINE
  5
F7
330
4A
100
AcDbEntity
  8
1
  6
Continuous
 62
     7
100
AcDbLine
 10
159.0622350164831
 20
204.5626711223918
 30
0.0
 11
171.0622350154827
 21
204.5626711223918
 31
0.0
  0
LINE
  5
F8
330
4A
100
AcDbEntity
  8
1
  6
Continuous
 62
     7
100
AcDbLine
 10
172.5622350164831
 20
224.0626711223918
 30
0.0
 11
174.6506922844819
 21
222.8568997563907
 31
0.0
  0
LINE
  5
F9
330
4A
100
AcDbEntity
  8
1
  6
Continuous
 62
     7
100
AcDbLine
 10
147.0622350174835
 20
204.5626711223918
 30
0.0
 11
143.4737777484825
 21
207.573744292391
 31
0.0
  0
LINE
  5
FA
330
4A
100
AcDbEntity
  8
1
  6
Continuous
 62
     7
100
AcDbLine
 10
145.5622350164831
 20
224.0626711223918
 30
0.0
 11
147.0622350164831
 21
224.0626711223918
 31
0.0
  0
LINE
  5
FB
330
4A
100
AcDbEntity
  8
1
  6
Continuous
 62
     7
100
AcDbLine
 10
143.4737777484825
 20
207.573744292391
 30
0.0
 11
143.4737777484825
 21
222.8568997563907
 31
0.0
  0
LINE
  5
FC
330
4A
100
AcDbEntity
  8
1
  6
Continuous
 62
     7
100
AcDbLine
 10
147.0622350174835
 20
204.5626711223918
 30
0.0
 11
159.0622350164831
 21
204.5626711223918
 31
0.0
  0
LINE
  5
FD
330
4A
100
AcDbEntity
  8
1
  6
Continuous
 62
     7
100
AcDbLine
 10
143.4737777484825
 20
222.8568997563907
 30
0.0
 11
145.5622350164831
 21
224.0626711223918
 31
0.0
  0
ARC
  5
FE
330
4A
100
AcDbEntity
  8
1
  6
Continuous
 62
     7
100
AcDbCircle
 10
310.1873608577826
 20
219.697384978545
 30
0.0
 40
13.87606440915762
100
AcDbArc
 50
240.8925382863339
 51
299.1074617136332
  0
ARC
  5
FF
330
4A
100
AcDbEntity
  8
1
  6
Continuous
 62
     7
100
AcDbCircle
 10
310.1873608578626
 20
204.566278226549
 30
0.0
 40
19.49639289584379
100
AcDbArc
 50
69.743841999353
 51
110.2561580011765
  0
ARC
  5
100
330
4A
100
AcDbEntity
  8
1
  6
Continuous
 62
     7
100
AcDbCircle
 10
296.6873608576934
 20
204.566278226549
 30
0.0
 40
19.49639289584076
100
AcDbArc
 50
69.74384199884828
 51
110.2561580006467
  0
ARC
  5
101
330
4A
100
AcDbEntity
  8
1
  6
Continuous
 62
     7
100
AcDbCircle
 10
296.6873608577735
 20
219.697384978545
 30
0.0
 40
13.8760644091532
100
AcDbArc
 50
240.8925382863668
 51
299.1074617136332
  0
ARC
  5
102
330
4A
100
AcDbEntity
  8
1
  6
Continuous
 62
     7
100
AcDbCircle
 10
170.7535779674836
 20
211.030816612391
 30
0.0
 40
5.209496043000625
100
AcDbArc
 50
221.575756707995
 51
301.5757567080198
  0
ARC
  5
103
330
4A
100
AcDbEntity
  8
1
  6
Continuous
 62
     7
100
AcDbCircle
 10
159.0622350164831
 20
224.030669157391
 30
0.0
 40
18.20934858800001
100
AcDbArc
 50
270.0
 51
295.342886368995
  0
ARC
  5
104
330
4A
100
AcDbEntity
  8
1
  6
Continuous
 62
     7
100
AcDbCircle
 10
170.7535779674836
 20
217.1619497013908
 30
0.0
 40
6.900721420997592
100
AcDbArc
 50
64.38424746803554
 51
124.3842474679943
  0
ARC
  5
105
330
4A
100
AcDbEntity
  8
1
  6
Continuous
 62
     7
100
AcDbCircle
 10
159.0622350154827
 20
198.268442488391
 30
0.0
 40
25.79422863399882
100
AcDbArc
 50
72.41204622600901
 51
90.0
  0
ARC
  5
106
330
4A
100
AcDbEntity
  8
1
  6
Continuous
 62
     7
100
AcDbCircle
 10
159.0622350174835
 20
198.268442488391
 30
0.0
 40
25.7942286340008
100
AcDbArc
 50
90.0
 51
107.5879537740141
  0
ARC
  5
107
330
4A
100
AcDbEntity
  8
1
  6
Continuous
 62
     7
100
AcDbCircle
 10
147.3708920654826
 20
217.1619497013908
 30
0.0
 40
6.900721420999966
100
AcDbArc
 50
55.61575253201801
 51
115.615752532046
  0
ARC
  5
108
330
4A
100
AcDbEntity
  8
1
  6
Continuous
 62
     7
100
AcDbCircle
 10
159.0622350164831
 20
224.030669157391
 30
0.0
 40
18.20934858799853
100
AcDbArc
 50
244.657113631005
 51
270.0
  0
ARC
  5
109
330
4A
100
AcDbEntity
  8
1
  6
Continuous
 62
     7
100
AcDbCircle
 10
147.3708920654826
 20
211.030816612391
 30
0.0
 40
5.209496043001607
100
AcDbArc
 50
238.4242432919802
 51
318.424243292005
  0
ENDBLK
  5
4C
330
4A
100
AcDbEntity
  8
0
100
AcDbBlockEnd
  0
BLOCK
  5
4E
330
4D
100
AcDbEntity
  8
0
100
AcDbBlockBegin
  2
V097-H7A
 70
     0
 10
-5.68561283632698
 20
935.8037120855315
 30
0.0
  3
V097-H7A
  1

  0
LINE
  5
10A
330
4D
100
AcDbEntity
  8
0
  6
Continuous
 62
     7
100
AcDbLine
 10
173.3122350164831
 20
321.3115417474633
 30
0.0
 11
144.8122350164831
 21
321.3115417474633
 31
0.0
  0
LINE
  5
10B
330
4D
100
AcDbEntity
  8
0
  6
Continuous
 62
     7
100
AcDbLine
 10
173.3122350164831
 20
331.3115417474633
 30
0.0
 11
144.8122350164831
 21
331.3115417474633
 31
0.0
  0
LINE
  5
10C
330
4D
100
AcDbEntity
  8
0
  6
Continuous
 62
     2
100
AcDbLine
 10
143.0632640281328
 20
395.2433134390376
 30
0.0
 11
143.5064089519019
 21
395.2433134390376
 31
0.0
  0
LINE
  5
10D
330
4D
100
AcDbEntity
  8
0
  6
Continuous
 62
     2
100
AcDbLine
 10
143.0632640281328
 20
395.2433134390376
 30
0.0
 11
143.0078710602429
 21
395.7051040524534
 31
0.0
  0
LINE
  5
10E
330
4D
100
AcDbEntity
  8
0
  6
Continuous
 62
     7
100
AcDbLine
 10
143.5064089652933
 20
395.2433134390376
 30
0.0
 11
174.6180610542724
 21
395.2433134390376
 31
0.0
  0
LINE
  5
10F
330
4D
100
AcDbEntity
  8
0
  6
Continuous
 62
     2
100
AcDbLine
 10
174.6180610542724
 20
395.2433134390376
 30
0.0
 11
175.0612060048334
 21
395.2433134390376
 31
0.0
  0
LINE
  5
110
330
4D
100
AcDbEntity
  8
0
  6
Continuous
 62
     2
100
AcDbLine
 10
175.0612060048334
 20
395.2433134390376
 30
0.0
 11
175.1165989726833
 21
395.7051040518036
 31
0.0
  0
LINE
  5
111
330
4D
100
AcDbEntity
  8
0
  6
Continuous
 62
     7
100
AcDbLine
 10
143.466399991783
 20
396.2490202227336
 30
0.0
 11
143.0693491655529
 21
401.7933134390373
 31
0.0
  0
LINE
  5
112
330
4D
100
AcDbEntity
  8
0
  6
Continuous
 62
     7
100
AcDbLine
 10
143.0078710602429
 20
395.7051040524534
 30
0.0
 11
142.5412530885824
 21
401.7933134390373
 31
0.0
  0
LINE
  5
113
330
4D
100
AcDbEntity
  8
0
  6
Continuous
 62
     7
100
AcDbLine
 10
174.6580700411832
 20
396.2490202227336
 30
0.0
 11
175.0551208674133
 21
401.7933134390373
 31
0.0
  0
LINE
  5
114
330
4D
100
AcDbEntity
  8
0
  6
Continuous
 62
     7
100
AcDbLine
 10
175.1165989727324
 20
395.7051040524534
 30
0.0
 11
175.5832169443929
 21
401.7933134390373
 31
0.0
  0
LINE
  5
115
330
4D
100
AcDbEntity
  8
0
  6
Continuous
 62
     7
100
AcDbLine
 10
174.6180610542724
 20
395.2433134390376
 30
0.0
 11
174.6180610676729
 21
395.2433134390376
 31
0.0
  0
LINE
  5
116
330
4D
100
AcDbEntity
  8
0
  6
Continuous
 62
     7
100
AcDbLine
 10
265.5042165611631
 20
330.1976444653606
 30
0.0
 11
268.3873970294735
 21
330.4386104406804
 31
0.0
  0
LINE
  5
117
330
4D
100
AcDbEntity
  8
0
  6
Continuous
 62
     7
100
AcDbLine
 10
265.5042110285922
 20
322.2254394919614
 30
0.0
 11
268.3873970294735
 21
321.9844690245354
 31
0.0
  0
ARC
  5
118
330
4D
100
AcDbEntity
  8
0
  6
Continuous
 62
     7
100
AcDbCircle
 10
183.8122350164831
 20
326.3115417474633
 30
0.0
 40
10.00000000000085
100
AcDbArc
 50
160.6838778322391
 51
180.0
  0
ARC
  5
119
330
4D
100
AcDbEntity
  8
0
  6
Continuous
 62
     7
100
AcDbCircle
 10
183.8122350164831
 20
326.3115417474633
 30
0.0
 40
10.0
100
AcDbArc
 50
180.0
 51
199.3161221677594
  0
ARC
  5
11A
330
4D
100
AcDbEntity
  8
0
  6
Continuous
 62
     7
100
AcDbCircle
 10
159.0622350164831
 20
326.3115417474623
 30
0.0
 40
15.99999999999624
100
AcDbArc
 50
196.4707410655737
 51
343.5292589344355
  0
ARC
  5
11B
330
4D
100
AcDbEntity
  8
0
  6
Continuous
 62
     7
100
AcDbCircle
 10
134.3122350164831
 20
326.3115417474633
 30
0.0
 40
10.00000000000075
100
AcDbArc
 50
340.6838778322406
 51
19.31612216776091
  0
ARC
  5
11C
330
4D
100
AcDbEntity
  8
0
  6
Continuous
 62
     7
100
AcDbCircle
 10
159.0622350164831
 20
326.3115417474623
 30
0.0
 40
16.00000000000566
100
AcDbArc
 50
16.47074106557292
 51
163.5292589344179
  0
ARC
  5
11D
330
4D
100
AcDbEntity
  8
0
  6
Continuous
 62
     7
100
AcDbCircle
 10
143.5064089652933
 20
395.7433134390376
 30
0.0
 40
0.4999999999951793
100
AcDbArc
 50
184.3827460053984
 51
269.9999984654586
  0
ARC
  5
11E
330
4D
100
AcDbEntity
  8
0
  6
Continuous
 62
     7
100
AcDbCircle
 10
174.6180610676729
 20
395.7433134390376
 30
0.0
 40
0.5000000000000001
100
AcDbArc
 50
269.9999984644164
 51
355.6172539200036
  0
LINE
  5
11F
330
4D
100
AcDbEntity
  8
0
  6
Continuous
 62
     7
100
AcDbLine
 10
143.007871058242
 20
395.7051040785204
 30
0.0
 11
143.0078710602429
 21
395.7051040524534
 31
0.0
  0
ARC
  5
120
330
4D
100
AcDbEntity
  8
0
  6
Continuous
 62
     7
100
AcDbCircle
 10
265.8373608577731
 20
326.2115417474624
 30
0.0
 40
3.999999999999931
100
AcDbArc
 50
94.77747464981225
 51
265.2224458256475
  0
CIRCLE
  5
121
330
4D
100
AcDbEntity
  8
0
  6
Continuous
 62
     7
100
AcDbCircle
 10
147.0622350164831
 20
326.3115417474633
 30
0.0
 40
1.75
  0
ARC
  5
122
330
4D
100
AcDbEntity
  8
0
  6
Continuous
 62
     7
100
AcDbCircle
 10
172.4877400669921
 20
330.2809011591144
 30
0.0
 40
1.999999999995417
100
AcDbArc
 50
340.6838778321845
 51
16.47074106554834
  0
ARC
  5
123
330
4D
100
AcDbEntity
  8
0
  6
Continuous
 62
     7
100
AcDbCircle
 10
172.4877400669921
 20
322.3421823358135
 30
0.0
 40
2.000000000001837
100
AcDbArc
 50
343.5292589344267
 51
19.31612216778788
  0
ARC
  5
124
330
4D
100
AcDbEntity
  8
0
  6
Continuous
 62
     7
100
AcDbCircle
 10
145.6367299659833
 20
322.3421823358135
 30
0.0
 40
2.000000000003769
100
AcDbArc
 50
160.6838778322994
 51
196.4707410655724
  0
ARC
  5
125
330
4D
100
AcDbEntity
  8
0
  6
Continuous
 62
     7
100
AcDbCircle
 10
145.6367299659833
 20
330.2809011591144
 30
0.0
 40
2.000000000001688
100
AcDbArc
 50
163.5292589344526
 51
199.3161221677283
  0
ENDBLK
  5
4F
330
4D
100
AcDbEntity
  8
0
100
AcDbBlockEnd
  0
BLOCK
  5
51
330
50
100
AcDbEntity
  8
0
100
AcDbBlockBegin
  2
88-249
 70
     0
 10
421.0985433293336
 20
528.5003571639872
 30
0.0
  3
88-249
  1

  0
LINE
  5
126
330
50
100
AcDbEntity
  8
1
  6
Continuous
 62
     7
100
AcDbLine
 10
268.6373970294735
 20
273.8071957859725
 30
0.0
 11
256.3894799482732
 21
295.0212104574925
 31
0.0
  0
LINE
  5
127
330
50
100
AcDbEntity
  8
1
  6
Continuous
 62
     7
100
AcDbLine
 10
254.7244164388121
 20
292.9051850537076
 30
0.0
 11
268.6373970294735
 21
268.8071957859715
 31
0.0
  0
LINE
  5
128
330
50
100
AcDbEntity
  8
1
  6
Continuous
 62
     7
100
AcDbLine
 10
255.7064672463821
 20
295.2042231593846
 30
0.0
 11
255.2734545444837
 21
294.9542231593846
 31
0.0
  0
LINE
  5
129
330
50
100
AcDbEntity
  8
1
  6
Continuous
 62
     7
100
AcDbLine
 10
137.0700618811934
 20
279.7521350042143
 30
0.0
 11
137.0700618811934
 21
277.5718166434704
 31
0.0
  0
LINE
  5
12A
330
50
100
AcDbEntity
  8
1
  6
Continuous
 62
     7
100
AcDbLine
 10
181.0622350164831
 20
279.3395835964375
 30
0.0
 11
181.0622350164831
 21
277.5718166434704
 31
0.0
  0
LINE
  5
12B
330
50
100
AcDbEntity
  8
1
  6
Continuous
 62
     7
100
AcDbLine
 10
137.0700618811934
 20
400.1785083635004
 30
0.0
 11
137.0700618811934
 21
398.4397659674505
 31
0.0
  0
LINE
  5
12C
330
50
100
AcDbEntity
  8
1
  6
Continuous
 62
     7
100
AcDbLine
 10
181.0622350164831
 20
398.4397659674505
 30
0.0
 11
181.0622350164831
 21
400.1785083635004
 31
0.0
  0
SPLINE
  5
12D
330
50
100
AcDbEntity
  8
1
  6
Continuous
 62
     7
100
AcDbSpline
210
0.0
220
0.0
230
1.0
 70
     8
 71
     3
 72
    57
 73
    53
 74
    51
 42
0.000000001
 43
0.0000000001
 44
0.00000001
 40
0.0
 40
0.0
 40
0.0
 40
0.0
 40
1.383335825559327
 40
2.766087435668892
 40
4.20489270197806
 40
5.642800002998594
 40
7.16260426903745
 40
8.681499991528863
 40
10.29524488478523
 40
11.90823551338108
 40
13.61644942636966
 40
15.3241023604631
 40
17.1166785176338
 40
18.9088699558095
 40
20.76744902710161
 40
22.62579084656107
 40
24.5262242059009
 40
26.42654489329136
 40
28.34126907293306
 40
30.25599325256729
 40
32.15631393993399
 40
34.05674729923277
 40
35.91508911863621
 40
37.77366818985762
 40
39.56585962794966
 40
41.35843578501937
 40
43.06608871899123
 40
44.77430263182366
 40
46.38729326023632
 40
48.00103815326799
 40
49.51993387549818
 40
51.03973814121098
 40
52.47764544184137
 40
53.9164507076954
 40
55.29920231840377
 40
56.68253815312156
 40
58.04586763752618
 40
59.40919712194466
 40
60.79253295669909
 40
62.17528456746618
 40
63.61408983339575
 40
65.05199713411193
 40
66.57180139991681
 40
68.09069712223454
 40
69.70444201534731
 40
71.31743264382352
 40
73.025646556698
 40
74.73329949067639
 40
76.52587564769044
 40
78.31806708549473
 40
79.10085212058742
 40
79.88278277925706
 40
79.88278277925706
 40
79.88278277925706
 40
79.88278277925706
 10
180.9770945059136
 20
278.9324850003354
 30
0.0
 10
180.9041614733041
 20
279.3884021188452
 30
0.0
 10
180.7583262029411
 20
280.3000438098463
 30
0.0
 10
180.3234809571253
 20
281.6378075638884
 30
0.0
 10
179.7437799362834
 20
282.9364422310277
 30
0.0
 10
178.9955951691717
 20
284.2001453649395
 30
0.0
 10
178.1056361393775
 20
285.4010781688399
 30
0.0
 10
177.0615998370322
 20
286.5509552532404
 30
0.0
 10
175.8931300868774
 20
287.620513770727
 30
0.0
 10
174.5862190357804
 20
288.6225889182613
 30
0.0
 10
173.1752572984072
 20
289.5310422317934
 30
0.0
 10
171.6459689394794
 20
290.3562654280984
 30
0.0
 10
170.0344638963727
 20
291.0779119387285
 30
0.0
 10
168.3294314175646
 20
291.7025101296194
 30
0.0
 10
166.5649823018708
 20
292.2163632676512
 30
0.0
 10
164.7358004246604
 20
292.6224545440945
 30
0.0
 10
162.8706856757391
 20
292.9131230224107
 30
0.0
 10
160.9724732521486
 20
293.0892738820106
 30
0.0
 10
159.0622350234613
 20
293.1476852097987
 30
0.0
 10
157.1519967947341
 20
293.0892738819042
 30
0.0
 10
155.2537843713297
 20
292.9131230221836
 30
0.0
 10
153.3886696219096
 20
292.6224545438498
 30
0.0
 10
151.5594877467902
 20
292.2163632670899
 30
0.0
 10
149.7950386237686
 20
291.7025101299548
 30
0.0
 10
148.0900061717614
 20
291.077911935727
 30
0.0
 10
146.4785010313594
 20
290.3562654373478
 30
0.0
 10
144.9492130195455
 20
289.531042197709
 30
0.0
 10
143.5382500238749
 20
288.622589041908
 30
0.0
 10
142.231343420308
 20
287.62051333779
 30
0.0
 10
141.0628575887336
 20
286.5509568340957
 30
0.0
 10
140.01887795804
 20
285.401072654651
 30
0.0
 10
139.1287137903951
 20
284.2001655352805
 30
0.0
 10
138.3812555664086
 20
282.9363714363396
 30
0.0
 10
137.7989082103307
 20
281.6380681001992
 30
0.0
 10
137.3735758844082
 20
280.2991132929673
 30
0.0
 10
137.1208132627559
 20
278.9425364039643
 30
0.0
 10
137.0331592445471
 20
277.5718166386825
 30
0.0
 10
137.1208132631105
 20
276.201096873448
 30
0.0
 10
137.3735758850338
 20
274.8445199843571
 30
0.0
 10
137.7989082115374
 20
273.5055651775947
 30
0.0
 10
138.3812555669417
 20
272.2072618398703
 30
0.0
 10
139.1287137950057
 20
270.9434677473086
 30
0.0
 10
140.0188779480403
 20
269.7425606032297
 30
0.0
 10
141.0628576363034
 20
268.5926765194034
 30
0.0
 10
142.2313432413696
 20
267.5231196380376
 30
0.0
 10
143.5382507182219
 20
266.5210453888881
 30
0.0
 10
144.9492102710485
 20
265.6125864962335
 30
0.0
 10
146.478511493986
 20
264.78738527014
 30
0.0
 10
148.0899649802114
 20
264.0656527014033
 30
0.0
 10
149.4581820092254
 20
263.5647602194025
 30
0.0
 10
150.5260652469554
 20
263.2299247043663
 30
0.0
 10
151.0287964973137
 20
263.0908791133115
 30
0.0
 10
151.2800248711028
 20
263.0213942823602
 30
0.0
 11
180.9770945059136
 21
278.9324850003354
 31
0.0
 11
180.7232262924788
 21
280.2923265215147
 31
0.0
 11
180.3071303192947
 21
281.6109872659464
 31
0.0
 11
179.7191331570471
 21
282.9241589726008
 31
0.0
 11
178.9895216291072
 21
284.1632087796537
 31
0.0
 11
178.0859932935189
 21
285.3852732434751
 31
0.0
 11
177.0668194463832
 21
286.511474329026
 31
0.0
 11
175.8779269289715
 21
287.6026696197908
 31
0.0
 11
174.5991023013989
 21
288.5856987851286
 31
0.0
 11
173.1639569575383
 21
289.5121719982185
 31
0.0
 11
171.6618430826505
 21
290.3244111564761
 31
0.0
 11
170.0265129008559
 21
291.0585940190828
 31
0.0
 11
168.3440271725261
 21
291.676001441262
 31
0.0
 11
166.5599322438073
 21
292.1968866967958
 31
0.0
 11
164.7458796759384
 21
292.6001826164165
 31
0.0
 11
162.8682352513401
 21
292.8936078502484
 31
0.0
 11
160.9760542981767
 21
293.0693063282639
 31
0.0
 11
159.0622350164831
 21
293.1281658295632
 31
0.0
 11
157.1484157347895
 21
293.0693063282639
 31
0.0
 11
155.2562347816272
 21
292.8936078502484
 31
0.0
 11
153.3785903570324
 21
292.6001826164165
 31
0.0
 11
151.5645377891671
 21
292.1968866967958
 31
0.0
 11
149.7804428604502
 21
291.6760014412621
 31
0.0
 11
148.0979571321194
 21
291.0585940190828
 31
0.0
 11
146.4626269503202
 21
290.3244111564761
 31
0.0
 11
144.960513075429
 21
289.5121719982185
 31
0.0
 11
143.5253677315712
 21
288.5856987851286
 31
0.0
 11
142.2465431040025
 21
287.6026696197908
 31
0.0
 11
141.0576505865921
 21
286.511474329026
 31
0.0
 11
140.0384767394552
 21
285.3852732434751
 31
0.0
 11
139.1349484038635
 21
284.1632087796536
 31
0.0
 11
138.4053368759202
 21
282.9241589726008
 31
0.0
 11
137.8173397136715
 21
281.6109872659464
 31
0.0
 11
137.4012437404887
 21
280.2923265215144
 31
0.0
 11
137.147375527058
 21
278.9324850003347
 31
0.0
 11
137.0622350164858
 21
277.5718166434704
 31
0.0
 11
137.147375527058
 21
276.211148286606
 31
0.0
 11
137.4012437404887
 21
274.8513067654264
 31
0.0
 11
137.8173397136715
 21
273.532646020995
 31
0.0
 11
138.4053368759202
 21
272.2194743143411
 31
0.0
 11
139.1349484038635
 21
270.9804245072883
 31
0.0
 11
140.0384767394552
 21
269.7583600434667
 31
0.0
 11
141.0576505865921
 21
268.6321589579157
 31
0.0
 11
142.2465431040025
 21
267.5409636671509
 31
0.0
 11
143.5253677315712
 21
266.5579345018129
 31
0.0
 11
144.960513075429
 21
265.6314612887228
 31
0.0
 11
146.4626269503202
 21
264.8192221304654
 31
0.0
 11
148.09795713212
 21
264.0850392678589
 31
0.0
 11
149.7804428604525
 21
263.4676318456794
 31
0.0
 11
150.5275812296855
 21
263.2341009712944
 31
0.0
 11
151.2800248711028
 21
263.0213942823602
 31
0.0
  0
SPLINE
  5
12E
330
50
100
AcDbEntity
  8
1
  6
Continuous
 62
     7
100
AcDbSpline
210
0.0
220
0.0
230
1.0
 70
     8
 71
     3
 72
    43
 73
    39
 74
    37
 42
0.000000001
 43
0.0000000001
 44
0.00000001
 40
0.0
 40
0.0
 40
0.0
 40
0.0
 40
1.383335829605099
 40
2.766087436138985
 40
4.20489270080167
 40
5.642800001284804
 40
7.162604267120185
 40
8.681499989522953
 40
10.29524488272742
 40
11.90823551128451
 40
13.61644942423762
 40
15.32410235830915
 40
17.11667851550038
 40
18.90886995382036
 40
20.76744902559952
 40
22.62579084642994
 40
24.52622420907304
 40
26.42654490113004
 40
28.34126908390083
 40
30.25599326484549
 40
32.15631395269695
 40
34.05674731216999
 40
35.91508913163867
 40
37.77366820290015
 40
39.56585964104458
 40
41.3584357982
 40
43.06608873229783
 40
44.77430264530958
 40
46.38729327394953
 40
48.00103816727405
 40
49.51993388984805
 40
51.03973815597931
 40
52.47764545708885
 40
53.91645072351231
 40
55.29920233488541
 40
56.68253816948643
 40
57.15912142328582
 40
57.63402517873973
 40
57.63402517873973
 40
57.63402517873973
 40
57.63402517873973
 10
180.9770945059136
 20
280.7002519533016
 30
0.0
 10
180.9041614730909
 20
281.1561690731448
 30
0.0
 10
180.7583261957643
 20
282.0678107630848
 30
0.0
 10
180.3234809510959
 20
283.405574516605
 30
0.0
 10
179.7437799329023
 20
284.7042091829417
 30
0.0
 10
178.9955951672832
 20
285.967912316815
 30
0.0
 10
178.1056361383584
 20
287.1688451210331
 30
0.0
 10
177.0615998365821
 20
288.318722205802
 30
0.0
 10
175.8931300868091
 20
289.3882807236246
 30
0.0
 10
174.5862190359809
 20
290.3903558714453
 30
0.0
 10
173.1752572987783
 20
291.2988091851903
 30
0.0
 10
171.6459689399176
 20
292.1240323816021
 30
0.0
 10
170.034463896736
 20
292.8456788921956
 30
0.0
 10
168.3294314175884
 20
293.4702770828165
 30
0.0
 10
166.56498230101
 20
293.9841302202407
 30
0.0
 10
164.7358004217634
 20
294.3902214955561
 30
0.0
 10
162.8706856694485
 20
294.6808899722165
 30
0.0
 10
160.9724732422501
 20
294.8570408323442
 30
0.0
 10
159.0622350106071
 20
294.9154521624906
 30
0.0
 10
157.1519967801714
 20
294.8570408361235
 30
0.0
 10
155.2537843560085
 20
294.6808899772873
 30
0.0
 10
153.3886696062942
 20
294.3902214993891
 30
0.0
 10
151.5594877309324
 20
293.9841302228489
 30
0.0
 10
149.7950386082243
 20
293.4702770855826
 30
0.0
 10
148.0900061548675
 20
292.8456788916629
 30
0.0
 10
146.4785010193454
 20
292.1240323913983
 30
0.0
 10
144.94921299023
 20
291.298809157224
 30
0.0
 10
143.5382500574937
 20
290.3903559799179
 30
0.0
 10
142.2313432318198
 20
289.3882803497636
 30
0.0
 10
141.0628582038451
 20
288.3187235761823
 30
0.0
 10
140.0188757419356
 20
287.1688403450963
 30
0.0
 10
139.1287218236529
 20
285.9679297897292
 30
0.0
 10
138.3812273006001
 20
284.7041478567318
 30
0.0
 10
137.7990121611919
 20
283.4058002037876
 30
0.0
 10
137.3732045523836
 20
282.0670047004083
 30
0.0
 10
137.1760949747897
 20
281.0012766689754
 30
0.0
 10
137.094076421504
 20
280.2270806535974
 30
0.0
 10
137.0780572984804
 20
279.9102638133027
 30
0.0
 10
137.0700618811934
 20
279.7521350042143
 30
0.0
 11
180.9770945059136
 21
280.7002519533016
 31
0.0
 11
180.7232262924788
 21
282.0600934744814
 31
0.0
 11
180.3071303192947
 21
283.3787542189128
 31
0.0
 11
179.7191331570471
 21
284.6919259255669
 31
0.0
 11
178.9895216291072
 21
285.9309757326197
 31
0.0
 11
178.0859932935189
 21
287.1530401964414
 31
0.0
 11
177.0668194463832
 21
288.2792412819927
 31
0.0
 11
175.8779269289715
 21
289.3704365727576
 31
0.0
 11
174.5991023013989
 21
290.353465738095
 31
0.0
 11
173.1639569575383
 21
291.2799389511845
 31
0.0
 11
171.6618430826505
 21
292.092178109442
 31
0.0
 11
170.0265129008559
 21
292.8263609720485
 31
0.0
 11
168.3440271725261
 21
293.4437683942278
 31
0.0
 11
166.5599322438073
 21
293.9646536497617
 31
0.0
 11
164.7458796759384
 21
294.3679495693825
 31
0.0
 11
162.8682352513401
 21
294.6613748032145
 31
0.0
 11
160.9760542981767
 21
294.8370732812299
 31
0.0
 11
159.0622350164831
 21
294.8959327825291
 31
0.0
 11
157.1484157347895
 21
294.8370732812299
 31
0.0
 11
155.2562347816272
 21
294.6613748032144
 31
0.0
 11
153.3785903570324
 21
294.3679495693825
 31
0.0
 11
151.5645377891671
 21
293.9646536497617
 31
0.0
 11
149.7804428604502
 21
293.4437683942278
 31
0.0
 11
148.0979571321194
 21
292.8263609720486
 31
0.0
 11
146.4626269503202
 21
292.092178109442
 31
0.0
 11
144.960513075429
 21
291.2799389511845
 31
0.0
 11
143.5253677315712
 21
290.353465738095
 31
0.0
 11
142.2465431040025
 21
289.3704365727576
 31
0.0
 11
141.0576505865921
 21
288.2792412819926
 31
0.0
 11
140.0384767394552
 21
287.1530401964413
 31
0.0
 11
139.1349484038635
 21
285.9309757326197
 31
0.0
 11
138.4053368759202
 21
284.6919259255668
 31
0.0
 11
137.8173397136715
 21
283.3787542189128
 31
0.0
 11
137.4012437404893
 21
282.0600934744814
 31
0.0
 11
137.1473755270604
 21
280.7002519533017
 31
0.0
 11
137.098384060405
 21
280.2261934787582
 31
0.0
 11
137.0700618811934
 21
279.7521350042143
 31
0.0
  0
SPLINE
  5
12F
330
50
100
AcDbEntity
  8
1
  6
Continuous
 62
     7
100
AcDbSpline
210
0.0
220
0.0
230
1.0
 70
     8
 71
     3
 72
     9
 73
     5
 74
     3
 42
0.000000001
 43
0.0000000001
 44
0.00000001
 40
0.0
 40
0.0
 40
0.0
 40
0.0
 40
0.6806670629445315
 40
1.363991366511921
 40
1.363991366511921
 40
1.363991366511921
 40
1.363991366511921
 10
181.0622350164831
 20
279.3395835964375
 30
0.0
 10
181.058659931621
 20
279.5665816940542
 30
0.0
 10
181.0514957852434
 20
280.0214640610493
 30
0.0
 10
181.0019271278385
 20
280.4736956535288
 30
0.0
 10
180.9770945059136
 20
280.7002519533016
 30
0.0
 11
181.0622350164831
 21
279.3395835964375
 31
0.0
 11
181.0409498888407
 21
280.0199177748696
 31
0.0
 11
180.9770945059136
 21
280.7002519533016
 31
0.0
  0
SPLINE
  5
130
330
50
100
AcDbEntity
  8
1
  6
Continuous
 62
     7
100
AcDbSpline
210
0.0
220
0.0
230
1.0
 70
     8
 71
     3
 72
     9
 73
     5
 74
     3
 42
0.000000001
 43
0.0000000001
 44
0.00000001
 40
0.0
 40
0.0
 40
0.0
 40
0.0
 40
0.6806670629451566
 40
1.363991366512829
 40
1.363991366512829
 40
1.363991366512829
 40
1.363991366512829
 10
181.0622350164831
 20
277.5718166434704
 30
0.0
 10
181.058659931621
 20
277.7988147410874
 30
0.0
 10
181.0514957852433
 20
278.2536971080827
 30
0.0
 10
181.0019271278385
 20
278.7059287005625
 30
0.0
 10
180.9770945059136
 20
278.9324850003354
 30
0.0
 11
181.0622350164831
 21
277.5718166434704
 31
0.0
 11
181.0409498888407
 21
278.2521508219031
 31
0.0
 11
180.9770945059136
 21
278.9324850003354
 31
0.0
  0
SPLINE
  5
131
330
50
100
AcDbEntity
  8
1
  6
Continuous
 62
     7
100
AcDbSpline
210
0.0
220
0.0
230
1.0
 70
     8
 71
     3
 72
    23
 73
    19
 74
    17
 42
0.000000001
 43
0.0000000001
 44
0.00000001
 40
0.0
 40
0.0
 40
0.0
 40
0.0
 40
0.7819306715913483
 40
1.564715708713326
 40
3.356907148024241
 40
5.149483305386335
 40
6.857136239424039
 40
8.565350152245598
 40
10.17834078061801
 40
11.79208567358563
 40
13.31098139572679
 40
14.83078566130948
 40
16.26869296171953
 40
17.70749822717911
 40
19.09024983696883
 40
20.47358566926816
 40
21.15690997009805
 40
21.83757702933534
 40
21.83757702933534
 40
21.83757702933534
 40
21.83757702933534
 10
166.8444451618725
 20
263.0213942823602
 30
0.0
 10
167.0956735398203
 20
263.0908791144583
 30
0.0
 10
167.5984047931601
 20
263.2299247133552
 30
0.0
 10
168.6662880366225
 20
263.564760227646
 30
0.0
 10
170.0345050678939
 20
264.0656527110734
 30
0.0
 10
171.6459585490639
 20
264.7873852810079
 30
0.0
 10
173.1752597919206
 20
265.6125865035709
 30
0.0
 10
174.5862192717443
 20
266.5210454114911
 30
0.0
 10
175.8931270048891
 20
267.5231196088234
 30
0.0
 10
177.0616116807015
 20
268.5926766799624
 30
0.0
 10
178.1055946404999
 20
269.7425600974031
 30
0.0
 10
178.9957469472753
 20
270.943469656049
 30
0.0
 10
179.7432471267228
 20
272.2072551989421
 30
0.0
 10
180.3254416735184
 20
273.5055896792747
 30
0.0
 10
180.7513233013119
 20
274.8444325358028
 30
0.0
 10
180.9607720728852
 20
275.9779618183802
 30
0.0
 10
181.049905878994
 20
276.8901275864305
 30
0.0
 10
181.0581306495891
 20
277.3448822657264
 30
0.0
 10
181.0622350164831
 20
277.5718166434704
 30
0.0
 11
166.8444451618725
 21
263.0213942823602
 31
0.0
 11
167.5968888032899
 21
263.2341009712945
 31
0.0
 11
168.3440271725233
 21
263.4676318456794
 31
0.0
 11
170.0265129008552
 21
264.0850392678589
 31
0.0
 11
171.6618430826505
 21
264.8192221304654
 31
0.0
 11
173.1639569575383
 21
265.6314612887228
 31
0.0
 11
174.5991023013989
 21
266.5579345018129
 31
0.0
 11
175.8779269289715
 21
267.5409636671508
 31
0.0
 11
177.0668194463832
 21
268.6321589579157
 31
0.0
 11
178.0859932935189
 21
269.7583600434667
 31
0.0
 11
178.9895216291072
 21
270.9804245072883
 31
0.0
 11
179.7191331570471
 21
272.219474314341
 31
0.0
 11
180.3071303192947
 21
273.5326460209949
 31
0.0
 11
180.7232262924779
 21
274.8513067654264
 31
0.0
 11
180.97709450591
 21
276.2111482866061
 31
0.0
 11
181.0409498888398
 21
276.8914824650383
 31
0.0
 11
181.0622350164831
 21
277.5718166434704
 31
0.0
  0
SPLINE
  5
132
330
50
100
AcDbEntity
  8
1
  6
Continuous
 62
     7
100
AcDbSpline
210
0.0
220
0.0
230
1.0
 70
     8
 71
     3
 72
     9
 73
     5
 74
     3
 42
0.000000001
 43
0.0000000001
 44
0.00000001
 40
0.0
 40
0.0
 40
0.0
 40
0.0
 40
0.3364262561621292
 40
0.670630499609967
 40
0.670630499609967
 40
0.670630499609967
 40
0.670630499609967
 10
180.9746330525431
 20
401.1411045536484
 30
0.0
 10
180.9530978674351
 20
401.2512112566116
 30
0.0
 10
180.9101697123174
 20
401.470697430469
 30
0.0
 10
180.8497045386523
 20
401.6860125737107
 30
0.0
 10
180.819572112363
 20
401.7933134390282
 30
0.0
 11
180.9746330525431
 21
401.1411045536484
 31
0.0
 11
180.9056141317429
 21
401.4703749813939
 31
0.0
 11
180.819572112363
 21
401.7933134390282
 31
0.0
  0
SPLINE
  5
133
330
50
100
AcDbEntity
  8
1
  6
Continuous
 62
     7
100
AcDbSpline
210
0.0
220
0.0
230
1.0
 70
     8
 71
     3
 72
    45
 73
    41
 74
    39
 42
0.000000001
 43
0.0000000001
 44
0.00000001
 40
0.0
 40
0.0
 40
0.0
 40
0.0
 40
0.4743496234648923
 40
0.9527405879617306
 40
1.947707092361417
 40
2.94040450879433
 40
4.047809915870096
 40
5.152660347551525
 40
6.413091385430391
 40
7.671842905581776
 40
9.09877315746308
 40
10.52471299082013
 40
12.11038050904875
 40
13.69547066766764
 40
15.41731724649456
 40
17.13882914307608
 40
18.96430908945304
 40
20.78960375543181
 40
22.67969237345324
 40
24.56969816388804
 40
26.4816953432373
 40
28.39369252258662
 40
30.28369831302006
 40
32.17378693103737
 40
33.99908159701238
 40
35.82456154338868
 40
37.54607343997059
 40
39.26792001879701
 40
40.85301017741553
 40
42.43867769564459
 40
43.86461752900207
 40
45.29154778088291
 40
46.55029930103498
 40
47.81073033891679
 40
48.91558077060072
 40
50.02298617767715
 40
51.01568359410919
 40
52.01065009850716
 40
52.48904106301528
 40
52.96339068649168
 40
52.96339068649168
 40
52.96339068649168
 40
52.96339068649168
 10
137.0700618811934
 20
398.4397659674346
 30
0.0
 10
137.0742705955351
 20
398.2815731529862
 30
0.0
 10
137.082723889786
 20
397.9638397613468
 30
0.0
 10
137.1768039548317
 20
397.3203641186875
 30
0.0
 10
137.3905998529572
 20
396.5223661602752
 30
0.0
 10
137.8303119794069
 20
395.5842524884046
 30
0.0
 10
138.4190488715235
 20
394.6887111009447
 30
0.0
 10
139.1775210569482
 20
393.8106753939118
 30
0.0
 10
140.0673829329378
 20
392.9901979081399
 30
0.0
 10
141.117359596953
 20
392.1951121749025
 30
0.0
 10
142.2795698206838
 20
391.4656336734816
 30
0.0
 10
143.5887836240476
 20
390.7740392636438
 30
0.0
 10
144.9909886266005
 20
390.1534533569497
 30
0.0
 10
146.5202264059595
 20
389.584273278686
 30
0.0
 10
148.1228266224825
 20
389.0902118288361
 30
0.0
 10
149.8261965099441
 20
388.6595060670817
 30
0.0
 10
151.5826599158417
 20
388.3070668713626
 30
0.0
 10
153.408885371985
 20
388.0270586484331
 30
0.0
 10
155.2672816467986
 20
387.8274903385331
 30
0.0
 10
157.1613251813518
 20
387.7059657467376
 30
0.0
 10
159.0661484488428
 20
387.6659963724879
 30
0.0
 10
160.9709717163333
 20
387.7059657467375
 30
0.0
 10
162.8650152508848
 20
387.827490338533
 30
0.0
 10
164.7234115256951
 20
388.0270586484333
 30
0.0
 10
166.5496369818357
 20
388.3070668713627
 30
0.0
 10
168.3061003877319
 20
388.6595060670818
 30
0.0
 10
170.0094702751933
 20
389.0902118288358
 30
0.0
 10
171.612070491716
 20
389.5842732786859
 30
0.0
 10
173.1413082710749
 20
390.1534533569498
 30
0.0
 10
174.5435132736279
 20
390.7740392636439
 30
0.0
 10
175.852727076992
 20
391.4656336734813
 30
0.0
 10
177.0149373007229
 20
392.1951121749029
 30
0.0
 10
178.0649139647388
 20
392.9901979081408
 30
0.0
 10
178.9547758407319
 20
393.8106753939118
 30
0.0
 10
179.7132480261608
 20
394.6887111009439
 30
0.0
 10
180.3019849182785
 20
395.5842524884038
 30
0.0
 10
180.7416970447273
 20
396.5223661602746
 30
0.0
 10
180.9554929428484
 20
397.3203641186913
 30
0.0
 10
181.0495730078907
 20
397.963839761358
 30
0.0
 10
181.0580263021415
 20
398.2815731530051
 30
0.0
 10
181.0622350164831
 20
398.4397659674573
 30
0.0
 11
137.0700618811934
 21
398.4397659674346
 31
0.0
 11
137.0920002531692
 21
397.9659239239144
 31
0.0
 11
137.1578153690968
 21
397.4920818803941
 31
0.0
 11
137.418375205916
 21
396.5318387277569
 31
0.0
 11
137.8335487239418
 21
395.6301297346228
 31
0.0
 11
138.4387621116814
 21
394.7027336547314
 31
0.0
 11
139.1575440698373
 21
393.8636585856997
 31
0.0
 11
140.080744865756
 21
393.0055288228066
 31
0.0
 11
141.0823959422618
 21
392.2431965403165
 31
0.0
 11
142.2886287692052
 21
391.4808761948141
 31
0.0
 11
143.5484758173923
 21
390.8129766351255
 31
0.0
 11
144.9971239280437
 21
390.1681819951336
 31
0.0
 11
146.4821509084776
 21
389.613920616238
 31
0.0
 11
148.1268807206277
 21
389.1043919288915
 31
0.0
 11
149.7956405604464
 21
388.6814926454413
 31
0.0
 11
151.5851332514696
 21
388.3208086571954
 31
0.0
 11
153.3892741154666
 21
388.0437231904375
 31
0.0
 11
155.2684550800772
 21
387.840957610076
 31
0.0
 11
157.1545813429566
 21
387.7199220694014
 31
0.0
 11
159.0661484488428
 21
387.6793707837534
 31
0.0
 11
160.9777155547289
 21
387.7199220694015
 31
0.0
 11
162.863841817607
 21
387.840957610076
 31
0.0
 11
164.7430227822135
 21
388.0437231904376
 31
0.0
 11
166.5471636462067
 21
388.3208086571954
 31
0.0
 11
168.3366563372292
 21
388.6814926454413
 31
0.0
 11
170.0054161770483
 21
389.1043919288915
 31
0.0
 11
171.6501459891979
 21
389.613920616238
 31
0.0
 11
173.1351729696314
 21
390.1681819951336
 31
0.0
 11
174.5838210802833
 21
390.8129766351255
 31
0.0
 11
175.8436681284708
 21
391.4808761948142
 31
0.0
 11
177.0499009554138
 21
392.2431965403165
 31
0.0
 11
178.0515520319204
 21
393.0055288228066
 31
0.0
 11
178.9747528278431
 21
393.8636585856997
 31
0.0
 11
179.6935347860029
 21
394.7027336547313
 31
0.0
 11
180.2987481737438
 21
395.6301297346227
 31
0.0
 11
180.7139216917676
 21
396.5318387277567
 31
0.0
 11
180.9744815285812
 21
397.4920818803937
 31
0.0
 11
181.0402966445076
 21
397.9659239239256
 31
0.0
 11
181.0622350164831
 21
398.4397659674573
 31
0.0
  0
SPLINE
  5
134
330
50
100
AcDbEntity
  8
1
  6
Continuous
 62
     7
100
AcDbSpline
210
0.0
220
0.0
230
1.0
 70
     8
 71
     3
 72
    45
 73
    41
 74
    39
 42
0.000000001
 43
0.0000000001
 44
0.00000001
 40
0.0
 40
0.0
 40
0.0
 40
0.0
 40
0.4817960966767011
 40
0.9675579134421766
 40
1.976274992204237
 40
2.982829407691639
 40
4.101563590706904
 40
5.217825255192905
 40
6.486801545514042
 40
7.754115886033033
 40
9.18699654622284
 40
10.61888432750497
 40
12.20835405790679
 40
13.79724007999773
 40
15.52123844207287
 40
17.24489660748001
 40
19.07136679177443
 40
20.89764802075495
 40
22.78803728355591
 40
24.67834192323713
 40
26.59041058340701
 40
28.50247924357689
 40
30.39278388325668
 40
32.28317314605354
 40
34.10945437503011
 40
35.93592455932314
 40
37.65958272473048
 40
39.38358108680633
 40
40.97246710889763
 40
42.56193683929886
 40
43.99382462058033
 40
45.42670528077009
 40
46.69401962129042
 40
47.96299591161481
 40
49.07925757610329
 40
50.19799175911925
 40
51.20454617460595
 40
52.21326325336677
 40
52.69902507013211
 40
53.18082116680872
 40
53.18082116680872
 40
53.18082116680872
 40
53.18082116680872
 10
137.0700618811934
 20
400.1785083635155
 30
0.0
 10
137.074264339889
 20
400.0178351713233
 30
0.0
 10
137.082703857441
 20
399.6951662678769
 30
0.0
 10
137.1764943022133
 20
399.0420456836486
 30
0.0
 10
137.3900411022637
 20
398.2319751884502
 30
0.0
 10
137.829082261816
 20
397.2792890933478
 30
0.0
 10
138.4175308814693
 20
396.3689983524233
 30
0.0
 10
139.1756210476297
 20
395.4768793969905
 30
0.0
 10
140.0656094523016
 20
394.64254674253
 30
0.0
 10
141.1154525861214
 20
393.8345653359424
 30
0.0
 10
142.2780075786455
 20
393.0928275735744
 30
0.0
 10
143.5872015567501
 20
392.3899983935866
 30
0.0
 10
144.9897738991271
 20
391.7590898663041
 30
0.0
 10
146.5190421968999
 20
391.1806681853123
 30
0.0
 10
148.1219599059809
 20
390.6784575817303
 30
0.0
 10
149.8253898546932
 20
390.2407624857904
 30
0.0
 10
151.5821078321375
 20
389.882542201559
 30
0.0
 10
153.4084193995182
 20
389.5979917877604
 30
0.0
 10
155.2670138383301
 20
389.3951594782585
 30
0.0
 10
157.1611730032306
 20
389.2716659434253
 30
0.0
 10
159.0661484488428
 20
389.2310389944125
 30
0.0
 10
160.9711238944545
 20
389.2716659434253
 30
0.0
 10
162.8652830593532
 20
389.3951594782584
 30
0.0
 10
164.7238774981619
 20
389.5979917877603
 30
0.0
 10
166.5501890655394
 20
389.8825422015593
 30
0.0
 10
168.3069070429819
 20
390.2407624857907
 30
0.0
 10
170.0103369916941
 20
390.6784575817304
 30
0.0
 10
171.6132547007755
 20
391.1806681853122
 30
0.0
 10
173.1425229985487
 20
391.7590898663039
 30
0.0
 10
174.5450953409254
 20
392.389998393586
 30
0.0
 10
175.8542893190296
 20
393.0928275735737
 30
0.0
 10
177.0168443115537
 20
393.8345653359423
 30
0.0
 10
178.0666874453746
 20
394.6425467425305
 30
0.0
 10
178.9566758500504
 20
395.4768793969905
 30
0.0
 10
179.714766016215
 20
396.3689983524224
 30
0.0
 10
180.3032146358697
 20
397.2792890933472
 30
0.0
 10
180.7422557954209
 20
398.2319751884497
 30
0.0
 10
180.9558025954672
 20
399.0420456836488
 30
0.0
 10
181.0495930402358
 20
399.6951662678771
 30
0.0
 10
181.0580325577875
 20
400.0178351713232
 30
0.0
 10
181.0622350164831
 20
400.1785083635155
 30
0.0
 11
137.0700618811934
 21
400.1785083635155
 31
0.0
 11
137.0919623721796
 21
399.6972102684334
 31
0.0
 11
137.1576638451382
 21
399.2159121733513
 31
0.0
 11
137.4178468303044
 21
398.2413276696382
 31
0.0
 11
137.8331237663722
 21
397.3244324436582
 31
0.0
 11
138.4374776429875
 21
396.3829853861336
 31
0.0
 11
139.156847856452
 21
395.5294359745475
 31
0.0
 11
140.0792440803017
 21
394.6579510177527
 31
0.0
 11
141.0816823211095
 21
393.8825780690663
 31
0.0
 11
142.2872975272907
 21
393.1082144857265
 31
0.0
 11
143.5478803699277
 21
392.4290727381209
 31
0.0
 11
144.9960849062378
 21
391.7740020222633
 31
0.0
 11
146.4817043903176
 21
391.2105363733315
 31
0.0
 11
148.1261381054094
 21
390.6928413798262
 31
0.0
 11
149.7953362603549
 21
390.2629867677081
 31
0.0
 11
151.5846599015949
 21
389.8964976996972
 31
0.0
 11
153.3890983193595
 21
389.6148860537239
 31
0.0
 11
155.2682254117747
 21
389.4088449662658
 31
0.0
 11
157.1545239321943
 21
389.285842867651
 31
0.0
 11
159.0661484488428
 21
389.2446328980086
 31
0.0
 11
160.9777729654913
 21
389.285842867651
 31
0.0
 11
162.8640714859095
 21
389.4088449662658
 31
0.0
 11
164.7431985783206
 21
389.6148860537239
 31
0.0
 11
166.5476369960811
 21
389.8964976996972
 31
0.0
 11
168.3369606373197
 21
390.2629867677082
 31
0.0
 11
170.0061587922655
 21
390.6928413798262
 31
0.0
 11
171.650592507358
 21
391.2105363733315
 31
0.0
 11
173.1362119914382
 21
391.7740020222632
 31
0.0
 11
174.5844165277479
 21
392.4290727381205
 31
0.0
 11
175.8449993703842
 21
393.1082144857258
 31
0.0
 11
177.0506145765652
 21
393.8825780690659
 31
0.0
 11
178.0530528173745
 21
394.6579510177526
 31
0.0
 11
178.9754490412285
 21
395.5294359745475
 31
0.0
 11
179.6948192546968
 21
396.3829853861336
 31
0.0
 11
180.2991731313134
 21
397.3244324436582
 31
0.0
 11
180.7144500673797
 21
398.2413276696381
 31
0.0
 11
180.9746330525412
 21
399.2159121733512
 31
0.0
 11
181.0403345254976
 21
399.6972102684334
 31
0.0
 11
181.0622350164831
 21
400.1785083635155
 31
0.0
  0
SPLINE
  5
135
330
50
100
AcDbEntity
  8
1
  6
Continuous
 62
     7
100
AcDbSpline
210
0.0
220
0.0
230
1.0
 70
     8
 71
     3
 72
     9
 73
     5
 74
     3
 42
0.000000001
 43
0.0000000001
 44
0.00000001
 40
0.0
 40
0.0
 40
0.0
 40
0.0
 40
0.4817961056149684
 40
0.9675579190841281
 40
0.9675579190841281
 40
0.9675579190841281
 40
0.9675579190841281
 10
181.0622350164831
 20
400.1785083635155
 30
0.0
 10
181.058525459031
 20
400.3392671585317
 30
0.0
 10
181.0510757905007
 20
400.66210796757
 30
0.0
 10
181.0001835021939
 20
400.9810033426114
 30
0.0
 10
180.9746330525431
 20
401.1411045536484
 30
0.0
 11
181.0622350164831
 21
400.1785083635155
 31
0.0
 11
181.0403345254981
 21
400.6598064585822
 31
0.0
 11
180.9746330525431
 21
401.1411045536484
 31
0.0
  0
SPLINE
  5
136
330
50
100
AcDbEntity
  8
1
  6
Continuous
 62
     7
100
AcDbSpline
210
0.0
220
0.0
230
1.0
 70
     8
 71
     3
 72
    11
 73
     7
 74
     5
 42
0.000000001
 43
0.0000000001
 44
0.00000001
 40
0.0
 40
0.0
 40
0.0
 40
0.0
 40
0.3342042433682612
 40
0.6706304992045582
 40
1.1563923122648
 40
1.63818841799883
 40
1.63818841799883
 40
1.63818841799883
 40
1.63818841799883
 10
137.3127247853136
 20
401.7933134390432
 30
0.0
 10
137.2828147008747
 20
401.6859676769849
 30
0.0
 10
137.2227956841408
 20
401.4705624429561
 30
0.0
 10
137.1449111364786
 20
401.0928743696463
 30
0.0
 10
137.0826122554429
 20
400.6618270570574
 30
0.0
 10
137.0742338874547
 20
400.3391737777857
 30
0.0
 10
137.0700618811934
 20
400.1785083635155
 30
0.0
 11
137.3127247853136
 21
401.7933134390432
 31
0.0
 11
137.2266827659391
 21
401.4703749814016
 31
0.0
 11
137.1576638451367
 21
401.1411045536489
 31
0.0
 11
137.0919623721792
 21
400.6598064585824
 31
0.0
 11
137.0700618811934
 21
400.1785083635155
 31
0.0
  0
ARC
  5
137
330
50
100
AcDbEntity
  8
1
  6
Continuous
 62
     7
100
AcDbCircle
 10
256.0234545444837
 20
293.6551850537076
 30
0.0
 40
1.500000000000257
100
AcDbArc
 50
119.9999999999931
 51
150.00000000001
  0
ARC
  5
138
330
50
100
AcDbEntity
  8
1
  6
Continuous
 62
     7
100
AcDbCircle
 10
255.9564672463821
 20
294.7712104574925
 30
0.0
 40
0.4999999999990565
100
AcDbArc
 50
30.00000000006242
 51
120.0000000000071
  0
ARC
  5
139
330
50
100
AcDbEntity
  8
1
  6
Continuous
 62
     7
100
AcDbCircle
 10
256.0234545444837
 20
293.6551850537076
 30
0.0
 40
1.499999999993974
100
AcDbArc
 50
150.00000000001
 51
210.0000000000972
  0
ENDBLK
  5
52
330
50
100
AcDbEntity
  8
0
100
AcDbBlockEnd
  0
BLOCK
  5
54
330
53
100
AcDbEntity
  8
0
100
AcDbBlockBegin
  2
V97-30-Z1__1
 70
     0
 10
523.5237957101235
 20
279.2091140017974
 30
0.0
  3
V97-30-Z1__1
  1

  0
LINE
  5
13A
330
53
100
AcDbEntity
  8
1
  6
Continuous
 62
     7
100
AcDbLine
 10
319.4172114814028
 20
482.8263512454014
 30
0.0
 11
320.9075282811737
 21
483.1331811747664
 31
0.0
  0
LINE
  5
13B
330
53
100
AcDbEntity
  8
1
  6
Continuous
 62
     7
100
AcDbLine
 10
318.6237973008629
 20
484.2005849175384
 30
0.0
 11
321.7737957101235
 21
484.8491140017986
 31
0.0
  0
LINE
  5
13C
330
53
100
AcDbEntity
  8
0
  6
Continuous
 62
     7
100
AcDbLine
 10
316.6237957101221
 20
501.4491140017985
 30
0.0
 11
316.6237957101221
 21
500.6991140017985
 31
0.0
  0
LINE
  5
13D
330
53
100
AcDbEntity
  8
0
  6
Continuous
 62
     7
100
AcDbLine
 10
323.5237957101235
 20
501.4491140017985
 30
0.0
 11
316.6237957101221
 21
501.4491140017985
 31
0.0
  0
LINE
  5
13E
330
53
100
AcDbEntity
  8
0
  6
Continuous
 62
     7
100
AcDbLine
 10
323.5237957101235
 20
500.6991140017985
 30
0.0
 11
323.5237957101235
 21
501.4491140017985
 31
0.0
  0
LINE
  5
13F
330
53
100
AcDbEntity
  8
0
  6
Continuous
 62
     7
100
AcDbLine
 10
321.7737957101235
 20
498.9491140017985
 30
0.0
 11
323.5237957101235
 21
500.6991140017985
 31
0.0
  0
LINE
  5
140
330
53
100
AcDbEntity
  8
0
  6
Continuous
 62
     7
100
AcDbLine
 10
321.7737957101235
 20
494.6491140017984
 30
0.0
 11
321.7737957101235
 21
498.9491140017985
 31
0.0
  0
LINE
  5
141
330
53
100
AcDbEntity
  8
0
  6
Continuous
 62
     7
100
AcDbLine
 10
318.3737957101221
 20
498.9491140017985
 30
0.0
 11
318.3737957101221
 21
494.6491140017984
 31
0.0
  0
LINE
  5
142
330
53
100
AcDbEntity
  8
0
  6
Continuous
 62
     7
100
AcDbLine
 10
316.6237957101221
 20
500.6991140017985
 30
0.0
 11
318.3737957101221
 21
498.9491140017985
 31
0.0
  0
LINE
  5
143
330
53
100
AcDbEntity
  8
0
  6
Continuous
 62
     7
100
AcDbLine
 10
316.6237957101221
 20
500.6991140017985
 30
0.0
 11
323.5237957101235
 21
500.6991140017985
 31
0.0
  0
LINE
  5
144
330
53
100
AcDbEntity
  8
0
  6
Continuous
 62
     7
100
AcDbLine
 10
321.5137957101233
 20
494.6491140017984
 30
0.0
 11
321.7737957101235
 21
494.6491140017984
 31
0.0
  0
LINE
  5
145
330
53
100
AcDbEntity
  8
0
  6
Continuous
 62
     7
100
AcDbLine
 10
321.5137957101233
 20
484.7032671646975
 30
0.0
 11
321.5137957101233
 21
494.6491140017984
 31
0.0
  0
LINE
  5
146
330
53
100
AcDbEntity
  8
0
  6
Continuous
 62
     7
100
AcDbLine
 10
320.0737957101228
 20
482.2091140017983
 30
0.0
 11
321.5137957101233
 21
484.7032671646975
 31
0.0
  0
LINE
  5
147
330
53
100
AcDbEntity
  8
0
  6
Continuous
 62
     7
100
AcDbLine
 10
318.6337957101223
 20
484.7032671646975
 30
0.0
 11
320.0737957101228
 21
482.2091140017983
 31
0.0
  0
LINE
  5
148
330
53
100
AcDbEntity
  8
0
  6
Continuous
 62
     7
100
AcDbLine
 10
318.6337957101223
 20
494.6491140017984
 30
0.0
 11
318.6337957101223
 21
484.7032671646975
 31
0.0
  0
LINE
  5
149
330
53
100
AcDbEntity
  8
0
  6
Continuous
 62
     7
100
AcDbLine
 10
318.3737957101221
 20
494.6491140017984
 30
0.0
 11
318.6337957101223
 21
494.6491140017984
 31
0.0
  0
LINE
  5
14A
330
53
100
AcDbEntity
  8
0
  6
Continuous
 62
     7
100
AcDbLine
 10
318.3737957101221
 20
493.9491140017985
 30
0.0
 11
321.7737957101235
 21
494.6491140017984
 31
0.0
  0
LINE
  5
14B
330
53
100
AcDbEntity
  8
0
  6
Continuous
 62
     7
100
AcDbLine
 10
318.3737957101221
 20
492.5491140017984
 30
0.0
 11
321.7737957101235
 21
493.2491140017983
 31
0.0
  0
LINE
  5
14C
330
53
100
AcDbEntity
  8
0
  6
Continuous
 62
     7
100
AcDbLine
 10
318.3737957101221
 20
491.1491140017984
 30
0.0
 11
321.7737957101235
 21
491.8491140017986
 31
0.0
  0
LINE
  5
14D
330
53
100
AcDbEntity
  8
0
  6
Continuous
 62
     7
100
AcDbLine
 10
318.3737957101221
 20
489.7491140017983
 30
0.0
 11
321.7737957101235
 21
490.4491140017985
 31
0.0
  0
LINE
  5
14E
330
53
100
AcDbEntity
  8
0
  6
Continuous
 62
     7
100
AcDbLine
 10
318.3737957101221
 20
488.3491140017986
 30
0.0
 11
321.7737957101235
 21
489.0491140017984
 31
0.0
  0
LINE
  5
14F
330
53
100
AcDbEntity
  8
0
  6
Continuous
 62
     7
100
AcDbLine
 10
318.3737957101221
 20
486.9491140017985
 30
0.0
 11
321.7737957101235
 21
487.6491140017984
 31
0.0
  0
LINE
  5
150
330
53
100
AcDbEntity
  8
0
  6
Continuous
 62
     7
100
AcDbLine
 10
318.3737957101221
 20
485.5491140017984
 30
0.0
 11
321.7737957101235
 21
486.2491140017983
 31
0.0
  0
LINE
  5
151
330
53
100
AcDbEntity
  8
0
  6
Continuous
 62
     7
100
AcDbLine
 10
318.3737957101221
 20
498.9491140017985
 30
0.0
 11
321.7737957101235
 21
498.9491140017985
 31
0.0
  0
LINE
  5
152
330
53
100
AcDbEntity
  8
0
  6
Continuous
 62
     7
100
AcDbLine
 10
318.6337957101223
 20
494.6491140017984
 30
0.0
 11
321.5137957101233
 21
494.6491140017984
 31
0.0
  0
LINE
  5
153
330
53
100
AcDbEntity
  8
0
  6
PHANTOM
 62
     4
100
AcDbLine
 10
320.0737957101228
 20
479.2091140017983
 30
0.0
 11
320.0737957101228
 21
504.4491140017985
 31
0.0
  0
ENDBLK
  5
55
330
53
100
AcDbEntity
  8
0
100
AcDbBlockEnd
  0
BLOCK
  5
57
330
56
100
AcDbEntity
  8
0
100
AcDbBlockBegin
  2
V97-30-Z1__2
 70
     0
 10
533.5237957101235
 20
279.2091140017974
 30
0.0
  3
V97-30-Z1__2
  1

  0
LINE
  5
154
330
56
100
AcDbEntity
  8
0
  6
PHANTOM
 62
     4
100
AcDbLine
 10
330.0737957101228
 20
479.2091140017983
 30
0.0
 11
330.0737957101228
 21
504.4491140017985
 31
0.0
  0
LINE
  5
155
330
56
100
AcDbEntity
  8
0
  6
Continuous
 62
     7
100
AcDbLine
 10
328.6337957101223
 20
494.6491140017984
 30
0.0
 11
331.5137957101233
 21
494.6491140017984
 31
0.0
  0
LINE
  5
156
330
56
100
AcDbEntity
  8
0
  6
Continuous
 62
     7
100
AcDbLine
 10
328.3737957101221
 20
498.9491140017985
 30
0.0
 11
331.7737957101235
 21
498.9491140017985
 31
0.0
  0
LINE
  5
157
330
56
100
AcDbEntity
  8
0
  6
Continuous
 62
     7
100
AcDbLine
 10
328.3737957101221
 20
485.5491140017984
 30
0.0
 11
331.7737957101235
 21
486.2491140017983
 31
0.0
  0
LINE
  5
158
330
56
100
AcDbEntity
  8
0
  6
Continuous
 62
     7
100
AcDbLine
 10
328.3737957101221
 20
486.9491140017985
 30
0.0
 11
331.7737957101235
 21
487.6491140017984
 31
0.0
  0
LINE
  5
159
330
56
100
AcDbEntity
  8
0
  6
Continuous
 62
     7
100
AcDbLine
 10
328.3737957101221
 20
488.3491140017986
 30
0.0
 11
331.7737957101235
 21
489.0491140017984
 31
0.0
  0
LINE
  5
15A
330
56
100
AcDbEntity
  8
0
  6
Continuous
 62
     7
100
AcDbLine
 10
328.3737957101221
 20
489.7491140017983
 30
0.0
 11
331.7737957101235
 21
490.4491140017985
 31
0.0
  0
LINE
  5
15B
330
56
100
AcDbEntity
  8
0
  6
Continuous
 62
     7
100
AcDbLine
 10
328.3737957101221
 20
491.1491140017984
 30
0.0
 11
331.7737957101235
 21
491.8491140017986
 31
0.0
  0
LINE
  5
15C
330
56
100
AcDbEntity
  8
0
  6
Continuous
 62
     7
100
AcDbLine
 10
328.3737957101221
 20
492.5491140017984
 30
0.0
 11
331.7737957101235
 21
493.2491140017983
 31
0.0
  0
LINE
  5
15D
330
56
100
AcDbEntity
  8
0
  6
Continuous
 62
     7
100
AcDbLine
 10
328.3737957101221
 20
493.9491140017985
 30
0.0
 11
331.7737957101235
 21
494.6491140017984
 31
0.0
  0
LINE
  5
15E
330
56
100
AcDbEntity
  8
0
  6
Continuous
 62
     7
100
AcDbLine
 10
328.3737957101221
 20
494.6491140017984
 30
0.0
 11
328.6337957101223
 21
494.6491140017984
 31
0.0
  0
LINE
  5
15F
330
56
100
AcDbEntity
  8
0
  6
Continuous
 62
     7
100
AcDbLine
 10
328.6337957101223
 20
494.6491140017984
 30
0.0
 11
328.6337957101223
 21
484.7032671646975
 31
0.0
  0
LINE
  5
160
330
56
100
AcDbEntity
  8
0
  6
Continuous
 62
     7
100
AcDbLine
 10
328.6337957101223
 20
484.7032671646975
 30
0.0
 11
330.0737957101228
 21
482.2091140017983
 31
0.0
  0
LINE
  5
161
330
56
100
AcDbEntity
  8
0
  6
Continuous
 62
     7
100
AcDbLine
 10
330.0737957101228
 20
482.2091140017983
 30
0.0
 11
331.5137957101233
 21
484.7032671646975
 31
0.0
  0
LINE
  5
162
330
56
100
AcDbEntity
  8
0
  6
Continuous
 62
     7
100
AcDbLine
 10
331.5137957101233
 20
484.7032671646975
 30
0.0
 11
331.5137957101233
 21
494.6491140017984
 31
0.0
  0
LINE
  5
163
330
56
100
AcDbEntity
  8
0
  6
Continuous
 62
     7
100
AcDbLine
 10
331.5137957101233
 20
494.6491140017984
 30
0.0
 11
331.7737957101235
 21
494.6491140017984
 31
0.0
  0
LINE
  5
164
330
56
100
AcDbEntity
  8
0
  6
Continuous
 62
     7
100
AcDbLine
 10
326.6237957101221
 20
500.6991140017985
 30
0.0
 11
333.5237957101235
 21
500.6991140017985
 31
0.0
  0
LINE
  5
165
330
56
100
AcDbEntity
  8
0
  6
Continuous
 62
     7
100
AcDbLine
 10
326.6237957101221
 20
500.6991140017985
 30
0.0
 11
328.3737957101221
 21
498.9491140017985
 31
0.0
  0
LINE
  5
166
330
56
100
AcDbEntity
  8
0
  6
Continuous
 62
     7
100
AcDbLine
 10
328.3737957101221
 20
498.9491140017985
 30
0.0
 11
328.3737957101221
 21
494.6491140017984
 31
0.0
  0
LINE
  5
167
330
56
100
AcDbEntity
  8
0
  6
Continuous
 62
     7
100
AcDbLine
 10
331.7737957101235
 20
494.6491140017984
 30
0.0
 11
331.7737957101235
 21
498.9491140017985
 31
0.0
  0
LINE
  5
168
330
56
100
AcDbEntity
  8
0
  6
Continuous
 62
     7
100
AcDbLine
 10
331.7737957101235
 20
498.9491140017985
 30
0.0
 11
333.5237957101235
 21
500.6991140017985
 31
0.0
  0
LINE
  5
169
330
56
100
AcDbEntity
  8
0
  6
Continuous
 62
     7
100
AcDbLine
 10
333.5237957101235
 20
500.6991140017985
 30
0.0
 11
333.5237957101235
 21
501.4491140017985
 31
0.0
  0
LINE
  5
16A
330
56
100
AcDbEntity
  8
0
  6
Continuous
 62
     7
100
AcDbLine
 10
333.5237957101235
 20
501.4491140017985
 30
0.0
 11
326.6237957101221
 21
501.4491140017985
 31
0.0
  0
LINE
  5
16B
330
56
100
AcDbEntity
  8
0
  6
Continuous
 62
     7
100
AcDbLine
 10
326.6237957101221
 20
501.4491140017985
 30
0.0
 11
326.6237957101221
 21
500.6991140017985
 31
0.0
  0
LINE
  5
16C
330
56
100
AcDbEntity
  8
1
  6
Continuous
 62
     7
100
AcDbLine
 10
328.6237973008629
 20
484.2005849175384
 30
0.0
 11
331.7737957101235
 21
484.8491140017986
 31
0.0
  0
LINE
  5
16D
330
56
100
AcDbEntity
  8
1
  6
Continuous
 62
     7
100
AcDbLine
 10
329.4172114814028
 20
482.8263512454014
 30
0.0
 11
330.9075282811737
 21
483.1331811747664
 31
0.0
  0
ENDBLK
  5
58
330
56
100
AcDbEntity
  8
0
100
AcDbBlockEnd
  0
BLOCK
  5
5A
330
59
100
AcDbEntity
  8
0
100
AcDbBlockBegin
  2
V97-H11
 70
     0
 10
862.3280369887525
 20
719.7110138622475
 30
0.0
  3
V97-H11
  1

  0
LINE
  5
16E
330
59
100
AcDbEntity
  8
1
  6
Continuous
 62
     7
100
AcDbLine
 10
118.4622350164827
 20
458.0433134390373
 30
0.0
 11
199.6622350164835
 21
458.0433134390373
 31
0.0
  0
LINE
  5
16F
330
59
100
AcDbEntity
  8
1
  6
Continuous
 62
     7
100
AcDbLine
 10
117.4622350164827
 20
457.0433134390373
 30
0.0
 11
118.4622350164827
 21
457.0433134390373
 31
0.0
  0
LINE
  5
170
330
59
100
AcDbEntity
  8
1
  6
Continuous
 62
     7
100
AcDbLine
 10
117.4622350164827
 20
457.0433134390373
 30
0.0
 11
117.4622350164827
 21
428.5433134390373
 31
0.0
  0
LINE
  5
171
330
59
100
AcDbEntity
  8
1
  6
Continuous
 62
     7
100
AcDbLine
 10
117.4622350164827
 20
428.5433134390373
 30
0.0
 11
118.4622350164827
 21
428.5433134390373
 31
0.0
  0
LINE
  5
172
330
59
100
AcDbEntity
  8
1
  6
Continuous
 62
     7
100
AcDbLine
 10
117.4622350164827
 20
428.5433134390373
 30
0.0
 11
117.4622350164827
 21
408.5433134390373
 31
0.0
  0
LINE
  5
173
330
59
100
AcDbEntity
  8
1
  6
Continuous
 62
     7
100
AcDbLine
 10
191.6622350164835
 20
457.0433134390373
 30
0.0
 11
199.6622350164835
 21
457.0433134390373
 31
0.0
  0
LINE
  5
174
330
59
100
AcDbEntity
  8
1
  6
Continuous
 62
     7
100
AcDbLine
 10
200.6622350164835
 20
457.0433134390373
 30
0.0
 11
200.6622350164835
 21
428.5433134390373
 31
0.0
  0
LINE
  5
175
330
59
100
AcDbEntity
  8
1
  6
Continuous
 62
     7
100
AcDbLine
 10
191.6622350164835
 20
428.5433134390373
 30
0.0
 11
199.6622350164835
 21
428.5433134390373
 31
0.0
  0
LINE
  5
176
330
59
100
AcDbEntity
  8
1
  6
Continuous
 62
     7
100
AcDbLine
 10
200.6622350164835
 20
428.5433134390373
 30
0.0
 11
200.6622350164835
 21
408.5433134390373
 31
0.0
  0
LINE
  5
177
330
59
100
AcDbEntity
  8
1
  6
Continuous
 62
     7
100
AcDbLine
 10
190.6622350164835
 20
456.0433134390373
 30
0.0
 11
190.6622350164835
 21
429.5433134390373
 31
0.0
  0
LINE
  5
178
330
59
100
AcDbEntity
  8
1
  6
Continuous
 62
     7
100
AcDbLine
 10
127.4622350164827
 20
456.0433134390373
 30
0.0
 11
127.4622350164827
 21
429.5433134390373
 31
0.0
  0
LINE
  5
179
330
59
100
AcDbEntity
  8
1
  6
Continuous
 62
     7
100
AcDbLine
 10
199.6622350164835
 20
458.0433134390373
 30
0.0
 11
199.6622350164835
 21
457.0433134390373
 31
0.0
  0
LINE
  5
17A
330
59
100
AcDbEntity
  8
1
  6
Continuous
 62
     7
100
AcDbLine
 10
199.6622350164835
 20
457.0433134390373
 30
0.0
 11
200.6622350164835
 21
457.0433134390373
 31
0.0
  0
LINE
  5
17B
330
59
100
AcDbEntity
  8
1
  6
Continuous
 62
     7
100
AcDbLine
 10
199.6622350164835
 20
428.5433134390373
 30
0.0
 11
199.6622350164835
 21
408.5433134390373
 31
0.0
  0
LINE
  5
17C
330
59
100
AcDbEntity
  8
1
  6
Continuous
 62
     7
100
AcDbLine
 10
199.6622350164835
 20
428.5433134390373
 30
0.0
 11
200.6622350164835
 21
428.5433134390373
 31
0.0
  0
LINE
  5
17D
330
59
100
AcDbEntity
  8
1
  6
Continuous
 62
     7
100
AcDbLine
 10
118.4622350164827
 20
458.0433134390373
 30
0.0
 11
118.4622350164827
 21
457.0433134390373
 31
0.0
  0
LINE
  5
17E
330
59
100
AcDbEntity
  8
1
  6
Continuous
 62
     7
100
AcDbLine
 10
118.4622350164827
 20
457.0433134390373
 30
0.0
 11
126.4622350164827
 21
457.0433134390373
 31
0.0
  0
LINE
  5
17F
330
59
100
AcDbEntity
  8
1
  6
Continuous
 62
     7
100
AcDbLine
 10
118.4622350164827
 20
428.5433134390373
 30
0.0
 11
118.4622350164827
 21
408.5433134390373
 31
0.0
  0
LINE
  5
180
330
59
100
AcDbEntity
  8
1
  6
Continuous
 62
     7
100
AcDbLine
 10
118.4622350164827
 20
428.5433134390373
 30
0.0
 11
126.4622350164827
 21
428.5433134390373
 31
0.0
  0
LINE
  5
181
330
59
100
AcDbEntity
  8
1
  6
PHANTOM
 62
     4
100
AcDbLine
 10
185.8336389192627
 20
439.0433134390373
 30
0.0
 11
177.5121533830334
 21
439.0433134390373
 31
0.0
  0
LINE
  5
182
330
59
100
AcDbEntity
  8
1
  6
PHANTOM
 62
     4
100
AcDbLine
 10
181.6622350164835
 20
434.8719095362562
 30
0.0
 11
181.6622350164835
 21
443.1933950724924
 31
0.0
  0
LINE
  5
183
330
59
100
AcDbEntity
  8
1
  6
PHANTOM
 62
     4
100
AcDbLine
 10
136.4622350164827
 20
434.8719095362562
 30
0.0
 11
136.4622350164827
 21
443.1933950724924
 31
0.0
  0
LINE
  5
184
330
59
100
AcDbEntity
  8
1
  6
PHANTOM
 62
     4
100
AcDbLine
 10
140.633638919262
 20
439.0433134390373
 30
0.0
 11
132.3121533830326
 21
439.0433134390373
 31
0.0
  0
LINE
  5
185
330
59
100
AcDbEntity
  8
0
  6
Continuous
 62
     7
100
AcDbLine
 10
325.6373608577724
 20
279.6615417474623
 30
0.0
 11
325.6373608577724
 21
285.9115417474623
 31
0.0
  0
LINE
  5
186
330
59
100
AcDbEntity
  8
0
  6
Continuous
 62
     7
100
AcDbLine
 10
325.6373608577724
 20
322.9115417474623
 30
0.0
 11
325.6373608577724
 21
329.9115417474623
 31
0.0
  0
LINE
  5
187
330
59
100
AcDbEntity
  8
0
  6
Continuous
 62
     7
100
AcDbLine
 10
294.3873970294735
 20
348.6615417474636
 30
0.0
 11
294.3873970294735
 21
353.1615417474636
 31
0.0
  0
LINE
  5
188
330
59
100
AcDbEntity
  8
0
  6
Continuous
 62
     7
100
AcDbLine
 10
323.6373608577724
 20
348.6615417474636
 30
0.0
 11
323.6373608577724
 21
334.3115417474633
 31
0.0
  0
LINE
  5
189
330
59
100
AcDbEntity
  8
1
  6
Continuous
 62
     7
100
AcDbLine
 10
322.6373608577724
 20
334.3115417474633
 30
0.0
 11
323.6373608577724
 21
334.3115417474633
 31
0.0
  0
LINE
  5
18A
330
59
100
AcDbEntity
  8
1
  6
Continuous
 62
     7
100
AcDbLine
 10
322.6373608577724
 20
348.6615417474636
 30
0.0
 11
322.6373608577724
 21
334.3115417474633
 31
0.0
  0
LINE
  5
18B
330
59
100
AcDbEntity
  8
0
  6
Continuous
 62
     7
100
AcDbLine
 10
324.6373608577724
 20
348.6615417474636
 30
0.0
 11
324.6373608577724
 21
258.9115417474623
 31
0.0
  0
LINE
  5
18C
330
59
100
AcDbEntity
  8
1
  6
Continuous
 62
     7
100
AcDbLine
 10
322.6373608577724
 20
348.6615417474636
 30
0.0
 11
324.6373608577724
 21
348.6615417474636
 31
0.0
  0
LINE
  5
18D
330
59
100
AcDbEntity
  8
1
  6
Continuous
 62
     7
100
AcDbLine
 10
324.6373608577724
 20
350.6615417474636
 30
0.0
 11
322.6373608577724
 21
350.6615417474636
 31
0.0
  0
LINE
  5
18E
330
59
100
AcDbEntity
  8
0
  6
Continuous
 62
     7
100
AcDbLine
 10
322.6373608577724
 20
352.1615417474636
 30
0.0
 11
323.1373608577724
 21
352.1615417474636
 31
0.0
  0
LINE
  5
18F
330
59
100
AcDbEntity
  8
0
  6
Continuous
 62
     7
100
AcDbLine
 10
294.3873970294735
 20
353.1615417474636
 30
0.0
 11
294.3873608577724
 21
353.1615417474636
 31
0.0
  0
LINE
  5
190
330
59
100
AcDbEntity
  8
0
  6
Continuous
 62
     7
100
AcDbLine
 10
322.6373608577724
 20
351.1615417474636
 30
0.0
 11
323.1373608577724
 21
351.1615417474636
 31
0.0
  0
LINE
  5
191
330
59
100
AcDbEntity
  8
0
  6
Continuous
 62
     7
100
AcDbLine
 10
294.3873970294735
 20
258.2615417474626
 30
0.0
 11
294.3873970294735
 21
253.6615417474623
 31
0.0
  0
LINE
  5
192
330
59
100
AcDbEntity
  8
0
  6
Continuous
 62
     7
100
AcDbLine
 10
294.3873970294735
 20
267.6615417474623
 30
0.0
 11
294.3873970294735
 21
265.2615417474613
 31
0.0
  0
LINE
  5
193
330
59
100
AcDbEntity
  8
0
  6
Continuous
 62
     7
100
AcDbLine
 10
323.6373608577724
 20
258.9115417474623
 30
0.0
 11
323.6373608577724
 21
256.1615417474623
 31
0.0
  0
LINE
  5
194
330
59
100
AcDbEntity
  8
0
  6
Continuous
 62
     7
100
AcDbLine
 10
322.6373608577724
 20
254.6615417474623
 30
0.0
 11
323.1373608577724
 21
254.6615417474623
 31
0.0
  0
LINE
  5
195
330
59
100
AcDbEntity
  8
0
  6
Continuous
 62
     7
100
AcDbLine
 10
322.6373608577724
 20
255.6615417474623
 30
0.0
 11
323.1373608577724
 21
255.6615417474623
 31
0.0
  0
LINE
  5
196
330
59
100
AcDbEntity
  8
0
  6
Continuous
 62
     7
100
AcDbLine
 10
324.6373608577724
 20
258.9115417474623
 30
0.0
 11
324.6373608577724
 21
256.1615417474623
 31
0.0
  0
LINE
  5
197
330
59
100
AcDbEntity
  8
0
  6
Continuous
 62
     7
100
AcDbLine
 10
322.6373608577724
 20
256.1615417474623
 30
0.0
 11
322.6373608577724
 21
253.6615417474623
 31
0.0
  0
LINE
  5
198
330
59
100
AcDbEntity
  8
1
  6
Continuous
 62
     7
100
AcDbLine
 10
324.6373608577724
 20
256.1615417474623
 30
0.0
 11
322.6373608577724
 21
256.1615417474623
 31
0.0
  0
LINE
  5
199
330
59
100
AcDbEntity
  8
0
  6
PHANTOM
 62
     4
100
AcDbLine
 10
289.2417177266634
 20
294.9115417474623
 30
0.0
 11
316.5232560006734
 21
294.9115417474623
 31
0.0
  0
LINE
  5
19A
330
59
100
AcDbEntity
  8
0
  6
Continuous
 62
     7
100
AcDbLine
 10
305.4748909728023
 20
300.9115417474623
 30
0.0
 11
291.3873608577724
 21
300.9115417474623
 31
0.0
  0
LINE
  5
19B
330
59
100
AcDbEntity
  8
0
  6
Continuous
 62
     7
100
AcDbLine
 10
305.4748909728023
 20
288.9115417474623
 30
0.0
 11
291.3873608577724
 21
288.9115417474623
 31
0.0
  0
LINE
  5
19C
330
59
100
AcDbEntity
  8
0
  6
Continuous
 62
     7
100
AcDbLine
 10
324.6373608577724
 20
334.3115417474633
 30
0.0
 11
323.6373608577724
 21
334.3115417474633
 31
0.0
  0
LINE
  5
19D
330
59
100
AcDbEntity
  8
0
  6
PHANTOM
 62
     4
100
AcDbLine
 10
296.5835132804823
 20
298.4296566628445
 30
0.0
 11
296.5835132804823
 21
291.3299473204656
 31
0.0
  0
LINE
  5
19E
330
59
100
AcDbEntity
  8
0
  6
Continuous
 62
     7
100
AcDbLine
 10
302.2796657031922
 20
299.9115417474623
 30
0.0
 11
302.2796657031922
 21
289.9115417474623
 31
0.0
  0
LINE
  5
19F
330
59
100
AcDbEntity
  8
0
  6
Continuous
 62
     7
100
AcDbLine
 10
291.3873608577724
 20
299.9115417474623
 30
0.0
 11
291.3873608577724
 21
289.9115417474623
 31
0.0
  0
LINE
  5
1A0
330
59
100
AcDbEntity
  8
0
  6
Continuous
 62
     7
100
AcDbLine
 10
291.3873608577724
 20
286.9115417474623
 30
0.0
 11
305.4748909728023
 21
286.9115417474623
 31
0.0
  0
LINE
  5
1A1
330
59
100
AcDbEntity
  8
0
  6
Continuous
 62
     7
100
AcDbLine
 10
291.3873608577724
 20
302.9115417474623
 30
0.0
 11
305.4748909728023
 21
302.9115417474623
 31
0.0
  0
LINE
  5
1A2
330
59
100
AcDbEntity
  8
0
  6
Continuous
 62
     7
100
AcDbLine
 10
322.6373608577724
 20
258.9115417474623
 30
0.0
 11
324.6373608577724
 21
258.9115417474623
 31
0.0
  0
LINE
  5
1A3
330
59
100
AcDbEntity
  8
0
  6
Continuous
 62
     7
100
AcDbLine
 10
294.3873970294735
 20
331.9115417474636
 30
0.0
 11
276.3873608577724
 21
331.9115417474636
 31
0.0
  0
LINE
  5
1A4
330
59
100
AcDbEntity
  8
0
  6
Continuous
 62
     7
100
AcDbLine
 10
293.3873970294735
 20
265.2615417474613
 30
0.0
 11
294.3873970294735
 21
265.2615417474613
 31
0.0
  0
LINE
  5
1A5
330
59
100
AcDbEntity
  8
0
  6
Continuous
 62
     7
100
AcDbLine
 10
294.3873970294735
 20
333.9115417474636
 30
0.0
 11
293.3873970294735
 21
333.9115417474636
 31
0.0
  0
LINE
  5
1A6
330
59
100
AcDbEntity
  8
0
  6
Continuous
 62
     7
100
AcDbLine
 10
293.3873970294735
 20
258.2615417474626
 30
0.0
 11
294.3873970294735
 21
258.2615417474626
 31
0.0
  0
LINE
  5
1A7
330
59
100
AcDbEntity
  8
0
  6
Continuous
 62
     7
100
AcDbLine
 10
325.6373608577724
 20
313.4115417474623
 30
0.0
 11
325.6373608577724
 21
320.4115417474623
 31
0.0
  0
LINE
  5
1A8
330
59
100
AcDbEntity
  8
0
  6
Continuous
 62
     7
100
AcDbLine
 10
325.6373608577724
 20
269.4115417474623
 30
0.0
 11
325.6373608577724
 21
276.4115417474623
 31
0.0
  0
LINE
  5
1A9
330
59
100
AcDbEntity
  8
0
  6
Continuous
 62
     7
100
AcDbLine
 10
293.3873970294735
 20
348.6615417474636
 30
0.0
 11
294.3873970294735
 21
348.6615417474636
 31
0.0
  0
LINE
  5
1AA
330
59
100
AcDbEntity
  8
0
  6
Continuous
 62
     7
100
AcDbLine
 10
322.6373608577724
 20
258.9115417474623
 30
0.0
 11
322.6373608577724
 21
256.1615417474623
 31
0.0
  0
LINE
  5
1AB
330
59
100
AcDbEntity
  8
0
  6
Continuous
 62
     7
100
AcDbLine
 10
322.6373608577724
 20
253.6615417474623
 30
0.0
 11
294.3873970294735
 21
253.6615417474623
 31
0.0
  0
LINE
  5
1AC
330
59
100
AcDbEntity
  8
0
  6
Continuous
 62
     7
100
AcDbLine
 10
322.6373608577724
 20
350.6615417474636
 30
0.0
 11
322.6373608577724
 21
353.1615417474636
 31
0.0
  0
LINE
  5
1AD
330
59
100
AcDbEntity
  8
0
  6
Continuous
 62
     7
100
AcDbLine
 10
324.6373608577724
 20
350.6615417474636
 30
0.0
 11
324.6373608577724
 21
348.6615417474636
 31
0.0
  0
LINE
  5
1AE
330
59
100
AcDbEntity
  8
0
  6
Continuous
 62
     7
100
AcDbLine
 10
276.3873608577724
 20
321.1615417474623
 30
0.0
 11
304.3873608577833
 21
321.1615417474623
 31
0.0
  0
LINE
  5
1AF
330
59
100
AcDbEntity
  8
0
  6
Continuous
 62
     7
100
AcDbLine
 10
276.3873608577724
 20
312.6615417474623
 30
0.0
 11
304.3873608577833
 21
312.6615417474623
 31
0.0
  0
LINE
  5
1B0
330
59
100
AcDbEntity
  8
0
  6
Continuous
 62
     7
100
AcDbLine
 10
276.3873608577724
 20
277.1615417474623
 30
0.0
 11
304.3873608577724
 21
277.1615417474623
 31
0.0
  0
LINE
  5
1B1
330
59
100
AcDbEntity
  8
0
  6
Continuous
 62
     7
100
AcDbLine
 10
295.3873970294735
 20
268.6615417474623
 30
0.0
 11
304.3873608577724
 21
268.6615417474623
 31
0.0
  0
LINE
  5
1B2
330
59
100
AcDbEntity
  8
0
  6
Continuous
 62
     7
100
AcDbLine
 10
294.3873970294735
 20
331.9115417474636
 30
0.0
 11
294.3873970294735
 21
333.9115417474636
 31
0.0
  0
LINE
  5
1B3
330
59
100
AcDbEntity
  8
0
  6
Continuous
 62
     7
100
AcDbLine
 10
293.3873970294735
 20
333.9115417474636
 30
0.0
 11
293.3873970294735
 21
348.6615417474636
 31
0.0
  0
LINE
  5
1B4
330
59
100
AcDbEntity
  8
0
  6
Continuous
 62
     7
100
AcDbLine
 10
275.3873608577724
 20
351.1615417474636
 30
0.0
 11
294.3873970294735
 21
351.1615417474636
 31
0.0
  0
LINE
  5
1B5
330
59
100
AcDbEntity
  8
0
  6
Continuous
 62
     7
100
AcDbLine
 10
275.3873608577724
 20
352.1615417474636
 30
0.0
 11
294.3873970294735
 21
352.1615417474636
 31
0.0
  0
LINE
  5
1B6
330
59
100
AcDbEntity
  8
0
  6
Continuous
 62
     7
100
AcDbLine
 10
322.6373608577724
 20
353.1615417474636
 30
0.0
 11
294.3873970294735
 21
353.1615417474636
 31
0.0
  0
ARC
  5
1B7
330
59
100
AcDbEntity
  8
0
  6
Continuous
 62
     7
100
AcDbCircle
 10
325.1373608577724
 20
285.9115417474623
 30
0.0
 40
0.5
100
AcDbArc
 50
0.0
 51
90.00000153433948
  0
ARC
  5
1B8
330
59
100
AcDbEntity
  8
0
  6
Continuous
 62
     7
100
AcDbCircle
 10
325.1373608577724
 20
286.9115417474623
 30
0.0
 40
0.5000000000000007
100
AcDbArc
 50
180.0000030703465
 51
269.9999984656606
  0
ARC
  5
1B9
330
59
100
AcDbEntity
  8
0
  6
Continuous
 62
     7
100
AcDbCircle
 10
325.1373608577724
 20
329.9115417474623
 30
0.0
 40
0.5
100
AcDbArc
 50
0.0
 51
90.00000153433948
  0
ARC
  5
1BA
330
59
100
AcDbEntity
  8
0
  6
Continuous
 62
     7
100
AcDbCircle
 10
325.1373608577724
 20
330.9115417474623
 30
0.0
 40
0.5000000000000007
100
AcDbArc
 50
180.0000030703465
 51
269.9999984656606
  0
ARC
  5
1BB
330
59
100
AcDbEntity
  8
0
  6
Continuous
 62
     7
100
AcDbCircle
 10
325.1373608577724
 20
321.9115417474623
 30
0.0
 40
0.5000000000000001
100
AcDbArc
 50
90.00000153433948
 51
180.0000030703465
  0
ARC
  5
1BC
330
59
100
AcDbEntity
  8
0
  6
Continuous
 62
     7
100
AcDbCircle
 10
325.1373608577724
 20
322.9115417474623
 30
0.0
 40
0.5000000000000001
100
AcDbArc
 50
269.9999984656606
 51
0.0
  0
ARC
  5
1BD
330
59
100
AcDbEntity
  8
1
  6
Continuous
 62
     7
100
AcDbCircle
 10
304.8873970294735
 20
262.4115417474623
 30
0.0
 40
2.099999999998602
100
AcDbArc
 50
0.0
 51
40.89159599463186
  0
ARC
  5
1BE
330
59
100
AcDbEntity
  8
1
  6
Continuous
 62
     7
100
AcDbCircle
 10
304.3873608577833
 20
272.9115417474645
 30
0.0
 40
4.250000000002217
100
AcDbArc
 50
269.9999999998536
 51
284.826294962531
  0
ARC
  5
1BF
330
59
100
AcDbEntity
  8
1
  6
Continuous
 62
     7
100
AcDbCircle
 10
304.3873608577833
 20
272.9115417474645
 30
0.0
 40
4.249999999997143
100
AcDbArc
 50
75.17370503745487
 51
90.00000000014636
  0
ARC
  5
1C0
330
59
100
AcDbEntity
  8
1
  6
Continuous
 62
     7
100
AcDbCircle
 10
304.3873608577833
 20
316.9115417474623
 30
0.0
 40
4.249999999998137
100
AcDbArc
 50
299.4184030302349
 51
60.58159696976097
  0
ARC
  5
1C1
330
59
100
AcDbEntity
  8
1
  6
Continuous
 62
     7
100
AcDbCircle
 10
304.3873608577833
 20
316.9115417474623
 30
0.0
 40
4.25
100
AcDbArc
 50
270.0
 51
284.8262949625387
  0
ARC
  5
1C2
330
59
100
AcDbEntity
  8
1
  6
Continuous
 62
     7
100
AcDbCircle
 10
304.3873608577833
 20
316.9115417474623
 30
0.0
 40
4.249999999999286
100
AcDbArc
 50
75.17370503746251
 51
90.0
  0
ARC
  5
1C3
330
59
100
AcDbEntity
  8
1
  6
Continuous
 62
     7
100
AcDbCircle
 10
304.3873608577724
 20
272.9115417474623
 30
0.0
 40
4.250000000002578
100
AcDbArc
 50
299.4184030303692
 51
60.5815969696395
  0
ARC
  5
1C4
330
59
100
AcDbEntity
  8
0
  6
Continuous
 62
     7
100
AcDbCircle
 10
312.8873970294735
 20
333.4115417474636
 30
0.0
 40
2.099999999998602
100
AcDbArc
 50
0.0
 51
180.0
  0
ARC
  5
1C5
330
59
100
AcDbEntity
  8
0
  6
Continuous
 62
     7
100
AcDbCircle
 10
304.8873970294735
 20
333.4115417474636
 30
0.0
 40
2.099999999998602
100
AcDbArc
 50
0.0
 51
133.6691796476211
  0
ARC
  5
1C6
330
59
100
AcDbEntity
  8
0
  6
Continuous
 62
     7
100
AcDbCircle
 10
304.8873970294735
 20
333.4115417474636
 30
0.0
 40
2.100000000006355
100
AcDbArc
 50
133.6691796476211
 51
286.2458228380715
  0
ARC
  5
1C7
330
59
100
AcDbEntity
  8
0
  6
Continuous
 62
     7
100
AcDbCircle
 10
304.8873970294735
 20
262.4115417474623
 30
0.0
 40
2.100000000005985
100
AcDbArc
 50
133.6691796476308
 51
286.2458228380745
  0
ARC
  5
1C8
330
59
100
AcDbEntity
  8
0
  6
Continuous
 62
     7
100
AcDbCircle
 10
276.3873608577724
 20
322.1615417474623
 30
0.0
 40
1.000000000000001
100
AcDbArc
 50
179.9999969295135
 51
269.9999984650385
  0
ARC
  5
1C9
330
59
100
AcDbEntity
  8
0
  6
Continuous
 62
     7
100
AcDbCircle
 10
276.3873608577724
 20
311.6615417474623
 30
0.0
 40
1.0
100
AcDbArc
 50
90.00000153496154
 51
179.9999969295135
  0
ARC
  5
1CA
330
59
100
AcDbEntity
  8
0
  6
Continuous
 62
     7
100
AcDbCircle
 10
276.3873608577724
 20
278.1615417474623
 30
0.0
 40
1.000000000000001
100
AcDbArc
 50
179.9999969295135
 51
269.9999984650385
  0
ARC
  5
1CB
330
59
100
AcDbEntity
  8
0
  6
Continuous
 62
     7
100
AcDbCircle
 10
276.3873608577724
 20
330.9115417474636
 30
0.0
 40
1.0
100
AcDbArc
 50
90.00000153496154
 51
179.9999969295884
  0
ARC
  5
1CC
330
59
100
AcDbEntity
  8
0
  6
Continuous
 62
     7
100
AcDbCircle
 10
295.3873970294735
 20
267.6615417474623
 30
0.0
 40
1.0
100
AcDbArc
 50
90.0000015355836
 51
179.9999969295135
  0
ARC
  5
1CD
330
59
100
AcDbEntity
  8
0
  6
Continuous
 62
     7
100
AcDbCircle
 10
297.6259580016231
 20
294.9115417474623
 30
0.0
 40
2.491001879651696
100
AcDbArc
 50
137.9100444631075
 51
222.0899555368857
  0
ARC
  5
1CE
330
59
100
AcDbEntity
  8
0
  6
Continuous
 62
     7
100
AcDbCircle
 10
297.0835132804823
 20
295.4015054976053
 30
0.0
 40
1.760036249856375
100
AcDbArc
 50
98.16877571317869
 51
137.9100444632704
  0
ARC
  5
1CF
330
59
100
AcDbEntity
  8
0
  6
Continuous
 62
     7
100
AcDbCircle
 10
297.0835132804823
 20
294.4215779973192
 30
0.0
 40
1.760036249858533
100
AcDbArc
 50
222.08995553672
 51
261.8312242868192
  0
ARC
  5
1D0
330
59
100
AcDbEntity
  8
0
  6
Continuous
 62
     7
100
AcDbCircle
 10
297.1259580016231
 20
294.9115417474623
 30
0.0
 40
2.491001879651696
100
AcDbArc
 50
137.9100444631075
 51
222.0899555368857
  0
ARC
  5
1D1
330
59
100
AcDbEntity
  8
0
  6
Continuous
 62
     7
100
AcDbCircle
 10
296.5835132804823
 20
295.4015054976053
 30
0.0
 40
1.760036249860984
100
AcDbArc
 50
42.08995860711319
 51
137.9100444632704
  0
ARC
  5
1D2
330
59
100
AcDbEntity
  8
0
  6
Continuous
 62
     7
100
AcDbCircle
 10
296.0410685593433
 20
294.9115417474623
 30
0.0
 40
2.491001879657589
100
AcDbArc
 50
317.9100413927937
 51
42.08995860722867
  0
ARC
  5
1D3
330
59
100
AcDbEntity
  8
0
  6
Continuous
 62
     7
100
AcDbCircle
 10
296.5835132804823
 20
294.4215779973192
 30
0.0
 40
1.760036249858533
100
AcDbArc
 50
222.08995553672
 51
317.9100413928964
  0
ARC
  5
1D4
330
59
100
AcDbEntity
  8
0
  6
Continuous
 62
     7
100
AcDbCircle
 10
291.3873608577724
 20
287.9115417474623
 30
0.0
 40
1.0
100
AcDbArc
 50
90.00000153496154
 51
179.9999969295135
  0
ARC
  5
1D5
330
59
100
AcDbEntity
  8
0
  6
Continuous
 62
     7
100
AcDbCircle
 10
291.3873608577724
 20
301.9115417474623
 30
0.0
 40
1.000000000000001
100
AcDbArc
 50
179.9999969295135
 51
269.9999984650385
  0
ARC
  5
1D6
330
59
100
AcDbEntity
  8
0
  6
Continuous
 62
     7
100
AcDbCircle
 10
291.3873608577724
 20
287.9115417474623
 30
0.0
 40
1.000000000000001
100
AcDbArc
 50
179.9999969295135
 51
269.9999984650385
  0
ARC
  5
1D7
330
59
100
AcDbEntity
  8
0
  6
Continuous
 62
     7
100
AcDbCircle
 10
291.3873608577724
 20
301.9115417474623
 30
0.0
 40
1.0
100
AcDbArc
 50
90.00000153496154
 51
179.9999969295135
  0
ARC
  5
1D8
330
59
100
AcDbEntity
  8
0
  6
Continuous
 62
     7
100
AcDbCircle
 10
325.1373608577724
 20
320.4115417474623
 30
0.0
 40
0.5
100
AcDbArc
 50
0.0
 51
90.00000153433948
  0
ARC
  5
1D9
330
59
100
AcDbEntity
  8
0
  6
Continuous
 62
     7
100
AcDbCircle
 10
325.1373608577724
 20
321.4115417474623
 30
0.0
 40
0.5000000000000007
100
AcDbArc
 50
180.0000030704442
 51
269.9999984656606
  0
ARC
  5
1DA
330
59
100
AcDbEntity
  8
0
  6
Continuous
 62
     7
100
AcDbCircle
 10
325.1373608577724
 20
312.4115417474623
 30
0.0
 40
0.5000000000000001
100
AcDbArc
 50
90.00000153433948
 51
180.0000030704442
  0
ARC
  5
1DB
330
59
100
AcDbEntity
  8
0
  6
Continuous
 62
     7
100
AcDbCircle
 10
325.1373608577724
 20
313.4115417474623
 30
0.0
 40
0.5000000000000001
100
AcDbArc
 50
269.9999984656606
 51
0.0
  0
ARC
  5
1DC
330
59
100
AcDbEntity
  8
0
  6
Continuous
 62
     7
100
AcDbCircle
 10
325.1373608577724
 20
276.4115417474623
 30
0.0
 40
0.5
100
AcDbArc
 50
0.0
 51
90.00000153433948
  0
ARC
  5
1DD
330
59
100
AcDbEntity
  8
0
  6
Continuous
 62
     7
100
AcDbCircle
 10
325.1373608577724
 20
277.4115417474623
 30
0.0
 40
0.5000000000000007
100
AcDbArc
 50
180.0000030704442
 51
269.9999984656606
  0
ARC
  5
1DE
330
59
100
AcDbEntity
  8
0
  6
Continuous
 62
     7
100
AcDbCircle
 10
325.1373608577724
 20
268.4115417474623
 30
0.0
 40
0.5000000000000001
100
AcDbArc
 50
90.00000153433948
 51
180.0000030704442
  0
ARC
  5
1DF
330
59
100
AcDbEntity
  8
0
  6
Continuous
 62
     7
100
AcDbCircle
 10
325.1373608577724
 20
269.4115417474623
 30
0.0
 40
0.5000000000000001
100
AcDbArc
 50
269.9999984656606
 51
0.0
  0
ARC
  5
1E0
330
59
100
AcDbEntity
  8
0
  6
Continuous
 62
     7
100
AcDbCircle
 10
323.1373608577724
 20
256.1615417474623
 30
0.0
 40
1.500000000000001
100
AcDbArc
 50
269.9999984649006
 51
0.0
  0
ARC
  5
1E1
330
59
100
AcDbEntity
  8
0
  6
Continuous
 62
     7
100
AcDbCircle
 10
323.1373608577724
 20
256.1615417474623
 30
0.0
 40
0.5000000000000001
100
AcDbArc
 50
269.9999984656606
 51
0.0
  0
ARC
  5
1E2
330
59
100
AcDbEntity
  8
0
  6
Continuous
 62
     7
100
AcDbCircle
 10
323.1373608577724
 20
350.6615417474636
 30
0.0
 40
1.5
100
AcDbArc
 50
0.0
 51
90.00000153509943
  0
ARC
  5
1E3
330
59
100
AcDbEntity
  8
0
  6
Continuous
 62
     7
100
AcDbCircle
 10
323.1373608577724
 20
350.6615417474636
 30
0.0
 40
0.5
100
AcDbArc
 50
0.0
 51
90.00000153433948
  0
ARC
  5
1E4
330
59
100
AcDbEntity
  8
1
  6
Continuous
 62
     7
100
AcDbCircle
 10
304.8873970294735
 20
262.4115417474623
 30
0.0
 40
2.099999999999197
100
AcDbArc
 50
73.75417716192767
 51
133.6691796476308
  0
ARC
  5
1E5
330
59
100
AcDbEntity
  8
1
  6
Continuous
 62
     7
100
AcDbCircle
 10
312.8873970294735
 20
262.4115417474623
 30
0.0
 40
2.099999999998602
100
AcDbArc
 50
0.0
 51
180.0
  0
CIRCLE
  5
1E6
330
59
100
AcDbEntity
  8
0
  6
Continuous
 62
     7
100
AcDbCircle
 10
136.4622350164827
 20
439.0433134390373
 30
0.0
 40
2.0
  0
CIRCLE
  5
1E7
330
59
100
AcDbEntity
  8
0
  6
Continuous
 62
     7
100
AcDbCircle
 10
181.6622350164835
 20
439.0433134390373
 30
0.0
 40
2.0
  0
ARC
  5
1E8
330
59
100
AcDbEntity
  8
1
  6
Continuous
 62
     7
100
AcDbCircle
 10
191.6622350164835
 20
456.0433134390373
 30
0.0
 40
1.0
100
AcDbArc
 50
90.0
 51
180.0
  0
ARC
  5
1E9
330
59
100
AcDbEntity
  8
1
  6
Continuous
 62
     7
100
AcDbCircle
 10
126.4622350164827
 20
456.0433134390373
 30
0.0
 40
1.0
100
AcDbArc
 50
0.0
 51
90.0
  0
ARC
  5
1EA
330
59
100
AcDbEntity
  8
1
  6
Continuous
 62
     7
100
AcDbCircle
 10
126.4622350164827
 20
429.5433134390373
 30
0.0
 40
1.0
100
AcDbArc
 50
270.0
 51
0.0
  0
ARC
  5
1EB
330
59
100
AcDbEntity
  8
1
  6
Continuous
 62
     7
100
AcDbCircle
 10
191.6622350164835
 20
429.5433134390373
 30
0.0
 40
1.0
100
AcDbArc
 50
180.0
 51
270.0
  0
ARC
  5
1EC
330
59
100
AcDbEntity
  8
1
  6
Continuous
 62
     7
100
AcDbCircle
 10
199.6622350164835
 20
457.0433134390373
 30
0.0
 40
1.0
100
AcDbArc
 50
0.0
 51
90.0
  0
ARC
  5
1ED
330
59
100
AcDbEntity
  8
1
  6
Continuous
 62
     7
100
AcDbCircle
 10
118.4622350164827
 20
457.0433134390373
 30
0.0
 40
1.0
100
AcDbArc
 50
90.0
 51
180.0
  0
ENDBLK
  5
5B
330
59
100
AcDbEntity
  8
0
100
AcDbBlockEnd
  0
BLOCK
  5
5D
330
5C
100
AcDbEntity
  8
0
100
AcDbBlockBegin
  2
V97-H12
 70
     0
 10
926.2785367806628
 20
144.0742841342594
 30
0.0
  3
V97-H12
  1

  0
LINE
  5
1EE
330
5C
100
AcDbEntity
  8
1
  6
CENTER_DASH_DASH
 62
     2
100
AcDbLine
 10
117.4622350164827
 20
424.5433134390373
 30
0.0
 11
116.4622350164827
 21
424.5433134390373
 31
0.0
  0
LINE
  5
1EF
330
5C
100
AcDbEntity
  8
1
  6
CENTER_DASH_DASH
 62
     2
100
AcDbLine
 10
116.4622350164827
 20
424.5433134390373
 30
0.0
 11
116.4622350164827
 21
414.5433134390373
 31
0.0
  0
LINE
  5
1F0
330
5C
100
AcDbEntity
  8
1
  6
CENTER_DASH_DASH
 62
     2
100
AcDbLine
 10
116.4622350164827
 20
414.5433134390373
 30
0.0
 11
102.261993614653
 21
414.5433134390373
 31
0.0
  0
LINE
  5
1F1
330
5C
100
AcDbEntity
  8
1
  6
CENTER_DASH_DASH
 62
     2
100
AcDbLine
 10
117.4622350164827
 20
413.5433134390373
 30
0.0
 11
102.261993614653
 21
413.5433134390373
 31
0.0
  0
LINE
  5
1F2
330
5C
100
AcDbEntity
  8
1
  6
CENTER_DASH_DASH
 62
     2
100
AcDbLine
 10
102.261993614653
 20
414.5433134390373
 30
0.0
 11
102.261993614653
 21
413.5433134390373
 31
0.0
  0
LINE
  5
1F3
330
5C
100
AcDbEntity
  8
1
  6
CENTER_DASH_DASH
 62
     2
100
AcDbLine
 10
201.6622350164835
 20
424.5433134390373
 30
0.0
 11
200.6622350164835
 21
424.5433134390373
 31
0.0
  0
LINE
  5
1F4
330
5C
100
AcDbEntity
  8
1
  6
CENTER_DASH_DASH
 62
     2
100
AcDbLine
 10
201.6622350164835
 20
414.5433134390373
 30
0.0
 11
201.6622350164835
 21
424.5433134390373
 31
0.0
  0
LINE
  5
1F5
330
5C
100
AcDbEntity
  8
1
  6
CENTER_DASH_DASH
 62
     2
100
AcDbLine
 10
215.8624764183223
 20
414.5433134390373
 30
0.0
 11
201.6622350164835
 21
414.5433134390373
 31
0.0
  0
LINE
  5
1F6
330
5C
100
AcDbEntity
  8
1
  6
CENTER_DASH_DASH
 62
     2
100
AcDbLine
 10
215.8624764183223
 20
413.5433134390373
 30
0.0
 11
200.6622350164835
 21
413.5433134390373
 31
0.0
  0
LINE
  5
1F7
330
5C
100
AcDbEntity
  8
1
  6
CENTER_DASH_DASH
 62
     2
100
AcDbLine
 10
215.8624764183223
 20
413.5433134390373
 30
0.0
 11
215.8624764183223
 21
414.5433134390373
 31
0.0
  0
LINE
  5
1F8
330
5C
100
AcDbEntity
  8
1
  6
Continuous
 62
     7
100
AcDbLine
 10
117.4622350164827
 20
450.8308073823696
 30
0.0
 11
116.4622350164827
 21
450.8308073823696
 31
0.0
  0
LINE
  5
1F9
330
5C
100
AcDbEntity
  8
1
  6
Continuous
 62
     7
100
AcDbLine
 10
116.4622350164827
 20
450.8308073823696
 30
0.0
 11
116.4622350164827
 21
440.8308073823696
 31
0.0
  0
LINE
  5
1FA
330
5C
100
AcDbEntity
  8
1
  6
Continuous
 62
     7
100
AcDbLine
 10
116.4622350164827
 20
440.8308073823696
 30
0.0
 11
102.261993614653
 21
440.8308073823696
 31
0.0
  0
LINE
  5
1FB
330
5C
100
AcDbEntity
  8
1
  6
Continuous
 62
     7
100
AcDbLine
 10
117.4622350164827
 20
439.8308073823696
 30
0.0
 11
102.261993614653
 21
439.8308073823696
 31
0.0
  0
LINE
  5
1FC
330
5C
100
AcDbEntity
  8
1
  6
Continuous
 62
     7
100
AcDbLine
 10
102.261993614653
 20
440.8308073823696
 30
0.0
 11
102.261993614653
 21
439.8308073823696
 31
0.0
  0
LINE
  5
1FD
330
5C
100
AcDbEntity
  8
1
  6
Continuous
 62
     7
100
AcDbLine
 10
201.6622350164835
 20
450.8308073823696
 30
0.0
 11
200.6622350164835
 21
450.8308073823696
 31
0.0
  0
LINE
  5
1FE
330
5C
100
AcDbEntity
  8
1
  6
Continuous
 62
     7
100
AcDbLine
 10
201.6622350164835
 20
440.8308073823696
 30
0.0
 11
201.6622350164835
 21
450.8308073823696
 31
0.0
  0
LINE
  5
1FF
330
5C
100
AcDbEntity
  8
1
  6
Continuous
 62
     7
100
AcDbLine
 10
215.8624764183223
 20
440.8308073823696
 30
0.0
 11
201.6622350164835
 21
440.8308073823696
 31
0.0
  0
LINE
  5
200
330
5C
100
AcDbEntity
  8
1
  6
Continuous
 62
     7
100
AcDbLine
 10
215.8624764183223
 20
439.8308073823696
 30
0.0
 11
200.6622350164835
 21
439.8308073823696
 31
0.0
  0
LINE
  5
201
330
5C
100
AcDbEntity
  8
1
  6
Continuous
 62
     7
100
AcDbLine
 10
215.8624764183223
 20
439.8308073823696
 30
0.0
 11
215.8624764183223
 21
440.8308073823696
 31
0.0
  0
LINE
  5
202
330
5C
100
AcDbEntity
  8
0
  6
Continuous
 62
     7
100
AcDbLine
 10
103.261993614653
 20
342.9115417474623
 30
0.0
 11
107.8122350164831
 21
342.9115417474623
 31
0.0
  0
LINE
  5
203
330
5C
100
AcDbEntity
  8
0
  6
Continuous
 62
     7
100
AcDbLine
 10
102.261993614653
 20
266.9115417474623
 30
0.0
 11
102.261993614653
 21
341.9115417474623
 31
0.0
  0
LINE
  5
204
330
5C
100
AcDbEntity
  8
0
  6
Continuous
 62
     7
100
AcDbLine
 10
103.261993614653
 20
265.9115417474623
 30
0.0
 11
107.8122350164831
 21
265.9115417474623
 31
0.0
  0
LINE
  5
205
330
5C
100
AcDbEntity
  8
0
  6
Continuous
 62
     7
100
AcDbLine
 10
214.8624764183223
 20
333.4115417474623
 30
0.0
 11
210.3122350164831
 21
333.4115417474623
 31
0.0
  0
LINE
  5
206
330
5C
100
AcDbEntity
  8
0
  6
Continuous
 62
     7
100
AcDbLine
 10
214.8624764183223
 20
256.4115417474623
 30
0.0
 11
210.3122350164831
 21
256.4115417474623
 31
0.0
  0
LINE
  5
207
330
5C
100
AcDbEntity
  8
0
  6
Continuous
 62
     7
100
AcDbLine
 10
215.8624764183223
 20
332.4115417474623
 30
0.0
 11
215.8624764183223
 21
257.4115417474623
 31
0.0
  0
LINE
  5
208
330
5C
100
AcDbEntity
  8
0
  6
Continuous
 62
     7
100
AcDbLine
 10
306.4748909728023
 20
327.4115417474623
 30
0.0
 11
306.4748909728023
 21
306.9115417474623
 31
0.0
  0
LINE
  5
209
330
5C
100
AcDbEntity
  8
0
  6
Continuous
 62
     7
100
AcDbLine
 10
306.4748909728023
 20
306.9115417474623
 30
0.0
 11
306.4748909728023
 21
282.9115417474623
 31
0.0
  0
LINE
  5
20A
330
5C
100
AcDbEntity
  8
0
  6
Continuous
 62
     7
100
AcDbLine
 10
306.4748909728023
 20
282.9115417474623
 30
0.0
 11
306.4748909728023
 21
262.4115417474623
 31
0.0
  0
LINE
  5
20B
330
5C
100
AcDbEntity
  8
0
  6
Continuous
 62
     7
100
AcDbLine
 10
306.4748909728023
 20
262.4115417474623
 30
0.0
 11
306.4748909728023
 21
256.4115417474623
 31
0.0
  0
LINE
  5
20C
330
5C
100
AcDbEntity
  8
0
  6
Continuous
 62
     7
100
AcDbLine
 10
306.4748909728023
 20
333.4115417474623
 30
0.0
 11
306.4748909728023
 21
327.4115417474623
 31
0.0
  0
LINE
  5
20D
330
5C
100
AcDbEntity
  8
0
  6
Continuous
 62
     7
100
AcDbLine
 10
305.4748909728023
 20
333.4115417474623
 30
0.0
 11
315.4748909728023
 21
333.4115417474623
 31
0.0
  0
LINE
  5
20E
330
5C
100
AcDbEntity
  8
0
  6
Continuous
 62
     7
100
AcDbLine
 10
305.4748909728023
 20
256.4115417474623
 30
0.0
 11
315.4748909728023
 21
256.4115417474623
 31
0.0
  0
LINE
  5
20F
330
5C
100
AcDbEntity
  8
0
  6
Continuous
 62
     7
100
AcDbLine
 10
316.4748909728023
 20
332.4115417474623
 30
0.0
 11
316.4748909728023
 21
328.4115417474623
 31
0.0
  0
LINE
  5
210
330
5C
100
AcDbEntity
  8
0
  6
Continuous
 62
     7
100
AcDbLine
 10
316.4748909728023
 20
257.4115417474623
 30
0.0
 11
316.4748909728023
 21
261.4115417474623
 31
0.0
  0
LINE
  5
211
330
5C
100
AcDbEntity
  8
0
  6
Continuous
 62
     7
100
AcDbLine
 10
315.4748909728023
 20
262.4115417474623
 30
0.0
 11
306.4748909728023
 21
262.4115417474623
 31
0.0
  0
LINE
  5
212
330
5C
100
AcDbEntity
  8
0
  6
Continuous
 62
     7
100
AcDbLine
 10
315.4748909728023
 20
327.4115417474623
 30
0.0
 11
306.4748909728023
 21
327.4115417474623
 31
0.0
  0
LINE
  5
213
330
5C
100
AcDbEntity
  8
0
  6
Continuous
 62
     7
100
AcDbLine
 10
306.4748909728023
 20
306.9115417474623
 30
0.0
 11
315.4748909728023
 21
306.9115417474623
 31
0.0
  0
LINE
  5
214
330
5C
100
AcDbEntity
  8
0
  6
Continuous
 62
     7
100
AcDbLine
 10
306.4748909728023
 20
282.9115417474623
 30
0.0
 11
315.4748909728023
 21
282.9115417474623
 31
0.0
  0
LINE
  5
215
330
5C
100
AcDbEntity
  8
0
  6
Continuous
 62
     7
100
AcDbLine
 10
316.4748909728023
 20
305.9115417474623
 30
0.0
 11
316.4748909728023
 21
283.9115417474623
 31
0.0
  0
LINE
  5
216
330
5C
100
AcDbEntity
  8
0
  6
Continuous
 62
     7
100
AcDbLine
 10
305.4748909728023
 20
333.4115417474623
 30
0.0
 11
305.4748909728023
 21
256.4115417474623
 31
0.0
  0
ARC
  5
217
330
5C
100
AcDbEntity
  8
0
  6
Continuous
 62
     7
100
AcDbCircle
 10
103.261993614653
 20
341.9115417474623
 30
0.0
 40
1.0
100
AcDbArc
 50
90.0000015355836
 51
180.0000030704116
  0
ARC
  5
218
330
5C
100
AcDbEntity
  8
0
  6
Continuous
 62
     7
100
AcDbCircle
 10
103.261993614653
 20
266.9115417474623
 30
0.0
 40
1.000000000000001
100
AcDbArc
 50
180.0000030704116
 51
269.9999984644164
  0
ARC
  5
219
330
5C
100
AcDbEntity
  8
0
  6
Continuous
 62
     7
100
AcDbCircle
 10
214.8624764183223
 20
332.4115417474623
 30
0.0
 40
1.0
100
AcDbArc
 50
0.0
 51
90.00000153547613
  0
ARC
  5
21A
330
5C
100
AcDbEntity
  8
0
  6
Continuous
 62
     7
100
AcDbCircle
 10
214.8624764183223
 20
257.4115417474623
 30
0.0
 40
1.0
100
AcDbArc
 50
269.9999984645239
 51
0.0
  0
ARC
  5
21B
330
5C
100
AcDbEntity
  8
0
  6
Continuous
 62
     7
100
AcDbCircle
 10
315.4748909728023
 20
305.9115417474623
 30
0.0
 40
1.0
100
AcDbArc
 50
0.0
 51
90.00000153548264
  0
ARC
  5
21C
330
5C
100
AcDbEntity
  8
0
  6
Continuous
 62
     7
100
AcDbCircle
 10
315.4748909728023
 20
283.9115417474623
 30
0.0
 40
1.0
100
AcDbArc
 50
269.9999984645173
 51
0.0
  0
ARC
  5
21D
330
5C
100
AcDbEntity
  8
0
  6
Continuous
 62
     7
100
AcDbCircle
 10
315.4748909728023
 20
332.4115417474623
 30
0.0
 40
1.0
100
AcDbArc
 50
0.0
 51
90.00000153548264
  0
ARC
  5
21E
330
5C
100
AcDbEntity
  8
0
  6
Continuous
 62
     7
100
AcDbCircle
 10
315.4748909728023
 20
328.4115417474623
 30
0.0
 40
1.0
100
AcDbArc
 50
269.9999984645173
 51
0.0
  0
ARC
  5
21F
330
5C
100
AcDbEntity
  8
0
  6
Continuous
 62
     7
100
AcDbCircle
 10
315.4748909728023
 20
261.4115417474623
 30
0.0
 40
1.0
100
AcDbArc
 50
0.0
 51
90.00000153548264
  0
ARC
  5
220
330
5C
100
AcDbEntity
  8
0
  6
Continuous
 62
     7
100
AcDbCircle
 10
315.4748909728023
 20
257.4115417474623
 30
0.0
 40
1.0
100
AcDbArc
 50
269.9999984645173
 51
0.0
  0
ENDBLK
  5
5E
330
5C
100
AcDbEntity
  8
0
100
AcDbBlockEnd
  0
BLOCK
  5
60
330
5F
100
AcDbEntity
  8
0
100
AcDbBlockBegin
  2
BIS
 70
     0
 10
293.3873970294735
 20
270.9115417474623
 30
0.0
  3
BIS
  1

  0
LINE
  5
221
330
5F
100
AcDbEntity
  8
1
  6
Continuous
 62
     2
100
AcDbLine
 10
305.4748909728023
 20
271.2905417474626
 30
0.0
 11
293.3873970294735
 21
271.2905417474626
 31
0.0
  0
LINE
  5
222
330
5F
100
AcDbEntity
  8
1
  6
Continuous
 62
     2
100
AcDbLine
 10
293.3873970294735
 20
274.5325417474624
 30
0.0
 11
305.4748909728023
 21
274.5325417474624
 31
0.0
  0
LINE
  5
223
330
5F
100
AcDbEntity
  8
1
  6
Continuous
 62
     2
100
AcDbLine
 10
293.3873970294735
 20
315.2905417474626
 30
0.0
 11
305.4748909728023
 21
315.2905417474626
 31
0.0
  0
LINE
  5
224
330
5F
100
AcDbEntity
  8
1
  6
Continuous
 62
     2
100
AcDbLine
 10
305.4748909728023
 20
318.5325417474624
 30
0.0
 11
293.3873970294735
 21
318.5325417474624
 31
0.0
  0
LINE
  5
225
330
5F
100
AcDbEntity
  8
1
  6
Continuous
 62
     7
100
AcDbLine
 10
305.4748909728023
 20
314.9115417474623
 30
0.0
 11
293.3873970294735
 21
314.9115417474623
 31
0.0
  0
LINE
  5
226
330
5F
100
AcDbEntity
  8
1
  6
Continuous
 62
     7
100
AcDbLine
 10
293.3873970294735
 20
318.9115417474623
 30
0.0
 11
305.4748909728023
 21
318.9115417474623
 31
0.0
  0
LINE
  5
227
330
5F
100
AcDbEntity
  8
1
  6
Continuous
 62
     7
100
AcDbLine
 10
293.3873970294735
 20
270.9115417474623
 30
0.0
 11
305.4748909728023
 21
270.9115417474623
 31
0.0
  0
LINE
  5
228
330
5F
100
AcDbEntity
  8
1
  6
Continuous
 62
     7
100
AcDbLine
 10
293.3873970294735
 20
274.9115417474623
 30
0.0
 11
305.4748909728023
 21
274.9115417474623
 31
0.0
  0
ENDBLK
  5
61
330
5F
100
AcDbEntity
  8
0
100
AcDbBlockEnd
  0
BLOCK
  5
63
330
62
100
AcDbEntity
  8
0
100
AcDbBlockBegin
  2
BIS2
 70
     0
 10
322.4373608577735
 20
275.6615417474623
 30
0.0
  3
BIS2
  1

  0
LINE
  5
229
330
62
100
AcDbEntity
  8
1
  6
Continuous
 62
     2
100
AcDbLine
 10
325.6373608577724
 20
275.9115417474623
 30
0.0
 11
326.4373608577735
 21
275.9115417474623
 31
0.0
  0
LINE
  5
22A
330
62
100
AcDbEntity
  8
1
  6
DASH_CENTER
 62
     2
100
AcDbLine
 10
327.9373608577735
 20
277.6615417474623
 30
0.0
 11
322.4373608577735
 21
277.6615417474623
 31
0.0
  0
LINE
  5
22B
330
62
100
AcDbEntity
  8
1
  6
Continuous
 62
     7
100
AcDbLine
 10
326.1873608577735
 20
279.6615417474623
 30
0.0
 11
326.1873608577735
 21
275.6615417474623
 31
0.0
  0
LINE
  5
22C
330
62
100
AcDbEntity
  8
1
  6
Continuous
 62
     7
100
AcDbLine
 10
326.4373608577735
 20
275.9115417474623
 30
0.0
 11
326.1873608577735
 21
275.6615417474623
 31
0.0
  0
LINE
  5
22D
330
62
100
AcDbEntity
  8
1
  6
Continuous
 62
     7
100
AcDbLine
 10
326.4373608577735
 20
279.4115417474623
 30
0.0
 11
326.4373608577735
 21
275.9115417474623
 31
0.0
  0
LINE
  5
22E
330
62
100
AcDbEntity
  8
1
  6
Continuous
 62
     2
100
AcDbLine
 10
324.6373608577724
 20
279.4115417474623
 30
0.0
 11
326.4373608577735
 21
279.4115417474623
 31
0.0
  0
LINE
  5
22F
330
62
100
AcDbEntity
  8
1
  6
Continuous
 62
     7
100
AcDbLine
 10
326.1873608577735
 20
279.6615417474623
 30
0.0
 11
326.4373608577735
 21
279.4115417474623
 31
0.0
  0
LINE
  5
230
330
62
100
AcDbEntity
  8
1
  6
Continuous
 62
     7
100
AcDbLine
 10
326.1873608577735
 20
275.6615417474623
 30
0.0
 11
325.6373608577724
 21
275.6615417474623
 31
0.0
  0
LINE
  5
231
330
62
100
AcDbEntity
  8
1
  6
Continuous
 62
     7
100
AcDbLine
 10
324.6373608577724
 20
279.6615417474623
 30
0.0
 11
326.1873608577735
 21
279.6615417474623
 31
0.0
  0
ENDBLK
  5
64
330
62
100
AcDbEntity
  8
0
100
AcDbBlockEnd
  0
BLOCK
  5
66
330
65
100
AcDbEntity
  8
0
100
AcDbBlockBegin
  2
V97D-H1
 70
     0
 10
267.7428990394928
 20
584.3655894582525
 30
0.0
  3
V97D-H1
  1

  0
LINE
  5
232
330
65
100
AcDbEntity
  8
0
  6
Continuous
 62
     7
100
AcDbLine
 10
121.976777996173
 20
401.7933134390373
 30
0.0
 11
196.4622350164827
 21
401.7933134390373
 31
0.0
  0
LINE
  5
233
330
65
100
AcDbEntity
  8
1
  6
Continuous
 62
     7
100
AcDbLine
 10
275.3873970294735
 20
230.8615417474643
 30
0.0
 11
275.3873970294735
 21
361.0615417474623
 31
0.0
  0
LINE
  5
234
330
65
100
AcDbEntity
  8
1
  6
Continuous
 62
     7
100
AcDbLine
 10
275.3873970294735
 20
241.2615417474635
 30
0.0
 11
293.3873970294735
 21
241.2615417474635
 31
0.0
  0
LINE
  5
235
330
65
100
AcDbEntity
  8
0
  6
Continuous
 62
     7
100
AcDbLine
 10
125.6622350164835
 20
242.7615417474635
 30
0.0
 11
192.4622350164827
 21
242.7615417474635
 31
0.0
  0
LINE
  5
236
330
65
100
AcDbEntity
  8
0
  6
Continuous
 62
     7
100
AcDbLine
 10
196.4622350164827
 20
246.7615417474635
 30
0.0
 11
196.4622350164827
 21
345.2615417474635
 31
0.0
  0
LINE
  5
237
330
65
100
AcDbEntity
  8
0
  6
Continuous
 62
     7
100
AcDbLine
 10
121.6622350164835
 20
246.7615417474635
 30
0.0
 11
121.6622350164835
 21
345.2615417474635
 31
0.0
  0
LINE
  5
238
330
65
100
AcDbEntity
  8
0
  6
Continuous
 62
     7
100
AcDbLine
 10
125.6622350164835
 20
349.2615417474635
 30
0.0
 11
192.4622350164827
 21
349.2615417474635
 31
0.0
  0
LINE
  5
239
330
65
100
AcDbEntity
  8
1
  6
Continuous
 62
     7
100
AcDbLine
 10
272.6789569345128
 20
236.8615417474643
 30
0.0
 11
272.6789569345128
 21
355.0615417474623
 31
0.0
  0
LINE
  5
23A
330
65
100
AcDbEntity
  8
1
  6
Continuous
 62
     7
100
AcDbLine
 10
270.6373970294735
 20
230.8615417474643
 30
0.0
 11
275.3873970294735
 21
230.8615417474643
 31
0.0
  0
LINE
  5
23B
330
65
100
AcDbEntity
  8
1
  6
Continuous
 62
     7
100
AcDbLine
 10
270.6373970294735
 20
361.0615417474623
 30
0.0
 11
275.3873970294735
 21
361.0615417474623
 31
0.0
  0
LINE
  5
23C
330
65
100
AcDbEntity
  8
1
  6
Continuous
 62
     7
100
AcDbLine
 10
268.6373970294735
 20
359.0615417474623
 30
0.0
 11
268.6373970294735
 21
287.1115417474634
 31
0.0
  0
LINE
  5
23D
330
65
100
AcDbEntity
  8
1
  6
Continuous
 62
     7
100
AcDbLine
 10
268.6373970294735
 20
287.1115417474634
 30
0.0
 11
268.6373970294735
 21
271.3115417474633
 31
0.0
  0
LINE
  5
23E
330
65
100
AcDbEntity
  8
1
  6
Continuous
 62
     7
100
AcDbLine
 10
268.6373970294735
 20
271.3115417474633
 30
0.0
 11
268.6373970294735
 21
232.8615417474643
 31
0.0
  0
LINE
  5
23F
330
65
100
AcDbEntity
  8
0
  6
Continuous
 62
     7
100
AcDbLine
 10
209.6622350164835
 20
408.5433134390373
 30
0.0
 11
209.6622350164835
 21
407.1095318145253
 31
0.0
  0
LINE
  5
240
330
65
100
AcDbEntity
  8
0
  6
Continuous
 62
     7
100
AcDbLine
 10
108.4622350164827
 20
408.5433134390373
 30
0.0
 11
108.4622350164827
 21
407.1095318145253
 31
0.0
  0
LINE
  5
241
330
65
100
AcDbEntity
  8
0
  6
Continuous
 62
     7
100
AcDbLine
 10
108.4622350164827
 20
408.5433134390373
 30
0.0
 11
209.6622350164835
 21
408.5433134390373
 31
0.0
  0
LINE
  5
242
330
65
100
AcDbEntity
  8
0
  6
Continuous
 62
     7
100
AcDbLine
 10
196.4622350164827
 20
401.7933134390373
 30
0.0
 11
207.781517751373
 21
404.6874482292064
 31
0.0
  0
LINE
  5
243
330
65
100
AcDbEntity
  8
0
  6
Continuous
 62
     7
100
AcDbLine
 10
110.3429522816023
 20
404.6874482292064
 30
0.0
 11
121.3574952612926
 21
401.8712298537175
 31
0.0
  0
LINE
  5
244
330
65
100
AcDbEntity
  8
0
  6
Continuous
 62
     7
100
AcDbLine
 10
108.4622350164827
 20
238.8615417474643
 30
0.0
 11
108.4622350164827
 21
353.0615417474623
 31
0.0
  0
LINE
  5
245
330
65
100
AcDbEntity
  8
0
  6
Continuous
 62
     7
100
AcDbLine
 10
116.4622350164827
 20
361.0615417474623
 30
0.0
 11
201.6622350164835
 21
361.0615417474623
 31
0.0
  0
LINE
  5
246
330
65
100
AcDbEntity
  8
0
  6
Continuous
 62
     7
100
AcDbLine
 10
209.6622350164835
 20
238.8615417474643
 30
0.0
 11
209.6622350164835
 21
353.0615417474623
 31
0.0
  0
LINE
  5
247
330
65
100
AcDbEntity
  8
0
  6
Continuous
 62
     7
100
AcDbLine
 10
116.4622350164827
 20
230.8615417474643
 30
0.0
 11
201.6622350164835
 21
230.8615417474643
 31
0.0
  0
LINE
  5
248
330
65
100
AcDbEntity
  8
1
  6
Continuous
 62
     7
100
AcDbLine
 10
293.3873970294735
 20
288.9115417474623
 30
0.0
 11
293.3873970294735
 21
286.9115417474623
 31
0.0
  0
LINE
  5
249
330
65
100
AcDbEntity
  8
1
  6
Continuous
 62
     7
100
AcDbLine
 10
293.3873970294735
 20
302.9115417474623
 30
0.0
 11
293.3873970294735
 21
300.9115417474623
 31
0.0
  0
LINE
  5
24A
330
65
100
AcDbEntity
  8
1
  6
Continuous
 62
     7
100
AcDbLine
 10
293.3873970294735
 20
277.1615417474623
 30
0.0
 11
293.3873970294735
 21
241.2615417474635
 31
0.0
  0
LINE
  5
24B
330
65
100
AcDbEntity
  8
1
  6
Continuous
 62
     7
100
AcDbLine
 10
293.3873970294735
 20
321.1615417474623
 30
0.0
 11
293.3873970294735
 21
312.6615417474623
 31
0.0
  0
ARC
  5
24C
330
65
100
AcDbEntity
  8
0
  6
Continuous
 62
     7
100
AcDbCircle
 10
123.6622350164835
 20
267.7615417474635
 30
0.0
 40
2.000000000000003
100
AcDbArc
 50
180.0000030704507
 51
208.9550243718364
  0
ARC
  5
24D
330
65
100
AcDbEntity
  8
0
  6
Continuous
 62
     7
100
AcDbCircle
 10
186.4622350164827
 20
249.1124311067906
 30
0.0
 40
10.0
100
AcDbArc
 50
0.0
 51
12.83856814097901
  0
ARC
  5
24E
330
65
100
AcDbEntity
  8
0
  6
Continuous
 62
     7
100
AcDbCircle
 10
138.3113456571537
 20
339.2615417474635
 30
0.0
 40
10.0
100
AcDbArc
 50
90.00000153518774
 51
109.9484435887761
  0
ARC
  5
24F
330
65
100
AcDbEntity
  8
0
  6
Continuous
 62
     7
100
AcDbCircle
 10
194.4622350164827
 20
339.2615417474635
 30
0.0
 40
2.0
100
AcDbArc
 50
0.0
 51
28.95502437186067
  0
ARC
  5
250
330
65
100
AcDbEntity
  8
0
  6
Continuous
 62
     7
100
AcDbCircle
 10
131.6622350164835
 20
249.1124311067906
 30
0.0
 40
9.999999999999988
100
AcDbArc
 50
167.1614318590159
 51
180.0000030704717
  0
ARC
  5
251
330
65
100
AcDbEntity
  8
0
  6
Continuous
 62
     7
100
AcDbCircle
 10
192.4622350164827
 20
246.7615417474635
 30
0.0
 40
4.0
100
AcDbArc
 50
270.0
 51
0.0
  0
ARC
  5
252
330
65
100
AcDbEntity
  8
0
  6
Continuous
 62
     7
100
AcDbCircle
 10
186.4622350164827
 20
274.4106523881374
 30
0.0
 40
10.0
100
AcDbArc
 50
347.1614318590159
 51
0.0
  0
ARC
  5
253
330
65
100
AcDbEntity
  8
0
  6
Continuous
 62
     7
100
AcDbCircle
 10
179.8131243758126
 20
339.2615417474635
 30
0.0
 40
10.00000000000008
100
AcDbArc
 50
70.05155641117558
 51
90.00000153523983
  0
ARC
  5
254
330
65
100
AcDbEntity
  8
0
  6
Continuous
 62
     7
100
AcDbCircle
 10
125.6622350164835
 20
246.7615417474635
 30
0.0
 40
4.0
100
AcDbArc
 50
180.0
 51
270.0
  0
ARC
  5
255
330
65
100
AcDbEntity
  8
0
  6
Continuous
 62
     7
100
AcDbCircle
 10
123.6622350164835
 20
339.2615417474635
 30
0.0
 40
2.000000000000016
100
AcDbArc
 50
151.0449756281394
 51
180.0000030704507
  0
ARC
  5
256
330
65
100
AcDbEntity
  8
0
  6
Continuous
 62
     7
100
AcDbCircle
 10
125.6622350164835
 20
345.2615417474635
 30
0.0
 40
4.0
100
AcDbArc
 50
90.0
 51
180.0
  0
ARC
  5
257
330
65
100
AcDbEntity
  8
0
  6
Continuous
 62
     7
100
AcDbCircle
 10
192.4622350164827
 20
345.2615417474635
 30
0.0
 40
4.0
100
AcDbArc
 50
0.0
 51
90.0
  0
ARC
  5
258
330
65
100
AcDbEntity
  8
1
  6
Continuous
 62
     7
100
AcDbCircle
 10
264.7400063866626
 20
237.8479819123404
 30
0.0
 40
8.000000000004826
100
AcDbArc
 50
305.3078391415167
 51
352.9171166206695
  0
ARC
  5
259
330
65
100
AcDbEntity
  8
1
  6
Continuous
 62
     7
100
AcDbCircle
 10
264.7400063866626
 20
354.0751015825854
 30
0.0
 40
8.000000000005834
100
AcDbArc
 50
7.08288337933617
 51
54.69216085848718
  0
ARC
  5
25A
330
65
100
AcDbEntity
  8
0
  6
Continuous
 62
     7
100
AcDbCircle
 10
116.4622350164827
 20
238.8615417474643
 30
0.0
 40
8.00000000000001
100
AcDbArc
 50
180.0000030704729
 51
269.9999984647553
  0
ARC
  5
25B
330
65
100
AcDbEntity
  8
0
  6
Continuous
 62
     7
100
AcDbCircle
 10
116.4622350164827
 20
353.0615417474623
 30
0.0
 40
8.000000000000002
100
AcDbArc
 50
90.00000153524469
 51
180.0000030704666
  0
ARC
  5
25C
330
65
100
AcDbEntity
  8
0
  6
Continuous
 62
     7
100
AcDbCircle
 10
201.6622350164835
 20
353.0615417474623
 30
0.0
 40
8.0
100
AcDbArc
 50
0.0
 51
90.00000153524529
  0
ARC
  5
25D
330
65
100
AcDbEntity
  8
0
  6
Continuous
 62
     7
100
AcDbCircle
 10
201.6622350164835
 20
238.8615417474643
 30
0.0
 40
8.000000000000002
100
AcDbArc
 50
269.9999984647547
 51
0.0
  0
ARC
  5
25E
330
65
100
AcDbEntity
  8
1
  6
Continuous
 62
     7
100
AcDbCircle
 10
270.6373970294735
 20
232.8615417474643
 30
0.0
 40
2.0
100
AcDbArc
 50
180.0
 51
270.0
  0
ARC
  5
25F
330
65
100
AcDbEntity
  8
1
  6
Continuous
 62
     7
100
AcDbCircle
 10
270.6373970294735
 20
359.0615417474623
 30
0.0
 40
2.0
100
AcDbArc
 50
90.0
 51
180.0
  0
ARC
  5
260
330
65
100
AcDbEntity
  8
0
  6
Continuous
 62
     7
100
AcDbCircle
 10
110.9622350164827
 20
407.1095318145253
 30
0.0
 40
2.5
100
AcDbArc
 50
180.0
 51
255.6577739696571
  0
ARC
  5
261
330
65
100
AcDbEntity
  8
0
  6
Continuous
 62
     7
100
AcDbCircle
 10
121.976777996173
 20
404.2933134390373
 30
0.0
 40
2.49999999999931
100
AcDbArc
 50
255.657773969662
 51
270.0
  0
ARC
  5
262
330
65
100
AcDbEntity
  8
0
  6
Continuous
 62
     7
100
AcDbCircle
 10
207.1622350164835
 20
407.1095318145253
 30
0.0
 40
2.50000000000074
100
AcDbArc
 50
284.3422260305451
 51
0.0
  0
ENDBLK
  5
67
330
65
100
AcDbEntity
  8
0
100
AcDbBlockEnd
  0
BLOCK
  5
69
330
68
100
AcDbEntity
  8
0
100
AcDbBlockBegin
  2
V972GN-H6
 70
     0
 10
670.1942668694719
 20
-318.0449149465708
 30
0.0
  3
V972GN-H6
  1

  0
LINE
  5
263
330
68
100
AcDbEntity
  8
0
  6
Continuous
 62
     7
100
AcDbLine
 10
121.9122350164835
 20
337.9115417474645
 30
0.0
 11
121.6622350164835
 21
337.9115417474645
 31
0.0
  0
LINE
  5
264
330
68
100
AcDbEntity
  8
0
  6
Continuous
 62
     7
100
AcDbLine
 10
121.6622350164835
 20
333.6115417474643
 30
0.0
 11
121.9122350164835
 21
333.6115417474643
 31
0.0
  0
LINE
  5
265
330
68
100
AcDbEntity
  8
0
  6
Continuous
 62
     7
100
AcDbLine
 10
121.9122350164835
 20
268.9115417474613
 30
0.0
 11
121.6622350164835
 21
268.9115417474613
 31
0.0
  0
LINE
  5
266
330
68
100
AcDbEntity
  8
0
  6
Continuous
 62
     7
100
AcDbLine
 10
121.6622350164835
 20
273.2115417474615
 30
0.0
 11
121.9122350164835
 21
273.2115417474615
 31
0.0
  0
LINE
  5
267
330
68
100
AcDbEntity
  8
1
  6
Continuous
 62
     7
100
AcDbLine
 10
166.7377252039023
 20
304.0915417474635
 30
0.0
 11
173.7993252039032
 21
304.0915417474635
 31
0.0
  0
LINE
  5
268
330
68
100
AcDbEntity
  8
1
  6
Continuous
 62
     7
100
AcDbLine
 10
174.9351492162732
 20
304.0915417474635
 30
0.0
 11
175.6631492162724
 21
304.0915417474635
 31
0.0
  0
LINE
  5
269
330
68
100
AcDbEntity
  8
1
  6
Continuous
 62
     7
100
AcDbLine
 10
176.8077543447034
 20
304.0915417474635
 30
0.0
 11
178.8825543447019
 21
304.0915417474635
 31
0.0
  0
LINE
  5
26A
330
68
100
AcDbEntity
  8
1
  6
Continuous
 62
     7
100
AcDbLine
 10
180.5697252039026
 20
304.0915417474635
 30
0.0
 11
192.2177252039037
 21
304.0915417474635
 31
0.0
  0
LINE
  5
26B
330
68
100
AcDbEntity
  8
1
  6
Continuous
 62
     7
100
AcDbLine
 10
164.8479627329234
 20
305.2347572264853
 30
0.0
 11
164.6993252039028
 21
304.3917919104092
 31
0.0
  0
LINE
  5
26C
330
68
100
AcDbEntity
  8
1
  6
Continuous
 62
     7
100
AcDbLine
 10
164.8479627329234
 20
305.2347572264853
 30
0.0
 11
165.4478138347331
 21
305.2347572264853
 31
0.0
  0
LINE
  5
26D
330
68
100
AcDbEntity
  8
1
  6
Continuous
 62
     7
100
AcDbLine
 10
164.6993252039028
 20
304.3917919104092
 30
0.0
 11
165.0633252039024
 21
304.3917919104092
 31
0.0
  0
LINE
  5
26E
330
68
100
AcDbEntity
  8
1
  6
Continuous
 62
     7
100
AcDbLine
 10
168.9186876748736
 20
306.5883262684406
 30
0.0
 11
169.0673252039032
 21
307.4312915845162
 31
0.0
  0
LINE
  5
26F
330
68
100
AcDbEntity
  8
1
  6
Continuous
 62
     7
100
AcDbLine
 10
169.0673252039032
 20
307.4312915845162
 30
0.0
 11
168.5498638024819
 21
307.4312915845162
 31
0.0
  0
LINE
  5
270
330
68
100
AcDbEntity
  8
1
  6
Continuous
 62
     7
100
AcDbLine
 10
170.0313147837733
 20
307.7315417474633
 30
0.0
 11
171.4873147837734
 21
307.7315417474633
 31
0.0
  0
LINE
  5
271
330
68
100
AcDbEntity
  8
1
  6
Continuous
 62
     7
100
AcDbLine
 10
174.0178214407824
 20
307.7315417474633
 30
0.0
 11
173.2898214407833
 21
307.7315417474633
 31
0.0
  0
LINE
  5
272
330
68
100
AcDbEntity
  8
1
  6
Continuous
 62
     7
100
AcDbLine
 10
179.7907522535024
 20
307.7315417474633
 30
0.0
 11
179.0627522535033
 21
307.7315417474633
 31
0.0
  0
LINE
  5
273
330
68
100
AcDbEntity
  8
1
  6
Continuous
 62
     7
100
AcDbLine
 10
184.6652633496033
 20
309.3614440413576
 30
0.0
 11
183.1177252039033
 21
309.3614440413576
 31
0.0
  0
LINE
  5
274
330
68
100
AcDbEntity
  8
1
  6
Continuous
 62
     7
100
AcDbLine
 10
193.673725203902
 20
307.7606617474635
 30
0.0
 11
192.800125203903
 21
307.7606617474635
 31
0.0
  0
LINE
  5
275
330
68
100
AcDbEntity
  8
1
  6
Continuous
 62
     7
100
AcDbLine
 10
174.973659028863
 20
304.3099417474623
 30
0.0
 11
175.7016590288622
 21
304.3099417474623
 31
0.0
  0
LINE
  5
276
330
68
100
AcDbEntity
  8
1
  6
Continuous
 62
     7
100
AcDbLine
 10
176.8462641572824
 20
304.3099417474623
 30
0.0
 11
178.9210641572827
 21
304.3099417474623
 31
0.0
  0
LINE
  5
277
330
68
100
AcDbEntity
  8
1
  6
Continuous
 62
     7
100
AcDbLine
 10
169.9928049711834
 20
307.5131417474636
 30
0.0
 11
171.4488049711836
 21
307.5131417474636
 31
0.0
  0
LINE
  5
278
330
68
100
AcDbEntity
  8
1
  6
Continuous
 62
     7
100
AcDbLine
 10
173.9793116281926
 20
307.5131417474636
 30
0.0
 11
173.2513116281934
 21
307.5131417474636
 31
0.0
  0
LINE
  5
279
330
68
100
AcDbEntity
  8
1
  6
Continuous
 62
     7
100
AcDbLine
 10
179.7522424409126
 20
307.5131417474636
 30
0.0
 11
179.0242424409134
 21
307.5131417474636
 31
0.0
  0
LINE
  5
27A
330
68
100
AcDbEntity
  8
1
  6
Continuous
 62
     7
100
AcDbLine
 10
184.6267535370134
 20
309.1430440413574
 30
0.0
 11
183.0792153913135
 21
309.1430440413574
 31
0.0
  0
LINE
  5
27B
330
68
100
AcDbEntity
  8
1
  6
Continuous
 62
     7
100
AcDbLine
 10
193.6352153913122
 20
307.5422617474624
 30
0.0
 11
191.305615391313
 21
307.5422617474624
 31
0.0
  0
LINE
  5
27C
330
68
100
AcDbEntity
  8
1
  6
Continuous
 62
     7
100
AcDbLine
 10
181.3359847173833
 20
304.3099417474623
 30
0.0
 11
192.2562350164826
 21
304.3099417474623
 31
0.0
  0
LINE
  5
27D
330
68
100
AcDbEntity
  8
1
  6
Continuous
 62
     7
100
AcDbLine
 10
167.5495557000431
 20
304.3099417474623
 30
0.0
 11
173.8378350164821
 21
304.3099417474623
 31
0.0
  0
LINE
  5
27E
330
68
100
AcDbEntity
  8
1
  6
Continuous
 62
     7
100
AcDbLine
 10
165.4601002042527
 20
305.2054779141345
 30
0.0
 11
165.4478138347331
 21
305.2347572264853
 31
0.0
  0
LINE
  5
27F
330
68
100
AcDbEntity
  8
1
  6
Continuous
 62
     7
100
AcDbLine
 10
165.1952690739636
 20
304.6769264821105
 30
0.0
 11
165.0633252039024
 21
304.3917919104092
 31
0.0
  0
LINE
  5
280
330
68
100
AcDbEntity
  8
1
  6
Continuous
 62
     7
100
AcDbLine
 10
165.1952690739636
 20
304.6769264821105
 30
0.0
 11
165.5592690739632
 21
304.6769264821105
 31
0.0
  0
LINE
  5
281
330
68
100
AcDbEntity
  8
1
  6
Continuous
 62
     7
100
AcDbLine
 10
168.9186876748736
 20
306.5883262684406
 30
0.0
 11
168.4012262734523
 21
306.5883262684406
 31
0.0
  0
LINE
  5
282
330
68
100
AcDbEntity
  8
1
  6
Continuous
 62
     7
100
AcDbLine
 10
168.2071236265019
 20
306.9872989483265
 30
0.0
 11
168.4012262734523
 21
306.5883262684406
 31
0.0
  0
LINE
  5
283
330
68
100
AcDbEntity
  8
1
  6
Continuous
 62
     7
100
AcDbLine
 10
168.4565775753235
 20
306.9022391004023
 30
0.0
 11
168.5498638024819
 21
307.4312915845162
 31
0.0
  0
LINE
  5
284
330
68
100
AcDbEntity
  8
1
  6
Continuous
 62
     7
100
AcDbLine
 10
178.1015176033634
 20
302.4971771384926
 30
0.0
 11
179.8487176033632
 21
302.4971771384926
 31
0.0
  0
LINE
  5
285
330
68
100
AcDbEntity
  8
1
  6
Continuous
 62
     7
100
AcDbLine
 10
178.2471176033632
 20
302.7155771384923
 30
0.0
 11
179.994317603363
 21
302.7155771384923
 31
0.0
  0
LINE
  5
286
330
68
100
AcDbEntity
  8
0
  6
Continuous
 62
     7
100
AcDbLine
 10
196.4622350164827
 20
333.6115417474643
 30
0.0
 11
196.2122350164827
 21
333.6115417474643
 31
0.0
  0
LINE
  5
287
330
68
100
AcDbEntity
  8
0
  6
Continuous
 62
     2
100
AcDbLine
 10
148.4499390202036
 20
303.3075812278544
 30
0.0
 11
148.3280202968326
 21
303.1856625044875
 31
0.0
  0
LINE
  5
288
330
68
100
AcDbEntity
  8
0
  6
Continuous
 62
     2
100
AcDbLine
 10
148.3465119904431
 20
303.4869969105753
 30
0.0
 11
148.0479243275731
 21
303.1884092476994
 31
0.0
  0
LINE
  5
289
330
68
100
AcDbEntity
  8
0
  6
Continuous
 62
     2
100
AcDbLine
 10
148.2540590996232
 20
303.6773867322295
 30
0.0
 11
147.7939716013734
 21
303.2172992339833
 31
0.0
  0
LINE
  5
28A
330
68
100
AcDbEntity
  8
0
  6
Continuous
 62
     2
100
AcDbLine
 10
148.1734341771335
 20
303.8796045222102
 30
0.0
 11
147.5605645420928
 21
303.2667348871723
 31
0.0
  0
LINE
  5
28B
330
68
100
AcDbEntity
  8
0
  6
Continuous
 62
     2
100
AcDbLine
 10
148.1058261382023
 20
304.0948391957586
 30
0.0
 11
147.3442725120531
 21
303.3332855696012
 31
0.0
  0
LINE
  5
28C
330
68
100
AcDbEntity
  8
0
  6
Continuous
 62
     2
100
AcDbLine
 10
148.0529047656328
 20
304.3247605356646
 30
0.0
 11
147.1428517025033
 21
303.4147074725365
 31
0.0
  0
LINE
  5
28D
330
68
100
AcDbEntity
  8
0
  6
Continuous
 62
     2
100
AcDbLine
 10
148.017075521333
 20
304.5717740038335
 30
0.0
 11
146.954781445962
 21
303.5094799284666
 31
0.0
  0
LINE
  5
28E
330
68
100
AcDbEntity
  8
0
  6
Continuous
 62
     2
100
AcDbLine
 10
148.001959276613
 20
304.8395004715953
 30
0.0
 11
146.7790207863836
 21
303.6165619813564
 31
0.0
  0
LINE
  5
28F
330
68
100
AcDbEntity
  8
0
  6
Continuous
 62
     2
100
AcDbLine
 10
148.0133975105728
 20
305.1337814180206
 30
0.0
 11
146.6148720999336
 21
303.7352560073873
 31
0.0
  0
LINE
  5
290
330
68
100
AcDbEntity
  8
0
  6
Continuous
 62
     2
100
AcDbLine
 10
148.061924470212
 20
305.4651510901426
 30
0.0
 11
146.4619026151231
 21
303.8651292350514
 31
0.0
  0
LINE
  5
291
330
68
100
AcDbEntity
  8
0
  6
Continuous
 62
     2
100
AcDbLine
 10
148.1707121627132
 20
305.8567814951125
 30
0.0
 11
146.3199007090825
 21
304.0059700414863
 31
0.0
  0
LINE
  5
292
330
68
100
AcDbEntity
  8
0
  6
Continuous
 62
     2
100
AcDbLine
 10
149.980365028483
 20
307.6664343608804
 30
0.0
 11
149.9717086716628
 21
307.6577780040693
 31
0.0
  0
LINE
  5
293
330
68
100
AcDbEntity
  8
0
  6
Continuous
 62
     2
100
AcDbLine
 10
146.9582960472035
 20
308.0384779293013
 30
0.0
 11
145.9478571406635
 21
307.0280390227613
 31
0.0
  0
LINE
  5
294
330
68
100
AcDbEntity
  8
0
  6
Continuous
 62
     2
100
AcDbLine
 10
147.4507233592522
 20
308.2480625288795
 30
0.0
 11
145.7382725410826
 21
306.5356117107094
 31
0.0
  0
LINE
  5
295
330
68
100
AcDbEntity
  8
0
  6
Continuous
 62
     2
100
AcDbLine
 10
147.8180455496731
 20
308.3325420068236
 30
0.0
 11
145.6537930631421
 21
306.1682895202903
 31
0.0
  0
LINE
  5
296
330
68
100
AcDbEntity
  8
0
  6
Continuous
 62
     2
100
AcDbLine
 10
148.1298870536321
 20
308.3615407983034
 30
0.0
 11
145.6247942716636
 21
305.8564480163363
 31
0.0
  0
LINE
  5
297
330
68
100
AcDbEntity
  8
0
  6
Continuous
 62
     2
100
AcDbLine
 10
148.4068354019528
 20
308.3556464341473
 30
0.0
 11
145.6306886358234
 21
305.5794996680174
 31
0.0
  0
LINE
  5
298
330
68
100
AcDbEntity
  8
0
  6
Continuous
 62
     2
100
AcDbLine
 10
148.658389960332
 20
308.3243582800574
 30
0.0
 11
145.6619767899028
 21
305.3279451096314
 31
0.0
  0
LINE
  5
299
330
68
100
AcDbEntity
  8
0
  6
Continuous
 62
     2
100
AcDbLine
 10
148.8898421906724
 20
308.2729677979232
 30
0.0
 11
145.7133672720429
 21
305.0964928792923
 31
0.0
  0
LINE
  5
29A
330
68
100
AcDbEntity
  8
0
  6
Continuous
 62
     2
100
AcDbLine
 10
149.104463261363
 20
308.2047461561374
 30
0.0
 11
145.7815889138328
 21
304.8818718086022
 31
0.0
  0
LINE
  5
29B
330
68
100
AcDbEntity
  8
0
  6
Continuous
 62
     2
100
AcDbLine
 10
149.3044034716331
 20
308.1218436539375
 30
0.0
 11
145.8644914160323
 21
304.6819315983294
 31
0.0
  0
LINE
  5
29C
330
68
100
AcDbEntity
  8
0
  6
Continuous
 62
     2
100
AcDbLine
 10
149.4911234538722
 20
308.0257209237002
 30
0.0
 11
145.9606141462627
 21
304.4952116160903
 31
0.0
  0
LINE
  5
29D
330
68
100
AcDbEntity
  8
0
  6
Continuous
 62
     2
100
AcDbLine
 10
149.6656225082334
 20
307.9173772655845
 30
0.0
 11
146.0689578043821
 21
304.3207125617323
 31
0.0
  0
LINE
  5
29E
330
68
100
AcDbEntity
  8
0
  6
Continuous
 62
     2
100
AcDbLine
 10
148.4221800431424
 20
306.3910920880176
 30
0.0
 11
146.1888558855226
 21
304.1577679304046
 31
0.0
  0
LINE
  5
29F
330
68
100
AcDbEntity
  8
0
  6
Continuous
 62
     2
100
AcDbLine
 10
149.8285671395624
 20
307.7974791844395
 30
0.0
 11
149.4373980787623
 21
307.4063101236402
 31
0.0
  0
LINE
  5
2A0
330
68
100
AcDbEntity
  8
0
  6
Continuous
 62
     2
100
AcDbLine
 10
153.2540351362022
 20
303.5745708422724
 30
0.0
 11
152.3121783564529
 21
302.6327140625313
 31
0.0
  0
LINE
  5
2A1
330
68
100
AcDbEntity
  8
0
  6
Continuous
 62
     2
100
AcDbLine
 10
153.4673811866123
 20
304.0707596051575
 30
0.0
 11
151.8159895935733
 21
302.4193680121216
 31
0.0
  0
LINE
  5
2A2
330
68
100
AcDbEntity
  8
0
  6
Continuous
 62
     2
100
AcDbLine
 10
153.5499180475126
 20
304.4361391785346
 30
0.0
 11
151.4506100201925
 21
302.3368311512195
 31
0.0
  0
LINE
  5
2A3
330
68
100
AcDbEntity
  8
0
  6
Continuous
 62
     2
100
AcDbLine
 10
153.5761238893319
 20
304.7451877328253
 30
0.0
 11
151.1415614659036
 21
302.3106253094024
 31
0.0
  0
LINE
  5
2A4
330
68
100
AcDbEntity
  8
0
  6
Continuous
 62
     2
100
AcDbLine
 10
153.5671522384128
 20
305.0190587943816
 30
0.0
 11
150.8676904043532
 21
302.3195969603216
 31
0.0
  0
LINE
  5
2A5
330
68
100
AcDbEntity
  8
0
  6
Continuous
 62
     2
100
AcDbLine
 10
153.5326308546937
 20
305.2673801231376
 30
0.0
 11
150.6193690755936
 21
302.3541183440393
 31
0.0
  0
LINE
  5
2A6
330
68
100
AcDbEntity
  8
0
  6
Continuous
 62
     2
100
AcDbLine
 10
153.4778781742534
 20
305.4954701551696
 30
0.0
 11
150.3912790435625
 21
302.4088710244823
 31
0.0
  0
LINE
  5
2A7
330
68
100
AcDbEntity
  8
0
  6
Continuous
 62
     2
100
AcDbLine
 10
153.406158662583
 20
305.7065933559775
 30
0.0
 11
150.1801558427524
 21
302.4805905361495
 31
0.0
  0
LINE
  5
2A8
330
68
100
AcDbEntity
  8
0
  6
Continuous
 62
     2
100
AcDbLine
 10
153.3196008635023
 20
305.9028782693736
 30
0.0
 11
149.9838709293526
 21
302.5671483352285
 31
0.0
  0
LINE
  5
2A9
330
68
100
AcDbEntity
  8
0
  6
Continuous
 62
     2
100
AcDbLine
 10
153.2196341558229
 20
306.0857542741705
 30
0.0
 11
149.8009949245625
 21
302.6671150429056
 31
0.0
  0
LINE
  5
2AA
330
68
100
AcDbEntity
  8
0
  6
Continuous
 62
     2
100
AcDbLine
 10
153.1072181099626
 20
306.2561809407844
 30
0.0
 11
149.6305682579423
 21
302.7795310887664
 31
0.0
  0
LINE
  5
2AB
330
68
100
AcDbEntity
  8
0
  6
Continuous
 62
     2
100
AcDbLine
 10
152.9829699189722
 20
306.4147754622645
 30
0.0
 11
149.471973736463
 21
302.9037792797612
 31
0.0
  0
LINE
  5
2AC
330
68
100
AcDbEntity
  8
0
  6
Continuous
 62
     2
100
AcDbLine
 10
149.8599225865037
 20
306.9686833919686
 30
0.0
 11
148.9180658067635
 21
306.0268266122266
 31
0.0
  0
LINE
  5
2AD
330
68
100
AcDbEntity
  8
0
  6
Continuous
 62
     2
100
AcDbLine
 10
150.3561113493925
 20
307.1820294423796
 30
0.0
 11
148.7047197563534
 21
305.5306378493415
 31
0.0
  0
LINE
  5
2AE
330
68
100
AcDbEntity
  8
0
  6
Continuous
 62
     2
100
AcDbLine
 10
150.7214909227623
 20
307.2645663032813
 30
0.0
 11
148.6221828954531
 21
305.1652582759643
 31
0.0
  0
LINE
  5
2AF
330
68
100
AcDbEntity
  8
0
  6
Continuous
 62
     2
100
AcDbLine
 10
151.030539477053
 20
307.2907721450974
 30
0.0
 11
148.5959770536319
 21
304.8562097216745
 31
0.0
  0
LINE
  5
2B0
330
68
100
AcDbEntity
  8
0
  6
Continuous
 62
     2
100
AcDbLine
 10
151.3044105386125
 20
307.2818004941782
 30
0.0
 11
148.604948704553
 21
304.5823386601182
 31
0.0
  0
LINE
  5
2B1
330
68
100
AcDbEntity
  8
0
  6
Continuous
 62
     2
100
AcDbLine
 10
151.552731867363
 20
307.2472791104592
 30
0.0
 11
148.639470088272
 21
304.3340173313623
 31
0.0
  0
LINE
  5
2B2
330
68
100
AcDbEntity
  8
0
  6
Continuous
 62
     2
100
AcDbLine
 10
151.7808218994032
 20
307.1925264300153
 30
0.0
 11
148.6942227687123
 21
304.1059272993325
 31
0.0
  0
LINE
  5
2B3
330
68
100
AcDbEntity
  8
0
  6
Continuous
 62
     2
100
AcDbLine
 10
151.9919451002133
 20
307.1208069183504
 30
0.0
 11
148.7659422803827
 21
303.8948040985224
 31
0.0
  0
LINE
  5
2B4
330
68
100
AcDbEntity
  8
0
  6
Continuous
 62
     2
100
AcDbLine
 10
152.1882300136022
 20
307.0342491192714
 30
0.0
 11
148.8525000794634
 21
303.6985191851272
 31
0.0
  0
LINE
  5
2B5
330
68
100
AcDbEntity
  8
0
  6
Continuous
 62
     2
100
AcDbLine
 10
152.3711060184032
 20
306.9342824115956
 30
0.0
 11
148.9524667871319
 21
303.5156431803284
 31
0.0
  0
LINE
  5
2B6
330
68
100
AcDbEntity
  8
0
  6
Continuous
 62
     2
100
AcDbLine
 10
152.5415326850125
 20
306.8218663657344
 30
0.0
 11
149.0648828329922
 21
303.3452165137146
 31
0.0
  0
LINE
  5
2B7
330
68
100
AcDbEntity
  8
0
  6
Continuous
 62
     2
100
AcDbLine
 10
152.7001272064936
 20
306.6976181747396
 30
0.0
 11
149.1891310239935
 21
303.1866219922354
 31
0.0
  0
LINE
  5
2B8
330
68
100
AcDbEntity
  8
0
  6
Continuous
 62
     2
100
AcDbLine
 10
152.8472357395331
 20
306.5618839952972
 30
0.0
 11
149.3248652034326
 21
303.0395134592022
 31
0.0
  0
LINE
  5
2B9
330
68
100
AcDbEntity
  8
0
  6
Continuous
 62
     2
100
AcDbLine
 10
145.6026286793931
 20
308.1363594304144
 30
0.0
 11
144.0660205268632
 21
306.5997512778945
 31
0.0
  0
LINE
  5
2BA
330
68
100
AcDbEntity
  8
0
  6
Continuous
 62
     2
100
AcDbLine
 10
145.8002421859419
 20
308.6168156494396
 30
0.0
 11
143.5802942081027
 21
306.3968676716063
 31
0.0
  0
LINE
  5
2BB
330
68
100
AcDbEntity
  8
0
  6
Continuous
 62
     2
100
AcDbLine
 10
145.8872163505021
 20
308.9866325264825
 30
0.0
 11
143.2052072313236
 21
306.3046234073013
 31
0.0
  0
LINE
  5
2BC
330
68
100
AcDbEntity
  8
0
  6
Continuous
 62
     2
100
AcDbLine
 10
145.9151140993527
 20
309.2973729878036
 30
0.0
 11
142.8891966702631
 21
306.2714555587172
 31
0.0
  0
LINE
  5
2BD
330
68
100
AcDbEntity
  8
0
  6
Continuous
 62
     2
100
AcDbLine
 10
145.902572993482
 20
309.5676745944065
 30
0.0
 11
142.613624963933
 21
306.2787265648526
 31
0.0
  0
LINE
  5
2BE
330
68
100
AcDbEntity
  8
0
  6
Continuous
 62
     2
100
AcDbLine
 10
145.8587618534421
 20
309.8067061668394
 30
0.0
 11
142.3693232917631
 21
306.3172676051563
 31
0.0
  0
LINE
  5
2BF
330
68
100
AcDbEntity
  8
0
  6
Continuous
 62
     2
100
AcDbLine
 10
145.7888582958331
 20
310.0196453217095
 30
0.0
 11
142.1511140371531
 21
306.3819010630245
 31
0.0
  0
LINE
  5
2C0
330
68
100
AcDbEntity
  8
0
  6
Continuous
 62
     2
100
AcDbLine
 10
145.6959688367624
 20
310.2095985751075
 30
0.0
 11
141.9558906840121
 21
306.4695204223644
 31
0.0
  0
LINE
  5
2C1
330
68
100
AcDbEntity
  8
0
  6
Continuous
 62
     2
100
AcDbLine
 10
145.5819513373426
 20
310.3784237881655
 30
0.0
 11
141.781795371222
 21
306.5782678220444
 31
0.0
  0
LINE
  5
2C2
330
68
100
AcDbEntity
  8
0
  6
Continuous
 62
     2
100
AcDbLine
 10
143.0096133694824
 20
310.6345129450524
 30
0.0
 11
141.4730052169634
 21
309.0979047925334
 31
0.0
  0
LINE
  5
2C3
330
68
100
AcDbEntity
  8
0
  6
Continuous
 62
     2
100
AcDbLine
 10
143.4953396882429
 20
310.8373965513406
 30
0.0
 11
141.2753917104128
 21
308.6174485735073
 31
0.0
  0
LINE
  5
2C4
330
68
100
AcDbEntity
  8
0
  6
Continuous
 62
     2
100
AcDbLine
 10
143.870426665022
 20
310.9296408156456
 30
0.0
 11
141.1884175458436
 21
308.2476316964644
 31
0.0
  0
LINE
  5
2C5
330
68
100
AcDbEntity
  8
0
  6
Continuous
 62
     2
100
AcDbLine
 10
144.1864372260825
 20
310.9628086642292
 30
0.0
 11
141.160519796993
 21
307.9368912351433
 31
0.0
  0
LINE
  5
2C6
330
68
100
AcDbEntity
  8
0
  6
Continuous
 62
     2
100
AcDbLine
 10
144.4620089324235
 20
310.9555376580943
 30
0.0
 11
141.1730609028728
 21
307.6665896285404
 31
0.0
  0
LINE
  5
2C7
330
68
100
AcDbEntity
  8
0
  6
Continuous
 62
     2
100
AcDbLine
 10
144.7063106045935
 20
310.9169966177906
 30
0.0
 11
141.2168720429127
 21
307.4275580561075
 31
0.0
  0
LINE
  5
2C8
330
68
100
AcDbEntity
  8
0
  6
Continuous
 62
     2
100
AcDbLine
 10
144.9245198592034
 20
310.8523631599223
 30
0.0
 11
141.2867756005126
 21
307.2146189012374
 31
0.0
  0
LINE
  5
2C9
330
68
100
AcDbEntity
  8
0
  6
Continuous
 62
     2
100
AcDbLine
 10
145.1197432123336
 20
310.7647438005824
 30
0.0
 11
141.3796650595923
 21
307.0246656478394
 31
0.0
  0
LINE
  5
2CA
330
68
100
AcDbEntity
  8
0
  6
Continuous
 62
     2
100
AcDbLine
 10
145.2938385251327
 20
310.6559964009025
 30
0.0
 11
141.4936825590121
 21
306.8558404347814
 31
0.0
  0
LINE
  5
2CB
330
68
100
AcDbEntity
  8
0
  6
Continuous
 62
     2
100
AcDbLine
 10
145.447802918432
 20
310.5271180817254
 30
0.0
 11
141.6278309779227
 21
306.7071461412206
 31
0.0
  0
LINE
  5
2CC
330
68
100
AcDbEntity
  8
0
  6
Continuous
 62
     2
100
AcDbLine
 10
142.3139187221932
 20
312.4112301862333
 30
0.0
 11
140.8274630274536
 21
310.9247744914896
 31
0.0
  0
LINE
  5
2CD
330
68
100
AcDbEntity
  8
0
  6
Continuous
 62
     2
100
AcDbLine
 10
142.571094586132
 20
312.9512487626475
 30
0.0
 11
140.2091526066433
 21
310.5893067831535
 31
0.0
  0
LINE
  5
2CE
330
68
100
AcDbEntity
  8
0
  6
Continuous
 62
     2
100
AcDbLine
 10
142.6671879625719
 20
313.3301848515616
 30
0.0
 11
139.7519246733336
 21
310.4149215623165
 31
0.0
  0
LINE
  5
2CF
330
68
100
AcDbEntity
  8
0
  6
Continuous
 62
     2
100
AcDbLine
 10
142.6850023943734
 20
313.6308419958295
 30
0.0
 11
139.3729756846624
 21
310.3188152861244
 31
0.0
  0
LINE
  5
2D0
330
68
100
AcDbEntity
  8
0
  6
Continuous
 62
     2
100
AcDbLine
 10
142.6505768983425
 20
313.8792592122773
 30
0.0
 11
139.0462666238236
 21
310.2749489377534
 31
0.0
  0
LINE
  5
2D1
330
68
100
AcDbEntity
  8
0
  6
Continuous
 62
     2
100
AcDbLine
 10
142.5759526806723
 20
314.0874777070853
 30
0.0
 11
138.7597562846131
 21
310.2712813110225
 31
0.0
  0
LINE
  5
2D2
330
68
100
AcDbEntity
  8
0
  6
Continuous
 62
     2
100
AcDbLine
 10
142.4675919825622
 20
314.2619597214466
 30
0.0
 11
138.5069824258535
 21
310.3013501647383
 31
0.0
  0
LINE
  5
2D3
330
68
100
AcDbEntity
  8
0
  6
Continuous
 62
     2
100
AcDbLine
 10
142.3291115753436
 20
314.4063220267085
 30
0.0
 11
138.2843282761933
 21
310.3615387275554
 31
0.0
  0
LINE
  5
2D4
330
68
100
AcDbEntity
  8
0
  6
Continuous
 62
     2
100
AcDbLine
 10
139.4248422672226
 20
314.0476371308505
 30
0.0
 11
137.9383865724722
 21
312.5611814361064
 31
0.0
  0
LINE
  5
2D5
330
68
100
AcDbEntity
  8
0
  6
Continuous
 62
     2
100
AcDbLine
 10
140.0431526880329
 20
314.3831048391862
 30
0.0
 11
137.6812107085334
 21
312.0211628596926
 31
0.0
  0
LINE
  5
2D6
330
68
100
AcDbEntity
  8
0
  6
Continuous
 62
     2
100
AcDbLine
 10
140.5003806213426
 20
314.5574900600236
 30
0.0
 11
137.5851173320934
 21
311.6422267707785
 31
0.0
  0
LINE
  5
2D7
330
68
100
AcDbEntity
  8
0
  6
Continuous
 62
     2
100
AcDbLine
 10
140.8793296100121
 20
314.6535963362144
 30
0.0
 11
137.5673029003028
 21
311.3415696265106
 31
0.0
  0
LINE
  5
2D8
330
68
100
AcDbEntity
  8
0
  6
Continuous
 62
     2
100
AcDbLine
 10
141.2060386708527
 20
314.6974626845854
 30
0.0
 11
137.601728396332
 21
311.0931524100624
 31
0.0
  0
LINE
  5
2D9
330
68
100
AcDbEntity
  8
0
  6
Continuous
 62
     2
100
AcDbLine
 10
141.4925490100632
 20
314.7011303113172
 30
0.0
 11
137.676352613993
 21
310.8849339152534
 31
0.0
  0
LINE
  5
2DA
330
68
100
AcDbEntity
  8
0
  6
Continuous
 62
     2
100
AcDbLine
 10
141.7453228688228
 20
314.6710614576014
 30
0.0
 11
137.7847133121122
 21
310.7104519008935
 31
0.0
  0
LINE
  5
2DB
330
68
100
AcDbEntity
  8
0
  6
Continuous
 62
     2
100
AcDbLine
 10
141.9679770184721
 20
314.6108728947843
 30
0.0
 11
137.9231937193235
 21
310.5660895956326
 31
0.0
  0
LINE
  5
2DC
330
68
100
AcDbEntity
  8
0
  6
Continuous
 62
     2
100
AcDbLine
 10
142.1623799530735
 20
314.5224331169106
 30
0.0
 11
138.0899253415937
 21
310.4499785054295
 31
0.0
  0
LINE
  5
2DD
330
68
100
AcDbEntity
  8
0
  6
Continuous
 62
     2
100
AcDbLine
 10
139.6240706751432
 20
319.6078351591063
 30
0.0
 11
139.0895801312327
 21
319.0733446151944
 31
0.0
  0
LINE
  5
2DE
330
68
100
AcDbEntity
  8
0
  6
Continuous
 62
     2
100
AcDbLine
 10
139.4385492918136
 20
319.7051564882454
 30
0.0
 11
138.5734374879921
 21
318.8400446844275
 31
0.0
  0
LINE
  5
2DF
330
68
100
AcDbEntity
  8
0
  6
Continuous
 62
     2
100
AcDbLine
 10
139.1890073792929
 20
319.7384572881965
 30
0.0
 11
138.1213153739427
 21
318.6707652828495
 31
0.0
  0
LINE
  5
2E0
330
68
100
AcDbEntity
  8
0
  6
Continuous
 62
     2
100
AcDbLine
 10
138.9085485903124
 20
319.7408412117006
 30
0.0
 11
137.700110136333
 21
318.5324027577176
 31
0.0
  0
LINE
  5
2E1
330
68
100
AcDbEntity
  8
0
  6
Continuous
 62
     2
100
AcDbLine
 10
138.6072347341324
 20
319.7223700679892
 30
0.0
 11
137.2997599659429
 21
318.4148952998016
 31
0.0
  0
LINE
  5
2E2
330
68
100
AcDbEntity
  8
0
  6
Continuous
 62
     2
100
AcDbLine
 10
138.2895908304236
 20
319.6875688767564
 30
0.0
 11
136.9157398430725
 21
318.3137178894076
 31
0.0
  0
LINE
  5
2E3
330
68
100
AcDbEntity
  8
0
  6
Continuous
 62
     2
100
AcDbLine
 10
137.9579233133027
 20
319.6387440721123
 30
0.0
 11
136.5457433336233
 21
318.2265640924234
 31
0.0
  0
LINE
  5
2E4
330
68
100
AcDbEntity
  8
0
  6
Continuous
 62
     2
100
AcDbLine
 10
134.7124224891122
 20
318.6559849477144
 30
0.0
 11
134.1779319452035
 21
318.1214944038024
 31
0.0
  0
LINE
  5
2E5
330
68
100
AcDbEntity
  8
0
  6
Continuous
 62
     2
100
AcDbLine
 10
135.2285651323527
 20
318.8892848784803
 30
0.0
 11
134.3634533285331
 21
318.0241730746634
 31
0.0
  0
LINE
  5
2E6
330
68
100
AcDbEntity
  8
0
  6
Continuous
 62
     2
100
AcDbLine
 10
135.6806872464022
 20
319.0585642800593
 30
0.0
 11
134.6129952410629
 21
317.9908722747123
 31
0.0
  0
LINE
  5
2E7
330
68
100
AcDbEntity
  8
0
  6
Continuous
 62
     2
100
AcDbLine
 10
136.1018924840137
 20
319.1969268051903
 30
0.0
 11
134.8934540300234
 21
317.9884883512086
 31
0.0
  0
LINE
  5
2E8
330
68
100
AcDbEntity
  8
0
  6
Continuous
 62
     2
100
AcDbLine
 10
136.5022426544019
 20
319.3144342631076
 30
0.0
 11
135.1947678862125
 21
318.0069594949182
 31
0.0
  0
LINE
  5
2E9
330
68
100
AcDbEntity
  8
0
  6
Continuous
 62
     2
100
AcDbLine
 10
136.8862627772724
 20
319.4156116735016
 30
0.0
 11
135.5124117899231
 21
318.0417606861524
 31
0.0
  0
LINE
  5
2EA
330
68
100
AcDbEntity
  8
0
  6
Continuous
 62
     2
100
AcDbLine
 10
137.2562592867325
 20
319.5027654704845
 30
0.0
 11
135.8440793070422
 21
318.0905854907965
 31
0.0
  0
LINE
  5
2EB
330
68
100
AcDbEntity
  8
0
  6
Continuous
 62
     2
100
AcDbLine
 10
137.613364902063
 20
319.5770283733496
 30
0.0
 11
136.1886377182836
 21
318.1523011895583
 31
0.0
  0
LINE
  5
2EC
330
68
100
AcDbEntity
  8
0
  6
Continuous
 62
     2
100
AcDbLine
 10
140.3215586058523
 20
316.2567759544236
 30
0.0
 11
139.7796040648536
 21
315.7148214134263
 31
0.0
  0
LINE
  5
2ED
330
68
100
AcDbEntity
  8
0
  6
Continuous
 62
     2
100
AcDbLine
 10
140.6682905206435
 20
316.8863505816844
 30
0.0
 11
138.8614937413822
 21
315.0795538024222
 31
0.0
  0
LINE
  5
2EE
330
68
100
AcDbEntity
  8
0
  6
Continuous
 62
     2
100
AcDbLine
 10
140.6811043726721
 20
317.1820071461893
 30
0.0
 11
138.2773014806535
 21
314.7782042541735
 31
0.0
  0
LINE
  5
2EF
330
68
100
AcDbEntity
  8
0
  6
Continuous
 62
     2
100
AcDbLine
 10
140.5930650746122
 20
317.3768105606046
 30
0.0
 11
137.7939623700222
 21
314.5777078560145
 31
0.0
  0
LINE
  5
2F0
330
68
100
AcDbEntity
  8
0
  6
Continuous
 62
     2
100
AcDbLine
 10
140.443617263023
 20
317.5102054614954
 30
0.0
 11
137.372031772913
 21
314.4386199713786
 31
0.0
  0
LINE
  5
2F1
330
68
100
AcDbEntity
  8
0
  6
Continuous
 62
     2
100
AcDbLine
 10
140.2482697453634
 20
317.5977006563094
 30
0.0
 11
136.9960008818835
 21
314.3454317928204
 31
0.0
  0
LINE
  5
2F2
330
68
100
AcDbEntity
  8
0
  6
Continuous
 62
     2
100
AcDbLine
 10
140.0144525129326
 20
317.6467261363473
 30
0.0
 11
136.6584397056231
 21
314.2907133290396
 31
0.0
  0
LINE
  5
2F3
330
68
100
AcDbEntity
  8
0
  6
Continuous
 62
     2
100
AcDbLine
 10
136.3219097450019
 20
316.2169250682164
 30
0.0
 11
135.7799552040033
 21
315.6749705272182
 31
0.0
  0
LINE
  5
2F4
330
68
100
AcDbEntity
  8
0
  6
Continuous
 62
     2
100
AcDbLine
 10
137.2400200684824
 20
316.8521926792205
 30
0.0
 11
135.433223289223
 21
315.0453958999583
 31
0.0
  0
LINE
  5
2F5
330
68
100
AcDbEntity
  8
0
  6
Continuous
 62
     2
100
AcDbLine
 10
137.8242123292021
 20
317.1535422274683
 30
0.0
 11
135.4204094371835
 21
314.7497393354533
 31
0.0
  0
LINE
  5
2F6
330
68
100
AcDbEntity
  8
0
  6
Continuous
 62
     2
100
AcDbLine
 10
138.3075514398333
 20
317.3540386256286
 30
0.0
 11
135.5084487352433
 21
314.5549359210386
 31
0.0
  0
LINE
  5
2F7
330
68
100
AcDbEntity
  8
0
  6
Continuous
 62
     2
100
AcDbLine
 10
138.7294820369534
 20
317.4931265102632
 30
0.0
 11
135.6578965468325
 21
314.4215410201464
 31
0.0
  0
LINE
  5
2F8
330
68
100
AcDbEntity
  8
0
  6
Continuous
 62
     2
100
AcDbLine
 10
139.105512927983
 20
317.5863146888214
 30
0.0
 11
135.8532440644922
 21
314.3340458253324
 31
0.0
  0
LINE
  5
2F9
330
68
100
AcDbEntity
  8
0
  6
Continuous
 62
     2
100
AcDbLine
 10
139.4430741042324
 20
317.6410331526035
 30
0.0
 11
136.087061296932
 21
314.2850203452954
 31
0.0
  0
LINE
  5
2FA
330
68
100
AcDbEntity
  8
0
  6
Continuous
 62
     2
100
AcDbLine
 10
139.7457012277828
 20
317.6608175636734
 30
0.0
 11
136.3558125820728
 21
314.2709289179684
 31
0.0
  0
LINE
  5
2FB
330
68
100
AcDbEntity
  8
0
  6
Continuous
 62
     7
100
AcDbLine
 10
126.3349862165433
 20
325.1205587418385
 30
0.0
 11
126.3349862165433
 21
328.5025247530884
 31
0.0
  0
LINE
  5
2FC
330
68
100
AcDbEntity
  8
0
  6
Continuous
 62
     7
100
AcDbLine
 10
127.0585930142934
 20
328.9497383485882
 30
0.0
 11
130.4405590255428
 21
327.2587553429635
 31
0.0
  0
LINE
  5
2FD
330
68
100
AcDbEntity
  8
0
  6
Continuous
 62
     7
100
AcDbLine
 10
127.0585930142934
 20
324.6733451463383
 30
0.0
 11
130.4405590255428
 21
326.3643281519635
 31
0.0
  0
LINE
  5
2FE
330
68
100
AcDbEntity
  8
0
  6
Continuous
 62
     7
100
AcDbLine
 10
196.2122350164827
 20
337.9115417474645
 30
0.0
 11
196.4622350164827
 21
337.9115417474645
 31
0.0
  0
LINE
  5
2FF
330
68
100
AcDbEntity
  8
0
  6
Continuous
 62
     7
100
AcDbLine
 10
196.2122350164827
 20
344.6615417474623
 30
0.0
 11
196.2122350164827
 21
247.1615417474623
 31
0.0
  0
LINE
  5
300
330
68
100
AcDbEntity
  8
0
  6
Continuous
 62
     7
100
AcDbLine
 10
121.9122350164835
 20
344.6615417474623
 30
0.0
 11
121.9122350164835
 21
247.1615417474623
 31
0.0
  0
LINE
  5
301
330
68
100
AcDbEntity
  8
0
  6
Continuous
 62
     7
100
AcDbLine
 10
125.9122350164835
 20
348.6615417474623
 30
0.0
 11
192.2122350164827
 21
348.6615417474623
 31
0.0
  0
LINE
  5
302
330
68
100
AcDbEntity
  8
0
  6
Continuous
 62
     7
100
AcDbLine
 10
159.0622350164831
 20
243.1615417474623
 30
0.0
 11
192.2122350164827
 21
243.1615417474623
 31
0.0
  0
LINE
  5
303
330
68
100
AcDbEntity
  8
0
  6
Continuous
 62
     7
100
AcDbLine
 10
125.9122350164835
 20
243.1615417474623
 30
0.0
 11
159.0622350164831
 21
243.1615417474623
 31
0.0
  0
ARC
  5
304
330
68
100
AcDbEntity
  8
1
  6
Continuous
 62
     7
100
AcDbCircle
 10
192.2177252039037
 20
306.6893922595305
 30
0.0
 40
2.597850512066998
100
AcDbArc
 50
270.0
 51
304.0878475193215
  0
ARC
  5
305
330
68
100
AcDbEntity
  8
1
  6
Continuous
 62
     7
100
AcDbCircle
 10
192.2562350164826
 20
306.9077922595302
 30
0.0
 40
2.597850512067907
100
AcDbArc
 50
270.0
 51
304.087847519361
  0
ARC
  5
306
330
68
100
AcDbEntity
  8
1
  6
Continuous
 62
     7
100
AcDbCircle
 10
166.1816115876136
 20
305.3024589621955
 30
0.0
 40
0.7280000000016003
100
AcDbArc
 50
187.6554565665111
 51
221.5900089838195
  0
ARC
  5
307
330
68
100
AcDbEntity
  8
0
  6
Continuous
 62
     7
100
AcDbCircle
 10
150.9564638383636
 20
304.8720263284154
 30
0.0
 40
2.954683593338256
100
AcDbArc
 50
109.2006885375431
 51
214.4339497184982
  0
ARC
  5
308
330
68
100
AcDbEntity
  8
0
  6
Continuous
 62
     7
100
AcDbCircle
 10
148.2133314396233
 20
305.7730036303396
 30
0.0
 40
2.589881780216181
100
AcDbArc
 50
46.845324441707
 51
276.7893138141974
  0
ARC
  5
309
330
68
100
AcDbEntity
  8
0
  6
Continuous
 62
     7
100
AcDbCircle
 10
142.5558242915031
 20
309.6412059784684
 30
0.0
 40
3.384511655622171
100
AcDbArc
 50
275.1999789958248
 51
352.3965874760424
  0
ARC
  5
30A
330
68
100
AcDbEntity
  8
0
  6
Continuous
 62
     7
100
AcDbCircle
 10
142.7203591625821
 20
307.8332652748463
 30
0.0
 40
1.569099495369752
100
AcDbArc
 50
172.3965905465638
 51
275.1999789958359
  0
ARC
  5
30B
330
68
100
AcDbEntity
  8
0
  6
Continuous
 62
     7
100
AcDbCircle
 10
144.5198096048425
 20
307.5930582444785
 30
0.0
 40
3.384511655622849
100
AcDbArc
 50
95.19998206630076
 51
172.3965905465135
  0
ARC
  5
30C
330
68
100
AcDbEntity
  8
0
  6
Continuous
 62
     7
100
AcDbCircle
 10
144.3552747337726
 20
309.4009989481015
 30
0.0
 40
1.569099495367325
100
AcDbArc
 50
352.3965874760671
 51
95.19998206620747
  0
ARC
  5
30D
330
68
100
AcDbEntity
  8
0
  6
Continuous
 62
     7
100
AcDbCircle
 10
141.7342342899228
 20
310.3377039781503
 30
0.0
 40
4.367656751933988
100
AcDbArc
 50
92.87908798050846
 51
160.7481639321354
  0
ARC
  5
30E
330
68
100
AcDbEntity
  8
0
  6
Continuous
 62
     7
100
AcDbCircle
 10
141.5717666210021
 20
313.5681994392844
 30
0.0
 40
1.133078469092586
100
AcDbArc
 50
340.7481608617575
 51
92.87908798018707
  0
ARC
  5
30F
330
68
100
AcDbEntity
  8
0
  6
Continuous
 62
     7
100
AcDbCircle
 10
138.5180710047534
 20
314.6347076441894
 30
0.0
 40
4.367656751933434
100
AcDbArc
 50
272.8790849101236
 51
340.7481608616881
  0
ARC
  5
310
330
68
100
AcDbEntity
  8
0
  6
Continuous
 62
     7
100
AcDbCircle
 10
138.6805386736723
 20
311.4042121830544
 30
0.0
 40
1.13307846908974
100
AcDbArc
 50
160.7481639321421
 51
272.8790849100783
  0
ARC
  5
311
330
68
100
AcDbEntity
  8
0
  6
Continuous
 62
     7
100
AcDbCircle
 10
135.9971834904627
 20
319.9237150934823
 30
0.0
 40
5.625686658654305
100
AcDbArc
 50
270.043266289625
 51
324.8028906826513
  0
ARC
  5
312
330
68
100
AcDbEntity
  8
0
  6
Continuous
 62
     7
100
AcDbCircle
 10
136.0009754781931
 20
314.9023197184433
 30
0.0
 40
0.6042898518231802
100
AcDbArc
 50
144.8028937529681
 51
270.0432662898238
  0
ARC
  5
313
330
68
100
AcDbEntity
  8
0
  6
Continuous
 62
     7
100
AcDbCircle
 10
140.1043303194019
 20
312.0080313881595
 30
0.0
 40
5.62568665865494
100
AcDbArc
 50
90.04326936009403
 51
144.8028937531708
  0
ARC
  5
314
330
68
100
AcDbEntity
  8
0
  6
Continuous
 62
     7
100
AcDbCircle
 10
140.1005383316624
 20
317.0294267631994
 30
0.0
 40
0.6042898518268842
100
AcDbArc
 50
324.8028906827935
 51
90.04326935991769
  0
ARC
  5
315
330
68
100
AcDbEntity
  8
0
  6
Continuous
 62
     7
100
AcDbCircle
 10
134.605937040993
 20
327.7580388245442
 30
0.0
 40
9.722402151440505
100
AcDbArc
 50
268.2415744837443
 51
300.6990111395547
  0
ARC
  5
316
330
68
100
AcDbEntity
  8
0
  6
Continuous
 62
     7
100
AcDbCircle
 10
134.3124027762933
 20
318.1966393533576
 30
0.0
 40
0.1564980011693487
100
AcDbArc
 50
120.6990142100671
 51
268.2415744837115
  0
ARC
  5
317
330
68
100
AcDbEntity
  8
0
  6
Continuous
 62
     7
100
AcDbCircle
 10
139.1960655793628
 20
309.9712907383632
 30
0.0
 40
9.722402151440715
100
AcDbArc
 50
88.24157755430203
 51
120.6990142100415
  0
ARC
  5
318
330
68
100
AcDbEntity
  8
0
  6
Continuous
 62
     7
100
AcDbCircle
 10
139.4895998440534
 20
319.5326902095512
 30
0.0
 40
0.1564980011691448
100
AcDbArc
 50
300.6990111392471
 51
88.24157755720654
  0
ARC
  5
319
330
68
100
AcDbEntity
  8
0
  6
Continuous
 62
     7
100
AcDbCircle
 10
159.0622350164831
 20
255.1665417474633
 30
0.0
 40
45.00000000000004
100
AcDbArc
 50
90.00000153523392
 51
122.4688815482516
  0
ARC
  5
31A
330
68
100
AcDbEntity
  8
0
  6
Continuous
 62
     7
100
AcDbCircle
 10
143.762235016482
 20
279.2115417474633
 30
0.0
 40
16.50000000000114
100
AcDbArc
 50
122.4688815482535
 51
189.2070788596375
  0
ARC
  5
31B
330
68
100
AcDbEntity
  8
0
  6
Continuous
 62
     7
100
AcDbCircle
 10
159.0622350164831
 20
281.6915417474634
 30
0.0
 40
31.9999999999979
100
AcDbArc
 50
189.2070788596387
 51
269.9999984647778
  0
ARC
  5
31C
330
68
100
AcDbEntity
  8
0
  6
Continuous
 62
     7
100
AcDbCircle
 10
159.0622350164831
 20
281.6915417474634
 30
0.0
 40
32.00000000000004
100
AcDbArc
 50
269.9999984647778
 51
350.7929180698952
  0
ARC
  5
31D
330
68
100
AcDbEntity
  8
0
  6
Continuous
 62
     7
100
AcDbCircle
 10
174.3622350164824
 20
279.2115417474633
 30
0.0
 40
16.50000000000685
100
AcDbArc
 50
350.7929180698993
 51
57.53112152220909
  0
ARC
  5
31E
330
68
100
AcDbEntity
  8
0
  6
Continuous
 62
     7
100
AcDbCircle
 10
159.0622350164831
 20
255.1665417474633
 30
0.0
 40
45.00000000000382
100
AcDbArc
 50
57.53112152221134
 51
90.00000153523392
  0
ARC
  5
31F
330
68
100
AcDbEntity
  8
0
  6
Continuous
 62
     7
100
AcDbCircle
 10
130.2169522277927
 20
326.8115417474633
 30
0.0
 40
0.5000000000027289
100
AcDbArc
 50
296.5650500956143
 51
63.4349499043857
  0
ARC
  5
320
330
68
100
AcDbEntity
  8
0
  6
Continuous
 62
     7
100
AcDbCircle
 10
126.8349862165433
 20
328.5025247530884
 30
0.0
 40
0.5000000000027289
100
AcDbArc
 50
63.4349499043857
 51
180.0000030704768
  0
ARC
  5
321
330
68
100
AcDbEntity
  8
0
  6
Continuous
 62
     7
100
AcDbCircle
 10
126.8349862165433
 20
325.1205587418385
 30
0.0
 40
0.5000000000000007
100
AcDbArc
 50
180.000003070379
 51
296.5650500956143
  0
ARC
  5
322
330
68
100
AcDbEntity
  8
0
  6
Continuous
 62
     7
100
AcDbCircle
 10
192.2122350164827
 20
247.1615417474623
 30
0.0
 40
4.000000000000001
100
AcDbArc
 50
269.9999984647551
 51
0.0
  0
ARC
  5
323
330
68
100
AcDbEntity
  8
0
  6
Continuous
 62
     7
100
AcDbCircle
 10
125.9122350164835
 20
247.1615417474623
 30
0.0
 40
4.000000000000005
100
AcDbArc
 50
180.0000030704637
 51
269.9999984647551
  0
ARC
  5
324
330
68
100
AcDbEntity
  8
0
  6
Continuous
 62
     7
100
AcDbCircle
 10
192.2122350164827
 20
344.6615417474623
 30
0.0
 40
4.0
100
AcDbArc
 50
0.0
 51
90.0
  0
ARC
  5
325
330
68
100
AcDbEntity
  8
0
  6
Continuous
 62
     7
100
AcDbCircle
 10
125.9122350164835
 20
344.6615417474623
 30
0.0
 40
4.0
100
AcDbArc
 50
90.0
 51
180.0
  0
ARC
  5
326
330
68
100
AcDbEntity
  8
1
  6
Continuous
 62
     7
100
AcDbCircle
 10
159.0622350164831
 20
279.2115417474633
 30
0.0
 40
11.80000000000033
100
AcDbArc
 50
325.4184488010089
 51
0.0
  0
ARC
  5
327
330
68
100
AcDbEntity
  8
1
  6
Continuous
 62
     7
100
AcDbCircle
 10
159.0622350164831
 20
279.2115417474633
 30
0.0
 40
11.7999999999993
100
AcDbArc
 50
0.0
 51
214.5815511989911
  0
CIRCLE
  5
328
330
68
100
AcDbEntity
  8
0
  6
Continuous
 62
     7
100
AcDbCircle
 10
159.0622350164831
 20
326.3115417474623
 30
0.0
 40
17.5
  0
CIRCLE
  5
329
330
68
100
AcDbEntity
  8
0
  6
Continuous
 62
     7
100
AcDbCircle
 10
151.0860504714819
 20
304.8006987272506
 30
0.0
 40
2.490692091920295
  0
MTEXT
  5
32A
330
68
100
AcDbEntity
  8
0
 62
     7
100
AcDbMText
 10
181.7859173336419
 20
300.5607991709694
 30
0.0
 40
3.0
 41
0.0
 71
     5
 72
     1
  1
水道用コンセント
  7
CONVERTER_11
 73
     1
 44
0.54545454545455
  0
MTEXT
  5
32C
330
68
100
AcDbEntity
  8
1
 62
     7
100
AcDbMText
 10
180.4241252039028
 20
304.0915417474635
 30
0.0
 40
5.0
 41
0.0
 71
     8
 72
     1
  1
p
  7
CONVERTER_12
 73
     1
 44
1.32052821128451
  0
MTEXT
  5
32D
330
68
100
AcDbEntity
  8
1
 62
     7
100
AcDbMText
 10
183.7001252039026
 20
304.0915417474635
 30
0.0
 40
5.0
 41
0.0
 71
     8
 72
     1
  1
l
  7
CONVERTER_12
 73
     1
 44
1.32052821128451
  0
MTEXT
  5
32E
330
68
100
AcDbEntity
  8
1
 62
     7
100
AcDbMText
 10
186.9761252039025
 20
304.0915417474635
 30
0.0
 40
5.0
 41
0.0
 71
     8
 72
     1
  1
e
  7
CONVERTER_12
 73
     1
 44
1.32052821128451
  0
MTEXT
  5
32F
330
68
100
AcDbEntity
  8
1
 62
     7
100
AcDbMText
 10
191.3441252039029
 20
304.0915417474635
 30
0.0
 40
5.0
 41
0.0
 71
     8
 72
     1
  1
t
  7
CONVERTER_12
 73
     1
 44
1.32052821128451
  0
MTEXT
  5
331
330
68
100
AcDbEntity
  8
1
 62
     7
100
AcDbMText
 10
166.4465252039026
 20
304.0915417474635
 30
0.0
 40
5.0
 41
0.0
 71
     8
 72
     1
  1
s
  7
CONVERTER_13
 73
     1
 44
1.32052821128451
  0
MTEXT
  5
332
330
68
100
AcDbEntity
  8
1
 62
     7
100
AcDbMText
 10
170.5961252039033
 20
304.0915417474635
 30
0.0
 40
5.0
 41
0.0
 71
     8
 72
     1
  1
i
  7
CONVERTER_12
 73
     1
 44
1.32052821128451
  0
MTEXT
  5
333
330
68
100
AcDbEntity
  8
1
 62
     7
100
AcDbMText
 10
174.9641252039037
 20
304.0915417474635
 30
0.0
 40
5.0
 41
0.0
 71
     8
 72
     1
  1
m
  7
CONVERTER_13
 73
     1
 44
1.32052821128451
  0
MTEXT
  5
334
330
68
100
AcDbEntity
  8
1
 62
     7
100
AcDbMText
 10
180.7153252039025
 20
304.0915417474635
 30
0.0
 40
5.0
 41
0.0
 71
     8
 72
     1
  1
p
  7
CONVERTER_12
 73
     1
 44
1.32052821128451
  0
MTEXT
  5
335
330
68
100
AcDbEntity
  8
1
 62
     7
100
AcDbMText
 10
183.9913252039023
 20
304.0915417474635
 30
0.0
 40
5.0
 41
0.0
 71
     8
 72
     1
  1
l
  7
CONVERTER_12
 73
     1
 44
1.32052821128451
  0
MTEXT
  5
336
330
68
100
AcDbEntity
  8
1
 62
     7
100
AcDbMText
 10
187.2673252039022
 20
304.0915417474635
 30
0.0
 40
5.0
 41
0.0
 71
     8
 72
     1
  1
e
  7
CONVERTER_12
 73
     1
 44
1.32052821128451
  0
MTEXT
  5
337
330
68
100
AcDbEntity
  8
1
 62
     7
100
AcDbMText
 10
191.6353252039025
 20
304.0915417474635
 30
0.0
 40
5.0
 41
0.0
 71
     8
 72
     1
  1
t
  7
CONVERTER_12
 73
     1
 44
1.32052821128451
  0
MTEXT
  5
338
330
68
100
AcDbEntity
  8
1
 62
     7
100
AcDbMText
 10
170.887325203903
 20
304.0915417474635
 30
0.0
 40
5.0
 41
0.0
 71
     8
 72
     1
  1
i
  7
CONVERTER_12
 73
     1
 44
1.32052821128451
  0
MTEXT
  5
339
330
68
100
AcDbEntity
  8
1
 62
     7
100
AcDbMText
 10
175.2553252039033
 20
304.0915417474635
 30
0.0
 40
5.0
 41
0.0
 71
     8
 72
     1
  1
m
  7
CONVERTER_13
 73
     1
 44
1.32052821128451
  0
MTEXT
  5
33A
330
68
100
AcDbEntity
  8
1
 62
     7
100
AcDbMText
 10
166.7377252039023
 20
304.0915417474635
 30
0.0
 40
5.0
 41
0.0
 71
     8
 72
     1
  1
s
  7
CONVERTER_13
 73
     1
 44
1.32052821128451
  0
TEXT
  5
33C
330
68
100
AcDbEntity
  8
0
 62
     7
100
AcDbText
 10
133.5733274516733
 20
323.9394260645286
 30
0.0
 40
5.4
  1
閉
 41
0.979
  7
CONVERTER_14
100
AcDbText
  0
TEXT
  5
33D
330
68
100
AcDbEntity
  8
0
 62
     7
100
AcDbText
 10
156.3622350164824
 20
301.1199295754173
 30
0.0
 40
5.4
  1
開
 41
0.979
  7
CONVERTER_14
100
AcDbText
  0
ENDBLK
  5
6A
330
68
100
AcDbEntity
  8
0
100
AcDbBlockEnd
  0
BLOCK
  5
6C
330
6B
100
AcDbEntity
  8
0
100
AcDbBlockBegin
  2
V972GN-H2
 70
     0
 10
912.1984615885431
 20
258.3780871814583
 30
0.0
  3
V972GN-H2
  1

  0
LINE
  5
33E
330
6B
100
AcDbEntity
  8
1
  6
Continuous
 62
     7
100
AcDbLine
 10
251.8217286861636
 20
258.3780871814593
 30
0.0
 11
243.9717286861633
 21
271.9746860208743
 31
0.0
  0
LINE
  5
33F
330
6B
100
AcDbEntity
  8
1
  6
Continuous
 62
     7
100
AcDbLine
 10
257.6353148236922
 20
278.7086606170906
 30
0.0
 11
264.4853148236925
 21
266.8441125852432
 31
0.0
  0
LINE
  5
340
330
6B
100
AcDbEntity
  8
1
  6
Continuous
 62
     7
100
AcDbLine
 10
262.7532640161226
 20
265.8441125852432
 30
0.0
 11
255.9032640161222
 21
277.7086606170906
 31
0.0
  0
LINE
  5
341
330
6B
100
AcDbEntity
  8
1
  6
Continuous
 62
     7
100
AcDbLine
 10
253.7859246402531
 20
278.2759999929563
 30
0.0
 11
262.1859246402528
 21
263.7267732093774
 31
0.0
  0
LINE
  5
342
330
6B
100
AcDbEntity
  8
1
  6
Continuous
 62
     7
100
AcDbLine
 10
261.3632005066629
 20
263.2517732093784
 30
0.0
 11
252.9632005066633
 21
277.8009999929564
 31
0.0
  0
LINE
  5
343
330
6B
100
AcDbEntity
  8
1
  6
Continuous
 62
     7
100
AcDbLine
 10
252.8051878047736
 20
277.0746860208742
 30
0.0
 11
260.6551878047721
 21
263.4780871814596
 31
0.0
  0
LINE
  5
344
330
6B
100
AcDbEntity
  8
0
  6
Continuous
 62
     7
100
AcDbLine
 10
268.6373970294735
 20
267.5670025837962
 30
0.0
 11
267.1834905943924
 21
266.7275893121296
 31
0.0
  0
LINE
  5
345
330
6B
100
AcDbEntity
  8
0
  6
Continuous
 62
     7
100
AcDbLine
 10
267.6383812992335
 20
286.2737195739546
 30
0.0
 11
262.9894799482736
 21
283.5896751275413
 31
0.0
  0
LINE
  5
346
330
6B
100
AcDbEntity
  8
0
  6
Continuous
 62
     7
100
AcDbLine
 10
257.9882414821932
 20
280.0258008379656
 30
0.0
 11
257.6353148236922
 21
278.7086606170906
 31
0.0
  0
LINE
  5
347
330
6B
100
AcDbEntity
  8
0
  6
Continuous
 62
     7
100
AcDbLine
 10
265.665852504193
 20
266.5277884671204
 30
0.0
 11
264.4853148236925
 21
266.8441125852432
 31
0.0
  0
LINE
  5
348
330
6B
100
AcDbEntity
  8
0
  6
Continuous
 62
     7
100
AcDbLine
 10
262.7532640161226
 20
265.8441125852432
 30
0.0
 11
264.4853148236925
 21
266.8441125852432
 31
0.0
  0
LINE
  5
349
330
6B
100
AcDbEntity
  8
0
  6
Continuous
 62
     7
100
AcDbLine
 10
255.9032640161222
 20
277.7086606170906
 30
0.0
 11
257.6353148236922
 21
278.7086606170906
 31
0.0
  0
LINE
  5
34A
330
6B
100
AcDbEntity
  8
0
  6
Continuous
 62
     7
100
AcDbLine
 10
243.8619210650322
 20
271.5648783997394
 30
0.0
 11
251.4119210650333
 21
258.4878948025944
 31
0.0
  0
LINE
  5
34B
330
6B
100
AcDbEntity
  8
0
  6
Continuous
 62
     7
100
AcDbLine
 10
260.6551878047721
 20
263.4780871814596
 30
0.0
 11
261.3632005066629
 21
263.2517732093784
 31
0.0
  0
LINE
  5
34C
330
6B
100
AcDbEntity
  8
0
  6
Continuous
 62
     7
100
AcDbLine
 10
252.8051878047736
 20
277.0746860208742
 30
0.0
 11
252.9632005066633
 21
277.8009999929564
 31
0.0
  0
LINE
  5
34D
330
6B
100
AcDbEntity
  8
0
  6
Continuous
 62
     7
100
AcDbLine
 10
251.4119210650333
 20
258.4878948025944
 30
0.0
 11
251.8217286861636
 21
258.3780871814593
 31
0.0
  0
LINE
  5
34E
330
6B
100
AcDbEntity
  8
0
  6
Continuous
 62
     7
100
AcDbLine
 10
243.8619210650322
 20
271.5648783997394
 30
0.0
 11
243.9717286861633
 21
271.9746860208743
 31
0.0
  0
LINE
  5
34F
330
6B
100
AcDbEntity
  8
0
  6
Continuous
 62
     7
100
AcDbLine
 10
243.9717286861633
 20
271.9746860208743
 30
0.0
 11
252.8051878047736
 21
277.0746860208742
 31
0.0
  0
LINE
  5
350
330
6B
100
AcDbEntity
  8
0
  6
Continuous
 62
     7
100
AcDbLine
 10
251.8217286861636
 20
258.3780871814593
 30
0.0
 11
260.6551878047721
 21
263.4780871814596
 31
0.0
  0
LINE
  5
351
330
6B
100
AcDbEntity
  8
0
  6
Continuous
 62
     7
100
AcDbLine
 10
253.7859246402531
 20
278.2759999929563
 30
0.0
 11
252.9632005066633
 21
277.8009999929564
 31
0.0
  0
LINE
  5
352
330
6B
100
AcDbEntity
  8
0
  6
Continuous
 62
     7
100
AcDbLine
 10
261.3632005066629
 20
263.2517732093784
 30
0.0
 11
262.1859246402528
 21
263.7267732093774
 31
0.0
  0
LINE
  5
353
330
6B
100
AcDbEntity
  8
0
  6
Continuous
 62
     7
100
AcDbLine
 10
262.1859246402528
 20
263.7267732093774
 30
0.0
 11
262.7532640161226
 21
265.8441125852432
 31
0.0
  0
LINE
  5
354
330
6B
100
AcDbEntity
  8
0
  6
Continuous
 62
     7
100
AcDbLine
 10
253.7859246402531
 20
278.2759999929563
 30
0.0
 11
255.9032640161222
 21
277.7086606170906
 31
0.0
  0
LINE
  5
355
330
6B
100
AcDbEntity
  8
0
  6
Continuous
 62
     7
100
AcDbLine
 10
166.8622350164824
 20
263.2180578695025
 30
0.0
 11
166.8622350164824
 21
268.4680578695025
 31
0.0
  0
LINE
  5
356
330
6B
100
AcDbEntity
  8
0
  6
Continuous
 62
     7
100
AcDbLine
 10
151.262235016482
 20
263.2180578695025
 30
0.0
 11
151.262235016482
 21
268.4680578695025
 31
0.0
  0
LINE
  5
357
330
6B
100
AcDbEntity
  8
0
  6
Continuous
 62
     7
100
AcDbLine
 10
167.4122350164835
 20
271.7430578695025
 30
0.0
 11
167.4122350164835
 21
273.9680578695025
 31
0.0
  0
LINE
  5
358
330
6B
100
AcDbEntity
  8
0
  6
Continuous
 62
     7
100
AcDbLine
 10
150.7122350164827
 20
271.7430578695025
 30
0.0
 11
150.7122350164827
 21
273.9680578695025
 31
0.0
  0
LINE
  5
359
330
6B
100
AcDbEntity
  8
1
  6
Continuous
 62
     7
100
AcDbLine
 10
166.9122350164835
 20
381.0526450957364
 30
0.0
 11
166.9122350164835
 21
388.3873807327054
 31
0.0
  0
LINE
  5
35A
330
6B
100
AcDbEntity
  8
1
  6
Continuous
 62
     7
100
AcDbLine
 10
151.2122350164827
 20
381.0526450957364
 30
0.0
 11
151.2122350164827
 21
388.8249810599846
 31
0.0
  0
LINE
  5
35B
330
6B
100
AcDbEntity
  8
0
  6
Continuous
 62
     7
100
AcDbLine
 10
260.8244164388125
 20
282.3396751275413
 30
0.0
 11
258.9200931347732
 21
281.2402135553293
 31
0.0
  0
ARC
  5
35C
330
6B
100
AcDbEntity
  8
0
  6
Continuous
 62
     7
100
AcDbCircle
 10
159.0622350164831
 20
265.0335612488702
 30
0.0
 40
7.315503379366465
100
AcDbArc
 50
228.3781408109882
 51
247.9191862780455
  0
ARC
  5
35D
330
6B
100
AcDbEntity
  8
0
  6
Continuous
 62
     7
100
AcDbCircle
 10
159.0622350164831
 20
264.5455911618396
 30
0.0
 40
6.487083174662982
100
AcDbArc
 50
227.7134885124803
 51
244.9177198634742
  0
ARC
  5
35E
330
6B
100
AcDbEntity
  8
0
  6
Continuous
 62
     7
100
AcDbCircle
 10
271.1383812992335
 20
280.2115417474633
 30
0.0
 40
6.999999999998134
100
AcDbArc
 50
110.9334578668069
 51
119.9999999999989
  0
ARC
  5
35F
330
6B
100
AcDbEntity
  8
0
  6
Continuous
 62
     7
100
AcDbCircle
 10
266.1834905943924
 20
268.4596401196986
 30
0.0
 40
1.99999999999859
100
AcDbArc
 50
255.0000000001566
 51
299.9999999999989
  0
ARC
  5
360
330
6B
100
AcDbEntity
  8
0
  6
Continuous
 62
     7
100
AcDbCircle
 10
259.9200931347732
 20
279.5081627477603
 30
0.0
 40
2.000000000000115
100
AcDbArc
 50
119.9999999999981
 51
165.0000000000065
  0
ARC
  5
361
330
6B
100
AcDbEntity
  8
0
  6
Continuous
 62
     7
100
AcDbCircle
 10
159.0622350164831
 20
265.0335612488702
 30
0.0
 40
7.315503379368096
100
AcDbArc
 50
292.0808137219545
 51
311.62185611857
  0
ARC
  5
362
330
6B
100
AcDbEntity
  8
0
  6
Continuous
 62
     7
100
AcDbCircle
 10
160.269626106423
 20
263.2180578695025
 30
0.0
 40
4.692608910059001
100
AcDbArc
 50
312.2865084170505
 51
47.71349158294858
  0
ARC
  5
363
330
6B
100
AcDbEntity
  8
0
  6
Continuous
 62
     7
100
AcDbCircle
 10
160.6753532605635
 20
263.2180578695025
 30
0.0
 40
4.886881755920228
100
AcDbArc
 50
311.621856118579
 51
48.37814388142014
  0
ARC
  5
364
330
6B
100
AcDbEntity
  8
0
  6
Continuous
 62
     7
100
AcDbCircle
 10
159.0622350164831
 20
264.5455911618396
 30
0.0
 40
6.487083174665623
100
AcDbArc
 50
295.0822801365258
 51
312.2865084171199
  0
ARC
  5
365
330
6B
100
AcDbEntity
  8
0
  6
Continuous
 62
     7
100
AcDbCircle
 10
160.7607760169831
 20
263.2180578695025
 30
0.0
 40
6.101458999500036
100
AcDbArc
 50
312.089957071948
 51
47.91004292804588
  0
ARC
  5
366
330
6B
100
AcDbEntity
  8
0
  6
Continuous
 62
     7
100
AcDbCircle
 10
159.0622350164831
 20
265.0985329027953
 30
0.0
 40
8.635473182811218
100
AcDbArc
 50
283.4402463131267
 51
312.0899570720068
  0
ARC
  5
367
330
6B
100
AcDbEntity
  8
0
  6
Continuous
 62
     7
100
AcDbCircle
 10
159.0622350164831
 20
265.0985329027953
 30
0.0
 40
8.635473182811577
100
AcDbArc
 50
227.9100398575318
 51
256.5597506164006
  0
ARC
  5
368
330
6B
100
AcDbEntity
  8
0
  6
Continuous
 62
     7
100
AcDbCircle
 10
157.8548439265433
 20
263.2180578695025
 30
0.0
 40
4.692608910059551
100
AcDbArc
 50
132.2865114875407
 51
227.7134885124715
  0
ARC
  5
369
330
6B
100
AcDbEntity
  8
0
  6
Continuous
 62
     7
100
AcDbCircle
 10
157.4491167724027
 20
263.2180578695025
 30
0.0
 40
4.886881755920435
100
AcDbArc
 50
131.6218591890483
 51
228.3781408109521
  0
ARC
  5
36A
330
6B
100
AcDbEntity
  8
0
  6
Continuous
 62
     7
100
AcDbCircle
 10
159.0622350164831
 20
261.4025544901333
 30
0.0
 40
7.315503379369019
100
AcDbArc
 50
48.37814388143714
 51
131.6218591890118
  0
ARC
  5
36B
330
6B
100
AcDbEntity
  8
0
  6
Continuous
 62
     7
100
AcDbCircle
 10
159.0622350164831
 20
261.8905245771643
 30
0.0
 40
6.487083174670874
100
AcDbArc
 50
47.71349158288113
 51
132.286511487519
  0
ARC
  5
36C
330
6B
100
AcDbEntity
  8
0
  6
Continuous
 62
     7
100
AcDbCircle
 10
157.3636940159922
 20
263.2180578695025
 30
0.0
 40
6.101458999508421
100
AcDbArc
 50
132.0899601425199
 51
227.9100398574861
  0
ARC
  5
36D
330
6B
100
AcDbEntity
  8
0
  6
Continuous
 62
     7
100
AcDbCircle
 10
159.0622350164831
 20
261.3375828362086
 30
0.0
 40
8.63547318281293
100
AcDbArc
 50
47.91004292799779
 51
132.0899601424637
  0
ARC
  5
36E
330
6B
100
AcDbEntity
  8
0
  6
Continuous
 62
     7
100
AcDbCircle
 10
160.7607760169831
 20
268.4680578695025
 30
0.0
 40
6.1014589994993
100
AcDbArc
 50
0.0
 51
47.91004292804588
  0
ARC
  5
36F
330
6B
100
AcDbEntity
  8
0
  6
Continuous
 62
     7
100
AcDbCircle
 10
159.0622350164831
 20
266.5875828362086
 30
0.0
 40
8.63547318281293
100
AcDbArc
 50
47.91004292799779
 51
132.0899601424637
  0
ARC
  5
370
330
6B
100
AcDbEntity
  8
0
  6
Continuous
 62
     7
100
AcDbCircle
 10
157.3636940159922
 20
268.4680578695025
 30
0.0
 40
6.101458999508421
100
AcDbArc
 50
132.0899601425199
 51
180.0000030704704
  0
ARC
  5
371
330
6B
100
AcDbEntity
  8
0
  6
Continuous
 62
     7
100
AcDbCircle
 10
157.2439250992829
 20
268.7180578695025
 30
0.0
 40
6.531690082796624
100
AcDbArc
 50
132.0899601424111
 51
203.3268361471755
  0
ARC
  5
372
330
6B
100
AcDbEntity
  8
0
  6
Continuous
 62
     7
100
AcDbCircle
 10
159.0622350164831
 20
266.7049852377072
 30
0.0
 40
9.244384753397602
100
AcDbArc
 50
47.91004292798468
 51
132.0899601424559
  0
ARC
  5
373
330
6B
100
AcDbEntity
  8
0
  6
Continuous
 62
     7
100
AcDbCircle
 10
160.8805449336833
 20
268.7180578695025
 30
0.0
 40
6.531690082805655
100
AcDbArc
 50
336.6731607824085
 51
47.91004292802659
  0
ARC
  5
374
330
6B
100
AcDbEntity
  8
0
  6
Continuous
 62
     7
100
AcDbCircle
 10
159.0622350164831
 20
267.1799852377076
 30
0.0
 40
9.244384753397222
100
AcDbArc
 50
47.91004292798254
 51
132.089960142458
  0
ARC
  5
375
330
6B
100
AcDbEntity
  8
0
  6
Continuous
 62
     7
100
AcDbCircle
 10
160.8805449336833
 20
269.1930578695024
 30
0.0
 40
6.531690082804505
100
AcDbArc
 50
355.8412204118079
 51
47.91004292802659
  0
ARC
  5
376
330
6B
100
AcDbEntity
  8
0
  6
Continuous
 62
     7
100
AcDbCircle
 10
157.2439250992829
 20
269.1930578695024
 30
0.0
 40
6.531690082795949
100
AcDbArc
 50
132.0899601424164
 51
184.1587765177201
  0
ARC
  5
377
330
6B
100
AcDbEntity
  8
0
  6
Continuous
 62
     7
100
AcDbCircle
 10
159.0622350164831
 20
269.3286693789382
 30
0.0
 40
7.528361236301877
100
AcDbArc
 50
49.32552560556142
 51
130.6744774648527
  0
ARC
  5
378
330
6B
100
AcDbEntity
  8
0
  6
Continuous
 62
     7
100
AcDbCircle
 10
160.8805449336833
 20
271.7430578695025
 30
0.0
 40
6.53169008279795
100
AcDbArc
 50
348.7365146888186
 51
47.91004292802726
  0
ARC
  5
379
330
6B
100
AcDbEntity
  8
0
  6
Continuous
 62
     7
100
AcDbCircle
 10
159.0622350164831
 20
269.7299852377073
 30
0.0
 40
9.244384753397602
100
AcDbArc
 50
47.91004292798468
 51
132.0899601424572
  0
ARC
  5
37A
330
6B
100
AcDbEntity
  8
0
  6
Continuous
 62
     7
100
AcDbCircle
 10
157.2439250992829
 20
271.7430578695025
 30
0.0
 40
6.531690082796707
100
AcDbArc
 50
132.0899601424104
 51
191.2634822407097
  0
ARC
  5
37B
330
6B
100
AcDbEntity
  8
0
  6
Continuous
 62
     7
100
AcDbCircle
 10
160.8805449336833
 20
273.9680578695025
 30
0.0
 40
6.531690082800196
100
AcDbArc
 50
0.0
 51
47.91004292802659
  0
ARC
  5
37C
330
6B
100
AcDbEntity
  8
0
  6
Continuous
 62
     7
100
AcDbCircle
 10
159.0622350164831
 20
271.9549852377072
 30
0.0
 40
9.244384753397602
100
AcDbArc
 50
47.91004292798468
 51
132.0899601424559
  0
ARC
  5
37D
330
6B
100
AcDbEntity
  8
0
  6
Continuous
 62
     7
100
AcDbCircle
 10
157.2439250992829
 20
273.9680578695025
 30
0.0
 40
6.531690082796624
100
AcDbArc
 50
132.0899601424111
 51
180.0000030704721
  0
ARC
  5
37E
330
6B
100
AcDbEntity
  8
0
  6
Continuous
 62
     7
100
AcDbCircle
 10
161.0057078690134
 20
273.9680578695025
 30
0.0
 40
7.906527147473632
100
AcDbArc
 50
324.3459102848873
 51
47.60494920624664
  0
ARC
  5
37F
330
6B
100
AcDbEntity
  8
0
  6
Continuous
 62
     7
100
AcDbCircle
 10
159.0622350164831
 20
271.8393143257654
 30
0.0
 40
10.78899758158603
100
AcDbArc
 50
47.6049492062474
 51
132.3950538641716
  0
ARC
  5
380
330
6B
100
AcDbEntity
  8
0
  6
Continuous
 62
     7
100
AcDbCircle
 10
157.1187621639529
 20
273.9680578695025
 30
0.0
 40
7.906527147472145
100
AcDbArc
 50
132.3950538642048
 51
215.6540866446706
  0
ARC
  5
381
330
6B
100
AcDbEntity
  8
0
  6
Continuous
 62
     7
100
AcDbCircle
 10
159.0622350164831
 20
279.2115415331023
 30
0.0
 40
8.000000000000002
100
AcDbArc
 50
0.00000153524082
 51
180.0000015352319
  0
SPLINE
  5
382
330
6B
100
AcDbEntity
  8
1
  6
Continuous
 62
     7
100
AcDbSpline
210
0.0
220
0.0
230
1.0
 70
     8
 71
     3
 72
    27
 73
    23
 74
    21
 42
0.000000001
 43
0.0000000001
 44
0.00000001
 40
0.0
 40
0.0
 40
0.0
 40
0.0
 40
0.1122490704043275
 40
0.2244927836442887
 40
0.7822115919963664
 40
1.34032821963655
 40
1.937594752920894
 40
2.534704114916381
 40
3.159444457118401
 40
3.784253655837477
 40
4.423229745715215
 40
5.062180641930728
 40
5.701130929281076
 40
6.34010751864554
 40
6.964919120042897
 40
7.589657408515432
 40
8.186760578380246
 40
8.78403198089827
 40
9.342160404370999
 40
9.899873006703688
 40
10.03352587500089
 40
10.16718910158215
 40
10.16718910158215
 40
10.16718910158215
 40
10.16718910158215
 10
154.1329252073429
 20
377.9929147781404
 30
0.0
 10
154.1669859478986
 20
377.9774274426608
 30
0.0
 10
154.2351058093315
 20
377.9464535238338
 30
0.0
 10
154.4732656416409
 20
377.8403164568672
 30
0.0
 10
154.8546350243435
 20
377.6904923881756
 30
0.0
 10
155.3983413632309
 20
377.5150973660427
 30
0.0
 10
155.9631240080469
 20
377.364828708932
 30
0.0
 10
156.556523343497
 20
377.2388867508727
 30
0.0
 10
157.1644565503582
 20
377.1407696474625
 30
0.0
 10
157.7901967810188
 20
377.0700162897551
 30
0.0
 10
158.4232212172203
 20
377.0273184406026
 30
0.0
 10
159.0622348289245
 20
377.0130962719008
 30
0.0
 10
159.7012485144521
 20
377.0273216415131
 30
0.0
 10
160.3342736674381
 20
377.0700180341134
 30
0.0
 10
160.9600154056128
 20
377.1407600661124
 30
0.0
 10
161.5679467998134
 20
377.2388799213619
 30
0.0
 10
162.1613367472789
 20
377.3648620366138
 30
0.0
 10
162.7261231379681
 20
377.5151208838454
 30
0.0
 10
163.2698762064822
 20
377.6903805899227
 30
0.0
 10
163.6578911154353
 20
377.842846095511
 30
0.0
 10
163.9088604543282
 20
377.9553073403595
 30
0.0
 10
163.9898419415379
 20
377.9924800842455
 30
0.0
 10
164.0303342511634
 20
378.0110671828643
 30
0.0
 11
154.1329252073429
 21
377.9929147781404
 31
0.0
 11
154.2351652882028
 21
377.9465809927856
 31
0.0
 11
154.3377460852935
 21
377.9010197018274
 31
0.0
 11
154.8564181551926
 21
377.6960085981608
 31
0.0
 11
155.387235016482
 21
377.5235915753146
 31
0.0
 11
155.9643478674829
 21
377.3697472758248
 31
0.0
 11
156.5483869630425
 21
377.2454978311343
 31
0.0
 11
157.1650994668752
 21
377.1456670633112
 31
0.0
 11
157.7859209106337
 21
377.0751882069803
 31
0.0
 11
158.423443701602
 21
377.0321169424839
 31
0.0
 11
159.0622350164831
 21
377.0178374746015
 31
0.0
 11
159.7010256687412
 21
377.032119340352
 31
0.0
 11
160.3385491223326
 21
377.0751882069803
 31
0.0
 11
160.9593737767446
 21
377.1456600817619
 31
0.0
 11
161.5760830699328
 21
377.2454978311343
 31
0.0
 11
162.1601107264134
 21
377.3697712852946
 31
0.0
 11
162.7372350164824
 21
377.5235915753146
 31
0.0
 11
163.2680906190058
 21
377.6959274890283
 31
0.0
 11
163.7867239476836
 21
377.9010197018274
 31
0.0
 11
163.9087736525127
 21
377.9554894986033
 31
0.0
 11
164.0303342511634
 21
378.0110671828643
 31
0.0
  0
SPLINE
  5
383
330
6B
100
AcDbEntity
  8
1
  6
Continuous
 62
     7
100
AcDbSpline
210
0.0
220
0.0
230
1.0
 70
     8
 71
     3
 72
    43
 73
    39
 74
    37
 42
0.000000001
 43
0.0000000001
 44
0.00000001
 40
0.0
 40
0.0
 40
0.0
 40
0.0
 40
0.3483130057058485
 40
0.6928134299772557
 40
1.0670925392043
 40
1.445054286524162
 40
1.870376540132705
 40
2.294221504727962
 40
2.776573203800546
 40
3.259587483253185
 40
3.800895407928395
 40
4.342019352699105
 40
4.936023135267479
 40
5.530113430954746
 40
6.16702317966182
 40
6.803922582177231
 40
7.470857721885269
 40
8.137804899355995
 40
8.820190777381551
 40
9.502576329432994
 40
10.18496188148898
 40
10.86734775951908
 40
11.53429493698981
 40
12.20123007669786
 40
12.83812947920799
 40
13.47503922790974
 40
14.06912952359776
 40
14.663133306167
 40
15.20425725094188
 40
15.74556517562114
 40
16.22857945507015
 40
16.710931154139
 40
17.1347761187338
 40
17.5600983723426
 40
17.93806011966571
 40
18.31233922889485
 40
18.65683965316479
 40
19.00515265887042
 40
19.00515265887042
 40
19.00515265887042
 40
19.00515265887042
 10
151.2122350164827
 20
381.0526450957364
 30
0.0
 10
151.2245082375364
 20
380.9372042295319
 30
0.0
 10
151.248920351791
 20
380.7075860968222
 30
0.0
 10
151.322210598894
 20
380.3577840985726
 30
0.0
 10
151.4727869694653
 20
380.0217117615471
 30
0.0
 10
151.6887798403654
 20
379.6928551356319
 30
0.0
 10
151.9521959245645
 20
379.3786859238225
 30
0.0
 10
152.2737037970985
 20
379.0715936727491
 30
0.0
 10
152.6396871670688
 20
378.7866396180246
 30
0.0
 10
153.062199491678
 20
378.5142008485236
 30
0.0
 10
153.5213572756036
 20
378.2652402648313
 30
0.0
 10
154.0303420291942
 20
378.0336661608177
 30
0.0
 10
154.5691958673054
 20
377.8279828799211
 30
0.0
 10
155.1494514650978
 20
377.6443194964491
 30
0.0
 10
155.7524526909767
 20
377.488044873981
 30
0.0
 10
156.386311742113
 20
377.3575020426814
 30
0.0
 10
157.0355239835193
 20
377.2555296649512
 30
0.0
 10
157.7037886644391
 20
377.1818691339971
 30
0.0
 10
158.3797941224902
 20
377.1374828310552
 30
0.0
 10
159.0622350164847
 20
377.1227262142523
 30
0.0
 10
159.7446759104805
 20
377.1374828310551
 30
0.0
 10
160.4206813685348
 20
377.1818691339967
 30
0.0
 10
161.0889460494561
 20
377.2555296649512
 30
0.0
 10
161.7381582908606
 20
377.3575020426806
 30
0.0
 10
162.3720173419932
 20
377.4880448739812
 30
0.0
 10
162.9750185678685
 20
377.6443194964496
 30
0.0
 10
163.5552741656596
 20
377.8279828799222
 30
0.0
 10
164.0941280037728
 20
378.0336661608187
 30
0.0
 10
164.6031127573675
 20
378.26524026483
 30
0.0
 10
165.0622705412956
 20
378.5142008485217
 30
0.0
 10
165.4847828659024
 20
378.7866396180241
 30
0.0
 10
165.8507662358685
 20
379.07159367275
 30
0.0
 10
166.1722741083998
 20
379.3786859238243
 30
0.0
 10
166.4356901926003
 20
379.6928551356335
 30
0.0
 10
166.6516830635076
 20
380.0217117615458
 30
0.0
 10
166.8022594340843
 20
380.3577840985711
 30
0.0
 10
166.8755496811831
 20
380.7075860968221
 30
0.0
 10
166.8999617954325
 20
380.9372042295316
 30
0.0
 10
166.9122350164835
 20
381.0526450957364
 30
0.0
 11
151.2122350164827
 21
381.0526450957364
 31
0.0
 11
151.2549115742866
 21
380.706956413877
 31
0.0
 11
151.3314941553435
 21
380.3710759983933
 31
0.0
 11
151.4808717207509
 21
380.0278979166013
 31
0.0
 11
151.6856479433136
 21
379.7102160331824
 31
0.0
 11
151.9582220729678
 21
379.3837158616294
 31
0.0
 11
152.2639355967731
 21
379.0901450957363
 31
0.0
 11
152.6436050370368
 21
378.79263160542
 31
0.0
 11
153.0487861380025
 21
378.5297037277164
 31
0.0
 11
153.5242003579916
 21
378.2708686683773
 31
0.0
 11
154.0163522804432
 21
378.0459206564942
 31
0.0
 11
154.5710489632606
 21
377.8334304618446
 31
0.0
 11
155.137235016482
 21
377.6534953858823
 31
0.0
 11
155.7536607597486
 21
377.4932663941656
 31
0.0
 11
156.3773768913834
 21
377.3643515591516
 31
0.0
 11
157.0361928740913
 21
377.2606019575372
 31
0.0
 11
157.6990968218033
 21
377.1872746651634
 31
0.0
 11
158.3800106807203
 21
377.1424773304828
 31
0.0
 11
159.0622350164831
 21
377.1276450957366
 31
0.0
 11
159.7444593522505
 21
377.1424773304827
 31
0.0
 11
160.425373211172
 21
377.1872746651634
 31
0.0
 11
161.088277158884
 21
377.2606019575369
 31
0.0
 11
161.7470931415919
 21
377.3643515591516
 31
0.0
 11
162.3708092732213
 21
377.4932663941657
 31
0.0
 11
162.9872350164824
 21
377.6534953858823
 31
0.0
 11
163.5534210697044
 21
377.8334304618452
 31
0.0
 11
164.108117752523
 21
378.0459206564942
 31
0.0
 11
164.6002696749795
 21
378.2708686683765
 31
0.0
 11
165.0756838949728
 21
378.5297037277164
 31
0.0
 11
165.4808649959343
 21
378.7926316054197
 31
0.0
 11
165.8605344361931
 21
379.0901450957363
 31
0.0
 11
166.1662479599968
 21
379.3837158616304
 31
0.0
 11
166.4388220896526
 21
379.7102160331824
 31
0.0
 11
166.643598312222
 21
380.0278979166009
 31
0.0
 11
166.7929758776336
 21
380.3710759983933
 31
0.0
 11
166.8695584586869
 21
380.7069564138764
 31
0.0
 11
166.9122350164835
 21
381.0526450957364
 31
0.0
  0
SPLINE
  5
384
330
6B
100
AcDbEntity
  8
1
  6
Continuous
 62
     7
100
AcDbSpline
210
0.0
220
0.0
230
1.0
 70
     8
 71
     3
 72
    31
 73
    27
 74
    25
 42
0.000000001
 43
0.0000000001
 44
0.00000001
 40
0.0
 40
0.0
 40
0.0
 40
0.0
 40
0.1361405060764869
 40
0.2722590438804517
 40
0.8132017870939052
 40
1.354781737629105
 40
1.948948841951665
 40
2.542854706916005
 40
3.179704002697084
 40
3.816669049175071
 40
4.483624824294915
 40
5.150550119296306
 40
5.832927816939319
 40
6.515321778927206
 40
7.197715856396307
 40
7.880093452121702
 40
8.547018256567663
 40
9.213974478402019
 40
9.850940971664107
 40
10.48778899509534
 40
11.08169118956456
 40
11.67586128188894
 40
12.2174485460113
 40
12.75838697114228
 40
12.9031702166936
 40
13.04798030824464
 40
13.04798030824464
 40
13.04798030824464
 40
13.04798030824464
 10
165.306346243533
 20
387.5077910513573
 30
0.0
 10
165.2680882744136
 20
387.4833840071511
 30
0.0
 10
165.1915785020264
 20
387.4345738691667
 30
0.0
 10
164.9613528204416
 20
387.2914686466149
 30
0.0
 10
164.6039288701282
 20
387.0972439049658
 30
0.0
 10
164.0940753485161
 20
386.8674824302378
 30
0.0
 10
163.5550666480178
 20
386.6618825881127
 30
0.0
 10
162.975009805267
 20
386.4776740833032
 30
0.0
 10
162.3720661652754
 20
386.3213765817022
 30
0.0
 10
161.7381675082186
 20
386.1909898013297
 30
0.0
 10
161.0889348292732
 20
386.0890232504018
 30
0.0
 10
160.4206776523997
 20
386.0153206494323
 30
0.0
 10
159.7446788065442
 20
385.9709351429563
 30
0.0
 10
159.0622349798574
 20
385.9561887774264
 30
0.0
 10
158.3797911759054
 20
385.9709347374858
 30
0.0
 10
157.7037924823995
 20
386.0153204191524
 30
0.0
 10
157.0355355080072
 20
386.0890244824134
 30
0.0
 10
156.386302383658
 20
386.1909907266367
 30
0.0
 10
155.7524024678875
 20
386.3213722417867
 30
0.0
 10
155.1494599880762
 20
386.4776707931316
 30
0.0
 10
154.5694094075868
 20
386.6618973497574
 30
0.0
 10
154.0303981216084
 20
386.8674931616349
 30
0.0
 10
153.5205165385637
 20
387.0971964328048
 30
0.0
 10
153.1605534774875
 20
387.2928156683103
 30
0.0
 10
152.9255711464156
 20
387.4392151778493
 30
0.0
 10
152.8442855517608
 20
387.4912822710468
 30
0.0
 10
152.8036389905719
 20
387.5173182370004
 30
0.0
 11
165.306346243533
 21
387.5077910513573
 31
0.0
 11
165.1914299292285
 21
387.4347946261701
 31
0.0
 11
165.0756838949728
 21
387.3631628463172
 31
0.0
 11
164.6012000933084
 21
387.1033856848705
 31
0.0
 11
164.108117752523
 21
386.8793797750955
 31
0.0
 11
163.5531355836948
 21
386.6671785980012
 31
0.0
 11
162.9872350164824
 21
386.4869545044835
 31
0.0
 11
162.3708939744492
 21
386.3266399861759
 31
0.0
 11
161.7470931415919
 21
386.1978106777524
 31
0.0
 11
161.0882524861317
 21
386.0940850976183
 31
0.0
 11
160.425373211172
 21
386.0207337837646
 31
0.0
 11
159.7444678717307
 21
385.9759315490524
 31
0.0
 11
159.0622350164831
 21
385.9611042143374
 31
0.0
 11
158.380002039128
 21
385.9759312454146
 31
0.0
 11
157.6990968218033
 21
386.0207337837646
 31
0.0
 11
157.0362181381637
 21
386.0940859811712
 31
0.0
 11
156.3773768913834
 21
386.1978106777524
 31
0.0
 11
155.7535739545172
 21
386.3266369516417
 31
0.0
 11
155.137235016482
 21
386.4869545044835
 31
0.0
 11
154.5713415589512
 21
386.6671888262371
 31
0.0
 11
154.0163522804432
 21
386.8793797750955
 31
0.0
 11
153.5232467645162
 21
387.1033523502776
 31
0.0
 11
153.0487861380025
 21
387.3631628463172
 31
0.0
 11
152.9257409667434
 21
387.4394653627982
 31
0.0
 11
152.8036389905719
 21
387.5173182370004
 31
0.0
  0
SPLINE
  5
385
330
6B
100
AcDbEntity
  8
0
  6
Continuous
 62
     7
100
AcDbSpline
210
0.0
220
0.0
230
1.0
 70
     8
 71
     3
 72
    47
 73
    43
 74
    41
 42
0.000000001
 43
0.0000000001
 44
0.00000001
 40
0.0
 40
0.0
 40
0.0
 40
0.0
 40
0.6668410373752027
 40
1.333735363428735
 40
1.563663681582294
 40
1.793563237961875
 40
2.063314750054071
 40
2.333087190501166
 40
2.736047970984648
 40
3.139030204104103
 40
3.492270477708729
 40
3.845494943765799
 40
4.152106088331942
 40
4.458716167368774
 40
4.794022455932009
 40
5.129335058279169
 40
5.52019401927608
 40
5.911052939453708
 40
6.237559678538839
 40
6.564059931995461
 40
6.839622263323402
 40
7.115186285693336
 40
7.463163132195691
 40
7.811140053476665
 40
8.159435427142222
 40
8.507745633256377
 40
9.093708571544534
 40
9.67967040922435
 40
10.06827360697729
 40
10.45686296287223
 40
10.82366194222207
 40
11.19045583218952
 40
11.62780900580316
 40
12.06521488274982
 40
12.3805948335202
 40
12.69585799830523
 40
13.05477943856623
 40
13.41396627903418
 40
13.74518934843648
 40
14.07598960963963
 40
14.85581481873613
 40
15.63585907042522
 40
15.63585907042522
 40
15.63585907042522
 40
15.63585907042522
 10
151.7147057549028
 20
388.2837908313745
 30
0.0
 10
151.8857316897312
 20
388.141393890269
 30
0.0
 10
152.2277972402887
 20
387.8565886479217
 30
0.0
 10
152.6749898519799
 20
387.5854769529378
 30
0.0
 10
153.0055849348515
 20
387.4073983314677
 30
0.0
 10
153.2230942346213
 20
387.2985038786388
 30
0.0
 10
153.4556062262301
 20
387.1901806436104
 30
0.0
 10
153.7441852656012
 20
387.0658993523298
 30
0.0
 10
154.0783028797144
 20
386.9354735695558
 30
0.0
 10
154.4434302773876
 20
386.8087886834649
 30
0.0
 10
154.7966671095715
 20
386.6991222965506
 30
0.0
 10
155.1219895433842
 20
386.6083913233071
 30
0.0
 10
155.4344302396863
 20
386.52978725923
 30
0.0
 10
155.7427625315952
 20
386.4596795079539
 30
0.0
 10
156.0620124955782
 20
386.394808703872
 30
0.0
 10
156.4103250933567
 20
386.3324220584961
 30
0.0
 10
156.7783581306917
 20
386.2756553427116
 30
0.0
 10
157.144798736376
 20
386.2286148646711
 30
0.0
 10
157.4908605870127
 20
386.1921427040922
 30
0.0
 10
157.799293440823
 20
386.1659327214783
 30
0.0
 10
158.0912024123516
 20
386.1464953351699
 30
0.0
 10
158.3905447217813
 20
386.1315662862037
 30
0.0
 10
158.7142520577545
 20
386.1215043006322
 30
0.0
 10
159.0623409626106
 20
386.1179194403691
 30
0.0
 10
159.4105422273767
 20
386.1215194395932
 30
0.0
 10
159.837885466497
 20
386.1348093444863
 30
0.0
 10
160.3438586109318
 20
386.1647247528214
 30
0.0
 10
160.8618093035017
 20
386.2140714884255
 30
0.0
 10
161.3126552018759
 20
386.2710128142814
 30
0.0
 10
161.6897051263403
 20
386.328268897826
 30
0.0
 10
162.0580458474861
 20
386.3936533095527
 30
0.0
 10
162.4405234211042
 20
386.4717006239105
 30
0.0
 10
162.8434653611578
 20
386.5664203018037
 30
0.0
 10
163.2265596656894
 20
386.6697525128897
 30
0.0
 10
163.5675559041991
 20
386.7721971301163
 30
0.0
 10
163.8805595036468
 20
386.8764906938767
 30
0.0
 10
164.2030085388266
 20
386.9978514351796
 30
0.0
 10
164.5272038324854
 20
387.1291650303513
 30
0.0
 10
164.8416655262199
 20
387.2595710766897
 30
0.0
 10
165.2777262660431
 20
387.4622455755729
 30
0.0
 10
165.8154238852407
 20
387.7968457392034
 30
0.0
 10
166.2175488969454
 20
388.1268332415855
 30
0.0
 10
166.4186396305431
 20
388.2918501701565
 30
0.0
 11
151.7147057549028
 21
388.2837908313745
 31
0.0
 11
152.2376252296843
 21
387.8699887148479
 31
0.0
 11
152.8036389905668
 21
387.5173182370006
 31
0.0
 11
153.0061356522441
 21
387.4084048151209
 31
0.0
 11
153.211642675364
 21
387.3053481830791
 31
0.0
 11
153.4561393541875
 21
387.1913865570052
 31
0.0
 11
153.7038815438955
 21
387.0846111995781
 31
0.0
 11
154.0791799711221
 21
386.9378853297469
 31
0.0
 11
154.45982916785
 21
386.8055944797781
 31
0.0
 11
154.7971549394255
 21
386.7007612096241
 31
0.0
 11
155.137367546646
 21
386.605772235979
 31
0.0
 11
155.4347028180024
 21
386.5309248563791
 31
0.0
 11
155.7336723884376
 21
386.4629032688157
 31
0.0
 11
156.0622535788202
 21
386.3960847960508
 31
0.0
 11
156.3923048812052
 21
386.3369182606348
 31
0.0
 11
156.778588959414
 21
386.2772916048603
 31
0.0
 11
157.1662611222898
 21
386.2274820738548
 31
0.0
 11
157.4909671831997
 21
386.1932384684259
 31
0.0
 11
157.8162930796699
 21
386.1655712237182
 31
0.0
 11
158.0912462865737
 21
386.1472591418094
 31
0.0
 11
158.3664680639616
 21
386.1335294819504
 31
0.0
 11
158.7142766361911
 21
386.1227090106097
 31
0.0
 11
159.062235016485
 21
386.1191169162302
 31
0.0
 11
159.410511714225
 21
386.1227237073783
 31
0.0
 11
159.758653422004
 21
386.1335565649076
 31
0.0
 11
160.3435899391795
 21
386.1682240626075
 31
0.0
 11
160.9269018366944
 21
386.2238882783103
 31
0.0
 11
161.3124371652905
 21
386.2726217932376
 31
0.0
 11
161.6966160984962
 21
386.3310018802995
 31
0.0
 11
162.0577547515353
 21
386.3951919443949
 31
0.0
 11
162.4171257682833
 21
386.4686101290329
 31
0.0
 11
162.8428674102478
 21
386.5687193318172
 31
0.0
 11
163.2651727085217
 21
386.6826585083945
 31
0.0
 11
163.5671254166998
 21
386.7737028669913
 31
0.0
 11
163.8661209283596
 21
386.8736655947803
 31
0.0
 11
164.2023728674019
 21
386.9992013810067
 31
0.0
 11
164.5356520504551
 21
387.1331423098632
 31
0.0
 11
164.8408844865633
 21
387.2617575569708
 31
0.0
 11
165.1401497716457
 21
387.4027153738429
 31
0.0
 11
165.80499086955
 21
387.8102858102954
 31
0.0
 11
166.4186396305431
 21
388.2918501701565
 31
0.0
  0
SPLINE
  5
386
330
6B
100
AcDbEntity
  8
0
  6
Continuous
 62
     7
100
AcDbSpline
210
0.0
220
0.0
230
1.0
 70
     8
 71
     3
 72
    35
 73
    31
 74
    29
 42
0.000000001
 43
0.0000000001
 44
0.00000001
 40
0.0
 40
0.0
 40
0.0
 40
0.0
 40
0.9447139900810526
 40
1.888800357790406
 40
2.224172378685975
 40
2.559544232233983
 40
2.899912403262785
 40
3.240280705599066
 40
3.577162973068655
 40
3.91404700493872
 40
4.321835494366907
 40
4.729631799329196
 40
5.10767269050177
 40
5.485698579477011
 40
5.678656364411955
 40
5.871614153571542
 40
6.19452853589878
 40
6.517446371620535
 40
6.818478216581047
 40
7.119513544588446
 40
7.526978091474492
 40
7.934443351553941
 40
8.272731739306902
 40
8.611017432314341
 40
8.958217310561354
 40
9.30541680915209
 40
9.653317287214088
 40
10.00122232299534
 40
10.83476844213078
 40
11.66852901293887
 40
11.66852901293887
 40
11.66852901293887
 40
11.66852901293887
 10
153.3429973298826
 20
388.0656479959494
 30
0.0
 10
153.6326889158162
 20
387.9416260187191
 30
0.0
 10
154.2118796362869
 20
387.693664472813
 30
0.0
 10
154.9237871322283
 20
387.4813700804253
 30
0.0
 10
155.4456223890298
 20
387.3495484726602
 30
0.0
 10
155.7744811603926
 20
387.2755074323388
 30
0.0
 10
156.1066246613671
 20
387.2090373380005
 30
0.0
 10
156.4407420078658
 20
387.1503187428896
 30
0.0
 10
156.7749410990844
 20
387.0992927285996
 30
0.0
 10
157.1324603814016
 20
387.0526771196854
 30
0.0
 10
157.5145009725277
 20
387.01200714959
 30
0.0
 10
157.911119817288
 20
386.9798932353951
 30
0.0
 10
158.2984763987964
 20
386.9577893427512
 30
0.0
 10
158.6146617988119
 20
386.946952333158
 30
0.0
 10
158.8692761143216
 20
386.9425753498408
 30
0.0
 10
159.1055536687107
 20
386.9412264306861
 30
0.0
 10
159.3851557974909
 20
386.9438988422404
 30
0.0
 10
159.700665604033
 20
386.9529934387976
 30
0.0
 10
160.0086621330186
 20
386.9676580282302
 30
0.0
 10
160.3444626319352
 20
386.9897736481752
 30
0.0
 10
160.7150754349304
 20
387.0221992599194
 30
0.0
 10
161.0970879796406
 20
387.0654157687279
 30
0.0
 10
161.4551020095136
 20
387.1145841819538
 30
0.0
 10
161.792103984982
 20
387.1684895067015
 30
0.0
 10
162.13070986131
 20
387.2306385908489
 30
0.0
 10
162.470838276069
 20
387.3016558574284
 30
0.0
 10
162.8093372850427
 20
387.3812259525985
 30
0.0
 10
163.3021876345724
 20
387.5114158345286
 30
0.0
 10
163.9452232998631
 20
387.7093203622316
 30
0.0
 10
164.4573355054273
 20
387.9260181175073
 30
0.0
 10
164.7134245396228
 20
388.0343809387323
 30
0.0
 11
153.3429973298826
 21
388.0656479959494
 31
0.0
 11
154.2184192414006
 21
387.7105128108474
 31
0.0
 11
155.1207645027622
 21
387.4328941915875
 31
0.0
 11
155.4459733812125
 21
387.3509577739093
 31
0.0
 11
155.7731279990244
 21
387.2771734103251
 31
0.0
 11
156.1068721484392
 21
387.2103502219845
 31
0.0
 11
156.4420933322288
 21
387.1513812445236
 31
0.0
 11
156.7751122146883
 21
387.1005080059789
 31
0.0
 11
157.1091649801889
 21
387.0569235946972
 31
0.0
 11
157.5146580715953
 21
387.0137170563183
 31
0.0
 11
157.92112102278
 21
386.9807671609191
 31
0.0
 11
158.2985473819439
 21
386.9592204968521
 31
0.0
 11
158.6763511354511
 21
386.9462630094644
 31
0.0
 11
158.8692803827059
 21
386.9429445317594
 31
0.0
 11
159.0622350164869
 21
386.9418410498246
 31
0.0
 11
159.3851345741734
 21
386.9449352186898
 31
0.0
 11
159.7079180941415
 21
386.9542479940263
 31
0.0
 11
160.0086090969919
 21
386.9685690420494
 31
0.0
 11
160.3089933874114
 21
386.9883565813548
 31
0.0
 11
160.7149034752669
 21
387.023914385549
 31
0.0
 11
161.1197810479754
 21
387.0697629320047
 31
0.0
 11
161.4549196968894
 21
387.1158185427274
 31
0.0
 11
161.7889547328422
 21
387.1692769838322
 31
0.0
 11
162.1304384941311
 21
387.2320192871466
 31
0.0
 11
162.4703003439736
 21
387.3030222298631
 31
0.0
 11
162.8089390163655
 21
387.382762997972
 31
0.0
 11
163.1453596966087
 21
387.4714142176917
 31
0.0
 11
163.9401786197021
 21
387.7225357259181
 31
0.0
 11
164.7134245396228
 21
388.0343809387323
 31
0.0
  0
ENDBLK
  5
6D
330
6B
100
AcDbEntity
  8
0
100
AcDbBlockEnd
  0
BLOCK
  5
6F
330
6E
100
AcDbEntity
  8
0
100
AcDbBlockBegin
  2
V97G-H2
 70
     0
 10
720.2493527503229
 20
143.8266458540315
 30
0.0
  3
V97G-H2
  1

  0
LINE
  5
387
330
6E
100
AcDbEntity
  8
0
  6
Continuous
 62
     7
100
AcDbLine
 10
247.543619794842
 20
265.0879891415452
 30
0.0
 11
250.8436197948431
 21
259.3722214765685
 31
0.0
  0
LINE
  5
388
330
6E
100
AcDbEntity
  8
1
  6
Continuous
 62
     7
100
AcDbLine
 10
244.3436197948431
 20
270.6305517257656
 30
0.0
 11
244.3869210650337
 21
270.6555517257652
 31
0.0
  0
LINE
  5
389
330
6E
100
AcDbEntity
  8
1
  6
Continuous
 62
     7
100
AcDbLine
 10
250.8436197948431
 20
259.3722214765685
 30
0.0
 11
250.8869210650337
 21
259.3972214765686
 31
0.0
  0
LINE
  5
38A
330
6E
100
AcDbEntity
  8
0
  6
Continuous
 62
     7
100
AcDbLine
 10
244.3436197948431
 20
270.6305517257656
 30
0.0
 11
247.543619794842
 21
265.0879891415452
 31
0.0
  0
SPLINE
  5
38B
330
6E
100
AcDbEntity
  8
1
  6
Continuous
 62
     7
100
AcDbSpline
210
0.0
220
0.0
230
1.0
 70
     8
 71
     3
 72
    19
 73
    15
 74
    13
 42
0.000000001
 43
0.0000000001
 44
0.00000001
 40
0.0
 40
0.0
 40
0.0
 40
0.0
 40
0.1108484316643623
 40
0.2216991381452972
 40
0.7145338740340732
 40
1.207825855859219
 40
1.689478503365516
 40
2.170736437395117
 40
2.639991960443722
 40
3.109874384469123
 40
3.569577369798627
 40
4.027912444747763
 40
4.481764108412391
 40
4.937281826044474
 40
4.937281826044474
 40
4.937281826044474
 40
4.937281826044474
 10
161.8122350164831
 20
260.4807345658196
 30
0.0
 10
161.8456727740493
 20
260.4964570986918
 30
0.0
 10
161.9125489692377
 20
260.5279025001145
 30
0.0
 10
162.1270801676847
 20
260.6313723369498
 30
0.0
 10
162.4478932700236
 20
260.807921859311
 30
0.0
 10
162.8554544675312
 20
261.0795789986258
 30
0.0
 10
163.2364375270109
 20
261.3812472922689
 30
0.0
 10
163.5842954879754
 20
261.7091368861554
 30
0.0
 10
163.8983207903742
 20
262.0643316418499
 30
0.0
 10
164.175426312289
 20
262.4400632794197
 30
0.0
 10
164.4173062129448
 20
262.8351498723977
 30
0.0
 10
164.6147473942671
 20
263.248925574028
 30
0.0
 10
164.7583068684578
 20
263.6824616977037
 30
0.0
 10
164.8355702278471
 20
263.9755651869193
 30
0.0
 10
164.8742726775326
 20
264.1223854306422
 30
0.0
 11
161.8122350164831
 21
260.4807345658196
 31
0.0
 11
161.9124699428121
 21
260.5280667372878
 31
0.0
 11
162.012235016482
 21
260.5763866011666
 31
0.0
 11
162.4441192189765
 21
260.8137936643363
 31
0.0
 11
162.8546819136336
 21
261.0872443069693
 31
0.0
 11
163.2320262536926
 21
261.3865777708302
 31
0.0
 11
163.5818972308825
 21
261.7170312457306
 31
0.0
 11
163.8927925485045
 21
262.0685207164969
 31
0.0
 11
164.1717848988119
 21
262.4466116600024
 31
0.0
 11
164.4105568671512
 21
262.8394408627322
 31
0.0
 11
164.6064214791222
 21
263.2538176180833
 31
0.0
 11
164.7536017683507
 21
263.68314184945
 31
0.0
 11
164.8742726775326
 21
264.1223854306422
 31
0.0
  0
SPLINE
  5
38C
330
6E
100
AcDbEntity
  8
1
  6
Continuous
 62
     7
100
AcDbSpline
210
0.0
220
0.0
230
1.0
 70
     8
 71
     3
 72
    19
 73
    15
 74
    13
 42
0.000000001
 43
0.0000000001
 44
0.00000001
 40
0.0
 40
0.0
 40
0.0
 40
0.0
 40
0.1108484316651604
 40
0.2216991381469131
 40
0.7145338740348972
 40
1.207825855859349
 40
1.689478503365515
 40
2.170736437395194
 40
2.639991960444729
 40
3.109874384470452
 40
3.569577369796913
 40
4.027912444743854
 40
4.481764108410048
 40
4.937281826043121
 40
4.937281826043121
 40
4.937281826043121
 40
4.937281826043121
 10
156.3122350164831
 20
260.4807345658196
 30
0.0
 10
156.2787972589165
 20
260.4964570986918
 30
0.0
 10
156.2119210637276
 20
260.5279025001144
 30
0.0
 10
155.99738986528
 20
260.6313723369494
 30
0.0
 10
155.6765767629413
 20
260.8079218593102
 30
0.0
 10
155.2690155654349
 20
261.0795789986261
 30
0.0
 10
154.8880325059559
 20
261.3812472922695
 30
0.0
 10
154.5401745449909
 20
261.7091368861558
 30
0.0
 10
154.2261492425898
 20
262.0643316418489
 30
0.0
 10
153.949043720675
 20
262.440063279418
 30
0.0
 10
153.7071638200258
 20
262.8351498723985
 30
0.0
 10
153.509722638709
 20
263.2489255740296
 30
0.0
 10
153.3661631645156
 20
263.6824616977044
 30
0.0
 10
153.2888998051215
 20
263.9755651869196
 30
0.0
 10
153.2501973554336
 20
264.1223854306422
 30
0.0
 11
156.3122350164831
 21
260.4807345658196
 31
0.0
 11
156.2120000901532
 21
260.5280667372878
 31
0.0
 11
156.1122350164824
 21
260.5763866011666
 31
0.0
 11
155.6803508139885
 21
260.8137936643359
 31
0.0
 11
155.2697881193326
 21
261.0872443069693
 31
0.0
 11
154.8924437792741
 21
261.3865777708306
 31
0.0
 11
154.5425728020837
 21
261.7170312457306
 31
0.0
 11
154.2316774844596
 21
262.0685207164963
 31
0.0
 11
153.9526851341525
 21
262.4466116600024
 31
0.0
 11
153.7139131658193
 21
262.8394408627324
 31
0.0
 11
153.5180485538531
 21
263.2538176180833
 31
0.0
 11
153.3708682646219
 21
263.6831418494507
 31
0.0
 11
153.2501973554336
 21
264.1223854306422
 31
0.0
  0
SPLINE
  5
38D
330
6E
100
AcDbEntity
  8
1
  6
Continuous
 62
     7
100
AcDbSpline
210
0.0
220
0.0
230
1.0
 70
     8
 71
     3
 72
    19
 73
    15
 74
    13
 42
0.000000001
 43
0.0000000001
 44
0.00000001
 40
0.0
 40
0.0
 40
0.0
 40
0.0
 40
0.3511905052340921
 40
0.7014060418733825
 40
1.043339730682111
 40
1.386021090386651
 40
1.720687135097818
 40
2.054915713087366
 40
2.383264773697303
 40
2.712016816594743
 40
3.037805187546693
 40
3.362896969483875
 40
3.553452679136386
 40
3.744221616038703
 40
3.744221616038703
 40
3.744221616038703
 40
3.744221616038703
 10
161.8262217381325
 20
263.5343472700956
 30
0.0
 10
161.9175147503082
 20
263.6076211391056
 30
0.0
 10
162.099847319423
 20
263.7539654668852
 30
0.0
 10
162.3588056656886
 20
263.9868296955218
 30
0.0
 10
162.5885838646089
 20
264.2450456541748
 30
0.0
 10
162.7887780088573
 20
264.5201219367798
 30
0.0
 10
162.962905633916
 20
264.809383923834
 30
0.0
 10
163.1072587015464
 20
265.109418769575
 30
0.0
 10
163.2202009839124
 20
265.4205369713468
 30
0.0
 10
163.3017747385065
 20
265.7383602141419
 30
0.0
 10
163.3527473500608
 20
266.0614110755392
 30
0.0
 10
163.3666366144947
 20
266.3422551919608
 30
0.0
 10
163.3554720234557
 20
266.5775801179281
 30
0.0
 10
163.344918330727
 20
266.7042502797212
 30
0.0
 10
163.3396385265132
 20
266.7676207754644
 30
0.0
 11
161.8262217381325
 21
263.5343472700956
 31
0.0
 11
162.0980343812188
 21
263.756726806207
 31
0.0
 11
162.3562261218922
 21
263.9933445305474
 31
0.0
 11
162.5840395537315
 21
264.2483341148772
 31
0.0
 11
162.7861442527628
 21
264.5250726290856
 31
0.0
 11
162.9583958776328
 21
264.8120059656154
 31
0.0
 11
163.1029132858621
 21
265.1133752764995
 31
0.0
 11
163.2150792479439
 21
265.4219719438204
 31
0.0
 11
163.2969083544431
 21
265.7403771945455
 31
0.0
 11
163.3469904694106
 21
266.0622930922967
 31
0.0
 11
163.3622350164824
 21
266.3870272472213
 31
0.0
 11
163.3543449112831
 21
266.5774195394837
 31
0.0
 11
163.3396385265132
 21
266.7676207754644
 31
0.0
  0
SPLINE
  5
38E
330
6E
100
AcDbEntity
  8
1
  6
Continuous
 62
     7
100
AcDbSpline
210
0.0
220
0.0
230
1.0
 70
     8
 71
     3
 72
    19
 73
    15
 74
    13
 42
0.000000001
 43
0.0000000001
 44
0.00000001
 40
0.0
 40
0.0
 40
0.0
 40
0.0
 40
0.35119050523519
 40
0.7014060418748329
 40
1.043339730679431
 40
1.386021090381107
 40
1.720687135096125
 40
2.054915713087874
 40
2.383264773694835
 40
2.712016816591088
 40
3.037805187544523
 40
3.362896969481405
 40
3.553452679133964
 40
3.744221616036935
 40
3.744221616036935
 40
3.744221616036935
 40
3.744221616036935
 10
156.2982482948337
 20
263.5343472700956
 30
0.0
 10
156.2069552826571
 20
263.6076211391052
 30
0.0
 10
156.0246227135408
 20
263.7539654668835
 30
0.0
 10
155.7656643672759
 20
263.98682969552
 30
0.0
 10
155.5358861683627
 20
264.2450456541762
 30
0.0
 10
155.3356920241183
 20
264.5201219367827
 30
0.0
 10
155.1615643990528
 20
264.8093839238338
 30
0.0
 10
155.0172113314165
 20
265.1094187695733
 30
0.0
 10
154.9042690490583
 20
265.4205369713478
 30
0.0
 10
154.8226952944713
 20
265.7383602141433
 30
0.0
 10
154.7717226829079
 20
266.0614110755388
 30
0.0
 10
154.7578334184676
 20
266.342255191961
 30
0.0
 10
154.7689980095121
 20
266.5775801179282
 30
0.0
 10
154.7795517022458
 20
266.7042502797211
 30
0.0
 10
154.7848315064621
 20
266.7676207754644
 30
0.0
 11
156.2982482948337
 21
263.5343472700956
 31
0.0
 11
156.0264356517451
 21
263.7567268062059
 31
0.0
 11
155.7682439110722
 21
263.9933445305474
 31
0.0
 11
155.5404304792399
 21
264.2483341148779
 31
0.0
 11
155.3383257802125
 21
264.5250726290856
 31
0.0
 11
155.166074155336
 21
264.812005965616
 31
0.0
 11
155.0215567471023
 21
265.1133752765004
 31
0.0
 11
154.9093907850269
 21
265.4219719438204
 31
0.0
 11
154.8275616785322
 21
265.7403771945455
 31
0.0
 11
154.7774795635583
 21
266.0622930922972
 31
0.0
 11
154.762235016482
 21
266.3870272472213
 31
0.0
 11
154.7701251216852
 21
266.5774195394836
 31
0.0
 11
154.7848315064621
 21
266.7676207754644
 31
0.0
  0
ENDBLK
  5
70
330
6E
100
AcDbEntity
  8
0
100
AcDbBlockEnd
  0
BLOCK
  5
72
330
71
100
AcDbEntity
  8
0
100
AcDbBlockBegin
  2
V97G-H3
 70
     0
 10
674.8123589812221
 20
507.5387685545484
 30
0.0
  3
V97G-H3
  1

  0
LINE
  5
38F
330
71
100
AcDbEntity
  8
1
  6
Continuous
 62
     7
100
AcDbLine
 10
156.3122350164831
 20
373.7159925949904
 30
0.0
 11
156.3122350164831
 21
377.2921122669304
 31
0.0
  0
LINE
  5
390
330
71
100
AcDbEntity
  8
1
  6
Continuous
 62
     7
100
AcDbLine
 10
161.8122350164831
 20
373.7159925949904
 30
0.0
 11
161.8122350164831
 21
377.2921234840064
 31
0.0
  0
LINE
  5
391
330
71
100
AcDbEntity
  8
1
  6
Continuous
 62
     7
100
AcDbLine
 10
157.0622350164831
 20
373.7159925949904
 30
0.0
 11
157.0622350164831
 21
374.9742046762794
 31
0.0
  0
LINE
  5
392
330
71
100
AcDbEntity
  8
1
  6
Continuous
 62
     7
100
AcDbLine
 10
156.3122350164831
 20
373.7159925949904
 30
0.0
 11
157.0622350164831
 21
373.7159925949904
 31
0.0
  0
LINE
  5
393
330
71
100
AcDbEntity
  8
1
  6
Continuous
 62
     7
100
AcDbLine
 10
161.0622350164831
 20
373.7159925949904
 30
0.0
 11
161.0622350164831
 21
374.9742046762794
 31
0.0
  0
LINE
  5
394
330
71
100
AcDbEntity
  8
1
  6
Continuous
 62
     7
100
AcDbLine
 10
161.8122350164831
 20
373.7159925949904
 30
0.0
 11
161.0622350164831
 21
373.7159925949904
 31
0.0
  0
LINE
  5
395
330
71
100
AcDbEntity
  8
1
  6
Continuous
 62
     7
100
AcDbLine
 10
157.0622350164831
 20
374.9742046762794
 30
0.0
 11
157.0622350164831
 21
377.1601902115713
 31
0.0
  0
LINE
  5
396
330
71
100
AcDbEntity
  8
1
  6
Continuous
 62
     7
100
AcDbLine
 10
157.0622350164831
 20
374.9742046762794
 30
0.0
 11
156.3122350164831
 21
374.9742046762794
 31
0.0
  0
LINE
  5
397
330
71
100
AcDbEntity
  8
1
  6
Continuous
 62
     7
100
AcDbLine
 10
161.0622350164831
 20
374.9742046762794
 30
0.0
 11
161.0622350164831
 21
377.1601823013502
 31
0.0
  0
LINE
  5
398
330
71
100
AcDbEntity
  8
1
  6
Continuous
 62
     7
100
AcDbLine
 10
161.8122350164831
 20
374.9742046762794
 30
0.0
 11
161.0622350164831
 21
374.9742046762794
 31
0.0
  0
LINE
  5
399
330
71
100
AcDbEntity
  8
1
  6
Continuous
 62
     7
100
AcDbLine
 10
157.0622350164831
 20
372.1741744930832
 30
0.0
 11
157.0622350164831
 21
373.7159925949904
 31
0.0
  0
LINE
  5
39A
330
71
100
AcDbEntity
  8
1
  6
Continuous
 62
     7
100
AcDbLine
 10
161.0622350164831
 20
372.1741744930832
 30
0.0
 11
161.0622350164831
 21
373.7159925949904
 31
0.0
  0
LINE
  5
39B
330
71
100
AcDbEntity
  8
1
  6
Continuous
 62
     7
100
AcDbLine
 10
159.5622350164831
 20
373.7173438697055
 30
0.0
 11
159.5622350164831
 21
377.0265779612732
 31
0.0
  0
LINE
  5
39C
330
71
100
AcDbEntity
  8
1
  6
Continuous
 62
     7
100
AcDbLine
 10
159.5622350164831
 20
373.7173438697055
 30
0.0
 11
161.0622350164831
 21
373.7173438697055
 31
0.0
  0
LINE
  5
39D
330
71
100
AcDbEntity
  8
1
  6
Continuous
 62
     7
100
AcDbLine
 10
158.5622350164831
 20
373.7173438697055
 30
0.0
 11
158.5622350164831
 21
377.0265758249334
 31
0.0
  0
LINE
  5
39E
330
71
100
AcDbEntity
  8
1
  6
Continuous
 62
     7
100
AcDbLine
 10
158.5622350164831
 20
373.7173438697055
 30
0.0
 11
157.0622350164831
 21
373.7173438697055
 31
0.0
  0
LINE
  5
39F
330
71
100
AcDbEntity
  8
1
  6
Continuous
 62
     7
100
AcDbLine
 10
158.5622350164831
 20
372.1741744930832
 30
0.0
 11
158.5622350164831
 21
373.1308088266374
 31
0.0
  0
LINE
  5
3A0
330
71
100
AcDbEntity
  8
1
  6
Continuous
 62
     7
100
AcDbLine
 10
158.5622350164831
 20
372.1741744930832
 30
0.0
 11
157.0622350164831
 21
372.1741744930832
 31
0.0
  0
LINE
  5
3A1
330
71
100
AcDbEntity
  8
1
  6
Continuous
 62
     7
100
AcDbLine
 10
159.5622350164831
 20
372.1741744930832
 30
0.0
 11
159.5622350164831
 21
373.1308088266374
 31
0.0
  0
LINE
  5
3A2
330
71
100
AcDbEntity
  8
1
  6
Continuous
 62
     7
100
AcDbLine
 10
161.0622350164831
 20
372.1741744930832
 30
0.0
 11
159.5622350164831
 21
372.1741744930832
 31
0.0
  0
LINE
  5
3A3
330
71
100
AcDbEntity
  8
1
  6
Continuous
 62
     7
100
AcDbLine
 10
159.5622350164831
 20
373.1308088266374
 30
0.0
 11
159.5622350164831
 21
373.7173438697055
 31
0.0
  0
LINE
  5
3A4
330
71
100
AcDbEntity
  8
1
  6
Continuous
 62
     7
100
AcDbLine
 10
158.5622350164831
 20
373.1308088266374
 30
0.0
 11
158.5622350164831
 21
373.7173438697055
 31
0.0
  0
LINE
  5
3A5
330
71
100
AcDbEntity
  8
1
  6
Continuous
 62
     7
100
AcDbLine
 10
159.5622350164831
 20
373.1308088266374
 30
0.0
 11
158.5622350164831
 21
373.1308088266374
 31
0.0
  0
LINE
  5
3A6
330
71
100
AcDbEntity
  8
0
  6
Continuous
 62
     7
100
AcDbLine
 10
157.0622350164831
 20
268.0616061772594
 30
0.0
 11
157.0622350164831
 21
263.2457067661285
 31
0.0
  0
LINE
  5
3A7
330
71
100
AcDbEntity
  8
0
  6
Continuous
 62
     7
100
AcDbLine
 10
157.9391775337736
 20
268.2796551913843
 30
0.0
 11
158.5622350164831
 21
268.2796551913843
 31
0.0
  0
LINE
  5
3A8
330
71
100
AcDbEntity
  8
0
  6
Continuous
 62
     7
100
AcDbLine
 10
161.0622350164831
 20
268.0616061772594
 30
0.0
 11
161.0622350164831
 21
263.2457067661285
 31
0.0
  0
LINE
  5
3A9
330
71
100
AcDbEntity
  8
1
  6
Continuous
 62
     7
100
AcDbLine
 10
156.3122350164831
 20
258.1865919901834
 30
0.0
 11
156.3122350164831
 21
262.2355821905262
 31
0.0
  0
LINE
  5
3AA
330
71
100
AcDbEntity
  8
0
  6
Continuous
 62
     7
100
AcDbLine
 10
157.0622350164831
 20
258.1865919901834
 30
0.0
 11
157.0622350164831
 21
257.8898423662945
 31
0.0
  0
LINE
  5
3AB
330
71
100
AcDbEntity
  8
1
  6
Continuous
 62
     7
100
AcDbLine
 10
156.3122350164831
 20
258.1865919901834
 30
0.0
 11
157.0622350164831
 21
258.1865919901834
 31
0.0
  0
LINE
  5
3AC
330
71
100
AcDbEntity
  8
1
  6
Continuous
 62
     7
100
AcDbLine
 10
156.3122350164831
 20
262.2355821905262
 30
0.0
 11
156.3122350164831
 21
267.7658754700924
 31
0.0
  0
LINE
  5
3AD
330
71
100
AcDbEntity
  8
0
  6
Continuous
 62
     7
100
AcDbLine
 10
157.0622350164831
 20
262.2355821905262
 30
0.0
 11
157.0622350164831
 21
258.2797095576052
 31
0.0
  0
LINE
  5
3AE
330
71
100
AcDbEntity
  8
1
  6
Continuous
 62
     7
100
AcDbLine
 10
156.3122350164831
 20
262.2355821905262
 30
0.0
 11
157.0622350164831
 21
262.2355821905262
 31
0.0
  0
LINE
  5
3AF
330
71
100
AcDbEntity
  8
1
  6
Continuous
 62
     7
100
AcDbLine
 10
161.8122350164831
 20
262.2355821905262
 30
0.0
 11
161.8122350164831
 21
267.7658754700924
 31
0.0
  0
LINE
  5
3B0
330
71
100
AcDbEntity
  8
0
  6
Continuous
 62
     7
100
AcDbLine
 10
161.0622350164831
 20
262.2355821905262
 30
0.0
 11
161.0622350164831
 21
258.2797095576052
 31
0.0
  0
LINE
  5
3B1
330
71
100
AcDbEntity
  8
1
  6
Continuous
 62
     7
100
AcDbLine
 10
161.8122350164831
 20
262.2355821905262
 30
0.0
 11
161.0622350164831
 21
262.2355821905262
 31
0.0
  0
LINE
  5
3B2
330
71
100
AcDbEntity
  8
1
  6
Continuous
 62
     7
100
AcDbLine
 10
161.8122350164831
 20
258.1865919901834
 30
0.0
 11
161.8122350164831
 21
262.2355821905262
 31
0.0
  0
LINE
  5
3B3
330
71
100
AcDbEntity
  8
0
  6
Continuous
 62
     7
100
AcDbLine
 10
161.0622350164831
 20
258.1865919901834
 30
0.0
 11
161.0622350164831
 21
257.8898423662945
 31
0.0
  0
LINE
  5
3B4
330
71
100
AcDbEntity
  8
1
  6
Continuous
 62
     7
100
AcDbLine
 10
161.8122350164831
 20
258.1865919901834
 30
0.0
 11
161.0622350164831
 21
258.1865919901834
 31
0.0
  0
LINE
  5
3B5
330
71
100
AcDbEntity
  8
1
  6
Continuous
 62
     7
100
AcDbLine
 10
156.3122350164831
 20
257.8898423662945
 30
0.0
 11
156.3122350164831
 21
258.1865919901834
 31
0.0
  0
LINE
  5
3B6
330
71
100
AcDbEntity
  8
1
  6
Continuous
 62
     7
100
AcDbLine
 10
161.8122350164831
 20
257.8898423662945
 30
0.0
 11
161.8122350164831
 21
258.1865919901834
 31
0.0
  0
LINE
  5
3B7
330
71
100
AcDbEntity
  8
0
  6
Continuous
 62
     7
100
AcDbLine
 10
157.0622350164831
 20
257.8898423662945
 30
0.0
 11
157.0622350164831
 21
253.9278948025944
 31
0.0
  0
LINE
  5
3B8
330
71
100
AcDbEntity
  8
1
  6
Continuous
 62
     7
100
AcDbLine
 10
157.0622350164831
 20
257.8898423662945
 30
0.0
 11
156.3122350164831
 21
257.8898423662945
 31
0.0
  0
LINE
  5
3B9
330
71
100
AcDbEntity
  8
0
  6
Continuous
 62
     7
100
AcDbLine
 10
161.0622350164831
 20
257.8898423662945
 30
0.0
 11
161.0622350164831
 21
253.9278948025944
 31
0.0
  0
LINE
  5
3BA
330
71
100
AcDbEntity
  8
1
  6
Continuous
 62
     7
100
AcDbLine
 10
161.0622350164831
 20
257.8898423662945
 30
0.0
 11
161.8122350164831
 21
257.8898423662945
 31
0.0
  0
LINE
  5
3BB
330
71
100
AcDbEntity
  8
1
  6
Continuous
 62
     7
100
AcDbLine
 10
158.5622350164831
 20
263.2457067661285
 30
0.0
 11
158.5622350164831
 21
268.2796551913843
 31
0.0
  0
LINE
  5
3BC
330
71
100
AcDbEntity
  8
0
  6
Continuous
 62
     7
100
AcDbLine
 10
157.0622350164831
 20
263.2457067661285
 30
0.0
 11
157.0622350164831
 21
262.2355821905262
 31
0.0
  0
LINE
  5
3BD
330
71
100
AcDbEntity
  8
1
  6
Continuous
 62
     7
100
AcDbLine
 10
158.5622350164831
 20
263.2457067661285
 30
0.0
 11
157.0622350164831
 21
263.2457067661285
 31
0.0
  0
LINE
  5
3BE
330
71
100
AcDbEntity
  8
1
  6
Continuous
 62
     7
100
AcDbLine
 10
159.5622350164831
 20
263.2457067661285
 30
0.0
 11
159.5622350164831
 21
268.2796551913843
 31
0.0
  0
LINE
  5
3BF
330
71
100
AcDbEntity
  8
0
  6
Continuous
 62
     7
100
AcDbLine
 10
161.0622350164831
 20
263.2457067661285
 30
0.0
 11
161.0622350164831
 21
262.2355821905262
 31
0.0
  0
LINE
  5
3C0
330
71
100
AcDbEntity
  8
1
  6
Continuous
 62
     7
100
AcDbLine
 10
161.0622350164831
 20
263.2457067661285
 30
0.0
 11
159.5622350164831
 21
263.2457067661285
 31
0.0
  0
LINE
  5
3C1
330
71
100
AcDbEntity
  8
0
  6
Continuous
 62
     7
100
AcDbLine
 10
161.0622350164831
 20
258.2797095576052
 30
0.0
 11
161.0622350164831
 21
258.1865919901834
 31
0.0
  0
LINE
  5
3C2
330
71
100
AcDbEntity
  8
1
  6
Continuous
 62
     7
100
AcDbLine
 10
159.5622350164831
 20
258.2797095576052
 30
0.0
 11
161.0622350164831
 21
258.2797095576052
 31
0.0
  0
LINE
  5
3C3
330
71
100
AcDbEntity
  8
0
  6
Continuous
 62
     7
100
AcDbLine
 10
157.0622350164831
 20
258.2797095576052
 30
0.0
 11
157.0622350164831
 21
258.1865919901834
 31
0.0
  0
LINE
  5
3C4
330
71
100
AcDbEntity
  8
1
  6
Continuous
 62
     7
100
AcDbLine
 10
158.5622350164831
 20
258.2797095576052
 30
0.0
 11
157.0622350164831
 21
258.2797095576052
 31
0.0
  0
LINE
  5
3C5
330
71
100
AcDbEntity
  8
0
  6
Continuous
 62
     7
100
AcDbLine
 10
159.5622350164831
 20
268.2796551913843
 30
0.0
 11
160.1852924991927
 21
268.2796551913843
 31
0.0
  0
LINE
  5
3C6
330
71
100
AcDbEntity
  8
1
  6
Continuous
 62
     7
100
AcDbLine
 10
159.5622350164831
 20
258.2797095576052
 30
0.0
 11
159.5622350164831
 21
263.2457067661285
 31
0.0
  0
LINE
  5
3C7
330
71
100
AcDbEntity
  8
0
  6
Continuous
 62
     7
100
AcDbLine
 10
158.5622350164831
 20
268.2796551913843
 30
0.0
 11
159.5622350164831
 21
268.2796551913843
 31
0.0
  0
LINE
  5
3C8
330
71
100
AcDbEntity
  8
1
  6
Continuous
 62
     7
100
AcDbLine
 10
158.5622350164831
 20
258.2797095576052
 30
0.0
 11
158.5622350164831
 21
263.2457067661285
 31
0.0
  0
LINE
  5
3C9
330
71
100
AcDbEntity
  8
1
  6
Continuous
 62
     7
100
AcDbLine
 10
159.5622350164831
 20
258.2797095576052
 30
0.0
 11
158.5622350164831
 21
258.2797095576052
 31
0.0
  0
LINE
  5
3CA
330
71
100
AcDbEntity
  8
1
  6
Continuous
 62
     7
100
AcDbLine
 10
158.5622350164831
 20
259.1119248119544
 30
0.0
 11
159.5622350164831
 21
259.1119248119544
 31
0.0
  0
LINE
  5
3CB
330
71
100
AcDbEntity
  8
1
  6
Continuous
 62
     7
100
AcDbLine
 10
158.5622350164831
 20
263.7170982347425
 30
0.0
 11
159.5622350164831
 21
263.7170982347425
 31
0.0
  0
LINE
  5
3CC
330
71
100
AcDbEntity
  8
0
  6
Continuous
 62
     7
100
AcDbLine
 10
247.7303878484127
 20
264.7644973835295
 30
0.0
 11
242.7735763758028
 21
261.9388325666373
 31
0.0
  0
LINE
  5
3CD
330
71
100
AcDbEntity
  8
0
  6
Continuous
 62
     7
100
AcDbLine
 10
247.3650146220934
 20
265.3973423752414
 30
0.0
 11
241.8186210571021
 21
262.2355821905262
 31
0.0
  0
LINE
  5
3CE
330
71
100
AcDbEntity
  8
0
  6
Continuous
 62
     7
100
AcDbLine
 10
246.6150033306731
 20
266.6964000382386
 30
0.0
 11
240.5617602505226
 21
263.2457067661285
 31
0.0
  0
LINE
  5
3CF
330
71
100
AcDbEntity
  8
0
  6
Continuous
 62
     7
100
AcDbLine
 10
248.6197832019534
 20
263.2240194431756
 30
0.0
 11
243.9092597299732
 21
260.5387528120982
 31
0.0
  0
LINE
  5
3D0
330
71
100
AcDbEntity
  8
0
  6
Continuous
 62
     7
100
AcDbLine
 10
243.9092597299732
 20
260.5387528120982
 30
0.0
 11
242.9477972725726
 21
257.4447179304593
 31
0.0
  0
LINE
  5
3D1
330
71
100
AcDbEntity
  8
1
  6
Continuous
 62
     7
100
AcDbLine
 10
240.5604089758126
 20
258.1865919901834
 30
0.0
 11
241.5153642945134
 21
257.8898423662945
 31
0.0
  0
LINE
  5
3D2
330
71
100
AcDbEntity
  8
0
  6
Continuous
 62
     7
100
AcDbLine
 10
241.5153642945134
 20
257.8898423662945
 30
0.0
 11
242.7735763758028
 21
261.9388325666373
 31
0.0
  0
LINE
  5
3D3
330
71
100
AcDbEntity
  8
0
  6
Continuous
 62
     7
100
AcDbLine
 10
240.5604089758126
 20
258.1865919901834
 30
0.0
 11
241.8186210571021
 21
262.2355821905262
 31
0.0
  0
LINE
  5
3D4
330
71
100
AcDbEntity
  8
0
  6
Continuous
 62
     7
100
AcDbLine
 10
239.0185908739022
 20
258.2797095576052
 30
0.0
 11
240.5617602505226
 21
263.2457067661285
 31
0.0
  0
LINE
  5
3D5
330
71
100
AcDbEntity
  8
0
  6
Continuous
 62
     7
100
AcDbLine
 10
243.4222073600431
 20
256.6125026761106
 30
0.0
 11
244.4999241111236
 21
260.0806497625786
 31
0.0
  0
LINE
  5
3D6
330
71
100
AcDbEntity
  8
0
  6
Continuous
 62
     7
100
AcDbLine
 10
248.965038710463
 20
262.6260193608496
 30
0.0
 11
244.4999241111236
 21
260.0806497625786
 31
0.0
  0
LINE
  5
3D7
330
71
100
AcDbEntity
  8
0
  6
Continuous
 62
     7
100
AcDbLine
 10
246.2649980613332
 20
267.3026269476363
 30
0.0
 11
239.9752252074522
 21
263.7170982347425
 31
0.0
  0
LINE
  5
3D8
330
71
100
AcDbEntity
  8
0
  6
Continuous
 62
     7
100
AcDbLine
 10
239.0185908739022
 20
258.2797095576052
 30
0.0
 11
238.5441807864336
 21
259.1119248119544
 31
0.0
  0
LINE
  5
3D9
330
71
100
AcDbEntity
  8
0
  6
Continuous
 62
     7
100
AcDbLine
 10
238.5441807864336
 20
259.1119248119544
 30
0.0
 11
239.9752252074522
 21
263.7170982347425
 31
0.0
  0
LINE
  5
3DA
330
71
100
AcDbEntity
  8
0
  6
Continuous
 62
     7
100
AcDbLine
 10
239.0185908739022
 20
258.2797095576052
 30
0.0
 11
242.7544889758829
 21
254.6540281910784
 31
0.0
  0
LINE
  5
3DB
330
71
100
AcDbEntity
  8
0
  6
Continuous
 62
     7
100
AcDbLine
 10
243.1011572452335
 20
254.0458990016546
 30
0.0
 11
242.7544889758829
 21
254.6540281910784
 31
0.0
  0
LINE
  5
3DC
330
71
100
AcDbEntity
  8
0
  6
Continuous
 62
     7
100
AcDbLine
 10
244.5963011372533
 20
254.5528948025944
 30
0.0
 11
243.5103561561336
 21
253.9338443216202
 31
0.0
  0
LINE
  5
3DD
330
71
100
AcDbEntity
  8
0
  6
Continuous
 62
     7
100
AcDbLine
 10
242.9477972725726
 20
257.4447179304593
 30
0.0
 11
244.5963011372533
 21
254.5528948025944
 31
0.0
  0
LINE
  5
3DE
330
71
100
AcDbEntity
  8
0
  6
Continuous
 62
     7
100
AcDbLine
 10
157.0622350164831
 20
253.9278948025944
 30
0.0
 11
161.0622350164831
 21
253.9278948025944
 31
0.0
  0
LINE
  5
3DF
330
71
100
AcDbEntity
  8
0
  6
Continuous
 62
     7
100
AcDbLine
 10
157.0622350164831
 20
254.6439202063784
 30
0.0
 11
161.0622350164831
 21
254.6439202063784
 31
0.0
  0
LINE
  5
3E0
330
71
100
AcDbEntity
  8
1
  6
Continuous
 62
     7
100
AcDbLine
 10
159.5622350164831
 20
371.6997644056132
 30
0.0
 11
158.5622350164831
 21
371.6997644056132
 31
0.0
  0
LINE
  5
3E1
330
71
100
AcDbEntity
  8
1
  6
Continuous
 62
     7
100
AcDbLine
 10
159.5622350164831
 20
371.6997644056132
 30
0.0
 11
159.5622350164831
 21
372.1741744930832
 31
0.0
  0
LINE
  5
3E2
330
71
100
AcDbEntity
  8
1
  6
Continuous
 62
     7
100
AcDbLine
 10
158.5622350164831
 20
371.6997644056132
 30
0.0
 11
158.5622350164831
 21
372.1741744930832
 31
0.0
  0
ARC
  5
3E3
330
71
100
AcDbEntity
  8
0
  6
Continuous
 62
     7
100
AcDbCircle
 10
243.3617840407023
 20
254.1944711170886
 30
0.0
 40
0.3000000000014484
100
AcDbArc
 50
209.6856028294271
 51
299.6856028290168
  0
ENDBLK
  5
73
330
71
100
AcDbEntity
  8
0
100
AcDbBlockEnd
  0
BLOCK
  5
75
330
74
100
AcDbEntity
  8
0
100
AcDbBlockBegin
  2
V972GN-H3
 70
     0
 10
832.9542668694721
 20
265.7115417474633
 30
0.0
  3
V972GN-H3
  1

  0
ARC
  5
3E4
330
74
100
AcDbEntity
  8
0
  6
Continuous
 62
     7
100
AcDbCircle
 10
159.0622350164831
 20
279.2115417474633
 30
0.0
 40
11.50000000000264
100
AcDbArc
 50
328.5851825382127
 51
0.0
  0
ARC
  5
3E5
330
74
100
AcDbEntity
  8
0
  6
Continuous
 62
     7
100
AcDbCircle
 10
159.0622350164831
 20
279.2115417474633
 30
0.0
 40
8.300000000004285
100
AcDbArc
 50
356.4103667645797
 51
0.0
  0
ARC
  5
3E6
330
74
100
AcDbEntity
  8
0
  6
Continuous
 62
     7
100
AcDbCircle
 10
159.0622350164831
 20
279.2115417474633
 30
0.0
 40
8.2999999999993
100
AcDbArc
 50
0.0
 51
183.5896332354243
  0
ARC
  5
3E7
330
74
100
AcDbEntity
  8
0
  6
Continuous
 62
     7
100
AcDbCircle
 10
159.0622350164831
 20
279.2115417474633
 30
0.0
 40
11.5
100
AcDbArc
 50
0.0
 51
211.4148174618109
  0
ENDBLK
  5
76
330
74
100
AcDbEntity
  8
0
100
AcDbBlockEnd
  0
BLOCK
  5
78
330
77
100
AcDbEntity
  8
0
100
AcDbBlockBegin
  2
V96-3-H1
 70
     0
 10
-1116.337963473139
 20
-69.00910739383244
 30
0.0
  3
V96-3-H1
  1

  0
LINE
  5
3E8
330
77
100
AcDbEntity
  8
1
  6
Continuous
 62
     2
100
AcDbLine
 10
298.6456936603449
 20
253.6615417474623
 30
0.0
 11
308.4373608577735
 21
241.9115417474645
 31
0.0
  0
LINE
  5
3E9
330
77
100
AcDbEntity
  8
1
  6
Continuous
 62
     2
100
AcDbLine
 10
308.2290275131455
 20
253.6615417474623
 30
0.0
 11
298.4373604554221
 21
241.9115419151112
 31
0.0
  0
LINE
  5
3EA
330
77
100
AcDbEntity
  8
0
  6
Continuous
 62
     7
100
AcDbLine
 10
308.4373608577735
 20
253.6615417474623
 30
0.0
 11
308.4373608577735
 21
241.9115417474645
 31
0.0
  0
LINE
  5
3EB
330
77
100
AcDbEntity
  8
0
  6
Continuous
 62
     7
100
AcDbLine
 10
316.4373608577735
 20
253.6615417474623
 30
0.0
 11
316.4373608577735
 21
229.7115417474633
 31
0.0
  0
LINE
  5
3EC
330
77
100
AcDbEntity
  8
0
  6
Continuous
 62
     7
100
AcDbLine
 10
316.4373608577735
 20
254.1615417474623
 30
0.0
 11
316.4373608577735
 21
253.6615417474623
 31
0.0
  0
LINE
  5
3ED
330
77
100
AcDbEntity
  8
0
  6
Continuous
 62
     7
100
AcDbLine
 10
293.3873970294735
 20
254.9115417474645
 30
0.0
 11
294.3873970294735
 21
254.9115417474645
 31
0.0
  0
LINE
  5
3EE
330
77
100
AcDbEntity
  8
0
  6
Continuous
 62
     7
100
AcDbLine
 10
288.9373608577735
 20
241.7615417474635
 30
0.0
 11
288.9373608577735
 21
231.2115417474633
 31
0.0
  0
LINE
  5
3EF
330
77
100
AcDbEntity
  8
0
  6
DASH_CENTER
 62
     2
100
AcDbLine
 10
286.8407934591032
 20
239.2115417474643
 30
0.0
 11
295.6085294171135
 21
239.2115417474643
 31
0.0
  0
LINE
  5
3F0
330
77
100
AcDbEntity
  8
0
  6
Continuous
 62
     7
100
AcDbLine
 10
291.4373608577735
 20
225.7115417474633
 30
0.0
 11
315.4373608577735
 21
225.7115417474633
 31
0.0
  0
LINE
  5
3F1
330
77
100
AcDbEntity
  8
0
  6
Continuous
 62
     2
100
AcDbLine
 10
292.4373608577735
 20
224.0626711223918
 30
0.0
 11
292.4373608577735
 21
226.7115417474633
 31
0.0
  0
LINE
  5
3F2
330
77
100
AcDbEntity
  8
0
  6
Continuous
 62
     2
100
AcDbLine
 10
314.4373608577735
 20
224.0626711223918
 30
0.0
 11
314.4373608577735
 21
226.7115417474633
 31
0.0
  0
LINE
  5
3F3
330
77
100
AcDbEntity
  8
0
  6
Continuous
 62
     7
100
AcDbLine
 10
292.4373608577735
 20
226.7115417474633
 30
0.0
 11
291.4373608577735
 21
225.7115417474633
 31
0.0
  0
LINE
  5
3F4
330
77
100
AcDbEntity
  8
0
  6
Continuous
 62
     7
100
AcDbLine
 10
314.4373608577735
 20
226.7115417474633
 30
0.0
 11
315.4373608577735
 21
225.7115417474633
 31
0.0
  0
LINE
  5
3F5
330
77
100
AcDbEntity
  8
0
  6
Continuous
 62
     7
100
AcDbLine
 10
315.4373608577735
 20
224.0626711223918
 30
0.0
 11
315.4373608577735
 21
225.7115417474633
 31
0.0
  0
LINE
  5
3F6
330
77
100
AcDbEntity
  8
0
  6
Continuous
 62
     7
100
AcDbLine
 10
291.4373608577735
 20
225.7115417474633
 30
0.0
 11
291.4373608577735
 21
224.0626711223918
 31
0.0
  0
LINE
  5
3F7
330
77
100
AcDbEntity
  8
0
  6
Continuous
 62
     7
100
AcDbLine
 10
292.4373608577735
 20
226.7115417474633
 30
0.0
 11
314.4373608577735
 21
226.7115417474633
 31
0.0
  0
LINE
  5
3F8
330
77
100
AcDbEntity
  8
0
  6
Continuous
 62
     7
100
AcDbLine
 10
314.1873608577735
 20
229.2115417474633
 30
0.0
 11
314.1873608577735
 21
226.7115417474633
 31
0.0
  0
LINE
  5
3F9
330
77
100
AcDbEntity
  8
0
  6
Continuous
 62
     7
100
AcDbLine
 10
292.6873608577735
 20
229.2115417474633
 30
0.0
 11
292.6873608577735
 21
226.7115417474633
 31
0.0
  0
LINE
  5
3FA
330
77
100
AcDbEntity
  8
0
  6
Continuous
 62
     7
100
AcDbLine
 10
290.4373608577735
 20
229.7115417474633
 30
0.0
 11
316.4373608577735
 21
229.7115417474633
 31
0.0
  0
LINE
  5
3FB
330
77
100
AcDbEntity
  8
0
  6
Continuous
 62
     7
100
AcDbLine
 10
316.4373608577735
 20
229.7115417474633
 30
0.0
 11
315.9373608577735
 21
229.2115417474633
 31
0.0
  0
LINE
  5
3FC
330
77
100
AcDbEntity
  8
0
  6
Continuous
 62
     7
100
AcDbLine
 10
290.4373608577735
 20
229.7115417474633
 30
0.0
 11
290.9373608577735
 21
229.2115417474633
 31
0.0
  0
LINE
  5
3FD
330
77
100
AcDbEntity
  8
0
  6
Continuous
 62
     7
100
AcDbLine
 10
290.9373608577735
 20
229.2115417474633
 30
0.0
 11
315.9373608577735
 21
229.2115417474633
 31
0.0
  0
LINE
  5
3FE
330
77
100
AcDbEntity
  8
0
  6
Continuous
 62
     7
100
AcDbLine
 10
298.4373608577735
 20
241.9115417474645
 30
0.0
 11
298.4373608577735
 21
253.6615417474623
 31
0.0
  0
LINE
  5
3FF
330
77
100
AcDbEntity
  8
0
  6
Continuous
 62
     7
100
AcDbLine
 10
298.4373608577735
 20
241.9115417474645
 30
0.0
 11
308.4373608577735
 21
241.9115417474645
 31
0.0
  0
LINE
  5
400
330
77
100
AcDbEntity
  8
0
  6
Continuous
 62
     2
100
AcDbLine
 10
148.0622349602131
 20
224.0279529879874
 30
0.0
 11
148.0622349602131
 21
226.7115767994628
 31
0.0
  0
LINE
  5
401
330
77
100
AcDbEntity
  8
0
  6
Continuous
 62
     2
100
AcDbLine
 10
170.0622349602131
 20
224.0626711223918
 30
0.0
 11
170.0622349602131
 21
226.7115767994628
 31
0.0
  0
LINE
  5
402
330
77
100
AcDbEntity
  8
0
  6
Continuous
 62
     7
100
AcDbLine
 10
171.0622349602131
 20
224.055764827342
 30
0.0
 11
171.0622349602131
 21
225.7115767994628
 31
0.0
  0
LINE
  5
403
330
77
100
AcDbEntity
  8
0
  6
Continuous
 62
     7
100
AcDbLine
 10
147.0622349602131
 20
225.7115767994628
 30
0.0
 11
171.0622349602131
 21
225.7115767994628
 31
0.0
  0
LINE
  5
404
330
77
100
AcDbEntity
  8
0
  6
Continuous
 62
     7
100
AcDbLine
 10
148.0622349602131
 20
226.7115767994628
 30
0.0
 11
147.0622349602131
 21
225.7115767994628
 31
0.0
  0
LINE
  5
405
330
77
100
AcDbEntity
  8
0
  6
Continuous
 62
     7
100
AcDbLine
 10
170.0622349602131
 20
226.7115767994628
 30
0.0
 11
171.0622349602131
 21
225.7115767994628
 31
0.0
  0
LINE
  5
406
330
77
100
AcDbEntity
  8
0
  6
Continuous
 62
     7
100
AcDbLine
 10
147.0622349602131
 20
225.7115767994628
 30
0.0
 11
147.0622349602131
 21
224.0557648223498
 31
0.0
  0
LINE
  5
407
330
77
100
AcDbEntity
  8
0
  6
Continuous
 62
     7
100
AcDbLine
 10
148.0622349602131
 20
226.7115767994628
 30
0.0
 11
170.0622349602131
 21
226.7115767994628
 31
0.0
  0
LINE
  5
408
330
77
100
AcDbEntity
  8
0
  6
Continuous
 62
     7
100
AcDbLine
 10
169.8122349602132
 20
229.2115767994628
 30
0.0
 11
169.8122349602131
 21
226.7115767994628
 31
0.0
  0
LINE
  5
409
330
77
100
AcDbEntity
  8
0
  6
Continuous
 62
     7
100
AcDbLine
 10
148.3122349602131
 20
229.2115767994628
 30
0.0
 11
148.3122349602131
 21
226.7115767994628
 31
0.0
  0
LINE
  5
40A
330
77
100
AcDbEntity
  8
0
  6
Continuous
 62
     7
100
AcDbLine
 10
146.0622349602131
 20
229.711576799463
 30
0.0
 11
172.0622349602132
 21
229.7115767994628
 31
0.0
  0
LINE
  5
40B
330
77
100
AcDbEntity
  8
0
  6
Continuous
 62
     7
100
AcDbLine
 10
172.0622349602132
 20
229.7115767994628
 30
0.0
 11
171.5622349602132
 21
229.2115767994628
 31
0.0
  0
LINE
  5
40C
330
77
100
AcDbEntity
  8
0
  6
Continuous
 62
     7
100
AcDbLine
 10
146.0622349602131
 20
229.711576799463
 30
0.0
 11
146.5622349602131
 21
229.2115767994628
 31
0.0
  0
LINE
  5
40D
330
77
100
AcDbEntity
  8
0
  6
Continuous
 62
     7
100
AcDbLine
 10
146.5622349602131
 20
229.2115767994628
 30
0.0
 11
171.5622349602132
 21
229.2115767994628
 31
0.0
  0
LINE
  5
40E
330
77
100
AcDbEntity
  8
0
  6
Continuous
 62
     7
100
AcDbLine
 10
172.0622349602132
 20
230.8615417474643
 30
0.0
 11
172.0622349602132
 21
229.7115767994628
 31
0.0
  0
LINE
  5
40F
330
77
100
AcDbEntity
  8
0
  6
Continuous
 62
     7
100
AcDbLine
 10
146.0622349602131
 20
230.8615417474643
 30
0.0
 11
146.0622349602131
 21
229.711576799463
 31
0.0
  0
ARC
  5
410
330
77
100
AcDbEntity
  8
0
  6
Continuous
 62
     7
100
AcDbCircle
 10
281.4812632968024
 20
239.2115417474643
 30
0.0
 40
13.05609756097914
100
AcDbArc
 50
313.3119772804492
 51
24.22777105675456
  0
ARC
  5
411
330
77
100
AcDbEntity
  8
0
  6
Continuous
 62
     7
100
AcDbCircle
 10
290.4373608577735
 20
231.2115417474633
 30
0.0
 40
1.500000000000002
100
AcDbArc
 50
180.0000030704344
 51
269.9999984648311
  0
ARC
  5
412
330
77
100
AcDbEntity
  8
0
  6
Continuous
 62
     7
100
AcDbCircle
 10
303.4373608577735
 20
253.9115417474645
 30
0.0
 40
12.99999999999975
100
AcDbArc
 50
247.3801331308726
 51
292.6198637986771
  0
ARC
  5
413
330
77
100
AcDbEntity
  8
0
  6
Continuous
 62
     7
100
AcDbCircle
 10
159.0622349602131
 20
232.2115767994628
 30
0.0
 40
1.999999999999927
100
AcDbArc
 50
222.4555112135815
 51
317.5444887864213
  0
ARC
  5
414
330
77
100
AcDbEntity
  8
0
  6
Continuous
 62
     7
100
AcDbCircle
 10
159.0622349602131
 20
239.2115767994636
 30
0.0
 40
9.499999999999956
100
AcDbArc
 50
241.5160879234653
 51
298.4839120765358
  0
ENDBLK
  5
79
330
77
100
AcDbEntity
  8
0
100
AcDbBlockEnd
  0
BLOCK
  5
450
330
449
100
AcDbEntity
  8
0
100
AcDbBlockBegin
  2
*D18
 70
     1
 10
0.0
 20
0.0
 30
0.0
  3
*D18
  1

  0
LINE
  5
44A
330
449
100
AcDbEntity
  8
1
  6
Continuous
 62
     2
100
AcDbLine
 10
82.261993614653
 20
230.8615417474643
 30
0.0
 11
82.261993614653
 21
204.5626711223917
 31
0.0
  0
LINE
  5
44B
330
449
100
AcDbEntity
  8
1
  6
Continuous
 62
     2
100
AcDbLine
 10
116.4622348021221
 20
230.8615417474643
 30
0.0
 11
80.261993614653
 21
230.8615417474643
 31
0.0
  0
LINE
  5
44C
330
449
100
AcDbEntity
  8
1
  6
Continuous
 62
     2
100
AcDbLine
 10
147.0622350174835
 20
204.5626711223917
 30
0.0
 11
80.261993614653
 21
204.5626711223917
 31
0.0
  0
SOLID
  5
44D
330
449
100
AcDbEntity
  8
1
 62
     2
100
AcDbTrace
 10
83.18356109776477
 20
223.8615417474643
 30
0.0
 11
81.34042613154122
 21
223.8615417474643
 31
0.0
 12
82.261993614653
 22
230.8615417474643
 32
0.0
 13
82.261993614653
 23
230.8615417474643
 33
0.0
  0
SOLID
  5
44E
330
449
100
AcDbEntity
  8
1
 62
     2
100
AcDbTrace
 10
81.34042613154122
 20
211.5626711223917
 30
0.0
 11
83.18356109776477
 21
211.5626711223917
 31
0.0
 12
82.261993614653
 22
204.5626711223917
 32
0.0
 13
82.261993614653
 23
204.5626711223917
 33
0.0
  0
MTEXT
  5
44F
330
449
100
AcDbEntity
  8
1
 62
     7
100
AcDbMText
 10
80.261993614653
 20
212.462106434928
 30
0.0
 40
7.0
 41
0.0
 71
     7
 72
     1
  1
26
  7
CONVERTER_15
 11
0.0
 21
1.0
 31
0.0
 73
     1
 44
0.60024009603842
  0
ENDBLK
  5
451
330
449
100
AcDbEntity
  8
0
100
AcDbBlockEnd
  0
BLOCK
  5
45B
330
454
100
AcDbEntity
  8
0
100
AcDbBlockBegin
  2
*D19
 70
     1
 10
0.0
 20
0.0
 30
0.0
  3
*D19
  1

  0
LINE
  5
455
330
454
100
AcDbEntity
  8
1
  6
Continuous
 62
     2
100
AcDbLine
 10
102.261993614653
 20
494.0433134390373
 30
0.0
 11
215.8624764183223
 21
494.0433134390373
 31
0.0
  0
LINE
  5
456
330
454
100
AcDbEntity
  8
1
  6
Continuous
 62
     2
100
AcDbLine
 10
102.261993614653
 20
440.8308073823696
 30
0.0
 11
102.261993614653
 21
496.0433134390373
 31
0.0
  0
LINE
  5
457
330
454
100
AcDbEntity
  8
1
  6
Continuous
 62
     2
100
AcDbLine
 10
215.8624764183223
 20
440.8308073823696
 30
0.0
 11
215.8624764183223
 21
496.0433134390373
 31
0.0
  0
SOLID
  5
458
330
454
100
AcDbEntity
  8
1
 62
     2
100
AcDbTrace
 10
109.261993614653
 20
494.9648809221491
 30
0.0
 11
109.261993614653
 21
493.1217459559256
 31
0.0
 12
102.261993614653
 22
494.0433134390373
 32
0.0
 13
102.261993614653
 23
494.0433134390373
 33
0.0
  0
SOLID
  5
459
330
454
100
AcDbEntity
  8
1
 62
     2
100
AcDbTrace
 10
208.8624764183223
 20
493.1217459559256
 30
0.0
 11
208.8624764183223
 21
494.9648809221491
 31
0.0
 12
215.8624764183223
 22
494.0433134390373
 32
0.0
 13
215.8624764183223
 23
494.0433134390373
 33
0.0
  0
MTEXT
  5
45A
330
454
100
AcDbEntity
  8
1
 62
     7
100
AcDbMText
 10
152.7622350164831
 20
496.0433134390373
 30
0.0
 40
7.0
 41
0.0
 71
     7
 72
     1
  1
114
  7
CONVERTER_15
 11
0.9999999999970619
 21
2.424068405545306E-6
 31
0.0
 73
     1
 44
0.60024009603842
  0
ENDBLK
  5
45C
330
454
100
AcDbEntity
  8
0
100
AcDbBlockEnd
  0
BLOCK
  5
466
330
45F
100
AcDbEntity
  8
0
100
AcDbBlockBegin
  2
*D20
 70
     1
 10
0.0
 20
0.0
 30
0.0
  3
*D20
  1

  0
LINE
  5
460
330
45F
100
AcDbEntity
  8
1
  6
Continuous
 62
     2
100
AcDbLine
 10
275.3873970294734
 20
397.0615417474623
 30
0.0
 11
324.6373608577723
 21
397.0615417474623
 31
0.0
  0
LINE
  5
461
330
45F
100
AcDbEntity
  8
1
  6
Continuous
 62
     2
100
AcDbLine
 10
275.3873970294734
 20
361.0615417474623
 30
0.0
 11
275.3873970294734
 21
399.0615417474623
 31
0.0
  0
LINE
  5
462
330
45F
100
AcDbEntity
  8
1
  6
Continuous
 62
     2
100
AcDbLine
 10
324.6373608577723
 20
350.6615417474636
 30
0.0
 11
324.6373608577723
 21
399.0615417474623
 31
0.0
  0
SOLID
  5
463
330
45F
100
AcDbEntity
  8
1
 62
     2
100
AcDbTrace
 10
282.3873970294734
 20
397.983109230574
 30
0.0
 11
282.3873970294734
 21
396.1399742643505
 31
0.0
 12
275.3873970294734
 22
397.0615417474623
 32
0.0
 13
275.3873970294734
 23
397.0615417474623
 33
0.0
  0
SOLID
  5
464
330
45F
100
AcDbEntity
  8
1
 62
     2
100
AcDbTrace
 10
317.6373608577723
 20
396.1399742643505
 30
0.0
 11
317.6373608577723
 21
397.983109230574
 31
0.0
 12
324.6373608577723
 22
397.0615417474623
 32
0.0
 13
324.6373608577723
 23
397.0615417474623
 33
0.0
  0
MTEXT
  5
465
330
45F
100
AcDbEntity
  8
1
 62
     7
100
AcDbMText
 10
294.7623789436229
 20
399.0615417474623
 30
0.0
 40
7.0
 41
0.0
 71
     7
 72
     1
  1
50
  7
CONVERTER_15
 11
0.9999999999970619
 21
2.424068405545306E-6
 31
0.0
 73
     1
 44
0.60024009603842
  0
ENDBLK
  5
467
330
45F
100
AcDbEntity
  8
0
100
AcDbBlockEnd
  0
BLOCK
  5
473
330
46A
100
AcDbEntity
  8
0
100
AcDbBlockBegin
  2
*D21
 70
     1
 10
0.0
 20
0.0
 30
0.0
  3
*D21
  1

  0
LINE
  5
46B
330
46A
100
AcDbEntity
  8
1
  6
Continuous
 62
     2
100
AcDbLine
 10
268.6373970294735
 20
381.0615417474623
 30
0.0
 11
254.6373970294735
 21
381.0615417474623
 31
0.0
  0
LINE
  5
46C
330
46A
100
AcDbEntity
  8
1
  6
Continuous
 62
     2
100
AcDbLine
 10
275.3873970294735
 20
381.0615417474623
 30
0.0
 11
268.6373970294735
 21
381.0615417474623
 31
0.0
  0
LINE
  5
46D
330
46A
100
AcDbEntity
  8
1
  6
Continuous
 62
     2
100
AcDbLine
 10
289.3873970294735
 20
381.0615417474623
 30
0.0
 11
275.3873970294735
 21
381.0615417474623
 31
0.0
  0
LINE
  5
46E
330
46A
100
AcDbEntity
  8
1
  6
Continuous
 62
     2
100
AcDbLine
 10
275.3873970294735
 20
361.0615417474623
 30
0.0
 11
275.3873970294735
 21
383.0615417474623
 31
0.0
  0
LINE
  5
46F
330
46A
100
AcDbEntity
  8
1
  6
Continuous
 62
     2
100
AcDbLine
 10
268.6373970294735
 20
359.0615417474623
 30
0.0
 11
268.6373970294735
 21
383.0615417474623
 31
0.0
  0
SOLID
  5
470
330
46A
100
AcDbEntity
  8
1
 62
     2
100
AcDbTrace
 10
282.3873970294735
 20
381.983109230574
 30
0.0
 11
282.3873970294735
 21
380.1399742643505
 31
0.0
 12
275.3873970294735
 22
381.0615417474623
 32
0.0
 13
275.3873970294735
 23
381.0615417474623
 33
0.0
  0
SOLID
  5
471
330
46A
100
AcDbEntity
  8
1
 62
     2
100
AcDbTrace
 10
261.6373970294735
 20
380.1399742643505
 30
0.0
 11
261.6373970294735
 21
381.983109230574
 31
0.0
 12
268.6373970294735
 22
381.0615417474623
 32
0.0
 13
268.6373970294735
 23
381.0615417474623
 33
0.0
  0
MTEXT
  5
472
330
46A
100
AcDbEntity
  8
1
 62
     7
100
AcDbMText
 10
254.8657889079535
 20
383.0615417474623
 30
0.0
 40
7.0
 41
0.0
 71
     7
 72
     1
  1
7
  7
CONVERTER_15
 11
0.9999999999970619
 21
2.424068405545306E-6
 31
0.0
 73
     1
 44
0.60024009603842
  0
ENDBLK
  5
474
330
46A
100
AcDbEntity
  8
0
100
AcDbBlockEnd
  0
BLOCK
  5
47D
330
477
100
AcDbEntity
  8
0
100
AcDbBlockBegin
  2
*D22
 70
     1
 10
0.0
 20
0.0
 30
0.0
  3
*D22
  1

  0
LINE
  5
478
330
477
100
AcDbEntity
  8
1
  6
Continuous
 62
     2
100
AcDbLine
 10
275.3873970294735
 20
381.0615417474623
 30
0.0
 11
303.4373608577735
 21
381.0615417474623
 31
0.0
  0
LINE
  5
479
330
477
100
AcDbEntity
  8
1
  6
Continuous
 62
     2
100
AcDbLine
 10
303.4373608577735
 20
341.8766310846544
 30
0.0
 11
303.4373608577735
 21
383.0615417474623
 31
0.0
  0
LINE
  5
47A
330
477
100
AcDbEntity
  8
1
  6
Continuous
 62
     2
100
AcDbLine
 10
275.3873970294735
 20
361.0615417474623
 30
0.0
 11
275.3873970294735
 21
383.0615417474623
 31
0.0
  0
SOLID
  5
47B
330
477
100
AcDbEntity
  8
1
 62
     2
100
AcDbTrace
 10
296.4373608577735
 20
380.1399742643505
 30
0.0
 11
296.4373608577735
 21
381.983109230574
 31
0.0
 12
303.4373608577735
 22
381.0615417474623
 32
0.0
 13
303.4373608577735
 23
381.0615417474623
 33
0.0
  0
MTEXT
  5
47C
330
477
100
AcDbEntity
  8
1
 62
     7
100
AcDbMText
 10
284.1623789436235
 20
383.0615417474623
 30
0.0
 40
7.0
 41
0.0
 71
     7
 72
     1
  1
29
  7
CONVERTER_15
 11
0.9999999999970619
 21
2.424068405545306E-6
 31
0.0
 73
     1
 44
0.60024009603842
  0
ENDBLK
  5
47E
330
477
100
AcDbEntity
  8
0
100
AcDbBlockEnd
  0
BLOCK
  5
480
330
47F
100
AcDbEntity
  8
0
100
AcDbBlockBegin
  2
_NONE
 70
     0
 10
0.0
 20
0.0
 30
0.0
  3
_NONE
  1

  0
ENDBLK
  5
481
330
47F
100
AcDbEntity
  8
0
100
AcDbBlockEnd
  0
BLOCK
  5
48B
330
484
100
AcDbEntity
  8
0
100
AcDbBlockBegin
  2
*D24
 70
     1
 10
0.0
 20
0.0
 30
0.0
  3
*D24
  1

  0
LINE
  5
485
330
484
100
AcDbEntity
  8
1
  6
Continuous
 62
     2
100
AcDbLine
 10
108.4622350164827
 20
184.5626711223918
 30
0.0
 11
209.6622350164835
 21
184.5626711223918
 31
0.0
  0
LINE
  5
486
330
484
100
AcDbEntity
  8
1
  6
Continuous
 62
     2
100
AcDbLine
 10
209.6622350164835
 20
238.8615417474643
 30
0.0
 11
209.6622350164835
 21
182.5626711223918
 31
0.0
  0
LINE
  5
487
330
484
100
AcDbEntity
  8
1
  6
Continuous
 62
     2
100
AcDbLine
 10
108.4622350164827
 20
238.8615417474643
 30
0.0
 11
108.4622350164827
 21
182.5626711223918
 31
0.0
  0
SOLID
  5
488
330
484
100
AcDbEntity
  8
1
 62
     2
100
AcDbTrace
 10
115.4622350164827
 20
185.4842386055036
 30
0.0
 11
115.4622350164827
 21
183.64110363928
 31
0.0
 12
108.4622350164827
 22
184.5626711223918
 32
0.0
 13
108.4622350164827
 23
184.5626711223918
 33
0.0
  0
SOLID
  5
489
330
484
100
AcDbEntity
  8
1
 62
     2
100
AcDbTrace
 10
202.6622350164835
 20
183.64110363928
 30
0.0
 11
202.6622350164835
 21
185.4842386055036
 31
0.0
 12
209.6622350164835
 22
184.5626711223918
 32
0.0
 13
209.6622350164835
 23
184.5626711223918
 33
0.0
  0
MTEXT
  5
48A
330
484
100
AcDbEntity
  8
1
 62
     7
100
AcDbMText
 10
151.7122350164831
 20
186.5626711223918
 30
0.0
 40
7.0
 41
0.0
 71
     7
 72
     1
  1
102
  7
CONVERTER_15
 11
0.9999999999970619
 21
2.424068405545306E-6
 31
0.0
 73
     1
 44
0.60024009603842
  0
ENDBLK
  5
48C
330
484
100
AcDbEntity
  8
0
100
AcDbBlockEnd
  0
BLOCK
  5
496
330
48F
100
AcDbEntity
  8
0
100
AcDbBlockBegin
  2
*D25
 70
     1
 10
0.0
 20
0.0
 30
0.0
  3
*D25
  1

  0
LINE
  5
490
330
48F
100
AcDbEntity
  8
1
  6
Continuous
 62
     2
100
AcDbLine
 10
82.261993614653
 20
361.0615417474623
 30
0.0
 11
82.261993614653
 21
230.8615417474643
 31
0.0
  0
LINE
  5
491
330
48F
100
AcDbEntity
  8
1
  6
Continuous
 62
     2
100
AcDbLine
 10
116.4622350164827
 20
361.0615417474623
 30
0.0
 11
80.261993614653
 21
361.0615417474623
 31
0.0
  0
LINE
  5
492
330
48F
100
AcDbEntity
  8
1
  6
Continuous
 62
     2
100
AcDbLine
 10
116.4622350164827
 20
230.8615417474643
 30
0.0
 11
80.261993614653
 21
230.8615417474643
 31
0.0
  0
SOLID
  5
493
330
48F
100
AcDbEntity
  8
1
 62
     2
100
AcDbTrace
 10
83.18356109776477
 20
354.0615417474623
 30
0.0
 11
81.34042613154122
 21
354.0615417474623
 31
0.0
 12
82.261993614653
 22
361.0615417474623
 32
0.0
 13
82.261993614653
 23
361.0615417474623
 33
0.0
  0
SOLID
  5
494
330
48F
100
AcDbEntity
  8
1
 62
     2
100
AcDbTrace
 10
81.34042613154122
 20
237.8615417474643
 30
0.0
 11
83.18356109776477
 21
237.8615417474643
 31
0.0
 12
82.261993614653
 22
230.8615417474643
 32
0.0
 13
82.261993614653
 23
230.8615417474643
 33
0.0
  0
MTEXT
  5
495
330
48F
100
AcDbEntity
  8
1
 62
     7
100
AcDbMText
 10
80.261993614653
 20
289.6615417474633
 30
0.0
 40
7.0
 41
0.0
 71
     7
 72
     1
  1
131
  7
CONVERTER_15
 11
0.0
 21
1.0
 31
0.0
 73
     1
 44
0.60024009603842
  0
ENDBLK
  5
497
330
48F
100
AcDbEntity
  8
0
100
AcDbBlockEnd
  0
BLOCK
  5
4A1
330
49A
100
AcDbEntity
  8
0
100
AcDbBlockBegin
  2
*D26
 70
     1
 10
0.0
 20
0.0
 30
0.0
  3
*D26
  1

  0
LINE
  5
49B
330
49A
100
AcDbEntity
  8
1
  6
Continuous
 62
     2
100
AcDbLine
 10
235.8624764183223
 20
408.5433134390374
 30
0.0
 11
235.8624764183223
 21
439.8308073823696
 31
0.0
  0
LINE
  5
49C
330
49A
100
AcDbEntity
  8
1
  6
Continuous
 62
     2
100
AcDbLine
 10
209.6622350164834
 20
408.5433134390374
 30
0.0
 11
237.8624764183223
 21
408.5433134390374
 31
0.0
  0
LINE
  5
49D
330
49A
100
AcDbEntity
  8
1
  6
Continuous
 62
     2
100
AcDbLine
 10
215.8624764183223
 20
439.8308073823696
 30
0.0
 11
237.8624764183223
 21
439.8308073823696
 31
0.0
  0
SOLID
  5
49E
330
49A
100
AcDbEntity
  8
1
 62
     2
100
AcDbTrace
 10
234.9409089352105
 20
415.5433134390374
 30
0.0
 11
236.7840439014341
 21
415.5433134390374
 31
0.0
 12
235.8624764183223
 22
408.5433134390374
 32
0.0
 13
235.8624764183223
 23
408.5433134390374
 33
0.0
  0
SOLID
  5
49F
330
49A
100
AcDbEntity
  8
1
 62
     2
100
AcDbTrace
 10
236.7840439014341
 20
432.8308073823696
 30
0.0
 11
234.9409089352105
 21
432.8308073823696
 31
0.0
 12
235.8624764183223
 22
439.8308073823696
 32
0.0
 13
235.8624764183223
 23
439.8308073823696
 33
0.0
  0
MTEXT
  5
4A0
330
49A
100
AcDbEntity
  8
1
 62
     7
100
AcDbMText
 10
233.8624764183223
 20
413.3370604107035
 30
0.0
 40
7.0
 41
0.0
 71
     7
 72
     1
  1
8～15
  7
CONVERTER_11
 11
0.0
 21
1.0
 31
0.0
 73
     1
 44
0.45454545454545
  0
ENDBLK
  5
4A2
330
49A
100
AcDbEntity
  8
0
100
AcDbBlockEnd
  0
BLOCK
  5
4AC
330
4A5
100
AcDbEntity
  8
0
100
AcDbBlockBegin
  2
*D27
 70
     1
 10
0.0
 20
0.0
 30
0.0
  3
*D27
  1

  0
LINE
  5
4A6
330
4A5
100
AcDbEntity
  8
1
  6
Continuous
 62
     2
100
AcDbLine
 10
275.3873970294735
 20
210.8615417474643
 30
0.0
 11
238.5441807864336
 21
210.8615417474643
 31
0.0
  0
LINE
  5
4A7
330
4A5
100
AcDbEntity
  8
1
  6
Continuous
 62
     2
100
AcDbLine
 10
275.3873970294735
 20
230.8615417474643
 30
0.0
 11
275.3873970294735
 21
208.8615417474643
 31
0.0
  0
LINE
  5
4A8
330
4A5
100
AcDbEntity
  8
1
  6
Continuous
 62
     2
100
AcDbLine
 10
238.5441807864336
 20
259.1119248119544
 30
0.0
 11
238.5441807864336
 21
208.8615417474643
 31
0.0
  0
SOLID
  5
4A9
330
4A5
100
AcDbEntity
  8
1
 62
     2
100
AcDbTrace
 10
268.3873970294735
 20
209.9399742643525
 30
0.0
 11
268.3873970294735
 21
211.7831092305761
 31
0.0
 12
275.3873970294735
 22
210.8615417474643
 32
0.0
 13
275.3873970294735
 23
210.8615417474643
 33
0.0
  0
SOLID
  5
4AA
330
4A5
100
AcDbEntity
  8
1
 62
     2
100
AcDbTrace
 10
245.5441807864336
 20
211.7831092305761
 30
0.0
 11
245.5441807864336
 21
209.9399742643525
 31
0.0
 12
238.5441807864336
 22
210.8615417474643
 32
0.0
 13
238.5441807864336
 23
210.8615417474643
 33
0.0
  0
MTEXT
  5
4AB
330
4A5
100
AcDbEntity
  8
1
 62
     7
100
AcDbMText
 10
251.7157889079535
 20
212.8615417474643
 30
0.0
 40
7.0
 41
0.0
 71
     7
 72
     1
  1
37
  7
CONVERTER_15
 11
0.9999999999970619
 21
2.424068405545306E-6
 31
0.0
 73
     1
 44
0.60024009603842
  0
ENDBLK
  5
4AD
330
4A5
100
AcDbEntity
  8
0
100
AcDbBlockEnd
  0
BLOCK
  5
4B7
330
4B0
100
AcDbEntity
  8
0
100
AcDbBlockBegin
  2
*D28
 70
     1
 10
0.0
 20
0.0
 30
0.0
  3
*D28
  1

  0
LINE
  5
4B1
330
4B0
100
AcDbEntity
  8
1
  6
Continuous
 62
     2
100
AcDbLine
 10
117.4622350164827
 20
478.0433134390373
 30
0.0
 11
200.6622350164835
 21
478.0433134390373
 31
0.0
  0
LINE
  5
4B2
330
4B0
100
AcDbEntity
  8
1
  6
Continuous
 62
     2
100
AcDbLine
 10
117.4622350164827
 20
457.0433134390373
 30
0.0
 11
117.4622350164827
 21
480.0433134390373
 31
0.0
  0
LINE
  5
4B3
330
4B0
100
AcDbEntity
  8
1
  6
Continuous
 62
     2
100
AcDbLine
 10
200.6622350164835
 20
457.0433134390373
 30
0.0
 11
200.6622350164835
 21
480.0433134390373
 31
0.0
  0
SOLID
  5
4B4
330
4B0
100
AcDbEntity
  8
1
 62
     2
100
AcDbTrace
 10
124.4622350164827
 20
478.9648809221491
 30
0.0
 11
124.4622350164827
 21
477.1217459559256
 31
0.0
 12
117.4622350164827
 22
478.0433134390373
 32
0.0
 13
117.4622350164827
 23
478.0433134390373
 33
0.0
  0
SOLID
  5
4B5
330
4B0
100
AcDbEntity
  8
1
 62
     2
100
AcDbTrace
 10
193.6622350164835
 20
477.1217459559256
 30
0.0
 11
193.6622350164835
 21
478.9648809221491
 31
0.0
 12
200.6622350164835
 22
478.0433134390373
 32
0.0
 13
200.6622350164835
 23
478.0433134390373
 33
0.0
  0
MTEXT
  5
4B6
330
4B0
100
AcDbEntity
  8
1
 62
     7
100
AcDbMText
 10
130.3622350164831
 20
480.0433134390373
 30
0.0
 40
7.0
 41
0.0
 71
     7
 72
     1
  1
84(開口寸法86)
  7
CONVERTER_11
 11
0.9999999999970619
 21
2.424068405545306E-6
 31
0.0
 73
     1
 44
0.45454545454545
  0
ENDBLK
  5
4B8
330
4B0
100
AcDbEntity
  8
0
100
AcDbBlockEnd
  0
BLOCK
  5
4C2
330
4BB
100
AcDbEntity
  8
0
100
AcDbBlockBegin
  2
*D29
 70
     1
 10
0.0
 20
0.0
 30
0.0
  3
*D29
  1

  0
LINE
  5
4BC
330
4BB
100
AcDbEntity
  8
1
  6
Continuous
 62
     2
100
AcDbLine
 10
353.5237957101235
 20
241.2615417474636
 30
0.0
 11
353.5237957101235
 21
353.1615417474637
 31
0.0
  0
LINE
  5
4BD
330
4BB
100
AcDbEntity
  8
1
  6
Continuous
 62
     2
100
AcDbLine
 10
293.3873970294735
 20
241.2615417474636
 30
0.0
 11
355.5237957101235
 21
241.2615417474636
 31
0.0
  0
LINE
  5
4BE
330
4BB
100
AcDbEntity
  8
1
  6
Continuous
 62
     2
100
AcDbLine
 10
322.6373608577724
 20
353.1615417474637
 30
0.0
 11
355.5237957101235
 21
353.1615417474637
 31
0.0
  0
SOLID
  5
4BF
330
4BB
100
AcDbEntity
  8
1
 62
     2
100
AcDbTrace
 10
352.6022282270118
 20
248.2615417474636
 30
0.0
 11
354.4453631932353
 21
248.2615417474636
 31
0.0
 12
353.5237957101235
 22
241.2615417474636
 32
0.0
 13
353.5237957101235
 23
241.2615417474636
 33
0.0
  0
SOLID
  5
4C0
330
4BB
100
AcDbEntity
  8
1
 62
     2
100
AcDbTrace
 10
354.4453631932353
 20
346.1615417474637
 30
0.0
 11
352.6022282270118
 21
346.1615417474637
 31
0.0
 12
353.5237957101235
 22
353.1615417474637
 32
0.0
 13
353.5237957101235
 23
353.1615417474637
 33
0.0
  0
MTEXT
  5
4C1
330
4BB
100
AcDbEntity
  8
1
 62
     7
100
AcDbMText
 10
351.5237957101235
 20
266.4115417474636
 30
0.0
 40
7.0
 41
0.0
 71
     7
 72
     1
  1
112(開口寸法115)
  7
CONVERTER_11
 11
0.0
 21
1.0
 31
0.0
 73
     1
 44
0.45454545454545
  0
ENDBLK
  5
4C3
330
4BB
100
AcDbEntity
  8
0
100
AcDbBlockEnd
  0
BLOCK
  5
4CD
330
4C6
100
AcDbEntity
  8
0
100
AcDbBlockBegin
  2
*D30
 70
     1
 10
0.0
 20
0.0
 30
0.0
  3
*D30
  1

  0
LINE
  5
4C7
330
4C6
100
AcDbEntity
  8
1
  6
Continuous
 62
     2
100
AcDbLine
 10
353.5237957101235
 20
241.2615417474635
 30
0.0
 11
353.5237957101235
 21
204.5626711223918
 31
0.0
  0
LINE
  5
4C8
330
4C6
100
AcDbEntity
  8
1
  6
Continuous
 62
     2
100
AcDbLine
 10
315.4373608567821
 20
204.5626711223918
 30
0.0
 11
355.5237957101235
 21
204.5626711223918
 31
0.0
  0
LINE
  5
4C9
330
4C6
100
AcDbEntity
  8
1
  6
Continuous
 62
     2
100
AcDbLine
 10
293.3873970294735
 20
241.2615417474635
 30
0.0
 11
355.5237957101235
 21
241.2615417474635
 31
0.0
  0
SOLID
  5
4CA
330
4C6
100
AcDbEntity
  8
1
 62
     2
100
AcDbTrace
 10
354.4453631932353
 20
234.2615417474635
 30
0.0
 11
352.6022282270118
 21
234.2615417474635
 31
0.0
 12
353.5237957101235
 22
241.2615417474635
 32
0.0
 13
353.5237957101235
 23
241.2615417474635
 33
0.0
  0
SOLID
  5
4CB
330
4C6
100
AcDbEntity
  8
1
 62
     2
100
AcDbTrace
 10
352.6022282270118
 20
211.5626711223918
 30
0.0
 11
354.4453631932353
 21
211.5626711223918
 31
0.0
 12
353.5237957101235
 22
204.5626711223918
 32
0.0
 13
353.5237957101235
 23
204.5626711223918
 33
0.0
  0
MTEXT
  5
4CC
330
4C6
100
AcDbEntity
  8
1
 62
     7
100
AcDbMText
 10
351.5237957101235
 20
217.6621064349277
 30
0.0
 40
7.0
 41
0.0
 71
     7
 72
     1
  1
37
  7
CONVERTER_15
 11
0.0
 21
1.0
 31
0.0
 73
     1
 44
0.60024009603842
  0
ENDBLK
  5
4CE
330
4C6
100
AcDbEntity
  8
0
100
AcDbBlockEnd
  0
BLOCK
  5
4DA
330
4D1
100
AcDbEntity
  8
0
100
AcDbBlockBegin
  2
*D31
 70
     1
 10
0.0
 20
0.0
 30
0.0
  3
*D31
  1

  0
LINE
  5
4D2
330
4D1
100
AcDbEntity
  8
1
  6
Continuous
 62
     2
100
AcDbLine
 10
353.5237957101235
 20
501.4491140017985
 30
0.0
 11
353.5237957101235
 21
515.4491140017985
 31
0.0
  0
LINE
  5
4D3
330
4D1
100
AcDbEntity
  8
1
  6
Continuous
 62
     2
100
AcDbLine
 10
353.5237957101235
 20
482.2091140017983
 30
0.0
 11
353.5237957101235
 21
501.4491140017985
 31
0.0
  0
LINE
  5
4D4
330
4D1
100
AcDbEntity
  8
1
  6
Continuous
 62
     2
100
AcDbLine
 10
353.5237957101235
 20
468.2091140017983
 30
0.0
 11
353.5237957101235
 21
482.2091140017983
 31
0.0
  0
LINE
  5
4D5
330
4D1
100
AcDbEntity
  8
1
  6
Continuous
 62
     2
100
AcDbLine
 10
330.0737957101228
 20
482.2091140017983
 30
0.0
 11
355.5237957101235
 21
482.2091140017983
 31
0.0
  0
LINE
  5
4D6
330
4D1
100
AcDbEntity
  8
1
  6
Continuous
 62
     2
100
AcDbLine
 10
333.5237957101235
 20
501.4491140017985
 30
0.0
 11
355.5237957101235
 21
501.4491140017985
 31
0.0
  0
SOLID
  5
4D7
330
4D1
100
AcDbEntity
  8
1
 62
     2
100
AcDbTrace
 10
354.4453631932353
 20
475.2091140017983
 30
0.0
 11
352.6022282270118
 21
475.2091140017983
 31
0.0
 12
353.5237957101235
 22
482.2091140017983
 32
0.0
 13
353.5237957101235
 23
482.2091140017983
 33
0.0
  0
SOLID
  5
4D8
330
4D1
100
AcDbEntity
  8
1
 62
     2
100
AcDbTrace
 10
352.6022282270118
 20
508.4491140017985
 30
0.0
 11
354.4453631932353
 21
508.4491140017985
 31
0.0
 12
353.5237957101235
 22
501.4491140017985
 32
0.0
 13
353.5237957101235
 23
501.4491140017985
 33
0.0
  0
MTEXT
  5
4D9
330
4D1
100
AcDbEntity
  8
1
 62
     7
100
AcDbMText
 10
351.5237957101235
 20
487.6291140017984
 30
0.0
 40
7.0
 41
0.0
 71
     7
 72
     1
  1
19
  7
CONVERTER_15
 11
0.0
 21
1.0
 31
0.0
 73
     1
 44
0.60024009603842
  0
ENDBLK
  5
4DB
330
4D1
100
AcDbEntity
  8
0
100
AcDbBlockEnd
  0
BLOCK
  5
4E7
330
4DE
100
AcDbEntity
  8
0
100
AcDbBlockBegin
  2
*D32
 70
     1
 10
0.0
 20
0.0
 30
0.0
  3
*D32
  1

  0
LINE
  5
4DF
330
4DE
100
AcDbEntity
  8
0
  6
Continuous
 62
     2
100
AcDbLine
 10
227.8129638277155
 20
304.5028992779229
 30
0.0
 11
245.9377845524897
 21
273.1097889045398
 31
0.0
  0
LINE
  5
4E0
330
4DE
100
AcDbEntity
  8
0
  6
Continuous
 62
     2
100
AcDbLine
 10
245.9377845524897
 20
273.1097889045398
 30
0.0
 11
253.78778455249
 21
259.5131900651248
 31
0.0
  0
LINE
  5
4E1
330
4DE
100
AcDbEntity
  8
0
  6
Continuous
 62
     2
100
AcDbLine
 10
253.78778455249
 20
259.5131900651248
 30
0.0
 11
260.7877845524905
 21
247.3888344121429
 31
0.0
  0
LINE
  5
4E2
330
4DE
100
AcDbEntity
  8
0
  6
Continuous
 62
     2
100
AcDbLine
 10
251.8217286861634
 20
258.3780871814592
 30
0.0
 11
255.5198353600588
 21
260.5131900651248
 31
0.0
  0
LINE
  5
4E3
330
4DE
100
AcDbEntity
  8
0
  6
Continuous
 62
     2
100
AcDbLine
 10
243.9717286861632
 20
271.9746860208743
 30
0.0
 11
247.6698353600585
 21
274.1097889045398
 31
0.0
  0
SOLID
  5
4E4
330
4DE
100
AcDbEntity
  8
0
 62
     2
100
AcDbTrace
 10
241.639683700813
 20
278.7111829894748
 30
0.0
 11
243.2358854041659
 21
279.6327504725866
 31
0.0
 12
245.9377845524897
 22
273.1097889045398
 32
0.0
 13
245.9377845524897
 23
273.1097889045398
 33
0.0
  0
SOLID
  5
4E5
330
4DE
100
AcDbEntity
  8
0
 62
     2
100
AcDbTrace
 10
258.0858854041667
 20
253.9117959801897
 30
0.0
 11
256.4896837008137
 21
252.9902284970779
 31
0.0
 12
253.78778455249
 22
259.5131900651248
 32
0.0
 13
253.78778455249
 23
259.5131900651248
 33
0.0
  0
MTEXT
  5
4E6
330
4DE
100
AcDbEntity
  8
0
 62
     7
100
AcDbMText
 10
231.4812324179335
 20
303.5492717038565
 30
0.0
 40
7.0
 41
0.0
 71
     7
 72
     1
  1
\C7;{\Fgdt;n}\C7;15,7
  7
CONVERTER_15
 11
0.5000000000000354
 21
-0.8660254037844179
 31
0.0
 73
     1
 44
0.60024009603842
  0
ENDBLK
  5
4E8
330
4DE
100
AcDbEntity
  8
0
100
AcDbBlockEnd
  0
ENDSEC
  0
SECTION
  2
ENTITIES
  0
INSERT
  5
7A
330
1F
100
AcDbEntity
  8
1
100
AcDbBlockReference
  2
開示A4
 10
0.0
 20
0.0
 30
0.0
 41
2.0
 42
2.0
 43
2.0
  0
INSERT
  5
7B
330
1F
100
AcDbEntity
  8
1
100
AcDbBlockReference
  2
T601-3-H4
 10
73.82370804517268
 20
-88.67054073931558
 30
0.0
  0
INSERT
  5
7C
330
1F
100
AcDbEntity
  8
0
100
AcDbBlockReference
  2
V097-H7A
 10
-5.68561283632698
 20
935.8037120855315
 30
0.0
  0
INSERT
  5
7D
330
1F
100
AcDbEntity
  8
0
100
AcDbBlockReference
  2
88-249
 10
421.0985433293336
 20
528.5003571639872
 30
0.0
  0
INSERT
  5
7E
330
1F
100
AcDbEntity
  8
0
100
AcDbBlockReference
  2
V97-30-Z1__1
 10
523.5237957101235
 20
279.2091140017974
 30
0.0
  0
INSERT
  5
7F
330
1F
100
AcDbEntity
  8
0
100
AcDbBlockReference
  2
V97-30-Z1__2
 10
533.5237957101235
 20
279.2091140017974
 30
0.0
  0
INSERT
  5
80
330
1F
100
AcDbEntity
  8
0
100
AcDbBlockReference
  2
V97-H11
 10
862.3280369887525
 20
719.7110138622475
 30
0.0
  0
INSERT
  5
81
330
1F
100
AcDbEntity
  8
0
100
AcDbBlockReference
  2
V97-H12
 10
926.2785367806628
 20
144.0742841342594
 30
0.0
  0
INSERT
  5
82
330
1F
100
AcDbEntity
  8
1
100
AcDbBlockReference
  2
BIS
 10
293.3873970294735
 20
270.9115417474623
 30
0.0
  0
INSERT
  5
83
330
1F
100
AcDbEntity
  8
1
100
AcDbBlockReference
  2
BIS2
 10
322.4373608577735
 20
275.6615417474623
 30
0.0
  0
INSERT
  5
84
330
1F
100
AcDbEntity
  8
0
100
AcDbBlockReference
  2
V97D-H1
 10
267.7428990394928
 20
584.3655894582525
 30
0.0
  0
INSERT
  5
85
330
1F
100
AcDbEntity
  8
0
100
AcDbBlockReference
  2
V972GN-H6
 10
670.1942668694719
 20
-318.0449149465708
 30
0.0
  0
INSERT
  5
86
330
1F
100
AcDbEntity
  8
0
100
AcDbBlockReference
  2
V972GN-H2
 10
912.1984615885431
 20
258.3780871814583
 30
0.0
  0
INSERT
  5
87
330
1F
100
AcDbEntity
  8
0
100
AcDbBlockReference
  2
V97G-H2
 10
720.2493527503229
 20
143.8266458540315
 30
0.0
  0
INSERT
  5
88
330
1F
100
AcDbEntity
  8
0
100
AcDbBlockReference
  2
V97G-H3
 10
674.8123589812221
 20
507.5387685545484
 30
0.0
  0
INSERT
  5
89
330
1F
100
AcDbEntity
  8
0
100
AcDbBlockReference
  2
V972GN-H3
 10
832.9542668694721
 20
265.7115417474633
 30
0.0
  0
INSERT
  5
8A
330
1F
100
AcDbEntity
  8
0
100
AcDbBlockReference
  2
V96-3-H1
 10
-1116.337963473139
 20
-69.00910739383244
 30
0.0
  0
LINE
  5
415
330
1F
100
AcDbEntity
  8
1
  6
DASH_CENTER
 62
     2
100
AcDbLine
 10
181.6622350164835
 20
434.8719095362562
 30
0.0
 11
181.6622350164835
 21
443.1933950724924
 31
0.0
  0
LINE
  5
416
330
1F
100
AcDbEntity
  8
1
  6
DASH_CENTER
 62
     2
100
AcDbLine
 10
185.8336389192627
 20
439.0433134390373
 30
0.0
 11
177.5121533830334
 21
439.0433134390373
 31
0.0
  0
LINE
  5
417
330
1F
100
AcDbEntity
  8
1
  6
DASH_CENTER
 62
     2
100
AcDbLine
 10
140.633638919262
 20
439.0433134390373
 30
0.0
 11
132.3121533830326
 21
439.0433134390373
 31
0.0
  0
LINE
  5
418
330
1F
100
AcDbEntity
  8
1
  6
DASH_CENTER
 62
     2
100
AcDbLine
 10
136.4622350164827
 20
434.8719095362562
 30
0.0
 11
136.4622350164827
 21
443.1933950724924
 31
0.0
  0
LINE
  5
419
330
1F
100
AcDbEntity
  8
0
  6
DASH_CENTER
 62
     2
100
AcDbLine
 10
296.5835132804823
 20
298.4296566628445
 30
0.0
 11
296.5835132804823
 21
291.3299473204656
 31
0.0
  0
LINE
  5
41A
330
1F
100
AcDbEntity
  8
0
  6
DASH_CENTER
 62
     2
100
AcDbLine
 10
289.2417177266634
 20
294.9115417474623
 30
0.0
 11
316.5232560006734
 21
294.9115417474623
 31
0.0
  0
LINE
  5
41B
330
1F
100
AcDbEntity
  8
1
  6
DASH_CENTER
 62
     2
100
AcDbLine
 10
330.0737957101228
 20
507.4491140017985
 30
0.0
 11
330.0737957101228
 21
476.2091140017983
 31
0.0
  0
LINE
  5
41C
330
1F
100
AcDbEntity
  8
1
  6
DASH_CENTER
 62
     2
100
AcDbLine
 10
320.0737957101228
 20
507.4491140017985
 30
0.0
 11
320.0737957101228
 21
476.2091140017983
 31
0.0
  0
LINE
  5
41D
330
1F
100
AcDbEntity
  8
0
  6
DASH_CENTER
 62
     2
100
AcDbLine
 10
148.8122350164831
 20
326.3115417474633
 30
0.0
 11
138.5622350164831
 21
326.3115417474633
 31
0.0
  0
LINE
  5
41E
330
1F
100
AcDbEntity
  8
0
  6
DASH_CENTER
 62
     2
100
AcDbLine
 10
179.5622350164831
 20
326.3115417474633
 30
0.0
 11
148.5123355638625
 21
326.3115417474633
 31
0.0
  0
LINE
  5
41F
330
1F
100
AcDbEntity
  8
0
  6
DASH_CENTER
 62
     2
100
AcDbLine
 10
159.0622350164831
 20
365.5615417474623
 30
0.0
 11
159.0622350164831
 21
198.5626711223918
 31
0.0
  0
LINE
  5
420
330
1F
100
AcDbEntity
  8
0
  6
DASH_CENTER
 62
     2
100
AcDbLine
 10
214.0834536687034
 20
303.4115417474623
 30
0.0
 11
103.4206706255827
 21
303.4115417474623
 31
0.0
  0
LINE
  5
421
330
1F
100
AcDbEntity
  8
0
  6
DASH_CENTER
 62
     2
100
AcDbLine
 10
303.4373608577735
 20
198.5626711223918
 30
0.0
 11
303.4373608577735
 21
341.8766310846545
 31
0.0
  0
LINE
  5
422
330
1F
100
AcDbEntity
  8
0
  6
DASH_CENTER
 62
     2
100
AcDbLine
 10
325.8333507866937
 20
303.4115417474623
 30
0.0
 11
259.1873970294728
 21
303.4115417474623
 31
0.0
  0
LINE
  5
423
330
1F
100
AcDbEntity
  8
0
  6
DASH_CENTER
 62
     2
100
AcDbLine
 10
318.0654692912322
 20
275.7115417474633
 30
0.0
 11
329.5502466770831
 21
275.7115417474633
 31
0.0
  0
LINE
  5
424
330
1F
100
AcDbEntity
  8
0
  6
DASH_CENTER
 62
     2
100
AcDbLine
 10
328.1376632936026
 20
316.9115417474623
 30
0.0
 11
272.425770279222
 21
316.9115417474623
 31
0.0
  0
LINE
  5
425
330
1F
100
AcDbEntity
  8
0
  6
DASH_CENTER
 62
     2
100
AcDbLine
 10
327.6664436469837
 20
272.9115417474623
 30
0.0
 11
272.425770279222
 21
272.9115417474623
 31
0.0
  0
LINE
  5
426
330
1F
100
AcDbEntity
  8
0
  6
DASH_CENTER
 62
     2
100
AcDbLine
 10
328.1376632936026
 20
326.4115417474623
 30
0.0
 11
272.425770279222
 21
326.4115417474623
 31
0.0
  0
LINE
  5
427
330
1F
100
AcDbEntity
  8
1
  6
DASH_CENTER
 62
     2
100
AcDbLine
 10
159.0622350164831
 20
462.0433134390373
 30
0.0
 11
159.0622350164831
 21
368.5433134390364
 31
0.0
  0
LINE
  5
428
330
1F
100
AcDbEntity
  8
0
  6
DASH_CENTER
 62
     2
100
AcDbLine
 10
242.2400023427435
 20
262.0259441779003
 30
0.0
 11
272.0063304916621
 21
279.2115417474633
 31
0.0
  0
LINE
  5
429
330
1F
100
AcDbEntity
  8
0
  6
DASH_CENTER
 62
     2
100
AcDbLine
 10
272.0063304916621
 20
279.2115417474633
 30
0.0
 11
303.4373608577735
 21
279.2115417474633
 31
0.0
  0
LINE
  5
42A
330
1F
100
AcDbEntity
  8
1
  6
DASH_CENTER
 62
     2
100
AcDbLine
 10
173.8622350164824
 20
279.2115417474633
 30
0.0
 11
144.262235016482
 21
279.2115417474633
 31
0.0
  0
LINE
  5
42B
330
1F
100
AcDbEntity
  8
0
  6
DASH_CENTER
 62
     2
100
AcDbLine
 10
240.4579314888433
 20
256.1781072307326
 30
0.0
 11
242.2400023427435
 21
262.0259441779003
 31
0.0
  0
ARC
  5
42C
330
1F
100
AcDbEntity
  8
0
  6
Continuous
 62
     2
100
AcDbCircle
 10
194.3993828843722
 20
68.2
 30
0.0
 40
18.95249999999886
100
AcDbArc
 50
136.4098669615736
 51
227.6527776629415
  0
LWPOLYLINE
  5
42D
330
1F
100
AcDbEntity
  8
1
  6
Continuous
 62
     7
 60
     1
100
AcDbPolyline
 90
        3
 70
     0
 43
0.0
 10
269.8873970294735
 20
349.2615417474635
 10
293.3873970294735
 20
349.2615417474635
 10
293.3873970294735
 20
350.7615417474635
  0
LWPOLYLINE
  5
42E
330
1F
100
AcDbEntity
  8
0
  6
Continuous
 62
     7
 60
     1
100
AcDbPolyline
 90
        3
 70
     0
 43
0.0
 10
263.3373608577731
 20
274.1115417474634
 10
272.7373608577727
 20
274.1115417474634
 10
272.7373608577727
 20
274.7115417474633
  0
LWPOLYLINE
  5
42F
330
1F
100
AcDbEntity
  8
0
  6
Continuous
 62
     7
 60
     1
100
AcDbPolyline
 90
        4
 70
     0
 43
0.0
 10
272.7373608577727
 20
283.7115417474633
 10
291.9373608577735
 20
283.7115417474633
 10
291.9373608577735
 20
286.2115417474633
 10
290.9373608577735
 20
286.2115417474633
  0
CIRCLE
  5
430
102
{ACAD_REACTORS
330
431
102
}
330
1F
100
AcDbEntity
  8
1
 62
     2
100
AcDbCircle
 10
186.865237896174
 20
235.9780667041159
 30
0.0
 40
1.75
  0
HATCH
  5
431
330
1F
100
AcDbEntity
  8
1
 62
     2
100
AcDbHatch
 10
0.0
 20
0.0
 30
0.0
210
0.0
220
0.0
230
1.0
  2
SOLID
 70
     1
 71
     1
 91
        1
 92
        1
 93
        1
 72
     2
 10
186.865237896174
 20
235.9780667041159
 40
1.75
 50
0.0
 51
360.0
 73
     1
 97
        1
330
430
 75
     0
 76
     1
 98
        0
  0
LEADER
  5
432
330
1F
100
AcDbEntity
  8
1
  6
Continuous
 62
     2
100
AcDbLeader
  3
Standard
 71
     0
 76
     3
 10
186.865237896174
 20
235.9780667041159
 30
0.0
 10
216.5499303757735
 20
184.5626711223918
 30
0.0
 10
272.230231107287
 20
184.5626711223918
 30
0.0
  0
SOLID
  5
433
330
1F
100
AcDbEntity
  8
1
 62
     2
100
AcDbTrace
 10
315.9318965617984
 20
478.1803055966507
 30
0.0
 11
314.3356948584455
 21
479.1018730797625
 31
0.0
 12
318.6337957101223
 22
484.7032671646975
 32
0.0
 13
318.6337957101223
 23
484.7032671646975
 33
0.0
  0
LEADER
  5
434
330
1F
100
AcDbEntity
  8
1
  6
Continuous
 62
     2
100
AcDbLeader
  3
Standard
 71
     0
 76
     3
 10
318.6337957101223
 20
484.7032671646975
 30
0.0
 10
300.3498827032836
 20
453.0346008756883
 30
0.0
 10
268.3296452349023
 20
453.0346008756883
 30
0.0
  0
SOLID
  5
435
330
1F
100
AcDbEntity
  8
1
 62
     2
100
AcDbTrace
 10
314.904902202379
 20
198.9612770374563
 30
0.0
 11
313.308700499026
 21
198.0397095543447
 31
0.0
 12
310.6068013507029
 22
204.5626711223918
 32
0.0
 13
310.6068013507029
 23
204.5626711223918
 33
0.0
  0
LEADER
  5
436
330
1F
100
AcDbEntity
  8
1
  6
Continuous
 62
     2
100
AcDbLeader
  3
Standard
 71
     0
 76
     3
 10
310.6068013507029
 20
204.5626711223918
 30
0.0
 10
331.3914110415266
 20
168.5626711223918
 30
0.0
 10
255.4589668304075
 20
168.5626711223918
 30
0.0
  0
MTEXT
  5
438
330
1F
100
AcDbEntity
  8
1
 62
     7
100
AcDbMText
 10
114.0
 20
28.5
 30
0.0
 40
7.0
 41
0.0
 71
     5
 72
     1
  1
V96LTK-3
  7
CONVERTER_15
 73
     1
 44
0.7202881152461
  0
MTEXT
  5
439
330
1F
100
AcDbEntity
  8
1
 62
     7
100
AcDbMText
 10
114.0
 20
49.50000000000003
 30
0.0
 40
7.0
 41
0.0
 71
     5
 72
     1
  1
水道用コンセント
  7
CONVERTER_11
 73
     1
 44
0.54545454545455
  0
MTEXT
  5
43A
330
1F
100
AcDbEntity
  8
1
 62
     7
100
AcDbMText
 10
114.0
 20
41.50000000000002
 30
0.0
 40
7.0
 41
0.0
 71
     5
 72
     1
  1
シンプレット
  7
CONVERTER_11
 73
     1
 44
0.54545454545455
  0
MTEXT
  5
43B
330
1F
100
AcDbEntity
  8
1
 62
     7
100
AcDbMText
 10
282.9578027851021
 20
459.0346008756883
 30
0.0
 40
7.0
 41
0.0
 71
     5
 72
     1
  1
3,5X19
  7
CONVERTER_15
 73
     1
 44
0.7202881152461
  0
MTEXT
  5
43C
330
1F
100
AcDbEntity
  8
1
 62
     7
100
AcDbMText
 10
293.4251889359671
 20
174.5626711223918
 30
0.0
 40
7.0
 41
0.0
 71
     5
 72
     1
  1
13A樹脂管JIS品
  7
CONVERTER_11
 73
     1
 44
0.54545454545455
  0
MTEXT
  5
43D
330
1F
100
AcDbEntity
  8
1
 62
     7
100
AcDbMText
 10
293.4251889359671
 20
162.5626711223918
 30
0.0
 40
7.0
 41
0.0
 71
     5
 72
     1
  1
(適用管種は備考欄参照)
  7
CONVERTER_11
 73
     1
 44
0.54545454545455
  0
MTEXT
  5
43E
330
1F
100
AcDbEntity
  8
1
 62
     2
100
AcDbMText
 10
298.914920735122
 20
59.39999999999965
 30
0.0
 40
6.0
 41
0.0
 71
     4
 72
     1
  1
・ ポリブテン管 JIS K 6778
  7
CONVERTER_11
 73
     1
 44
0.45454545454545
  0
MTEXT
  5
43F
330
1F
100
AcDbEntity
  8
1
 62
     2
100
AcDbMText
 10
186.9149207351129
 20
59.09999999999992
 30
0.0
 40
6.0
 41
0.0
 71
     4
 72
     1
  1
水道用ポリブテン管 JIS K 6792
  7
CONVERTER_11
 73
     1
 44
0.45454545454545
  0
MTEXT
  5
440
330
1F
100
AcDbEntity
  8
1
 62
     2
100
AcDbMText
 10
187.4149207351129
 20
76.39999999999965
 30
0.0
 40
6.0
 41
0.0
 71
     4
 72
     1
  1
架橋ポリエチレン管 JIS K 6769 PN15 M種 単層
  7
CONVERTER_11
 73
     1
 44
0.45454545454545
  0
MTEXT
  5
441
330
1F
100
AcDbEntity
  8
1
 62
     2
100
AcDbMText
 10
186.9149207351129
 20
68.00000000000001
 30
0.0
 40
6.0
 41
0.0
 71
     4
 72
     1
  1
水道用架橋ポリエチレン管 JIS K 6787 M種 単層
  7
CONVERTER_11
 73
     1
 44
0.45454545454545
  0
MTEXT
  5
442
330
1F
100
AcDbEntity
  8
1
 62
     2
100
AcDbMText
 10
154.5846291524831
 20
68.00000000000001
 30
0.0
 40
6.0
 41
0.0
 71
     5
 72
     1
  1
適用管種
  7
CONVERTER_11
 73
     1
 44
0.54545454545455
  0
MTEXT
  5
443
330
1F
100
AcDbEntity
  8
1
 62
     7
100
AcDbMText
 10
170.5
 20
34.0
 30
0.0
 40
7.0
 41
0.0
 71
     5
 72
     1
  1
1
  7
CONVERTER_15
 73
     1
 44
0.7202881152461
  0
MTEXT
  5
444
330
1F
100
AcDbEntity
  8
1
 62
     7
100
AcDbMText
 10
187.5
 20
34.0
 30
0.0
 40
7.0
 41
0.0
 71
     5
 72
     1
  1
2
  7
CONVERTER_15
 73
     1
 44
0.7202881152461
  0
MTEXT
  5
445
330
1F
100
AcDbEntity
  8
1
 62
     2
100
AcDbMText
 10
68.0
 20
59.25000000000003
 30
0.0
 40
6.0
 41
0.0
 71
     4
 72
     1
  1
登録番号 C-285
  7
CONVERTER_11
 73
     1
 44
0.54545454545455
  0
MTEXT
  5
446
330
1F
100
AcDbEntity
  8
1
 62
     2
100
AcDbMText
 10
68.0
 20
68.00000000000003
 30
0.0
 40
6.0
 41
0.0
 71
     4
 72
     1
  1
日本水道協会認証登録品
  7
CONVERTER_11
 73
     1
 44
0.54545454545455
  0
MTEXT
  5
447
330
1F
100
AcDbEntity
  8
1
 62
     2
100
AcDbMText
 10
68.0
 20
76.75
 30
0.0
 40
6.0
 41
0.0
 71
     4
 72
     1
  1
呼び径 13A
  7
CONVERTER_11
 73
     1
 44
0.54545454545455
  0
MTEXT
  5
448
330
1F
100
AcDbEntity
  8
1
 62
     7
100
AcDbMText
 10
244.1287687006603
 20
190.5626711223918
 30
0.0
 40
7.0
 41
0.0
 71
     5
 72
     1
  1
JWWAシール
  7
CONVERTER_11
 73
     1
 44
0.54545454545455
  0
DIMENSION
  5
453
330
1F
100
AcDbEntity
  8
1
100
AcDbDimension
  2
*D18
 10
82.261993614653
 20
230.8615417474643
 30
0.0
 11
76.761993614653
 21
217.712106434928
 31
0.0
 70
    32
  1
26
 71
     5
 42
-1.0
 53
90.0
  3
ME10_DIM_10
100
AcDbAlignedDimension
 13
147.0622350174835
 23
204.5626711223918
 33
0.0
 14
116.4622348021221
 24
230.8615417474643
 34
0.0
 50
90.0
100
AcDbRotatedDimension
  0
DIMENSION
  5
45E
330
1F
100
AcDbEntity
  8
1
100
AcDbDimension
  2
*D19
 10
102.261993614653
 20
494.0433134390373
 30
0.0
 11
159.0622350164831
 21
499.5433134390373
 31
0.0
 70
    32
  1
114
 71
     5
 42
-1.0
 53
0.00013888888889
  3
ME10_DIM_11
100
AcDbAlignedDimension
 13
215.8624764183223
 23
440.8308073823696
 33
0.0
 14
102.261993614653
 24
440.8308073823696
 34
0.0
100
AcDbRotatedDimension
  0
DIMENSION
  5
469
330
1F
100
AcDbEntity
  8
1
100
AcDbDimension
  2
*D20
 10
275.3873970294734
 20
397.0615417474623
 30
0.0
 11
300.0123789436229
 21
402.5615417474623
 31
0.0
 70
    32
  1
50
 71
     5
 42
-1.0
 53
0.00013888888889
  3
ME10_DIM_12
100
AcDbAlignedDimension
 13
324.6373608577724
 23
350.6615417474636
 33
0.0
 14
275.3873970294735
 24
361.0615417474623
 34
0.0
100
AcDbRotatedDimension
  0
DIMENSION
  5
476
330
1F
100
AcDbEntity
  8
1
100
AcDbDimension
  2
*D21
 10
275.3873970294735
 20
381.0615417474623
 30
0.0
 11
256.9657889079535
 21
386.5615417474623
 31
0.0
 70
    32
  1
7
 71
     5
 42
-1.0
 53
0.00013888888889
  3
ME10_DIM_13
100
AcDbAlignedDimension
 13
268.6373970294735
 23
359.0615417474623
 33
0.0
 14
275.3873970294735
 24
361.0615417474623
 34
0.0
100
AcDbRotatedDimension
  0
DIMENSION
  5
483
330
1F
100
AcDbEntity
  8
1
100
AcDbDimension
  2
*D22
 10
275.3873970294735
 20
381.0615417474623
 30
0.0
 11
289.4123789436235
 21
386.5615417474623
 31
0.0
 70
    32
  1
29
 71
     5
 42
-1.0
 53
0.00013888888889
  3
ME10_DIM_14
100
AcDbAlignedDimension
 13
303.4373608577735
 23
341.8766310846545
 33
0.0
 14
275.3873970294735
 24
361.0615417474623
 34
0.0
100
AcDbRotatedDimension
  0
DIMENSION
  5
48E
330
1F
100
AcDbEntity
  8
1
100
AcDbDimension
  2
*D24
 10
108.4622350164827
 20
184.5626711223918
 30
0.0
 11
159.0622350164831
 21
190.0626711223918
 31
0.0
 70
    32
  1
102
 71
     5
 42
-1.0
 53
0.00013888888889
  3
ME10_DIM_15
100
AcDbAlignedDimension
 13
209.6622350164835
 23
238.8615417474643
 33
0.0
 14
108.4622350164827
 24
238.8615417474643
 34
0.0
100
AcDbRotatedDimension
  0
DIMENSION
  5
499
330
1F
100
AcDbEntity
  8
1
100
AcDbDimension
  2
*D25
 10
82.261993614653
 20
361.0615417474623
 30
0.0
 11
76.761993614653
 21
295.9615417474633
 31
0.0
 70
    32
  1
131
 71
     5
 42
-1.0
 53
90.0
  3
ME10_DIM_16
100
AcDbAlignedDimension
 13
116.4622350164827
 23
230.8615417474643
 33
0.0
 14
116.4622350164827
 24
361.0615417474623
 34
0.0
 50
90.0
100
AcDbRotatedDimension
  0
DIMENSION
  5
4A4
330
1F
100
AcDbEntity
  8
1
100
AcDbDimension
  2
*D26
 10
235.8624764183223
 20
408.5433134390374
 30
0.0
 11
230.3624764183223
 21
424.1870604107035
 31
0.0
 70
    32
  1
8～15
 71
     5
 42
-1.0
 53
90.0
  3
ME10_DIM_17
100
AcDbAlignedDimension
 13
215.8624764183223
 23
439.8308073823696
 33
0.0
 14
209.6622350164835
 24
408.5433134390373
 34
0.0
 50
90.0
100
AcDbRotatedDimension
  0
DIMENSION
  5
4AF
330
1F
100
AcDbEntity
  8
1
100
AcDbDimension
  2
*D27
 10
275.3873970294735
 20
210.8615417474643
 30
0.0
 11
256.9657889079535
 21
216.3615417474643
 31
0.0
 70
    32
  1
37
 71
     5
 42
-1.0
 53
0.00013888888889
  3
ME10_DIM_18
100
AcDbAlignedDimension
 13
238.5441807864336
 23
259.1119248119544
 33
0.0
 14
275.3873970294735
 24
230.8615417474643
 34
0.0
100
AcDbRotatedDimension
  0
DIMENSION
  5
4BA
330
1F
100
AcDbEntity
  8
1
100
AcDbDimension
  2
*D28
 10
117.4622350164827
 20
478.0433134390373
 30
0.0
 11
159.0622350164831
 21
483.5433134390373
 31
0.0
 70
    32
  1
84(開口寸法86)
 71
     5
 42
-1.0
 53
0.00013888888889
  3
ME10_DIM_19
100
AcDbAlignedDimension
 13
200.6622350164835
 23
457.0433134390373
 33
0.0
 14
117.4622350164827
 24
457.0433134390373
 34
0.0
100
AcDbRotatedDimension
  0
DIMENSION
  5
4C5
330
1F
100
AcDbEntity
  8
1
100
AcDbDimension
  2
*D29
 10
353.5237957101235
 20
241.2615417474636
 30
0.0
 11
348.0237957101235
 21
297.2115417474636
 31
0.0
 70
    32
  1
112(開口寸法115)
 71
     5
 42
-1.0
 53
90.0
  3
ME10_DIM_20
100
AcDbAlignedDimension
 13
322.6373608577724
 23
353.1615417474636
 33
0.0
 14
293.3873970294735
 24
241.2615417474635
 34
0.0
 50
90.0
100
AcDbRotatedDimension
  0
DIMENSION
  5
4D0
330
1F
100
AcDbEntity
  8
1
100
AcDbDimension
  2
*D30
 10
353.5237957101235
 20
241.2615417474635
 30
0.0
 11
348.0237957101235
 21
222.9121064349277
 31
0.0
 70
    32
  1
37
 71
     5
 42
-1.0
 53
90.0
  3
ME10_DIM_21
100
AcDbAlignedDimension
 13
315.4373608567821
 23
204.5626711223918
 33
0.0
 14
293.3873970294735
 24
241.2615417474635
 34
0.0
 50
90.0
100
AcDbRotatedDimension
  0
DIMENSION
  5
4DD
330
1F
100
AcDbEntity
  8
1
100
AcDbDimension
  2
*D31
 10
353.5237957101235
 20
482.2091140017983
 30
0.0
 11
348.0237957101235
 21
491.8291140017984
 31
0.0
 70
    32
  1
19
 71
     5
 42
-1.0
 53
90.0
  3
ME10_DIM_22
100
AcDbAlignedDimension
 13
333.5237957101235
 23
501.4491140017985
 33
0.0
 14
330.0737957101228
 24
482.2091140017983
 34
0.0
 50
90.0
100
AcDbRotatedDimension
  0
DIMENSION
  5
4EA
330
1F
100
AcDbEntity
  8
0
100
AcDbDimension
  2
*D32
 10
245.9377845524897
 20
273.1097889045398
 30
0.0
 11
239.2667124398548
 21
296.3644247445772
 31
0.0
 70
    33
  1
<>
 71
     5
 42
-1.0
 53
-59.99999999999775
  3
ME10_DIM_23
100
AcDbAlignedDimension
 13
251.8217286861636
 23
258.3780871814593
 33
0.0
 14
243.9717286861633
 24
271.9746860208743
 34
0.0
  0
ENDSEC
  0
SECTION
  2
OBJECTS
  0
DICTIONARY
  5
C
330
0
100
AcDbDictionary
281
     1
  3
ACAD_GROUP
350
D
  3
ACAD_LAYOUT
350
1A
  3
ACAD_MATERIAL
350
3B
  3
ACAD_MLEADERSTYLE
350
4ED
  3
ACAD_MLINESTYLE
350
17
  3
ACAD_PLOTSETTINGS
350
19
  3
ACAD_PLOTSTYLENAME
350
E
  3
ACAD_VISUALSTYLE
350
2A
  3
AcDbVariableDictionary
350
4EB
  0
DICTIONARY
  5
D
102
{ACAD_REACTORS
330
C
102
}
330
C
100
AcDbDictionary
281
     1
  0
DICTIONARY
  5
1A
102
{ACAD_REACTORS
330
C
102
}
330
C
100
AcDbDictionary
281
     1
  3
Layout1
350
1E
  3
Layout2
350
26
  3
Model
350
22
  0
DICTIONARY
  5
3B
102
{ACAD_REACTORS
330
C
102
}
330
C
100
AcDbDictionary
281
     1
  3
ByBlock
350
3D
  3
ByLayer
350
3C
  3
Global
350
3E
  0
DICTIONARY
  5
4ED
102
{ACAD_REACTORS
330
C
102
}
330
C
100
AcDbDictionary
281
     1
  0
DICTIONARY
  5
17
102
{ACAD_REACTORS
330
C
102
}
330
C
100
AcDbDictionary
281
     1
  3
Standard
350
18
  0
DICTIONARY
  5
19
102
{ACAD_REACTORS
330
C
102
}
330
C
100
AcDbDictionary
281
     1
  0
ACDBDICTIONARYWDFLT
  5
E
102
{ACAD_REACTORS
330
C
102
}
330
C
100
AcDbDictionary
281
     1
  3
Normal
350
F
100
AcDbDictionaryWithDefault
340
F
  0
DICTIONARY
  5
2A
102
{ACAD_REACTORS
330
C
102
}
330
C
100
AcDbDictionary
281
     1
  3
2dWireframe
350
2F
  3
3D Hidden
350
31
  3
3dWireframe
350
30
  3
Basic
350
32
  3
Brighten
350
36
  3
ColorChange
350
3A
  3
Conceptual
350
34
  3
Dim
350
35
  3
Facepattern
350
39
  3
Flat
350
2B
  3
FlatWithEdges
350
2C
  3
Gouraud
350
2D
  3
GouraudWithEdges
350
2E
  3
Linepattern
350
38
  3
Realistic
350
33
  3
Thicken
350
37
  0
DICTIONARY
  5
4EB
102
{ACAD_REACTORS
330
C
102
}
330
C
100
AcDbDictionary
281
     1
  3
DIMASSOC
350
4EE
  3
HIDETEXT
350
4EF
  0
LAYOUT
  5
1E
102
{ACAD_REACTORS
330
1A
102
}
330
1A
100
AcDbPlotSettings
  1

  2
none_device
  4

  6

 40
0.0
 41
0.0
 42
0.0
 43
0.0
 44
0.0
 45
0.0
 46
0.0
 47
0.0
 48
0.0
 49
0.0
140
0.0
141
0.0
142
1.0
143
1.0
 70
   688
 72
     0
 73
     0
 74
     5
  7

 75
    16
147
1.0
148
0.0
149
0.0
100
AcDbLayout
  1
Layout1
 70
     1
 71
     1
 10
0.0
 20
0.0
 11
12.0
 21
9.0
 12
0.0
 22
0.0
 32
0.0
 14
1.00000000000000E+20
 24
1.00000000000000E+20
 34
1.00000000000000E+20
 15
-1.00000000000000E+20
 25
-1.00000000000000E+20
 35
-1.00000000000000E+20
146
0.0
 13
0.0
 23
0.0
 33
0.0
 16
1.0
 26
0.0
 36
0.0
 17
0.0
 27
1.0
 37
0.0
 76
     0
330
1B
  0
LAYOUT
  5
26
102
{ACAD_REACTORS
330
1A
102
}
330
1A
100
AcDbPlotSettings
  1

  2
none_device
  4

  6

 40
0.0
 41
0.0
 42
0.0
 43
0.0
 44
0.0
 45
0.0
 46
0.0
 47
0.0
 48
0.0
 49
0.0
140
0.0
141
0.0
142
1.0
143
1.0
 70
   688
 72
     0
 73
     0
 74
     5
  7

 75
    16
147
1.0
148
0.0
149
0.0
100
AcDbLayout
  1
Layout2
 70
     1
 71
     2
 10
0.0
 20
0.0
 11
0.0
 21
0.0
 12
0.0
 22
0.0
 32
0.0
 14
0.0
 24
0.0
 34
0.0
 15
0.0
 25
0.0
 35
0.0
146
0.0
 13
0.0
 23
0.0
 33
0.0
 16
1.0
 26
0.0
 36
0.0
 17
0.0
 27
1.0
 37
0.0
 76
     0
330
23
  0
LAYOUT
  5
22
102
{ACAD_REACTORS
330
1A
102
}
330
1A
100
AcDbPlotSettings
  1

  2
none_device
  4

  6

 40
0.0
 41
0.0
 42
0.0
 43
0.0
 44
0.0
 45
0.0
 46
0.0
 47
0.0
 48
0.0
 49
0.0
140
0.0
141
0.0
142
1.0
143
1.0
 70
  1712
 72
     0
 73
     0
 74
     0
  7

 75
     0
147
1.0
148
0.0
149
0.0
100
AcDbLayout
  1
Model
 70
     1
 71
     0
 10
0.0
 20
0.0
 11
12.0
 21
9.0
 12
0.0
 22
0.0
 32
0.0
 14
0.0
 24
0.0
 34
0.0
 15
420.0
 25
594.0
 35
0.0
146
0.0
 13
0.0
 23
0.0
 33
0.0
 16
1.0
 26
0.0
 36
0.0
 17
0.0
 27
1.0
 37
0.0
 76
     0
330
1F
331
29
  0
MATERIAL
  5
3D
102
{ACAD_REACTORS
330
3B
102
}
102
{ACAD_XDICTIONARY
360
512
102
}
330
3B
100
AcDbMaterial
  1
ByBlock
  0
MATERIAL
  5
3C
102
{ACAD_REACTORS
330
3B
102
}
102
{ACAD_XDICTIONARY
360
510
102
}
330
3B
100
AcDbMaterial
  1
ByLayer
  0
MATERIAL
  5
3E
102
{ACAD_REACTORS
330
3B
102
}
102
{ACAD_XDICTIONARY
360
514
102
}
330
3B
100
AcDbMaterial
  1
Global
  0
MLINESTYLE
  5
18
102
{ACAD_REACTORS
330
17
102
}
330
17
100
AcDbMlineStyle
  2
Standard
 70
     0
  3

 62
   256
 51
90.0
 52
90.0
 71
     2
 49
0.5
 62
   256
  6
BYLAYER
 49
-0.5
 62
   256
  6
BYLAYER
  0
ACDBPLACEHOLDER
  5
F
102
{ACAD_REACTORS
330
E
102
}
330
E
  0
VISUALSTYLE
  5
2F
102
{ACAD_REACTORS
330
2A
102
}
102
{ACAD_XDICTIONARY
360
4F8
102
}
330
2A
100
AcDbVisualStyle
  2
2dWireframe
 70
     4
 71
     0
 72
     2
 73
     0
 90
        0
 40
-0.6
 41
-30.0
 62
     5
 63
     7
 74
     1
 91
        4
 64
     7
 65
   257
 75
     1
175
     1
 42
1.0
 92
        0
 66
   257
 43
1.0
 76
     1
 77
     6
 78
     2
 67
     7
 79
     5
170
     0
171
     0
290
     0
174
     0
 93
        1
 44
0.0
173
     0
291
     0
 45
0.0
1001
ACAD
1000
AcDbSavedByObjectVersion
1070
     0
  0
VISUALSTYLE
  5
31
102
{ACAD_REACTORS
330
2A
102
}
102
{ACAD_XDICTIONARY
360
4FC
102
}
330
2A
100
AcDbVisualStyle
  2
3D Hidden
 70
     6
 71
     1
 72
     2
 73
     2
 90
        0
 40
-0.6
 41
-30.0
 62
     5
 63
     7
 74
     2
 91
        2
 64
     7
 65
   257
 75
     2
175
     1
 42
40.0
 92
        0
 66
   257
 43
1.0
 76
     1
 77
     6
 78
     2
 67
     7
 79
     3
170
     0
171
     0
290
     0
174
     0
 93
        1
 44
0.0
173
     0
291
     0
 45
0.0
1001
ACAD
1000
AcDbSavedByObjectVersion
1070
     0
  0
VISUALSTYLE
  5
30
102
{ACAD_REACTORS
330
2A
102
}
102
{ACAD_XDICTIONARY
360
4FA
102
}
330
2A
100
AcDbVisualStyle
  2
3dWireframe
 70
     5
 71
     0
 72
     2
 73
     0
 90
        0
 40
-0.6
 41
-30.0
 62
     5
 63
     7
 74
     1
 91
        4
 64
     7
 65
   257
 75
     1
175
     1
 42
1.0
 92
        0
 66
   257
 43
1.0
 76
     1
 77
     6
 78
     2
 67
     7
 79
     5
170
     0
171
     0
290
     0
174
     0
 93
        1
 44
0.0
173
     0
291
     0
 45
0.0
1001
ACAD
1000
AcDbSavedByObjectVersion
1070
     0
  0
VISUALSTYLE
  5
32
102
{ACAD_REACTORS
330
2A
102
}
102
{ACAD_XDICTIONARY
360
4FE
102
}
330
2A
100
AcDbVisualStyle
  2
Basic
 70
     7
 71
     1
 72
     0
 73
     1
 90
        0
 40
-0.6
 41
-30.0
 62
     5
 63
     7
 74
     0
 91
        4
 64
     7
 65
   257
 75
     1
175
     1
 42
1.0
 92
        8
 66
     7
 43
1.0
 76
     1
 77
     6
 78
     2
 67
     7
 79
     5
170
     0
171
     0
290
     0
174
     0
 93
        1
 44
0.0
173
     0
291
     1
 45
0.0
1001
ACAD
1000
AcDbSavedByObjectVersion
1070
     0
  0
VISUALSTYLE
  5
36
102
{ACAD_REACTORS
330
2A
102
}
102
{ACAD_XDICTIONARY
360
506
102
}
330
2A
100
AcDbVisualStyle
  2
Brighten
 70
    12
 71
     2
 72
     2
 73
     0
 90
        0
 40
-0.6
 41
-30.0
 62
     5
 63
     7
 74
     1
 91
        4
 64
     7
 65
   257
 75
     1
175
     1
 42
1.0
 92
        8
 66
     7
 43
1.0
 76
     1
 77
     6
 78
     2
 67
     7
 79
     5
170
     0
171
     0
290
     0
174
     0
 93
        1
 44
50.0
173
     0
291
     1
 45
0.0
1001
ACAD
1000
AcDbSavedByObjectVersion
1070
     0
  0
VISUALSTYLE
  5
3A
102
{ACAD_REACTORS
330
2A
102
}
102
{ACAD_XDICTIONARY
360
50E
102
}
330
2A
100
AcDbVisualStyle
  2
ColorChange
 70
    16
 71
     2
 72
     2
 73
     3
 90
        0
 40
-0.6
 41
-30.0
 62
     5
 63
     8
 74
     1
 91
        4
 64
     7
 65
   257
 75
     1
175
     1
 42
1.0
 92
        8
 66
     8
 43
1.0
 76
     1
 77
     6
 78
     2
 67
     7
 79
     5
170
     0
171
     0
290
     0
174
     0
 93
        1
 44
0.0
173
     0
291
     1
 45
0.0
1001
ACAD
1000
AcDbSavedByObjectVersion
1070
     0
  0
VISUALSTYLE
  5
34
102
{ACAD_REACTORS
330
2A
102
}
102
{ACAD_XDICTIONARY
360
502
102
}
330
2A
100
AcDbVisualStyle
  2
Conceptual
 70
     9
 71
     3
 72
     2
 73
     0
 90
        0
 40
-0.6
 41
-30.0
 62
     5
 63
     7
 74
     2
 91
        2
 64
     7
 65
   257
 75
     1
175
     1
 42
40.0
 92
        8
 66
     7
 43
1.0
 76
     1
 77
     6
 78
     2
 67
     7
 79
     3
170
     0
171
     0
290
     0
174
     0
 93
        1
 44
0.0
173
     0
291
     0
 45
0.0
1001
ACAD
1000
AcDbSavedByObjectVersion
1070
     0
  0
VISUALSTYLE
  5
35
102
{ACAD_REACTORS
330
2A
102
}
102
{ACAD_XDICTIONARY
360
504
102
}
330
2A
100
AcDbVisualStyle
  2
Dim
 70
    11
 71
     2
 72
     2
 73
     0
 90
        0
 40
-0.6
 41
-30.0
 62
     5
 63
     7
 74
     1
 91
        4
 64
     7
 65
   257
 75
     1
175
     1
 42
1.0
 92
        8
 66
     7
 43
1.0
 76
     1
 77
     6
 78
     2
 67
     7
 79
     5
170
     0
171
     0
290
     0
174
     0
 93
        1
 44
-50.0
173
     0
291
     1
 45
0.0
1001
ACAD
1000
AcDbSavedByObjectVersion
1070
     0
  0
VISUALSTYLE
  5
39
102
{ACAD_REACTORS
330
2A
102
}
102
{ACAD_XDICTIONARY
360
50C
102
}
330
2A
100
AcDbVisualStyle
  2
Facepattern
 70
    15
 71
     2
 72
     2
 73
     0
 90
        0
 40
-0.6
 41
-30.0
 62
     5
 63
     7
 74
     1
 91
        4
 64
     7
 65
   257
 75
     1
175
     1
 42
1.0
 92
        8
 66
     7
 43
1.0
 76
     1
 77
     6
 78
     2
 67
     7
 79
     5
170
     0
171
     0
290
     0
174
     0
 93
        1
 44
0.0
173
     0
291
     1
 45
0.0
1001
ACAD
1000
AcDbSavedByObjectVersion
1070
     0
  0
VISUALSTYLE
  5
2B
102
{ACAD_REACTORS
330
2A
102
}
102
{ACAD_XDICTIONARY
360
4F0
102
}
330
2A
100
AcDbVisualStyle
  2
Flat
 70
     0
 71
     2
 72
     1
 73
     1
 90
        2
 40
-0.6
 41
30.0
 62
     5
 63
     7
 74
     0
 91
        4
 64
     7
 65
   257
 75
     1
175
     1
 42
1.0
 92
        8
 66
     7
 43
1.0
 76
     1
 77
     6
 78
     2
 67
     7
 79
     5
170
     0
171
     0
290
     0
174
     0
 93
       13
 44
0.0
173
     0
291
     1
 45
0.0
1001
ACAD
1000
AcDbSavedByObjectVersion
1070
     0
  0
VISUALSTYLE
  5
2C
102
{ACAD_REACTORS
330
2A
102
}
102
{ACAD_XDICTIONARY
360
4F2
102
}
330
2A
100
AcDbVisualStyle
  2
FlatWithEdges
 70
     1
 71
     2
 72
     1
 73
     1
 90
        2
 40
-0.6
 41
30.0
 62
     5
 63
     7
 74
     1
 91
        4
 64
     7
 65
   257
 75
     1
175
     1
 42
1.0
 92
        0
 66
   257
 43
1.0
 76
     1
 77
     6
 78
     2
 67
     7
 79
     5
170
     0
171
     0
290
     0
174
     0
 93
       13
 44
0.0
173
     0
291
     1
 45
0.0
1001
ACAD
1000
AcDbSavedByObjectVersion
1070
     0
  0
VISUALSTYLE
  5
2D
102
{ACAD_REACTORS
330
2A
102
}
102
{ACAD_XDICTIONARY
360
4F4
102
}
330
2A
100
AcDbVisualStyle
  2
Gouraud
 70
     2
 71
     2
 72
     2
 73
     1
 90
        2
 40
-0.6
 41
30.0
 62
     5
 63
     7
 74
     0
 91
        4
 64
     7
 65
   257
 75
     1
175
     1
 42
1.0
 92
        0
 66
     7
 43
1.0
 76
     1
 77
     6
 78
     2
 67
     7
 79
     5
170
     0
171
     0
290
     0
174
     0
 93
       13
 44
0.0
173
     0
291
     1
 45
0.0
1001
ACAD
1000
AcDbSavedByObjectVersion
1070
     0
  0
VISUALSTYLE
  5
2E
102
{ACAD_REACTORS
330
2A
102
}
102
{ACAD_XDICTIONARY
360
4F6
102
}
330
2A
100
AcDbVisualStyle
  2
GouraudWithEdges
 70
     3
 71
     2
 72
     2
 73
     1
 90
        2
 40
-0.6
 41
30.0
 62
     5
 63
     7
 74
     1
 91
        4
 64
     7
 65
   257
 75
     1
175
     1
 42
1.0
 92
        0
 66
   257
 43
1.0
 76
     1
 77
     6
 78
     2
 67
     7
 79
     5
170
     0
171
     0
290
     0
174
     0
 93
       13
 44
0.0
173
     0
291
     1
 45
0.0
1001
ACAD
1000
AcDbSavedByObjectVersion
1070
     0
  0
VISUALSTYLE
  5
38
102
{ACAD_REACTORS
330
2A
102
}
102
{ACAD_XDICTIONARY
360
50A
102
}
330
2A
100
AcDbVisualStyle
  2
Linepattern
 70
    14
 71
     2
 72
     2
 73
     0
 90
        0
 40
-0.6
 41
-30.0
 62
     5
 63
     7
 74
     1
 91
        4
 64
     7
 65
   257
 75
     7
175
     7
 42
1.0
 92
        8
 66
     7
 43
1.0
 76
     1
 77
     6
 78
     2
 67
     7
 79
     5
170
     0
171
     0
290
     0
174
     0
 93
        1
 44
0.0
173
     0
291
     1
 45
0.0
1001
ACAD
1000
AcDbSavedByObjectVersion
1070
     0
  0
VISUALSTYLE
  5
33
102
{ACAD_REACTORS
330
2A
102
}
102
{ACAD_XDICTIONARY
360
500
102
}
330
2A
100
AcDbVisualStyle
  2
Realistic
 70
     8
 71
     2
 72
     2
 73
     0
 90
        0
 40
-0.6
 41
-30.0
 62
     5
 63
     7
 74
     1
 91
        0
 64
     7
 65
   257
 75
     1
175
     1
 42
1.0
 92
        8
 66
     8
 43
1.0
 76
     1
 77
     6
 78
     2
 67
     7
 79
     5
170
     0
171
     0
290
     0
174
     0
 93
       13
 44
0.0
173
     0
291
     0
 45
0.0
1001
ACAD
1000
AcDbSavedByObjectVersion
1070
     0
  0
VISUALSTYLE
  5
37
102
{ACAD_REACTORS
330
2A
102
}
102
{ACAD_XDICTIONARY
360
508
102
}
330
2A
100
AcDbVisualStyle
  2
Thicken
 70
    13
 71
     2
 72
     2
 73
     0
 90
        0
 40
-0.6
 41
-30.0
 62
     5
 63
     7
 74
     1
 91
        4
 64
     7
 65
   257
 75
     1
175
     1
 42
1.0
 92
       12
 66
     7
 43
1.0
 76
     1
 77
     6
 78
     2
 67
     7
 79
     5
170
     0
171
     0
290
     0
174
     0
 93
        1
 44
0.0
173
     0
291
     1
 45
0.0
1001
ACAD
1000
AcDbSavedByObjectVersion
1070
     0
  0
DICTIONARYVAR
  5
4EE
102
{ACAD_REACTORS
330
4EB
102
}
330
4EB
100
DictionaryVariables
280
     0
  1
2
  0
DICTIONARYVAR
  5
4EF
102
{ACAD_REACTORS
330
4EB
102
}
330
4EB
100
DictionaryVariables
280
     0
  1
1
  0
DICTIONARY
  5
512
330
3D
100
AcDbDictionary
280
     1
281
     1
  3
ACAD_XREC_ROUNDTRIP
360
513
  0
DICTIONARY
  5
510
330
3C
100
AcDbDictionary
280
     1
281
     1
  3
ACAD_XREC_ROUNDTRIP
360
511
  0
DICTIONARY
  5
514
330
3E
100
AcDbDictionary
280
     1
281
     1
  3
ACAD_XREC_ROUNDTRIP
360
515
  0
DICTIONARY
  5
4F8
330
2F
100
AcDbDictionary
280
     1
281
     1
  3
ACAD_XREC_ROUNDTRIP
360
4F9
  0
DICTIONARY
  5
4FC
330
31
100
AcDbDictionary
280
     1
281
     1
  3
ACAD_XREC_ROUNDTRIP
360
4FD
  0
DICTIONARY
  5
4FA
330
30
100
AcDbDictionary
280
     1
281
     1
  3
ACAD_XREC_ROUNDTRIP
360
4FB
  0
DICTIONARY
  5
4FE
330
32
100
AcDbDictionary
280
     1
281
     1
  3
ACAD_XREC_ROUNDTRIP
360
4FF
  0
DICTIONARY
  5
506
330
36
100
AcDbDictionary
280
     1
281
     1
  3
ACAD_XREC_ROUNDTRIP
360
507
  0
DICTIONARY
  5
50E
330
3A
100
AcDbDictionary
280
     1
281
     1
  3
ACAD_XREC_ROUNDTRIP
360
50F
  0
DICTIONARY
  5
502
330
34
100
AcDbDictionary
280
     1
281
     1
  3
ACAD_XREC_ROUNDTRIP
360
503
  0
DICTIONARY
  5
504
330
35
100
AcDbDictionary
280
     1
281
     1
  3
ACAD_XREC_ROUNDTRIP
360
505
  0
DICTIONARY
  5
50C
330
39
100
AcDbDictionary
280
     1
281
     1
  3
ACAD_XREC_ROUNDTRIP
360
50D
  0
DICTIONARY
  5
4F0
330
2B
100
AcDbDictionary
280
     1
281
     1
  3
ACAD_XREC_ROUNDTRIP
360
4F1
  0
DICTIONARY
  5
4F2
330
2C
100
AcDbDictionary
280
     1
281
     1
  3
ACAD_XREC_ROUNDTRIP
360
4F3
  0
DICTIONARY
  5
4F4
330
2D
100
AcDbDictionary
280
     1
281
     1
  3
ACAD_XREC_ROUNDTRIP
360
4F5
  0
DICTIONARY
  5
4F6
330
2E
100
AcDbDictionary
280
     1
281
     1
  3
ACAD_XREC_ROUNDTRIP
360
4F7
  0
DICTIONARY
  5
50A
330
38
100
AcDbDictionary
280
     1
281
     1
  3
ACAD_XREC_ROUNDTRIP
360
50B
  0
DICTIONARY
  5
500
330
33
100
AcDbDictionary
280
     1
281
     1
  3
ACAD_XREC_ROUNDTRIP
360
501
  0
DICTIONARY
  5
508
330
37
100
AcDbDictionary
280
     1
281
     1
  3
ACAD_XREC_ROUNDTRIP
360
509
  0
XRECORD
  5
513
102
{ACAD_REACTORS
330
512
102
}
330
512
100
AcDbXrecord
280
     1
102
MATERIAL
148
0.0
149
0.0
149
0.0
 93
        0
 94
      127
282
     0
 72
     1
 77
     1
171
     1
175
     1
179
     1
273
     0
  0
XRECORD
  5
511
102
{ACAD_REACTORS
330
510
102
}
330
510
100
AcDbXrecord
280
     1
102
MATERIAL
148
0.0
149
0.0
149
0.0
 93
        0
 94
      127
282
     0
 72
     1
 77
     1
171
     1
175
     1
179
     1
273
     0
  0
XRECORD
  5
515
102
{ACAD_REACTORS
330
514
102
}
330
514
100
AcDbXrecord
280
     1
102
MATERIAL
148
0.0
149
0.0
149
0.0
 93
        0
 94
      127
282
     0
 72
     1
 77
     1
171
     1
175
     1
179
     1
273
     0
  0
XRECORD
  5
4F9
102
{ACAD_REACTORS
330
4F8
102
}
330
4F8
100
AcDbXrecord
280
     1
102
RTVSPropertyOp0
 70
     1
102
RTVSPropertyOp1
 70
     1
102
RTVSPropertyOp2
 70
     1
102
RTVSPropertyOp3
 70
     1
102
RTVSPropertyOp4
 70
     1
102
RTVSPropertyOp5
 70
     1
102
RTVSPropertyOp6
 70
     1
102
RTVSPropertyOp7
 70
     1
102
RTVSPropertyOp8
 70
     1
102
RTVSPropertyOp9
 70
     1
102
RTVSPropertyOp10
 70
     1
102
RTVSPropertyOp11
 70
     1
102
RTVSPropertyOp12
 70
     1
102
RTVSPropertyOp13
 70
     1
102
RTVSPropertyOp14
 70
     1
102
RTVSPropertyOp15
 70
     1
102
RTVSPropertyOp16
 70
     1
102
RTVSPropertyOp17
 70
     1
102
RTVSPropertyOp18
 70
     1
102
RTVSPropertyOp19
 70
     1
102
RTVSPropertyOp20
 70
     1
102
RTVSPropertyOp21
 70
     1
102
RTVSPropertyOp22
 70
     1
102
RTVSPropertyOp23
 70
     1
102
RTVSPropertyOp24
 70
     1
102
RTVSPropertyOp25
 70
     1
102
RTVSPropertyOp26
 70
     1
102
RTVSPropertyOp27
 70
     1
102
RTVSPropertyOp28
 70
     1
102
RTVSPropertyOp29
 70
     1
102
RTVSPropertyOp30
 70
     1
102
RTVSPropertyOp31
 70
     1
102
RTVSPropertyOp32
 70
     1
  0
XRECORD
  5
4FD
102
{ACAD_REACTORS
330
4FC
102
}
330
4FC
100
AcDbXrecord
280
     1
102
RTVSPropertyOp0
 70
     1
102
RTVSPropertyOp1
 70
     1
102
RTVSPropertyOp2
 70
     1
102
RTVSPropertyOp3
 70
     1
102
RTVSPropertyOp4
 70
     1
102
RTVSPropertyOp5
 70
     1
102
RTVSPropertyOp6
 70
     1
102
RTVSPropertyOp7
 70
     1
102
RTVSPropertyOp8
 70
     1
102
RTVSPropertyOp9
 70
     1
102
RTVSPropertyOp10
 70
     1
102
RTVSPropertyOp11
 70
     1
102
RTVSPropertyOp12
 70
     1
102
RTVSPropertyOp13
 70
     1
102
RTVSPropertyOp14
 70
     1
102
RTVSPropertyOp15
 70
     1
102
RTVSPropertyOp16
 70
     1
102
RTVSPropertyOp17
 70
     1
102
RTVSPropertyOp18
 70
     1
102
RTVSPropertyOp19
 70
     1
102
RTVSPropertyOp20
 70
     1
102
RTVSPropertyOp21
 70
     1
102
RTVSPropertyOp22
 70
     1
102
RTVSPropertyOp23
 70
     1
102
RTVSPropertyOp24
 70
     1
102
RTVSPropertyOp25
 70
     1
102
RTVSPropertyOp26
 70
     1
102
RTVSPropertyOp27
 70
     1
102
RTVSPropertyOp28
 70
     1
102
RTVSPropertyOp29
 70
     1
102
RTVSPropertyOp30
 70
     1
102
RTVSPropertyOp31
 70
     1
102
RTVSPropertyOp32
 70
     1
  0
XRECORD
  5
4FB
102
{ACAD_REACTORS
330
4FA
102
}
330
4FA
100
AcDbXrecord
280
     1
102
RTVSPropertyOp0
 70
     1
102
RTVSPropertyOp1
 70
     1
102
RTVSPropertyOp2
 70
     1
102
RTVSPropertyOp3
 70
     1
102
RTVSPropertyOp4
 70
     1
102
RTVSPropertyOp5
 70
     1
102
RTVSPropertyOp6
 70
     1
102
RTVSPropertyOp7
 70
     1
102
RTVSPropertyOp8
 70
     1
102
RTVSPropertyOp9
 70
     1
102
RTVSPropertyOp10
 70
     1
102
RTVSPropertyOp11
 70
     1
102
RTVSPropertyOp12
 70
     1
102
RTVSPropertyOp13
 70
     1
102
RTVSPropertyOp14
 70
     1
102
RTVSPropertyOp15
 70
     1
102
RTVSPropertyOp16
 70
     1
102
RTVSPropertyOp17
 70
     1
102
RTVSPropertyOp18
 70
     1
102
RTVSPropertyOp19
 70
     1
102
RTVSPropertyOp20
 70
     1
102
RTVSPropertyOp21
 70
     1
102
RTVSPropertyOp22
 70
     1
102
RTVSPropertyOp23
 70
     1
102
RTVSPropertyOp24
 70
     1
102
RTVSPropertyOp25
 70
     1
102
RTVSPropertyOp26
 70
     1
102
RTVSPropertyOp27
 70
     1
102
RTVSPropertyOp28
 70
     1
102
RTVSPropertyOp29
 70
     1
102
RTVSPropertyOp30
 70
     1
102
RTVSPropertyOp31
 70
     1
102
RTVSPropertyOp32
 70
     1
  0
XRECORD
  5
4FF
102
{ACAD_REACTORS
330
4FE
102
}
330
4FE
100
AcDbXrecord
280
     1
102
RTVSPropertyOp0
 70
     1
102
RTVSPropertyOp1
 70
     1
102
RTVSPropertyOp2
 70
     1
102
RTVSPropertyOp3
 70
     1
102
RTVSPropertyOp4
 70
     1
102
RTVSPropertyOp5
 70
     1
102
RTVSPropertyOp6
 70
     1
102
RTVSPropertyOp7
 70
     1
102
RTVSPropertyOp8
 70
     1
102
RTVSPropertyOp9
 70
     1
102
RTVSPropertyOp10
 70
     1
102
RTVSPropertyOp11
 70
     1
102
RTVSPropertyOp12
 70
     1
102
RTVSPropertyOp13
 70
     1
102
RTVSPropertyOp14
 70
     1
102
RTVSPropertyOp15
 70
     1
102
RTVSPropertyOp16
 70
     1
102
RTVSPropertyOp17
 70
     1
102
RTVSPropertyOp18
 70
     1
102
RTVSPropertyOp19
 70
     1
102
RTVSPropertyOp20
 70
     1
102
RTVSPropertyOp21
 70
     1
102
RTVSPropertyOp22
 70
     1
102
RTVSPropertyOp23
 70
     1
102
RTVSPropertyOp24
 70
     1
102
RTVSPropertyOp25
 70
     1
102
RTVSPropertyOp26
 70
     1
102
RTVSPropertyOp27
 70
     1
102
RTVSPropertyOp28
 70
     1
102
RTVSPropertyOp29
 70
     1
102
RTVSPropertyOp30
 70
     1
102
RTVSPropertyOp31
 70
     1
102
RTVSPropertyOp32
 70
     1
  0
XRECORD
  5
507
102
{ACAD_REACTORS
330
506
102
}
330
506
100
AcDbXrecord
280
     1
102
RTVSPropertyOp0
 70
     1
102
RTVSPropertyOp1
 70
     1
102
RTVSPropertyOp2
 70
     1
102
RTVSPropertyOp3
 70
     1
102
RTVSPropertyOp4
 70
     1
102
RTVSPropertyOp5
 70
     1
102
RTVSPropertyOp6
 70
     1
102
RTVSPropertyOp7
 70
     1
102
RTVSPropertyOp8
 70
     1
102
RTVSPropertyOp9
 70
     1
102
RTVSPropertyOp10
 70
     1
102
RTVSPropertyOp11
 70
     1
102
RTVSPropertyOp12
 70
     1
102
RTVSPropertyOp13
 70
     1
102
RTVSPropertyOp14
 70
     1
102
RTVSPropertyOp15
 70
     1
102
RTVSPropertyOp16
 70
     1
102
RTVSPropertyOp17
 70
     1
102
RTVSPropertyOp18
 70
     1
102
RTVSPropertyOp19
 70
     1
102
RTVSPropertyOp20
 70
     1
102
RTVSPropertyOp21
 70
     1
102
RTVSPropertyOp22
 70
     1
102
RTVSPropertyOp23
 70
     1
102
RTVSPropertyOp24
 70
     1
102
RTVSPropertyOp25
 70
     1
102
RTVSPropertyOp26
 70
     1
102
RTVSPropertyOp27
 70
     1
102
RTVSPropertyOp28
 70
     1
102
RTVSPropertyOp29
 70
     1
102
RTVSPropertyOp30
 70
     1
102
RTVSPropertyOp31
 70
     1
102
RTVSPropertyOp32
 70
     1
  0
XRECORD
  5
50F
102
{ACAD_REACTORS
330
50E
102
}
330
50E
100
AcDbXrecord
280
     1
102
RTVSPropertyOp0
 70
     1
102
RTVSPropertyOp1
 70
     1
102
RTVSPropertyOp2
 70
     1
102
RTVSPropertyOp3
 70
     1
102
RTVSPropertyOp4
 70
     1
102
RTVSPropertyOp5
 70
     1
102
RTVSPropertyOp6
 70
     1
102
RTVSPropertyOp7
 70
     1
102
RTVSPropertyOp8
 70
     1
102
RTVSPropertyOp9
 70
     1
102
RTVSPropertyOp10
 70
     1
102
RTVSPropertyOp11
 70
     1
102
RTVSPropertyOp12
 70
     1
102
RTVSPropertyOp13
 70
     1
102
RTVSPropertyOp14
 70
     1
102
RTVSPropertyOp15
 70
     1
102
RTVSPropertyOp16
 70
     1
102
RTVSPropertyOp17
 70
     1
102
RTVSPropertyOp18
 70
     1
102
RTVSPropertyOp19
 70
     1
102
RTVSPropertyOp20
 70
     1
102
RTVSPropertyOp21
 70
     1
102
RTVSPropertyOp22
 70
     1
102
RTVSPropertyOp23
 70
     1
102
RTVSPropertyOp24
 70
     1
102
RTVSPropertyOp25
 70
     1
102
RTVSPropertyOp26
 70
     1
102
RTVSPropertyOp27
 70
     1
102
RTVSPropertyOp28
 70
     1
102
RTVSPropertyOp29
 70
     1
102
RTVSPropertyOp30
 70
     1
102
RTVSPropertyOp31
 70
     1
102
RTVSPropertyOp32
 70
     1
  0
XRECORD
  5
503
102
{ACAD_REACTORS
330
502
102
}
330
502
100
AcDbXrecord
280
     1
102
RTVSPropertyOp0
 70
     1
102
RTVSPropertyOp1
 70
     1
102
RTVSPropertyOp2
 70
     1
102
RTVSPropertyOp3
 70
     1
102
RTVSPropertyOp4
 70
     1
102
RTVSPropertyOp5
 70
     1
102
RTVSPropertyOp6
 70
     1
102
RTVSPropertyOp7
 70
     1
102
RTVSPropertyOp8
 70
     1
102
RTVSPropertyOp9
 70
     1
102
RTVSPropertyOp10
 70
     1
102
RTVSPropertyOp11
 70
     1
102
RTVSPropertyOp12
 70
     1
102
RTVSPropertyOp13
 70
     1
102
RTVSPropertyOp14
 70
     1
102
RTVSPropertyOp15
 70
     1
102
RTVSPropertyOp16
 70
     1
102
RTVSPropertyOp17
 70
     1
102
RTVSPropertyOp18
 70
     1
102
RTVSPropertyOp19
 70
     1
102
RTVSPropertyOp20
 70
     1
102
RTVSPropertyOp21
 70
     1
102
RTVSPropertyOp22
 70
     1
102
RTVSPropertyOp23
 70
     1
102
RTVSPropertyOp24
 70
     1
102
RTVSPropertyOp25
 70
     1
102
RTVSPropertyOp26
 70
     1
102
RTVSPropertyOp27
 70
     1
102
RTVSPropertyOp28
 70
     1
102
RTVSPropertyOp29
 70
     1
102
RTVSPropertyOp30
 70
     1
102
RTVSPropertyOp31
 70
     1
102
RTVSPropertyOp32
 70
     1
  0
XRECORD
  5
505
102
{ACAD_REACTORS
330
504
102
}
330
504
100
AcDbXrecord
280
     1
102
RTVSPropertyOp0
 70
     1
102
RTVSPropertyOp1
 70
     1
102
RTVSPropertyOp2
 70
     1
102
RTVSPropertyOp3
 70
     1
102
RTVSPropertyOp4
 70
     1
102
RTVSPropertyOp5
 70
     1
102
RTVSPropertyOp6
 70
     1
102
RTVSPropertyOp7
 70
     1
102
RTVSPropertyOp8
 70
     1
102
RTVSPropertyOp9
 70
     1
102
RTVSPropertyOp10
 70
     1
102
RTVSPropertyOp11
 70
     1
102
RTVSPropertyOp12
 70
     1
102
RTVSPropertyOp13
 70
     1
102
RTVSPropertyOp14
 70
     1
102
RTVSPropertyOp15
 70
     1
102
RTVSPropertyOp16
 70
     1
102
RTVSPropertyOp17
 70
     1
102
RTVSPropertyOp18
 70
     1
102
RTVSPropertyOp19
 70
     1
102
RTVSPropertyOp20
 70
     1
102
RTVSPropertyOp21
 70
     1
102
RTVSPropertyOp22
 70
     1
102
RTVSPropertyOp23
 70
     1
102
RTVSPropertyOp24
 70
     1
102
RTVSPropertyOp25
 70
     1
102
RTVSPropertyOp26
 70
     1
102
RTVSPropertyOp27
 70
     1
102
RTVSPropertyOp28
 70
     1
102
RTVSPropertyOp29
 70
     1
102
RTVSPropertyOp30
 70
     1
102
RTVSPropertyOp31
 70
     1
102
RTVSPropertyOp32
 70
     1
  0
XRECORD
  5
50D
102
{ACAD_REACTORS
330
50C
102
}
330
50C
100
AcDbXrecord
280
     1
102
RTVSPropertyOp0
 70
     1
102
RTVSPropertyOp1
 70
     1
102
RTVSPropertyOp2
 70
     1
102
RTVSPropertyOp3
 70
     1
102
RTVSPropertyOp4
 70
     1
102
RTVSPropertyOp5
 70
     1
102
RTVSPropertyOp6
 70
     1
102
RTVSPropertyOp7
 70
     1
102
RTVSPropertyOp8
 70
     1
102
RTVSPropertyOp9
 70
     1
102
RTVSPropertyOp10
 70
     1
102
RTVSPropertyOp11
 70
     1
102
RTVSPropertyOp12
 70
     1
102
RTVSPropertyOp13
 70
     1
102
RTVSPropertyOp14
 70
     1
102
RTVSPropertyOp15
 70
     1
102
RTVSPropertyOp16
 70
     1
102
RTVSPropertyOp17
 70
     1
102
RTVSPropertyOp18
 70
     1
102
RTVSPropertyOp19
 70
     1
102
RTVSPropertyOp20
 70
     1
102
RTVSPropertyOp21
 70
     1
102
RTVSPropertyOp22
 70
     1
102
RTVSPropertyOp23
 70
     1
102
RTVSPropertyOp24
 70
     1
102
RTVSPropertyOp25
 70
     1
102
RTVSPropertyOp26
 70
     1
102
RTVSPropertyOp27
 70
     1
102
RTVSPropertyOp28
 70
     1
102
RTVSPropertyOp29
 70
     1
102
RTVSPropertyOp30
 70
     1
102
RTVSPropertyOp31
 70
     1
102
RTVSPropertyOp32
 70
     1
  0
XRECORD
  5
4F1
102
{ACAD_REACTORS
330
4F0
102
}
330
4F0
100
AcDbXrecord
280
     1
102
RTVSPropertyOp0
 70
     1
102
RTVSPropertyOp1
 70
     1
102
RTVSPropertyOp2
 70
     1
102
RTVSPropertyOp3
 70
     1
102
RTVSPropertyOp4
 70
     1
102
RTVSPropertyOp5
 70
     1
102
RTVSPropertyOp6
 70
     1
102
RTVSPropertyOp7
 70
     1
102
RTVSPropertyOp8
 70
     1
102
RTVSPropertyOp9
 70
     1
102
RTVSPropertyOp10
 70
     1
102
RTVSPropertyOp11
 70
     1
102
RTVSPropertyOp12
 70
     1
102
RTVSPropertyOp13
 70
     1
102
RTVSPropertyOp14
 70
     1
102
RTVSPropertyOp15
 70
     1
102
RTVSPropertyOp16
 70
     1
102
RTVSPropertyOp17
 70
     1
102
RTVSPropertyOp18
 70
     1
102
RTVSPropertyOp19
 70
     1
102
RTVSPropertyOp20
 70
     1
102
RTVSPropertyOp21
 70
     1
102
RTVSPropertyOp22
 70
     1
102
RTVSPropertyOp23
 70
     1
102
RTVSPropertyOp24
 70
     1
102
RTVSPropertyOp25
 70
     1
102
RTVSPropertyOp26
 70
     1
102
RTVSPropertyOp27
 70
     1
102
RTVSPropertyOp28
 70
     1
102
RTVSPropertyOp29
 70
     1
102
RTVSPropertyOp30
 70
     1
102
RTVSPropertyOp31
 70
     1
102
RTVSPropertyOp32
 70
     1
  0
XRECORD
  5
4F3
102
{ACAD_REACTORS
330
4F2
102
}
330
4F2
100
AcDbXrecord
280
     1
102
RTVSPropertyOp0
 70
     1
102
RTVSPropertyOp1
 70
     1
102
RTVSPropertyOp2
 70
     1
102
RTVSPropertyOp3
 70
     1
102
RTVSPropertyOp4
 70
     1
102
RTVSPropertyOp5
 70
     1
102
RTVSPropertyOp6
 70
     1
102
RTVSPropertyOp7
 70
     1
102
RTVSPropertyOp8
 70
     1
102
RTVSPropertyOp9
 70
     1
102
RTVSPropertyOp10
 70
     1
102
RTVSPropertyOp11
 70
     1
102
RTVSPropertyOp12
 70
     1
102
RTVSPropertyOp13
 70
     1
102
RTVSPropertyOp14
 70
     1
102
RTVSPropertyOp15
 70
     1
102
RTVSPropertyOp16
 70
     1
102
RTVSPropertyOp17
 70
     1
102
RTVSPropertyOp18
 70
     1
102
RTVSPropertyOp19
 70
     1
102
RTVSPropertyOp20
 70
     1
102
RTVSPropertyOp21
 70
     1
102
RTVSPropertyOp22
 70
     1
102
RTVSPropertyOp23
 70
     1
102
RTVSPropertyOp24
 70
     1
102
RTVSPropertyOp25
 70
     1
102
RTVSPropertyOp26
 70
     1
102
RTVSPropertyOp27
 70
     1
102
RTVSPropertyOp28
 70
     1
102
RTVSPropertyOp29
 70
     1
102
RTVSPropertyOp30
 70
     1
102
RTVSPropertyOp31
 70
     1
102
RTVSPropertyOp32
 70
     1
  0
XRECORD
  5
4F5
102
{ACAD_REACTORS
330
4F4
102
}
330
4F4
100
AcDbXrecord
280
     1
102
RTVSPropertyOp0
 70
     1
102
RTVSPropertyOp1
 70
     1
102
RTVSPropertyOp2
 70
     1
102
RTVSPropertyOp3
 70
     1
102
RTVSPropertyOp4
 70
     1
102
RTVSPropertyOp5
 70
     1
102
RTVSPropertyOp6
 70
     1
102
RTVSPropertyOp7
 70
     1
102
RTVSPropertyOp8
 70
     1
102
RTVSPropertyOp9
 70
     1
102
RTVSPropertyOp10
 70
     1
102
RTVSPropertyOp11
 70
     1
102
RTVSPropertyOp12
 70
     1
102
RTVSPropertyOp13
 70
     1
102
RTVSPropertyOp14
 70
     1
102
RTVSPropertyOp15
 70
     1
102
RTVSPropertyOp16
 70
     1
102
RTVSPropertyOp17
 70
     1
102
RTVSPropertyOp18
 70
     1
102
RTVSPropertyOp19
 70
     1
102
RTVSPropertyOp20
 70
     1
102
RTVSPropertyOp21
 70
     1
102
RTVSPropertyOp22
 70
     1
102
RTVSPropertyOp23
 70
     1
102
RTVSPropertyOp24
 70
     1
102
RTVSPropertyOp25
 70
     1
102
RTVSPropertyOp26
 70
     1
102
RTVSPropertyOp27
 70
     1
102
RTVSPropertyOp28
 70
     1
102
RTVSPropertyOp29
 70
     1
102
RTVSPropertyOp30
 70
     1
102
RTVSPropertyOp31
 70
     1
102
RTVSPropertyOp32
 70
     1
  0
XRECORD
  5
4F7
102
{ACAD_REACTORS
330
4F6
102
}
330
4F6
100
AcDbXrecord
280
     1
102
RTVSPropertyOp0
 70
     1
102
RTVSPropertyOp1
 70
     1
102
RTVSPropertyOp2
 70
     1
102
RTVSPropertyOp3
 70
     1
102
RTVSPropertyOp4
 70
     1
102
RTVSPropertyOp5
 70
     1
102
RTVSPropertyOp6
 70
     1
102
RTVSPropertyOp7
 70
     1
102
RTVSPropertyOp8
 70
     1
102
RTVSPropertyOp9
 70
     1
102
RTVSPropertyOp10
 70
     1
102
RTVSPropertyOp11
 70
     1
102
RTVSPropertyOp12
 70
     1
102
RTVSPropertyOp13
 70
     1
102
RTVSPropertyOp14
 70
     1
102
RTVSPropertyOp15
 70
     1
102
RTVSPropertyOp16
 70
     1
102
RTVSPropertyOp17
 70
     1
102
RTVSPropertyOp18
 70
     1
102
RTVSPropertyOp19
 70
     1
102
RTVSPropertyOp20
 70
     1
102
RTVSPropertyOp21
 70
     1
102
RTVSPropertyOp22
 70
     1
102
RTVSPropertyOp23
 70
     1
102
RTVSPropertyOp24
 70
     1
102
RTVSPropertyOp25
 70
     1
102
RTVSPropertyOp26
 70
     1
102
RTVSPropertyOp27
 70
     1
102
RTVSPropertyOp28
 70
     1
102
RTVSPropertyOp29
 70
     1
102
RTVSPropertyOp30
 70
     1
102
RTVSPropertyOp31
 70
     1
102
RTVSPropertyOp32
 70
     1
  0
XRECORD
  5
50B
102
{ACAD_REACTORS
330
50A
102
}
330
50A
100
AcDbXrecord
280
     1
102
RTVSPropertyOp0
 70
     1
102
RTVSPropertyOp1
 70
     1
102
RTVSPropertyOp2
 70
     1
102
RTVSPropertyOp3
 70
     1
102
RTVSPropertyOp4
 70
     1
102
RTVSPropertyOp5
 70
     1
102
RTVSPropertyOp6
 70
     1
102
RTVSPropertyOp7
 70
     1
102
RTVSPropertyOp8
 70
     1
102
RTVSPropertyOp9
 70
     1
102
RTVSPropertyOp10
 70
     1
102
RTVSPropertyOp11
 70
     1
102
RTVSPropertyOp12
 70
     1
102
RTVSPropertyOp13
 70
     1
102
RTVSPropertyOp14
 70
     1
102
RTVSPropertyOp15
 70
     1
102
RTVSPropertyOp16
 70
     1
102
RTVSPropertyOp17
 70
     1
102
RTVSPropertyOp18
 70
     1
102
RTVSPropertyOp19
 70
     1
102
RTVSPropertyOp20
 70
     1
102
RTVSPropertyOp21
 70
     1
102
RTVSPropertyOp22
 70
     1
102
RTVSPropertyOp23
 70
     1
102
RTVSPropertyOp24
 70
     1
102
RTVSPropertyOp25
 70
     1
102
RTVSPropertyOp26
 70
     1
102
RTVSPropertyOp27
 70
     1
102
RTVSPropertyOp28
 70
     1
102
RTVSPropertyOp29
 70
     1
102
RTVSPropertyOp30
 70
     1
102
RTVSPropertyOp31
 70
     1
102
RTVSPropertyOp32
 70
     1
  0
XRECORD
  5
501
102
{ACAD_REACTORS
330
500
102
}
330
500
100
AcDbXrecord
280
     1
102
RTVSPropertyOp0
 70
     1
102
RTVSPropertyOp1
 70
     1
102
RTVSPropertyOp2
 70
     1
102
RTVSPropertyOp3
 70
     1
102
RTVSPropertyOp4
 70
     1
102
RTVSPropertyOp5
 70
     1
102
RTVSPropertyOp6
 70
     1
102
RTVSPropertyOp7
 70
     1
102
RTVSPropertyOp8
 70
     1
102
RTVSPropertyOp9
 70
     1
102
RTVSPropertyOp10
 70
     1
102
RTVSPropertyOp11
 70
     1
102
RTVSPropertyOp12
 70
     1
102
RTVSPropertyOp13
 70
     1
102
RTVSPropertyOp14
 70
     1
102
RTVSPropertyOp15
 70
     1
102
RTVSPropertyOp16
 70
     1
102
RTVSPropertyOp17
 70
     1
102
RTVSPropertyOp18
 70
     1
102
RTVSPropertyOp19
 70
     1
102
RTVSPropertyOp20
 70
     1
102
RTVSPropertyOp21
 70
     1
102
RTVSPropertyOp22
 70
     1
102
RTVSPropertyOp23
 70
     1
102
RTVSPropertyOp24
 70
     1
102
RTVSPropertyOp25
 70
     1
102
RTVSPropertyOp26
 70
     1
102
RTVSPropertyOp27
 70
     1
102
RTVSPropertyOp28
 70
     1
102
RTVSPropertyOp29
 70
     1
102
RTVSPropertyOp30
 70
     1
102
RTVSPropertyOp31
 70
     1
102
RTVSPropertyOp32
 70
     1
  0
XRECORD
  5
509
102
{ACAD_REACTORS
330
508
102
}
330
508
100
AcDbXrecord
280
     1
102
RTVSPropertyOp0
 70
     1
102
RTVSPropertyOp1
 70
     1
102
RTVSPropertyOp2
 70
     1
102
RTVSPropertyOp3
 70
     1
102
RTVSPropertyOp4
 70
     1
102
RTVSPropertyOp5
 70
     1
102
RTVSPropertyOp6
 70
     1
102
RTVSPropertyOp7
 70
     1
102
RTVSPropertyOp8
 70
     1
102
RTVSPropertyOp9
 70
     1
102
RTVSPropertyOp10
 70
     1
102
RTVSPropertyOp11
 70
     1
102
RTVSPropertyOp12
 70
     1
102
RTVSPropertyOp13
 70
     1
102
RTVSPropertyOp14
 70
     1
102
RTVSPropertyOp15
 70
     1
102
RTVSPropertyOp16
 70
     1
102
RTVSPropertyOp17
 70
     1
102
RTVSPropertyOp18
 70
     1
102
RTVSPropertyOp19
 70
     1
102
RTVSPropertyOp20
 70
     1
102
RTVSPropertyOp21
 70
     1
102
RTVSPropertyOp22
 70
     1
102
RTVSPropertyOp23
 70
     1
102
RTVSPropertyOp24
 70
     1
102
RTVSPropertyOp25
 70
     1
102
RTVSPropertyOp26
 70
     1
102
RTVSPropertyOp27
 70
     1
102
RTVSPropertyOp28
 70
     1
102
RTVSPropertyOp29
 70
     1
102
RTVSPropertyOp30
 70
     1
102
RTVSPropertyOp31
 70
     1
102
RTVSPropertyOp32
 70
     1
  0
ENDSEC
  0
EOF
