  0
SECTION
  2
HEADER
  9
$ACADVER
  1
AC1015
  9
$ACADMAINTVER
 70
     6
  9
$DWGCODEPAGE
  3
DOS932
  9
$INSBASE
 10
0.0
 20
0.0
 30
0.0
  9
$EXTMIN
 10
0.0
 20
0.0
 30
0.0
  9
$EXTMAX
 10
420.0
 20
594.0
 30
0.0
  9
$LIMMIN
 10
0.0
 20
0.0
  9
$LIMMAX
 10
12.0
 20
9.0
  9
$ORTHOMODE
 70
     0
  9
$REGENMODE
 70
     1
  9
$FILLMODE
 70
     1
  9
$QTEXTMODE
 70
     0
  9
$MIRRTEXT
 70
     1
  9
$LTSCALE
 40
1.0
  9
$ATTMODE
 70
     1
  9
$TEXTSIZE
 40
0.2
  9
$TRACEWID
 40
0.05
  9
$TEXTSTYLE
  7
Standard
  9
$CLAYER
  8
0
  9
$CELTYPE
  6
ByLayer
  9
$CECOLOR
 62
   256
  9
$CELTSCALE
 40
1.0
  9
$DISPSILH
 70
     0
  9
$DIMSCALE
 40
1.0
  9
$DIMASZ
 40
0.18
  9
$DIMEXO
 40
0.0625
  9
$DIMDLI
 40
0.38
  9
$DIMRND
 40
0.0
  9
$DIMDLE
 40
0.0
  9
$DIMEXE
 40
0.18
  9
$DIMTP
 40
0.0
  9
$DIMTM
 40
0.0
  9
$DIMTXT
 40
0.18
  9
$DIMCEN
 40
0.09
  9
$DIMTSZ
 40
0.0
  9
$DIMTOL
 70
     0
  9
$DIMLIM
 70
     0
  9
$DIMTIH
 70
     1
  9
$DIMTOH
 70
     1
  9
$DIMSE1
 70
     0
  9
$DIMSE2
 70
     0
  9
$DIMTAD
 70
     0
  9
$DIMZIN
 70
     0
  9
$DIMBLK
  1

  9
$DIMASO
 70
     1
  9
$DIMSHO
 70
     1
  9
$DIMPOST
  1

  9
$DIMAPOST
  1

  9
$DIMALT
 70
     0
  9
$DIMALTD
 70
     2
  9
$DIMALTF
 40
25.4
  9
$DIMLFAC
 40
1.0
  9
$DIMTOFL
 70
     0
  9
$DIMTVP
 40
0.0
  9
$DIMTIX
 70
     0
  9
$DIMSOXD
 70
     0
  9
$DIMSAH
 70
     0
  9
$DIMBLK1
  1

  9
$DIMBLK2
  1

  9
$DIMSTYLE
  2
Standard
  9
$DIMCLRD
 70
     0
  9
$DIMCLRE
 70
     0
  9
$DIMCLRT
 70
     0
  9
$DIMTFAC
 40
1.0
  9
$DIMGAP
 40
0.09
  9
$DIMJUST
 70
     0
  9
$DIMSD1
 70
     0
  9
$DIMSD2
 70
     0
  9
$DIMTOLJ
 70
     1
  9
$DIMTZIN
 70
     0
  9
$DIMALTZ
 70
     0
  9
$DIMALTTZ
 70
     0
  9
$DIMUPT
 70
     0
  9
$DIMDEC
 70
     4
  9
$DIMTDEC
 70
     4
  9
$DIMALTU
 70
     2
  9
$DIMALTTD
 70
     2
  9
$DIMTXSTY
  7
Standard
  9
$DIMAUNIT
 70
     0
  9
$DIMADEC
 70
     0
  9
$DIMALTRND
 40
0.0
  9
$DIMAZIN
 70
     0
  9
$DIMDSEP
 70
    46
  9
$DIMATFIT
 70
     3
  9
$DIMFRAC
 70
     0
  9
$DIMLDRBLK
  1

  9
$DIMLUNIT
 70
     2
  9
$DIMLWD
 70
    -2
  9
$DIMLWE
 70
    -2
  9
$DIMTMOVE
 70
     0
  9
$LUNITS
 70
     2
  9
$LUPREC
 70
     4
  9
$SKETCHINC
 40
0.1
  9
$FILLETRAD
 40
0.5
  9
$AUNITS
 70
     0
  9
$AUPREC
 70
     0
  9
$MENU
  1
.
  9
$ELEVATION
 40
0.0
  9
$PELEVATION
 40
0.0
  9
$THICKNESS
 40
0.0
  9
$LIMCHECK
 70
     0
  9
$CHAMFERA
 40
0.5
  9
$CHAMFERB
 40
0.5
  9
$CHAMFERC
 40
1.0
  9
$CHAMFERD
 40
0.0
  9
$SKPOLY
 70
     0
  9
$TDCREATE
 40
2456181.644389282
  9
$TDUCREATE
 40
2456181.269389282
  9
$TDUPDATE
 40
2456181.644389294
  9
$TDUUPDATE
 40
2456181.269389294
  9
$TDINDWG
 40
0.0000000116
  9
$TDUSRTIMER
 40
0.0000000116
  9
$USRTIMER
 70
     1
  9
$ANGBASE
 50
0.0
  9
$ANGDIR
 70
     0
  9
$PDMODE
 70
     0
  9
$PDSIZE
 40
0.0
  9
$PLINEWID
 40
0.0
  9
$SPLFRAME
 70
     0
  9
$SPLINETYPE
 70
     6
  9
$SPLINESEGS
 70
     8
  9
$HANDSEED
  5
48A
  9
$SURFTAB1
 70
     6
  9
$SURFTAB2
 70
     6
  9
$SURFTYPE
 70
     6
  9
$SURFU
 70
     6
  9
$SURFV
 70
     6
  9
$UCSBASE
  2

  9
$UCSNAME
  2

  9
$UCSORG
 10
0.0
 20
0.0
 30
0.0
  9
$UCSXDIR
 10
1.0
 20
0.0
 30
0.0
  9
$UCSYDIR
 10
0.0
 20
1.0
 30
0.0
  9
$UCSORTHOREF
  2

  9
$UCSORTHOVIEW
 70
     0
  9
$UCSORGTOP
 10
0.0
 20
0.0
 30
0.0
  9
$UCSORGBOTTOM
 10
0.0
 20
0.0
 30
0.0
  9
$UCSORGLEFT
 10
0.0
 20
0.0
 30
0.0
  9
$UCSORGRIGHT
 10
0.0
 20
0.0
 30
0.0
  9
$UCSORGFRONT
 10
0.0
 20
0.0
 30
0.0
  9
$UCSORGBACK
 10
0.0
 20
0.0
 30
0.0
  9
$PUCSBASE
  2

  9
$PUCSNAME
  2

  9
$PUCSORG
 10
0.0
 20
0.0
 30
0.0
  9
$PUCSXDIR
 10
1.0
 20
0.0
 30
0.0
  9
$PUCSYDIR
 10
0.0
 20
1.0
 30
0.0
  9
$PUCSORTHOREF
  2

  9
$PUCSORTHOVIEW
 70
     0
  9
$PUCSORGTOP
 10
0.0
 20
0.0
 30
0.0
  9
$PUCSORGBOTTOM
 10
0.0
 20
0.0
 30
0.0
  9
$PUCSORGLEFT
 10
0.0
 20
0.0
 30
0.0
  9
$PUCSORGRIGHT
 10
0.0
 20
0.0
 30
0.0
  9
$PUCSORGFRONT
 10
0.0
 20
0.0
 30
0.0
  9
$PUCSORGBACK
 10
0.0
 20
0.0
 30
0.0
  9
$USERI1
 70
     0
  9
$USERI2
 70
     0
  9
$USERI3
 70
     0
  9
$USERI4
 70
     0
  9
$USERI5
 70
     0
  9
$USERR1
 40
13.2
  9
$USERR2
 40
0.0
  9
$USERR3
 40
0.0
  9
$USERR4
 40
0.0
  9
$USERR5
 40
0.0
  9
$WORLDVIEW
 70
     1
  9
$SHADEDGE
 70
     3
  9
$SHADEDIF
 70
    70
  9
$TILEMODE
 70
     1
  9
$MAXACTVP
 70
    64
  9
$PINSBASE
 10
0.0
 20
0.0
 30
0.0
  9
$PLIMCHECK
 70
     0
  9
$PEXTMIN
 10
1.00000000000000E+20
 20
1.00000000000000E+20
 30
1.00000000000000E+20
  9
$PEXTMAX
 10
-1.00000000000000E+20
 20
-1.00000000000000E+20
 30
-1.00000000000000E+20
  9
$PLIMMIN
 10
0.0
 20
0.0
  9
$PLIMMAX
 10
12.0
 20
9.0
  9
$UNITMODE
 70
     0
  9
$VISRETAIN
 70
     1
  9
$PLINEGEN
 70
     0
  9
$PSLTSCALE
 70
     1
  9
$TREEDEPTH
 70
  3020
  9
$CMLSTYLE
  2
Standard
  9
$CMLJUST
 70
     0
  9
$CMLSCALE
 40
1.0
  9
$PROXYGRAPHICS
 70
     1
  9
$MEASUREMENT
 70
     1
  9
$CELWEIGHT
370
    -1
  9
$ENDCAPS
280
     0
  9
$JOINSTYLE
280
     0
  9
$LWDISPLAY
290
     0
  9
$INSUNITS
 70
     1
  9
$HYPERLINKBASE
  1

  9
$STYLESHEET
  1

  9
$XEDIT
290
     1
  9
$CEPSNTYPE
380
     0
  9
$PSTYLEMODE
290
     0
  9
$FINGERPRINTGUID
  2
{FAEB1C30-E019-11D5-929B-00C0DF256EC4}
  9
$VERSIONGUID
  2
{FAEB1C32-E019-11D5-929B-00C0DF256EC4}
  9
$EXTNAMES
290
     1
  9
$PSVPSCALE
 40
0.0
  9
$OLESTARTUP
290
     0
  0
ENDSEC
  0
SECTION
  2
CLASSES
  0
CLASS
  1
ACDBDICTIONARYWDFLT
  2
AcDbDictionaryWithDefault
  3
ObjectDBX Classes
 90
        0
280
     0
281
     0
  0
CLASS
  1
TABLESTYLE
  2
AcDbTableStyle
  3
ObjectDBX Classes
 90
     2047
280
     0
281
     0
  0
CLASS
  1
DICTIONARYVAR
  2
AcDbDictionaryVar
  3
ObjectDBX Classes
 90
        0
280
     0
281
     0
  0
CLASS
  1

  2
exOdDbCircle
  3

 90
        0
280
     0
281
     1
  0
CLASS
  1

  2
exOdDbSpline
  3

 90
        0
280
     0
281
     1
  0
CLASS
  1

  2
exOdDbPolyline
  3

 90
        0
280
     0
281
     1
  0
CLASS
  1
ACDBPLACEHOLDER
  2
AcDbPlaceHolder
  3
ObjectDBX Classes
 90
        0
280
     0
281
     0
  0
CLASS
  1
LAYOUT
  2
AcDbLayout
  3
ObjectDBX Classes
 90
        0
280
     0
281
     0
  0
ENDSEC
  0
SECTION
  2
TABLES
  0
TABLE
  2
VPORT
  5
8
330
0
100
AcDbSymbolTable
 70
     2
  0
VPORT
  5
29
330
8
100
AcDbSymbolTableRecord
100
AcDbViewportTableRecord
  2
*Active
 70
     0
 10
0.0
 20
0.0
 11
1.0
 21
1.0
 12
210.0
 22
297.0
 13
0.0
 23
0.0
 14
0.5
 24
0.5
 15
0.5
 25
0.5
 16
0.0
 26
0.0
 36
1.0
 17
0.0
 27
0.0
 37
0.0
 40
653.4000000000001
 41
1.60267857142857
 42
50.0
 43
0.0
 44
0.0
 50
0.0
 51
0.0
 71
     0
 72
   100
 73
     1
 74
     3
 75
     0
 76
     0
 77
     0
 78
     0
281
     0
 65
     1
110
0.0
120
0.0
130
0.0
111
1.0
121
0.0
131
0.0
112
0.0
122
1.0
132
0.0
 79
     0
146
0.0
  0
ENDTAB
  0
TABLE
  2
LTYPE
  5
5
330
0
100
AcDbSymbolTable
 70
     8
  0
LTYPE
  5
14
330
5
100
AcDbSymbolTableRecord
100
AcDbLinetypeTableRecord
  2
ByBlock
 70
     0
  3

 72
    65
 73
     0
 40
0.0
  0
LTYPE
  5
15
330
5
100
AcDbSymbolTableRecord
100
AcDbLinetypeTableRecord
  2
ByLayer
 70
     0
  3

 72
    65
 73
     0
 40
0.0
  0
LTYPE
  5
16
330
5
100
AcDbSymbolTableRecord
100
AcDbLinetypeTableRecord
  2
Continuous
 70
     0
  3
Solid line
 72
    65
 73
     0
 40
0.0
  0
LTYPE
  5
2E
330
5
100
AcDbSymbolTableRecord
100
AcDbLinetypeTableRecord
  2
DASHED
 70
     0
  3
Dashed
 72
    65
 73
     2
 40
15.0
 49
7.0
 74
     0
 49
-8.0
 74
     0
  0
LTYPE
  5
2F
330
5
100
AcDbSymbolTableRecord
100
AcDbLinetypeTableRecord
  2
DOTTED
 70
     0
  3
Dotted
 72
    65
 73
     2
 40
1.0
 49
0.0
 74
     0
 49
-1.0
 74
     0
  0
LTYPE
  5
30
330
5
100
AcDbSymbolTableRecord
100
AcDbLinetypeTableRecord
  2
DOT_CENTER
 70
     0
  3
Dot_Center
 72
    65
 73
     4
 40
14.0
 49
12.0
 74
     0
 49
-1.0
 74
     0
 49
0.0
 74
     0
 49
-1.0
 74
     0
  0
LTYPE
  5
31
330
5
100
AcDbSymbolTableRecord
100
AcDbLinetypeTableRecord
  2
LONG_DASHED
 70
     0
  3
Long_Dashed
 72
    65
 73
     2
 40
15.0
 49
10.0
 74
     0
 49
-5.0
 74
     0
  0
LTYPE
  5
32
330
5
100
AcDbSymbolTableRecord
100
AcDbLinetypeTableRecord
  2
DASH_CENTER
 70
     0
  3
Dash_Center
 72
    65
 73
     4
 40
14.0
 49
11.0
 74
     0
 49
-1.0
 74
     0
 49
1.0
 74
     0
 49
-1.0
 74
     0
  0
LTYPE
  5
33
330
5
100
AcDbSymbolTableRecord
100
AcDbLinetypeTableRecord
  2
PHANTOM
 70
     0
  3
Phantom
 72
    65
 73
     6
 40
13.0
 49
10.0
 74
     0
 49
-1.0
 74
     0
 49
0.0
 74
     0
 49
-1.0
 74
     0
 49
0.0
 74
     0
 49
-1.0
 74
     0
  0
LTYPE
  5
34
330
5
100
AcDbSymbolTableRecord
100
AcDbLinetypeTableRecord
  2
CENTER_DASH_DASH
 70
     0
  3
Center_Dash_Dash
 72
    65
 73
     6
 40
14.0
 49
9.0
 74
     0
 49
-1.0
 74
     0
 49
1.0
 74
     0
 49
-1.0
 74
     0
 49
1.0
 74
     0
 49
-1.0
 74
     0
  0
ENDTAB
  0
TABLE
  2
LAYER
  5
2
330
0
100
AcDbSymbolTable
 70
     2
  0
LAYER
  5
10
330
2
100
AcDbSymbolTableRecord
100
AcDbLayerTableRecord
  2
0
 70
     0
 62
     7
  6
Continuous
370
    -3
390
F
  0
LAYER
  5
35
330
2
100
AcDbSymbolTableRecord
100
AcDbLayerTableRecord
  2
1
 70
     0
 62
     7
  6
Continuous
370
    -3
390
F
  0
ENDTAB
  0
TABLE
  2
STYLE
  5
3
330
0
100
AcDbSymbolTable
 70
     6
  0
STYLE
  5
11
330
3
100
AcDbSymbolTableRecord
100
AcDbTextStyleTableRecord
  2
Standard
 70
     0
 40
0.0
 41
1.0
 50
0.0
 71
     0
 42
0.2
  3
txt
  4

  0
STYLE
  5
BD
330
3
100
AcDbSymbolTableRecord
100
AcDbTextStyleTableRecord
  2
CONVERTER_1
 70
     0
 40
0.0
 41
0.89
 50
0.0
 71
     0
 42
0.2
  3
msmincho.ttc
  4

1001
ACAD
1000
MS Mincho
1071
    32785
  0
STYLE
  5
2EB
330
3
100
AcDbSymbolTableRecord
100
AcDbTextStyleTableRecord
  2
CONVERTER_2
 70
     0
 40
0.0
 41
0.979
 50
0.0
 71
     0
 42
0.2
  3
MSMINCHO.TTC
  4

1001
ACAD
1000
MS Mincho
1071
    32785
  0
STYLE
  5
2EE
330
3
100
AcDbSymbolTableRecord
100
AcDbTextStyleTableRecord
  2
CONVERTER_3
 70
     0
 40
0.0
 41
0.76
 50
10.0
 71
     0
 42
0.2
  3
simplex.shx
  4

  0
STYLE
  5
2F1
330
3
100
AcDbSymbolTableRecord
100
AcDbTextStyleTableRecord
  2
CONVERTER_4
 70
     0
 40
0.0
 41
0.95
 50
10.0
 71
     0
 42
0.2
  3
simplex.shx
  4

  0
STYLE
  5
3DD
330
3
100
AcDbSymbolTableRecord
100
AcDbTextStyleTableRecord
  2
CONVERTER_5
 70
     0
 40
0.0
 41
0.9
 50
0.0
 71
     0
 42
0.2
  3
txt.shx
  4

  0
ENDTAB
  0
TABLE
  2
VIEW
  5
6
330
0
100
AcDbSymbolTable
 70
     0
  0
ENDTAB
  0
TABLE
  2
UCS
  5
7
330
0
100
AcDbSymbolTable
 70
     0
  0
ENDTAB
  0
TABLE
  2
APPID
  5
9
330
0
100
AcDbSymbolTable
 70
     1
  0
APPID
  5
12
330
9
100
AcDbSymbolTableRecord
100
AcDbRegAppTableRecord
  2
ACAD
 70
     0
  0
ENDTAB
  0
TABLE
  2
DIMSTYLE
  5
A
330
0
100
AcDbSymbolTable
 70
    15
100
AcDbDimStyleTable
  0
DIMSTYLE
105
27
330
A
100
AcDbSymbolTableRecord
100
AcDbDimStyleTableRecord
  2
Standard
 70
     0
340
11
  0
DIMSTYLE
105
3F1
102
{ACAD_REACTORS
330
3F2
102
}
330
A
100
AcDbSymbolTableRecord
100
AcDbDimStyleTableRecord
  2
ME10_DIM_0
 70
     0
  3
{\Fgdt;n}<>
 41
7.0
 42
0.0
 44
2.0
 73
     0
 74
     0
 77
     1
 78
     8
140
7.0
147
0.625
172
     1
173
     1
176
     2
177
     2
178
     7
271
     2
340
3DD
  0
DIMSTYLE
105
3FE
102
{ACAD_REACTORS
330
3FF
102
}
330
A
100
AcDbSymbolTableRecord
100
AcDbDimStyleTableRecord
  2
ME10_DIM_1
 70
     0
 41
7.0
 42
0.0
 44
2.0
 73
     0
 74
     0
 77
     1
 78
     8
140
7.0
147
0.625
172
     1
173
     1
176
     2
177
     2
178
     7
271
     2
340
3DD
  0
DIMSTYLE
105
409
102
{ACAD_REACTORS
330
40A
102
}
330
A
100
AcDbSymbolTableRecord
100
AcDbDimStyleTableRecord
  2
ME10_DIM_2
 70
     0
 41
7.0
 42
0.0
 44
2.0
 73
     0
 74
     0
 77
     1
 78
     8
140
7.0
147
0.625
172
     1
173
     1
176
     2
177
     2
178
     7
271
     2
340
BD
  0
DIMSTYLE
105
414
102
{ACAD_REACTORS
330
415
102
}
330
A
100
AcDbSymbolTableRecord
100
AcDbDimStyleTableRecord
  2
ME10_DIM_3
 70
     0
 41
7.0
 42
0.0
 44
2.0
 73
     0
 74
     0
 77
     1
 78
     8
140
7.0
147
0.625
172
     1
173
     1
176
     2
177
     2
178
     7
271
     2
340
BD
  0
DIMSTYLE
105
41F
102
{ACAD_REACTORS
330
420
102
}
330
A
100
AcDbSymbolTableRecord
100
AcDbDimStyleTableRecord
  2
ME10_DIM_4
 70
     0
 41
7.0
 42
0.0
 44
2.0
 73
     0
 74
     0
 77
     1
 78
     8
140
7.0
147
0.625
172
     1
173
     1
176
     2
177
     2
178
     7
271
     2
340
3DD
  0
DIMSTYLE
105
42A
102
{ACAD_REACTORS
330
42B
102
}
330
A
100
AcDbSymbolTableRecord
100
AcDbDimStyleTableRecord
  2
ME10_DIM_5
 70
     0
 41
7.0
 42
0.0
 44
2.0
 73
     0
 74
     0
 77
     1
 78
     8
140
7.0
147
0.625
172
     1
173
     1
176
     2
177
     2
178
     7
271
     2
340
BD
  0
DIMSTYLE
105
435
102
{ACAD_REACTORS
330
436
102
}
330
A
100
AcDbSymbolTableRecord
100
AcDbDimStyleTableRecord
  2
ME10_DIM_6
 70
     0
 41
7.0
 42
0.0
 44
2.0
 73
     0
 74
     0
 77
     1
 78
     8
140
7.0
147
0.625
172
     1
173
     1
176
     2
177
     2
178
     7
271
     2
340
3DD
  0
DIMSTYLE
105
440
102
{ACAD_REACTORS
330
441
102
}
330
A
100
AcDbSymbolTableRecord
100
AcDbDimStyleTableRecord
  2
ME10_DIM_7
 70
     0
 41
7.0
 42
0.0
 44
2.0
 73
     0
 74
     0
 77
     1
 78
     8
140
7.0
147
0.625
172
     1
173
     1
176
     2
177
     2
178
     7
271
     2
340
3DD
  0
DIMSTYLE
105
44D
102
{ACAD_REACTORS
330
44E
102
}
330
A
100
AcDbSymbolTableRecord
100
AcDbDimStyleTableRecord
  2
ME10_DIM_8
 70
     0
 41
7.0
 42
0.0
 44
2.0
 73
     0
 74
     0
 77
     1
 78
     8
140
7.0
147
0.625
172
     1
173
     1
176
     2
177
     2
178
     7
271
     2
340
3DD
344
44A
  0
DIMSTYLE
105
45A
102
{ACAD_REACTORS
330
45B
102
}
330
A
100
AcDbSymbolTableRecord
100
AcDbDimStyleTableRecord
  2
ME10_DIM_9
 70
     0
 41
7.0
 42
0.0
 44
2.0
 73
     0
 74
     0
 77
     1
 78
     8
140
7.0
147
0.625
172
     1
173
     1
176
     2
177
     2
178
     7
271
     2
340
3DD
  0
DIMSTYLE
105
465
102
{ACAD_REACTORS
330
466
102
}
330
A
100
AcDbSymbolTableRecord
100
AcDbDimStyleTableRecord
  2
ME10_DIM_10
 70
     0
 41
7.0
 42
0.0
 44
2.0
 73
     0
 74
     0
 77
     1
 78
     8
140
7.0
147
0.625
172
     1
173
     1
176
     2
177
     2
178
     7
271
     2
340
3DD
  0
DIMSTYLE
105
470
102
{ACAD_REACTORS
330
471
102
}
330
A
100
AcDbSymbolTableRecord
100
AcDbDimStyleTableRecord
  2
ME10_DIM_11
 70
     0
 41
7.0
 42
0.0
 44
2.0
 73
     0
 74
     0
 77
     1
 78
     8
140
7.0
147
0.625
172
     1
173
     1
176
     2
177
     2
178
     7
271
     2
340
3DD
  0
DIMSTYLE
105
47B
102
{ACAD_REACTORS
330
47C
102
}
330
A
100
AcDbSymbolTableRecord
100
AcDbDimStyleTableRecord
  2
ME10_DIM_12
 70
     0
 41
7.0
 42
0.0
 44
2.0
 73
     0
 74
     0
 77
     1
 78
     8
140
7.0
147
0.625
172
     1
173
     1
176
     2
177
     2
178
     7
271
     2
340
3DD
  0
DIMSTYLE
105
488
102
{ACAD_REACTORS
330
489
102
}
330
A
100
AcDbSymbolTableRecord
100
AcDbDimStyleTableRecord
  2
ME10_DIM_13
 70
     0
 41
7.0
 42
0.0
 44
2.0
 73
     0
 74
     0
 77
     1
 78
     8
140
7.0
147
0.625
172
     1
173
     1
176
     2
177
     2
178
     7
271
     2
340
3DD
  0
ENDTAB
  0
TABLE
  2
BLOCK_RECORD
  5
1
330
0
100
AcDbSymbolTable
 70
    31
  0
BLOCK_RECORD
  5
1F
330
1
100
AcDbSymbolTableRecord
100
AcDbBlockTableRecord
  2
*Model_Space
340
22
  0
BLOCK_RECORD
  5
1B
330
1
100
AcDbSymbolTableRecord
100
AcDbBlockTableRecord
  2
*Paper_Space
340
1E
  0
BLOCK_RECORD
  5
23
330
1
100
AcDbSymbolTableRecord
100
AcDbBlockTableRecord
  2
*Paper_Space0
340
26
  0
BLOCK_RECORD
  5
36
330
1
100
AcDbSymbolTableRecord
100
AcDbBlockTableRecord
  2
_J__A4
340
0
102
{BLKREFS
331
63
102
}
  0
BLOCK_RECORD
  5
39
330
1
100
AcDbSymbolTableRecord
100
AcDbBlockTableRecord
  2
V097-H7A
340
0
102
{BLKREFS
331
64
102
}
  0
BLOCK_RECORD
  5
3C
330
1
100
AcDbSymbolTableRecord
100
AcDbBlockTableRecord
  2
88-249
340
0
102
{BLKREFS
331
65
102
}
  0
BLOCK_RECORD
  5
3F
330
1
100
AcDbSymbolTableRecord
100
AcDbBlockTableRecord
  2
V97-30-Z1__1
340
0
102
{BLKREFS
331
66
102
}
  0
BLOCK_RECORD
  5
42
330
1
100
AcDbSymbolTableRecord
100
AcDbBlockTableRecord
  2
V97-30-Z1__2
340
0
102
{BLKREFS
331
67
102
}
  0
BLOCK_RECORD
  5
45
330
1
100
AcDbSymbolTableRecord
100
AcDbBlockTableRecord
  2
V97-H11
340
0
102
{BLKREFS
331
68
102
}
  0
BLOCK_RECORD
  5
48
330
1
100
AcDbSymbolTableRecord
100
AcDbBlockTableRecord
  2
V97-H12
340
0
102
{BLKREFS
331
69
102
}
  0
BLOCK_RECORD
  5
4B
330
1
100
AcDbSymbolTableRecord
100
AcDbBlockTableRecord
  2
BIS
340
0
102
{BLKREFS
331
6A
102
}
  0
BLOCK_RECORD
  5
4E
330
1
100
AcDbSymbolTableRecord
100
AcDbBlockTableRecord
  2
BIS2
340
0
102
{BLKREFS
331
6B
102
}
  0
BLOCK_RECORD
  5
51
330
1
100
AcDbSymbolTableRecord
100
AcDbBlockTableRecord
  2
V97D-H1
340
0
102
{BLKREFS
331
6C
102
}
  0
BLOCK_RECORD
  5
54
330
1
100
AcDbSymbolTableRecord
100
AcDbBlockTableRecord
  2
V972GN-H6
340
0
102
{BLKREFS
331
6D
102
}
  0
BLOCK_RECORD
  5
57
330
1
100
AcDbSymbolTableRecord
100
AcDbBlockTableRecord
  2
V972GN-H2
340
0
102
{BLKREFS
331
6E
102
}
  0
BLOCK_RECORD
  5
5A
330
1
100
AcDbSymbolTableRecord
100
AcDbBlockTableRecord
  2
V97G-H2
340
0
102
{BLKREFS
331
6F
102
}
  0
BLOCK_RECORD
  5
5D
330
1
100
AcDbSymbolTableRecord
100
AcDbBlockTableRecord
  2
V97G-H3
340
0
102
{BLKREFS
331
70
102
}
  0
BLOCK_RECORD
  5
60
330
1
100
AcDbSymbolTableRecord
100
AcDbBlockTableRecord
  2
V972GN-H3
340
0
102
{BLKREFS
331
71
102
}
  0
BLOCK_RECORD
  5
3E6
330
1
100
AcDbSymbolTableRecord
100
AcDbBlockTableRecord
  2
*D016
340
0
  0
BLOCK_RECORD
  5
3F3
330
1
100
AcDbSymbolTableRecord
100
AcDbBlockTableRecord
  2
*D117
340
0
  0
BLOCK_RECORD
  5
400
330
1
100
AcDbSymbolTableRecord
100
AcDbBlockTableRecord
  2
*D218
340
0
  0
BLOCK_RECORD
  5
40B
330
1
100
AcDbSymbolTableRecord
100
AcDbBlockTableRecord
  2
*D319
340
0
  0
BLOCK_RECORD
  5
416
330
1
100
AcDbSymbolTableRecord
100
AcDbBlockTableRecord
  2
*D420
340
0
  0
BLOCK_RECORD
  5
421
330
1
100
AcDbSymbolTableRecord
100
AcDbBlockTableRecord
  2
*D521
340
0
  0
BLOCK_RECORD
  5
42C
330
1
100
AcDbSymbolTableRecord
100
AcDbBlockTableRecord
  2
*D622
340
0
  0
BLOCK_RECORD
  5
437
330
1
100
AcDbSymbolTableRecord
100
AcDbBlockTableRecord
  2
*D723
340
0
  0
BLOCK_RECORD
  5
442
330
1
100
AcDbSymbolTableRecord
100
AcDbBlockTableRecord
  2
*D824
340
0
  0
BLOCK_RECORD
  5
44A
330
1
100
AcDbSymbolTableRecord
100
AcDbBlockTableRecord
  2
_None
340
0
  0
BLOCK_RECORD
  5
44F
330
1
100
AcDbSymbolTableRecord
100
AcDbBlockTableRecord
  2
*D926
340
0
  0
BLOCK_RECORD
  5
45C
330
1
100
AcDbSymbolTableRecord
100
AcDbBlockTableRecord
  2
*D1027
340
0
  0
BLOCK_RECORD
  5
467
330
1
100
AcDbSymbolTableRecord
100
AcDbBlockTableRecord
  2
*D1128
340
0
  0
BLOCK_RECORD
  5
472
330
1
100
AcDbSymbolTableRecord
100
AcDbBlockTableRecord
  2
*D1229
340
0
  0
BLOCK_RECORD
  5
47D
330
1
100
AcDbSymbolTableRecord
100
AcDbBlockTableRecord
  2
*D1330
340
0
  0
ENDTAB
  0
ENDSEC
  0
SECTION
  2
BLOCKS
  0
BLOCK
  5
20
330
1F
100
AcDbEntity
  8
0
100
AcDbBlockBegin
  2
*Model_Space
 70
     0
 71
     0
 10
0.0
 20
0.0
 30
0.0
  3
*Model_Space
  1

  0
ENDBLK
  5
21
330
1F
100
AcDbEntity
  8
0
100
AcDbBlockEnd
  0
BLOCK
  5
1C
330
1B
100
AcDbEntity
 67
     1
  8
0
100
AcDbBlockBegin
  2
*Paper_Space
 70
     0
 71
     0
 10
0.0
 20
0.0
 30
0.0
  3
*Paper_Space
  1

  0
ENDBLK
  5
1D
330
1B
100
AcDbEntity
 67
     1
  8
0
100
AcDbBlockEnd
  0
BLOCK
  5
24
330
23
100
AcDbEntity
  8
0
100
AcDbBlockBegin
  2
*Paper_Space0
 70
     0
 71
     0
 10
0.0
 20
0.0
 30
0.0
  3
*Paper_Space0
  1

  0
ENDBLK
  5
25
330
23
100
AcDbEntity
  8
0
100
AcDbBlockEnd
  0
BLOCK
  5
37
330
36
100
AcDbEntity
  8
0
100
AcDbBlockBegin
  2
_J__A4
 70
     0
 71
     0
 10
0.0
 20
0.0
 30
0.0
  3
_J__A4
  1

  0
POINT
  5
72
330
36
100
AcDbEntity
  8
1
 62
     4
100
AcDbPoint
 10
34.0
 20
34.00000000000001
 30
0.0
  0
POINT
  5
73
330
36
100
AcDbEntity
  8
1
 62
     4
100
AcDbPoint
 10
57.0
 20
12.25
 30
0.0
  0
POINT
  5
74
330
36
100
AcDbEntity
  8
1
 62
     4
100
AcDbPoint
 10
57.0
 20
20.75000000000001
 30
0.0
  0
POINT
  5
75
330
36
100
AcDbEntity
  8
1
 62
     4
100
AcDbPoint
 10
57.0
 20
24.75000000000001
 30
0.0
  0
POINT
  5
76
330
36
100
AcDbEntity
  8
1
 62
     4
100
AcDbPoint
 10
57.0
 20
16.25
 30
0.0
  0
POINT
  5
77
330
36
100
AcDbEntity
  8
1
 62
     4
100
AcDbPoint
 10
157.5
 20
19.00000000000001
 30
0.0
  0
POINT
  5
78
330
36
100
AcDbEntity
  8
1
 62
     4
100
AcDbPoint
 10
47.5
 20
282.0000000000003
 30
0.0
  0
POINT
  5
79
330
36
100
AcDbEntity
  8
1
 62
     4
100
AcDbPoint
 10
57.0
 20
22.75000000000001
 30
0.0
  0
POINT
  5
7A
330
36
100
AcDbEntity
  8
1
 62
     4
100
AcDbPoint
 10
57.0
 20
14.25
 30
0.0
  0
POINT
  5
7B
330
36
100
AcDbEntity
  8
1
 62
     4
100
AcDbPoint
 10
157.5
 20
12.5
 30
0.0
  0
POINT
  5
7C
330
36
100
AcDbEntity
  8
1
 62
     4
100
AcDbPoint
 10
163.25
 20
12.5
 30
0.0
  0
POINT
  5
7D
330
36
100
AcDbEntity
  8
1
 62
     4
100
AcDbPoint
 10
151.75
 20
12.5
 30
0.0
  0
POINT
  5
7E
330
36
100
AcDbEntity
  8
1
 62
     4
100
AcDbPoint
 10
134.75
 20
12.5
 30
0.0
  0
POINT
  5
7F
330
36
100
AcDbEntity
  8
1
 62
     4
100
AcDbPoint
 10
146.25
 20
12.5
 30
0.0
  0
POINT
  5
80
330
36
100
AcDbEntity
  8
1
 62
     4
100
AcDbPoint
 10
140.5
 20
12.5
 30
0.0
  0
POINT
  5
81
330
36
100
AcDbEntity
  8
1
 62
     4
100
AcDbPoint
 10
140.5
 20
19.00000000000001
 30
0.0
  0
POINT
  5
82
330
36
100
AcDbEntity
  8
1
 62
     4
100
AcDbPoint
 10
117.75
 20
12.5
 30
0.0
  0
POINT
  5
83
330
36
100
AcDbEntity
  8
1
 62
     4
100
AcDbPoint
 10
129.25
 20
12.5
 30
0.0
  0
POINT
  5
84
330
36
100
AcDbEntity
  8
1
 62
     4
100
AcDbPoint
 10
123.5
 20
12.5
 30
0.0
  0
POINT
  5
85
330
36
100
AcDbEntity
  8
1
 62
     4
100
AcDbPoint
 10
123.5
 20
19.00000000000001
 30
0.0
  0
POINT
  5
86
330
36
100
AcDbEntity
  8
1
 62
     4
100
AcDbPoint
 10
100.75
 20
12.5
 30
0.0
  0
POINT
  5
87
330
36
100
AcDbEntity
  8
1
 62
     4
100
AcDbPoint
 10
112.25
 20
12.5
 30
0.0
  0
POINT
  5
88
330
36
100
AcDbEntity
  8
1
 62
     4
100
AcDbPoint
 10
106.5
 20
12.5
 30
0.0
  0
POINT
  5
89
330
36
100
AcDbEntity
  8
1
 62
     4
100
AcDbPoint
 10
106.5
 20
19.00000000000001
 30
0.0
  0
POINT
  5
8A
330
36
100
AcDbEntity
  8
1
 62
     4
100
AcDbPoint
 10
85.25
 20
17.0
 30
0.0
  0
POINT
  5
8B
330
36
100
AcDbEntity
  8
1
 62
     4
100
AcDbPoint
 10
93.75
 20
17.0
 30
0.0
  0
LINE
  5
8C
330
36
100
AcDbEntity
  8
1
  6
Continuous
 62
     2
100
AcDbLine
 10
81.0
 20
27.00000000000001
 30
0.0
 11
81.0
 21
10.0
 31
0.0
  0
LINE
  5
8D
330
36
100
AcDbEntity
  8
1
  6
DOT_CENTER
 62
     2
100
AcDbLine
 10
187.0
 20
26.50000000000001
 30
0.0
 11
187.0
 21
20.50000000000001
 31
0.0
  0
LINE
  5
8E
330
36
100
AcDbEntity
  8
1
  6
DOT_CENTER
 62
     2
100
AcDbLine
 10
184.0
 20
23.50000000000001
 30
0.0
 11
197.0
 21
23.50000000000001
 31
0.0
  0
LINE
  5
8F
330
36
100
AcDbEntity
  8
1
  6
Continuous
 62
     7
100
AcDbLine
 10
196.0
 20
21.50000000000001
 30
0.0
 11
191.0
 21
22.30000000000001
 31
0.0
  0
LINE
  5
90
330
36
100
AcDbEntity
  8
1
  6
Continuous
 62
     7
100
AcDbLine
 10
196.0
 20
25.50000000000001
 30
0.0
 11
196.0
 21
21.50000000000001
 31
0.0
  0
LINE
  5
91
330
36
100
AcDbEntity
  8
1
  6
Continuous
 62
     7
100
AcDbLine
 10
191.0
 20
24.70000000000001
 30
0.0
 11
196.0
 21
25.50000000000001
 31
0.0
  0
LINE
  5
92
330
36
100
AcDbEntity
  8
1
  6
Continuous
 62
     7
100
AcDbLine
 10
191.0
 20
24.70000000000001
 30
0.0
 11
191.0
 21
22.30000000000001
 31
0.0
  0
LINE
  5
93
330
36
100
AcDbEntity
  8
1
  6
Continuous
 62
     2
100
AcDbLine
 10
33.0
 20
27.0
 30
0.0
 11
33.0
 21
10.0
 31
0.0
  0
LINE
  5
94
330
36
100
AcDbEntity
  8
1
  6
Continuous
 62
     2
100
AcDbLine
 10
25.0
 20
18.50000000000001
 30
0.0
 11
81.0
 21
18.50000000000001
 31
0.0
  0
LINE
  5
95
330
36
100
AcDbEntity
  8
1
  6
Continuous
 62
     7
100
AcDbLine
 10
200.0
 20
287.0000000000003
 30
0.0
 11
105.0
 21
287.0000000000003
 31
0.0
  0
LINE
  5
96
330
36
100
AcDbEntity
  8
1
  6
Continuous
 62
     7
100
AcDbLine
 10
200.0
 20
10.0
 30
0.0
 11
200.0
 21
148.5
 31
0.0
  0
LINE
  5
97
330
36
100
AcDbEntity
  8
1
  6
Continuous
 62
     7
100
AcDbLine
 10
25.0
 20
10.0
 30
0.0
 11
105.0
 21
10.0
 31
0.0
  0
LINE
  5
98
330
36
100
AcDbEntity
  8
1
  6
PHANTOM
 62
     4
100
AcDbLine
 10
0.0
 20
297.0
 30
0.0
 11
0.0
 21
0.0
 31
0.0
  0
LINE
  5
99
330
36
100
AcDbEntity
  8
1
  6
PHANTOM
 62
     4
100
AcDbLine
 10
210.0
 20
297.0
 30
0.0
 11
0.0
 21
297.0
 31
0.0
  0
LINE
  5
9A
330
36
100
AcDbEntity
  8
1
  6
PHANTOM
 62
     4
100
AcDbLine
 10
210.0
 20
0.0
 30
0.0
 11
210.0
 21
297.0
 31
0.0
  0
LINE
  5
9B
330
36
100
AcDbEntity
  8
1
  6
PHANTOM
 62
     4
100
AcDbLine
 10
0.0
 20
0.0
 30
0.0
 11
210.0
 21
0.0
 31
0.0
  0
LINE
  5
9C
330
36
100
AcDbEntity
  8
1
  6
Continuous
 62
     7
100
AcDbLine
 10
25.0
 20
41.0
 30
0.0
 11
200.0
 21
41.0
 31
0.0
  0
LINE
  5
9D
330
36
100
AcDbEntity
  8
1
  6
Continuous
 62
     7
100
AcDbLine
 10
200.0
 20
27.00000000000001
 30
0.0
 11
25.0
 21
27.00000000000001
 31
0.0
  0
LINE
  5
9E
330
36
100
AcDbEntity
  8
1
  6
Continuous
 62
     2
100
AcDbLine
 10
33.0
 20
41.00000000000001
 30
0.0
 11
33.0
 21
27.0
 31
0.0
  0
LINE
  5
9F
330
36
100
AcDbEntity
  8
1
  6
Continuous
 62
     2
100
AcDbLine
 10
55.0
 20
287.0000000000003
 30
0.0
 11
55.0
 21
277.0000000000003
 31
0.0
  0
LINE
  5
A0
330
36
100
AcDbEntity
  8
1
  6
Continuous
 62
     2
100
AcDbLine
 10
40.0
 20
287.0000000000003
 30
0.0
 11
40.0
 21
277.0000000000003
 31
0.0
  0
LINE
  5
A1
330
36
100
AcDbEntity
  8
1
  6
Continuous
 62
     7
100
AcDbLine
 10
25.0
 20
10.0
 30
0.0
 11
25.0
 21
148.5
 31
0.0
  0
LINE
  5
A2
330
36
100
AcDbEntity
  8
1
  6
Continuous
 62
     2
100
AcDbLine
 10
55.0
 20
277.0000000000003
 30
0.0
 11
25.0
 21
277.0000000000003
 31
0.0
  0
LINE
  5
A3
330
36
100
AcDbEntity
  8
1
  6
Continuous
 62
     2
100
AcDbLine
 10
166.0
 20
27.00000000000001
 30
0.0
 11
166.0
 21
10.0
 31
0.0
  0
LINE
  5
A4
330
36
100
AcDbEntity
  8
1
  6
Continuous
 62
     2
100
AcDbLine
 10
132.0
 20
27.00000000000001
 30
0.0
 11
132.0
 21
9.99999999999999
 31
0.0
  0
LINE
  5
A5
330
36
100
AcDbEntity
  8
1
  6
Continuous
 62
     2
100
AcDbLine
 10
149.0
 20
27.00000000000001
 30
0.0
 11
149.0
 21
10.0
 31
0.0
  0
LINE
  5
A6
330
36
100
AcDbEntity
  8
1
  6
Continuous
 62
     2
100
AcDbLine
 10
115.0
 20
27.00000000000001
 30
0.0
 11
115.0
 21
9.99999999999999
 31
0.0
  0
LINE
  5
A7
330
36
100
AcDbEntity
  8
1
  6
Continuous
 62
     2
100
AcDbLine
 10
98.0
 20
27.00000000000001
 30
0.0
 11
98.0
 21
9.99999999999999
 31
0.0
  0
LINE
  5
A8
330
36
100
AcDbEntity
  8
1
  6
Continuous
 62
     2
100
AcDbLine
 10
166.0
 20
20.00000000000001
 30
0.0
 11
200.0
 21
20.00000000000001
 31
0.0
  0
LINE
  5
A9
330
36
100
AcDbEntity
  8
1
  6
Continuous
 62
     2
100
AcDbLine
 10
105.0
 20
287.0000000000003
 30
0.0
 11
105.0
 21
292.0000000000003
 31
0.0
  0
LINE
  5
AA
330
36
100
AcDbEntity
  8
1
  6
Continuous
 62
     7
100
AcDbLine
 10
105.0
 20
287.0000000000003
 30
0.0
 11
25.0
 21
287.0000000000003
 31
0.0
  0
LINE
  5
AB
330
36
100
AcDbEntity
  8
1
  6
Continuous
 62
     2
100
AcDbLine
 10
25.0
 20
148.5
 30
0.0
 11
20.0
 21
148.5
 31
0.0
  0
LINE
  5
AC
330
36
100
AcDbEntity
  8
1
  6
Continuous
 62
     7
100
AcDbLine
 10
25.0
 20
148.5
 30
0.0
 11
25.0
 21
287.0000000000003
 31
0.0
  0
LINE
  5
AD
330
36
100
AcDbEntity
  8
1
  6
Continuous
 62
     2
100
AcDbLine
 10
200.0
 20
148.5
 30
0.0
 11
205.0
 21
148.5
 31
0.0
  0
LINE
  5
AE
330
36
100
AcDbEntity
  8
1
  6
Continuous
 62
     7
100
AcDbLine
 10
200.0
 20
148.5
 30
0.0
 11
200.0
 21
287.0000000000003
 31
0.0
  0
LINE
  5
AF
330
36
100
AcDbEntity
  8
1
  6
Continuous
 62
     2
100
AcDbLine
 10
105.0
 20
10.0
 30
0.0
 11
105.0
 21
5.0
 31
0.0
  0
LINE
  5
B0
330
36
100
AcDbEntity
  8
1
  6
Continuous
 62
     7
100
AcDbLine
 10
105.0
 20
10.0
 30
0.0
 11
200.0
 21
10.0
 31
0.0
  0
CIRCLE
  5
B1
330
36
100
AcDbEntity
  8
1
  6
DOT_CENTER
 62
     7
100
AcDbCircle
 10
89.5
 20
18.0
 30
0.0
 40
0.1000000000000227
  0
CIRCLE
  5
B2
330
36
100
AcDbEntity
  8
1
  6
DOT_CENTER
 62
     7
100
AcDbCircle
 10
89.5
 20
16.0
 30
0.0
 40
0.1000000000000227
  0
CIRCLE
  5
B3
330
36
100
AcDbEntity
  8
1
  6
Continuous
 62
     7
100
AcDbCircle
 10
187.0
 20
23.50000000000001
 30
0.0
 40
2.0
  0
CIRCLE
  5
B4
330
36
100
AcDbEntity
  8
1
  6
Continuous
 62
     7
100
AcDbCircle
 10
187.0
 20
23.50000000000001
 30
0.0
 40
1.200000000000102
  0
CIRCLE
  5
B5
330
36
100
AcDbEntity
  8
1
  6
Continuous
 62
     7
100
AcDbCircle
 10
154.5
 20
12.5
 30
0.0
 40
0.3000000000000114
  0
CIRCLE
  5
B6
330
36
100
AcDbEntity
  8
1
  6
Continuous
 62
     7
100
AcDbCircle
 10
160.5
 20
12.5
 30
0.0
 40
0.3000000000000114
  0
CIRCLE
  5
B7
330
36
100
AcDbEntity
  8
1
  6
Continuous
 62
     7
100
AcDbCircle
 10
143.5
 20
12.5
 30
0.0
 40
0.3000000000000114
  0
CIRCLE
  5
B8
330
36
100
AcDbEntity
  8
1
  6
Continuous
 62
     7
100
AcDbCircle
 10
137.5
 20
12.5
 30
0.0
 40
0.3000000000000114
  0
CIRCLE
  5
B9
330
36
100
AcDbEntity
  8
1
  6
Continuous
 62
     7
100
AcDbCircle
 10
126.5
 20
12.5
 30
0.0
 40
0.2999999999999972
  0
CIRCLE
  5
BA
330
36
100
AcDbEntity
  8
1
  6
Continuous
 62
     7
100
AcDbCircle
 10
120.5
 20
12.5
 30
0.0
 40
0.2999999999999972
  0
CIRCLE
  5
BB
330
36
100
AcDbEntity
  8
1
  6
Continuous
 62
     7
100
AcDbCircle
 10
109.5
 20
12.5
 30
0.0
 40
0.2999999999999972
  0
CIRCLE
  5
BC
330
36
100
AcDbEntity
  8
1
  6
Continuous
 62
     7
100
AcDbCircle
 10
103.5
 20
12.5
 30
0.0
 40
0.2999999999999972
  0
MTEXT
  5
BE
330
36
100
AcDbEntity
  8
1
 62
   250
100
AcDbMText
 10
25.0
 20
5.0
 30
0.0
 40
3.5
 41
0.0
 71
     4
 72
     1
  1
備考欄の文字列 原点位置=4
  7
CONVERTER_1
 73
     1
 44
0.7202881152461
  0
MTEXT
  5
BF
330
36
100
AcDbEntity
  8
1
 62
     2
100
AcDbMText
 10
89.5
 20
24.00000000000001
 30
0.0
 40
3.5
 41
0.0
 71
     5
 72
     1
  1
尺度
  7
CONVERTER_1
 73
     1
 44
0.7202881152461
  0
MTEXT
  5
C0
330
36
100
AcDbEntity
  8
1
 62
     2
100
AcDbMText
 10
135.5
 20
25.00000000000001
 30
0.0
 40
3.0
 41
0.0
 71
     5
 72
     1
  1
製図
  7
CONVERTER_1
 73
     1
 44
0.78031212484994
  0
MTEXT
  5
C1
330
36
100
AcDbEntity
  8
1
 62
     2
100
AcDbMText
 10
152.5
 20
25.00000000000001
 30
0.0
 40
3.0
 41
0.0
 71
     5
 72
     1
  1
設計
  7
CONVERTER_1
 73
     1
 44
0.78031212484994
  0
MTEXT
  5
C2
330
36
100
AcDbEntity
  8
1
 62
     2
100
AcDbMText
 10
118.5
 20
25.00000000000001
 30
0.0
 40
3.0
 41
0.0
 71
     5
 72
     1
  1
検図
  7
CONVERTER_1
 73
     1
 44
0.78031212484994
  0
MTEXT
  5
C3
330
36
100
AcDbEntity
  8
1
 62
     2
100
AcDbMText
 10
175.0
 20
23.50000000000001
 30
0.0
 40
3.5
 41
0.0
 71
     5
 72
     1
  1
第三角法
  7
CONVERTER_1
 73
     1
 44
0.7202881152461
  0
MTEXT
  5
C4
330
36
100
AcDbEntity
  8
1
 62
     2
100
AcDbMText
 10
101.5
 20
25.00000000000001
 30
0.0
 40
3.0
 41
0.0
 71
     5
 72
     1
  1
承認
  7
CONVERTER_1
 73
     1
 44
0.78031212484994
  0
MTEXT
  5
C5
330
36
100
AcDbEntity
  8
1
 62
     2
100
AcDbMText
 10
29.0
 20
14.25
 30
0.0
 40
3.5
 41
0.0
 71
     5
 72
     1
  1
品番
  7
CONVERTER_1
 73
     1
 44
0.96038415366146
  0
MTEXT
  5
C6
330
36
100
AcDbEntity
  8
1
 62
     2
100
AcDbMText
 10
29.0
 20
22.75
 30
0.0
 40
3.5
 41
0.0
 71
     5
 72
     1
  1
品名
  7
CONVERTER_1
 73
     1
 44
0.96038415366146
  0
MTEXT
  5
C7
330
36
100
AcDbEntity
  8
1
 62
     2
100
AcDbMText
 10
29.0
 20
34.00000000000001
 30
0.0
 40
3.5
 41
0.0
 71
     5
 72
     1
  1
備考
  7
CONVERTER_1
 73
     1
 44
0.60024009603842
  0
MTEXT
  5
C8
330
36
100
AcDbEntity
  8
1
 62
     2
100
AcDbMText
 10
32.5
 20
282.0000000000003
 30
0.0
 40
5.0
 41
0.0
 71
     5
 72
     1
  1
図番
  7
CONVERTER_1
 73
     1
 44
0.60024009603842
  0
MTEXT
  5
C9
330
36
100
AcDbEntity
  8
1
 62
     7
100
AcDbMText
 10
171.5
 20
15.0
 30
0.0
 40
2.5
 41
0.0
 71
     5
 72
     1
  1
株式会社
  7
CONVERTER_1
 73
     1
 44
1.32052821128451
  0
MTEXT
  5
CA
330
36
100
AcDbEntity
  8
1
 62
     7
100
AcDbMText
 10
188.5
 20
15.0
 30
0.0
 40
3.0
 41
0.0
 71
     5
 72
     1
  1
三栄水栓製作所
  7
CONVERTER_1
 73
     1
 44
1.32052821128451
  0
ENDBLK
  5
38
330
36
100
AcDbEntity
  8
0
100
AcDbBlockEnd
  0
BLOCK
  5
3A
330
39
100
AcDbEntity
  8
0
100
AcDbBlockBegin
  2
V097-H7A
 70
     0
 71
     0
 10
-5.68561283632698
 20
901.8037120855315
 30
0.0
  3
V097-H7A
  1

  0
LINE
  5
CB
330
39
100
AcDbEntity
  8
0
  6
Continuous
 62
     7
100
AcDbLine
 10
265.5042110285922
 20
288.2254394919614
 30
0.0
 11
268.3873970294735
 21
287.9844690245354
 31
0.0
  0
LINE
  5
CC
330
39
100
AcDbEntity
  8
0
  6
Continuous
 62
     7
100
AcDbLine
 10
265.5042165611631
 20
296.1976444653606
 30
0.0
 11
268.3873970294735
 21
296.4386104406804
 31
0.0
  0
LINE
  5
CD
330
39
100
AcDbEntity
  8
0
  6
Continuous
 62
     7
100
AcDbLine
 10
174.6180610542724
 20
361.2433134390376
 30
0.0
 11
174.6180610676729
 21
361.2433134390376
 31
0.0
  0
LINE
  5
CE
330
39
100
AcDbEntity
  8
0
  6
Continuous
 62
     7
100
AcDbLine
 10
175.1165989727324
 20
361.7051040524534
 30
0.0
 11
175.5832169443929
 21
367.7933134390373
 31
0.0
  0
LINE
  5
CF
330
39
100
AcDbEntity
  8
0
  6
Continuous
 62
     7
100
AcDbLine
 10
174.6580700411832
 20
362.2490202227336
 30
0.0
 11
175.0551208674133
 21
367.7933134390373
 31
0.0
  0
LINE
  5
D0
330
39
100
AcDbEntity
  8
0
  6
Continuous
 62
     7
100
AcDbLine
 10
143.0078710602429
 20
361.7051040524534
 30
0.0
 11
142.5412530885824
 21
367.7933134390373
 31
0.0
  0
LINE
  5
D1
330
39
100
AcDbEntity
  8
0
  6
Continuous
 62
     7
100
AcDbLine
 10
143.466399991783
 20
362.2490202227336
 30
0.0
 11
143.0693491655529
 21
367.7933134390373
 31
0.0
  0
LINE
  5
D2
330
39
100
AcDbEntity
  8
0
  6
Continuous
 62
     2
100
AcDbLine
 10
175.0612060048334
 20
361.2433134390376
 30
0.0
 11
175.1165989726833
 21
361.7051040518036
 31
0.0
  0
LINE
  5
D3
330
39
100
AcDbEntity
  8
0
  6
Continuous
 62
     2
100
AcDbLine
 10
174.6180610542724
 20
361.2433134390376
 30
0.0
 11
175.0612060048334
 21
361.2433134390376
 31
0.0
  0
LINE
  5
D4
330
39
100
AcDbEntity
  8
0
  6
Continuous
 62
     7
100
AcDbLine
 10
143.5064089652933
 20
361.2433134390376
 30
0.0
 11
174.6180610542724
 21
361.2433134390376
 31
0.0
  0
LINE
  5
D5
330
39
100
AcDbEntity
  8
0
  6
Continuous
 62
     2
100
AcDbLine
 10
143.0632640281328
 20
361.2433134390376
 30
0.0
 11
143.0078710602429
 21
361.7051040524534
 31
0.0
  0
LINE
  5
D6
330
39
100
AcDbEntity
  8
0
  6
Continuous
 62
     2
100
AcDbLine
 10
143.0632640281328
 20
361.2433134390376
 30
0.0
 11
143.5064089519019
 21
361.2433134390376
 31
0.0
  0
LINE
  5
D7
330
39
100
AcDbEntity
  8
0
  6
Continuous
 62
     7
100
AcDbLine
 10
173.3122350164831
 20
297.3115417474633
 30
0.0
 11
144.8122350164831
 21
297.3115417474633
 31
0.0
  0
LINE
  5
D8
330
39
100
AcDbEntity
  8
0
  6
Continuous
 62
     7
100
AcDbLine
 10
173.3122350164831
 20
287.3115417474633
 30
0.0
 11
144.8122350164831
 21
287.3115417474633
 31
0.0
  0
ARC
  5
D9
330
39
100
AcDbEntity
  8
0
  6
Continuous
 62
     7
100
AcDbCircle
 10
265.8373608577731
 20
292.2115417474624
 30
0.0
 40
3.999999999999931
100
AcDbArc
 50
94.77747464981225
 51
-94.7775541743525
  0
LINE
  5
DA
330
39
100
AcDbEntity
  8
0
  6
Continuous
 62
     7
100
AcDbLine
 10
143.007871058242
 20
361.7051040785204
 30
0.0
 11
143.0078710602429
 21
361.7051040524534
 31
0.0
  0
ARC
  5
DB
330
39
100
AcDbEntity
  8
0
  6
Continuous
 62
     7
100
AcDbCircle
 10
174.6180610676729
 20
361.7433134390376
 30
0.0
 40
0.5000000000000001
100
AcDbArc
 50
-90.00000153558361
 51
-4.38274607999632
  0
ARC
  5
DC
330
39
100
AcDbEntity
  8
0
  6
Continuous
 62
     7
100
AcDbCircle
 10
143.5064089652933
 20
361.7433134390376
 30
0.0
 40
0.4999999999951793
100
AcDbArc
 50
-175.6172539946016
 51
-90.0000015345414
  0
ARC
  5
DD
330
39
100
AcDbEntity
  8
0
  6
Continuous
 62
     7
100
AcDbCircle
 10
159.0622350164831
 20
292.3115417474623
 30
0.0
 40
16.00000000000566
100
AcDbArc
 50
16.47074106557292
 51
163.5292589344179
  0
ARC
  5
DE
330
39
100
AcDbEntity
  8
0
  6
Continuous
 62
     7
100
AcDbCircle
 10
134.3122350164831
 20
292.3115417474633
 30
0.0
 40
10.00000000000075
100
AcDbArc
 50
-19.31612216775938
 51
19.31612216776091
  0
ARC
  5
DF
330
39
100
AcDbEntity
  8
0
  6
Continuous
 62
     7
100
AcDbCircle
 10
159.0622350164831
 20
292.3115417474623
 30
0.0
 40
15.99999999999624
100
AcDbArc
 50
-163.5292589344263
 51
-16.47074106556453
  0
ARC
  5
E0
330
39
100
AcDbEntity
  8
0
  6
Continuous
 62
     7
100
AcDbCircle
 10
183.8122350164831
 20
292.3115417474633
 30
0.0
 40
10.0
100
AcDbArc
 50
180.0
 51
-160.6838778322406
  0
ARC
  5
E1
330
39
100
AcDbEntity
  8
0
  6
Continuous
 62
     7
100
AcDbCircle
 10
183.8122350164831
 20
292.3115417474633
 30
0.0
 40
10.00000000000085
100
AcDbArc
 50
160.6838778322391
 51
180.0
  0
CIRCLE
  5
E2
330
39
100
AcDbEntity
  8
0
  6
Continuous
 62
     7
100
AcDbCircle
 10
147.0622350164831
 20
292.3115417474633
 30
0.0
 40
1.75
  0
ARC
  5
E3
330
39
100
AcDbEntity
  8
0
  6
Continuous
 62
     7
100
AcDbCircle
 10
145.6367299659833
 20
296.2809011591144
 30
0.0
 40
2.000000000001688
100
AcDbArc
 50
163.5292589344526
 51
-160.6838778322718
  0
ARC
  5
E4
330
39
100
AcDbEntity
  8
0
  6
Continuous
 62
     7
100
AcDbCircle
 10
145.6367299659833
 20
288.3421823358135
 30
0.0
 40
2.000000000003769
100
AcDbArc
 50
160.6838778322994
 51
-163.5292589344276
  0
ARC
  5
E5
330
39
100
AcDbEntity
  8
0
  6
Continuous
 62
     7
100
AcDbCircle
 10
172.4877400669921
 20
288.3421823358135
 30
0.0
 40
2.000000000001837
100
AcDbArc
 50
-16.47074106557332
 51
19.31612216778788
  0
ARC
  5
E6
330
39
100
AcDbEntity
  8
0
  6
Continuous
 62
     7
100
AcDbCircle
 10
172.4877400669921
 20
296.2809011591144
 30
0.0
 40
1.999999999995417
100
AcDbArc
 50
-19.31612216781554
 51
16.47074106554834
  0
ENDBLK
  5
3B
330
39
100
AcDbEntity
  8
0
100
AcDbBlockEnd
  0
BLOCK
  5
3D
330
3C
100
AcDbEntity
  8
0
100
AcDbBlockBegin
  2
88-249
 70
     0
 71
     0
 10
421.0985433293336
 20
494.5003571639873
 30
0.0
  3
88-249
  1

  0
LINE
  5
E7
330
3C
100
AcDbEntity
  8
1
  6
Continuous
 62
     7
100
AcDbLine
 10
181.0622350164831
 20
364.4397659674505
 30
0.0
 11
181.0622350164831
 21
366.1785083635004
 31
0.0
  0
LINE
  5
E8
330
3C
100
AcDbEntity
  8
1
  6
Continuous
 62
     7
100
AcDbLine
 10
137.0700618811934
 20
366.1785083635004
 30
0.0
 11
137.0700618811934
 21
364.4397659674505
 31
0.0
  0
LINE
  5
E9
330
3C
100
AcDbEntity
  8
1
  6
Continuous
 62
     7
100
AcDbLine
 10
181.0622350164831
 20
245.3395835964375
 30
0.0
 11
181.0622350164831
 21
243.5718166434704
 31
0.0
  0
LINE
  5
EA
330
3C
100
AcDbEntity
  8
1
  6
Continuous
 62
     7
100
AcDbLine
 10
137.0700618811934
 20
245.7521350042143
 30
0.0
 11
137.0700618811934
 21
243.5718166434704
 31
0.0
  0
LINE
  5
EB
330
3C
100
AcDbEntity
  8
1
  6
Continuous
 62
     7
100
AcDbLine
 10
255.7064672463821
 20
261.2042231593846
 30
0.0
 11
255.2734545444837
 21
260.9542231593846
 31
0.0
  0
LINE
  5
EC
330
3C
100
AcDbEntity
  8
1
  6
Continuous
 62
     7
100
AcDbLine
 10
254.7244164388121
 20
258.9051850537076
 30
0.0
 11
268.6373970294735
 21
234.8071957859715
 31
0.0
  0
LINE
  5
ED
330
3C
100
AcDbEntity
  8
1
  6
Continuous
 62
     7
100
AcDbLine
 10
268.6373970294735
 20
239.8071957859725
 30
0.0
 11
256.3894799482732
 21
261.0212104574925
 31
0.0
  0
SPLINE
  5
EE
330
3C
100
AcDbEntity
  8
1
  6
Continuous
 62
     7
100
AcDbSpline
210
0.0
220
0.0
230
1.0
 70
     8
 71
     3
 72
    11
 73
     7
 74
     5
 42
0.0000000001
 43
0.0000000001
 44
0.00000001
 40
0.0
 40
0.0
 40
0.0
 40
0.0
 40
0.3342042437222393
 40
0.6706305001606679
 40
1.156392314081318
 40
1.638188420147356
 40
1.638188420147356
 40
1.638188420147356
 40
1.638188420147356
 10
137.3127247853136
 20
367.7933134390432
 30
0.0
 10
137.282814700843
 20
367.6859676768711
 30
0.0
 10
137.2227956697111
 20
367.4705624463038
 30
0.0
 10
137.1449111292521
 20
367.0928743706824
 30
0.0
 10
137.0826122401514
 20
366.661827058392
 30
0.0
 10
137.0742338874576
 20
366.3391737778964
 30
0.0
 10
137.0700618811934
 20
366.1785083635155
 30
0.0
 11
137.3127247853136
 21
367.7933134390432
 31
0.0
 11
137.2266827659391
 21
367.4703749814016
 31
0.0
 11
137.1576638451367
 21
367.1411045536489
 31
0.0
 11
137.0919623721792
 21
366.6598064585824
 31
0.0
 11
137.0700618811934
 21
366.1785083635155
 31
0.0
  0
SPLINE
  5
EF
330
3C
100
AcDbEntity
  8
1
  6
Continuous
 62
     7
100
AcDbSpline
210
0.0
220
0.0
230
1.0
 70
     8
 71
     3
 72
     9
 73
     5
 74
     3
 42
0.0000000001
 43
0.0000000001
 44
0.00000001
 40
0.0
 40
0.0
 40
0.0
 40
0.0
 40
0.4817961060658291
 40
0.9675579199858106
 40
0.9675579199858106
 40
0.9675579199858106
 40
0.9675579199858106
 10
181.0622350164831
 20
366.1785083635155
 30
0.0
 10
181.0585254590275
 20
366.339267158682
 30
0.0
 10
181.0510758104093
 20
366.6621079693745
 30
0.0
 10
181.0001835022176
 20
366.9810033424628
 30
0.0
 10
180.9746330525431
 20
367.1411045536484
 30
0.0
 11
181.0622350164831
 21
366.1785083635155
 31
0.0
 11
181.0403345254981
 21
366.6598064585822
 31
0.0
 11
180.9746330525431
 21
367.1411045536484
 31
0.0
  0
SPLINE
  5
F0
330
3C
100
AcDbEntity
  8
1
  6
Continuous
 62
     7
100
AcDbSpline
210
0.0
220
0.0
230
1.0
 70
     8
 71
     3
 72
    45
 73
    41
 74
    39
 42
0.0000000001
 43
0.0000000001
 44
0.00000001
 40
0.0
 40
0.0
 40
0.0
 40
0.0
 40
0.4817961060812721
 40
0.9675579200175718
 40
1.976274996629111
 40
2.98282941098264
 40
4.101563593128527
 40
5.217825256914839
 40
6.486801546564021
 40
7.754115886492578
 40
9.186996546065485
 40
10.61888432675626
 40
12.20835405649742
 40
13.79724007789847
 40
15.52123843915957
 40
17.24489660365527
 40
19.07136678684253
 40
20.89764801454334
 40
22.78803727582519
 40
24.67834191381366
 40
26.59041057216506
 40
28.50247923051646
 40
30.39278386850352
 40
32.28317312978126
 40
34.10945435747812
 40
35.93592454066398
 40
37.65958270515991
 40
39.38358106642171
 40
40.97246708782312
 40
42.56193681756371
 40
43.99382459825382
 40
45.42670525782668
 40
46.69401959775657
 40
47.96299588740902
 40
49.07925755119776
 40
50.19799173334438
 40
51.20454614769731
 40
52.21326322430761
 40
52.69902503824361
 40
53.18082114432485
 40
53.18082114432485
 40
53.18082114432485
 40
53.18082114432485
 10
137.0700618811934
 20
366.1785083635155
 30
0.0
 10
137.0742643399711
 20
366.017835168187
 30
0.0
 10
137.0827038483493
 20
365.6951662617503
 30
0.0
 10
137.1764943212623
 20
365.0420456796247
 30
0.0
 10
137.3900411088755
 20
364.2319751851474
 30
0.0
 10
137.8290822728551
 20
363.2792890921791
 30
0.0
 10
138.4175308912557
 20
362.3689983521929
 30
0.0
 10
139.1756210577369
 20
361.4768793977552
 30
0.0
 10
140.0656094621872
 20
360.6425467441231
 30
0.0
 10
141.1154525958634
 20
359.8345653383423
 30
0.0
 10
142.278007588151
 20
359.0928275767348
 30
0.0
 10
143.5872015659595
 20
358.3899983975098
 30
0.0
 10
144.9897739079668
 20
357.7590898709866
 30
0.0
 10
146.5190422052658
 20
357.1806681907822
 30
0.0
 10
148.121959913755
 20
356.6784575880051
 30
0.0
 10
149.8253898617064
 20
356.2407624929002
 30
0.0
 10
151.5821078381976
 20
355.882542209501
 30
0.0
 10
153.4084194043834
 20
355.5979917964994
 30
0.0
 10
155.2670138417609
 20
355.3951594876766
 30
0.0
 10
157.1611730050083
 20
355.2716659533131
 30
0.0
 10
159.0661484488428
 20
355.2310390044693
 30
0.0
 10
160.9711238926769
 20
355.271665953313
 30
0.0
 10
162.8652830559224
 20
355.3951594876767
 30
0.0
 10
164.7238774932967
 20
355.5979917964994
 30
0.0
 10
166.5501890594793
 20
355.8825422095012
 30
0.0
 10
168.3069070359687
 20
356.2407624929005
 30
0.0
 10
170.0103369839201
 20
356.6784575880051
 30
0.0
 10
171.6132546924097
 20
357.1806681907821
 30
0.0
 10
173.142522989709
 20
357.7590898709865
 30
0.0
 10
174.545095331716
 20
358.3899983975091
 30
0.0
 10
175.8542893095242
 20
359.0928275767342
 30
0.0
 10
177.0168443018116
 20
359.834565338342
 30
0.0
 10
178.0666874354891
 20
360.6425467441239
 30
0.0
 10
178.9566758399432
 20
361.476879397755
 30
0.0
 10
179.7147660064288
 20
362.368998352192
 30
0.0
 10
180.3032146248306
 20
363.2792890921785
 30
0.0
 10
180.7422557888091
 20
364.231975185147
 30
0.0
 10
180.9558025764182
 20
365.0420456796251
 30
0.0
 10
181.0495930493275
 20
365.6951662617504
 30
0.0
 10
181.0580325577055
 20
366.0178351681869
 30
0.0
 10
181.0622350164831
 20
366.1785083635155
 30
0.0
 11
137.0700618811934
 21
366.1785083635155
 31
0.0
 11
137.0919623721796
 21
365.6972102684334
 31
0.0
 11
137.1576638451382
 21
365.2159121733512
 31
0.0
 11
137.4178468303044
 21
364.2413276696381
 31
0.0
 11
137.8331237663722
 21
363.3244324436582
 31
0.0
 11
138.4374776429876
 21
362.3829853861337
 31
0.0
 11
139.156847856452
 21
361.5294359745475
 31
0.0
 11
140.0792440803017
 21
360.6579510177527
 31
0.0
 11
141.0816823211095
 21
359.8825780690663
 31
0.0
 11
142.2872975272907
 21
359.1082144857265
 31
0.0
 11
143.5478803699277
 21
358.4290727381209
 31
0.0
 11
144.9960849062378
 21
357.7740020222633
 31
0.0
 11
146.4817043903176
 21
357.2105363733315
 31
0.0
 11
148.1261381054094
 21
356.6928413798262
 31
0.0
 11
149.7953362603549
 21
356.2629867677081
 31
0.0
 11
151.5846599015949
 21
355.8964976996972
 31
0.0
 11
153.3890983193595
 21
355.6148860537239
 31
0.0
 11
155.2682254117747
 21
355.4088449662658
 31
0.0
 11
157.1545239321943
 21
355.285842867651
 31
0.0
 11
159.0661484488428
 21
355.2446328980086
 31
0.0
 11
160.9777729654913
 21
355.285842867651
 31
0.0
 11
162.8640714859095
 21
355.4088449662658
 31
0.0
 11
164.7431985783206
 21
355.6148860537239
 31
0.0
 11
166.5476369960811
 21
355.8964976996973
 31
0.0
 11
168.3369606373198
 21
356.2629867677081
 31
0.0
 11
170.0061587922655
 21
356.6928413798262
 31
0.0
 11
171.650592507358
 21
357.2105363733315
 31
0.0
 11
173.1362119914382
 21
357.7740020222632
 31
0.0
 11
174.5844165277479
 21
358.4290727381205
 31
0.0
 11
175.8449993703842
 21
359.1082144857258
 31
0.0
 11
177.0506145765652
 21
359.8825780690659
 31
0.0
 11
178.0530528173745
 21
360.6579510177526
 31
0.0
 11
178.9754490412285
 21
361.5294359745475
 31
0.0
 11
179.6948192546968
 21
362.3829853861336
 31
0.0
 11
180.2991731313134
 21
363.3244324436582
 31
0.0
 11
180.7144500673797
 21
364.2413276696382
 31
0.0
 11
180.9746330525412
 21
365.2159121733512
 31
0.0
 11
181.0403345254976
 21
365.6972102684334
 31
0.0
 11
181.0622350164831
 21
366.1785083635155
 31
0.0
  0
SPLINE
  5
F1
330
3C
100
AcDbEntity
  8
1
  6
Continuous
 62
     7
100
AcDbSpline
210
0.0
220
0.0
230
1.0
 70
     8
 71
     3
 72
    45
 73
    41
 74
    39
 42
0.0000000001
 43
0.0000000001
 44
0.00000001
 40
0.0
 40
0.0
 40
0.0
 40
0.0
 40
0.4743496330475188
 40
0.9527405941787737
 40
1.947707096504243
 40
2.940404511817162
 40
4.047809918024481
 40
5.152660349006439
 40
6.413091386210643
 40
7.67184290576955
 40
9.098773157030214
 40
10.52471298979245
 40
12.11038050735596
 40
13.69547066528137
 40
15.41731724329128
 40
17.1388291389616
 40
18.96430908423691
 40
20.78960374895057
 40
22.67969236548002
 40
24.56969815426216
 40
26.48169533184208
 40
28.39369250942205
 40
30.28369829820283
 40
32.17378691472816
 40
33.99908157943806
 40
35.82456152471271
 40
37.54607342038345
 40
39.26791999839284
 40
40.85301015631787
 40
42.43867767388181
 40
43.8646175066445
 40
45.2915477579047
 40
46.55029927746423
 40
47.8107303146715
 40
48.91558074565591
 40
50.02298615186395
 40
51.01568356717594
 40
52.0106500694997
 40
52.48904103064217
 40
52.96339066370125
 40
52.96339066370125
 40
52.96339066370125
 40
52.96339066370125
 10
137.0700618811934
 20
364.4397659674346
 30
0.0
 10
137.0742705956201
 20
364.2815731497904
 30
0.0
 10
137.08272388156
 20
363.9638397553135
 30
0.0
 10
137.1768039738043
 20
363.320364114825
 30
0.0
 10
137.3905998597028
 20
362.5223661572429
 30
0.0
 10
137.8303119904461
 20
361.584252487469
 30
0.0
 10
138.4190488813161
 20
360.688711100931
 30
0.0
 10
139.1775210670352
 20
359.810675394884
 30
0.0
 10
140.0673829427894
 20
358.9901979099319
 30
0.0
 10
141.1173596066456
 20
358.1951121774936
 30
0.0
 10
142.2795698301266
 20
357.4656336768243
 30
0.0
 10
143.5887836331812
 20
356.7740392677408
 30
0.0
 10
144.990988635352
 20
356.1534533617954
 30
0.0
 10
146.5202264142256
 20
355.5842732843069
 30
0.0
 10
148.1228266301467
 20
355.0902118352462
 30
0.0
 10
149.8261965168409
 20
354.6595060743069
 30
0.0
 10
151.5826599217852
 20
354.3070668793949
 30
0.0
 10
153.4088853767435
 20
354.0270586572327
 30
0.0
 10
155.2672816501461
 20
353.8274903479814
 30
0.0
 10
157.1613251830832
 20
353.7059657566314
 30
0.0
 10
159.0661484488428
 20
353.6659963825416
 30
0.0
 10
160.9709717146019
 20
353.7059657566315
 30
0.0
 10
162.8650152475373
 20
353.8274903479814
 30
0.0
 10
164.7234115209367
 20
354.0270586572329
 30
0.0
 10
166.5496369758922
 20
354.3070668793951
 30
0.0
 10
168.306100380835
 20
354.6595060743072
 30
0.0
 10
170.0094702675291
 20
355.090211835246
 30
0.0
 10
171.61207048345
 20
355.5842732843069
 30
0.0
 10
173.1413082623233
 20
356.1534533617956
 30
0.0
 10
174.5435132644944
 20
356.7740392677408
 30
0.0
 10
175.8527270675493
 20
357.4656336768242
 30
0.0
 10
177.0149372910302
 20
358.1951121774937
 30
0.0
 10
178.0649139548873
 20
358.9901979099329
 30
0.0
 10
178.9547758306449
 20
359.810675394884
 30
0.0
 10
179.7132480163681
 20
360.6887111009302
 30
0.0
 10
180.3019849072395
 20
361.5842524874682
 30
0.0
 10
180.7416970379817
 20
362.5223661572426
 30
0.0
 10
180.9554929238756
 20
363.3203641148284
 30
0.0
 10
181.0495730161167
 20
363.9638397553248
 30
0.0
 10
181.0580263020565
 20
364.2815731498093
 30
0.0
 10
181.0622350164831
 20
364.4397659674573
 30
0.0
 11
137.0700618811934
 21
364.4397659674346
 31
0.0
 11
137.0920002531692
 21
363.9659239239144
 31
0.0
 11
137.1578153690968
 21
363.4920818803941
 31
0.0
 11
137.4183752059161
 21
362.531838727757
 31
0.0
 11
137.8335487239418
 21
361.6301297346228
 31
0.0
 11
138.4387621116814
 21
360.7027336547314
 31
0.0
 11
139.1575440698373
 21
359.8636585856997
 31
0.0
 11
140.080744865756
 21
359.0055288228066
 31
0.0
 11
141.0823959422618
 21
358.2431965403165
 31
0.0
 11
142.2886287692052
 21
357.4808761948141
 31
0.0
 11
143.5484758173923
 21
356.8129766351256
 31
0.0
 11
144.9971239280437
 21
356.1681819951336
 31
0.0
 11
146.4821509084776
 21
355.613920616238
 31
0.0
 11
148.1268807206277
 21
355.1043919288915
 31
0.0
 11
149.7956405604464
 21
354.6814926454413
 31
0.0
 11
151.5851332514696
 21
354.3208086571954
 31
0.0
 11
153.3892741154666
 21
354.0437231904375
 31
0.0
 11
155.2684550800772
 21
353.840957610076
 31
0.0
 11
157.1545813429567
 21
353.7199220694014
 31
0.0
 11
159.0661484488428
 21
353.6793707837534
 31
0.0
 11
160.977715554729
 21
353.7199220694014
 31
0.0
 11
162.863841817607
 21
353.840957610076
 31
0.0
 11
164.7430227822135
 21
354.0437231904376
 31
0.0
 11
166.5471636462067
 21
354.3208086571954
 31
0.0
 11
168.3366563372292
 21
354.6814926454413
 31
0.0
 11
170.0054161770483
 21
355.1043919288915
 31
0.0
 11
171.6501459891979
 21
355.613920616238
 31
0.0
 11
173.1351729696314
 21
356.1681819951336
 31
0.0
 11
174.5838210802833
 21
356.8129766351255
 31
0.0
 11
175.8436681284708
 21
357.4808761948142
 31
0.0
 11
177.0499009554138
 21
358.2431965403165
 31
0.0
 11
178.0515520319204
 21
359.0055288228066
 31
0.0
 11
178.9747528278431
 21
359.8636585856997
 31
0.0
 11
179.6935347860029
 21
360.7027336547313
 31
0.0
 11
180.2987481737438
 21
361.6301297346228
 31
0.0
 11
180.7139216917676
 21
362.5318387277568
 31
0.0
 11
180.9744815285812
 21
363.4920818803937
 31
0.0
 11
181.0402966445076
 21
363.9659239239255
 31
0.0
 11
181.0622350164831
 21
364.4397659674573
 31
0.0
  0
SPLINE
  5
F2
330
3C
100
AcDbEntity
  8
1
  6
Continuous
 62
     7
100
AcDbSpline
210
0.0
220
0.0
230
1.0
 70
     8
 71
     3
 72
     9
 73
     5
 74
     3
 42
0.0000000001
 43
0.0000000001
 44
0.00000001
 40
0.0
 40
0.0
 40
0.0
 40
0.0
 40
0.3364262564309258
 40
0.6706305001475577
 40
0.6706305001475577
 40
0.6706305001475577
 40
0.6706305001475577
 10
180.9746330525431
 20
367.1411045536484
 30
0.0
 10
180.9530978674179
 20
367.2512112566996
 30
0.0
 10
180.9101697317709
 20
367.4706974350977
 30
0.0
 10
180.8497045386765
 20
367.6860125736243
 30
0.0
 10
180.819572112363
 20
367.7933134390282
 30
0.0
 11
180.9746330525431
 21
367.1411045536484
 31
0.0
 11
180.9056141317429
 21
367.4703749813939
 31
0.0
 11
180.819572112363
 21
367.7933134390282
 31
0.0
  0
SPLINE
  5
F3
330
3C
100
AcDbEntity
  8
1
  6
Continuous
 62
     7
100
AcDbSpline
210
0.0
220
0.0
230
1.0
 70
     8
 71
     3
 72
    23
 73
    19
 74
    17
 42
0.0000000001
 43
0.0000000001
 44
0.00000001
 40
0.0
 40
0.0
 40
0.0
 40
0.0
 40
0.7819306676597956
 40
1.564715703331619
 40
3.356907141488534
 40
5.149483298653281
 40
6.857136232752403
 40
8.565350145755669
 40
10.178340774368
 40
11.79208566763495
 40
13.31098139011935
 40
14.8307856561176
 40
16.26869295704506
 40
17.70749822321822
 40
19.09024983424739
 40
20.47358566929093
 40
21.15690997317013
 40
21.83757703642625
 40
21.83757703642625
 40
21.83757703642625
 40
21.83757703642625
 10
166.8444451618725
 20
229.0213942823602
 30
0.0
 10
167.0956735385571
 20
229.0908791141089
 30
0.0
 10
167.5984047938709
 20
229.2299246994497
 30
0.0
 10
168.6662880328738
 20
229.5647602213669
 30
0.0
 10
170.0345050640808
 20
230.065652701306
 30
0.0
 10
171.6459585444243
 20
230.7873852724749
 30
0.0
 10
173.1752597874258
 20
231.6125864946366
 30
0.0
 10
174.5862192675214
 20
232.5210454024703
 30
0.0
 10
175.8931270011292
 20
233.5231195995758
 30
0.0
 10
177.0616116775319
 20
234.5926766704998
 30
0.0
 10
178.1055946381059
 20
235.7425600877135
 30
0.0
 10
178.995746945771
 20
236.9434696462017
 30
0.0
 10
179.7432471265429
 20
238.2072551889931
 30
0.0
 10
180.3254416745043
 20
239.5055896695506
 30
0.0
 10
180.7513233058389
 20
240.844432526907
 30
0.0
 10
180.9607720764871
 20
241.9779618114418
 30
0.0
 10
181.049905892784
 20
242.8901275822726
 30
0.0
 10
181.0581306495649
 20
243.3448822643866
 30
0.0
 10
181.0622350164831
 20
243.5718166434704
 30
0.0
 11
166.8444451618725
 21
229.0213942823602
 31
0.0
 11
167.5968888032899
 21
229.2341009712945
 31
0.0
 11
168.3440271725233
 21
229.4676318456794
 31
0.0
 11
170.0265129008552
 21
230.085039267859
 31
0.0
 11
171.6618430826505
 21
230.8192221304655
 31
0.0
 11
173.1639569575383
 21
231.6314612887229
 31
0.0
 11
174.5991023013989
 21
232.5579345018129
 31
0.0
 11
175.8779269289715
 21
233.5409636671508
 31
0.0
 11
177.0668194463833
 21
234.6321589579157
 31
0.0
 11
178.0859932935189
 21
235.7583600434667
 31
0.0
 11
178.9895216291072
 21
236.9804245072883
 31
0.0
 11
179.7191331570471
 21
238.2194743143411
 31
0.0
 11
180.3071303192947
 21
239.532646020995
 31
0.0
 11
180.7232262924779
 21
240.8513067654264
 31
0.0
 11
180.97709450591
 21
242.2111482866062
 31
0.0
 11
181.0409498888398
 21
242.8914824650383
 31
0.0
 11
181.0622350164831
 21
243.5718166434704
 31
0.0
  0
SPLINE
  5
F4
330
3C
100
AcDbEntity
  8
1
  6
Continuous
 62
     7
100
AcDbSpline
210
0.0
220
0.0
230
1.0
 70
     8
 71
     3
 72
     9
 73
     5
 74
     3
 42
0.0000000001
 43
0.0000000001
 44
0.00000001
 40
0.0
 40
0.0
 40
0.0
 40
0.0
 40
0.6806670632566644
 40
1.363991367135786
 40
1.363991367135786
 40
1.363991367135786
 40
1.363991367135786
 10
181.0622350164831
 20
243.5718166434704
 30
0.0
 10
181.0586599316194
 20
243.7988147411913
 30
0.0
 10
181.0514958051997
 20
244.253697109329
 30
0.0
 10
181.0019271278498
 20
244.7059287004593
 30
0.0
 10
180.9770945059136
 20
244.9324850003354
 30
0.0
 11
181.0622350164831
 21
243.5718166434704
 31
0.0
 11
181.0409498888407
 21
244.2521508219031
 31
0.0
 11
180.9770945059136
 21
244.9324850003354
 31
0.0
  0
SPLINE
  5
F5
330
3C
100
AcDbEntity
  8
1
  6
Continuous
 62
     7
100
AcDbSpline
210
0.0
220
0.0
230
1.0
 70
     8
 71
     3
 72
     9
 73
     5
 74
     3
 42
0.0000000001
 43
0.0000000001
 44
0.00000001
 40
0.0
 40
0.0
 40
0.0
 40
0.0
 40
0.6806670632560109
 40
1.363991367134906
 40
1.363991367134906
 40
1.363991367134906
 40
1.363991367134906
 10
181.0622350164831
 20
245.3395835964375
 30
0.0
 10
181.0586599316194
 20
245.5665816941582
 30
0.0
 10
181.0514958051996
 20
246.0214640622955
 30
0.0
 10
181.0019271278498
 20
246.4736956534255
 30
0.0
 10
180.9770945059136
 20
246.7002519533016
 30
0.0
 11
181.0622350164831
 21
245.3395835964375
 31
0.0
 11
181.0409498888407
 21
246.0199177748696
 31
0.0
 11
180.9770945059136
 21
246.7002519533016
 31
0.0
  0
SPLINE
  5
F6
330
3C
100
AcDbEntity
  8
1
  6
Continuous
 62
     7
100
AcDbSpline
210
0.0
220
0.0
230
1.0
 70
     8
 71
     3
 72
    43
 73
    39
 74
    37
 42
0.0000000001
 43
0.0000000001
 44
0.00000001
 40
0.0
 40
0.0
 40
0.0
 40
0.0
 40
1.383335835044088
 40
2.766087446073552
 40
4.204892712246757
 40
5.642800013174229
 40
7.162604279172573
 40
8.681500001657183
 40
10.29524489492421
 40
11.90823552353623
 40
13.61644943653915
 40
15.32410237063833
 40
17.11667852780253
 40
18.90886996595739
 40
20.76744903721389
 40
22.62579085662562
 40
24.52622421590824
 40
26.42654490323751
 40
28.34126908281936
 40
30.25599326240116
 40
32.15631394972932
 40
34.05674730900852
 40
35.91508912841675
 40
37.77366819967143
 40
39.56585963782717
 40
41.35843579499566
 40
43.06608872909771
 40
44.77430264209838
 40
46.38729327070727
 40
48.00103816397331
 40
49.51993388645875
 40
51.03973815245914
 40
52.47764545338829
 40
53.91645071956194
 40
55.29920233059084
 40
56.68253816563368
 40
57.15912142288431
 40
57.63402518484266
 40
57.63402518484266
 40
57.63402518484266
 40
57.63402518484266
 10
180.9770945059136
 20
246.7002519533016
 30
0.0
 10
180.9041614728041
 20
247.1561690749375
 30
0.0
 10
180.7583262083819
 20
248.0678107708
 30
0.0
 10
180.3234809515186
 20
249.4055745252635
 30
0.0
 10
179.7437799310161
 20
250.704209192391
 30
0.0
 10
178.995595162701
 20
251.9679123256413
 30
0.0
 10
178.1056361326559
 20
253.1688451292164
 30
0.0
 10
177.0615998300116
 20
254.3187222133487
 30
0.0
 10
175.8931300797075
 20
255.3882807306674
 30
0.0
 10
174.5862190285088
 20
256.3903558780911
 30
0.0
 10
173.1752572910868
 20
257.2988091915655
 30
0.0
 10
171.6459689321465
 20
258.1240323878545
 30
0.0
 10
170.0344638890559
 20
258.8456788985009
 30
0.0
 10
168.3294314102861
 20
259.4702770894335
 30
0.0
 10
166.5649822946454
 20
259.9841302275228
 30
0.0
 10
164.7358004174984
 20
260.3902215040347
 30
0.0
 10
162.8706856686442
 20
260.6808899824218
 30
0.0
 10
160.9724732451196
 20
260.8570408420907
 30
0.0
 10
159.0622350164913
 20
260.9154521699395
 30
0.0
 10
157.1519967878145
 20
260.8570408420938
 30
0.0
 10
155.2537843644363
 20
260.6808899824094
 30
0.0
 10
153.3886696150589
 20
260.3902215040818
 30
0.0
 10
151.5594877398332
 20
259.9841302273509
 30
0.0
 10
149.7950386171538
 20
259.470277090065
 30
0.0
 10
148.0900061637605
 20
258.845678896235
 30
0.0
 10
146.4785010281497
 20
258.1240323961514
 30
0.0
 10
144.9492129988999
 20
257.2988091622255
 30
0.0
 10
143.5382500659825
 20
256.3903559852293
 30
0.0
 10
142.2313432400715
 20
255.388280355441
 30
0.0
 10
141.0628582118085
 20
254.3187235822725
 30
0.0
 10
140.0188757495008
 20
253.1688403516634
 30
0.0
 10
139.1287218308155
 20
251.9679297968074
 30
0.0
 10
138.3812273069012
 20
250.7041478644362
 30
0.0
 10
137.7990121673972
 20
249.4058002121205
 30
0.0
 10
137.3732045543324
 20
248.0670047095045
 30
0.0
 10
137.1760949812125
 20
247.0012766771463
 30
0.0
 10
137.0940764091453
 20
246.2270806598979
 30
0.0
 10
137.0780572985899
 20
245.9102638154684
 30
0.0
 10
137.0700618811934
 20
245.7521350042143
 30
0.0
 11
180.9770945059136
 21
246.7002519533016
 31
0.0
 11
180.7232262924788
 21
248.0600934744814
 31
0.0
 11
180.3071303192947
 21
249.3787542189129
 31
0.0
 11
179.7191331570471
 21
250.6919259255668
 31
0.0
 11
178.9895216291072
 21
251.9309757326197
 31
0.0
 11
178.0859932935189
 21
253.1530401964414
 31
0.0
 11
177.0668194463833
 21
254.2792412819926
 31
0.0
 11
175.8779269289715
 21
255.3704365727576
 31
0.0
 11
174.5991023013989
 21
256.353465738095
 31
0.0
 11
173.1639569575384
 21
257.2799389511844
 31
0.0
 11
171.6618430826505
 21
258.0921781094419
 31
0.0
 11
170.0265129008559
 21
258.8263609720486
 31
0.0
 11
168.3440271725261
 21
259.4437683942279
 31
0.0
 11
166.5599322438073
 21
259.9646536497617
 31
0.0
 11
164.7458796759384
 21
260.3679495693825
 31
0.0
 11
162.8682352513401
 21
260.6613748032144
 31
0.0
 11
160.9760542981767
 21
260.83707328123
 31
0.0
 11
159.0622350164831
 21
260.8959327825291
 31
0.0
 11
157.1484157347895
 21
260.83707328123
 31
0.0
 11
155.2562347816272
 21
260.6613748032144
 31
0.0
 11
153.3785903570324
 21
260.3679495693825
 31
0.0
 11
151.5645377891671
 21
259.9646536497617
 31
0.0
 11
149.7804428604502
 21
259.4437683942279
 31
0.0
 11
148.0979571321194
 21
258.8263609720486
 31
0.0
 11
146.4626269503202
 21
258.0921781094419
 31
0.0
 11
144.960513075429
 21
257.2799389511844
 31
0.0
 11
143.5253677315712
 21
256.353465738095
 31
0.0
 11
142.2465431040025
 21
255.3704365727576
 31
0.0
 11
141.0576505865921
 21
254.2792412819926
 31
0.0
 11
140.0384767394552
 21
253.1530401964413
 31
0.0
 11
139.1349484038635
 21
251.9309757326197
 31
0.0
 11
138.4053368759202
 21
250.6919259255668
 31
0.0
 11
137.8173397136715
 21
249.3787542189129
 31
0.0
 11
137.4012437404893
 21
248.0600934744814
 31
0.0
 11
137.1473755270604
 21
246.7002519533018
 31
0.0
 11
137.098384060405
 21
246.2261934787582
 31
0.0
 11
137.0700618811934
 21
245.7521350042143
 31
0.0
  0
SPLINE
  5
F7
330
3C
100
AcDbEntity
  8
1
  6
Continuous
 62
     7
100
AcDbSpline
210
0.0
220
0.0
230
1.0
 70
     8
 71
     3
 72
    57
 73
    53
 74
    51
 42
0.0000000001
 43
0.0000000001
 44
0.00000001
 40
0.0
 40
0.0
 40
0.0
 40
0.0
 40
1.383335835043585
 40
2.766087446073293
 40
4.204892712246886
 40
5.642800013174384
 40
7.162604279172545
 40
8.681500001656881
 40
10.2952448949238
 40
11.90823552353602
 40
13.6164494365392
 40
15.32410237063844
 40
17.11667852780265
 40
18.90886996595751
 40
20.76744903721401
 40
22.6257908566257
 40
24.5262242159083
 40
26.42654490323758
 40
28.34126908281944
 40
30.25599326240124
 40
32.15631394972941
 40
34.05674730900859
 40
35.91508912841678
 40
37.77366819967146
 40
39.5658596378272
 40
41.35843579499569
 40
43.06608872909781
 40
44.77430264209874
 40
46.38729327070785
 40
48.00103816397378
 40
49.51993388645892
 40
51.03973815245913
 40
52.47764545338828
 40
53.91645071956236
 40
55.29920233059183
 40
56.6825381656352
 40
58.04586765035715
 40
59.40919713507918
 40
60.79253297012235
 40
62.17528458115138
 40
63.61408984732499
 40
65.05199714825415
 40
66.57180141425448
 40
68.09069713673968
 40
69.70444203000562
 40
71.31743265861483
 40
73.02564657161585
 40
74.73329950571787
 40
76.52587566288678
 40
78.31806710104429
 40
79.10085213671573
 40
79.88278280437538
 40
79.88278280437538
 40
79.88278280437538
 40
79.88278280437538
 10
180.9770945059136
 20
244.9324850003354
 30
0.0
 10
180.9041614728041
 20
245.3884021219711
 30
0.0
 10
180.7583262083819
 20
246.3000438178336
 30
0.0
 10
180.3234809515184
 20
247.637807572297
 30
0.0
 10
179.7437799310163
 20
248.9364422394249
 30
0.0
 10
178.9955951627009
 20
250.2001453726753
 30
0.0
 10
178.105636132656
 20
251.4010781762501
 30
0.0
 10
177.0615998300114
 20
252.5509552603821
 30
0.0
 10
175.8931300797074
 20
253.6205137777006
 30
0.0
 10
174.5862190285088
 20
254.6225889251247
 30
0.0
 10
173.1752572910869
 20
255.5310422385996
 30
0.0
 10
171.6459689321465
 20
256.3562654348888
 30
0.0
 10
170.0344638890559
 20
257.077911945535
 30
0.0
 10
168.329431410286
 20
257.7025101364676
 30
0.0
 10
166.5649822946454
 20
258.2163632745571
 30
0.0
 10
164.7358004174983
 20
258.6224545510686
 30
0.0
 10
162.8706856686442
 20
258.9131230294557
 30
0.0
 10
160.9724732451196
 20
259.0892738891247
 30
0.0
 10
159.0622350164917
 20
259.1476852169735
 30
0.0
 10
157.151996787813
 20
259.0892738891284
 30
0.0
 10
155.2537843644421
 20
258.9131230294412
 30
0.0
 10
153.3886696150372
 20
258.6224545511231
 30
0.0
 10
151.5594877399122
 20
258.2163632743586
 30
0.0
 10
149.7950386168627
 20
257.7025101371968
 30
0.0
 10
148.0900061648041
 20
257.0779119429195
 30
0.0
 10
146.4785010243277
 20
256.3562654444667
 30
0.0
 10
144.9492130124163
 20
255.5310422047291
 30
0.0
 10
143.5382500166282
 20
254.6225890488053
 30
0.0
 10
142.2313434129237
 20
253.6205133445383
 30
0.0
 10
141.0628575811973
 20
252.5509568406718
 30
0.0
 10
140.0188779503366
 20
251.4010726610293
 30
0.0
 10
139.1287137825168
 20
250.2001655414398
 30
0.0
 10
138.3812555583471
 20
248.9363714422568
 30
0.0
 10
137.7989082020846
 20
247.6380681058562
 30
0.0
 10
137.3735758759763
 20
246.2991132983459
 30
0.0
 10
137.1208132541429
 20
244.9425364090503
 30
0.0
 10
137.0331592357582
 20
243.5718166434642
 30
0.0
 10
137.1208132541559
 20
242.2010968779156
 30
0.0
 10
137.3735758759235
 20
240.8445199885062
 30
0.0
 10
137.798908202286
 20
239.5055651814208
 30
0.0
 10
138.3812555575618
 20
238.2072618433762
 30
0.0
 10
139.1287137855128
 20
236.9434677504943
 30
0.0
 10
140.0188779384476
 20
235.742560606102
 30
0.0
 10
141.0628576266248
 20
234.5926765219654
 30
0.0
 10
142.2313432316155
 20
233.5231196402904
 30
0.0
 10
143.5382507084078
 20
232.5210453908449
 30
0.0
 10
144.9492102611665
 20
231.6125864978192
 30
0.0
 10
146.4785114841208
 20
230.7873852715727
 30
0.0
 10
148.0899649701347
 20
230.0656527015598
 30
0.0
 10
149.4581819999701
 20
229.5647602213403
 30
0.0
 10
150.526065239126
 20
229.2299246994541
 30
0.0
 10
151.0287964944253
 20
229.0908791141104
 30
0.0
 10
151.2800248711028
 20
229.0213942823602
 30
0.0
 11
180.9770945059136
 21
244.9324850003354
 31
0.0
 11
180.7232262924788
 21
246.2923265215147
 31
0.0
 11
180.3071303192947
 21
247.6109872659464
 31
0.0
 11
179.7191331570471
 21
248.9241589726008
 31
0.0
 11
178.9895216291072
 21
250.1632087796536
 31
0.0
 11
178.0859932935189
 21
251.3852732434751
 31
0.0
 11
177.0668194463833
 21
252.511474329026
 31
0.0
 11
175.8779269289715
 21
253.6026696197908
 31
0.0
 11
174.5991023013989
 21
254.5856987851286
 31
0.0
 11
173.1639569575384
 21
255.5121719982185
 31
0.0
 11
171.6618430826505
 21
256.3244111564761
 31
0.0
 11
170.0265129008559
 21
257.0585940190828
 31
0.0
 11
168.3440271725261
 21
257.676001441262
 31
0.0
 11
166.5599322438073
 21
258.1968866967959
 31
0.0
 11
164.7458796759384
 21
258.6001826164165
 31
0.0
 11
162.8682352513401
 21
258.8936078502483
 31
0.0
 11
160.9760542981767
 21
259.069306328264
 31
0.0
 11
159.0622350164831
 21
259.1281658295632
 31
0.0
 11
157.1484157347895
 21
259.069306328264
 31
0.0
 11
155.2562347816272
 21
258.8936078502483
 31
0.0
 11
153.3785903570324
 21
258.6001826164165
 31
0.0
 11
151.5645377891671
 21
258.1968866967959
 31
0.0
 11
149.7804428604502
 21
257.676001441262
 31
0.0
 11
148.0979571321194
 21
257.0585940190828
 31
0.0
 11
146.4626269503202
 21
256.3244111564761
 31
0.0
 11
144.960513075429
 21
255.5121719982184
 31
0.0
 11
143.5253677315712
 21
254.5856987851286
 31
0.0
 11
142.2465431040025
 21
253.6026696197908
 31
0.0
 11
141.0576505865921
 21
252.511474329026
 31
0.0
 11
140.0384767394552
 21
251.3852732434751
 31
0.0
 11
139.1349484038635
 21
250.1632087796536
 31
0.0
 11
138.4053368759202
 21
248.9241589726008
 31
0.0
 11
137.8173397136715
 21
247.6109872659464
 31
0.0
 11
137.4012437404887
 21
246.2923265215145
 31
0.0
 11
137.147375527058
 21
244.9324850003347
 31
0.0
 11
137.0622350164858
 21
243.5718166434704
 31
0.0
 11
137.147375527058
 21
242.2111482866061
 31
0.0
 11
137.4012437404887
 21
240.8513067654264
 31
0.0
 11
137.8173397136715
 21
239.532646020995
 31
0.0
 11
138.4053368759202
 21
238.2194743143411
 31
0.0
 11
139.1349484038635
 21
236.9804245072883
 31
0.0
 11
140.0384767394552
 21
235.7583600434667
 31
0.0
 11
141.0576505865921
 21
234.6321589579158
 31
0.0
 11
142.2465431040025
 21
233.5409636671509
 31
0.0
 11
143.5253677315712
 21
232.5579345018129
 31
0.0
 11
144.960513075429
 21
231.6314612887229
 31
0.0
 11
146.4626269503202
 21
230.8192221304655
 31
0.0
 11
148.09795713212
 21
230.085039267859
 31
0.0
 11
149.7804428604525
 21
229.4676318456794
 31
0.0
 11
150.5275812296855
 21
229.2341009712945
 31
0.0
 11
151.2800248711028
 21
229.0213942823602
 31
0.0
  0
ARC
  5
F8
330
3C
100
AcDbEntity
  8
1
  6
Continuous
 62
     7
100
AcDbCircle
 10
256.0234545444837
 20
259.6551850537076
 30
0.0
 40
1.499999999993974
100
AcDbArc
 50
150.00000000001
 51
-149.9999999999028
  0
ARC
  5
F9
330
3C
100
AcDbEntity
  8
1
  6
Continuous
 62
     7
100
AcDbCircle
 10
255.9564672463821
 20
260.7712104574925
 30
0.0
 40
0.4999999999990565
100
AcDbArc
 50
30.00000000006243
 51
120.0000000000071
  0
ARC
  5
FA
330
3C
100
AcDbEntity
  8
1
  6
Continuous
 62
     7
100
AcDbCircle
 10
256.0234545444837
 20
259.6551850537076
 30
0.0
 40
1.500000000000257
100
AcDbArc
 50
119.9999999999931
 51
150.00000000001
  0
ENDBLK
  5
3E
330
3C
100
AcDbEntity
  8
0
100
AcDbBlockEnd
  0
BLOCK
  5
40
330
3F
100
AcDbEntity
  8
0
100
AcDbBlockBegin
  2
V97-30-Z1__1
 70
     0
 71
     0
 10
523.5237957101235
 20
245.2091140017974
 30
0.0
  3
V97-30-Z1__1
  1

  0
LINE
  5
FB
330
3F
100
AcDbEntity
  8
0
  6
PHANTOM
 62
     4
100
AcDbLine
 10
320.0737957101228
 20
445.2091140017983
 30
0.0
 11
320.0737957101228
 21
470.4491140017985
 31
0.0
  0
LINE
  5
FC
330
3F
100
AcDbEntity
  8
0
  6
Continuous
 62
     7
100
AcDbLine
 10
318.6337957101223
 20
460.6491140017984
 30
0.0
 11
321.5137957101233
 21
460.6491140017984
 31
0.0
  0
LINE
  5
FD
330
3F
100
AcDbEntity
  8
0
  6
Continuous
 62
     7
100
AcDbLine
 10
318.3737957101221
 20
464.9491140017985
 30
0.0
 11
321.7737957101235
 21
464.9491140017985
 31
0.0
  0
LINE
  5
FE
330
3F
100
AcDbEntity
  8
0
  6
Continuous
 62
     7
100
AcDbLine
 10
318.3737957101221
 20
451.5491140017984
 30
0.0
 11
321.7737957101235
 21
452.2491140017983
 31
0.0
  0
LINE
  5
FF
330
3F
100
AcDbEntity
  8
0
  6
Continuous
 62
     7
100
AcDbLine
 10
318.3737957101221
 20
452.9491140017985
 30
0.0
 11
321.7737957101235
 21
453.6491140017984
 31
0.0
  0
LINE
  5
100
330
3F
100
AcDbEntity
  8
0
  6
Continuous
 62
     7
100
AcDbLine
 10
318.3737957101221
 20
454.3491140017986
 30
0.0
 11
321.7737957101235
 21
455.0491140017984
 31
0.0
  0
LINE
  5
101
330
3F
100
AcDbEntity
  8
0
  6
Continuous
 62
     7
100
AcDbLine
 10
318.3737957101221
 20
455.7491140017983
 30
0.0
 11
321.7737957101235
 21
456.4491140017985
 31
0.0
  0
LINE
  5
102
330
3F
100
AcDbEntity
  8
0
  6
Continuous
 62
     7
100
AcDbLine
 10
318.3737957101221
 20
457.1491140017984
 30
0.0
 11
321.7737957101235
 21
457.8491140017986
 31
0.0
  0
LINE
  5
103
330
3F
100
AcDbEntity
  8
0
  6
Continuous
 62
     7
100
AcDbLine
 10
318.3737957101221
 20
458.5491140017984
 30
0.0
 11
321.7737957101235
 21
459.2491140017983
 31
0.0
  0
LINE
  5
104
330
3F
100
AcDbEntity
  8
0
  6
Continuous
 62
     7
100
AcDbLine
 10
318.3737957101221
 20
459.9491140017985
 30
0.0
 11
321.7737957101235
 21
460.6491140017984
 31
0.0
  0
LINE
  5
105
330
3F
100
AcDbEntity
  8
0
  6
Continuous
 62
     7
100
AcDbLine
 10
318.3737957101221
 20
460.6491140017984
 30
0.0
 11
318.6337957101223
 21
460.6491140017984
 31
0.0
  0
LINE
  5
106
330
3F
100
AcDbEntity
  8
0
  6
Continuous
 62
     7
100
AcDbLine
 10
318.6337957101223
 20
460.6491140017984
 30
0.0
 11
318.6337957101223
 21
450.7032671646975
 31
0.0
  0
LINE
  5
107
330
3F
100
AcDbEntity
  8
0
  6
Continuous
 62
     7
100
AcDbLine
 10
318.6337957101223
 20
450.7032671646975
 30
0.0
 11
320.0737957101228
 21
448.2091140017983
 31
0.0
  0
LINE
  5
108
330
3F
100
AcDbEntity
  8
0
  6
Continuous
 62
     7
100
AcDbLine
 10
320.0737957101228
 20
448.2091140017983
 30
0.0
 11
321.5137957101233
 21
450.7032671646975
 31
0.0
  0
LINE
  5
109
330
3F
100
AcDbEntity
  8
0
  6
Continuous
 62
     7
100
AcDbLine
 10
321.5137957101233
 20
450.7032671646975
 30
0.0
 11
321.5137957101233
 21
460.6491140017984
 31
0.0
  0
LINE
  5
10A
330
3F
100
AcDbEntity
  8
0
  6
Continuous
 62
     7
100
AcDbLine
 10
321.5137957101233
 20
460.6491140017984
 30
0.0
 11
321.7737957101235
 21
460.6491140017984
 31
0.0
  0
LINE
  5
10B
330
3F
100
AcDbEntity
  8
0
  6
Continuous
 62
     7
100
AcDbLine
 10
316.6237957101221
 20
466.6991140017985
 30
0.0
 11
323.5237957101235
 21
466.6991140017985
 31
0.0
  0
LINE
  5
10C
330
3F
100
AcDbEntity
  8
0
  6
Continuous
 62
     7
100
AcDbLine
 10
316.6237957101221
 20
466.6991140017985
 30
0.0
 11
318.3737957101221
 21
464.9491140017985
 31
0.0
  0
LINE
  5
10D
330
3F
100
AcDbEntity
  8
0
  6
Continuous
 62
     7
100
AcDbLine
 10
318.3737957101221
 20
464.9491140017985
 30
0.0
 11
318.3737957101221
 21
460.6491140017984
 31
0.0
  0
LINE
  5
10E
330
3F
100
AcDbEntity
  8
0
  6
Continuous
 62
     7
100
AcDbLine
 10
321.7737957101235
 20
460.6491140017984
 30
0.0
 11
321.7737957101235
 21
464.9491140017985
 31
0.0
  0
LINE
  5
10F
330
3F
100
AcDbEntity
  8
0
  6
Continuous
 62
     7
100
AcDbLine
 10
321.7737957101235
 20
464.9491140017985
 30
0.0
 11
323.5237957101235
 21
466.6991140017985
 31
0.0
  0
LINE
  5
110
330
3F
100
AcDbEntity
  8
0
  6
Continuous
 62
     7
100
AcDbLine
 10
323.5237957101235
 20
466.6991140017985
 30
0.0
 11
323.5237957101235
 21
467.4491140017985
 31
0.0
  0
LINE
  5
111
330
3F
100
AcDbEntity
  8
0
  6
Continuous
 62
     7
100
AcDbLine
 10
323.5237957101235
 20
467.4491140017985
 30
0.0
 11
316.6237957101221
 21
467.4491140017985
 31
0.0
  0
LINE
  5
112
330
3F
100
AcDbEntity
  8
0
  6
Continuous
 62
     7
100
AcDbLine
 10
316.6237957101221
 20
467.4491140017985
 30
0.0
 11
316.6237957101221
 21
466.6991140017985
 31
0.0
  0
LINE
  5
113
330
3F
100
AcDbEntity
  8
1
  6
Continuous
 62
     7
100
AcDbLine
 10
318.6237973008629
 20
450.2005849175384
 30
0.0
 11
321.7737957101235
 21
450.8491140017986
 31
0.0
  0
LINE
  5
114
330
3F
100
AcDbEntity
  8
1
  6
Continuous
 62
     7
100
AcDbLine
 10
319.4172114814028
 20
448.8263512454014
 30
0.0
 11
320.9075282811737
 21
449.1331811747664
 31
0.0
  0
ENDBLK
  5
41
330
3F
100
AcDbEntity
  8
0
100
AcDbBlockEnd
  0
BLOCK
  5
43
330
42
100
AcDbEntity
  8
0
100
AcDbBlockBegin
  2
V97-30-Z1__2
 70
     0
 71
     0
 10
533.5237957101235
 20
245.2091140017974
 30
0.0
  3
V97-30-Z1__2
  1

  0
LINE
  5
115
330
42
100
AcDbEntity
  8
1
  6
Continuous
 62
     7
100
AcDbLine
 10
329.4172114814028
 20
448.8263512454014
 30
0.0
 11
330.9075282811737
 21
449.1331811747664
 31
0.0
  0
LINE
  5
116
330
42
100
AcDbEntity
  8
1
  6
Continuous
 62
     7
100
AcDbLine
 10
328.6237973008629
 20
450.2005849175384
 30
0.0
 11
331.7737957101235
 21
450.8491140017986
 31
0.0
  0
LINE
  5
117
330
42
100
AcDbEntity
  8
0
  6
Continuous
 62
     7
100
AcDbLine
 10
326.6237957101221
 20
467.4491140017985
 30
0.0
 11
326.6237957101221
 21
466.6991140017985
 31
0.0
  0
LINE
  5
118
330
42
100
AcDbEntity
  8
0
  6
Continuous
 62
     7
100
AcDbLine
 10
333.5237957101235
 20
467.4491140017985
 30
0.0
 11
326.6237957101221
 21
467.4491140017985
 31
0.0
  0
LINE
  5
119
330
42
100
AcDbEntity
  8
0
  6
Continuous
 62
     7
100
AcDbLine
 10
333.5237957101235
 20
466.6991140017985
 30
0.0
 11
333.5237957101235
 21
467.4491140017985
 31
0.0
  0
LINE
  5
11A
330
42
100
AcDbEntity
  8
0
  6
Continuous
 62
     7
100
AcDbLine
 10
331.7737957101235
 20
464.9491140017985
 30
0.0
 11
333.5237957101235
 21
466.6991140017985
 31
0.0
  0
LINE
  5
11B
330
42
100
AcDbEntity
  8
0
  6
Continuous
 62
     7
100
AcDbLine
 10
331.7737957101235
 20
460.6491140017984
 30
0.0
 11
331.7737957101235
 21
464.9491140017985
 31
0.0
  0
LINE
  5
11C
330
42
100
AcDbEntity
  8
0
  6
Continuous
 62
     7
100
AcDbLine
 10
328.3737957101221
 20
464.9491140017985
 30
0.0
 11
328.3737957101221
 21
460.6491140017984
 31
0.0
  0
LINE
  5
11D
330
42
100
AcDbEntity
  8
0
  6
Continuous
 62
     7
100
AcDbLine
 10
326.6237957101221
 20
466.6991140017985
 30
0.0
 11
328.3737957101221
 21
464.9491140017985
 31
0.0
  0
LINE
  5
11E
330
42
100
AcDbEntity
  8
0
  6
Continuous
 62
     7
100
AcDbLine
 10
326.6237957101221
 20
466.6991140017985
 30
0.0
 11
333.5237957101235
 21
466.6991140017985
 31
0.0
  0
LINE
  5
11F
330
42
100
AcDbEntity
  8
0
  6
Continuous
 62
     7
100
AcDbLine
 10
331.5137957101233
 20
460.6491140017984
 30
0.0
 11
331.7737957101235
 21
460.6491140017984
 31
0.0
  0
LINE
  5
120
330
42
100
AcDbEntity
  8
0
  6
Continuous
 62
     7
100
AcDbLine
 10
331.5137957101233
 20
450.7032671646975
 30
0.0
 11
331.5137957101233
 21
460.6491140017984
 31
0.0
  0
LINE
  5
121
330
42
100
AcDbEntity
  8
0
  6
Continuous
 62
     7
100
AcDbLine
 10
330.0737957101228
 20
448.2091140017983
 30
0.0
 11
331.5137957101233
 21
450.7032671646975
 31
0.0
  0
LINE
  5
122
330
42
100
AcDbEntity
  8
0
  6
Continuous
 62
     7
100
AcDbLine
 10
328.6337957101223
 20
450.7032671646975
 30
0.0
 11
330.0737957101228
 21
448.2091140017983
 31
0.0
  0
LINE
  5
123
330
42
100
AcDbEntity
  8
0
  6
Continuous
 62
     7
100
AcDbLine
 10
328.6337957101223
 20
460.6491140017984
 30
0.0
 11
328.6337957101223
 21
450.7032671646975
 31
0.0
  0
LINE
  5
124
330
42
100
AcDbEntity
  8
0
  6
Continuous
 62
     7
100
AcDbLine
 10
328.3737957101221
 20
460.6491140017984
 30
0.0
 11
328.6337957101223
 21
460.6491140017984
 31
0.0
  0
LINE
  5
125
330
42
100
AcDbEntity
  8
0
  6
Continuous
 62
     7
100
AcDbLine
 10
328.3737957101221
 20
459.9491140017985
 30
0.0
 11
331.7737957101235
 21
460.6491140017984
 31
0.0
  0
LINE
  5
126
330
42
100
AcDbEntity
  8
0
  6
Continuous
 62
     7
100
AcDbLine
 10
328.3737957101221
 20
458.5491140017984
 30
0.0
 11
331.7737957101235
 21
459.2491140017983
 31
0.0
  0
LINE
  5
127
330
42
100
AcDbEntity
  8
0
  6
Continuous
 62
     7
100
AcDbLine
 10
328.3737957101221
 20
457.1491140017984
 30
0.0
 11
331.7737957101235
 21
457.8491140017986
 31
0.0
  0
LINE
  5
128
330
42
100
AcDbEntity
  8
0
  6
Continuous
 62
     7
100
AcDbLine
 10
328.3737957101221
 20
455.7491140017983
 30
0.0
 11
331.7737957101235
 21
456.4491140017985
 31
0.0
  0
LINE
  5
129
330
42
100
AcDbEntity
  8
0
  6
Continuous
 62
     7
100
AcDbLine
 10
328.3737957101221
 20
454.3491140017986
 30
0.0
 11
331.7737957101235
 21
455.0491140017984
 31
0.0
  0
LINE
  5
12A
330
42
100
AcDbEntity
  8
0
  6
Continuous
 62
     7
100
AcDbLine
 10
328.3737957101221
 20
452.9491140017985
 30
0.0
 11
331.7737957101235
 21
453.6491140017984
 31
0.0
  0
LINE
  5
12B
330
42
100
AcDbEntity
  8
0
  6
Continuous
 62
     7
100
AcDbLine
 10
328.3737957101221
 20
451.5491140017984
 30
0.0
 11
331.7737957101235
 21
452.2491140017983
 31
0.0
  0
LINE
  5
12C
330
42
100
AcDbEntity
  8
0
  6
Continuous
 62
     7
100
AcDbLine
 10
328.3737957101221
 20
464.9491140017985
 30
0.0
 11
331.7737957101235
 21
464.9491140017985
 31
0.0
  0
LINE
  5
12D
330
42
100
AcDbEntity
  8
0
  6
Continuous
 62
     7
100
AcDbLine
 10
328.6337957101223
 20
460.6491140017984
 30
0.0
 11
331.5137957101233
 21
460.6491140017984
 31
0.0
  0
LINE
  5
12E
330
42
100
AcDbEntity
  8
0
  6
PHANTOM
 62
     4
100
AcDbLine
 10
330.0737957101228
 20
445.2091140017983
 30
0.0
 11
330.0737957101228
 21
470.4491140017985
 31
0.0
  0
ENDBLK
  5
44
330
42
100
AcDbEntity
  8
0
100
AcDbBlockEnd
  0
BLOCK
  5
46
330
45
100
AcDbEntity
  8
0
100
AcDbBlockBegin
  2
V97-H11
 70
     0
 71
     0
 10
862.3280369887525
 20
685.7110138622475
 30
0.0
  3
V97-H11
  1

  0
LINE
  5
12F
330
45
100
AcDbEntity
  8
0
  6
Continuous
 62
     7
100
AcDbLine
 10
322.6373608577724
 20
319.1615417474636
 30
0.0
 11
294.3873970294735
 21
319.1615417474636
 31
0.0
  0
LINE
  5
130
330
45
100
AcDbEntity
  8
0
  6
Continuous
 62
     7
100
AcDbLine
 10
275.3873608577724
 20
318.1615417474636
 30
0.0
 11
294.3873970294735
 21
318.1615417474636
 31
0.0
  0
LINE
  5
131
330
45
100
AcDbEntity
  8
0
  6
Continuous
 62
     7
100
AcDbLine
 10
275.3873608577724
 20
317.1615417474636
 30
0.0
 11
294.3873970294735
 21
317.1615417474636
 31
0.0
  0
LINE
  5
132
330
45
100
AcDbEntity
  8
0
  6
Continuous
 62
     7
100
AcDbLine
 10
293.3873970294735
 20
299.9115417474636
 30
0.0
 11
293.3873970294735
 21
314.6615417474636
 31
0.0
  0
LINE
  5
133
330
45
100
AcDbEntity
  8
0
  6
Continuous
 62
     7
100
AcDbLine
 10
294.3873970294735
 20
297.9115417474636
 30
0.0
 11
294.3873970294735
 21
299.9115417474636
 31
0.0
  0
LINE
  5
134
330
45
100
AcDbEntity
  8
0
  6
Continuous
 62
     7
100
AcDbLine
 10
295.3873970294735
 20
234.6615417474623
 30
0.0
 11
304.3873608577724
 21
234.6615417474623
 31
0.0
  0
LINE
  5
135
330
45
100
AcDbEntity
  8
0
  6
Continuous
 62
     7
100
AcDbLine
 10
276.3873608577724
 20
243.1615417474623
 30
0.0
 11
304.3873608577724
 21
243.1615417474623
 31
0.0
  0
LINE
  5
136
330
45
100
AcDbEntity
  8
0
  6
Continuous
 62
     7
100
AcDbLine
 10
276.3873608577724
 20
278.6615417474623
 30
0.0
 11
304.3873608577833
 21
278.6615417474623
 31
0.0
  0
LINE
  5
137
330
45
100
AcDbEntity
  8
0
  6
Continuous
 62
     7
100
AcDbLine
 10
276.3873608577724
 20
287.1615417474623
 30
0.0
 11
304.3873608577833
 21
287.1615417474623
 31
0.0
  0
LINE
  5
138
330
45
100
AcDbEntity
  8
0
  6
Continuous
 62
     7
100
AcDbLine
 10
324.6373608577724
 20
316.6615417474636
 30
0.0
 11
324.6373608577724
 21
314.6615417474636
 31
0.0
  0
LINE
  5
139
330
45
100
AcDbEntity
  8
0
  6
Continuous
 62
     7
100
AcDbLine
 10
322.6373608577724
 20
316.6615417474636
 30
0.0
 11
322.6373608577724
 21
319.1615417474636
 31
0.0
  0
LINE
  5
13A
330
45
100
AcDbEntity
  8
0
  6
Continuous
 62
     7
100
AcDbLine
 10
322.6373608577724
 20
219.6615417474623
 30
0.0
 11
294.3873970294735
 21
219.6615417474623
 31
0.0
  0
LINE
  5
13B
330
45
100
AcDbEntity
  8
0
  6
Continuous
 62
     7
100
AcDbLine
 10
322.6373608577724
 20
224.9115417474623
 30
0.0
 11
322.6373608577724
 21
222.1615417474623
 31
0.0
  0
LINE
  5
13C
330
45
100
AcDbEntity
  8
0
  6
Continuous
 62
     7
100
AcDbLine
 10
293.3873970294735
 20
314.6615417474636
 30
0.0
 11
294.3873970294735
 21
314.6615417474636
 31
0.0
  0
LINE
  5
13D
330
45
100
AcDbEntity
  8
0
  6
Continuous
 62
     7
100
AcDbLine
 10
325.6373608577724
 20
235.4115417474623
 30
0.0
 11
325.6373608577724
 21
242.4115417474623
 31
0.0
  0
LINE
  5
13E
330
45
100
AcDbEntity
  8
0
  6
Continuous
 62
     7
100
AcDbLine
 10
325.6373608577724
 20
279.4115417474623
 30
0.0
 11
325.6373608577724
 21
286.4115417474623
 31
0.0
  0
LINE
  5
13F
330
45
100
AcDbEntity
  8
0
  6
Continuous
 62
     7
100
AcDbLine
 10
293.3873970294735
 20
224.2615417474626
 30
0.0
 11
294.3873970294735
 21
224.2615417474626
 31
0.0
  0
LINE
  5
140
330
45
100
AcDbEntity
  8
0
  6
Continuous
 62
     7
100
AcDbLine
 10
294.3873970294735
 20
299.9115417474636
 30
0.0
 11
293.3873970294735
 21
299.9115417474636
 31
0.0
  0
LINE
  5
141
330
45
100
AcDbEntity
  8
0
  6
Continuous
 62
     7
100
AcDbLine
 10
293.3873970294735
 20
231.2615417474613
 30
0.0
 11
294.3873970294735
 21
231.2615417474613
 31
0.0
  0
LINE
  5
142
330
45
100
AcDbEntity
  8
0
  6
Continuous
 62
     7
100
AcDbLine
 10
294.3873970294735
 20
297.9115417474636
 30
0.0
 11
276.3873608577724
 21
297.9115417474636
 31
0.0
  0
LINE
  5
143
330
45
100
AcDbEntity
  8
0
  6
Continuous
 62
     7
100
AcDbLine
 10
322.6373608577724
 20
224.9115417474623
 30
0.0
 11
324.6373608577724
 21
224.9115417474623
 31
0.0
  0
LINE
  5
144
330
45
100
AcDbEntity
  8
0
  6
Continuous
 62
     7
100
AcDbLine
 10
291.3873608577724
 20
268.9115417474623
 30
0.0
 11
305.4748909728023
 21
268.9115417474623
 31
0.0
  0
LINE
  5
145
330
45
100
AcDbEntity
  8
0
  6
Continuous
 62
     7
100
AcDbLine
 10
291.3873608577724
 20
252.9115417474623
 30
0.0
 11
305.4748909728023
 21
252.9115417474623
 31
0.0
  0
LINE
  5
146
330
45
100
AcDbEntity
  8
0
  6
Continuous
 62
     7
100
AcDbLine
 10
291.3873608577724
 20
265.9115417474623
 30
0.0
 11
291.3873608577724
 21
255.9115417474623
 31
0.0
  0
LINE
  5
147
330
45
100
AcDbEntity
  8
0
  6
Continuous
 62
     7
100
AcDbLine
 10
302.2796657031922
 20
265.9115417474623
 30
0.0
 11
302.2796657031922
 21
255.9115417474623
 31
0.0
  0
LINE
  5
148
330
45
100
AcDbEntity
  8
0
  6
DASH_CENTER
 62
     2
100
AcDbLine
 10
296.5835132804823
 20
264.4296566628445
 30
0.0
 11
296.5835132804823
 21
257.3299473204656
 31
0.0
  0
LINE
  5
149
330
45
100
AcDbEntity
  8
0
  6
Continuous
 62
     7
100
AcDbLine
 10
324.6373608577724
 20
300.3115417474633
 30
0.0
 11
323.6373608577724
 21
300.3115417474633
 31
0.0
  0
LINE
  5
14A
330
45
100
AcDbEntity
  8
0
  6
Continuous
 62
     7
100
AcDbLine
 10
305.4748909728023
 20
254.9115417474623
 30
0.0
 11
291.3873608577724
 21
254.9115417474623
 31
0.0
  0
LINE
  5
14B
330
45
100
AcDbEntity
  8
0
  6
Continuous
 62
     7
100
AcDbLine
 10
305.4748909728023
 20
266.9115417474623
 30
0.0
 11
291.3873608577724
 21
266.9115417474623
 31
0.0
  0
LINE
  5
14C
330
45
100
AcDbEntity
  8
0
  6
DASH_CENTER
 62
     2
100
AcDbLine
 10
289.2417177266634
 20
260.9115417474623
 30
0.0
 11
316.5232560006734
 21
260.9115417474623
 31
0.0
  0
LINE
  5
14D
330
45
100
AcDbEntity
  8
1
  6
Continuous
 62
     7
100
AcDbLine
 10
324.6373608577724
 20
222.1615417474623
 30
0.0
 11
322.6373608577724
 21
222.1615417474623
 31
0.0
  0
LINE
  5
14E
330
45
100
AcDbEntity
  8
0
  6
Continuous
 62
     7
100
AcDbLine
 10
322.6373608577724
 20
222.1615417474623
 30
0.0
 11
322.6373608577724
 21
219.6615417474623
 31
0.0
  0
LINE
  5
14F
330
45
100
AcDbEntity
  8
0
  6
Continuous
 62
     7
100
AcDbLine
 10
324.6373608577724
 20
224.9115417474623
 30
0.0
 11
324.6373608577724
 21
222.1615417474623
 31
0.0
  0
LINE
  5
150
330
45
100
AcDbEntity
  8
0
  6
Continuous
 62
     7
100
AcDbLine
 10
322.6373608577724
 20
221.6615417474623
 30
0.0
 11
323.1373608577724
 21
221.6615417474623
 31
0.0
  0
LINE
  5
151
330
45
100
AcDbEntity
  8
0
  6
Continuous
 62
     7
100
AcDbLine
 10
322.6373608577724
 20
220.6615417474623
 30
0.0
 11
323.1373608577724
 21
220.6615417474623
 31
0.0
  0
LINE
  5
152
330
45
100
AcDbEntity
  8
0
  6
Continuous
 62
     7
100
AcDbLine
 10
323.6373608577724
 20
224.9115417474623
 30
0.0
 11
323.6373608577724
 21
222.1615417474623
 31
0.0
  0
LINE
  5
153
330
45
100
AcDbEntity
  8
0
  6
Continuous
 62
     7
100
AcDbLine
 10
294.3873970294735
 20
233.6615417474623
 30
0.0
 11
294.3873970294735
 21
231.2615417474613
 31
0.0
  0
LINE
  5
154
330
45
100
AcDbEntity
  8
0
  6
Continuous
 62
     7
100
AcDbLine
 10
294.3873970294735
 20
224.2615417474626
 30
0.0
 11
294.3873970294735
 21
219.6615417474623
 31
0.0
  0
LINE
  5
155
330
45
100
AcDbEntity
  8
0
  6
Continuous
 62
     7
100
AcDbLine
 10
322.6373608577724
 20
317.1615417474636
 30
0.0
 11
323.1373608577724
 21
317.1615417474636
 31
0.0
  0
LINE
  5
156
330
45
100
AcDbEntity
  8
0
  6
Continuous
 62
     7
100
AcDbLine
 10
294.3873970294735
 20
319.1615417474636
 30
0.0
 11
294.3873608577724
 21
319.1615417474636
 31
0.0
  0
LINE
  5
157
330
45
100
AcDbEntity
  8
0
  6
Continuous
 62
     7
100
AcDbLine
 10
322.6373608577724
 20
318.1615417474636
 30
0.0
 11
323.1373608577724
 21
318.1615417474636
 31
0.0
  0
LINE
  5
158
330
45
100
AcDbEntity
  8
1
  6
Continuous
 62
     7
100
AcDbLine
 10
324.6373608577724
 20
316.6615417474636
 30
0.0
 11
322.6373608577724
 21
316.6615417474636
 31
0.0
  0
LINE
  5
159
330
45
100
AcDbEntity
  8
1
  6
Continuous
 62
     7
100
AcDbLine
 10
322.6373608577724
 20
314.6615417474636
 30
0.0
 11
324.6373608577724
 21
314.6615417474636
 31
0.0
  0
LINE
  5
15A
330
45
100
AcDbEntity
  8
0
  6
Continuous
 62
     7
100
AcDbLine
 10
324.6373608577724
 20
314.6615417474636
 30
0.0
 11
324.6373608577724
 21
224.9115417474623
 31
0.0
  0
LINE
  5
15B
330
45
100
AcDbEntity
  8
1
  6
Continuous
 62
     7
100
AcDbLine
 10
322.6373608577724
 20
314.6615417474636
 30
0.0
 11
322.6373608577724
 21
300.3115417474633
 31
0.0
  0
LINE
  5
15C
330
45
100
AcDbEntity
  8
1
  6
Continuous
 62
     7
100
AcDbLine
 10
322.6373608577724
 20
300.3115417474633
 30
0.0
 11
323.6373608577724
 21
300.3115417474633
 31
0.0
  0
LINE
  5
15D
330
45
100
AcDbEntity
  8
0
  6
Continuous
 62
     7
100
AcDbLine
 10
323.6373608577724
 20
314.6615417474636
 30
0.0
 11
323.6373608577724
 21
300.3115417474633
 31
0.0
  0
LINE
  5
15E
330
45
100
AcDbEntity
  8
0
  6
Continuous
 62
     7
100
AcDbLine
 10
294.3873970294735
 20
314.6615417474636
 30
0.0
 11
294.3873970294735
 21
319.1615417474636
 31
0.0
  0
LINE
  5
15F
330
45
100
AcDbEntity
  8
0
  6
Continuous
 62
     7
100
AcDbLine
 10
325.6373608577724
 20
288.9115417474623
 30
0.0
 11
325.6373608577724
 21
295.9115417474623
 31
0.0
  0
LINE
  5
160
330
45
100
AcDbEntity
  8
0
  6
Continuous
 62
     7
100
AcDbLine
 10
325.6373608577724
 20
245.6615417474623
 30
0.0
 11
325.6373608577724
 21
251.9115417474623
 31
0.0
  0
LINE
  5
161
330
45
100
AcDbEntity
  8
1
  6
PHANTOM
 62
     4
100
AcDbLine
 10
140.633638919262
 20
405.0433134390373
 30
0.0
 11
132.3121533830326
 21
405.0433134390373
 31
0.0
  0
LINE
  5
162
330
45
100
AcDbEntity
  8
1
  6
PHANTOM
 62
     4
100
AcDbLine
 10
136.4622350164827
 20
400.8719095362562
 30
0.0
 11
136.4622350164827
 21
409.1933950724924
 31
0.0
  0
LINE
  5
163
330
45
100
AcDbEntity
  8
1
  6
PHANTOM
 62
     4
100
AcDbLine
 10
181.6622350164835
 20
400.8719095362562
 30
0.0
 11
181.6622350164835
 21
409.1933950724924
 31
0.0
  0
LINE
  5
164
330
45
100
AcDbEntity
  8
1
  6
PHANTOM
 62
     4
100
AcDbLine
 10
185.8336389192627
 20
405.0433134390373
 30
0.0
 11
177.5121533830334
 21
405.0433134390373
 31
0.0
  0
LINE
  5
165
330
45
100
AcDbEntity
  8
1
  6
Continuous
 62
     7
100
AcDbLine
 10
118.4622350164827
 20
394.5433134390373
 30
0.0
 11
126.4622350164827
 21
394.5433134390373
 31
0.0
  0
LINE
  5
166
330
45
100
AcDbEntity
  8
1
  6
Continuous
 62
     7
100
AcDbLine
 10
118.4622350164827
 20
394.5433134390373
 30
0.0
 11
118.4622350164827
 21
374.5433134390373
 31
0.0
  0
LINE
  5
167
330
45
100
AcDbEntity
  8
1
  6
Continuous
 62
     7
100
AcDbLine
 10
118.4622350164827
 20
423.0433134390373
 30
0.0
 11
126.4622350164827
 21
423.0433134390373
 31
0.0
  0
LINE
  5
168
330
45
100
AcDbEntity
  8
1
  6
Continuous
 62
     7
100
AcDbLine
 10
118.4622350164827
 20
424.0433134390373
 30
0.0
 11
118.4622350164827
 21
423.0433134390373
 31
0.0
  0
LINE
  5
169
330
45
100
AcDbEntity
  8
1
  6
Continuous
 62
     7
100
AcDbLine
 10
199.6622350164835
 20
394.5433134390373
 30
0.0
 11
200.6622350164835
 21
394.5433134390373
 31
0.0
  0
LINE
  5
16A
330
45
100
AcDbEntity
  8
1
  6
Continuous
 62
     7
100
AcDbLine
 10
199.6622350164835
 20
394.5433134390373
 30
0.0
 11
199.6622350164835
 21
374.5433134390373
 31
0.0
  0
LINE
  5
16B
330
45
100
AcDbEntity
  8
1
  6
Continuous
 62
     7
100
AcDbLine
 10
199.6622350164835
 20
423.0433134390373
 30
0.0
 11
200.6622350164835
 21
423.0433134390373
 31
0.0
  0
LINE
  5
16C
330
45
100
AcDbEntity
  8
1
  6
Continuous
 62
     7
100
AcDbLine
 10
199.6622350164835
 20
424.0433134390373
 30
0.0
 11
199.6622350164835
 21
423.0433134390373
 31
0.0
  0
LINE
  5
16D
330
45
100
AcDbEntity
  8
1
  6
Continuous
 62
     7
100
AcDbLine
 10
127.4622350164827
 20
422.0433134390373
 30
0.0
 11
127.4622350164827
 21
395.5433134390373
 31
0.0
  0
LINE
  5
16E
330
45
100
AcDbEntity
  8
1
  6
Continuous
 62
     7
100
AcDbLine
 10
190.6622350164835
 20
422.0433134390373
 30
0.0
 11
190.6622350164835
 21
395.5433134390373
 31
0.0
  0
LINE
  5
16F
330
45
100
AcDbEntity
  8
1
  6
Continuous
 62
     7
100
AcDbLine
 10
200.6622350164835
 20
394.5433134390373
 30
0.0
 11
200.6622350164835
 21
374.5433134390373
 31
0.0
  0
LINE
  5
170
330
45
100
AcDbEntity
  8
1
  6
Continuous
 62
     7
100
AcDbLine
 10
191.6622350164835
 20
394.5433134390373
 30
0.0
 11
199.6622350164835
 21
394.5433134390373
 31
0.0
  0
LINE
  5
171
330
45
100
AcDbEntity
  8
1
  6
Continuous
 62
     7
100
AcDbLine
 10
200.6622350164835
 20
423.0433134390373
 30
0.0
 11
200.6622350164835
 21
394.5433134390373
 31
0.0
  0
LINE
  5
172
330
45
100
AcDbEntity
  8
1
  6
Continuous
 62
     7
100
AcDbLine
 10
191.6622350164835
 20
423.0433134390373
 30
0.0
 11
199.6622350164835
 21
423.0433134390373
 31
0.0
  0
LINE
  5
173
330
45
100
AcDbEntity
  8
1
  6
Continuous
 62
     7
100
AcDbLine
 10
117.4622350164827
 20
394.5433134390373
 30
0.0
 11
117.4622350164827
 21
374.5433134390373
 31
0.0
  0
LINE
  5
174
330
45
100
AcDbEntity
  8
1
  6
Continuous
 62
     7
100
AcDbLine
 10
117.4622350164827
 20
394.5433134390373
 30
0.0
 11
118.4622350164827
 21
394.5433134390373
 31
0.0
  0
LINE
  5
175
330
45
100
AcDbEntity
  8
1
  6
Continuous
 62
     7
100
AcDbLine
 10
117.4622350164827
 20
423.0433134390373
 30
0.0
 11
117.4622350164827
 21
394.5433134390373
 31
0.0
  0
LINE
  5
176
330
45
100
AcDbEntity
  8
1
  6
Continuous
 62
     7
100
AcDbLine
 10
117.4622350164827
 20
423.0433134390373
 30
0.0
 11
118.4622350164827
 21
423.0433134390373
 31
0.0
  0
LINE
  5
177
330
45
100
AcDbEntity
  8
1
  6
Continuous
 62
     7
100
AcDbLine
 10
118.4622350164827
 20
424.0433134390373
 30
0.0
 11
199.6622350164835
 21
424.0433134390373
 31
0.0
  0
ARC
  5
178
330
45
100
AcDbEntity
  8
1
  6
Continuous
 62
     7
100
AcDbCircle
 10
312.8873970294735
 20
228.4115417474623
 30
0.0
 40
2.099999999998602
100
AcDbArc
 50
0.0
 51
180.0
  0
ARC
  5
179
330
45
100
AcDbEntity
  8
1
  6
Continuous
 62
     7
100
AcDbCircle
 10
304.8873970294735
 20
228.4115417474623
 30
0.0
 40
2.099999999999169
100
AcDbArc
 50
73.75417716192746
 51
133.6691796476308
  0
ARC
  5
17A
330
45
100
AcDbEntity
  8
0
  6
Continuous
 62
     7
100
AcDbCircle
 10
323.1373608577724
 20
316.6615417474636
 30
0.0
 40
0.5
100
AcDbArc
 50
0.0
 51
90.00000153433948
  0
ARC
  5
17B
330
45
100
AcDbEntity
  8
0
  6
Continuous
 62
     7
100
AcDbCircle
 10
323.1373608577724
 20
316.6615417474636
 30
0.0
 40
1.5
100
AcDbArc
 50
0.0
 51
90.00000153509943
  0
ARC
  5
17C
330
45
100
AcDbEntity
  8
0
  6
Continuous
 62
     7
100
AcDbCircle
 10
323.1373608577724
 20
222.1615417474623
 30
0.0
 40
0.5000000000000001
100
AcDbArc
 50
-90.00000153433948
 51
0.0
  0
ARC
  5
17D
330
45
100
AcDbEntity
  8
0
  6
Continuous
 62
     7
100
AcDbCircle
 10
323.1373608577724
 20
222.1615417474623
 30
0.0
 40
1.500000000000001
100
AcDbArc
 50
-90.00000153509943
 51
0.0
  0
ARC
  5
17E
330
45
100
AcDbEntity
  8
0
  6
Continuous
 62
     7
100
AcDbCircle
 10
325.1373608577724
 20
235.4115417474623
 30
0.0
 40
0.5000000000000001
100
AcDbArc
 50
-90.00000153433948
 51
0.0
  0
ARC
  5
17F
330
45
100
AcDbEntity
  8
0
  6
Continuous
 62
     7
100
AcDbCircle
 10
325.1373608577724
 20
234.4115417474623
 30
0.0
 40
0.5000000000000001
100
AcDbArc
 50
90.00000153433948
 51
-179.9999969295526
  0
ARC
  5
180
330
45
100
AcDbEntity
  8
0
  6
Continuous
 62
     7
100
AcDbCircle
 10
325.1373608577724
 20
243.4115417474623
 30
0.0
 40
0.5000000000000007
100
AcDbArc
 50
-179.9999969295526
 51
-90.00000153433948
  0
ARC
  5
181
330
45
100
AcDbEntity
  8
0
  6
Continuous
 62
     7
100
AcDbCircle
 10
325.1373608577724
 20
242.4115417474623
 30
0.0
 40
0.5
100
AcDbArc
 50
0.0
 51
90.00000153433948
  0
ARC
  5
182
330
45
100
AcDbEntity
  8
0
  6
Continuous
 62
     7
100
AcDbCircle
 10
325.1373608577724
 20
279.4115417474623
 30
0.0
 40
0.5000000000000001
100
AcDbArc
 50
-90.00000153433948
 51
0.0
  0
ARC
  5
183
330
45
100
AcDbEntity
  8
0
  6
Continuous
 62
     7
100
AcDbCircle
 10
325.1373608577724
 20
278.4115417474623
 30
0.0
 40
0.5000000000000001
100
AcDbArc
 50
90.00000153433948
 51
-179.9999969295558
  0
ARC
  5
184
330
45
100
AcDbEntity
  8
0
  6
Continuous
 62
     7
100
AcDbCircle
 10
325.1373608577724
 20
287.4115417474623
 30
0.0
 40
0.5000000000000007
100
AcDbArc
 50
-179.9999969295558
 51
-90.00000153433948
  0
ARC
  5
185
330
45
100
AcDbEntity
  8
0
  6
Continuous
 62
     7
100
AcDbCircle
 10
325.1373608577724
 20
286.4115417474623
 30
0.0
 40
0.5
100
AcDbArc
 50
0.0
 51
90.00000153433948
  0
ARC
  5
186
330
45
100
AcDbEntity
  8
0
  6
Continuous
 62
     7
100
AcDbCircle
 10
291.3873608577724
 20
267.9115417474623
 30
0.0
 40
1.0
100
AcDbArc
 50
90.00000153496154
 51
179.9999969295135
  0
ARC
  5
187
330
45
100
AcDbEntity
  8
0
  6
Continuous
 62
     7
100
AcDbCircle
 10
291.3873608577724
 20
253.9115417474623
 30
0.0
 40
1.000000000000001
100
AcDbArc
 50
179.9999969295135
 51
-90.00000153496154
  0
ARC
  5
188
330
45
100
AcDbEntity
  8
0
  6
Continuous
 62
     7
100
AcDbCircle
 10
291.3873608577724
 20
267.9115417474623
 30
0.0
 40
1.000000000000001
100
AcDbArc
 50
179.9999969295135
 51
-90.00000153496154
  0
ARC
  5
189
330
45
100
AcDbEntity
  8
0
  6
Continuous
 62
     7
100
AcDbCircle
 10
291.3873608577724
 20
253.9115417474623
 30
0.0
 40
1.0
100
AcDbArc
 50
90.00000153496154
 51
179.9999969295135
  0
ARC
  5
18A
330
45
100
AcDbEntity
  8
0
  6
Continuous
 62
     7
100
AcDbCircle
 10
296.5835132804823
 20
260.4215779973192
 30
0.0
 40
1.760036249858533
100
AcDbArc
 50
-137.91004446328
 51
-42.08995860710358
  0
ARC
  5
18B
330
45
100
AcDbEntity
  8
0
  6
Continuous
 62
     7
100
AcDbCircle
 10
296.0410685593433
 20
260.9115417474623
 30
0.0
 40
2.491001879657589
100
AcDbArc
 50
-42.08995860720635
 51
42.08995860722867
  0
ARC
  5
18C
330
45
100
AcDbEntity
  8
0
  6
Continuous
 62
     7
100
AcDbCircle
 10
296.5835132804823
 20
261.4015054976053
 30
0.0
 40
1.760036249860984
100
AcDbArc
 50
42.08995860711319
 51
137.9100444632704
  0
ARC
  5
18D
330
45
100
AcDbEntity
  8
0
  6
Continuous
 62
     7
100
AcDbCircle
 10
297.1259580016231
 20
260.9115417474623
 30
0.0
 40
2.491001879651696
100
AcDbArc
 50
137.9100444631075
 51
-137.9100444631143
  0
ARC
  5
18E
330
45
100
AcDbEntity
  8
0
  6
Continuous
 62
     7
100
AcDbCircle
 10
297.0835132804823
 20
260.4215779973192
 30
0.0
 40
1.760036249858533
100
AcDbArc
 50
-137.91004446328
 51
-98.16877571318078
  0
ARC
  5
18F
330
45
100
AcDbEntity
  8
0
  6
Continuous
 62
     7
100
AcDbCircle
 10
297.0835132804823
 20
261.4015054976053
 30
0.0
 40
1.760036249856375
100
AcDbArc
 50
98.16877571317868
 51
137.9100444632704
  0
ARC
  5
190
330
45
100
AcDbEntity
  8
0
  6
Continuous
 62
     7
100
AcDbCircle
 10
297.6259580016231
 20
260.9115417474623
 30
0.0
 40
2.491001879651696
100
AcDbArc
 50
137.9100444631075
 51
-137.9100444631143
  0
ARC
  5
191
330
45
100
AcDbEntity
  8
0
  6
Continuous
 62
     7
100
AcDbCircle
 10
295.3873970294735
 20
233.6615417474623
 30
0.0
 40
1.0
100
AcDbArc
 50
90.00000153558361
 51
179.9999969295135
  0
ARC
  5
192
330
45
100
AcDbEntity
  8
0
  6
Continuous
 62
     7
100
AcDbCircle
 10
276.3873608577724
 20
296.9115417474636
 30
0.0
 40
1.0
100
AcDbArc
 50
90.00000153496154
 51
179.9999969295884
  0
ARC
  5
193
330
45
100
AcDbEntity
  8
0
  6
Continuous
 62
     7
100
AcDbCircle
 10
276.3873608577724
 20
244.1615417474623
 30
0.0
 40
1.000000000000001
100
AcDbArc
 50
179.9999969295135
 51
-90.00000153496154
  0
ARC
  5
194
330
45
100
AcDbEntity
  8
0
  6
Continuous
 62
     7
100
AcDbCircle
 10
276.3873608577724
 20
277.6615417474623
 30
0.0
 40
1.0
100
AcDbArc
 50
90.00000153496154
 51
179.9999969295135
  0
ARC
  5
195
330
45
100
AcDbEntity
  8
0
  6
Continuous
 62
     7
100
AcDbCircle
 10
276.3873608577724
 20
288.1615417474623
 30
0.0
 40
1.000000000000001
100
AcDbArc
 50
179.9999969295135
 51
-90.00000153496154
  0
ARC
  5
196
330
45
100
AcDbEntity
  8
0
  6
Continuous
 62
     7
100
AcDbCircle
 10
304.8873970294735
 20
228.4115417474623
 30
0.0
 40
2.100000000005985
100
AcDbArc
 50
133.6691796476308
 51
-73.75417716192528
  0
ARC
  5
197
330
45
100
AcDbEntity
  8
0
  6
Continuous
 62
     7
100
AcDbCircle
 10
304.8873970294735
 20
299.4115417474636
 30
0.0
 40
2.100000000006355
100
AcDbArc
 50
133.6691796476211
 51
-73.75417716192854
  0
ARC
  5
198
330
45
100
AcDbEntity
  8
0
  6
Continuous
 62
     7
100
AcDbCircle
 10
304.8873970294735
 20
299.4115417474636
 30
0.0
 40
2.099999999998602
100
AcDbArc
 50
0.0
 51
133.6691796476211
  0
ARC
  5
199
330
45
100
AcDbEntity
  8
0
  6
Continuous
 62
     7
100
AcDbCircle
 10
312.8873970294735
 20
299.4115417474636
 30
0.0
 40
2.099999999998602
100
AcDbArc
 50
0.0
 51
180.0
  0
ARC
  5
19A
330
45
100
AcDbEntity
  8
1
  6
Continuous
 62
     7
100
AcDbCircle
 10
304.3873608577724
 20
238.9115417474623
 30
0.0
 40
4.250000000002578
100
AcDbArc
 50
-60.58159696963084
 51
60.58159696963931
  0
ARC
  5
19B
330
45
100
AcDbEntity
  8
1
  6
Continuous
 62
     7
100
AcDbCircle
 10
304.3873608577833
 20
282.9115417474623
 30
0.0
 40
4.249999999999286
100
AcDbArc
 50
75.17370503746251
 51
90.0
  0
ARC
  5
19C
330
45
100
AcDbEntity
  8
1
  6
Continuous
 62
     7
100
AcDbCircle
 10
304.3873608577833
 20
282.9115417474623
 30
0.0
 40
4.25
100
AcDbArc
 50
-90.0
 51
-75.17370503746132
  0
ARC
  5
19D
330
45
100
AcDbEntity
  8
1
  6
Continuous
 62
     7
100
AcDbCircle
 10
304.3873608577833
 20
282.9115417474623
 30
0.0
 40
4.249999999998137
100
AcDbArc
 50
-60.58159696976512
 51
60.58159696976097
  0
ARC
  5
19E
330
45
100
AcDbEntity
  8
1
  6
Continuous
 62
     7
100
AcDbCircle
 10
304.3873608577833
 20
238.9115417474645
 30
0.0
 40
4.249999999997198
100
AcDbArc
 50
75.17370503745505
 51
90.00000000014637
  0
ARC
  5
19F
330
45
100
AcDbEntity
  8
1
  6
Continuous
 62
     7
100
AcDbCircle
 10
304.3873608577833
 20
238.9115417474645
 30
0.0
 40
4.250000000002189
100
AcDbArc
 50
-90.00000000014637
 51
-75.17370503746878
  0
ARC
  5
1A0
330
45
100
AcDbEntity
  8
1
  6
Continuous
 62
     7
100
AcDbCircle
 10
304.8873970294735
 20
228.4115417474623
 30
0.0
 40
2.099999999998602
100
AcDbArc
 50
0.0
 51
40.89159599463186
  0
ARC
  5
1A1
330
45
100
AcDbEntity
  8
0
  6
Continuous
 62
     7
100
AcDbCircle
 10
325.1373608577724
 20
288.9115417474623
 30
0.0
 40
0.5000000000000001
100
AcDbArc
 50
-90.00000153433948
 51
0.0
  0
ARC
  5
1A2
330
45
100
AcDbEntity
  8
0
  6
Continuous
 62
     7
100
AcDbCircle
 10
325.1373608577724
 20
287.9115417474623
 30
0.0
 40
0.5000000000000001
100
AcDbArc
 50
90.00000153433948
 51
-179.9999969296535
  0
ARC
  5
1A3
330
45
100
AcDbEntity
  8
0
  6
Continuous
 62
     7
100
AcDbCircle
 10
325.1373608577724
 20
296.9115417474623
 30
0.0
 40
0.5000000000000007
100
AcDbArc
 50
-179.9999969296535
 51
-90.00000153433948
  0
ARC
  5
1A4
330
45
100
AcDbEntity
  8
0
  6
Continuous
 62
     7
100
AcDbCircle
 10
325.1373608577724
 20
295.9115417474623
 30
0.0
 40
0.5
100
AcDbArc
 50
0.0
 51
90.00000153433948
  0
ARC
  5
1A5
330
45
100
AcDbEntity
  8
0
  6
Continuous
 62
     7
100
AcDbCircle
 10
325.1373608577724
 20
252.9115417474623
 30
0.0
 40
0.5000000000000007
100
AcDbArc
 50
-179.9999969296568
 51
-90.00000153433948
  0
ARC
  5
1A6
330
45
100
AcDbEntity
  8
0
  6
Continuous
 62
     7
100
AcDbCircle
 10
325.1373608577724
 20
251.9115417474623
 30
0.0
 40
0.5
100
AcDbArc
 50
0.0
 51
90.00000153433948
  0
CIRCLE
  5
1A7
330
45
100
AcDbEntity
  8
0
  6
Continuous
 62
     7
100
AcDbCircle
 10
181.6622350164835
 20
405.0433134390373
 30
0.0
 40
2.0
  0
CIRCLE
  5
1A8
330
45
100
AcDbEntity
  8
0
  6
Continuous
 62
     7
100
AcDbCircle
 10
136.4622350164827
 20
405.0433134390373
 30
0.0
 40
2.0
  0
ARC
  5
1A9
330
45
100
AcDbEntity
  8
1
  6
Continuous
 62
     7
100
AcDbCircle
 10
118.4622350164827
 20
423.0433134390373
 30
0.0
 40
1.0
100
AcDbArc
 50
90.0
 51
180.0
  0
ARC
  5
1AA
330
45
100
AcDbEntity
  8
1
  6
Continuous
 62
     7
100
AcDbCircle
 10
199.6622350164835
 20
423.0433134390373
 30
0.0
 40
1.0
100
AcDbArc
 50
0.0
 51
90.0
  0
ARC
  5
1AB
330
45
100
AcDbEntity
  8
1
  6
Continuous
 62
     7
100
AcDbCircle
 10
191.6622350164835
 20
395.5433134390373
 30
0.0
 40
1.0
100
AcDbArc
 50
180.0
 51
-90.0
  0
ARC
  5
1AC
330
45
100
AcDbEntity
  8
1
  6
Continuous
 62
     7
100
AcDbCircle
 10
126.4622350164827
 20
395.5433134390373
 30
0.0
 40
1.0
100
AcDbArc
 50
-90.0
 51
0.0
  0
ARC
  5
1AD
330
45
100
AcDbEntity
  8
1
  6
Continuous
 62
     7
100
AcDbCircle
 10
126.4622350164827
 20
422.0433134390373
 30
0.0
 40
1.0
100
AcDbArc
 50
0.0
 51
90.0
  0
ARC
  5
1AE
330
45
100
AcDbEntity
  8
1
  6
Continuous
 62
     7
100
AcDbCircle
 10
191.6622350164835
 20
422.0433134390373
 30
0.0
 40
1.0
100
AcDbArc
 50
90.0
 51
180.0
  0
ENDBLK
  5
47
330
45
100
AcDbEntity
  8
0
100
AcDbBlockEnd
  0
BLOCK
  5
49
330
48
100
AcDbEntity
  8
0
100
AcDbBlockBegin
  2
V97-H12
 70
     0
 71
     0
 10
926.2785367806628
 20
110.0742841342594
 30
0.0
  3
V97-H12
  1

  0
LINE
  5
1AF
330
48
100
AcDbEntity
  8
0
  6
Continuous
 62
     7
100
AcDbLine
 10
305.4748909728023
 20
299.4115417474623
 30
0.0
 11
305.4748909728023
 21
222.4115417474623
 31
0.0
  0
LINE
  5
1B0
330
48
100
AcDbEntity
  8
0
  6
Continuous
 62
     7
100
AcDbLine
 10
316.4748909728023
 20
271.9115417474623
 30
0.0
 11
316.4748909728023
 21
249.9115417474623
 31
0.0
  0
LINE
  5
1B1
330
48
100
AcDbEntity
  8
0
  6
Continuous
 62
     7
100
AcDbLine
 10
306.4748909728023
 20
248.9115417474623
 30
0.0
 11
315.4748909728023
 21
248.9115417474623
 31
0.0
  0
LINE
  5
1B2
330
48
100
AcDbEntity
  8
0
  6
Continuous
 62
     7
100
AcDbLine
 10
306.4748909728023
 20
272.9115417474623
 30
0.0
 11
315.4748909728023
 21
272.9115417474623
 31
0.0
  0
LINE
  5
1B3
330
48
100
AcDbEntity
  8
0
  6
Continuous
 62
     7
100
AcDbLine
 10
315.4748909728023
 20
293.4115417474623
 30
0.0
 11
306.4748909728023
 21
293.4115417474623
 31
0.0
  0
LINE
  5
1B4
330
48
100
AcDbEntity
  8
0
  6
Continuous
 62
     7
100
AcDbLine
 10
315.4748909728023
 20
228.4115417474623
 30
0.0
 11
306.4748909728023
 21
228.4115417474623
 31
0.0
  0
LINE
  5
1B5
330
48
100
AcDbEntity
  8
0
  6
Continuous
 62
     7
100
AcDbLine
 10
316.4748909728023
 20
223.4115417474623
 30
0.0
 11
316.4748909728023
 21
227.4115417474623
 31
0.0
  0
LINE
  5
1B6
330
48
100
AcDbEntity
  8
0
  6
Continuous
 62
     7
100
AcDbLine
 10
316.4748909728023
 20
298.4115417474623
 30
0.0
 11
316.4748909728023
 21
294.4115417474623
 31
0.0
  0
LINE
  5
1B7
330
48
100
AcDbEntity
  8
0
  6
Continuous
 62
     7
100
AcDbLine
 10
305.4748909728023
 20
222.4115417474623
 30
0.0
 11
315.4748909728023
 21
222.4115417474623
 31
0.0
  0
LINE
  5
1B8
330
48
100
AcDbEntity
  8
0
  6
Continuous
 62
     7
100
AcDbLine
 10
305.4748909728023
 20
299.4115417474623
 30
0.0
 11
315.4748909728023
 21
299.4115417474623
 31
0.0
  0
LINE
  5
1B9
330
48
100
AcDbEntity
  8
0
  6
Continuous
 62
     7
100
AcDbLine
 10
306.4748909728023
 20
299.4115417474623
 30
0.0
 11
306.4748909728023
 21
293.4115417474623
 31
0.0
  0
LINE
  5
1BA
330
48
100
AcDbEntity
  8
0
  6
Continuous
 62
     7
100
AcDbLine
 10
306.4748909728023
 20
228.4115417474623
 30
0.0
 11
306.4748909728023
 21
222.4115417474623
 31
0.0
  0
LINE
  5
1BB
330
48
100
AcDbEntity
  8
0
  6
Continuous
 62
     7
100
AcDbLine
 10
306.4748909728023
 20
248.9115417474623
 30
0.0
 11
306.4748909728023
 21
228.4115417474623
 31
0.0
  0
LINE
  5
1BC
330
48
100
AcDbEntity
  8
0
  6
Continuous
 62
     7
100
AcDbLine
 10
306.4748909728023
 20
272.9115417474623
 30
0.0
 11
306.4748909728023
 21
248.9115417474623
 31
0.0
  0
LINE
  5
1BD
330
48
100
AcDbEntity
  8
0
  6
Continuous
 62
     7
100
AcDbLine
 10
306.4748909728023
 20
293.4115417474623
 30
0.0
 11
306.4748909728023
 21
272.9115417474623
 31
0.0
  0
LINE
  5
1BE
330
48
100
AcDbEntity
  8
0
  6
Continuous
 62
     7
100
AcDbLine
 10
215.8624764183223
 20
298.4115417474623
 30
0.0
 11
215.8624764183223
 21
223.4115417474623
 31
0.0
  0
LINE
  5
1BF
330
48
100
AcDbEntity
  8
0
  6
Continuous
 62
     7
100
AcDbLine
 10
214.8624764183223
 20
222.4115417474623
 30
0.0
 11
210.3122350164831
 21
222.4115417474623
 31
0.0
  0
LINE
  5
1C0
330
48
100
AcDbEntity
  8
0
  6
Continuous
 62
     7
100
AcDbLine
 10
214.8624764183223
 20
299.4115417474623
 30
0.0
 11
210.3122350164831
 21
299.4115417474623
 31
0.0
  0
LINE
  5
1C1
330
48
100
AcDbEntity
  8
0
  6
Continuous
 62
     7
100
AcDbLine
 10
103.261993614653
 20
231.9115417474623
 30
0.0
 11
107.8122350164831
 21
231.9115417474623
 31
0.0
  0
LINE
  5
1C2
330
48
100
AcDbEntity
  8
0
  6
Continuous
 62
     7
100
AcDbLine
 10
102.261993614653
 20
232.9115417474623
 30
0.0
 11
102.261993614653
 21
307.9115417474623
 31
0.0
  0
LINE
  5
1C3
330
48
100
AcDbEntity
  8
0
  6
Continuous
 62
     7
100
AcDbLine
 10
103.261993614653
 20
308.9115417474623
 30
0.0
 11
107.8122350164831
 21
308.9115417474623
 31
0.0
  0
LINE
  5
1C4
330
48
100
AcDbEntity
  8
1
  6
Continuous
 62
     7
100
AcDbLine
 10
215.8624764183223
 20
405.8308073823696
 30
0.0
 11
215.8624764183223
 21
406.8308073823696
 31
0.0
  0
LINE
  5
1C5
330
48
100
AcDbEntity
  8
1
  6
Continuous
 62
     7
100
AcDbLine
 10
215.8624764183223
 20
405.8308073823696
 30
0.0
 11
200.6622350164835
 21
405.8308073823696
 31
0.0
  0
LINE
  5
1C6
330
48
100
AcDbEntity
  8
1
  6
Continuous
 62
     7
100
AcDbLine
 10
215.8624764183223
 20
406.8308073823696
 30
0.0
 11
201.6622350164835
 21
406.8308073823696
 31
0.0
  0
LINE
  5
1C7
330
48
100
AcDbEntity
  8
1
  6
Continuous
 62
     7
100
AcDbLine
 10
201.6622350164835
 20
406.8308073823696
 30
0.0
 11
201.6622350164835
 21
416.8308073823696
 31
0.0
  0
LINE
  5
1C8
330
48
100
AcDbEntity
  8
1
  6
Continuous
 62
     7
100
AcDbLine
 10
201.6622350164835
 20
416.8308073823696
 30
0.0
 11
200.6622350164835
 21
416.8308073823696
 31
0.0
  0
LINE
  5
1C9
330
48
100
AcDbEntity
  8
1
  6
Continuous
 62
     7
100
AcDbLine
 10
102.261993614653
 20
406.8308073823696
 30
0.0
 11
102.261993614653
 21
405.8308073823696
 31
0.0
  0
LINE
  5
1CA
330
48
100
AcDbEntity
  8
1
  6
Continuous
 62
     7
100
AcDbLine
 10
117.4622350164827
 20
405.8308073823696
 30
0.0
 11
102.261993614653
 21
405.8308073823696
 31
0.0
  0
LINE
  5
1CB
330
48
100
AcDbEntity
  8
1
  6
Continuous
 62
     7
100
AcDbLine
 10
116.4622350164827
 20
406.8308073823696
 30
0.0
 11
102.261993614653
 21
406.8308073823696
 31
0.0
  0
LINE
  5
1CC
330
48
100
AcDbEntity
  8
1
  6
Continuous
 62
     7
100
AcDbLine
 10
116.4622350164827
 20
416.8308073823696
 30
0.0
 11
116.4622350164827
 21
406.8308073823696
 31
0.0
  0
LINE
  5
1CD
330
48
100
AcDbEntity
  8
1
  6
Continuous
 62
     7
100
AcDbLine
 10
117.4622350164827
 20
416.8308073823696
 30
0.0
 11
116.4622350164827
 21
416.8308073823696
 31
0.0
  0
LINE
  5
1CE
330
48
100
AcDbEntity
  8
1
  6
CENTER_DASH_DASH
 62
     2
100
AcDbLine
 10
215.8624764183223
 20
379.5433134390373
 30
0.0
 11
215.8624764183223
 21
380.5433134390373
 31
0.0
  0
LINE
  5
1CF
330
48
100
AcDbEntity
  8
1
  6
CENTER_DASH_DASH
 62
     2
100
AcDbLine
 10
215.8624764183223
 20
379.5433134390373
 30
0.0
 11
200.6622350164835
 21
379.5433134390373
 31
0.0
  0
LINE
  5
1D0
330
48
100
AcDbEntity
  8
1
  6
CENTER_DASH_DASH
 62
     2
100
AcDbLine
 10
215.8624764183223
 20
380.5433134390373
 30
0.0
 11
201.6622350164835
 21
380.5433134390373
 31
0.0
  0
LINE
  5
1D1
330
48
100
AcDbEntity
  8
1
  6
CENTER_DASH_DASH
 62
     2
100
AcDbLine
 10
201.6622350164835
 20
380.5433134390373
 30
0.0
 11
201.6622350164835
 21
390.5433134390373
 31
0.0
  0
LINE
  5
1D2
330
48
100
AcDbEntity
  8
1
  6
CENTER_DASH_DASH
 62
     2
100
AcDbLine
 10
201.6622350164835
 20
390.5433134390373
 30
0.0
 11
200.6622350164835
 21
390.5433134390373
 31
0.0
  0
LINE
  5
1D3
330
48
100
AcDbEntity
  8
1
  6
CENTER_DASH_DASH
 62
     2
100
AcDbLine
 10
102.261993614653
 20
380.5433134390373
 30
0.0
 11
102.261993614653
 21
379.5433134390373
 31
0.0
  0
LINE
  5
1D4
330
48
100
AcDbEntity
  8
1
  6
CENTER_DASH_DASH
 62
     2
100
AcDbLine
 10
117.4622350164827
 20
379.5433134390373
 30
0.0
 11
102.261993614653
 21
379.5433134390373
 31
0.0
  0
LINE
  5
1D5
330
48
100
AcDbEntity
  8
1
  6
CENTER_DASH_DASH
 62
     2
100
AcDbLine
 10
116.4622350164827
 20
380.5433134390373
 30
0.0
 11
102.261993614653
 21
380.5433134390373
 31
0.0
  0
LINE
  5
1D6
330
48
100
AcDbEntity
  8
1
  6
CENTER_DASH_DASH
 62
     2
100
AcDbLine
 10
116.4622350164827
 20
390.5433134390373
 30
0.0
 11
116.4622350164827
 21
380.5433134390373
 31
0.0
  0
LINE
  5
1D7
330
48
100
AcDbEntity
  8
1
  6
CENTER_DASH_DASH
 62
     2
100
AcDbLine
 10
117.4622350164827
 20
390.5433134390373
 30
0.0
 11
116.4622350164827
 21
390.5433134390373
 31
0.0
  0
ARC
  5
1D8
330
48
100
AcDbEntity
  8
0
  6
Continuous
 62
     7
100
AcDbCircle
 10
315.4748909728023
 20
223.4115417474623
 30
0.0
 40
1.0
100
AcDbArc
 50
-90.00000153548264
 51
0.0
  0
ARC
  5
1D9
330
48
100
AcDbEntity
  8
0
  6
Continuous
 62
     7
100
AcDbCircle
 10
315.4748909728023
 20
227.4115417474623
 30
0.0
 40
1.0
100
AcDbArc
 50
0.0
 51
90.00000153548264
  0
ARC
  5
1DA
330
48
100
AcDbEntity
  8
0
  6
Continuous
 62
     7
100
AcDbCircle
 10
315.4748909728023
 20
294.4115417474623
 30
0.0
 40
1.0
100
AcDbArc
 50
-90.00000153548264
 51
0.0
  0
ARC
  5
1DB
330
48
100
AcDbEntity
  8
0
  6
Continuous
 62
     7
100
AcDbCircle
 10
315.4748909728023
 20
298.4115417474623
 30
0.0
 40
1.0
100
AcDbArc
 50
0.0
 51
90.00000153548264
  0
ARC
  5
1DC
330
48
100
AcDbEntity
  8
0
  6
Continuous
 62
     7
100
AcDbCircle
 10
315.4748909728023
 20
249.9115417474623
 30
0.0
 40
1.0
100
AcDbArc
 50
-90.00000153548264
 51
0.0
  0
ARC
  5
1DD
330
48
100
AcDbEntity
  8
0
  6
Continuous
 62
     7
100
AcDbCircle
 10
315.4748909728023
 20
271.9115417474623
 30
0.0
 40
1.0
100
AcDbArc
 50
0.0
 51
90.00000153548264
  0
ARC
  5
1DE
330
48
100
AcDbEntity
  8
0
  6
Continuous
 62
     7
100
AcDbCircle
 10
214.8624764183223
 20
223.4115417474623
 30
0.0
 40
1.0
100
AcDbArc
 50
-90.00000153547613
 51
0.0
  0
ARC
  5
1DF
330
48
100
AcDbEntity
  8
0
  6
Continuous
 62
     7
100
AcDbCircle
 10
214.8624764183223
 20
298.4115417474623
 30
0.0
 40
1.0
100
AcDbArc
 50
0.0
 51
90.00000153547613
  0
ARC
  5
1E0
330
48
100
AcDbEntity
  8
0
  6
Continuous
 62
     7
100
AcDbCircle
 10
103.261993614653
 20
232.9115417474623
 30
0.0
 40
1.000000000000001
100
AcDbArc
 50
-179.9999969295868
 51
-90.00000153558361
  0
ARC
  5
1E1
330
48
100
AcDbEntity
  8
0
  6
Continuous
 62
     7
100
AcDbCircle
 10
103.261993614653
 20
307.9115417474623
 30
0.0
 40
1.0
100
AcDbArc
 50
90.00000153558361
 51
-179.9999969295884
  0
ENDBLK
  5
4A
330
48
100
AcDbEntity
  8
0
100
AcDbBlockEnd
  0
BLOCK
  5
4C
330
4B
100
AcDbEntity
  8
0
100
AcDbBlockBegin
  2
BIS
 70
     0
 71
     0
 10
293.3873970294735
 20
236.9115417474623
 30
0.0
  3
BIS
  1

  0
LINE
  5
1E2
330
4B
100
AcDbEntity
  8
1
  6
Continuous
 62
     7
100
AcDbLine
 10
293.3873970294735
 20
240.9115417474623
 30
0.0
 11
305.4748909728023
 21
240.9115417474623
 31
0.0
  0
LINE
  5
1E3
330
4B
100
AcDbEntity
  8
1
  6
Continuous
 62
     7
100
AcDbLine
 10
293.3873970294735
 20
236.9115417474623
 30
0.0
 11
305.4748909728023
 21
236.9115417474623
 31
0.0
  0
LINE
  5
1E4
330
4B
100
AcDbEntity
  8
1
  6
Continuous
 62
     7
100
AcDbLine
 10
293.3873970294735
 20
284.9115417474623
 30
0.0
 11
305.4748909728023
 21
284.9115417474623
 31
0.0
  0
LINE
  5
1E5
330
4B
100
AcDbEntity
  8
1
  6
Continuous
 62
     7
100
AcDbLine
 10
305.4748909728023
 20
280.9115417474623
 30
0.0
 11
293.3873970294735
 21
280.9115417474623
 31
0.0
  0
LINE
  5
1E6
330
4B
100
AcDbEntity
  8
1
  6
Continuous
 62
     2
100
AcDbLine
 10
305.4748909728023
 20
284.5325417474624
 30
0.0
 11
293.3873970294735
 21
284.5325417474624
 31
0.0
  0
LINE
  5
1E7
330
4B
100
AcDbEntity
  8
1
  6
Continuous
 62
     2
100
AcDbLine
 10
293.3873970294735
 20
281.2905417474626
 30
0.0
 11
305.4748909728023
 21
281.2905417474626
 31
0.0
  0
LINE
  5
1E8
330
4B
100
AcDbEntity
  8
1
  6
Continuous
 62
     2
100
AcDbLine
 10
293.3873970294735
 20
240.5325417474624
 30
0.0
 11
305.4748909728023
 21
240.5325417474624
 31
0.0
  0
LINE
  5
1E9
330
4B
100
AcDbEntity
  8
1
  6
Continuous
 62
     2
100
AcDbLine
 10
305.4748909728023
 20
237.2905417474626
 30
0.0
 11
293.3873970294735
 21
237.2905417474626
 31
0.0
  0
ENDBLK
  5
4D
330
4B
100
AcDbEntity
  8
0
100
AcDbBlockEnd
  0
BLOCK
  5
4F
330
4E
100
AcDbEntity
  8
0
100
AcDbBlockBegin
  2
BIS2
 70
     0
 71
     0
 10
322.4373608577735
 20
241.6615417474623
 30
0.0
  3
BIS2
  1

  0
LINE
  5
1EA
330
4E
100
AcDbEntity
  8
1
  6
Continuous
 62
     7
100
AcDbLine
 10
324.6373608577724
 20
245.6615417474623
 30
0.0
 11
326.1873608577735
 21
245.6615417474623
 31
0.0
  0
LINE
  5
1EB
330
4E
100
AcDbEntity
  8
1
  6
Continuous
 62
     7
100
AcDbLine
 10
326.1873608577735
 20
241.6615417474623
 30
0.0
 11
325.6373608577724
 21
241.6615417474623
 31
0.0
  0
LINE
  5
1EC
330
4E
100
AcDbEntity
  8
1
  6
Continuous
 62
     7
100
AcDbLine
 10
326.1873608577735
 20
245.6615417474623
 30
0.0
 11
326.4373608577735
 21
245.4115417474623
 31
0.0
  0
LINE
  5
1ED
330
4E
100
AcDbEntity
  8
1
  6
Continuous
 62
     2
100
AcDbLine
 10
324.6373608577724
 20
245.4115417474623
 30
0.0
 11
326.4373608577735
 21
245.4115417474623
 31
0.0
  0
LINE
  5
1EE
330
4E
100
AcDbEntity
  8
1
  6
Continuous
 62
     7
100
AcDbLine
 10
326.4373608577735
 20
245.4115417474623
 30
0.0
 11
326.4373608577735
 21
241.9115417474623
 31
0.0
  0
LINE
  5
1EF
330
4E
100
AcDbEntity
  8
1
  6
Continuous
 62
     7
100
AcDbLine
 10
326.4373608577735
 20
241.9115417474623
 30
0.0
 11
326.1873608577735
 21
241.6615417474623
 31
0.0
  0
LINE
  5
1F0
330
4E
100
AcDbEntity
  8
1
  6
Continuous
 62
     7
100
AcDbLine
 10
326.1873608577735
 20
245.6615417474623
 30
0.0
 11
326.1873608577735
 21
241.6615417474623
 31
0.0
  0
LINE
  5
1F1
330
4E
100
AcDbEntity
  8
1
  6
DASH_CENTER
 62
     2
100
AcDbLine
 10
327.9373608577735
 20
243.6615417474623
 30
0.0
 11
322.4373608577735
 21
243.6615417474623
 31
0.0
  0
LINE
  5
1F2
330
4E
100
AcDbEntity
  8
1
  6
Continuous
 62
     2
100
AcDbLine
 10
325.6373608577724
 20
241.9115417474623
 30
0.0
 11
326.4373608577735
 21
241.9115417474623
 31
0.0
  0
ENDBLK
  5
50
330
4E
100
AcDbEntity
  8
0
100
AcDbBlockEnd
  0
BLOCK
  5
52
330
51
100
AcDbEntity
  8
0
100
AcDbBlockBegin
  2
V97D-H1
 70
     0
 71
     0
 10
267.7428990394928
 20
550.3655894582525
 30
0.0
  3
V97D-H1
  1

  0
LINE
  5
1F3
330
51
100
AcDbEntity
  8
1
  6
Continuous
 62
     7
100
AcDbLine
 10
293.3873970294735
 20
287.1615417474623
 30
0.0
 11
293.3873970294735
 21
278.6615417474623
 31
0.0
  0
LINE
  5
1F4
330
51
100
AcDbEntity
  8
1
  6
Continuous
 62
     7
100
AcDbLine
 10
293.3873970294735
 20
243.1615417474623
 30
0.0
 11
293.3873970294735
 21
207.2615417474635
 31
0.0
  0
LINE
  5
1F5
330
51
100
AcDbEntity
  8
1
  6
Continuous
 62
     7
100
AcDbLine
 10
293.3873970294735
 20
268.9115417474623
 30
0.0
 11
293.3873970294735
 21
266.9115417474623
 31
0.0
  0
LINE
  5
1F6
330
51
100
AcDbEntity
  8
1
  6
Continuous
 62
     7
100
AcDbLine
 10
293.3873970294735
 20
254.9115417474623
 30
0.0
 11
293.3873970294735
 21
252.9115417474623
 31
0.0
  0
LINE
  5
1F7
330
51
100
AcDbEntity
  8
0
  6
Continuous
 62
     7
100
AcDbLine
 10
116.4622350164827
 20
196.8615417474643
 30
0.0
 11
201.6622350164835
 21
196.8615417474643
 31
0.0
  0
LINE
  5
1F8
330
51
100
AcDbEntity
  8
0
  6
Continuous
 62
     7
100
AcDbLine
 10
209.6622350164835
 20
204.8615417474643
 30
0.0
 11
209.6622350164835
 21
319.0615417474623
 31
0.0
  0
LINE
  5
1F9
330
51
100
AcDbEntity
  8
0
  6
Continuous
 62
     7
100
AcDbLine
 10
116.4622350164827
 20
327.0615417474623
 30
0.0
 11
201.6622350164835
 21
327.0615417474623
 31
0.0
  0
LINE
  5
1FA
330
51
100
AcDbEntity
  8
0
  6
Continuous
 62
     7
100
AcDbLine
 10
108.4622350164827
 20
204.8615417474643
 30
0.0
 11
108.4622350164827
 21
319.0615417474623
 31
0.0
  0
LINE
  5
1FB
330
51
100
AcDbEntity
  8
0
  6
Continuous
 62
     7
100
AcDbLine
 10
110.3429522816023
 20
370.6874482292064
 30
0.0
 11
121.3574952612926
 21
367.8712298537175
 31
0.0
  0
LINE
  5
1FC
330
51
100
AcDbEntity
  8
0
  6
Continuous
 62
     7
100
AcDbLine
 10
196.4622350164827
 20
367.7933134390373
 30
0.0
 11
207.781517751373
 21
370.6874482292064
 31
0.0
  0
LINE
  5
1FD
330
51
100
AcDbEntity
  8
0
  6
Continuous
 62
     7
100
AcDbLine
 10
108.4622350164827
 20
374.5433134390373
 30
0.0
 11
209.6622350164835
 21
374.5433134390373
 31
0.0
  0
LINE
  5
1FE
330
51
100
AcDbEntity
  8
0
  6
Continuous
 62
     7
100
AcDbLine
 10
108.4622350164827
 20
374.5433134390373
 30
0.0
 11
108.4622350164827
 21
373.1095318145253
 31
0.0
  0
LINE
  5
1FF
330
51
100
AcDbEntity
  8
0
  6
Continuous
 62
     7
100
AcDbLine
 10
209.6622350164835
 20
374.5433134390373
 30
0.0
 11
209.6622350164835
 21
373.1095318145253
 31
0.0
  0
LINE
  5
200
330
51
100
AcDbEntity
  8
1
  6
Continuous
 62
     7
100
AcDbLine
 10
268.6373970294735
 20
237.3115417474633
 30
0.0
 11
268.6373970294735
 21
198.8615417474643
 31
0.0
  0
LINE
  5
201
330
51
100
AcDbEntity
  8
1
  6
Continuous
 62
     7
100
AcDbLine
 10
268.6373970294735
 20
253.1115417474634
 30
0.0
 11
268.6373970294735
 21
237.3115417474633
 31
0.0
  0
LINE
  5
202
330
51
100
AcDbEntity
  8
1
  6
Continuous
 62
     7
100
AcDbLine
 10
268.6373970294735
 20
325.0615417474623
 30
0.0
 11
268.6373970294735
 21
253.1115417474634
 31
0.0
  0
LINE
  5
203
330
51
100
AcDbEntity
  8
1
  6
Continuous
 62
     7
100
AcDbLine
 10
270.6373970294735
 20
327.0615417474623
 30
0.0
 11
275.3873970294735
 21
327.0615417474623
 31
0.0
  0
LINE
  5
204
330
51
100
AcDbEntity
  8
1
  6
Continuous
 62
     7
100
AcDbLine
 10
270.6373970294735
 20
196.8615417474643
 30
0.0
 11
275.3873970294735
 21
196.8615417474643
 31
0.0
  0
LINE
  5
205
330
51
100
AcDbEntity
  8
1
  6
Continuous
 62
     7
100
AcDbLine
 10
272.6789569345128
 20
202.8615417474643
 30
0.0
 11
272.6789569345128
 21
321.0615417474623
 31
0.0
  0
LINE
  5
206
330
51
100
AcDbEntity
  8
0
  6
Continuous
 62
     7
100
AcDbLine
 10
125.6622350164835
 20
315.2615417474635
 30
0.0
 11
192.4622350164827
 21
315.2615417474635
 31
0.0
  0
LINE
  5
207
330
51
100
AcDbEntity
  8
0
  6
Continuous
 62
     7
100
AcDbLine
 10
121.6622350164835
 20
212.7615417474635
 30
0.0
 11
121.6622350164835
 21
311.2615417474635
 31
0.0
  0
LINE
  5
208
330
51
100
AcDbEntity
  8
0
  6
Continuous
 62
     7
100
AcDbLine
 10
196.4622350164827
 20
212.7615417474635
 30
0.0
 11
196.4622350164827
 21
311.2615417474635
 31
0.0
  0
LINE
  5
209
330
51
100
AcDbEntity
  8
0
  6
Continuous
 62
     7
100
AcDbLine
 10
125.6622350164835
 20
208.7615417474635
 30
0.0
 11
192.4622350164827
 21
208.7615417474635
 31
0.0
  0
LINE
  5
20A
330
51
100
AcDbEntity
  8
1
  6
Continuous
 62
     7
100
AcDbLine
 10
275.3873970294735
 20
207.2615417474635
 30
0.0
 11
293.3873970294735
 21
207.2615417474635
 31
0.0
  0
LINE
  5
20B
330
51
100
AcDbEntity
  8
1
  6
Continuous
 62
     7
100
AcDbLine
 10
275.3873970294735
 20
196.8615417474643
 30
0.0
 11
275.3873970294735
 21
327.0615417474623
 31
0.0
  0
LINE
  5
20C
330
51
100
AcDbEntity
  8
0
  6
Continuous
 62
     7
100
AcDbLine
 10
121.976777996173
 20
367.7933134390373
 30
0.0
 11
196.4622350164827
 21
367.7933134390373
 31
0.0
  0
ARC
  5
20D
330
51
100
AcDbEntity
  8
0
  6
Continuous
 62
     7
100
AcDbCircle
 10
201.6622350164835
 20
204.8615417474643
 30
0.0
 40
8.000000000000002
100
AcDbArc
 50
-90.0000015352453
 51
0.0
  0
ARC
  5
20E
330
51
100
AcDbEntity
  8
0
  6
Continuous
 62
     7
100
AcDbCircle
 10
201.6622350164835
 20
319.0615417474623
 30
0.0
 40
8.0
100
AcDbArc
 50
0.0
 51
90.0000015352453
  0
ARC
  5
20F
330
51
100
AcDbEntity
  8
0
  6
Continuous
 62
     7
100
AcDbCircle
 10
116.4622350164827
 20
319.0615417474623
 30
0.0
 40
8.000000000000002
100
AcDbArc
 50
90.00000153524469
 51
-179.9999969295334
  0
ARC
  5
210
330
51
100
AcDbEntity
  8
0
  6
Continuous
 62
     7
100
AcDbCircle
 10
116.4622350164827
 20
204.8615417474643
 30
0.0
 40
8.000000000000011
100
AcDbArc
 50
-179.9999969295271
 51
-90.00000153524469
  0
ARC
  5
211
330
51
100
AcDbEntity
  8
1
  6
Continuous
 62
     7
100
AcDbCircle
 10
264.7400063866626
 20
320.0751015825854
 30
0.0
 40
8.000000000005834
100
AcDbArc
 50
7.08288337933617
 51
54.69216085848719
  0
ARC
  5
212
330
51
100
AcDbEntity
  8
1
  6
Continuous
 62
     7
100
AcDbCircle
 10
264.7400063866626
 20
203.8479819123404
 30
0.0
 40
8.000000000004826
100
AcDbArc
 50
-54.69216085848331
 51
-7.08288337933052
  0
ARC
  5
213
330
51
100
AcDbEntity
  8
0
  6
Continuous
 62
     7
100
AcDbCircle
 10
192.4622350164827
 20
311.2615417474635
 30
0.0
 40
4.0
100
AcDbArc
 50
0.0
 51
90.0
  0
ARC
  5
214
330
51
100
AcDbEntity
  8
0
  6
Continuous
 62
     7
100
AcDbCircle
 10
125.6622350164835
 20
311.2615417474635
 30
0.0
 40
4.0
100
AcDbArc
 50
90.0
 51
180.0
  0
ARC
  5
215
330
51
100
AcDbEntity
  8
0
  6
Continuous
 62
     7
100
AcDbCircle
 10
123.6622350164835
 20
305.2615417474635
 30
0.0
 40
2.000000000000016
100
AcDbArc
 50
151.0449756281394
 51
-179.9999969295493
  0
ARC
  5
216
330
51
100
AcDbEntity
  8
0
  6
Continuous
 62
     7
100
AcDbCircle
 10
125.6622350164835
 20
212.7615417474635
 30
0.0
 40
4.0
100
AcDbArc
 50
180.0
 51
-90.0
  0
ARC
  5
217
330
51
100
AcDbEntity
  8
0
  6
Continuous
 62
     7
100
AcDbCircle
 10
179.8131243758126
 20
305.2615417474635
 30
0.0
 40
10.00000000000008
100
AcDbArc
 50
70.05155641117558
 51
90.00000153523983
  0
ARC
  5
218
330
51
100
AcDbEntity
  8
0
  6
Continuous
 62
     7
100
AcDbCircle
 10
186.4622350164827
 20
240.4106523881374
 30
0.0
 40
10.0
100
AcDbArc
 50
-12.83856814098409
 51
0.0
  0
ARC
  5
219
330
51
100
AcDbEntity
  8
0
  6
Continuous
 62
     7
100
AcDbCircle
 10
192.4622350164827
 20
212.7615417474635
 30
0.0
 40
4.0
100
AcDbArc
 50
-90.0
 51
0.0
  0
ARC
  5
21A
330
51
100
AcDbEntity
  8
0
  6
Continuous
 62
     7
100
AcDbCircle
 10
131.6622350164835
 20
215.1124311067906
 30
0.0
 40
9.999999999999988
100
AcDbArc
 50
167.1614318590159
 51
-179.9999969295283
  0
ARC
  5
21B
330
51
100
AcDbEntity
  8
0
  6
Continuous
 62
     7
100
AcDbCircle
 10
194.4622350164827
 20
305.2615417474635
 30
0.0
 40
2.0
100
AcDbArc
 50
0.0
 51
28.95502437186067
  0
ARC
  5
21C
330
51
100
AcDbEntity
  8
0
  6
Continuous
 62
     7
100
AcDbCircle
 10
138.3113456571537
 20
305.2615417474635
 30
0.0
 40
10.0
100
AcDbArc
 50
90.00000153518774
 51
109.9484435887761
  0
ARC
  5
21D
330
51
100
AcDbEntity
  8
0
  6
Continuous
 62
     7
100
AcDbCircle
 10
186.4622350164827
 20
215.1124311067906
 30
0.0
 40
10.0
100
AcDbArc
 50
0.0
 51
12.83856814097901
  0
ARC
  5
21E
330
51
100
AcDbEntity
  8
0
  6
Continuous
 62
     7
100
AcDbCircle
 10
123.6622350164835
 20
233.7615417474635
 30
0.0
 40
2.000000000000003
100
AcDbArc
 50
-179.9999969295509
 51
-151.0449756281643
  0
ARC
  5
21F
330
51
100
AcDbEntity
  8
0
  6
Continuous
 62
     7
100
AcDbCircle
 10
207.1622350164835
 20
373.1095318145253
 30
0.0
 40
2.50000000000074
100
AcDbArc
 50
-75.65777396945488
 51
0.0
  0
ARC
  5
220
330
51
100
AcDbEntity
  8
0
  6
Continuous
 62
     7
100
AcDbCircle
 10
121.976777996173
 20
370.2933134390373
 30
0.0
 40
2.49999999999931
100
AcDbArc
 50
-104.342226030338
 51
-90.0
  0
ARC
  5
221
330
51
100
AcDbEntity
  8
0
  6
Continuous
 62
     7
100
AcDbCircle
 10
110.9622350164827
 20
373.1095318145253
 30
0.0
 40
2.5
100
AcDbArc
 50
180.0
 51
-104.3422260303429
  0
ARC
  5
222
330
51
100
AcDbEntity
  8
1
  6
Continuous
 62
     7
100
AcDbCircle
 10
270.6373970294735
 20
325.0615417474623
 30
0.0
 40
2.0
100
AcDbArc
 50
90.0
 51
180.0
  0
ARC
  5
223
330
51
100
AcDbEntity
  8
1
  6
Continuous
 62
     7
100
AcDbCircle
 10
270.6373970294735
 20
198.8615417474643
 30
0.0
 40
2.0
100
AcDbArc
 50
180.0
 51
-90.0
  0
ENDBLK
  5
53
330
51
100
AcDbEntity
  8
0
100
AcDbBlockEnd
  0
BLOCK
  5
55
330
54
100
AcDbEntity
  8
0
100
AcDbBlockBegin
  2
V972GN-H6
 70
     0
 71
     0
 10
670.1942668694719
 20
-352.0449149465708
 30
0.0
  3
V972GN-H6
  1

  0
LINE
  5
224
330
54
100
AcDbEntity
  8
0
  6
Continuous
 62
     7
100
AcDbLine
 10
125.9122350164835
 20
209.1615417474623
 30
0.0
 11
159.0622350164831
 21
209.1615417474623
 31
0.0
  0
LINE
  5
225
330
54
100
AcDbEntity
  8
0
  6
Continuous
 62
     7
100
AcDbLine
 10
159.0622350164831
 20
209.1615417474623
 30
0.0
 11
192.2122350164827
 21
209.1615417474623
 31
0.0
  0
LINE
  5
226
330
54
100
AcDbEntity
  8
0
  6
Continuous
 62
     7
100
AcDbLine
 10
125.9122350164835
 20
314.6615417474623
 30
0.0
 11
192.2122350164827
 21
314.6615417474623
 31
0.0
  0
LINE
  5
227
330
54
100
AcDbEntity
  8
0
  6
Continuous
 62
     7
100
AcDbLine
 10
121.9122350164835
 20
310.6615417474623
 30
0.0
 11
121.9122350164835
 21
213.1615417474623
 31
0.0
  0
LINE
  5
228
330
54
100
AcDbEntity
  8
0
  6
Continuous
 62
     7
100
AcDbLine
 10
196.2122350164827
 20
310.6615417474623
 30
0.0
 11
196.2122350164827
 21
213.1615417474623
 31
0.0
  0
LINE
  5
229
330
54
100
AcDbEntity
  8
0
  6
Continuous
 62
     7
100
AcDbLine
 10
196.2122350164827
 20
303.9115417474645
 30
0.0
 11
196.4622350164827
 21
303.9115417474645
 31
0.0
  0
LINE
  5
22A
330
54
100
AcDbEntity
  8
0
  6
Continuous
 62
     7
100
AcDbLine
 10
127.0585930142934
 20
290.6733451463383
 30
0.0
 11
130.4405590255428
 21
292.3643281519635
 31
0.0
  0
LINE
  5
22B
330
54
100
AcDbEntity
  8
0
  6
Continuous
 62
     7
100
AcDbLine
 10
127.0585930142934
 20
294.9497383485882
 30
0.0
 11
130.4405590255428
 21
293.2587553429635
 31
0.0
  0
LINE
  5
22C
330
54
100
AcDbEntity
  8
0
  6
Continuous
 62
     7
100
AcDbLine
 10
126.3349862165433
 20
291.1205587418385
 30
0.0
 11
126.3349862165433
 21
294.5025247530884
 31
0.0
  0
LINE
  5
22D
330
54
100
AcDbEntity
  8
0
  6
Continuous
 62
     2
100
AcDbLine
 10
139.7457012277828
 20
283.6608175636734
 30
0.0
 11
136.3558125820728
 21
280.2709289179684
 31
0.0
  0
LINE
  5
22E
330
54
100
AcDbEntity
  8
0
  6
Continuous
 62
     2
100
AcDbLine
 10
139.4430741042324
 20
283.6410331526035
 30
0.0
 11
136.087061296932
 21
280.2850203452954
 31
0.0
  0
LINE
  5
22F
330
54
100
AcDbEntity
  8
0
  6
Continuous
 62
     2
100
AcDbLine
 10
139.105512927983
 20
283.5863146888214
 30
0.0
 11
135.8532440644922
 21
280.3340458253324
 31
0.0
  0
LINE
  5
230
330
54
100
AcDbEntity
  8
0
  6
Continuous
 62
     2
100
AcDbLine
 10
138.7294820369534
 20
283.4931265102632
 30
0.0
 11
135.6578965468325
 21
280.4215410201464
 31
0.0
  0
LINE
  5
231
330
54
100
AcDbEntity
  8
0
  6
Continuous
 62
     2
100
AcDbLine
 10
138.3075514398333
 20
283.3540386256286
 30
0.0
 11
135.5084487352433
 21
280.5549359210386
 31
0.0
  0
LINE
  5
232
330
54
100
AcDbEntity
  8
0
  6
Continuous
 62
     2
100
AcDbLine
 10
137.8242123292021
 20
283.1535422274683
 30
0.0
 11
135.4204094371835
 21
280.7497393354533
 31
0.0
  0
LINE
  5
233
330
54
100
AcDbEntity
  8
0
  6
Continuous
 62
     2
100
AcDbLine
 10
137.2400200684824
 20
282.8521926792205
 30
0.0
 11
135.433223289223
 21
281.0453958999583
 31
0.0
  0
LINE
  5
234
330
54
100
AcDbEntity
  8
0
  6
Continuous
 62
     2
100
AcDbLine
 10
136.3219097450019
 20
282.2169250682164
 30
0.0
 11
135.7799552040033
 21
281.6749705272182
 31
0.0
  0
LINE
  5
235
330
54
100
AcDbEntity
  8
0
  6
Continuous
 62
     2
100
AcDbLine
 10
140.0144525129326
 20
283.6467261363473
 30
0.0
 11
136.6584397056231
 21
280.2907133290396
 31
0.0
  0
LINE
  5
236
330
54
100
AcDbEntity
  8
0
  6
Continuous
 62
     2
100
AcDbLine
 10
140.2482697453634
 20
283.5977006563094
 30
0.0
 11
136.9960008818835
 21
280.3454317928204
 31
0.0
  0
LINE
  5
237
330
54
100
AcDbEntity
  8
0
  6
Continuous
 62
     2
100
AcDbLine
 10
140.443617263023
 20
283.5102054614954
 30
0.0
 11
137.372031772913
 21
280.4386199713786
 31
0.0
  0
LINE
  5
238
330
54
100
AcDbEntity
  8
0
  6
Continuous
 62
     2
100
AcDbLine
 10
140.5930650746122
 20
283.3768105606046
 30
0.0
 11
137.7939623700222
 21
280.5777078560145
 31
0.0
  0
LINE
  5
239
330
54
100
AcDbEntity
  8
0
  6
Continuous
 62
     2
100
AcDbLine
 10
140.6811043726721
 20
283.1820071461893
 30
0.0
 11
138.2773014806535
 21
280.7782042541735
 31
0.0
  0
LINE
  5
23A
330
54
100
AcDbEntity
  8
0
  6
Continuous
 62
     2
100
AcDbLine
 10
140.6682905206435
 20
282.8863505816844
 30
0.0
 11
138.8614937413822
 21
281.0795538024222
 31
0.0
  0
LINE
  5
23B
330
54
100
AcDbEntity
  8
0
  6
Continuous
 62
     2
100
AcDbLine
 10
140.3215586058523
 20
282.2567759544236
 30
0.0
 11
139.7796040648536
 21
281.7148214134263
 31
0.0
  0
LINE
  5
23C
330
54
100
AcDbEntity
  8
0
  6
Continuous
 62
     2
100
AcDbLine
 10
137.613364902063
 20
285.5770283733496
 30
0.0
 11
136.1886377182836
 21
284.1523011895583
 31
0.0
  0
LINE
  5
23D
330
54
100
AcDbEntity
  8
0
  6
Continuous
 62
     2
100
AcDbLine
 10
137.2562592867325
 20
285.5027654704845
 30
0.0
 11
135.8440793070422
 21
284.0905854907965
 31
0.0
  0
LINE
  5
23E
330
54
100
AcDbEntity
  8
0
  6
Continuous
 62
     2
100
AcDbLine
 10
136.8862627772724
 20
285.4156116735016
 30
0.0
 11
135.5124117899231
 21
284.0417606861524
 31
0.0
  0
LINE
  5
23F
330
54
100
AcDbEntity
  8
0
  6
Continuous
 62
     2
100
AcDbLine
 10
136.5022426544019
 20
285.3144342631076
 30
0.0
 11
135.1947678862125
 21
284.0069594949182
 31
0.0
  0
LINE
  5
240
330
54
100
AcDbEntity
  8
0
  6
Continuous
 62
     2
100
AcDbLine
 10
136.1018924840137
 20
285.1969268051903
 30
0.0
 11
134.8934540300234
 21
283.9884883512086
 31
0.0
  0
LINE
  5
241
330
54
100
AcDbEntity
  8
0
  6
Continuous
 62
     2
100
AcDbLine
 10
135.6806872464022
 20
285.0585642800593
 30
0.0
 11
134.6129952410629
 21
283.9908722747123
 31
0.0
  0
LINE
  5
242
330
54
100
AcDbEntity
  8
0
  6
Continuous
 62
     2
100
AcDbLine
 10
135.2285651323527
 20
284.8892848784803
 30
0.0
 11
134.3634533285331
 21
284.0241730746634
 31
0.0
  0
LINE
  5
243
330
54
100
AcDbEntity
  8
0
  6
Continuous
 62
     2
100
AcDbLine
 10
134.7124224891122
 20
284.6559849477144
 30
0.0
 11
134.1779319452035
 21
284.1214944038024
 31
0.0
  0
LINE
  5
244
330
54
100
AcDbEntity
  8
0
  6
Continuous
 62
     2
100
AcDbLine
 10
137.9579233133027
 20
285.6387440721123
 30
0.0
 11
136.5457433336233
 21
284.2265640924234
 31
0.0
  0
LINE
  5
245
330
54
100
AcDbEntity
  8
0
  6
Continuous
 62
     2
100
AcDbLine
 10
138.2895908304236
 20
285.6875688767564
 30
0.0
 11
136.9157398430725
 21
284.3137178894076
 31
0.0
  0
LINE
  5
246
330
54
100
AcDbEntity
  8
0
  6
Continuous
 62
     2
100
AcDbLine
 10
138.6072347341324
 20
285.7223700679892
 30
0.0
 11
137.2997599659429
 21
284.4148952998016
 31
0.0
  0
LINE
  5
247
330
54
100
AcDbEntity
  8
0
  6
Continuous
 62
     2
100
AcDbLine
 10
138.9085485903124
 20
285.7408412117006
 30
0.0
 11
137.700110136333
 21
284.5324027577176
 31
0.0
  0
LINE
  5
248
330
54
100
AcDbEntity
  8
0
  6
Continuous
 62
     2
100
AcDbLine
 10
139.1890073792929
 20
285.7384572881965
 30
0.0
 11
138.1213153739427
 21
284.6707652828495
 31
0.0
  0
LINE
  5
249
330
54
100
AcDbEntity
  8
0
  6
Continuous
 62
     2
100
AcDbLine
 10
139.4385492918136
 20
285.7051564882454
 30
0.0
 11
138.5734374879921
 21
284.8400446844275
 31
0.0
  0
LINE
  5
24A
330
54
100
AcDbEntity
  8
0
  6
Continuous
 62
     2
100
AcDbLine
 10
139.6240706751432
 20
285.6078351591063
 30
0.0
 11
139.0895801312327
 21
285.0733446151944
 31
0.0
  0
LINE
  5
24B
330
54
100
AcDbEntity
  8
0
  6
Continuous
 62
     2
100
AcDbLine
 10
142.1623799530735
 20
280.5224331169106
 30
0.0
 11
138.0899253415937
 21
276.4499785054295
 31
0.0
  0
LINE
  5
24C
330
54
100
AcDbEntity
  8
0
  6
Continuous
 62
     2
100
AcDbLine
 10
141.9679770184721
 20
280.6108728947843
 30
0.0
 11
137.9231937193235
 21
276.5660895956326
 31
0.0
  0
LINE
  5
24D
330
54
100
AcDbEntity
  8
0
  6
Continuous
 62
     2
100
AcDbLine
 10
141.7453228688228
 20
280.6710614576014
 30
0.0
 11
137.7847133121122
 21
276.7104519008935
 31
0.0
  0
LINE
  5
24E
330
54
100
AcDbEntity
  8
0
  6
Continuous
 62
     2
100
AcDbLine
 10
141.4925490100632
 20
280.7011303113172
 30
0.0
 11
137.676352613993
 21
276.8849339152534
 31
0.0
  0
LINE
  5
24F
330
54
100
AcDbEntity
  8
0
  6
Continuous
 62
     2
100
AcDbLine
 10
141.2060386708527
 20
280.6974626845854
 30
0.0
 11
137.601728396332
 21
277.0931524100624
 31
0.0
  0
LINE
  5
250
330
54
100
AcDbEntity
  8
0
  6
Continuous
 62
     2
100
AcDbLine
 10
140.8793296100121
 20
280.6535963362144
 30
0.0
 11
137.5673029003028
 21
277.3415696265106
 31
0.0
  0
LINE
  5
251
330
54
100
AcDbEntity
  8
0
  6
Continuous
 62
     2
100
AcDbLine
 10
140.5003806213426
 20
280.5574900600236
 30
0.0
 11
137.5851173320934
 21
277.6422267707785
 31
0.0
  0
LINE
  5
252
330
54
100
AcDbEntity
  8
0
  6
Continuous
 62
     2
100
AcDbLine
 10
140.0431526880329
 20
280.3831048391862
 30
0.0
 11
137.6812107085334
 21
278.0211628596926
 31
0.0
  0
LINE
  5
253
330
54
100
AcDbEntity
  8
0
  6
Continuous
 62
     2
100
AcDbLine
 10
139.4248422672226
 20
280.0476371308505
 30
0.0
 11
137.9383865724722
 21
278.5611814361064
 31
0.0
  0
LINE
  5
254
330
54
100
AcDbEntity
  8
0
  6
Continuous
 62
     2
100
AcDbLine
 10
142.3291115753436
 20
280.4063220267085
 30
0.0
 11
138.2843282761933
 21
276.3615387275554
 31
0.0
  0
LINE
  5
255
330
54
100
AcDbEntity
  8
0
  6
Continuous
 62
     2
100
AcDbLine
 10
142.4675919825622
 20
280.2619597214466
 30
0.0
 11
138.5069824258535
 21
276.3013501647383
 31
0.0
  0
LINE
  5
256
330
54
100
AcDbEntity
  8
0
  6
Continuous
 62
     2
100
AcDbLine
 10
142.5759526806723
 20
280.0874777070853
 30
0.0
 11
138.7597562846131
 21
276.2712813110225
 31
0.0
  0
LINE
  5
257
330
54
100
AcDbEntity
  8
0
  6
Continuous
 62
     2
100
AcDbLine
 10
142.6505768983425
 20
279.8792592122773
 30
0.0
 11
139.0462666238236
 21
276.2749489377534
 31
0.0
  0
LINE
  5
258
330
54
100
AcDbEntity
  8
0
  6
Continuous
 62
     2
100
AcDbLine
 10
142.6850023943734
 20
279.6308419958295
 30
0.0
 11
139.3729756846624
 21
276.3188152861244
 31
0.0
  0
LINE
  5
259
330
54
100
AcDbEntity
  8
0
  6
Continuous
 62
     2
100
AcDbLine
 10
142.6671879625719
 20
279.3301848515616
 30
0.0
 11
139.7519246733336
 21
276.4149215623165
 31
0.0
  0
LINE
  5
25A
330
54
100
AcDbEntity
  8
0
  6
Continuous
 62
     2
100
AcDbLine
 10
142.571094586132
 20
278.9512487626475
 30
0.0
 11
140.2091526066433
 21
276.5893067831535
 31
0.0
  0
LINE
  5
25B
330
54
100
AcDbEntity
  8
0
  6
Continuous
 62
     2
100
AcDbLine
 10
142.3139187221932
 20
278.4112301862333
 30
0.0
 11
140.8274630274536
 21
276.9247744914896
 31
0.0
  0
LINE
  5
25C
330
54
100
AcDbEntity
  8
0
  6
Continuous
 62
     2
100
AcDbLine
 10
145.447802918432
 20
276.5271180817254
 30
0.0
 11
141.6278309779227
 21
272.7071461412206
 31
0.0
  0
LINE
  5
25D
330
54
100
AcDbEntity
  8
0
  6
Continuous
 62
     2
100
AcDbLine
 10
145.2938385251327
 20
276.6559964009025
 30
0.0
 11
141.4936825590121
 21
272.8558404347814
 31
0.0
  0
LINE
  5
25E
330
54
100
AcDbEntity
  8
0
  6
Continuous
 62
     2
100
AcDbLine
 10
145.1197432123336
 20
276.7647438005824
 30
0.0
 11
141.3796650595923
 21
273.0246656478394
 31
0.0
  0
LINE
  5
25F
330
54
100
AcDbEntity
  8
0
  6
Continuous
 62
     2
100
AcDbLine
 10
144.9245198592034
 20
276.8523631599223
 30
0.0
 11
141.2867756005126
 21
273.2146189012374
 31
0.0
  0
LINE
  5
260
330
54
100
AcDbEntity
  8
0
  6
Continuous
 62
     2
100
AcDbLine
 10
144.7063106045935
 20
276.9169966177906
 30
0.0
 11
141.2168720429127
 21
273.4275580561075
 31
0.0
  0
LINE
  5
261
330
54
100
AcDbEntity
  8
0
  6
Continuous
 62
     2
100
AcDbLine
 10
144.4620089324235
 20
276.9555376580943
 30
0.0
 11
141.1730609028728
 21
273.6665896285404
 31
0.0
  0
LINE
  5
262
330
54
100
AcDbEntity
  8
0
  6
Continuous
 62
     2
100
AcDbLine
 10
144.1864372260825
 20
276.9628086642292
 30
0.0
 11
141.160519796993
 21
273.9368912351433
 31
0.0
  0
LINE
  5
263
330
54
100
AcDbEntity
  8
0
  6
Continuous
 62
     2
100
AcDbLine
 10
143.870426665022
 20
276.9296408156456
 30
0.0
 11
141.1884175458436
 21
274.2476316964644
 31
0.0
  0
LINE
  5
264
330
54
100
AcDbEntity
  8
0
  6
Continuous
 62
     2
100
AcDbLine
 10
143.4953396882429
 20
276.8373965513406
 30
0.0
 11
141.2753917104128
 21
274.6174485735073
 31
0.0
  0
LINE
  5
265
330
54
100
AcDbEntity
  8
0
  6
Continuous
 62
     2
100
AcDbLine
 10
143.0096133694824
 20
276.6345129450524
 30
0.0
 11
141.4730052169634
 21
275.0979047925334
 31
0.0
  0
LINE
  5
266
330
54
100
AcDbEntity
  8
0
  6
Continuous
 62
     2
100
AcDbLine
 10
145.5819513373426
 20
276.3784237881655
 30
0.0
 11
141.781795371222
 21
272.5782678220444
 31
0.0
  0
LINE
  5
267
330
54
100
AcDbEntity
  8
0
  6
Continuous
 62
     2
100
AcDbLine
 10
145.6959688367624
 20
276.2095985751075
 30
0.0
 11
141.9558906840121
 21
272.4695204223644
 31
0.0
  0
LINE
  5
268
330
54
100
AcDbEntity
  8
0
  6
Continuous
 62
     2
100
AcDbLine
 10
145.7888582958331
 20
276.0196453217095
 30
0.0
 11
142.1511140371531
 21
272.3819010630245
 31
0.0
  0
LINE
  5
269
330
54
100
AcDbEntity
  8
0
  6
Continuous
 62
     2
100
AcDbLine
 10
145.8587618534421
 20
275.8067061668394
 30
0.0
 11
142.3693232917631
 21
272.3172676051563
 31
0.0
  0
LINE
  5
26A
330
54
100
AcDbEntity
  8
0
  6
Continuous
 62
     2
100
AcDbLine
 10
145.902572993482
 20
275.5676745944065
 30
0.0
 11
142.613624963933
 21
272.2787265648526
 31
0.0
  0
LINE
  5
26B
330
54
100
AcDbEntity
  8
0
  6
Continuous
 62
     2
100
AcDbLine
 10
145.9151140993527
 20
275.2973729878036
 30
0.0
 11
142.8891966702631
 21
272.2714555587172
 31
0.0
  0
LINE
  5
26C
330
54
100
AcDbEntity
  8
0
  6
Continuous
 62
     2
100
AcDbLine
 10
145.8872163505021
 20
274.9866325264825
 30
0.0
 11
143.2052072313236
 21
272.3046234073013
 31
0.0
  0
LINE
  5
26D
330
54
100
AcDbEntity
  8
0
  6
Continuous
 62
     2
100
AcDbLine
 10
145.8002421859419
 20
274.6168156494396
 30
0.0
 11
143.5802942081027
 21
272.3968676716063
 31
0.0
  0
LINE
  5
26E
330
54
100
AcDbEntity
  8
0
  6
Continuous
 62
     2
100
AcDbLine
 10
145.6026286793931
 20
274.1363594304144
 30
0.0
 11
144.0660205268632
 21
272.5997512778945
 31
0.0
  0
LINE
  5
26F
330
54
100
AcDbEntity
  8
0
  6
Continuous
 62
     2
100
AcDbLine
 10
152.8472357395331
 20
272.5618839952972
 30
0.0
 11
149.3248652034326
 21
269.0395134592022
 31
0.0
  0
LINE
  5
270
330
54
100
AcDbEntity
  8
0
  6
Continuous
 62
     2
100
AcDbLine
 10
152.7001272064936
 20
272.6976181747396
 30
0.0
 11
149.1891310239935
 21
269.1866219922354
 31
0.0
  0
LINE
  5
271
330
54
100
AcDbEntity
  8
0
  6
Continuous
 62
     2
100
AcDbLine
 10
152.5415326850125
 20
272.8218663657344
 30
0.0
 11
149.0648828329922
 21
269.3452165137146
 31
0.0
  0
LINE
  5
272
330
54
100
AcDbEntity
  8
0
  6
Continuous
 62
     2
100
AcDbLine
 10
152.3711060184032
 20
272.9342824115956
 30
0.0
 11
148.9524667871319
 21
269.5156431803284
 31
0.0
  0
LINE
  5
273
330
54
100
AcDbEntity
  8
0
  6
Continuous
 62
     2
100
AcDbLine
 10
152.1882300136022
 20
273.0342491192714
 30
0.0
 11
148.8525000794634
 21
269.6985191851272
 31
0.0
  0
LINE
  5
274
330
54
100
AcDbEntity
  8
0
  6
Continuous
 62
     2
100
AcDbLine
 10
151.9919451002133
 20
273.1208069183504
 30
0.0
 11
148.7659422803827
 21
269.8948040985224
 31
0.0
  0
LINE
  5
275
330
54
100
AcDbEntity
  8
0
  6
Continuous
 62
     2
100
AcDbLine
 10
151.7808218994032
 20
273.1925264300153
 30
0.0
 11
148.6942227687123
 21
270.1059272993325
 31
0.0
  0
LINE
  5
276
330
54
100
AcDbEntity
  8
0
  6
Continuous
 62
     2
100
AcDbLine
 10
151.552731867363
 20
273.2472791104592
 30
0.0
 11
148.639470088272
 21
270.3340173313623
 31
0.0
  0
LINE
  5
277
330
54
100
AcDbEntity
  8
0
  6
Continuous
 62
     2
100
AcDbLine
 10
151.3044105386125
 20
273.2818004941782
 30
0.0
 11
148.604948704553
 21
270.5823386601182
 31
0.0
  0
LINE
  5
278
330
54
100
AcDbEntity
  8
0
  6
Continuous
 62
     2
100
AcDbLine
 10
151.030539477053
 20
273.2907721450974
 30
0.0
 11
148.5959770536319
 21
270.8562097216745
 31
0.0
  0
LINE
  5
279
330
54
100
AcDbEntity
  8
0
  6
Continuous
 62
     2
100
AcDbLine
 10
150.7214909227623
 20
273.2645663032813
 30
0.0
 11
148.6221828954531
 21
271.1652582759643
 31
0.0
  0
LINE
  5
27A
330
54
100
AcDbEntity
  8
0
  6
Continuous
 62
     2
100
AcDbLine
 10
150.3561113493925
 20
273.1820294423796
 30
0.0
 11
148.7047197563534
 21
271.5306378493415
 31
0.0
  0
LINE
  5
27B
330
54
100
AcDbEntity
  8
0
  6
Continuous
 62
     2
100
AcDbLine
 10
149.8599225865037
 20
272.9686833919686
 30
0.0
 11
148.9180658067635
 21
272.0268266122266
 31
0.0
  0
LINE
  5
27C
330
54
100
AcDbEntity
  8
0
  6
Continuous
 62
     2
100
AcDbLine
 10
152.9829699189722
 20
272.4147754622645
 30
0.0
 11
149.471973736463
 21
268.9037792797612
 31
0.0
  0
LINE
  5
27D
330
54
100
AcDbEntity
  8
0
  6
Continuous
 62
     2
100
AcDbLine
 10
153.1072181099626
 20
272.2561809407844
 30
0.0
 11
149.6305682579423
 21
268.7795310887664
 31
0.0
  0
LINE
  5
27E
330
54
100
AcDbEntity
  8
0
  6
Continuous
 62
     2
100
AcDbLine
 10
153.2196341558229
 20
272.0857542741705
 30
0.0
 11
149.8009949245625
 21
268.6671150429056
 31
0.0
  0
LINE
  5
27F
330
54
100
AcDbEntity
  8
0
  6
Continuous
 62
     2
100
AcDbLine
 10
153.3196008635023
 20
271.9028782693736
 30
0.0
 11
149.9838709293526
 21
268.5671483352285
 31
0.0
  0
LINE
  5
280
330
54
100
AcDbEntity
  8
0
  6
Continuous
 62
     2
100
AcDbLine
 10
153.406158662583
 20
271.7065933559775
 30
0.0
 11
150.1801558427524
 21
268.4805905361495
 31
0.0
  0
LINE
  5
281
330
54
100
AcDbEntity
  8
0
  6
Continuous
 62
     2
100
AcDbLine
 10
153.4778781742534
 20
271.4954701551696
 30
0.0
 11
150.3912790435625
 21
268.4088710244823
 31
0.0
  0
LINE
  5
282
330
54
100
AcDbEntity
  8
0
  6
Continuous
 62
     2
100
AcDbLine
 10
153.5326308546937
 20
271.2673801231376
 30
0.0
 11
150.6193690755936
 21
268.3541183440393
 31
0.0
  0
LINE
  5
283
330
54
100
AcDbEntity
  8
0
  6
Continuous
 62
     2
100
AcDbLine
 10
153.5671522384128
 20
271.0190587943816
 30
0.0
 11
150.8676904043532
 21
268.3195969603216
 31
0.0
  0
LINE
  5
284
330
54
100
AcDbEntity
  8
0
  6
Continuous
 62
     2
100
AcDbLine
 10
153.5761238893319
 20
270.7451877328253
 30
0.0
 11
151.1415614659036
 21
268.3106253094024
 31
0.0
  0
LINE
  5
285
330
54
100
AcDbEntity
  8
0
  6
Continuous
 62
     2
100
AcDbLine
 10
153.5499180475126
 20
270.4361391785346
 30
0.0
 11
151.4506100201925
 21
268.3368311512195
 31
0.0
  0
LINE
  5
286
330
54
100
AcDbEntity
  8
0
  6
Continuous
 62
     2
100
AcDbLine
 10
153.4673811866123
 20
270.0707596051575
 30
0.0
 11
151.8159895935733
 21
268.4193680121216
 31
0.0
  0
LINE
  5
287
330
54
100
AcDbEntity
  8
0
  6
Continuous
 62
     2
100
AcDbLine
 10
153.2540351362022
 20
269.5745708422724
 30
0.0
 11
152.3121783564529
 21
268.6327140625313
 31
0.0
  0
LINE
  5
288
330
54
100
AcDbEntity
  8
0
  6
Continuous
 62
     2
100
AcDbLine
 10
149.8285671395624
 20
273.7974791844395
 30
0.0
 11
149.4373980787623
 21
273.4063101236402
 31
0.0
  0
LINE
  5
289
330
54
100
AcDbEntity
  8
0
  6
Continuous
 62
     2
100
AcDbLine
 10
148.4221800431424
 20
272.3910920880176
 30
0.0
 11
146.1888558855226
 21
270.1577679304046
 31
0.0
  0
LINE
  5
28A
330
54
100
AcDbEntity
  8
0
  6
Continuous
 62
     2
100
AcDbLine
 10
149.6656225082334
 20
273.9173772655845
 30
0.0
 11
146.0689578043821
 21
270.3207125617323
 31
0.0
  0
LINE
  5
28B
330
54
100
AcDbEntity
  8
0
  6
Continuous
 62
     2
100
AcDbLine
 10
149.4911234538722
 20
274.0257209237002
 30
0.0
 11
145.9606141462627
 21
270.4952116160903
 31
0.0
  0
LINE
  5
28C
330
54
100
AcDbEntity
  8
0
  6
Continuous
 62
     2
100
AcDbLine
 10
149.3044034716331
 20
274.1218436539375
 30
0.0
 11
145.8644914160323
 21
270.6819315983294
 31
0.0
  0
LINE
  5
28D
330
54
100
AcDbEntity
  8
0
  6
Continuous
 62
     2
100
AcDbLine
 10
149.104463261363
 20
274.2047461561374
 30
0.0
 11
145.7815889138328
 21
270.8818718086022
 31
0.0
  0
LINE
  5
28E
330
54
100
AcDbEntity
  8
0
  6
Continuous
 62
     2
100
AcDbLine
 10
148.8898421906724
 20
274.2729677979232
 30
0.0
 11
145.7133672720429
 21
271.0964928792923
 31
0.0
  0
LINE
  5
28F
330
54
100
AcDbEntity
  8
0
  6
Continuous
 62
     2
100
AcDbLine
 10
148.658389960332
 20
274.3243582800574
 30
0.0
 11
145.6619767899028
 21
271.3279451096314
 31
0.0
  0
LINE
  5
290
330
54
100
AcDbEntity
  8
0
  6
Continuous
 62
     2
100
AcDbLine
 10
148.4068354019528
 20
274.3556464341473
 30
0.0
 11
145.6306886358234
 21
271.5794996680174
 31
0.0
  0
LINE
  5
291
330
54
100
AcDbEntity
  8
0
  6
Continuous
 62
     2
100
AcDbLine
 10
148.1298870536321
 20
274.3615407983034
 30
0.0
 11
145.6247942716636
 21
271.8564480163363
 31
0.0
  0
LINE
  5
292
330
54
100
AcDbEntity
  8
0
  6
Continuous
 62
     2
100
AcDbLine
 10
147.8180455496731
 20
274.3325420068236
 30
0.0
 11
145.6537930631421
 21
272.1682895202903
 31
0.0
  0
LINE
  5
293
330
54
100
AcDbEntity
  8
0
  6
Continuous
 62
     2
100
AcDbLine
 10
147.4507233592522
 20
274.2480625288795
 30
0.0
 11
145.7382725410826
 21
272.5356117107094
 31
0.0
  0
LINE
  5
294
330
54
100
AcDbEntity
  8
0
  6
Continuous
 62
     2
100
AcDbLine
 10
146.9582960472035
 20
274.0384779293013
 30
0.0
 11
145.9478571406635
 21
273.0280390227613
 31
0.0
  0
LINE
  5
295
330
54
100
AcDbEntity
  8
0
  6
Continuous
 62
     2
100
AcDbLine
 10
149.980365028483
 20
273.6664343608804
 30
0.0
 11
149.9717086716628
 21
273.6577780040693
 31
0.0
  0
LINE
  5
296
330
54
100
AcDbEntity
  8
0
  6
Continuous
 62
     2
100
AcDbLine
 10
148.1707121627132
 20
271.8567814951125
 30
0.0
 11
146.3199007090825
 21
270.0059700414863
 31
0.0
  0
LINE
  5
297
330
54
100
AcDbEntity
  8
0
  6
Continuous
 62
     2
100
AcDbLine
 10
148.061924470212
 20
271.4651510901426
 30
0.0
 11
146.4619026151231
 21
269.8651292350514
 31
0.0
  0
LINE
  5
298
330
54
100
AcDbEntity
  8
0
  6
Continuous
 62
     2
100
AcDbLine
 10
148.0133975105728
 20
271.1337814180206
 30
0.0
 11
146.6148720999336
 21
269.7352560073873
 31
0.0
  0
LINE
  5
299
330
54
100
AcDbEntity
  8
0
  6
Continuous
 62
     2
100
AcDbLine
 10
148.001959276613
 20
270.8395004715953
 30
0.0
 11
146.7790207863836
 21
269.6165619813564
 31
0.0
  0
LINE
  5
29A
330
54
100
AcDbEntity
  8
0
  6
Continuous
 62
     2
100
AcDbLine
 10
148.017075521333
 20
270.5717740038335
 30
0.0
 11
146.954781445962
 21
269.5094799284666
 31
0.0
  0
LINE
  5
29B
330
54
100
AcDbEntity
  8
0
  6
Continuous
 62
     2
100
AcDbLine
 10
148.0529047656328
 20
270.3247605356646
 30
0.0
 11
147.1428517025033
 21
269.4147074725365
 31
0.0
  0
LINE
  5
29C
330
54
100
AcDbEntity
  8
0
  6
Continuous
 62
     2
100
AcDbLine
 10
148.1058261382023
 20
270.0948391957586
 30
0.0
 11
147.3442725120531
 21
269.3332855696012
 31
0.0
  0
LINE
  5
29D
330
54
100
AcDbEntity
  8
0
  6
Continuous
 62
     2
100
AcDbLine
 10
148.1734341771335
 20
269.8796045222102
 30
0.0
 11
147.5605645420928
 21
269.2667348871723
 31
0.0
  0
LINE
  5
29E
330
54
100
AcDbEntity
  8
0
  6
Continuous
 62
     2
100
AcDbLine
 10
148.2540590996232
 20
269.6773867322295
 30
0.0
 11
147.7939716013734
 21
269.2172992339833
 31
0.0
  0
LINE
  5
29F
330
54
100
AcDbEntity
  8
0
  6
Continuous
 62
     2
100
AcDbLine
 10
148.3465119904431
 20
269.4869969105753
 30
0.0
 11
148.0479243275731
 21
269.1884092476994
 31
0.0
  0
LINE
  5
2A0
330
54
100
AcDbEntity
  8
0
  6
Continuous
 62
     2
100
AcDbLine
 10
148.4499390202036
 20
269.3075812278544
 30
0.0
 11
148.3280202968326
 21
269.1856625044875
 31
0.0
  0
LINE
  5
2A1
330
54
100
AcDbEntity
  8
0
  6
Continuous
 62
     7
100
AcDbLine
 10
196.4622350164827
 20
299.6115417474643
 30
0.0
 11
196.2122350164827
 21
299.6115417474643
 31
0.0
  0
LINE
  5
2A2
330
54
100
AcDbEntity
  8
1
  6
Continuous
 62
     7
100
AcDbLine
 10
178.2471176033632
 20
268.7155771384923
 30
0.0
 11
179.994317603363
 21
268.7155771384923
 31
0.0
  0
LINE
  5
2A3
330
54
100
AcDbEntity
  8
1
  6
Continuous
 62
     7
100
AcDbLine
 10
178.1015176033634
 20
268.4971771384926
 30
0.0
 11
179.8487176033632
 21
268.4971771384926
 31
0.0
  0
LINE
  5
2A4
330
54
100
AcDbEntity
  8
1
  6
Continuous
 62
     7
100
AcDbLine
 10
168.4565775753235
 20
272.9022391004023
 30
0.0
 11
168.5498638024819
 21
273.4312915845162
 31
0.0
  0
LINE
  5
2A5
330
54
100
AcDbEntity
  8
1
  6
Continuous
 62
     7
100
AcDbLine
 10
168.2071236265019
 20
272.9872989483265
 30
0.0
 11
168.4012262734523
 21
272.5883262684406
 31
0.0
  0
LINE
  5
2A6
330
54
100
AcDbEntity
  8
1
  6
Continuous
 62
     7
100
AcDbLine
 10
168.9186876748736
 20
272.5883262684406
 30
0.0
 11
168.4012262734523
 21
272.5883262684406
 31
0.0
  0
LINE
  5
2A7
330
54
100
AcDbEntity
  8
1
  6
Continuous
 62
     7
100
AcDbLine
 10
165.1952690739636
 20
270.6769264821105
 30
0.0
 11
165.5592690739632
 21
270.6769264821105
 31
0.0
  0
LINE
  5
2A8
330
54
100
AcDbEntity
  8
1
  6
Continuous
 62
     7
100
AcDbLine
 10
165.1952690739636
 20
270.6769264821105
 30
0.0
 11
165.0633252039024
 21
270.3917919104092
 31
0.0
  0
LINE
  5
2A9
330
54
100
AcDbEntity
  8
1
  6
Continuous
 62
     7
100
AcDbLine
 10
165.4601002042527
 20
271.2054779141345
 30
0.0
 11
165.4478138347331
 21
271.2347572264853
 31
0.0
  0
LINE
  5
2AA
330
54
100
AcDbEntity
  8
1
  6
Continuous
 62
     7
100
AcDbLine
 10
167.5495557000431
 20
270.3099417474623
 30
0.0
 11
173.8378350164821
 21
270.3099417474623
 31
0.0
  0
LINE
  5
2AB
330
54
100
AcDbEntity
  8
1
  6
Continuous
 62
     7
100
AcDbLine
 10
181.3359847173833
 20
270.3099417474623
 30
0.0
 11
192.2562350164826
 21
270.3099417474623
 31
0.0
  0
LINE
  5
2AC
330
54
100
AcDbEntity
  8
1
  6
Continuous
 62
     7
100
AcDbLine
 10
193.6352153913122
 20
273.5422617474624
 30
0.0
 11
191.305615391313
 21
273.5422617474624
 31
0.0
  0
LINE
  5
2AD
330
54
100
AcDbEntity
  8
1
  6
Continuous
 62
     7
100
AcDbLine
 10
184.6267535370134
 20
275.1430440413574
 30
0.0
 11
183.0792153913135
 21
275.1430440413574
 31
0.0
  0
LINE
  5
2AE
330
54
100
AcDbEntity
  8
1
  6
Continuous
 62
     7
100
AcDbLine
 10
179.7522424409126
 20
273.5131417474636
 30
0.0
 11
179.0242424409134
 21
273.5131417474636
 31
0.0
  0
LINE
  5
2AF
330
54
100
AcDbEntity
  8
1
  6
Continuous
 62
     7
100
AcDbLine
 10
173.9793116281926
 20
273.5131417474636
 30
0.0
 11
173.2513116281934
 21
273.5131417474636
 31
0.0
  0
LINE
  5
2B0
330
54
100
AcDbEntity
  8
1
  6
Continuous
 62
     7
100
AcDbLine
 10
169.9928049711834
 20
273.5131417474636
 30
0.0
 11
171.4488049711836
 21
273.5131417474636
 31
0.0
  0
LINE
  5
2B1
330
54
100
AcDbEntity
  8
1
  6
Continuous
 62
     7
100
AcDbLine
 10
176.8462641572824
 20
270.3099417474623
 30
0.0
 11
178.9210641572827
 21
270.3099417474623
 31
0.0
  0
LINE
  5
2B2
330
54
100
AcDbEntity
  8
1
  6
Continuous
 62
     7
100
AcDbLine
 10
174.973659028863
 20
270.3099417474623
 30
0.0
 11
175.7016590288622
 21
270.3099417474623
 31
0.0
  0
LINE
  5
2B3
330
54
100
AcDbEntity
  8
1
  6
Continuous
 62
     7
100
AcDbLine
 10
193.673725203902
 20
273.7606617474635
 30
0.0
 11
192.800125203903
 21
273.7606617474635
 31
0.0
  0
LINE
  5
2B4
330
54
100
AcDbEntity
  8
1
  6
Continuous
 62
     7
100
AcDbLine
 10
184.6652633496033
 20
275.3614440413576
 30
0.0
 11
183.1177252039033
 21
275.3614440413576
 31
0.0
  0
LINE
  5
2B5
330
54
100
AcDbEntity
  8
1
  6
Continuous
 62
     7
100
AcDbLine
 10
179.7907522535024
 20
273.7315417474633
 30
0.0
 11
179.0627522535033
 21
273.7315417474633
 31
0.0
  0
LINE
  5
2B6
330
54
100
AcDbEntity
  8
1
  6
Continuous
 62
     7
100
AcDbLine
 10
174.0178214407824
 20
273.7315417474633
 30
0.0
 11
173.2898214407833
 21
273.7315417474633
 31
0.0
  0
LINE
  5
2B7
330
54
100
AcDbEntity
  8
1
  6
Continuous
 62
     7
100
AcDbLine
 10
170.0313147837733
 20
273.7315417474633
 30
0.0
 11
171.4873147837734
 21
273.7315417474633
 31
0.0
  0
LINE
  5
2B8
330
54
100
AcDbEntity
  8
1
  6
Continuous
 62
     7
100
AcDbLine
 10
169.0673252039032
 20
273.4312915845162
 30
0.0
 11
168.5498638024819
 21
273.4312915845162
 31
0.0
  0
LINE
  5
2B9
330
54
100
AcDbEntity
  8
1
  6
Continuous
 62
     7
100
AcDbLine
 10
168.9186876748736
 20
272.5883262684406
 30
0.0
 11
169.0673252039032
 21
273.4312915845162
 31
0.0
  0
LINE
  5
2BA
330
54
100
AcDbEntity
  8
1
  6
Continuous
 62
     7
100
AcDbLine
 10
164.6993252039028
 20
270.3917919104092
 30
0.0
 11
165.0633252039024
 21
270.3917919104092
 31
0.0
  0
LINE
  5
2BB
330
54
100
AcDbEntity
  8
1
  6
Continuous
 62
     7
100
AcDbLine
 10
164.8479627329234
 20
271.2347572264853
 30
0.0
 11
165.4478138347331
 21
271.2347572264853
 31
0.0
  0
LINE
  5
2BC
330
54
100
AcDbEntity
  8
1
  6
Continuous
 62
     7
100
AcDbLine
 10
164.8479627329234
 20
271.2347572264853
 30
0.0
 11
164.6993252039028
 21
270.3917919104092
 31
0.0
  0
LINE
  5
2BD
330
54
100
AcDbEntity
  8
1
  6
Continuous
 62
     7
100
AcDbLine
 10
180.5697252039026
 20
270.0915417474635
 30
0.0
 11
192.2177252039037
 21
270.0915417474635
 31
0.0
  0
LINE
  5
2BE
330
54
100
AcDbEntity
  8
1
  6
Continuous
 62
     7
100
AcDbLine
 10
176.8077543447034
 20
270.0915417474635
 30
0.0
 11
178.8825543447019
 21
270.0915417474635
 31
0.0
  0
LINE
  5
2BF
330
54
100
AcDbEntity
  8
1
  6
Continuous
 62
     7
100
AcDbLine
 10
174.9351492162732
 20
270.0915417474635
 30
0.0
 11
175.6631492162724
 21
270.0915417474635
 31
0.0
  0
LINE
  5
2C0
330
54
100
AcDbEntity
  8
1
  6
Continuous
 62
     7
100
AcDbLine
 10
166.7377252039023
 20
270.0915417474635
 30
0.0
 11
173.7993252039032
 21
270.0915417474635
 31
0.0
  0
LINE
  5
2C1
330
54
100
AcDbEntity
  8
0
  6
Continuous
 62
     7
100
AcDbLine
 10
121.6622350164835
 20
239.2115417474615
 30
0.0
 11
121.9122350164835
 21
239.2115417474615
 31
0.0
  0
LINE
  5
2C2
330
54
100
AcDbEntity
  8
0
  6
Continuous
 62
     7
100
AcDbLine
 10
121.9122350164835
 20
234.9115417474613
 30
0.0
 11
121.6622350164835
 21
234.9115417474613
 31
0.0
  0
LINE
  5
2C3
330
54
100
AcDbEntity
  8
0
  6
Continuous
 62
     7
100
AcDbLine
 10
121.6622350164835
 20
299.6115417474643
 30
0.0
 11
121.9122350164835
 21
299.6115417474643
 31
0.0
  0
LINE
  5
2C4
330
54
100
AcDbEntity
  8
0
  6
Continuous
 62
     7
100
AcDbLine
 10
121.9122350164835
 20
303.9115417474645
 30
0.0
 11
121.6622350164835
 21
303.9115417474645
 31
0.0
  0
ARC
  5
2C5
330
54
100
AcDbEntity
  8
1
  6
Continuous
 62
     7
100
AcDbCircle
 10
159.0622350164831
 20
245.2115417474633
 30
0.0
 40
11.7999999999993
100
AcDbArc
 50
0.0
 51
-145.4184488010089
  0
ARC
  5
2C6
330
54
100
AcDbEntity
  8
1
  6
Continuous
 62
     7
100
AcDbCircle
 10
159.0622350164831
 20
245.2115417474633
 30
0.0
 40
11.80000000000033
100
AcDbArc
 50
-34.58155119899113
 51
0.0
  0
ARC
  5
2C7
330
54
100
AcDbEntity
  8
0
  6
Continuous
 62
     7
100
AcDbCircle
 10
125.9122350164835
 20
310.6615417474623
 30
0.0
 40
4.0
100
AcDbArc
 50
90.0
 51
180.0
  0
ARC
  5
2C8
330
54
100
AcDbEntity
  8
0
  6
Continuous
 62
     7
100
AcDbCircle
 10
192.2122350164827
 20
310.6615417474623
 30
0.0
 40
4.0
100
AcDbArc
 50
0.0
 51
90.0
  0
ARC
  5
2C9
330
54
100
AcDbEntity
  8
0
  6
Continuous
 62
     7
100
AcDbCircle
 10
125.9122350164835
 20
213.1615417474623
 30
0.0
 40
4.000000000000005
100
AcDbArc
 50
-179.9999969295363
 51
-90.00000153524489
  0
ARC
  5
2CA
330
54
100
AcDbEntity
  8
0
  6
Continuous
 62
     7
100
AcDbCircle
 10
192.2122350164827
 20
213.1615417474623
 30
0.0
 40
4.000000000000001
100
AcDbArc
 50
-90.00000153524489
 51
0.0
  0
ARC
  5
2CB
330
54
100
AcDbEntity
  8
0
  6
Continuous
 62
     7
100
AcDbCircle
 10
126.8349862165433
 20
291.1205587418385
 30
0.0
 40
0.5000000000000007
100
AcDbArc
 50
-179.999996929621
 51
-63.4349499043857
  0
ARC
  5
2CC
330
54
100
AcDbEntity
  8
0
  6
Continuous
 62
     7
100
AcDbCircle
 10
126.8349862165433
 20
294.5025247530884
 30
0.0
 40
0.5000000000027289
100
AcDbArc
 50
63.4349499043857
 51
-179.9999969295232
  0
ARC
  5
2CD
330
54
100
AcDbEntity
  8
0
  6
Continuous
 62
     7
100
AcDbCircle
 10
130.2169522277927
 20
292.8115417474633
 30
0.0
 40
0.5000000000027289
100
AcDbArc
 50
-63.4349499043857
 51
63.4349499043857
  0
ARC
  5
2CE
330
54
100
AcDbEntity
  8
0
  6
Continuous
 62
     7
100
AcDbCircle
 10
159.0622350164831
 20
221.1665417474633
 30
0.0
 40
45.00000000000382
100
AcDbArc
 50
57.53112152221133
 51
90.00000153523392
  0
ARC
  5
2CF
330
54
100
AcDbEntity
  8
0
  6
Continuous
 62
     7
100
AcDbCircle
 10
174.3622350164824
 20
245.2115417474633
 30
0.0
 40
16.50000000000686
100
AcDbArc
 50
-9.20708193010079
 51
57.53112152220909
  0
ARC
  5
2D0
330
54
100
AcDbEntity
  8
0
  6
Continuous
 62
     7
100
AcDbCircle
 10
159.0622350164831
 20
247.6915417474634
 30
0.0
 40
32.00000000000001
100
AcDbArc
 50
-90.00000153522214
 51
-9.20708193010477
  0
ARC
  5
2D1
330
54
100
AcDbEntity
  8
0
  6
Continuous
 62
     7
100
AcDbCircle
 10
159.0622350164831
 20
247.6915417474634
 30
0.0
 40
31.99999999999789
100
AcDbArc
 50
-170.7929211403614
 51
-90.00000153522214
  0
ARC
  5
2D2
330
54
100
AcDbEntity
  8
0
  6
Continuous
 62
     7
100
AcDbCircle
 10
143.762235016482
 20
245.2115417474633
 30
0.0
 40
16.50000000000114
100
AcDbArc
 50
122.4688815482535
 51
-170.7929211403626
  0
ARC
  5
2D3
330
54
100
AcDbEntity
  8
0
  6
Continuous
 62
     7
100
AcDbCircle
 10
159.0622350164831
 20
221.1665417474633
 30
0.0
 40
45.00000000000004
100
AcDbArc
 50
90.00000153523392
 51
122.4688815482516
  0
ARC
  5
2D4
330
54
100
AcDbEntity
  8
0
  6
Continuous
 62
     7
100
AcDbCircle
 10
139.4895998440534
 20
285.5326902095512
 30
0.0
 40
0.1564980011691448
100
AcDbArc
 50
-59.30098886075287
 51
88.24157755720654
  0
ARC
  5
2D5
330
54
100
AcDbEntity
  8
0
  6
Continuous
 62
     7
100
AcDbCircle
 10
139.1960655793628
 20
275.9712907383632
 30
0.0
 40
9.722402151440715
100
AcDbArc
 50
88.24157755430203
 51
120.6990142100415
  0
ARC
  5
2D6
330
54
100
AcDbEntity
  8
0
  6
Continuous
 62
     7
100
AcDbCircle
 10
134.3124027762933
 20
284.1966393533576
 30
0.0
 40
0.1564980011693487
100
AcDbArc
 50
120.6990142100671
 51
-91.75842551628853
  0
ARC
  5
2D7
330
54
100
AcDbEntity
  8
0
  6
Continuous
 62
     7
100
AcDbCircle
 10
134.605937040993
 20
293.7580388245442
 30
0.0
 40
9.722402151440505
100
AcDbArc
 50
-91.75842551625574
 51
-59.30098886044526
  0
ARC
  5
2D8
330
54
100
AcDbEntity
  8
0
  6
Continuous
 62
     7
100
AcDbCircle
 10
140.1005383316624
 20
283.0294267631994
 30
0.0
 40
0.6042898518268842
100
AcDbArc
 50
-35.19710931720653
 51
90.0432693599177
  0
ARC
  5
2D9
330
54
100
AcDbEntity
  8
0
  6
Continuous
 62
     7
100
AcDbCircle
 10
140.1043303194019
 20
278.0080313881595
 30
0.0
 40
5.62568665865494
100
AcDbArc
 50
90.04326936009404
 51
144.8028937531708
  0
ARC
  5
2DA
330
54
100
AcDbEntity
  8
0
  6
Continuous
 62
     7
100
AcDbCircle
 10
136.0009754781931
 20
280.9023197184433
 30
0.0
 40
0.6042898518231802
100
AcDbArc
 50
144.8028937529681
 51
-89.95673371017615
  0
ARC
  5
2DB
330
54
100
AcDbEntity
  8
0
  6
Continuous
 62
     7
100
AcDbCircle
 10
135.9971834904627
 20
285.9237150934823
 30
0.0
 40
5.625686658654305
100
AcDbArc
 50
-89.95673371037499
 51
-35.19710931734871
  0
ARC
  5
2DC
330
54
100
AcDbEntity
  8
0
  6
Continuous
 62
     7
100
AcDbCircle
 10
138.6805386736723
 20
277.4042121830544
 30
0.0
 40
1.13307846908974
100
AcDbArc
 50
160.7481639321421
 51
-87.12091508992165
  0
ARC
  5
2DD
330
54
100
AcDbEntity
  8
0
  6
Continuous
 62
     7
100
AcDbCircle
 10
138.5180710047534
 20
280.6347076441894
 30
0.0
 40
4.367656751933434
100
AcDbArc
 50
-87.12091508987645
 51
-19.25183913831196
  0
ARC
  5
2DE
330
54
100
AcDbEntity
  8
0
  6
Continuous
 62
     7
100
AcDbCircle
 10
141.5717666210021
 20
279.5681994392844
 30
0.0
 40
1.133078469092586
100
AcDbArc
 50
-19.2518391382425
 51
92.87908798018707
  0
ARC
  5
2DF
330
54
100
AcDbEntity
  8
0
  6
Continuous
 62
     7
100
AcDbCircle
 10
141.7342342899228
 20
276.3377039781503
 30
0.0
 40
4.367656751933988
100
AcDbArc
 50
92.87908798050844
 51
160.7481639321354
  0
ARC
  5
2E0
330
54
100
AcDbEntity
  8
0
  6
Continuous
 62
     7
100
AcDbCircle
 10
144.3552747337726
 20
275.4009989481015
 30
0.0
 40
1.569099495367325
100
AcDbArc
 50
-7.60341252393292
 51
95.19998206620745
  0
ARC
  5
2E1
330
54
100
AcDbEntity
  8
0
  6
Continuous
 62
     7
100
AcDbCircle
 10
144.5198096048425
 20
273.5930582444785
 30
0.0
 40
3.384511655622849
100
AcDbArc
 50
95.19998206630076
 51
172.3965905465135
  0
ARC
  5
2E2
330
54
100
AcDbEntity
  8
0
  6
Continuous
 62
     7
100
AcDbCircle
 10
142.7203591625821
 20
273.8332652748463
 30
0.0
 40
1.569099495369752
100
AcDbArc
 50
172.3965905465638
 51
-84.80002100416412
  0
ARC
  5
2E3
330
54
100
AcDbEntity
  8
0
  6
Continuous
 62
     7
100
AcDbCircle
 10
142.5558242915031
 20
275.6412059784684
 30
0.0
 40
3.384511655622171
100
AcDbArc
 50
-84.80002100417514
 51
-7.60341252395758
  0
ARC
  5
2E4
330
54
100
AcDbEntity
  8
0
  6
Continuous
 62
     7
100
AcDbCircle
 10
148.2133314396233
 20
271.7730036303396
 30
0.0
 40
2.589881780216181
100
AcDbArc
 50
46.84532444170699
 51
-83.21068618580253
  0
ARC
  5
2E5
330
54
100
AcDbEntity
  8
0
  6
Continuous
 62
     7
100
AcDbCircle
 10
150.9564638383636
 20
270.8720263284154
 30
0.0
 40
2.954683593338256
100
AcDbArc
 50
109.2006885375431
 51
-145.5660502815018
  0
ARC
  5
2E6
330
54
100
AcDbEntity
  8
1
  6
Continuous
 62
     7
100
AcDbCircle
 10
166.1816115876136
 20
271.3024589621955
 30
0.0
 40
0.7280000000016003
100
AcDbArc
 50
-172.3445434334888
 51
-138.4099910161805
  0
ARC
  5
2E7
330
54
100
AcDbEntity
  8
1
  6
Continuous
 62
     7
100
AcDbCircle
 10
192.2562350164826
 20
272.9077922595302
 30
0.0
 40
2.597850512067907
100
AcDbArc
 50
-90.0
 51
-55.91215248063894
  0
ARC
  5
2E8
330
54
100
AcDbEntity
  8
1
  6
Continuous
 62
     7
100
AcDbCircle
 10
192.2177252039037
 20
272.6893922595305
 30
0.0
 40
2.597850512066998
100
AcDbArc
 50
-90.0
 51
-55.91215248067849
  0
CIRCLE
  5
2E9
330
54
100
AcDbEntity
  8
0
  6
Continuous
 62
     7
100
AcDbCircle
 10
151.0860504714819
 20
270.8006987272506
 30
0.0
 40
2.490692091920295
  0
CIRCLE
  5
2EA
330
54
100
AcDbEntity
  8
0
  6
Continuous
 62
     7
100
AcDbCircle
 10
159.0622350164831
 20
292.3115417474623
 30
0.0
 40
17.5
  0
TEXT
  5
2EC
330
54
100
AcDbEntity
  8
0
 62
     7
100
AcDbText
 10
156.3622350164824
 20
267.1199295754173
 30
0.0
 40
5.4
  1
開
 41
0.979
  7
CONVERTER_2
100
AcDbText
  0
TEXT
  5
2ED
330
54
100
AcDbEntity
  8
0
 62
     7
100
AcDbText
 10
133.5733274516733
 20
289.9394260645286
 30
0.0
 40
5.4
  1
閉
 41
0.979
  7
CONVERTER_2
100
AcDbText
  0
MTEXT
  5
2EF
330
54
100
AcDbEntity
  8
1
 62
     7
100
AcDbMText
 10
166.7377252039023
 20
270.0915417474635
 30
0.0
 40
5.0
 41
0.0
 71
     8
 72
     1
  1
s
  7
CONVERTER_3
 73
     1
 44
1.32052821128451
  0
MTEXT
  5
2F0
330
54
100
AcDbEntity
  8
1
 62
     7
100
AcDbMText
 10
175.2553252039033
 20
270.0915417474635
 30
0.0
 40
5.0
 41
0.0
 71
     8
 72
     1
  1
m
  7
CONVERTER_3
 73
     1
 44
1.32052821128451
  0
MTEXT
  5
2F2
330
54
100
AcDbEntity
  8
1
 62
     7
100
AcDbMText
 10
170.887325203903
 20
270.0915417474635
 30
0.0
 40
5.0
 41
0.0
 71
     8
 72
     1
  1
i
  7
CONVERTER_4
 73
     1
 44
1.32052821128451
  0
MTEXT
  5
2F3
330
54
100
AcDbEntity
  8
1
 62
     7
100
AcDbMText
 10
191.6353252039025
 20
270.0915417474635
 30
0.0
 40
5.0
 41
0.0
 71
     8
 72
     1
  1
t
  7
CONVERTER_4
 73
     1
 44
1.32052821128451
  0
MTEXT
  5
2F4
330
54
100
AcDbEntity
  8
1
 62
     7
100
AcDbMText
 10
187.2673252039022
 20
270.0915417474635
 30
0.0
 40
5.0
 41
0.0
 71
     8
 72
     1
  1
e
  7
CONVERTER_4
 73
     1
 44
1.32052821128451
  0
MTEXT
  5
2F5
330
54
100
AcDbEntity
  8
1
 62
     7
100
AcDbMText
 10
183.9913252039023
 20
270.0915417474635
 30
0.0
 40
5.0
 41
0.0
 71
     8
 72
     1
  1
l
  7
CONVERTER_4
 73
     1
 44
1.32052821128451
  0
MTEXT
  5
2F6
330
54
100
AcDbEntity
  8
1
 62
     7
100
AcDbMText
 10
180.7153252039025
 20
270.0915417474635
 30
0.0
 40
5.0
 41
0.0
 71
     8
 72
     1
  1
p
  7
CONVERTER_4
 73
     1
 44
1.32052821128451
  0
MTEXT
  5
2F7
330
54
100
AcDbEntity
  8
1
 62
     7
100
AcDbMText
 10
174.9641252039037
 20
270.0915417474635
 30
0.0
 40
5.0
 41
0.0
 71
     8
 72
     1
  1
m
  7
CONVERTER_3
 73
     1
 44
1.32052821128451
  0
MTEXT
  5
2F8
330
54
100
AcDbEntity
  8
1
 62
     7
100
AcDbMText
 10
170.5961252039033
 20
270.0915417474635
 30
0.0
 40
5.0
 41
0.0
 71
     8
 72
     1
  1
i
  7
CONVERTER_4
 73
     1
 44
1.32052821128451
  0
MTEXT
  5
2F9
330
54
100
AcDbEntity
  8
1
 62
     7
100
AcDbMText
 10
166.4465252039026
 20
270.0915417474635
 30
0.0
 40
5.0
 41
0.0
 71
     8
 72
     1
  1
s
  7
CONVERTER_3
 73
     1
 44
1.32052821128451
  0
MTEXT
  5
2FA
330
54
100
AcDbEntity
  8
1
 62
     7
100
AcDbMText
 10
191.3441252039029
 20
270.0915417474635
 30
0.0
 40
5.0
 41
0.0
 71
     8
 72
     1
  1
t
  7
CONVERTER_4
 73
     1
 44
1.32052821128451
  0
MTEXT
  5
2FB
330
54
100
AcDbEntity
  8
1
 62
     7
100
AcDbMText
 10
186.9761252039025
 20
270.0915417474635
 30
0.0
 40
5.0
 41
0.0
 71
     8
 72
     1
  1
e
  7
CONVERTER_4
 73
     1
 44
1.32052821128451
  0
MTEXT
  5
2FC
330
54
100
AcDbEntity
  8
1
 62
     7
100
AcDbMText
 10
183.7001252039026
 20
270.0915417474635
 30
0.0
 40
5.0
 41
0.0
 71
     8
 72
     1
  1
l
  7
CONVERTER_4
 73
     1
 44
1.32052821128451
  0
MTEXT
  5
2FD
330
54
100
AcDbEntity
  8
1
 62
     7
100
AcDbMText
 10
180.4241252039028
 20
270.0915417474635
 30
0.0
 40
5.0
 41
0.0
 71
     8
 72
     1
  1
p
  7
CONVERTER_4
 73
     1
 44
1.32052821128451
  0
MTEXT
  5
2FE
330
54
100
AcDbEntity
  8
0
 62
     7
100
AcDbMText
 10
181.7859173336419
 20
266.5607991709694
 30
0.0
 40
3.0
 41
0.0
 71
     5
 72
     1
  1
水道用コンセント
  7
CONVERTER_1
 73
     1
 44
0.7202881152461
  0
ENDBLK
  5
56
330
54
100
AcDbEntity
  8
0
100
AcDbBlockEnd
  0
BLOCK
  5
58
330
57
100
AcDbEntity
  8
0
100
AcDbBlockBegin
  2
V972GN-H2
 70
     0
 71
     0
 10
912.1984615885431
 20
224.3780871814583
 30
0.0
  3
V972GN-H2
  1

  0
LINE
  5
2FF
330
57
100
AcDbEntity
  8
0
  6
Continuous
 62
     7
100
AcDbLine
 10
260.8244164388125
 20
248.3396751275413
 30
0.0
 11
258.9200931347732
 21
247.2402135553293
 31
0.0
  0
LINE
  5
300
330
57
100
AcDbEntity
  8
1
  6
Continuous
 62
     7
100
AcDbLine
 10
151.2122350164827
 20
347.0526450957364
 30
0.0
 11
151.2122350164827
 21
354.8249810599846
 31
0.0
  0
LINE
  5
301
330
57
100
AcDbEntity
  8
1
  6
Continuous
 62
     7
100
AcDbLine
 10
166.9122350164835
 20
347.0526450957364
 30
0.0
 11
166.9122350164835
 21
354.3873807327054
 31
0.0
  0
LINE
  5
302
330
57
100
AcDbEntity
  8
0
  6
Continuous
 62
     7
100
AcDbLine
 10
150.7122350164827
 20
237.7430578695025
 30
0.0
 11
150.7122350164827
 21
239.9680578695025
 31
0.0
  0
LINE
  5
303
330
57
100
AcDbEntity
  8
0
  6
Continuous
 62
     7
100
AcDbLine
 10
167.4122350164835
 20
237.7430578695025
 30
0.0
 11
167.4122350164835
 21
239.9680578695025
 31
0.0
  0
LINE
  5
304
330
57
100
AcDbEntity
  8
0
  6
Continuous
 62
     7
100
AcDbLine
 10
151.262235016482
 20
229.2180578695025
 30
0.0
 11
151.262235016482
 21
234.4680578695025
 31
0.0
  0
LINE
  5
305
330
57
100
AcDbEntity
  8
0
  6
Continuous
 62
     7
100
AcDbLine
 10
166.8622350164824
 20
229.2180578695025
 30
0.0
 11
166.8622350164824
 21
234.4680578695025
 31
0.0
  0
LINE
  5
306
330
57
100
AcDbEntity
  8
0
  6
Continuous
 62
     7
100
AcDbLine
 10
253.7859246402531
 20
244.2759999929563
 30
0.0
 11
255.9032640161222
 21
243.7086606170906
 31
0.0
  0
LINE
  5
307
330
57
100
AcDbEntity
  8
0
  6
Continuous
 62
     7
100
AcDbLine
 10
262.1859246402528
 20
229.7267732093774
 30
0.0
 11
262.7532640161226
 21
231.8441125852432
 31
0.0
  0
LINE
  5
308
330
57
100
AcDbEntity
  8
0
  6
Continuous
 62
     7
100
AcDbLine
 10
261.3632005066629
 20
229.2517732093784
 30
0.0
 11
262.1859246402528
 21
229.7267732093774
 31
0.0
  0
LINE
  5
309
330
57
100
AcDbEntity
  8
0
  6
Continuous
 62
     7
100
AcDbLine
 10
253.7859246402531
 20
244.2759999929563
 30
0.0
 11
252.9632005066633
 21
243.8009999929564
 31
0.0
  0
LINE
  5
30A
330
57
100
AcDbEntity
  8
0
  6
Continuous
 62
     7
100
AcDbLine
 10
251.8217286861636
 20
224.3780871814593
 30
0.0
 11
260.6551878047721
 21
229.4780871814596
 31
0.0
  0
LINE
  5
30B
330
57
100
AcDbEntity
  8
0
  6
Continuous
 62
     7
100
AcDbLine
 10
243.9717286861633
 20
237.9746860208743
 30
0.0
 11
252.8051878047736
 21
243.0746860208742
 31
0.0
  0
LINE
  5
30C
330
57
100
AcDbEntity
  8
0
  6
Continuous
 62
     7
100
AcDbLine
 10
243.8619210650322
 20
237.5648783997394
 30
0.0
 11
243.9717286861633
 21
237.9746860208743
 31
0.0
  0
LINE
  5
30D
330
57
100
AcDbEntity
  8
0
  6
Continuous
 62
     7
100
AcDbLine
 10
251.4119210650333
 20
224.4878948025944
 30
0.0
 11
251.8217286861636
 21
224.3780871814593
 31
0.0
  0
LINE
  5
30E
330
57
100
AcDbEntity
  8
0
  6
Continuous
 62
     7
100
AcDbLine
 10
252.8051878047736
 20
243.0746860208742
 30
0.0
 11
252.9632005066633
 21
243.8009999929564
 31
0.0
  0
LINE
  5
30F
330
57
100
AcDbEntity
  8
0
  6
Continuous
 62
     7
100
AcDbLine
 10
260.6551878047721
 20
229.4780871814596
 30
0.0
 11
261.3632005066629
 21
229.2517732093784
 31
0.0
  0
LINE
  5
310
330
57
100
AcDbEntity
  8
0
  6
Continuous
 62
     7
100
AcDbLine
 10
243.8619210650322
 20
237.5648783997394
 30
0.0
 11
251.4119210650333
 21
224.4878948025944
 31
0.0
  0
LINE
  5
311
330
57
100
AcDbEntity
  8
0
  6
Continuous
 62
     7
100
AcDbLine
 10
255.9032640161222
 20
243.7086606170906
 30
0.0
 11
257.6353148236922
 21
244.7086606170906
 31
0.0
  0
LINE
  5
312
330
57
100
AcDbEntity
  8
0
  6
Continuous
 62
     7
100
AcDbLine
 10
262.7532640161226
 20
231.8441125852432
 30
0.0
 11
264.4853148236925
 21
232.8441125852432
 31
0.0
  0
LINE
  5
313
330
57
100
AcDbEntity
  8
0
  6
Continuous
 62
     7
100
AcDbLine
 10
265.665852504193
 20
232.5277884671204
 30
0.0
 11
264.4853148236925
 21
232.8441125852432
 31
0.0
  0
LINE
  5
314
330
57
100
AcDbEntity
  8
0
  6
Continuous
 62
     7
100
AcDbLine
 10
257.9882414821932
 20
246.0258008379656
 30
0.0
 11
257.6353148236922
 21
244.7086606170906
 31
0.0
  0
LINE
  5
315
330
57
100
AcDbEntity
  8
0
  6
Continuous
 62
     7
100
AcDbLine
 10
267.6383812992335
 20
252.2737195739546
 30
0.0
 11
262.9894799482736
 21
249.5896751275413
 31
0.0
  0
LINE
  5
316
330
57
100
AcDbEntity
  8
0
  6
Continuous
 62
     7
100
AcDbLine
 10
268.6373970294735
 20
233.5670025837962
 30
0.0
 11
267.1834905943924
 21
232.7275893121296
 31
0.0
  0
LINE
  5
317
330
57
100
AcDbEntity
  8
1
  6
Continuous
 62
     7
100
AcDbLine
 10
252.8051878047736
 20
243.0746860208742
 30
0.0
 11
260.6551878047721
 21
229.4780871814596
 31
0.0
  0
LINE
  5
318
330
57
100
AcDbEntity
  8
1
  6
Continuous
 62
     7
100
AcDbLine
 10
261.3632005066629
 20
229.2517732093784
 30
0.0
 11
252.9632005066633
 21
243.8009999929564
 31
0.0
  0
LINE
  5
319
330
57
100
AcDbEntity
  8
1
  6
Continuous
 62
     7
100
AcDbLine
 10
253.7859246402531
 20
244.2759999929563
 30
0.0
 11
262.1859246402528
 21
229.7267732093774
 31
0.0
  0
LINE
  5
31A
330
57
100
AcDbEntity
  8
1
  6
Continuous
 62
     7
100
AcDbLine
 10
262.7532640161226
 20
231.8441125852432
 30
0.0
 11
255.9032640161222
 21
243.7086606170906
 31
0.0
  0
LINE
  5
31B
330
57
100
AcDbEntity
  8
1
  6
Continuous
 62
     7
100
AcDbLine
 10
257.6353148236922
 20
244.7086606170906
 30
0.0
 11
264.4853148236925
 21
232.8441125852432
 31
0.0
  0
LINE
  5
31C
330
57
100
AcDbEntity
  8
1
  6
Continuous
 62
     7
100
AcDbLine
 10
251.8217286861636
 20
224.3780871814593
 30
0.0
 11
243.9717286861633
 21
237.9746860208743
 31
0.0
  0
ARC
  5
31D
330
57
100
AcDbEntity
  8
0
  6
Continuous
 62
     7
100
AcDbCircle
 10
159.0622350164831
 20
245.2115415331023
 30
0.0
 40
8.000000000000002
100
AcDbArc
 50
0.00000153524123
 51
-179.9999984647683
  0
ARC
  5
31E
330
57
100
AcDbEntity
  8
0
  6
Continuous
 62
     7
100
AcDbCircle
 10
157.1187621639529
 20
239.9680578695025
 30
0.0
 40
7.906527147472145
100
AcDbArc
 50
132.3950538642048
 51
-144.3459133553295
  0
ARC
  5
31F
330
57
100
AcDbEntity
  8
0
  6
Continuous
 62
     7
100
AcDbCircle
 10
159.0622350164831
 20
237.8393143257654
 30
0.0
 40
10.78899758158603
100
AcDbArc
 50
47.6049492062474
 51
132.3950538641717
  0
ARC
  5
320
330
57
100
AcDbEntity
  8
0
  6
Continuous
 62
     7
100
AcDbCircle
 10
161.0057078690134
 20
239.9680578695025
 30
0.0
 40
7.906527147473649
100
AcDbArc
 50
-35.65408971511286
 51
47.6049492062465
  0
ARC
  5
321
330
57
100
AcDbEntity
  8
0
  6
Continuous
 62
     7
100
AcDbCircle
 10
157.2439250992829
 20
239.9680578695025
 30
0.0
 40
6.531690082796644
100
AcDbArc
 50
132.0899601424109
 51
-179.9999969295276
  0
ARC
  5
322
330
57
100
AcDbEntity
  8
0
  6
Continuous
 62
     7
100
AcDbCircle
 10
159.0622350164831
 20
237.9549852377072
 30
0.0
 40
9.244384753397581
100
AcDbArc
 50
47.91004292798456
 51
132.0899601424557
  0
ARC
  5
323
330
57
100
AcDbEntity
  8
0
  6
Continuous
 62
     7
100
AcDbCircle
 10
160.8805449336833
 20
239.9680578695025
 30
0.0
 40
6.531690082800196
100
AcDbArc
 50
0.0
 51
47.91004292802659
  0
ARC
  5
324
330
57
100
AcDbEntity
  8
0
  6
Continuous
 62
     7
100
AcDbCircle
 10
157.2439250992829
 20
237.7430578695025
 30
0.0
 40
6.531690082796708
100
AcDbArc
 50
132.0899601424104
 51
-168.7365177592903
  0
ARC
  5
325
330
57
100
AcDbEntity
  8
0
  6
Continuous
 62
     7
100
AcDbCircle
 10
159.0622350164831
 20
235.7299852377073
 30
0.0
 40
9.244384753397602
100
AcDbArc
 50
47.91004292798468
 51
132.0899601424574
  0
ARC
  5
326
330
57
100
AcDbEntity
  8
0
  6
Continuous
 62
     7
100
AcDbCircle
 10
160.8805449336833
 20
237.7430578695025
 30
0.0
 40
6.531690082797955
100
AcDbArc
 50
-11.26348531118168
 51
47.9100429280271
  0
ARC
  5
327
330
57
100
AcDbEntity
  8
0
  6
Continuous
 62
     7
100
AcDbCircle
 10
159.0622350164831
 20
235.3286693789382
 30
0.0
 40
7.528361236301855
100
AcDbArc
 50
49.32552560556128
 51
130.6744774648529
  0
ARC
  5
328
330
57
100
AcDbEntity
  8
0
  6
Continuous
 62
     7
100
AcDbCircle
 10
157.2439250992829
 20
235.1930578695024
 30
0.0
 40
6.53169008279597
100
AcDbArc
 50
132.0899601424163
 51
-175.8412234822796
  0
ARC
  5
329
330
57
100
AcDbEntity
  8
0
  6
Continuous
 62
     7
100
AcDbCircle
 10
160.8805449336833
 20
235.1930578695024
 30
0.0
 40
6.531690082804507
100
AcDbArc
 50
-4.15877958819231
 51
47.91004292802643
  0
ARC
  5
32A
330
57
100
AcDbEntity
  8
0
  6
Continuous
 62
     7
100
AcDbCircle
 10
159.0622350164831
 20
233.1799852377076
 30
0.0
 40
9.244384753397222
100
AcDbArc
 50
47.91004292798255
 51
132.0899601424577
  0
ARC
  5
32B
330
57
100
AcDbEntity
  8
0
  6
Continuous
 62
     7
100
AcDbCircle
 10
160.8805449336833
 20
234.7180578695025
 30
0.0
 40
6.531690082805655
100
AcDbArc
 50
-23.32683921759148
 51
47.91004292802659
  0
ARC
  5
32C
330
57
100
AcDbEntity
  8
0
  6
Continuous
 62
     7
100
AcDbCircle
 10
159.0622350164831
 20
232.7049852377072
 30
0.0
 40
9.244384753397581
100
AcDbArc
 50
47.91004292798456
 51
132.0899601424557
  0
ARC
  5
32D
330
57
100
AcDbEntity
  8
0
  6
Continuous
 62
     7
100
AcDbCircle
 10
157.2439250992829
 20
234.7180578695025
 30
0.0
 40
6.531690082796644
100
AcDbArc
 50
132.0899601424109
 51
-156.6731638528243
  0
ARC
  5
32E
330
57
100
AcDbEntity
  8
0
  6
Continuous
 62
     7
100
AcDbCircle
 10
157.3636940159922
 20
234.4680578695025
 30
0.0
 40
6.101458999508421
100
AcDbArc
 50
132.0899601425199
 51
-179.9999969295293
  0
ARC
  5
32F
330
57
100
AcDbEntity
  8
0
  6
Continuous
 62
     7
100
AcDbCircle
 10
159.0622350164831
 20
232.5875828362086
 30
0.0
 40
8.63547318281293
100
AcDbArc
 50
47.91004292799779
 51
132.0899601424639
  0
ARC
  5
330
330
57
100
AcDbEntity
  8
0
  6
Continuous
 62
     7
100
AcDbCircle
 10
160.7607760169831
 20
234.4680578695025
 30
0.0
 40
6.1014589994993
100
AcDbArc
 50
0.0
 51
47.91004292804588
  0
ARC
  5
331
330
57
100
AcDbEntity
  8
0
  6
Continuous
 62
     7
100
AcDbCircle
 10
159.0622350164831
 20
227.3375828362086
 30
0.0
 40
8.63547318281293
100
AcDbArc
 50
47.91004292799779
 51
132.0899601424639
  0
ARC
  5
332
330
57
100
AcDbEntity
  8
0
  6
Continuous
 62
     7
100
AcDbCircle
 10
157.3636940159922
 20
229.2180578695025
 30
0.0
 40
6.101458999508421
100
AcDbArc
 50
132.0899601425199
 51
-132.0899601425137
  0
ARC
  5
333
330
57
100
AcDbEntity
  8
0
  6
Continuous
 62
     7
100
AcDbCircle
 10
159.0622350164831
 20
227.8905245771643
 30
0.0
 40
6.487083174670853
100
AcDbArc
 50
47.71349158288097
 51
132.286511487519
  0
ARC
  5
334
330
57
100
AcDbEntity
  8
0
  6
Continuous
 62
     7
100
AcDbCircle
 10
159.0622350164831
 20
227.4025544901333
 30
0.0
 40
7.315503379368998
100
AcDbArc
 50
48.378143881437
 51
131.6218591890118
  0
ARC
  5
335
330
57
100
AcDbEntity
  8
0
  6
Continuous
 62
     7
100
AcDbCircle
 10
157.4491167724027
 20
229.2180578695025
 30
0.0
 40
4.886881755920415
100
AcDbArc
 50
131.6218591890485
 51
-131.6218591890477
  0
ARC
  5
336
330
57
100
AcDbEntity
  8
0
  6
Continuous
 62
     7
100
AcDbCircle
 10
157.8548439265433
 20
229.2180578695025
 30
0.0
 40
4.692608910059551
100
AcDbArc
 50
132.2865114875407
 51
-132.2865114875283
  0
ARC
  5
337
330
57
100
AcDbEntity
  8
0
  6
Continuous
 62
     7
100
AcDbCircle
 10
159.0622350164831
 20
231.0985329027953
 30
0.0
 40
8.6354731828116
100
AcDbArc
 50
-132.0899601424681
 51
-103.4402493835994
  0
ARC
  5
338
330
57
100
AcDbEntity
  8
0
  6
Continuous
 62
     7
100
AcDbCircle
 10
159.0622350164831
 20
231.0985329027953
 30
0.0
 40
8.635473182811218
100
AcDbArc
 50
-76.55975368687328
 51
-47.91004292799337
  0
ARC
  5
339
330
57
100
AcDbEntity
  8
0
  6
Continuous
 62
     7
100
AcDbCircle
 10
160.7607760169831
 20
229.2180578695025
 30
0.0
 40
6.101458999500057
100
AcDbArc
 50
-47.91004292805214
 51
47.91004292804588
  0
ARC
  5
33A
330
57
100
AcDbEntity
  8
0
  6
Continuous
 62
     7
100
AcDbCircle
 10
159.0622350164831
 20
230.5455911618396
 30
0.0
 40
6.487083174665623
100
AcDbArc
 50
-64.91771986347416
 51
-47.71349158288046
  0
ARC
  5
33B
330
57
100
AcDbEntity
  8
0
  6
Continuous
 62
     7
100
AcDbCircle
 10
160.6753532605635
 20
229.2180578695025
 30
0.0
 40
4.886881755920206
100
AcDbArc
 50
-48.37814388142079
 51
48.37814388142013
  0
ARC
  5
33C
330
57
100
AcDbEntity
  8
0
  6
Continuous
 62
     7
100
AcDbCircle
 10
160.269626106423
 20
229.2180578695025
 30
0.0
 40
4.69260891005898
100
AcDbArc
 50
-47.71349158294928
 51
47.71349158294834
  0
ARC
  5
33D
330
57
100
AcDbEntity
  8
0
  6
Continuous
 62
     7
100
AcDbCircle
 10
159.0622350164831
 20
231.0335612488702
 30
0.0
 40
7.31550337936807
100
AcDbArc
 50
-67.91918627804544
 51
-48.37814388142975
  0
ARC
  5
33E
330
57
100
AcDbEntity
  8
0
  6
Continuous
 62
     7
100
AcDbCircle
 10
259.9200931347732
 20
245.5081627477603
 30
0.0
 40
2.00000000000009
100
AcDbArc
 50
119.9999999999985
 51
165.0000000000073
  0
ARC
  5
33F
330
57
100
AcDbEntity
  8
0
  6
Continuous
 62
     7
100
AcDbCircle
 10
266.1834905943924
 20
234.4596401196986
 30
0.0
 40
1.999999999998617
100
AcDbArc
 50
-104.9999999998432
 51
-60.0000000000019
  0
ARC
  5
340
330
57
100
AcDbEntity
  8
0
  6
Continuous
 62
     7
100
AcDbCircle
 10
271.1383812992335
 20
246.2115417474633
 30
0.0
 40
6.999999999998107
100
AcDbArc
 50
110.933457866807
 51
119.999999999999
  0
ARC
  5
341
330
57
100
AcDbEntity
  8
0
  6
Continuous
 62
     7
100
AcDbCircle
 10
159.0622350164831
 20
230.5455911618396
 30
0.0
 40
6.487083174663002
100
AcDbArc
 50
-132.2865114875195
 51
-115.0822801365258
  0
ARC
  5
342
330
57
100
AcDbEntity
  8
0
  6
Continuous
 62
     7
100
AcDbCircle
 10
159.0622350164831
 20
231.0335612488702
 30
0.0
 40
7.315503379366465
100
AcDbArc
 50
-131.6218591890118
 51
-112.0808137219546
  0
SPLINE
  5
343
330
57
100
AcDbEntity
  8
1
  6
Continuous
 62
     7
100
AcDbSpline
210
0.0
220
0.0
230
1.0
 70
     8
 71
     3
 72
    31
 73
    27
 74
    25
 42
0.0000000001
 43
0.0000000001
 44
0.00000001
 40
0.0
 40
0.0
 40
0.0
 40
0.0
 40
0.1361405060349072
 40
0.2722590438275749
 40
0.8132017872405866
 40
1.354781737394354
 40
1.948948841227456
 40
2.54285470570063
 40
3.179704000961848
 40
3.81666904692779
 40
4.483624821519625
 40
5.150550115998059
 40
5.832927813109354
 40
6.515321774567111
 40
7.197715851506107
 40
7.880093446699966
 40
8.547018250623284
 40
9.213974471930101
 40
9.850940964680811
 40
10.48778898759325
 40
11.08169118157318
 40
11.67586127341243
 40
12.21744853717638
 40
12.75838696247459
 40
12.90317020802292
 40
13.04798029954465
 40
13.04798029954465
 40
13.04798029954465
 40
13.04798029954465
 10
165.306346243533
 20
353.5077910513573
 30
0.0
 10
165.2680882744253
 20
353.4833840071585
 30
0.0
 10
165.1915785096872
 20
353.4345738571911
 30
0.0
 10
164.9613528237109
 20
353.2914686412315
 30
0.0
 10
164.6039288630091
 20
353.0972439197035
 30
0.0
 10
164.0940753454127
 20
352.8674824377356
 30
0.0
 10
163.5550666442188
 20
352.6618825979297
 30
0.0
 10
162.9750098022527
 20
352.4776740926851
 30
0.0
 10
162.3720661626589
 20
352.321376591401
 30
0.0
 10
161.7381675061328
 20
352.1909898111027
 30
0.0
 10
161.088934827693
 20
352.0890232602841
 30
0.0
 10
160.4206776513449
 20
352.0153206593804
 30
0.0
 10
159.7446788060156
 20
351.9709351529472
 30
0.0
 10
159.0622349798597
 20
351.956188787431
 30
0.0
 10
158.3797911764384
 20
351.9709347474765
 30
0.0
 10
157.7037924834587
 20
352.0153204291
 30
0.0
 10
157.0355355095913
 20
352.0890244922952
 30
0.0
 10
156.3863023857472
 20
352.1909907364088
 30
0.0
 10
155.7524024705071
 20
352.3213722514852
 30
0.0
 10
155.1494599910907
 20
352.4776708025109
 30
0.0
 10
154.56940941139
 20
352.6618973595821
 30
0.0
 10
154.0303981246842
 20
352.8674931691085
 30
0.0
 10
153.5205165457346
 20
353.0971964476407
 30
0.0
 10
153.160553473982
 20
353.2928156625446
 30
0.0
 10
152.9255711387515
 20
353.4392151658967
 30
0.0
 10
152.8442855517526
 20
353.4912822710521
 30
0.0
 10
152.8036389905719
 20
353.5173182370004
 30
0.0
 11
165.306346243533
 21
353.5077910513573
 31
0.0
 11
165.1914299292285
 21
353.4347946261701
 31
0.0
 11
165.0756838949728
 21
353.3631628463172
 31
0.0
 11
164.6012000933084
 21
353.1033856848705
 31
0.0
 11
164.108117752523
 21
352.8793797750955
 31
0.0
 11
163.5531355836948
 21
352.6671785980012
 31
0.0
 11
162.9872350164824
 21
352.4869545044835
 31
0.0
 11
162.3708939744493
 21
352.3266399861759
 31
0.0
 11
161.7470931415919
 21
352.1978106777524
 31
0.0
 11
161.0882524861317
 21
352.0940850976183
 31
0.0
 11
160.425373211172
 21
352.0207337837646
 31
0.0
 11
159.7444678717307
 21
351.9759315490524
 31
0.0
 11
159.0622350164831
 21
351.9611042143374
 31
0.0
 11
158.380002039128
 21
351.9759312454146
 31
0.0
 11
157.6990968218033
 21
352.0207337837646
 31
0.0
 11
157.0362181381637
 21
352.0940859811713
 31
0.0
 11
156.3773768913834
 21
352.1978106777524
 31
0.0
 11
155.7535739545172
 21
352.3266369516417
 31
0.0
 11
155.137235016482
 21
352.4869545044835
 31
0.0
 11
154.5713415589512
 21
352.6671888262371
 31
0.0
 11
154.0163522804432
 21
352.8793797750955
 31
0.0
 11
153.5232467645162
 21
353.1033523502777
 31
0.0
 11
153.0487861380025
 21
353.3631628463172
 31
0.0
 11
152.9257409667434
 21
353.4394653627982
 31
0.0
 11
152.8036389905719
 21
353.5173182370004
 31
0.0
  0
SPLINE
  5
344
330
57
100
AcDbEntity
  8
1
  6
Continuous
 62
     7
100
AcDbSpline
210
0.0
220
0.0
230
1.0
 70
     8
 71
     3
 72
    43
 73
    39
 74
    37
 42
0.0000000001
 43
0.0000000001
 44
0.00000001
 40
0.0
 40
0.0
 40
0.0
 40
0.0
 40
0.348313010597734
 40
0.6928134390835079
 40
1.067092550001366
 40
1.445054294599439
 40
1.87037654675757
 40
2.294221510422982
 40
2.776573208658185
 40
3.259587487384438
 40
3.80089541131583
 40
4.342019355364661
 40
4.93602313712945
 40
5.530113431970225
 40
6.167023179696184
 40
6.803922581131078
 40
7.470857719586466
 40
8.137804895679931
 40
8.820190772189486
 40
9.502576322662659
 40
10.18496187314038
 40
10.86734774965448
 40
11.53429492574794
 40
12.20123006420334
 40
12.83812946563295
 40
13.4750392133536
 40
14.06912950819512
 40
14.66313328996078
 40
15.20425723401378
 40
15.74556515794922
 40
16.22857943667187
 40
16.71093113490332
 40
17.13477609856827
 40
17.56009835072666
 40
17.93806009532798
 40
18.31233920624793
 40
18.65683963473224
 40
19.00515264532976
 40
19.00515264532976
 40
19.00515264532976
 40
19.00515264532976
 10
151.2122350164827
 20
347.0526450957364
 30
0.0
 10
151.2245082377087
 20
346.9372042279105
 30
0.0
 10
151.2489203393169
 20
346.7075860907296
 30
0.0
 10
151.322210593863
 20
346.3577840890912
 30
0.0
 10
151.472786979073
 20
346.0217117578153
 30
0.0
 10
151.6887798505634
 20
345.6928551339083
 30
0.0
 10
151.9521959348159
 20
345.3786859241963
 30
0.0
 10
152.273703807021
 20
345.0715936744216
 30
0.0
 10
152.6396871767557
 20
344.7866396207265
 30
0.0
 10
153.0621995010339
 20
344.5142008521476
 30
0.0
 10
153.5213572845789
 20
344.2652402692867
 30
0.0
 10
154.0303420377068
 20
344.0336661660869
 30
0.0
 10
154.5691958752703
 20
343.8279828859747
 30
0.0
 10
155.1494514723914
 20
343.6443195032909
 30
0.0
 10
155.7524526974664
 20
343.4880448815884
 30
0.0
 10
156.3863117476259
 20
343.3575020510282
 30
0.0
 10
157.0355239878829
 20
343.2555296739626
 30
0.0
 10
157.7037886674702
 20
343.1818691435529
 30
0.0
 10
158.3797941240485
 20
343.1374828409712
 30
0.0
 10
159.0622350164846
 20
343.1227262242944
 30
0.0
 10
159.7446759089222
 20
343.1374828409711
 30
0.0
 10
160.4206813655036
 20
343.1818691435527
 30
0.0
 10
161.0889460450924
 20
343.2555296739623
 30
0.0
 10
161.7381582853477
 20
343.3575020510276
 30
0.0
 10
162.3720173355035
 20
343.4880448815883
 30
0.0
 10
162.975018560575
 20
343.6443195032917
 30
0.0
 10
163.5552741576947
 20
343.8279828859755
 30
0.0
 10
164.0941279952602
 20
344.0336661660878
 30
0.0
 10
164.6031127483923
 20
344.2652402692855
 30
0.0
 10
165.0622705319396
 20
344.5142008521457
 30
0.0
 10
165.4847828562156
 20
344.7866396207261
 30
0.0
 10
165.8507662259461
 20
345.0715936744224
 30
0.0
 10
166.1722740981484
 20
345.378685924198
 30
0.0
 10
166.4356901824023
 20
345.6928551339097
 30
0.0
 10
166.6516830539
 20
346.0217117578141
 30
0.0
 10
166.8022594391152
 20
346.3577840890895
 30
0.0
 10
166.8755496936572
 20
346.7075860907295
 30
0.0
 10
166.8999617952602
 20
346.9372042279102
 30
0.0
 10
166.9122350164835
 20
347.0526450957364
 30
0.0
 11
151.2122350164827
 21
347.0526450957364
 31
0.0
 11
151.2549115742866
 21
346.706956413877
 31
0.0
 11
151.3314941553435
 21
346.3710759983933
 31
0.0
 11
151.4808717207509
 21
346.0278979166013
 31
0.0
 11
151.6856479433136
 21
345.7102160331824
 31
0.0
 11
151.9582220729678
 21
345.3837158616294
 31
0.0
 11
152.2639355967731
 21
345.0901450957363
 31
0.0
 11
152.6436050370368
 21
344.79263160542
 31
0.0
 11
153.0487861380025
 21
344.5297037277164
 31
0.0
 11
153.5242003579916
 21
344.2708686683773
 31
0.0
 11
154.0163522804432
 21
344.0459206564942
 31
0.0
 11
154.5710489632606
 21
343.8334304618446
 31
0.0
 11
155.137235016482
 21
343.6534953858823
 31
0.0
 11
155.7536607597486
 21
343.4932663941657
 31
0.0
 11
156.3773768913834
 21
343.3643515591516
 31
0.0
 11
157.0361928740913
 21
343.2606019575372
 31
0.0
 11
157.6990968218033
 21
343.1872746651634
 31
0.0
 11
158.3800106807203
 21
343.1424773304829
 31
0.0
 11
159.0622350164831
 21
343.1276450957366
 31
0.0
 11
159.7444593522505
 21
343.1424773304827
 31
0.0
 11
160.425373211172
 21
343.1872746651634
 31
0.0
 11
161.088277158884
 21
343.260601957537
 31
0.0
 11
161.7470931415919
 21
343.3643515591516
 31
0.0
 11
162.3708092732213
 21
343.4932663941657
 31
0.0
 11
162.9872350164824
 21
343.6534953858823
 31
0.0
 11
163.5534210697044
 21
343.8334304618452
 31
0.0
 11
164.108117752523
 21
344.0459206564942
 31
0.0
 11
164.6002696749795
 21
344.2708686683765
 31
0.0
 11
165.0756838949728
 21
344.5297037277164
 31
0.0
 11
165.4808649959343
 21
344.7926316054197
 31
0.0
 11
165.8605344361931
 21
345.0901450957363
 31
0.0
 11
166.1662479599968
 21
345.3837158616304
 31
0.0
 11
166.4388220896526
 21
345.7102160331824
 31
0.0
 11
166.643598312222
 21
346.0278979166009
 31
0.0
 11
166.7929758776336
 21
346.3710759983933
 31
0.0
 11
166.8695584586869
 21
346.7069564138764
 31
0.0
 11
166.9122350164835
 21
347.0526450957364
 31
0.0
  0
SPLINE
  5
345
330
57
100
AcDbEntity
  8
1
  6
Continuous
 62
     7
100
AcDbSpline
210
0.0
220
0.0
230
1.0
 70
     8
 71
     3
 72
    27
 73
    23
 74
    21
 42
0.0000000001
 43
0.0000000001
 44
0.00000001
 40
0.0
 40
0.0
 40
0.0
 40
0.0
 40
0.112249070372695
 40
0.2244927836289348
 40
0.782211591559982
 40
1.340328219153425
 40
1.937594752014462
 40
2.534704113562257
 40
3.159444455294497
 40
3.784253653546362
 40
4.423229742949806
 40
5.062180638692611
 40
5.701130925570751
 40
6.340107514462508
 40
6.96491911539595
 40
7.589657403404949
 40
8.186760572834794
 40
8.784031974970773
 40
9.342160399158342
 40
9.899873000204963
 40
10.03352586852317
 40
10.16718909507453
 40
10.16718909507453
 40
10.16718909507453
 40
10.16718909507453
 10
154.1329252073429
 20
343.9929147781404
 30
0.0
 10
154.166985947889
 20
343.9774274426652
 30
0.0
 10
154.2351058034234
 20
343.9464535108517
 30
0.0
 10
154.4732656396794
 20
343.8403164527709
 30
0.0
 10
154.854635029286
 20
343.6904924032291
 30
0.0
 10
155.3983413652787
 20
343.515097374107
 30
0.0
 10
155.9631240105443
 20
343.3648287190944
 30
0.0
 10
156.5565233453513
 20
343.2388867605713
 30
0.0
 10
157.164456551815
 20
343.1407696573947
 30
0.0
 10
157.7901967819927
 20
343.0700162997018
 30
0.0
 10
158.4232212177282
 20
343.0273184505961
 30
0.0
 10
159.0622348289584
 20
343.0130962819031
 30
0.0
 10
159.7012485140126
 20
343.0273216515101
 30
0.0
 10
160.3342736665342
 20
343.0700180440662
 30
0.0
 10
160.9600154042285
 20
343.1407600760565
 30
0.0
 10
161.5679467980416
 20
343.2388799310705
 30
0.0
 10
162.1613367448712
 20
343.3648620468167
 30
0.0
 10
162.7261231363141
 20
343.5151208919431
 30
0.0
 10
163.2698762017588
 20
343.6903806053097
 30
0.0
 10
163.6578911182291
 20
343.8428460902699
 30
0.0
 10
163.908860460266
 20
343.9553073274278
 30
0.0
 10
163.989841941547
 20
343.9924800842497
 30
0.0
 10
164.0303342511634
 20
344.0110671828643
 30
0.0
 11
154.1329252073429
 21
343.9929147781404
 31
0.0
 11
154.2351652882028
 21
343.9465809927856
 31
0.0
 11
154.3377460852935
 21
343.9010197018274
 31
0.0
 11
154.8564181551926
 21
343.6960085981608
 31
0.0
 11
155.387235016482
 21
343.5235915753146
 31
0.0
 11
155.9643478674829
 21
343.3697472758248
 31
0.0
 11
156.5483869630425
 21
343.2454978311343
 31
0.0
 11
157.1650994668752
 21
343.1456670633112
 31
0.0
 11
157.7859209106337
 21
343.0751882069803
 31
0.0
 11
158.423443701602
 21
343.0321169424839
 31
0.0
 11
159.0622350164831
 21
343.0178374746015
 31
0.0
 11
159.7010256687412
 21
343.032119340352
 31
0.0
 11
160.3385491223326
 21
343.0751882069803
 31
0.0
 11
160.9593737767446
 21
343.145660081762
 31
0.0
 11
161.5760830699328
 21
343.2454978311343
 31
0.0
 11
162.1601107264134
 21
343.3697712852946
 31
0.0
 11
162.7372350164824
 21
343.5235915753146
 31
0.0
 11
163.2680906190059
 21
343.6959274890283
 31
0.0
 11
163.7867239476836
 21
343.9010197018274
 31
0.0
 11
163.9087736525127
 21
343.9554894986033
 31
0.0
 11
164.0303342511634
 21
344.0110671828643
 31
0.0
  0
SPLINE
  5
346
330
57
100
AcDbEntity
  8
0
  6
Continuous
 62
     7
100
AcDbSpline
210
0.0
220
0.0
230
1.0
 70
     8
 71
     3
 72
    35
 73
    31
 74
    29
 42
0.0000000001
 43
0.0000000001
 44
0.00000001
 40
0.0
 40
0.0
 40
0.0
 40
0.0
 40
0.9447139899796113
 40
1.888800357035901
 40
2.224172376090674
 40
2.559544223843546
 40
2.899912400629547
 40
3.240280704623959
 40
3.577162972596943
 40
3.914047004639639
 40
4.321835494100808
 40
4.729631799003887
 40
5.107672690078015
 40
5.48569857893165
 40
5.678656363798077
 40
5.871614152886595
 40
6.194528535092061
 40
6.517446370690281
 40
6.818478215536798
 40
7.119513543434646
 40
7.526978090189256
 40
7.934443350173986
 40
8.272731737906979
 40
8.611017431026461
 40
8.958217309841549
 40
9.305416812797422
 40
9.653317287844423
 40
10.00122232208949
 40
10.83476844103029
 40
11.66852901183533
 40
11.66852901183533
 40
11.66852901183533
 40
11.66852901183533
 10
153.3429973298826
 20
354.0656479959494
 30
0.0
 10
153.6326889157851
 20
353.9416260187325
 30
0.0
 10
154.2118796303153
 20
353.6936644585857
 30
0.0
 10
154.923787127883
 20
353.4813700734411
 30
0.0
 10
155.4456223810994
 20
353.3495484626771
 30
0.0
 10
155.7744811546607
 20
353.275507434515
 30
0.0
 10
156.1066246580303
 20
353.2090373499057
 30
0.0
 10
156.4407420067743
 20
353.1503187525248
 30
0.0
 10
156.7749410988776
 20
353.0992927387375
 30
0.0
 10
157.1324603814015
 20
353.0526771296554
 30
0.0
 10
157.5145009725858
 20
353.0120071596046
 30
0.0
 10
157.9111198173014
 20
352.979893245394
 30
0.0
 10
158.2984763987173
 20
352.9577893527523
 30
0.0
 10
158.6146617986362
 20
352.9469523431566
 30
0.0
 10
158.8692761140589
 20
352.9425753598377
 30
0.0
 10
159.1055536683607
 20
352.9412264406801
 30
0.0
 10
159.3851557970357
 20
352.9438988522303
 30
0.0
 10
159.7006656034581
 20
352.9529934487817
 30
0.0
 10
160.0086621323282
 20
352.967658038206
 30
0.0
 10
160.3444626311265
 20
352.989773658144
 30
0.0
 10
160.7150754340121
 20
353.0221992698706
 30
0.0
 10
161.0970879786333
 20
353.0654157787011
 30
0.0
 10
161.455102008528
 20
353.1145841918368
 30
0.0
 10
161.7921039841312
 20
353.1684895169474
 30
0.0
 10
162.1307098624359
 20
353.2306386001072
 30
0.0
 10
162.4708382766708
 20
353.3016558713318
 30
0.0
 10
162.8093372922108
 20
353.3812259384908
 30
0.0
 10
163.3021876378586
 20
353.5114158296879
 30
0.0
 10
163.9452233057943
 20
353.7093203470993
 30
0.0
 10
164.4573355054283
 20
353.9260181175075
 30
0.0
 10
164.7134245396228
 20
354.0343809387323
 30
0.0
 11
153.3429973298826
 21
354.0656479959494
 31
0.0
 11
154.2184192414006
 21
353.7105128108474
 31
0.0
 11
155.1207645027622
 21
353.4328941915875
 31
0.0
 11
155.4459733812125
 21
353.3509577739093
 31
0.0
 11
155.7731279990244
 21
353.2771734103251
 31
0.0
 11
156.1068721484392
 21
353.2103502219844
 31
0.0
 11
156.4420933322288
 21
353.1513812445236
 31
0.0
 11
156.7751122146883
 21
353.1005080059789
 31
0.0
 11
157.1091649801889
 21
353.0569235946972
 31
0.0
 11
157.5146580715953
 21
353.0137170563182
 31
0.0
 11
157.92112102278
 21
352.9807671609191
 31
0.0
 11
158.2985473819439
 21
352.959220496852
 31
0.0
 11
158.6763511354511
 21
352.9462630094644
 31
0.0
 11
158.8692803827059
 21
352.9429445317594
 31
0.0
 11
159.0622350164869
 21
352.9418410498247
 31
0.0
 11
159.3851345741734
 21
352.9449352186898
 31
0.0
 11
159.7079180941415
 21
352.9542479940264
 31
0.0
 11
160.0086090969919
 21
352.9685690420494
 31
0.0
 11
160.3089933874114
 21
352.9883565813548
 31
0.0
 11
160.7149034752669
 21
353.023914385549
 31
0.0
 11
161.1197810479754
 21
353.0697629320046
 31
0.0
 11
161.4549196968894
 21
353.1158185427273
 31
0.0
 11
161.7889547328422
 21
353.1692769838323
 31
0.0
 11
162.1304384941311
 21
353.2320192871466
 31
0.0
 11
162.4703003439736
 21
353.3030222298631
 31
0.0
 11
162.8089390163655
 21
353.3827629979719
 31
0.0
 11
163.1453596966087
 21
353.4714142176917
 31
0.0
 11
163.9401786197021
 21
353.7225357259181
 31
0.0
 11
164.7134245396228
 21
354.0343809387323
 31
0.0
  0
SPLINE
  5
347
330
57
100
AcDbEntity
  8
0
  6
Continuous
 62
     7
100
AcDbSpline
210
0.0
220
0.0
230
1.0
 70
     8
 71
     3
 72
    47
 73
    43
 74
    41
 42
0.0000000001
 43
0.0000000001
 44
0.00000001
 40
0.0
 40
0.0
 40
0.0
 40
0.0
 40
0.6668410370903387
 40
1.333735364141701
 40
1.563663682223701
 40
1.793563238463816
 40
2.063314750365238
 40
2.333087190608894
 40
2.736047970780478
 40
3.139030203583697
 40
3.492270476910762
 40
3.845494942691305
 40
4.152106087018316
 40
4.458716165816874
 40
4.794022454120426
 40
5.129335056208666
 40
5.520194016904757
 40
5.911052936782209
 40
6.23755967561683
 40
6.564059928823209
 40
6.839622259940056
 40
7.115186282098954
 40
7.46316312833493
 40
7.811140049349512
 40
8.159435422748427
 40
8.507745628595902
 40
9.093708566435984
 40
9.67967040366789
 40
10.06827360112375
 40
10.45686295672223
 40
10.82366193579309
 40
11.19045582548326
 40
11.62780899877089
 40
12.06521487539956
 40
12.38059482594869
 40
12.6958579905267
 40
13.05477943058453
 40
13.41396627093311
 40
13.7451893405419
 40
14.07598960806413
 40
14.85581481035801
 40
15.6358590620238
 40
15.6358590620238
 40
15.6358590620238
 40
15.6358590620238
 10
151.7147057549028
 20
354.2837908313745
 30
0.0
 10
151.8857316896581
 20
354.1413938903297
 30
0.0
 10
152.227797226542
 20
353.8565886287255
 30
0.0
 10
152.6749898581082
 20
353.5854769641273
 30
0.0
 10
153.0055849394875
 20
353.4073983398633
 30
0.0
 10
153.2230942394331
 20
353.2985038875538
 30
0.0
 10
153.4556062307934
 20
353.1901806524675
 30
0.0
 10
153.7441852699825
 20
353.0658993613371
 30
0.0
 10
154.0783028838333
 20
352.9354735786648
 30
0.0
 10
154.443430281232
 20
352.8087886926992
 30
0.0
 10
154.7966671131447
 20
352.6991223058917
 30
0.0
 10
155.1219895467086
 20
352.6083913327396
 30
0.0
 10
155.4344302427717
 20
352.529787268743
 30
0.0
 10
155.7427625344453
 20
352.4596795175403
 30
0.0
 10
156.0620124981848
 20
352.3948087135275
 30
0.0
 10
156.4103250956979
 20
352.3324220682194
 30
0.0
 10
156.7783581327527
 20
352.2756553524985
 30
0.0
 10
157.1447987381578
 20
352.2286148745124
 30
0.0
 10
157.4908605885307
 20
352.1921427139776
 30
0.0
 10
157.7992934421057
 20
352.1659327313967
 30
0.0
 10
158.0912024134113
 20
352.1464953451143
 30
0.0
 10
158.3905447226123
 20
352.13156629617
 30
0.0
 10
158.7142520583379
 20
352.1215043106163
 30
0.0
 10
159.0623409629277
 20
352.1179194503652
 30
0.0
 10
159.410542227427
 20
352.1215194495941
 30
0.0
 10
159.8378854662203
 20
352.1348093544847
 30
0.0
 10
160.3438586102676
 20
352.1647247628027
 30
0.0
 10
160.8618093024413
 20
352.2140714983714
 30
0.0
 10
161.312655200471
 20
352.2710128241837
 30
0.0
 10
161.689705124648
 20
352.328268907683
 30
0.0
 10
162.0580458455144
 20
352.3936533193579
 30
0.0
 10
162.440523418845
 20
352.4717006336533
 30
0.0
 10
162.8434653586003
 20
352.5664203114733
 30
0.0
 10
163.2265596628546
 20
352.6697525224797
 30
0.0
 10
163.5675559011256
 20
352.7721971396358
 30
0.0
 10
163.8805595003779
 20
352.8764907033171
 30
0.0
 10
164.2030085353733
 20
352.9978514446143
 30
0.0
 10
164.5272038290622
 20
353.1291650395762
 30
0.0
 10
164.8416655245364
 20
353.2595710874174
 30
0.0
 10
165.2777262654738
 20
353.462245582716
 30
0.0
 10
165.8154238993835
 20
353.7968457239505
 30
0.0
 10
166.2175488969515
 20
354.1268332415904
 30
0.0
 10
166.4186396305431
 20
354.2918501701565
 30
0.0
 11
151.7147057549028
 21
354.2837908313745
 31
0.0
 11
152.2376252296843
 21
353.8699887148478
 31
0.0
 11
152.8036389905668
 21
353.5173182370006
 31
0.0
 11
153.0061356522441
 21
353.408404815121
 31
0.0
 11
153.211642675364
 21
353.3053481830791
 31
0.0
 11
153.4561393541875
 21
353.1913865570052
 31
0.0
 11
153.7038815438955
 21
353.0846111995782
 31
0.0
 11
154.0791799711221
 21
352.9378853297469
 31
0.0
 11
154.45982916785
 21
352.8055944797781
 31
0.0
 11
154.7971549394255
 21
352.7007612096242
 31
0.0
 11
155.137367546646
 21
352.605772235979
 31
0.0
 11
155.4347028180024
 21
352.530924856379
 31
0.0
 11
155.7336723884376
 21
352.4629032688157
 31
0.0
 11
156.0622535788202
 21
352.3960847960508
 31
0.0
 11
156.3923048812052
 21
352.3369182606347
 31
0.0
 11
156.778588959414
 21
352.2772916048602
 31
0.0
 11
157.1662611222898
 21
352.2274820738548
 31
0.0
 11
157.4909671831997
 21
352.1932384684259
 31
0.0
 11
157.8162930796699
 21
352.1655712237182
 31
0.0
 11
158.0912462865737
 21
352.1472591418094
 31
0.0
 11
158.3664680639616
 21
352.1335294819504
 31
0.0
 11
158.7142766361911
 21
352.1227090106097
 31
0.0
 11
159.062235016485
 21
352.1191169162301
 31
0.0
 11
159.410511714225
 21
352.1227237073783
 31
0.0
 11
159.758653422004
 21
352.1335565649075
 31
0.0
 11
160.3435899391795
 21
352.1682240626076
 31
0.0
 11
160.9269018366944
 21
352.2238882783102
 31
0.0
 11
161.3124371652905
 21
352.2726217932376
 31
0.0
 11
161.6966160984962
 21
352.3310018802996
 31
0.0
 11
162.0577547515353
 21
352.3951919443949
 31
0.0
 11
162.4171257682833
 21
352.4686101290329
 31
0.0
 11
162.8428674102478
 21
352.5687193318173
 31
0.0
 11
163.2651727085217
 21
352.6826585083945
 31
0.0
 11
163.5671254166998
 21
352.7737028669913
 31
0.0
 11
163.8661209283596
 21
352.8736655947803
 31
0.0
 11
164.2023728674019
 21
352.9992013810067
 31
0.0
 11
164.5356520504551
 21
353.1331423098633
 31
0.0
 11
164.8408844865633
 21
353.2617575569708
 31
0.0
 11
165.1401497716457
 21
353.4027153738429
 31
0.0
 11
165.80499086955
 21
353.8102858102955
 31
0.0
 11
166.4186396305431
 21
354.2918501701565
 31
0.0
  0
ENDBLK
  5
59
330
57
100
AcDbEntity
  8
0
100
AcDbBlockEnd
  0
BLOCK
  5
5B
330
5A
100
AcDbEntity
  8
0
100
AcDbBlockBegin
  2
V97G-H2
 70
     0
 71
     0
 10
720.2493527503229
 20
109.8266458540315
 30
0.0
  3
V97G-H2
  1

  0
LINE
  5
348
330
5A
100
AcDbEntity
  8
0
  6
Continuous
 62
     7
100
AcDbLine
 10
244.3436197948431
 20
236.6305517257656
 30
0.0
 11
247.543619794842
 21
231.0879891415452
 31
0.0
  0
LINE
  5
349
330
5A
100
AcDbEntity
  8
1
  6
Continuous
 62
     7
100
AcDbLine
 10
250.8436197948431
 20
225.3722214765685
 30
0.0
 11
250.8869210650337
 21
225.3972214765686
 31
0.0
  0
LINE
  5
34A
330
5A
100
AcDbEntity
  8
1
  6
Continuous
 62
     7
100
AcDbLine
 10
244.3436197948431
 20
236.6305517257656
 30
0.0
 11
244.3869210650337
 21
236.6555517257652
 31
0.0
  0
LINE
  5
34B
330
5A
100
AcDbEntity
  8
0
  6
Continuous
 62
     7
100
AcDbLine
 10
247.543619794842
 20
231.0879891415452
 30
0.0
 11
250.8436197948431
 21
225.3722214765685
 31
0.0
  0
SPLINE
  5
34C
330
5A
100
AcDbEntity
  8
1
  6
Continuous
 62
     7
100
AcDbSpline
210
0.0
220
0.0
230
1.0
 70
     8
 71
     3
 72
    19
 73
    15
 74
    13
 42
0.0000000001
 43
0.0000000001
 44
0.00000001
 40
0.0
 40
0.0
 40
0.0
 40
0.0
 40
0.351190505315056
 40
0.7014060424122253
 40
1.043339731656587
 40
1.386021091836613
 40
1.720687137148984
 40
2.054915715857574
 40
2.383264777268365
 40
2.712016821154022
 40
3.037805193361463
 40
3.362896976693206
 40
3.553452686954054
 40
3.74422162552063
 40
3.74422162552063
 40
3.74422162552063
 40
3.74422162552063
 10
156.2982482948337
 20
229.5343472700956
 30
0.0
 10
156.2069552826363
 20
229.6076211391218
 30
0.0
 10
156.0246227041179
 20
229.753965455691
 30
0.0
 10
155.7656643613037
 20
229.9868296890592
 30
0.0
 10
155.5358861610903
 20
230.2450456468508
 30
0.0
 10
155.3356920167593
 20
230.5201219301446
 30
0.0
 10
155.1615643912281
 20
230.8093839175735
 30
0.0
 10
155.0172113231948
 20
231.1094187639088
 30
0.0
 10
154.9042690403188
 20
231.4205369664102
 30
0.0
 10
154.8226952855117
 20
231.738360210118
 30
0.0
 10
154.7717226726028
 20
232.06141107274
 30
0.0
 10
154.7578334107528
 20
232.3422551900181
 30
0.0
 10
154.7689979950744
 20
232.5775801177283
 30
0.0
 10
154.7795517021997
 20
232.7042502791686
 30
0.0
 10
154.7848315064621
 20
232.7676207754644
 30
0.0
 11
156.2982482948337
 21
229.5343472700956
 31
0.0
 11
156.0264356517451
 21
229.7567268062059
 31
0.0
 11
155.7682439110722
 21
229.9933445305474
 31
0.0
 11
155.5404304792399
 21
230.2483341148779
 31
0.0
 11
155.3383257802125
 21
230.5250726290856
 31
0.0
 11
155.166074155336
 21
230.8120059656159
 31
0.0
 11
155.0215567471023
 21
231.1133752765004
 31
0.0
 11
154.9093907850269
 21
231.4219719438204
 31
0.0
 11
154.8275616785322
 21
231.7403771945455
 31
0.0
 11
154.7774795635583
 21
232.0622930922972
 31
0.0
 11
154.762235016482
 21
232.3870272472213
 31
0.0
 11
154.7701251216852
 21
232.5774195394836
 31
0.0
 11
154.7848315064621
 21
232.7676207754644
 31
0.0
  0
SPLINE
  5
34D
330
5A
100
AcDbEntity
  8
1
  6
Continuous
 62
     7
100
AcDbSpline
210
0.0
220
0.0
230
1.0
 70
     8
 71
     3
 72
    19
 73
    15
 74
    13
 42
0.0000000001
 43
0.0000000001
 44
0.00000001
 40
0.0
 40
0.0
 40
0.0
 40
0.0
 40
0.3511905053138961
 40
0.701406042410774
 40
1.043339731659246
 40
1.386021091842158
 40
1.720687137150722
 40
2.054915715857084
 40
2.383264777270842
 40
2.712016821157666
 40
3.037805193363622
 40
3.362896976695665
 40
3.553452686956438
 40
3.744221625522388
 40
3.744221625522388
 40
3.744221625522388
 40
3.744221625522388
 10
161.8262217381325
 20
229.5343472700956
 30
0.0
 10
161.9175147503291
 20
229.6076211391224
 30
0.0
 10
162.0998473288459
 20
229.7539654556927
 30
0.0
 10
162.3588056716609
 20
229.9868296890609
 30
0.0
 10
162.5885838718812
 20
230.2450456468494
 30
0.0
 10
162.7887780162164
 20
230.5201219301416
 30
0.0
 10
162.9629056417407
 20
230.8093839175739
 30
0.0
 10
163.1072587097681
 20
231.1094187639104
 30
0.0
 10
163.2202009926519
 20
231.4205369664093
 30
0.0
 10
163.3017747474661
 20
231.7383602101166
 30
0.0
 10
163.3527473603659
 20
232.0614110727404
 30
0.0
 10
163.3666366222095
 20
232.3422551900178
 30
0.0
 10
163.3554720378933
 20
232.577580117728
 30
0.0
 10
163.3449183307731
 20
232.7042502791686
 30
0.0
 10
163.3396385265132
 20
232.7676207754644
 30
0.0
 11
161.8262217381325
 21
229.5343472700956
 31
0.0
 11
162.0980343812187
 21
229.756726806207
 31
0.0
 11
162.3562261218922
 21
229.9933445305474
 31
0.0
 11
162.5840395537315
 21
230.2483341148772
 31
0.0
 11
162.7861442527628
 21
230.5250726290856
 31
0.0
 11
162.9583958776327
 21
230.8120059656154
 31
0.0
 11
163.1029132858621
 21
231.1133752764995
 31
0.0
 11
163.2150792479439
 21
231.4219719438204
 31
0.0
 11
163.2969083544431
 21
231.7403771945455
 31
0.0
 11
163.3469904694106
 21
232.0622930922967
 31
0.0
 11
163.3622350164824
 21
232.3870272472213
 31
0.0
 11
163.3543449112831
 21
232.5774195394837
 31
0.0
 11
163.3396385265132
 21
232.7676207754644
 31
0.0
  0
SPLINE
  5
34E
330
5A
100
AcDbEntity
  8
1
  6
Continuous
 62
     7
100
AcDbSpline
210
0.0
220
0.0
230
1.0
 70
     8
 71
     3
 72
    19
 73
    15
 74
    13
 42
0.0000000001
 43
0.0000000001
 44
0.00000001
 40
0.0
 40
0.0
 40
0.0
 40
0.0
 40
0.1108484321596984
 40
0.2216991388322234
 40
0.7145338758449974
 40
1.207825858548701
 40
1.689478506793708
 40
2.170736441537235
 40
2.639991965297693
 40
3.109874390050158
 40
3.569577376095696
 40
4.027912451772682
 40
4.481764116061289
 40
4.937281834643241
 40
4.937281834643241
 40
4.937281834643241
 40
4.937281834643241
 10
156.3122350164831
 20
226.4807345658196
 30
0.0
 10
156.2787972587674
 20
226.4964570987621
 30
0.0
 10
156.2119210572224
 20
226.5279024872596
 30
0.0
 10
155.9973898627055
 20
226.6313723338313
 30
0.0
 10
155.6765767561432
 20
226.807921848953
 30
0.0
 10
155.2690155592115
 20
227.0795789915814
 30
0.0
 10
154.8880324988156
 20
227.3812472850317
 30
0.0
 10
154.540174537455
 20
227.7091368796388
 30
0.0
 10
154.2261492345488
 20
228.0643316358331
 30
0.0
 10
153.9490437123429
 20
228.440063274038
 30
0.0
 10
153.7071638109093
 20
228.8351498675261
 30
0.0
 10
153.5097226308094
 20
229.2489255701952
 30
0.0
 10
153.3661631506788
 20
229.6824616930312
 30
0.0
 10
153.2888998052021
 20
229.9755651866137
 30
0.0
 10
153.2501973554336
 20
230.1223854306422
 30
0.0
 11
156.3122350164831
 21
226.4807345658196
 31
0.0
 11
156.2120000901532
 21
226.5280667372878
 31
0.0
 11
156.1122350164824
 21
226.5763866011666
 31
0.0
 11
155.6803508139885
 21
226.8137936643359
 31
0.0
 11
155.2697881193326
 21
227.0872443069693
 31
0.0
 11
154.8924437792741
 21
227.3865777708306
 31
0.0
 11
154.5425728020837
 21
227.7170312457306
 31
0.0
 11
154.2316774844596
 21
228.0685207164962
 31
0.0
 11
153.9526851341525
 21
228.4466116600024
 31
0.0
 11
153.7139131658193
 21
228.8394408627324
 31
0.0
 11
153.5180485538531
 21
229.2538176180833
 31
0.0
 11
153.3708682646219
 21
229.6831418494509
 31
0.0
 11
153.2501973554336
 21
230.1223854306422
 31
0.0
  0
SPLINE
  5
34F
330
5A
100
AcDbEntity
  8
1
  6
Continuous
 62
     7
100
AcDbSpline
210
0.0
220
0.0
230
1.0
 70
     8
 71
     3
 72
    19
 73
    15
 74
    13
 42
0.0000000001
 43
0.0000000001
 44
0.00000001
 40
0.0
 40
0.0
 40
0.0
 40
0.0
 40
0.1108484321589002
 40
0.2216991388306075
 40
0.7145338758441735
 40
1.207825858548572
 40
1.689478506793732
 40
2.17073644153716
 40
2.63999196529667
 40
3.109874390048828
 40
3.56957737609741
 40
4.027912451776591
 40
4.481764116063497
 40
4.937281834644592
 40
4.937281834644592
 40
4.937281834644592
 40
4.937281834644592
 10
161.8122350164831
 20
226.4807345658196
 30
0.0
 10
161.8456727741985
 20
226.4964570987621
 30
0.0
 10
161.9125489757429
 20
226.5279024872596
 30
0.0
 10
162.127080170259
 20
226.631372333832
 30
0.0
 10
162.4478932768218
 20
226.8079218489535
 30
0.0
 10
162.8554544737545
 20
227.0795789915812
 30
0.0
 10
163.2364375341512
 20
227.3812472850311
 30
0.0
 10
163.5842954955114
 20
227.7091368796384
 30
0.0
 10
163.8983207984153
 20
228.0643316358342
 30
0.0
 10
164.1754263206212
 20
228.4400632740396
 30
0.0
 10
164.4173062220612
 20
228.8351498675255
 30
0.0
 10
164.6147474021668
 20
229.2489255701935
 30
0.0
 10
164.7583068822945
 20
229.6824616930305
 30
0.0
 10
164.8355702277664
 20
229.9755651866134
 30
0.0
 10
164.8742726775326
 20
230.1223854306422
 30
0.0
 11
161.8122350164831
 21
226.4807345658196
 31
0.0
 11
161.9124699428121
 21
226.5280667372879
 31
0.0
 11
162.012235016482
 21
226.5763866011666
 31
0.0
 11
162.4441192189765
 21
226.8137936643364
 31
0.0
 11
162.8546819136336
 21
227.0872443069693
 31
0.0
 11
163.2320262536927
 21
227.3865777708302
 31
0.0
 11
163.5818972308825
 21
227.7170312457306
 31
0.0
 11
163.8927925485045
 21
228.0685207164968
 31
0.0
 11
164.1717848988119
 21
228.4466116600024
 31
0.0
 11
164.4105568671512
 21
228.8394408627322
 31
0.0
 11
164.6064214791222
 21
229.2538176180833
 31
0.0
 11
164.7536017683507
 21
229.68314184945
 31
0.0
 11
164.8742726775326
 21
230.1223854306422
 31
0.0
  0
ENDBLK
  5
5C
330
5A
100
AcDbEntity
  8
0
100
AcDbBlockEnd
  0
BLOCK
  5
5E
330
5D
100
AcDbEntity
  8
0
100
AcDbBlockBegin
  2
V97G-H3
 70
     0
 71
     0
 10
674.8123589812221
 20
473.5387685545484
 30
0.0
  3
V97G-H3
  1

  0
LINE
  5
350
330
5D
100
AcDbEntity
  8
1
  6
Continuous
 62
     7
100
AcDbLine
 10
158.5622350164831
 20
337.6997644056132
 30
0.0
 11
158.5622350164831
 21
338.1741744930832
 31
0.0
  0
LINE
  5
351
330
5D
100
AcDbEntity
  8
1
  6
Continuous
 62
     7
100
AcDbLine
 10
159.5622350164831
 20
337.6997644056132
 30
0.0
 11
159.5622350164831
 21
338.1741744930832
 31
0.0
  0
LINE
  5
352
330
5D
100
AcDbEntity
  8
1
  6
Continuous
 62
     7
100
AcDbLine
 10
159.5622350164831
 20
337.6997644056132
 30
0.0
 11
158.5622350164831
 21
337.6997644056132
 31
0.0
  0
LINE
  5
353
330
5D
100
AcDbEntity
  8
0
  6
Continuous
 62
     7
100
AcDbLine
 10
157.0622350164831
 20
220.6439202063784
 30
0.0
 11
161.0622350164831
 21
220.6439202063784
 31
0.0
  0
LINE
  5
354
330
5D
100
AcDbEntity
  8
0
  6
Continuous
 62
     7
100
AcDbLine
 10
157.0622350164831
 20
219.9278948025944
 30
0.0
 11
161.0622350164831
 21
219.9278948025944
 31
0.0
  0
LINE
  5
355
330
5D
100
AcDbEntity
  8
0
  6
Continuous
 62
     7
100
AcDbLine
 10
242.9477972725726
 20
223.4447179304593
 30
0.0
 11
244.5963011372533
 21
220.5528948025944
 31
0.0
  0
LINE
  5
356
330
5D
100
AcDbEntity
  8
0
  6
Continuous
 62
     7
100
AcDbLine
 10
244.5963011372533
 20
220.5528948025944
 30
0.0
 11
243.5103561561336
 21
219.9338443216202
 31
0.0
  0
LINE
  5
357
330
5D
100
AcDbEntity
  8
0
  6
Continuous
 62
     7
100
AcDbLine
 10
243.1011572452335
 20
220.0458990016546
 30
0.0
 11
242.7544889758829
 21
220.6540281910784
 31
0.0
  0
LINE
  5
358
330
5D
100
AcDbEntity
  8
0
  6
Continuous
 62
     7
100
AcDbLine
 10
239.0185908739022
 20
224.2797095576052
 30
0.0
 11
242.7544889758829
 21
220.6540281910784
 31
0.0
  0
LINE
  5
359
330
5D
100
AcDbEntity
  8
0
  6
Continuous
 62
     7
100
AcDbLine
 10
238.5441807864336
 20
225.1119248119544
 30
0.0
 11
239.9752252074522
 21
229.7170982347425
 31
0.0
  0
LINE
  5
35A
330
5D
100
AcDbEntity
  8
0
  6
Continuous
 62
     7
100
AcDbLine
 10
239.0185908739022
 20
224.2797095576052
 30
0.0
 11
238.5441807864336
 21
225.1119248119544
 31
0.0
  0
LINE
  5
35B
330
5D
100
AcDbEntity
  8
0
  6
Continuous
 62
     7
100
AcDbLine
 10
246.2649980613332
 20
233.3026269476363
 30
0.0
 11
239.9752252074522
 21
229.7170982347425
 31
0.0
  0
LINE
  5
35C
330
5D
100
AcDbEntity
  8
0
  6
Continuous
 62
     7
100
AcDbLine
 10
248.965038710463
 20
228.6260193608496
 30
0.0
 11
244.4999241111236
 21
226.0806497625786
 31
0.0
  0
LINE
  5
35D
330
5D
100
AcDbEntity
  8
0
  6
Continuous
 62
     7
100
AcDbLine
 10
243.4222073600431
 20
222.6125026761106
 30
0.0
 11
244.4999241111236
 21
226.0806497625786
 31
0.0
  0
LINE
  5
35E
330
5D
100
AcDbEntity
  8
0
  6
Continuous
 62
     7
100
AcDbLine
 10
239.0185908739022
 20
224.2797095576052
 30
0.0
 11
240.5617602505226
 21
229.2457067661285
 31
0.0
  0
LINE
  5
35F
330
5D
100
AcDbEntity
  8
0
  6
Continuous
 62
     7
100
AcDbLine
 10
240.5604089758126
 20
224.1865919901834
 30
0.0
 11
241.8186210571021
 21
228.2355821905262
 31
0.0
  0
LINE
  5
360
330
5D
100
AcDbEntity
  8
0
  6
Continuous
 62
     7
100
AcDbLine
 10
241.5153642945134
 20
223.8898423662945
 30
0.0
 11
242.7735763758028
 21
227.9388325666373
 31
0.0
  0
LINE
  5
361
330
5D
100
AcDbEntity
  8
1
  6
Continuous
 62
     7
100
AcDbLine
 10
240.5604089758126
 20
224.1865919901834
 30
0.0
 11
241.5153642945134
 21
223.8898423662945
 31
0.0
  0
LINE
  5
362
330
5D
100
AcDbEntity
  8
0
  6
Continuous
 62
     7
100
AcDbLine
 10
243.9092597299732
 20
226.5387528120982
 30
0.0
 11
242.9477972725726
 21
223.4447179304593
 31
0.0
  0
LINE
  5
363
330
5D
100
AcDbEntity
  8
0
  6
Continuous
 62
     7
100
AcDbLine
 10
248.6197832019534
 20
229.2240194431756
 30
0.0
 11
243.9092597299732
 21
226.5387528120982
 31
0.0
  0
LINE
  5
364
330
5D
100
AcDbEntity
  8
0
  6
Continuous
 62
     7
100
AcDbLine
 10
246.6150033306731
 20
232.6964000382386
 30
0.0
 11
240.5617602505226
 21
229.2457067661285
 31
0.0
  0
LINE
  5
365
330
5D
100
AcDbEntity
  8
0
  6
Continuous
 62
     7
100
AcDbLine
 10
247.3650146220934
 20
231.3973423752414
 30
0.0
 11
241.8186210571021
 21
228.2355821905262
 31
0.0
  0
LINE
  5
366
330
5D
100
AcDbEntity
  8
0
  6
Continuous
 62
     7
100
AcDbLine
 10
247.7303878484127
 20
230.7644973835295
 30
0.0
 11
242.7735763758028
 21
227.9388325666373
 31
0.0
  0
LINE
  5
367
330
5D
100
AcDbEntity
  8
1
  6
Continuous
 62
     7
100
AcDbLine
 10
158.5622350164831
 20
229.7170982347425
 30
0.0
 11
159.5622350164831
 21
229.7170982347425
 31
0.0
  0
LINE
  5
368
330
5D
100
AcDbEntity
  8
1
  6
Continuous
 62
     7
100
AcDbLine
 10
158.5622350164831
 20
225.1119248119544
 30
0.0
 11
159.5622350164831
 21
225.1119248119544
 31
0.0
  0
LINE
  5
369
330
5D
100
AcDbEntity
  8
1
  6
Continuous
 62
     7
100
AcDbLine
 10
159.5622350164831
 20
224.2797095576052
 30
0.0
 11
158.5622350164831
 21
224.2797095576052
 31
0.0
  0
LINE
  5
36A
330
5D
100
AcDbEntity
  8
1
  6
Continuous
 62
     7
100
AcDbLine
 10
158.5622350164831
 20
224.2797095576052
 30
0.0
 11
158.5622350164831
 21
229.2457067661285
 31
0.0
  0
LINE
  5
36B
330
5D
100
AcDbEntity
  8
0
  6
Continuous
 62
     7
100
AcDbLine
 10
158.5622350164831
 20
234.2796551913843
 30
0.0
 11
159.5622350164831
 21
234.2796551913843
 31
0.0
  0
LINE
  5
36C
330
5D
100
AcDbEntity
  8
1
  6
Continuous
 62
     7
100
AcDbLine
 10
159.5622350164831
 20
224.2797095576052
 30
0.0
 11
159.5622350164831
 21
229.2457067661285
 31
0.0
  0
LINE
  5
36D
330
5D
100
AcDbEntity
  8
0
  6
Continuous
 62
     7
100
AcDbLine
 10
159.5622350164831
 20
234.2796551913843
 30
0.0
 11
160.1852924991927
 21
234.2796551913843
 31
0.0
  0
LINE
  5
36E
330
5D
100
AcDbEntity
  8
1
  6
Continuous
 62
     7
100
AcDbLine
 10
158.5622350164831
 20
224.2797095576052
 30
0.0
 11
157.0622350164831
 21
224.2797095576052
 31
0.0
  0
LINE
  5
36F
330
5D
100
AcDbEntity
  8
0
  6
Continuous
 62
     7
100
AcDbLine
 10
157.0622350164831
 20
224.2797095576052
 30
0.0
 11
157.0622350164831
 21
224.1865919901834
 31
0.0
  0
LINE
  5
370
330
5D
100
AcDbEntity
  8
1
  6
Continuous
 62
     7
100
AcDbLine
 10
159.5622350164831
 20
224.2797095576052
 30
0.0
 11
161.0622350164831
 21
224.2797095576052
 31
0.0
  0
LINE
  5
371
330
5D
100
AcDbEntity
  8
0
  6
Continuous
 62
     7
100
AcDbLine
 10
161.0622350164831
 20
224.2797095576052
 30
0.0
 11
161.0622350164831
 21
224.1865919901834
 31
0.0
  0
LINE
  5
372
330
5D
100
AcDbEntity
  8
1
  6
Continuous
 62
     7
100
AcDbLine
 10
161.0622350164831
 20
229.2457067661285
 30
0.0
 11
159.5622350164831
 21
229.2457067661285
 31
0.0
  0
LINE
  5
373
330
5D
100
AcDbEntity
  8
0
  6
Continuous
 62
     7
100
AcDbLine
 10
161.0622350164831
 20
229.2457067661285
 30
0.0
 11
161.0622350164831
 21
228.2355821905262
 31
0.0
  0
LINE
  5
374
330
5D
100
AcDbEntity
  8
1
  6
Continuous
 62
     7
100
AcDbLine
 10
159.5622350164831
 20
229.2457067661285
 30
0.0
 11
159.5622350164831
 21
234.2796551913843
 31
0.0
  0
LINE
  5
375
330
5D
100
AcDbEntity
  8
1
  6
Continuous
 62
     7
100
AcDbLine
 10
158.5622350164831
 20
229.2457067661285
 30
0.0
 11
157.0622350164831
 21
229.2457067661285
 31
0.0
  0
LINE
  5
376
330
5D
100
AcDbEntity
  8
0
  6
Continuous
 62
     7
100
AcDbLine
 10
157.0622350164831
 20
229.2457067661285
 30
0.0
 11
157.0622350164831
 21
228.2355821905262
 31
0.0
  0
LINE
  5
377
330
5D
100
AcDbEntity
  8
1
  6
Continuous
 62
     7
100
AcDbLine
 10
158.5622350164831
 20
229.2457067661285
 30
0.0
 11
158.5622350164831
 21
234.2796551913843
 31
0.0
  0
LINE
  5
378
330
5D
100
AcDbEntity
  8
1
  6
Continuous
 62
     7
100
AcDbLine
 10
161.0622350164831
 20
223.8898423662945
 30
0.0
 11
161.8122350164831
 21
223.8898423662945
 31
0.0
  0
LINE
  5
379
330
5D
100
AcDbEntity
  8
0
  6
Continuous
 62
     7
100
AcDbLine
 10
161.0622350164831
 20
223.8898423662945
 30
0.0
 11
161.0622350164831
 21
219.9278948025944
 31
0.0
  0
LINE
  5
37A
330
5D
100
AcDbEntity
  8
1
  6
Continuous
 62
     7
100
AcDbLine
 10
157.0622350164831
 20
223.8898423662945
 30
0.0
 11
156.3122350164831
 21
223.8898423662945
 31
0.0
  0
LINE
  5
37B
330
5D
100
AcDbEntity
  8
0
  6
Continuous
 62
     7
100
AcDbLine
 10
157.0622350164831
 20
223.8898423662945
 30
0.0
 11
157.0622350164831
 21
219.9278948025944
 31
0.0
  0
LINE
  5
37C
330
5D
100
AcDbEntity
  8
1
  6
Continuous
 62
     7
100
AcDbLine
 10
161.8122350164831
 20
223.8898423662945
 30
0.0
 11
161.8122350164831
 21
224.1865919901834
 31
0.0
  0
LINE
  5
37D
330
5D
100
AcDbEntity
  8
1
  6
Continuous
 62
     7
100
AcDbLine
 10
156.3122350164831
 20
223.8898423662945
 30
0.0
 11
156.3122350164831
 21
224.1865919901834
 31
0.0
  0
LINE
  5
37E
330
5D
100
AcDbEntity
  8
1
  6
Continuous
 62
     7
100
AcDbLine
 10
161.8122350164831
 20
224.1865919901834
 30
0.0
 11
161.0622350164831
 21
224.1865919901834
 31
0.0
  0
LINE
  5
37F
330
5D
100
AcDbEntity
  8
0
  6
Continuous
 62
     7
100
AcDbLine
 10
161.0622350164831
 20
224.1865919901834
 30
0.0
 11
161.0622350164831
 21
223.8898423662945
 31
0.0
  0
LINE
  5
380
330
5D
100
AcDbEntity
  8
1
  6
Continuous
 62
     7
100
AcDbLine
 10
161.8122350164831
 20
224.1865919901834
 30
0.0
 11
161.8122350164831
 21
228.2355821905262
 31
0.0
  0
LINE
  5
381
330
5D
100
AcDbEntity
  8
1
  6
Continuous
 62
     7
100
AcDbLine
 10
161.8122350164831
 20
228.2355821905262
 30
0.0
 11
161.0622350164831
 21
228.2355821905262
 31
0.0
  0
LINE
  5
382
330
5D
100
AcDbEntity
  8
0
  6
Continuous
 62
     7
100
AcDbLine
 10
161.0622350164831
 20
228.2355821905262
 30
0.0
 11
161.0622350164831
 21
224.2797095576052
 31
0.0
  0
LINE
  5
383
330
5D
100
AcDbEntity
  8
1
  6
Continuous
 62
     7
100
AcDbLine
 10
161.8122350164831
 20
228.2355821905262
 30
0.0
 11
161.8122350164831
 21
233.7658754700924
 31
0.0
  0
LINE
  5
384
330
5D
100
AcDbEntity
  8
1
  6
Continuous
 62
     7
100
AcDbLine
 10
156.3122350164831
 20
228.2355821905262
 30
0.0
 11
157.0622350164831
 21
228.2355821905262
 31
0.0
  0
LINE
  5
385
330
5D
100
AcDbEntity
  8
0
  6
Continuous
 62
     7
100
AcDbLine
 10
157.0622350164831
 20
228.2355821905262
 30
0.0
 11
157.0622350164831
 21
224.2797095576052
 31
0.0
  0
LINE
  5
386
330
5D
100
AcDbEntity
  8
1
  6
Continuous
 62
     7
100
AcDbLine
 10
156.3122350164831
 20
228.2355821905262
 30
0.0
 11
156.3122350164831
 21
233.7658754700924
 31
0.0
  0
LINE
  5
387
330
5D
100
AcDbEntity
  8
1
  6
Continuous
 62
     7
100
AcDbLine
 10
156.3122350164831
 20
224.1865919901834
 30
0.0
 11
157.0622350164831
 21
224.1865919901834
 31
0.0
  0
LINE
  5
388
330
5D
100
AcDbEntity
  8
0
  6
Continuous
 62
     7
100
AcDbLine
 10
157.0622350164831
 20
224.1865919901834
 30
0.0
 11
157.0622350164831
 21
223.8898423662945
 31
0.0
  0
LINE
  5
389
330
5D
100
AcDbEntity
  8
1
  6
Continuous
 62
     7
100
AcDbLine
 10
156.3122350164831
 20
224.1865919901834
 30
0.0
 11
156.3122350164831
 21
228.2355821905262
 31
0.0
  0
LINE
  5
38A
330
5D
100
AcDbEntity
  8
0
  6
Continuous
 62
     7
100
AcDbLine
 10
161.0622350164831
 20
234.0616061772594
 30
0.0
 11
161.0622350164831
 21
229.2457067661285
 31
0.0
  0
LINE
  5
38B
330
5D
100
AcDbEntity
  8
0
  6
Continuous
 62
     7
100
AcDbLine
 10
157.9391775337736
 20
234.2796551913843
 30
0.0
 11
158.5622350164831
 21
234.2796551913843
 31
0.0
  0
LINE
  5
38C
330
5D
100
AcDbEntity
  8
0
  6
Continuous
 62
     7
100
AcDbLine
 10
157.0622350164831
 20
234.0616061772594
 30
0.0
 11
157.0622350164831
 21
229.2457067661285
 31
0.0
  0
LINE
  5
38D
330
5D
100
AcDbEntity
  8
1
  6
Continuous
 62
     7
100
AcDbLine
 10
159.5622350164831
 20
339.1308088266374
 30
0.0
 11
158.5622350164831
 21
339.1308088266374
 31
0.0
  0
LINE
  5
38E
330
5D
100
AcDbEntity
  8
1
  6
Continuous
 62
     7
100
AcDbLine
 10
158.5622350164831
 20
339.1308088266374
 30
0.0
 11
158.5622350164831
 21
339.7173438697055
 31
0.0
  0
LINE
  5
38F
330
5D
100
AcDbEntity
  8
1
  6
Continuous
 62
     7
100
AcDbLine
 10
159.5622350164831
 20
339.1308088266374
 30
0.0
 11
159.5622350164831
 21
339.7173438697055
 31
0.0
  0
LINE
  5
390
330
5D
100
AcDbEntity
  8
1
  6
Continuous
 62
     7
100
AcDbLine
 10
161.0622350164831
 20
338.1741744930832
 30
0.0
 11
159.5622350164831
 21
338.1741744930832
 31
0.0
  0
LINE
  5
391
330
5D
100
AcDbEntity
  8
1
  6
Continuous
 62
     7
100
AcDbLine
 10
159.5622350164831
 20
338.1741744930832
 30
0.0
 11
159.5622350164831
 21
339.1308088266374
 31
0.0
  0
LINE
  5
392
330
5D
100
AcDbEntity
  8
1
  6
Continuous
 62
     7
100
AcDbLine
 10
158.5622350164831
 20
338.1741744930832
 30
0.0
 11
157.0622350164831
 21
338.1741744930832
 31
0.0
  0
LINE
  5
393
330
5D
100
AcDbEntity
  8
1
  6
Continuous
 62
     7
100
AcDbLine
 10
158.5622350164831
 20
338.1741744930832
 30
0.0
 11
158.5622350164831
 21
339.1308088266374
 31
0.0
  0
LINE
  5
394
330
5D
100
AcDbEntity
  8
1
  6
Continuous
 62
     7
100
AcDbLine
 10
158.5622350164831
 20
339.7173438697055
 30
0.0
 11
157.0622350164831
 21
339.7173438697055
 31
0.0
  0
LINE
  5
395
330
5D
100
AcDbEntity
  8
1
  6
Continuous
 62
     7
100
AcDbLine
 10
158.5622350164831
 20
339.7173438697055
 30
0.0
 11
158.5622350164831
 21
343.0265758249334
 31
0.0
  0
LINE
  5
396
330
5D
100
AcDbEntity
  8
1
  6
Continuous
 62
     7
100
AcDbLine
 10
159.5622350164831
 20
339.7173438697055
 30
0.0
 11
161.0622350164831
 21
339.7173438697055
 31
0.0
  0
LINE
  5
397
330
5D
100
AcDbEntity
  8
1
  6
Continuous
 62
     7
100
AcDbLine
 10
159.5622350164831
 20
339.7173438697055
 30
0.0
 11
159.5622350164831
 21
343.0265779612732
 31
0.0
  0
LINE
  5
398
330
5D
100
AcDbEntity
  8
1
  6
Continuous
 62
     7
100
AcDbLine
 10
161.0622350164831
 20
338.1741744930832
 30
0.0
 11
161.0622350164831
 21
339.7159925949904
 31
0.0
  0
LINE
  5
399
330
5D
100
AcDbEntity
  8
1
  6
Continuous
 62
     7
100
AcDbLine
 10
157.0622350164831
 20
338.1741744930832
 30
0.0
 11
157.0622350164831
 21
339.7159925949904
 31
0.0
  0
LINE
  5
39A
330
5D
100
AcDbEntity
  8
1
  6
Continuous
 62
     7
100
AcDbLine
 10
161.8122350164831
 20
340.9742046762794
 30
0.0
 11
161.0622350164831
 21
340.9742046762794
 31
0.0
  0
LINE
  5
39B
330
5D
100
AcDbEntity
  8
1
  6
Continuous
 62
     7
100
AcDbLine
 10
161.0622350164831
 20
340.9742046762794
 30
0.0
 11
161.0622350164831
 21
343.1601823013502
 31
0.0
  0
LINE
  5
39C
330
5D
100
AcDbEntity
  8
1
  6
Continuous
 62
     7
100
AcDbLine
 10
157.0622350164831
 20
340.9742046762794
 30
0.0
 11
156.3122350164831
 21
340.9742046762794
 31
0.0
  0
LINE
  5
39D
330
5D
100
AcDbEntity
  8
1
  6
Continuous
 62
     7
100
AcDbLine
 10
157.0622350164831
 20
340.9742046762794
 30
0.0
 11
157.0622350164831
 21
343.1601902115713
 31
0.0
  0
LINE
  5
39E
330
5D
100
AcDbEntity
  8
1
  6
Continuous
 62
     7
100
AcDbLine
 10
161.8122350164831
 20
339.7159925949904
 30
0.0
 11
161.0622350164831
 21
339.7159925949904
 31
0.0
  0
LINE
  5
39F
330
5D
100
AcDbEntity
  8
1
  6
Continuous
 62
     7
100
AcDbLine
 10
161.0622350164831
 20
339.7159925949904
 30
0.0
 11
161.0622350164831
 21
340.9742046762794
 31
0.0
  0
LINE
  5
3A0
330
5D
100
AcDbEntity
  8
1
  6
Continuous
 62
     7
100
AcDbLine
 10
156.3122350164831
 20
339.7159925949904
 30
0.0
 11
157.0622350164831
 21
339.7159925949904
 31
0.0
  0
LINE
  5
3A1
330
5D
100
AcDbEntity
  8
1
  6
Continuous
 62
     7
100
AcDbLine
 10
157.0622350164831
 20
339.7159925949904
 30
0.0
 11
157.0622350164831
 21
340.9742046762794
 31
0.0
  0
LINE
  5
3A2
330
5D
100
AcDbEntity
  8
1
  6
Continuous
 62
     7
100
AcDbLine
 10
161.8122350164831
 20
339.7159925949904
 30
0.0
 11
161.8122350164831
 21
343.2921234840064
 31
0.0
  0
LINE
  5
3A3
330
5D
100
AcDbEntity
  8
1
  6
Continuous
 62
     7
100
AcDbLine
 10
156.3122350164831
 20
339.7159925949904
 30
0.0
 11
156.3122350164831
 21
343.2921122669304
 31
0.0
  0
ARC
  5
3A4
330
5D
100
AcDbEntity
  8
0
  6
Continuous
 62
     7
100
AcDbCircle
 10
243.3617840407023
 20
220.1944711170886
 30
0.0
 40
0.3000000000014484
100
AcDbArc
 50
-150.3143971705729
 51
-60.31439717098323
  0
ENDBLK
  5
5F
330
5D
100
AcDbEntity
  8
0
100
AcDbBlockEnd
  0
BLOCK
  5
61
330
60
100
AcDbEntity
  8
0
100
AcDbBlockBegin
  2
V972GN-H3
 70
     0
 71
     0
 10
832.9542668694721
 20
231.7115417474633
 30
0.0
  3
V972GN-H3
  1

  0
ARC
  5
3A5
330
60
100
AcDbEntity
  8
0
  6
Continuous
 62
     7
100
AcDbCircle
 10
159.0622350164831
 20
245.2115417474633
 30
0.0
 40
11.5
100
AcDbArc
 50
0.0
 51
-148.5851825381891
  0
ARC
  5
3A6
330
60
100
AcDbEntity
  8
0
  6
Continuous
 62
     7
100
AcDbCircle
 10
159.0622350164831
 20
245.2115417474633
 30
0.0
 40
8.299999999999301
100
AcDbArc
 50
0.0
 51
-176.4103667645757
  0
ARC
  5
3A7
330
60
100
AcDbEntity
  8
0
  6
Continuous
 62
     7
100
AcDbCircle
 10
159.0622350164831
 20
245.2115417474633
 30
0.0
 40
8.300000000004285
100
AcDbArc
 50
-3.58963323542032
 51
0.0
  0
ARC
  5
3A8
330
60
100
AcDbEntity
  8
0
  6
Continuous
 62
     7
100
AcDbCircle
 10
159.0622350164831
 20
245.2115417474633
 30
0.0
 40
11.50000000000264
100
AcDbArc
 50
-31.41481746178726
 51
0.0
  0
ENDBLK
  5
62
330
60
100
AcDbEntity
  8
0
100
AcDbBlockEnd
  0
BLOCK
  5
3EF
330
3E6
100
AcDbEntity
  8
0
100
AcDbBlockBegin
  2
*D016
 70
     1
 71
     0
 10
0.0
 20
0.0
 30
0.0
  3
*D016
  1

  0
LINE
  5
3E7
330
3E6
100
AcDbEntity
  8
0
  6
Continuous
 62
     2
100
AcDbLine
 10
240.1068654636025
 20
217.6145077463933
 30
0.0
 11
247.106865463603
 21
205.4901520934115
 31
0.0
  0
LINE
  5
3E8
330
3E6
100
AcDbEntity
  8
0
  6
Continuous
 62
     2
100
AcDbLine
 10
232.2568654636021
 20
231.2111065858084
 30
0.0
 11
240.1068654636025
 21
217.6145077463933
 31
0.0
  0
LINE
  5
3E9
330
3E6
100
AcDbEntity
  8
0
  6
Continuous
 62
     2
100
AcDbLine
 10
219.0307420960756
 20
254.1194242455362
 30
0.0
 11
232.2568654636021
 21
231.2111065858084
 31
0.0
  0
LINE
  5
3EA
330
3E6
100
AcDbEntity
  8
0
  6
Continuous
 62
     2
100
AcDbLine
 10
243.9717286861633
 20
237.9746860208743
 30
0.0
 11
230.5248146560333
 21
230.2111065858083
 31
0.0
  0
LINE
  5
3EB
330
3E6
100
AcDbEntity
  8
0
  6
Continuous
 62
     2
100
AcDbLine
 10
251.8217286861636
 20
224.3780871814593
 30
0.0
 11
238.3748146560337
 21
216.6145077463933
 31
0.0
  0
SOLID
  5
3EC
330
3E6
100
AcDbEntity
  8
0
 62
     2
100
AcDbTrace
 10
227.9587646119255
 20
236.8125006707434
 30
0.0
 11
229.5549663152784
 21
237.7340681538552
 31
0.0
 12
232.2568654636021
 22
231.2111065858084
 32
0.0
 13
232.2568654636021
 23
231.2111065858084
 33
0.0
  0
SOLID
  5
3ED
330
3E6
100
AcDbEntity
  8
0
 62
     2
100
AcDbTrace
 10
244.4049663152792
 20
212.0131136614583
 30
0.0
 11
242.8087646119263
 21
211.0915461783465
 31
0.0
 12
240.1068654636025
 22
217.6145077463933
 32
0.0
 13
240.1068654636025
 23
217.6145077463933
 33
0.0
  0
MTEXT
  5
3EE
330
3E6
100
AcDbEntity
  8
0
 62
     7
100
AcDbMText
 10
219.8290106862934
 20
258.1367824891922
 30
0.0
 40
7.0
 41
0.0
 71
     7
 72
     1
  1
\C7;{\Fgdt;n}\C7;15,7
  7
CONVERTER_5
 11
0.5000000000000348
 21
-0.8660254037844186
 31
0.0
 73
     1
 44
0.60024009603842
  0
ENDBLK
  5
3F0
330
3E6
100
AcDbEntity
  8
0
100
AcDbBlockEnd
  0
BLOCK
  5
3FC
330
3F3
100
AcDbEntity
  8
0
100
AcDbBlockBegin
  2
*D117
 70
     1
 71
     0
 10
0.0
 20
0.0
 30
0.0
  3
*D117
  1

  0
LINE
  5
3F4
330
3F3
100
AcDbEntity
  8
1
  6
Continuous
 62
     2
100
AcDbLine
 10
346.6357852549027
 20
467.4491140017985
 30
0.0
 11
346.6357852549027
 21
481.4491140017985
 31
0.0
  0
LINE
  5
3F5
330
3F3
100
AcDbEntity
  8
1
  6
Continuous
 62
     2
100
AcDbLine
 10
346.6357852549027
 20
448.2091140017983
 30
0.0
 11
346.6357852549027
 21
467.4491140017985
 31
0.0
  0
LINE
  5
3F6
330
3F3
100
AcDbEntity
  8
1
  6
Continuous
 62
     2
100
AcDbLine
 10
346.6357852549027
 20
434.2091140017983
 30
0.0
 11
346.6357852549027
 21
448.2091140017983
 31
0.0
  0
LINE
  5
3F7
330
3F3
100
AcDbEntity
  8
1
  6
Continuous
 62
     2
100
AcDbLine
 10
330.0737957101229
 20
448.2091140017983
 30
0.0
 11
348.6357852549027
 21
448.2091140017983
 31
0.0
  0
LINE
  5
3F8
330
3F3
100
AcDbEntity
  8
1
  6
Continuous
 62
     2
100
AcDbLine
 10
333.5237957101236
 20
467.4491140017985
 30
0.0
 11
348.6357852549027
 21
467.4491140017985
 31
0.0
  0
SOLID
  5
3F9
330
3F3
100
AcDbEntity
  8
1
 62
     2
100
AcDbTrace
 10
347.5573527380145
 20
441.2091140017983
 30
0.0
 11
345.714217771791
 21
441.2091140017983
 31
0.0
 12
346.6357852549027
 22
448.2091140017983
 32
0.0
 13
346.6357852549027
 23
448.2091140017983
 33
0.0
  0
SOLID
  5
3FA
330
3F3
100
AcDbEntity
  8
1
 62
     2
100
AcDbTrace
 10
345.714217771791
 20
474.4491140017985
 30
0.0
 11
347.5573527380145
 21
474.4491140017985
 31
0.0
 12
346.6357852549027
 22
467.4491140017985
 32
0.0
 13
346.6357852549027
 23
467.4491140017985
 33
0.0
  0
MTEXT
  5
3FB
330
3F3
100
AcDbEntity
  8
1
 62
     7
100
AcDbMText
 10
344.6357852549027
 20
453.4982774457406
 30
0.0
 40
7.0
 41
0.0
 71
     7
 72
     1
  1
19
  7
CONVERTER_5
 11
0.0
 21
1.0
 31
0.0
 73
     1
 44
0.60024009603842
  0
ENDBLK
  5
3FD
330
3F3
100
AcDbEntity
  8
0
100
AcDbBlockEnd
  0
BLOCK
  5
407
330
400
100
AcDbEntity
  8
0
100
AcDbBlockBegin
  2
*D218
 70
     1
 71
     0
 10
0.0
 20
0.0
 30
0.0
  3
*D218
  1

  0
LINE
  5
401
330
400
100
AcDbEntity
  8
1
  6
Continuous
 62
     2
100
AcDbLine
 10
342.6373608577724
 20
207.2615417474635
 30
0.0
 11
342.6373608577724
 21
319.1615417474636
 31
0.0
  0
LINE
  5
402
330
400
100
AcDbEntity
  8
1
  6
Continuous
 62
     2
100
AcDbLine
 10
293.3873970294736
 20
207.2615417474635
 30
0.0
 11
344.6373608577724
 21
207.2615417474635
 31
0.0
  0
LINE
  5
403
330
400
100
AcDbEntity
  8
1
  6
Continuous
 62
     2
100
AcDbLine
 10
322.6373608577724
 20
319.1615417474636
 30
0.0
 11
344.6373608577724
 21
319.1615417474636
 31
0.0
  0
SOLID
  5
404
330
400
100
AcDbEntity
  8
1
 62
     2
100
AcDbTrace
 10
341.7157933746607
 20
214.2615417474635
 30
0.0
 11
343.5589283408842
 21
214.2615417474635
 31
0.0
 12
342.6373608577724
 22
207.2615417474635
 32
0.0
 13
342.6373608577724
 23
207.2615417474635
 33
0.0
  0
SOLID
  5
405
330
400
100
AcDbEntity
  8
1
 62
     2
100
AcDbTrace
 10
343.5589283408842
 20
312.1615417474636
 30
0.0
 11
341.7157933746607
 21
312.1615417474636
 31
0.0
 12
342.6373608577724
 22
319.1615417474636
 32
0.0
 13
342.6373608577724
 23
319.1615417474636
 33
0.0
  0
MTEXT
  5
406
330
400
100
AcDbEntity
  8
1
 62
     7
100
AcDbMText
 10
340.6373608577724
 20
231.9865164909904
 30
0.0
 40
7.0
 41
0.0
 71
     7
 72
     1
  1
113(開口寸法115)
  7
CONVERTER_1
 11
0.0
 21
1.0
 31
0.0
 73
     1
 44
0.60024009603842
  0
ENDBLK
  5
408
330
400
100
AcDbEntity
  8
0
100
AcDbBlockEnd
  0
BLOCK
  5
412
330
40B
100
AcDbEntity
  8
0
100
AcDbBlockBegin
  2
*D319
 70
     1
 71
     0
 10
0.0
 20
0.0
 30
0.0
  3
*D319
  1

  0
LINE
  5
40C
330
40B
100
AcDbEntity
  8
1
  6
Continuous
 62
     2
100
AcDbLine
 10
117.4622350164828
 20
439.5040284227302
 30
0.0
 11
200.6622350164835
 21
439.5040284227302
 31
0.0
  0
LINE
  5
40D
330
40B
100
AcDbEntity
  8
1
  6
Continuous
 62
     2
100
AcDbLine
 10
117.4622350164828
 20
423.0433134390373
 30
0.0
 11
117.4622350164828
 21
441.5040284227302
 31
0.0
  0
LINE
  5
40E
330
40B
100
AcDbEntity
  8
1
  6
Continuous
 62
     2
100
AcDbLine
 10
200.6622350164835
 20
423.0433134390373
 30
0.0
 11
200.6622350164835
 21
441.5040284227302
 31
0.0
  0
SOLID
  5
40F
330
40B
100
AcDbEntity
  8
1
 62
     2
100
AcDbTrace
 10
124.4622350164828
 20
440.4255959058419
 30
0.0
 11
124.4622350164828
 21
438.5824609396184
 31
0.0
 12
117.4622350164828
 22
439.5040284227302
 32
0.0
 13
117.4622350164828
 23
439.5040284227302
 33
0.0
  0
SOLID
  5
410
330
40B
100
AcDbEntity
  8
1
 62
     2
100
AcDbTrace
 10
193.6622350164835
 20
438.5824609396184
 30
0.0
 11
193.6622350164835
 21
440.4255959058419
 31
0.0
 12
200.6622350164835
 22
439.5040284227302
 32
0.0
 13
200.6622350164835
 23
439.5040284227302
 33
0.0
  0
MTEXT
  5
411
330
40B
100
AcDbEntity
  8
1
 62
     7
100
AcDbMText
 10
130.5308552590021
 20
441.5040284227302
 30
0.0
 40
7.0
 41
0.0
 71
     7
 72
     1
  1
84(開口寸法86)
  7
CONVERTER_1
 11
0.9999999999970621
 21
2.424068405545307E-6
 31
0.0
 73
     1
 44
0.60024009603842
  0
ENDBLK
  5
413
330
40B
100
AcDbEntity
  8
0
100
AcDbBlockEnd
  0
BLOCK
  5
41D
330
416
100
AcDbEntity
  8
0
100
AcDbBlockBegin
  2
*D420
 70
     1
 71
     0
 10
0.0
 20
0.0
 30
0.0
  3
*D420
  1

  0
LINE
  5
417
330
416
100
AcDbEntity
  8
1
  6
Continuous
 62
     2
100
AcDbLine
 10
275.3873970294736
 20
175.3727371955506
 30
0.0
 11
238.5441807864336
 21
175.3727371955506
 31
0.0
  0
LINE
  5
418
330
416
100
AcDbEntity
  8
1
  6
Continuous
 62
     2
100
AcDbLine
 10
275.3873970294736
 20
196.8615417474643
 30
0.0
 11
275.3873970294736
 21
173.3727371955506
 31
0.0
  0
LINE
  5
419
330
416
100
AcDbEntity
  8
1
  6
Continuous
 62
     2
100
AcDbLine
 10
238.5441807864336
 20
225.1119248119544
 30
0.0
 11
238.5441807864336
 21
173.3727371955506
 31
0.0
  0
SOLID
  5
41A
330
416
100
AcDbEntity
  8
1
 62
     2
100
AcDbTrace
 10
268.3873970294736
 20
174.4511697124388
 30
0.0
 11
268.3873970294736
 21
176.2943046786624
 31
0.0
 12
275.3873970294736
 22
175.3727371955506
 32
0.0
 13
275.3873970294736
 23
175.3727371955506
 33
0.0
  0
SOLID
  5
41B
330
416
100
AcDbEntity
  8
1
 62
     2
100
AcDbTrace
 10
245.5441807864336
 20
176.2943046786624
 30
0.0
 11
245.5441807864336
 21
174.4511697124388
 31
0.0
 12
238.5441807864336
 22
175.3727371955506
 32
0.0
 13
238.5441807864336
 23
175.3727371955506
 33
0.0
  0
MTEXT
  5
41C
330
416
100
AcDbEntity
  8
1
 62
     7
100
AcDbMText
 10
251.0527817615021
 20
177.3727371955506
 30
0.0
 40
7.0
 41
0.0
 71
     7
 72
     1
  1
37
  7
CONVERTER_5
 11
0.9999999999970621
 21
2.424068405545307E-6
 31
0.0
 73
     1
 44
0.60024009603842
  0
ENDBLK
  5
41E
330
416
100
AcDbEntity
  8
0
100
AcDbBlockEnd
  0
BLOCK
  5
428
330
421
100
AcDbEntity
  8
0
100
AcDbBlockBegin
  2
*D521
 70
     1
 71
     0
 10
0.0
 20
0.0
 30
0.0
  3
*D521
  1

  0
LINE
  5
422
330
421
100
AcDbEntity
  8
1
  6
Continuous
 62
     2
100
AcDbLine
 10
244.2773705940635
 20
374.5433134390373
 30
0.0
 11
244.2773705940635
 21
405.8308073823696
 31
0.0
  0
LINE
  5
423
330
421
100
AcDbEntity
  8
1
  6
Continuous
 62
     2
100
AcDbLine
 10
209.6622350164834
 20
374.5433134390373
 30
0.0
 11
246.2773705940635
 21
374.5433134390373
 31
0.0
  0
LINE
  5
424
330
421
100
AcDbEntity
  8
1
  6
Continuous
 62
     2
100
AcDbLine
 10
215.8624764183223
 20
405.8308073823696
 30
0.0
 11
246.2773705940635
 21
405.8308073823696
 31
0.0
  0
SOLID
  5
425
330
421
100
AcDbEntity
  8
1
 62
     2
100
AcDbTrace
 10
243.3558031109517
 20
381.5433134390373
 30
0.0
 11
245.1989380771753
 21
381.5433134390373
 31
0.0
 12
244.2773705940635
 22
374.5433134390373
 32
0.0
 13
244.2773705940635
 23
374.5433134390373
 33
0.0
  0
SOLID
  5
426
330
421
100
AcDbEntity
  8
1
 62
     2
100
AcDbTrace
 10
245.1989380771753
 20
398.8308073823696
 30
0.0
 11
243.3558031109517
 21
398.8308073823696
 31
0.0
 12
244.2773705940635
 22
405.8308073823696
 32
0.0
 13
244.2773705940635
 23
405.8308073823696
 33
0.0
  0
MTEXT
  5
427
330
421
100
AcDbEntity
  8
1
 62
     7
100
AcDbMText
 10
242.2773705940635
 20
379.9238621769954
 30
0.0
 40
7.0
 41
0.0
 71
     7
 72
     1
  1
8～15
  7
CONVERTER_1
 11
0.0
 21
1.0
 31
0.0
 73
     1
 44
0.60024009603842
  0
ENDBLK
  5
429
330
421
100
AcDbEntity
  8
0
100
AcDbBlockEnd
  0
BLOCK
  5
433
330
42C
100
AcDbEntity
  8
0
100
AcDbBlockBegin
  2
*D622
 70
     1
 71
     0
 10
0.0
 20
0.0
 30
0.0
  3
*D622
  1

  0
LINE
  5
42D
330
42C
100
AcDbEntity
  8
1
  6
Continuous
 62
     2
100
AcDbLine
 10
80.26199361465297
 20
327.0615417474623
 30
0.0
 11
80.26199361465297
 21
196.8615417474643
 31
0.0
  0
LINE
  5
42E
330
42C
100
AcDbEntity
  8
1
  6
Continuous
 62
     2
100
AcDbLine
 10
116.4622350164827
 20
327.0615417474623
 30
0.0
 11
78.26199361465297
 21
327.0615417474623
 31
0.0
  0
LINE
  5
42F
330
42C
100
AcDbEntity
  8
1
  6
Continuous
 62
     2
100
AcDbLine
 10
116.4622350164827
 20
196.8615417474643
 30
0.0
 11
78.26199361465297
 21
196.8615417474643
 31
0.0
  0
SOLID
  5
430
330
42C
100
AcDbEntity
  8
1
 62
     2
100
AcDbTrace
 10
81.18356109776474
 20
320.0615417474623
 30
0.0
 11
79.34042613154119
 21
320.0615417474623
 31
0.0
 12
80.26199361465297
 22
327.0615417474623
 32
0.0
 13
80.26199361465297
 23
327.0615417474623
 33
0.0
  0
SOLID
  5
431
330
42C
100
AcDbEntity
  8
1
 62
     2
100
AcDbTrace
 10
79.34042613154119
 20
203.8615417474643
 30
0.0
 11
81.18356109776474
 21
203.8615417474643
 31
0.0
 12
80.26199361465297
 22
196.8615417474643
 32
0.0
 13
80.26199361465297
 23
196.8615417474643
 33
0.0
  0
MTEXT
  5
432
330
42C
100
AcDbEntity
  8
1
 62
     7
100
AcDbMText
 10
78.26199361465297
 20
253.3665940919115
 30
0.0
 40
7.0
 41
0.0
 71
     7
 72
     1
  1
131
  7
CONVERTER_5
 11
0.0
 21
1.0
 31
0.0
 73
     1
 44
0.60024009603842
  0
ENDBLK
  5
434
330
42C
100
AcDbEntity
  8
0
100
AcDbBlockEnd
  0
BLOCK
  5
43E
330
437
100
AcDbEntity
  8
0
100
AcDbBlockBegin
  2
*D723
 70
     1
 71
     0
 10
0.0
 20
0.0
 30
0.0
  3
*D723
  1

  0
LINE
  5
438
330
437
100
AcDbEntity
  8
1
  6
Continuous
 62
     2
100
AcDbLine
 10
108.4622350164827
 20
166.2115417474633
 30
0.0
 11
209.6622350164835
 21
166.2115417474633
 31
0.0
  0
LINE
  5
439
330
437
100
AcDbEntity
  8
1
  6
Continuous
 62
     2
100
AcDbLine
 10
108.4622350164827
 20
204.8615417474643
 30
0.0
 11
108.4622350164827
 21
164.2115417474633
 31
0.0
  0
LINE
  5
43A
330
437
100
AcDbEntity
  8
1
  6
Continuous
 62
     2
100
AcDbLine
 10
209.6622350164835
 20
204.8615417474643
 30
0.0
 11
209.6622350164835
 21
164.2115417474633
 31
0.0
  0
SOLID
  5
43B
330
437
100
AcDbEntity
  8
1
 62
     2
100
AcDbTrace
 10
115.4622350164827
 20
167.1331092305751
 30
0.0
 11
115.4622350164827
 21
165.2899742643515
 31
0.0
 12
108.4622350164827
 22
166.2115417474633
 32
0.0
 13
108.4622350164827
 23
166.2115417474633
 33
0.0
  0
SOLID
  5
43C
330
437
100
AcDbEntity
  8
1
 62
     2
100
AcDbTrace
 10
202.6622350164835
 20
165.2899742643515
 30
0.0
 11
202.6622350164835
 21
167.1331092305751
 31
0.0
 12
209.6622350164835
 22
166.2115417474633
 32
0.0
 13
209.6622350164835
 23
166.2115417474633
 33
0.0
  0
MTEXT
  5
43D
330
437
100
AcDbEntity
  8
1
 62
     7
100
AcDbMText
 10
151.1034101144036
 20
168.2115417474633
 30
0.0
 40
7.0
 41
0.0
 71
     7
 72
     1
  1
102
  7
CONVERTER_5
 11
0.9999999999970621
 21
2.424068405545307E-6
 31
0.0
 73
     1
 44
0.60024009603842
  0
ENDBLK
  5
43F
330
437
100
AcDbEntity
  8
0
100
AcDbBlockEnd
  0
BLOCK
  5
448
330
442
100
AcDbEntity
  8
0
100
AcDbBlockBegin
  2
*D824
 70
     1
 71
     0
 10
0.0
 20
0.0
 30
0.0
  3
*D824
  1

  0
LINE
  5
443
330
442
100
AcDbEntity
  8
1
  6
Continuous
 62
     2
100
AcDbLine
 10
275.3873970294735
 20
349.0615417474623
 30
0.0
 11
303.4373608577735
 21
349.0615417474623
 31
0.0
  0
LINE
  5
444
330
442
100
AcDbEntity
  8
1
  6
Continuous
 62
     2
100
AcDbLine
 10
275.3873970294735
 20
327.0615417474623
 30
0.0
 11
275.3873970294735
 21
351.0615417474623
 31
0.0
  0
LINE
  5
445
330
442
100
AcDbEntity
  8
1
  6
Continuous
 62
     2
100
AcDbLine
 10
303.4373608577735
 20
307.8766310846544
 30
0.0
 11
303.4373608577735
 21
351.0615417474623
 31
0.0
  0
SOLID
  5
446
330
442
100
AcDbEntity
  8
1
 62
     2
100
AcDbTrace
 10
296.4373608577735
 20
348.1399742643505
 30
0.0
 11
296.4373608577735
 21
349.983109230574
 31
0.0
 12
303.4373608577735
 22
349.0615417474623
 32
0.0
 13
303.4373608577735
 23
349.0615417474623
 33
0.0
  0
MTEXT
  5
447
330
442
100
AcDbEntity
  8
1
 62
     7
100
AcDbMText
 10
283.0077893338221
 20
351.0615417474623
 30
0.0
 40
7.0
 41
0.0
 71
     7
 72
     1
  1
29
  7
CONVERTER_5
 11
0.9999999999970621
 21
2.424068405545307E-6
 31
0.0
 73
     1
 44
0.60024009603842
  0
ENDBLK
  5
449
330
442
100
AcDbEntity
  8
0
100
AcDbBlockEnd
  0
BLOCK
  5
44B
330
44A
100
AcDbEntity
  8
0
100
AcDbBlockBegin
  2
_None
 70
     0
 71
     0
 10
0.0
 20
0.0
 30
0.0
  3
_None
  1

  0
ENDBLK
  5
44C
330
44A
100
AcDbEntity
  8
0
100
AcDbBlockEnd
  0
BLOCK
  5
458
330
44F
100
AcDbEntity
  8
0
100
AcDbBlockBegin
  2
*D926
 70
     1
 71
     0
 10
0.0
 20
0.0
 30
0.0
  3
*D926
  1

  0
LINE
  5
450
330
44F
100
AcDbEntity
  8
1
  6
Continuous
 62
     2
100
AcDbLine
 10
268.6373970294736
 20
349.0615417474623
 30
0.0
 11
254.6373970294736
 21
349.0615417474623
 31
0.0
  0
LINE
  5
451
330
44F
100
AcDbEntity
  8
1
  6
Continuous
 62
     2
100
AcDbLine
 10
275.3873970294736
 20
349.0615417474623
 30
0.0
 11
268.6373970294736
 21
349.0615417474623
 31
0.0
  0
LINE
  5
452
330
44F
100
AcDbEntity
  8
1
  6
Continuous
 62
     2
100
AcDbLine
 10
289.3873970294736
 20
349.0615417474623
 30
0.0
 11
275.3873970294736
 21
349.0615417474623
 31
0.0
  0
LINE
  5
453
330
44F
100
AcDbEntity
  8
1
  6
Continuous
 62
     2
100
AcDbLine
 10
275.3873970294736
 20
327.0615417474623
 30
0.0
 11
275.3873970294736
 21
351.0615417474623
 31
0.0
  0
LINE
  5
454
330
44F
100
AcDbEntity
  8
1
  6
Continuous
 62
     2
100
AcDbLine
 10
268.6373970294736
 20
325.0615417474623
 30
0.0
 11
268.6373970294736
 21
351.0615417474623
 31
0.0
  0
SOLID
  5
455
330
44F
100
AcDbEntity
  8
1
 62
     2
100
AcDbTrace
 10
282.3873970294736
 20
349.983109230574
 30
0.0
 11
282.3873970294736
 21
348.1399742643505
 31
0.0
 12
275.3873970294736
 22
349.0615417474623
 32
0.0
 13
275.3873970294736
 23
349.0615417474623
 33
0.0
  0
SOLID
  5
456
330
44F
100
AcDbEntity
  8
1
 62
     2
100
AcDbTrace
 10
261.6373970294736
 20
348.1399742643505
 30
0.0
 11
261.6373970294736
 21
349.983109230574
 31
0.0
 12
268.6373970294736
 22
349.0615417474623
 32
0.0
 13
268.6373970294736
 23
349.0615417474623
 33
0.0
  0
MTEXT
  5
457
330
44F
100
AcDbEntity
  8
1
 62
     7
100
AcDbMText
 10
254.669239544552
 20
351.0615417474623
 30
0.0
 40
7.0
 41
0.0
 71
     7
 72
     1
  1
7
  7
CONVERTER_5
 11
0.9999999999970621
 21
2.424068405545307E-6
 31
0.0
 73
     1
 44
0.60024009603842
  0
ENDBLK
  5
459
330
44F
100
AcDbEntity
  8
0
100
AcDbBlockEnd
  0
BLOCK
  5
463
330
45C
100
AcDbEntity
  8
0
100
AcDbBlockBegin
  2
*D1027
 70
     1
 71
     0
 10
0.0
 20
0.0
 30
0.0
  3
*D1027
  1

  0
LINE
  5
45D
330
45C
100
AcDbEntity
  8
1
  6
Continuous
 62
     2
100
AcDbLine
 10
275.3873970294735
 20
365.0615417474623
 30
0.0
 11
324.6373608577724
 21
365.0615417474623
 31
0.0
  0
LINE
  5
45E
330
45C
100
AcDbEntity
  8
1
  6
Continuous
 62
     2
100
AcDbLine
 10
275.3873970294735
 20
327.0615417474623
 30
0.0
 11
275.3873970294735
 21
367.0615417474623
 31
0.0
  0
LINE
  5
45F
330
45C
100
AcDbEntity
  8
1
  6
Continuous
 62
     2
100
AcDbLine
 10
324.6373608577724
 20
316.6615417474636
 30
0.0
 11
324.6373608577724
 21
367.0615417474623
 31
0.0
  0
SOLID
  5
460
330
45C
100
AcDbEntity
  8
1
 62
     2
100
AcDbTrace
 10
282.3873970294735
 20
365.983109230574
 30
0.0
 11
282.3873970294735
 21
364.1399742643505
 31
0.0
 12
275.3873970294735
 22
365.0615417474623
 32
0.0
 13
275.3873970294735
 23
365.0615417474623
 33
0.0
  0
SOLID
  5
461
330
45C
100
AcDbEntity
  8
1
 62
     2
100
AcDbTrace
 10
317.6373608577724
 20
364.1399742643505
 30
0.0
 11
317.6373608577724
 21
365.983109230574
 31
0.0
 12
324.6373608577724
 22
365.0615417474623
 32
0.0
 13
324.6373608577724
 23
365.0615417474623
 33
0.0
  0
MTEXT
  5
462
330
45C
100
AcDbEntity
  8
1
 62
     7
100
AcDbMText
 10
294.6531976153419
 20
367.0615417474623
 30
0.0
 40
7.0
 41
0.0
 71
     7
 72
     1
  1
50
  7
CONVERTER_5
 11
0.9999999999970621
 21
2.424068405545307E-6
 31
0.0
 73
     1
 44
0.60024009603842
  0
ENDBLK
  5
464
330
45C
100
AcDbEntity
  8
0
100
AcDbBlockEnd
  0
BLOCK
  5
46E
330
467
100
AcDbEntity
  8
0
100
AcDbBlockBegin
  2
*D1128
 70
     1
 71
     0
 10
0.0
 20
0.0
 30
0.0
  3
*D1128
  1

  0
LINE
  5
468
330
467
100
AcDbEntity
  8
1
  6
Continuous
 62
     2
100
AcDbLine
 10
102.261993614653
 20
455.4486856812805
 30
0.0
 11
215.8624764183224
 21
455.4486856812805
 31
0.0
  0
LINE
  5
469
330
467
100
AcDbEntity
  8
1
  6
Continuous
 62
     2
100
AcDbLine
 10
102.261993614653
 20
406.8308073823696
 30
0.0
 11
102.261993614653
 21
457.4486856812805
 31
0.0
  0
LINE
  5
46A
330
467
100
AcDbEntity
  8
1
  6
Continuous
 62
     2
100
AcDbLine
 10
215.8624764183224
 20
406.8308073823696
 30
0.0
 11
215.8624764183224
 21
457.4486856812805
 31
0.0
  0
SOLID
  5
46B
330
467
100
AcDbEntity
  8
1
 62
     2
100
AcDbTrace
 10
109.261993614653
 20
456.3702531643922
 30
0.0
 11
109.261993614653
 21
454.5271181981688
 31
0.0
 12
102.261993614653
 22
455.4486856812805
 32
0.0
 13
102.261993614653
 23
455.4486856812805
 33
0.0
  0
SOLID
  5
46C
330
467
100
AcDbEntity
  8
1
 62
     2
100
AcDbTrace
 10
208.8624764183224
 20
454.5271181981688
 30
0.0
 11
208.8624764183224
 21
456.3702531643922
 31
0.0
 12
215.8624764183224
 22
455.4486856812805
 32
0.0
 13
215.8624764183224
 23
455.4486856812805
 33
0.0
  0
MTEXT
  5
46D
330
467
100
AcDbEntity
  8
1
 62
     7
100
AcDbMText
 10
153.3800005339028
 20
457.4486856812805
 30
0.0
 40
7.0
 41
0.0
 71
     7
 72
     1
  1
114
  7
CONVERTER_5
 11
0.9999999999970621
 21
2.424068405545307E-6
 31
0.0
 73
     1
 44
0.60024009603842
  0
ENDBLK
  5
46F
330
467
100
AcDbEntity
  8
0
100
AcDbBlockEnd
  0
BLOCK
  5
479
330
472
100
AcDbEntity
  8
0
100
AcDbBlockBegin
  2
*D1229
 70
     1
 71
     0
 10
0.0
 20
0.0
 30
0.0
  3
*D1229
  1

  0
LINE
  5
473
330
472
100
AcDbEntity
  8
0
  6
Continuous
 62
     2
100
AcDbLine
 10
342.548832622002
 20
207.2615417474636
 30
0.0
 11
342.548832622002
 21
184.2115417474629
 31
0.0
  0
LINE
  5
474
330
472
100
AcDbEntity
  8
0
  6
Continuous
 62
     2
100
AcDbLine
 10
293.3873970294735
 20
207.2615417474636
 30
0.0
 11
344.548832622002
 21
207.2615417474636
 31
0.0
  0
LINE
  5
475
330
472
100
AcDbEntity
  8
0
  6
Continuous
 62
     2
100
AcDbLine
 10
290.9373608577735
 20
184.2115417474629
 30
0.0
 11
344.548832622002
 21
184.2115417474629
 31
0.0
  0
SOLID
  5
476
330
472
100
AcDbEntity
  8
0
 62
     2
100
AcDbTrace
 10
343.4704001051138
 20
200.2615417474636
 30
0.0
 11
341.6272651388903
 21
200.2615417474636
 31
0.0
 12
342.548832622002
 22
207.2615417474636
 32
0.0
 13
342.548832622002
 23
207.2615417474636
 33
0.0
  0
SOLID
  5
477
330
472
100
AcDbEntity
  8
0
 62
     2
100
AcDbTrace
 10
341.6272651388903
 20
191.2115417474629
 30
0.0
 11
343.4704001051138
 21
191.2115417474629
 31
0.0
 12
342.548832622002
 22
184.2115417474629
 32
0.0
 13
342.548832622002
 23
184.2115417474629
 33
0.0
  0
MTEXT
  5
478
330
472
100
AcDbEntity
  8
0
 62
     7
100
AcDbMText
 10
340.548832622002
 20
190.4763832328304
 30
0.0
 40
7.0
 41
0.0
 71
     7
 72
     1
  1
23
  7
CONVERTER_5
 11
0.0
 21
1.0
 31
0.0
 73
     1
 44
0.60024009603842
  0
ENDBLK
  5
47A
330
472
100
AcDbEntity
  8
0
100
AcDbBlockEnd
  0
BLOCK
  5
486
330
47D
100
AcDbEntity
  8
0
100
AcDbBlockBegin
  2
*D1330
 70
     1
 71
     0
 10
0.0
 20
0.0
 30
0.0
  3
*D1330
  1

  0
LINE
  5
47E
330
47D
100
AcDbEntity
  8
0
  6
Continuous
 62
     2
100
AcDbLine
 10
80.24409164780263
 20
184.2115417474633
 30
0.0
 11
80.24409164780263
 21
170.2115417474633
 31
0.0
  0
LINE
  5
47F
330
47D
100
AcDbEntity
  8
0
  6
Continuous
 62
     2
100
AcDbLine
 10
80.24409164780263
 20
196.8615417474643
 30
0.0
 11
80.24409164780263
 21
184.2115417474633
 31
0.0
  0
LINE
  5
480
330
47D
100
AcDbEntity
  8
0
  6
Continuous
 62
     2
100
AcDbLine
 10
80.24409164780263
 20
210.8615417474643
 30
0.0
 11
80.24409164780263
 21
196.8615417474643
 31
0.0
  0
LINE
  5
481
330
47D
100
AcDbEntity
  8
0
  6
Continuous
 62
     2
100
AcDbLine
 10
116.4622350164827
 20
196.8615417474643
 30
0.0
 11
78.24409164780263
 21
196.8615417474643
 31
0.0
  0
LINE
  5
482
330
47D
100
AcDbEntity
  8
0
  6
Continuous
 62
     2
100
AcDbLine
 10
146.5622350164831
 20
184.2115417474633
 30
0.0
 11
78.24409164780263
 21
184.2115417474633
 31
0.0
  0
SOLID
  5
483
330
47D
100
AcDbEntity
  8
0
 62
     2
100
AcDbTrace
 10
79.32252416469086
 20
203.8615417474643
 30
0.0
 11
81.16565913091441
 21
203.8615417474643
 31
0.0
 12
80.24409164780263
 22
196.8615417474643
 32
0.0
 13
80.24409164780263
 23
196.8615417474643
 33
0.0
  0
SOLID
  5
484
330
47D
100
AcDbEntity
  8
0
 62
     2
100
AcDbTrace
 10
81.16565913091441
 20
177.2115417474633
 30
0.0
 11
79.32252416469086
 21
177.2115417474633
 31
0.0
 12
80.24409164780263
 22
184.2115417474633
 32
0.0
 13
80.24409164780263
 23
184.2115417474633
 33
0.0
  0
MTEXT
  5
485
330
47D
100
AcDbEntity
  8
0
 62
     7
100
AcDbMText
 10
78.24409164780263
 20
186.5372298143905
 30
0.0
 40
7.0
 41
0.0
 71
     7
 72
     1
  1
13
  7
CONVERTER_5
 11
0.0
 21
1.0
 31
0.0
 73
     1
 44
0.60024009603842
  0
ENDBLK
  5
487
330
47D
100
AcDbEntity
  8
0
100
AcDbBlockEnd
  0
ENDSEC
  0
SECTION
  2
ENTITIES
  0
INSERT
  5
63
330
1F
100
AcDbEntity
  8
1
100
AcDbBlockReference
  2
_J__A4
 10
0.0
 20
0.0
 30
0.0
 41
2.0
 42
2.0
 43
2.0
  0
INSERT
  5
64
330
1F
100
AcDbEntity
  8
0
100
AcDbBlockReference
  2
V097-H7A
 10
-5.68561283632698
 20
901.8037120855315
 30
0.0
  0
INSERT
  5
65
330
1F
100
AcDbEntity
  8
0
100
AcDbBlockReference
  2
88-249
 10
421.0985433293336
 20
494.5003571639873
 30
0.0
  0
INSERT
  5
66
330
1F
100
AcDbEntity
  8
0
100
AcDbBlockReference
  2
V97-30-Z1__1
 10
523.5237957101235
 20
245.2091140017974
 30
0.0
  0
INSERT
  5
67
330
1F
100
AcDbEntity
  8
0
100
AcDbBlockReference
  2
V97-30-Z1__2
 10
533.5237957101235
 20
245.2091140017974
 30
0.0
  0
INSERT
  5
68
330
1F
100
AcDbEntity
  8
0
100
AcDbBlockReference
  2
V97-H11
 10
862.3280369887525
 20
685.7110138622475
 30
0.0
  0
INSERT
  5
69
330
1F
100
AcDbEntity
  8
0
100
AcDbBlockReference
  2
V97-H12
 10
926.2785367806628
 20
110.0742841342594
 30
0.0
  0
INSERT
  5
6A
330
1F
100
AcDbEntity
  8
1
100
AcDbBlockReference
  2
BIS
 10
293.3873970294735
 20
236.9115417474623
 30
0.0
  0
INSERT
  5
6B
330
1F
100
AcDbEntity
  8
1
100
AcDbBlockReference
  2
BIS2
 10
322.4373608577735
 20
241.6615417474623
 30
0.0
  0
INSERT
  5
6C
330
1F
100
AcDbEntity
  8
0
100
AcDbBlockReference
  2
V97D-H1
 10
267.7428990394928
 20
550.3655894582525
 30
0.0
  0
INSERT
  5
6D
330
1F
100
AcDbEntity
  8
0
100
AcDbBlockReference
  2
V972GN-H6
 10
670.1942668694719
 20
-352.0449149465708
 30
0.0
  0
INSERT
  5
6E
330
1F
100
AcDbEntity
  8
0
100
AcDbBlockReference
  2
V972GN-H2
 10
912.1984615885431
 20
224.3780871814583
 30
0.0
  0
INSERT
  5
6F
330
1F
100
AcDbEntity
  8
0
100
AcDbBlockReference
  2
V97G-H2
 10
720.2493527503229
 20
109.8266458540315
 30
0.0
  0
INSERT
  5
70
330
1F
100
AcDbEntity
  8
0
100
AcDbBlockReference
  2
V97G-H3
 10
674.8123589812221
 20
473.5387685545484
 30
0.0
  0
INSERT
  5
71
330
1F
100
AcDbEntity
  8
0
100
AcDbBlockReference
  2
V972GN-H3
 10
832.9542668694721
 20
231.7115417474633
 30
0.0
  0
LINE
  5
3A9
330
1F
100
AcDbEntity
  8
1
  6
DASH_CENTER
 62
     2
100
AcDbLine
 10
242.2400023427435
 20
228.0259441779003
 30
0.0
 11
239.8155066835826
 21
220.0700005279277
 31
0.0
  0
LINE
  5
3AA
330
1F
100
AcDbEntity
  8
1
  6
DASH_CENTER
 62
     2
100
AcDbLine
 10
330.0737957101228
 20
442.2091140017983
 30
0.0
 11
330.0737957101228
 21
473.4491140017985
 31
0.0
  0
LINE
  5
3AB
330
1F
100
AcDbEntity
  8
1
  6
DASH_CENTER
 62
     2
100
AcDbLine
 10
320.0737957101228
 20
473.4491140017985
 30
0.0
 11
320.0737957101228
 21
442.2091140017983
 31
0.0
  0
LINE
  5
3AC
330
1F
100
AcDbEntity
  8
1
  6
DASH_CENTER
 62
     2
100
AcDbLine
 10
181.6622350164835
 20
401.0433134390373
 30
0.0
 11
181.6622350164835
 21
409.0433134390373
 31
0.0
  0
LINE
  5
3AD
330
1F
100
AcDbEntity
  8
1
  6
DASH_CENTER
 62
     2
100
AcDbLine
 10
177.6622350164835
 20
405.0433134390373
 30
0.0
 11
185.6622350164835
 21
405.0433134390373
 31
0.0
  0
LINE
  5
3AE
330
1F
100
AcDbEntity
  8
1
  6
DASH_CENTER
 62
     2
100
AcDbLine
 10
136.4622350164827
 20
401.0433134390373
 30
0.0
 11
136.4622350164827
 21
409.0433134390373
 31
0.0
  0
LINE
  5
3AF
330
1F
100
AcDbEntity
  8
1
  6
DASH_CENTER
 62
     2
100
AcDbLine
 10
132.4622350164827
 20
405.0433134390373
 30
0.0
 11
140.4622350164827
 21
405.0433134390373
 31
0.0
  0
LINE
  5
3B0
330
1F
100
AcDbEntity
  8
1
  6
DASH_CENTER
 62
     2
100
AcDbLine
 10
173.8622350164824
 20
245.2115417474633
 30
0.0
 11
144.262235016482
 21
245.2115417474633
 31
0.0
  0
LINE
  5
3B1
330
1F
100
AcDbEntity
  8
0
  6
DASH_CENTER
 62
     2
100
AcDbLine
 10
272.0063304916621
 20
245.2115417474633
 30
0.0
 11
303.4373608577735
 21
245.2115417474633
 31
0.0
  0
LINE
  5
3B2
330
1F
100
AcDbEntity
  8
0
  6
DASH_CENTER
 62
     2
100
AcDbLine
 10
242.2400023427435
 20
228.0259441779003
 30
0.0
 11
272.0063304916621
 21
245.2115417474633
 31
0.0
  0
LINE
  5
3B3
330
1F
100
AcDbEntity
  8
1
  6
DASH_CENTER
 62
     2
100
AcDbLine
 10
159.0622350164831
 20
428.0433134390373
 30
0.0
 11
159.0622350164831
 21
334.5433134390364
 31
0.0
  0
LINE
  5
3B4
330
1F
100
AcDbEntity
  8
0
  6
DASH_CENTER
 62
     2
100
AcDbLine
 10
328.1376632936026
 20
292.4115417474623
 30
0.0
 11
272.425770279222
 21
292.4115417474623
 31
0.0
  0
LINE
  5
3B5
330
1F
100
AcDbEntity
  8
0
  6
DASH_CENTER
 62
     2
100
AcDbLine
 10
327.6664436469837
 20
238.9115417474623
 30
0.0
 11
272.425770279222
 21
238.9115417474623
 31
0.0
  0
LINE
  5
3B6
330
1F
100
AcDbEntity
  8
0
  6
DASH_CENTER
 62
     2
100
AcDbLine
 10
328.1376632936026
 20
282.9115417474623
 30
0.0
 11
272.425770279222
 21
282.9115417474623
 31
0.0
  0
LINE
  5
3B7
330
1F
100
AcDbEntity
  8
0
  6
DASH_CENTER
 62
     2
100
AcDbLine
 10
318.0654692912322
 20
241.7115417474633
 30
0.0
 11
329.5502466770831
 21
241.7115417474633
 31
0.0
  0
LINE
  5
3B8
330
1F
100
AcDbEntity
  8
0
  6
DASH_CENTER
 62
     2
100
AcDbLine
 10
325.8333507866937
 20
269.4115417474623
 30
0.0
 11
259.1873970294728
 21
269.4115417474623
 31
0.0
  0
LINE
  5
3B9
330
1F
100
AcDbEntity
  8
0
  6
DASH_CENTER
 62
     2
100
AcDbLine
 10
303.4373608577735
 20
177.7115417474633
 30
0.0
 11
303.4373608577735
 21
307.8766310846545
 31
0.0
  0
LINE
  5
3BA
330
1F
100
AcDbEntity
  8
0
  6
DASH_CENTER
 62
     2
100
AcDbLine
 10
214.0834536687034
 20
269.4115417474623
 30
0.0
 11
103.4206706255827
 21
269.4115417474623
 31
0.0
  0
LINE
  5
3BB
330
1F
100
AcDbEntity
  8
0
  6
DASH_CENTER
 62
     2
100
AcDbLine
 10
159.0622350164831
 20
331.5615417474623
 30
0.0
 11
159.0622350164831
 21
178.2115417474633
 31
0.0
  0
LINE
  5
3BC
330
1F
100
AcDbEntity
  8
0
  6
DASH_CENTER
 62
     2
100
AcDbLine
 10
179.5622350164831
 20
292.3115417474633
 30
0.0
 11
148.5123355638625
 21
292.3115417474633
 31
0.0
  0
LINE
  5
3BD
330
1F
100
AcDbEntity
  8
0
  6
DASH_CENTER
 62
     2
100
AcDbLine
 10
148.8122350164831
 20
292.3115417474633
 30
0.0
 11
138.5622350164831
 21
292.3115417474633
 31
0.0
  0
LINE
  5
3BE
330
1F
100
AcDbEntity
  8
0
  6
Continuous
 62
     7
100
AcDbLine
 10
146.5622350164831
 20
184.2115417474633
 30
0.0
 11
168.9969547129822
 21
184.2115417474633
 31
0.0
  0
LINE
  5
3BF
330
1F
100
AcDbEntity
  8
0
  6
Continuous
 62
     7
100
AcDbLine
 10
146.5622350164831
 20
184.2115417474633
 30
0.0
 11
146.0622350164831
 21
184.7115417474633
 31
0.0
  0
LINE
  5
3C0
330
1F
100
AcDbEntity
  8
0
  6
Continuous
 62
     7
100
AcDbLine
 10
172.0622350164831
 20
184.7115417474633
 30
0.0
 11
171.5622350164831
 21
184.2115417474633
 31
0.0
  0
LINE
  5
3C1
330
1F
100
AcDbEntity
  8
0
  6
Continuous
 62
     7
100
AcDbLine
 10
146.0622350164831
 20
184.7115417474633
 30
0.0
 11
172.0622350164831
 21
184.7115417474633
 31
0.0
  0
LINE
  5
3C2
330
1F
100
AcDbEntity
  8
0
  6
Continuous
 62
     7
100
AcDbLine
 10
290.4373608577735
 20
184.7115417474633
 30
0.0
 11
290.9373608577735
 21
184.2115417474633
 31
0.0
  0
LINE
  5
3C3
330
1F
100
AcDbEntity
  8
0
  6
Continuous
 62
     7
100
AcDbLine
 10
316.4373608577735
 20
184.7115417474633
 30
0.0
 11
290.4373608577735
 21
184.7115417474633
 31
0.0
  0
LINE
  5
3C4
330
1F
100
AcDbEntity
  8
0
  6
Continuous
 62
     7
100
AcDbLine
 10
315.9373608577735
 20
184.2115417474633
 30
0.0
 11
313.3720805542725
 21
184.2115417474633
 31
0.0
  0
LINE
  5
3C5
330
1F
100
AcDbEntity
  8
0
  6
Continuous
 62
     7
100
AcDbLine
 10
316.4373608577735
 20
184.7115417474633
 30
0.0
 11
315.9373608577735
 21
184.2115417474633
 31
0.0
  0
LINE
  5
3C6
330
1F
100
AcDbEntity
  8
0
  6
Continuous
 62
     7
100
AcDbLine
 10
316.4373608577735
 20
184.2115417474633
 30
0.0
 11
315.9373608577735
 21
184.2115417474633
 31
0.0
  0
LINE
  5
3C7
330
1F
100
AcDbEntity
  8
0
  6
Continuous
 62
     7
100
AcDbLine
 10
316.4373608577735
 20
219.6615417474623
 30
0.0
 11
316.4373608577735
 21
184.7115417474633
 31
0.0
  0
LINE
  5
3C8
330
1F
100
AcDbEntity
  8
0
  6
Continuous
 62
     7
100
AcDbLine
 10
293.4165472209425
 20
184.2115417474633
 30
0.0
 11
290.9373608577735
 21
184.2115417474633
 31
0.0
  0
LINE
  5
3C9
330
1F
100
AcDbEntity
  8
0
  6
Continuous
 62
     7
100
AcDbLine
 10
313.3720805542725
 20
184.2115417474633
 30
0.0
 11
293.4165472209425
 21
184.2115417474633
 31
0.0
  0
LINE
  5
3CA
330
1F
100
AcDbEntity
  8
0
  6
Continuous
 62
     7
100
AcDbLine
 10
168.9969547129822
 20
184.2115417474633
 30
0.0
 11
171.5622350164831
 21
184.2115417474633
 31
0.0
  0
LINE
  5
3CB
330
1F
100
AcDbEntity
  8
1
  6
Continuous
 62
     7
100
AcDbLine
 10
298.4373608577735
 20
207.4115417474636
 30
0.0
 11
298.4373608577735
 21
219.6615417474623
 31
0.0
  0
LINE
  5
3CC
330
1F
100
AcDbEntity
  8
1
  6
Continuous
 62
     7
100
AcDbLine
 10
308.4373608577735
 20
219.6615417474623
 30
0.0
 11
308.4373608577735
 21
207.4115417474636
 31
0.0
  0
LINE
  5
3CD
330
1F
100
AcDbEntity
  8
1
  6
Continuous
 62
     7
100
AcDbLine
 10
308.4373608577735
 20
207.4115417474636
 30
0.0
 11
298.4373608577735
 21
207.4115417474636
 31
0.0
  0
LINE
  5
3CE
330
1F
100
AcDbEntity
  8
1
  6
Continuous
 62
     2
100
AcDbLine
 10
298.4373608577735
 20
207.4115417474636
 30
0.0
 11
308.4373608577735
 21
219.6615417474623
 31
0.0
  0
LINE
  5
3CF
330
1F
100
AcDbEntity
  8
1
  6
Continuous
 62
     2
100
AcDbLine
 10
308.4373608577735
 20
207.4115417474636
 30
0.0
 11
298.4373608577735
 21
219.6615417474623
 31
0.0
  0
LINE
  5
3D0
330
1F
100
AcDbEntity
  8
0
  6
Continuous
 62
     7
100
AcDbLine
 10
146.0622350164831
 20
196.8615417474643
 30
0.0
 11
146.0622350164831
 21
184.7115417474633
 31
0.0
  0
LINE
  5
3D1
330
1F
100
AcDbEntity
  8
0
  6
Continuous
 62
     7
100
AcDbLine
 10
172.0622350164831
 20
196.8615417474643
 30
0.0
 11
172.0622350164831
 21
184.7115417474633
 31
0.0
  0
LINE
  5
3D2
330
1F
100
AcDbEntity
  8
0
  6
Continuous
 62
     7
100
AcDbLine
 10
290.4373608577735
 20
207.2615417474635
 30
0.0
 11
290.4373608577735
 21
184.7115417474633
 31
0.0
  0
ARC
  5
3D3
330
1F
100
AcDbEntity
  8
1
  6
Continuous
 62
     7
100
AcDbCircle
 10
303.4373608577735
 20
219.4115417474663
 30
0.0
 40
13.00000000000249
100
AcDbArc
 50
-112.6198649480359
 51
-67.38013505196415
  0
LWPOLYLINE
  5
3D4
330
1F
100
AcDbEntity
  8
0
  6
Continuous
 62
     7
 60
     1
100
AcDbPolyline
 90
        4
 70
     0
 43
0.0
 10
272.7373608577727
 20
249.7115417474633
 10
291.9373608577735
 20
249.7115417474633
 10
291.9373608577735
 20
252.2115417474633
 10
290.9373608577735
 20
252.2115417474633
  0
LWPOLYLINE
  5
3D5
330
1F
100
AcDbEntity
  8
0
  6
Continuous
 62
     7
 60
     1
100
AcDbPolyline
 90
        3
 70
     0
 43
0.0
 10
263.3373608577731
 20
240.1115417474634
 10
272.7373608577727
 20
240.1115417474634
 10
272.7373608577727
 20
240.7115417474633
  0
LWPOLYLINE
  5
3D6
330
1F
100
AcDbEntity
  8
1
  6
Continuous
 62
     7
 60
     1
100
AcDbPolyline
 90
        3
 70
     0
 43
0.0
 10
269.8873970294735
 20
315.2615417474635
 10
293.3873970294735
 20
315.2615417474635
 10
293.3873970294735
 20
316.7615417474635
  0
LWPOLYLINE
  5
3D7
330
1F
100
AcDbEntity
  8
0
  6
Continuous
 62
     7
 60
     1
100
AcDbPolyline
 90
        2
 70
     0
 43
0.0
 10
293.4165472209425
 20
184.2115417474633
 10
293.4165472209425
 20
200.2115417474633
  0
LWPOLYLINE
  5
3D8
330
1F
100
AcDbEntity
  8
0
  6
Continuous
 62
     7
 60
     1
100
AcDbPolyline
 90
        2
 70
     0
 43
0.0
 10
313.3720805542725
 20
184.2115417474633
 10
316.4373608577735
 20
184.2115417474633
  0
SOLID
  5
3D9
330
1F
100
AcDbEntity
  8
1
 62
     2
100
AcDbTrace
 10
315.9318965617984
 20
444.1803055966507
 30
0.0
 11
314.3356948584455
 21
445.1018730797625
 31
0.0
 12
318.6337957101223
 22
450.7032671646975
 32
0.0
 13
318.6337957101223
 23
450.7032671646975
 33
0.0
  0
LEADER
  5
3DA
330
1F
100
AcDbEntity
  8
1
  6
Continuous
 62
     2
100
AcDbLeader
  3
Standard
 71
     0
 76
     3
 10
318.6337957101223
 20
450.7032671646975
 30
0.0
 10
300.3498827032836
 20
419.0346008756883
 30
0.0
 10
265.3296452349023
 20
419.0346008756883
 30
0.0
  0
SOLID
  5
3DB
330
1F
100
AcDbEntity
  8
1
 62
     2
100
AcDbTrace
 10
312.1701814059479
 20
178.6101476625273
 30
0.0
 11
310.5739797025947
 21
177.6885801794158
 31
0.0
 12
307.8720805542725
 22
184.2115417474633
 32
0.0
 13
307.8720805542725
 23
184.2115417474633
 33
0.0
  0
LEADER
  5
3DC
330
1F
100
AcDbEntity
  8
1
  6
Continuous
 62
     2
100
AcDbLeader
  3
Standard
 71
     0
 76
     3
 10
307.8720805542725
 20
184.2115417474633
 30
0.0
 10
321.2572036940819
 20
161.0278284037386
 30
0.0
 10
353.8353425434925
 20
161.0278284037386
 30
0.0
  0
MTEXT
  5
3DE
330
1F
100
AcDbEntity
  8
1
 62
     7
100
AcDbMText
 10
68.0
 20
68.00000000000001
 30
0.0
 40
7.0
 41
0.0
 71
     4
 72
     1
  1
JIS
  7
CONVERTER_5
 73
     1
 44
0.7202881152461
  0
MTEXT
  5
3DF
330
1F
100
AcDbEntity
  8
1
 62
     7
100
AcDbMText
 10
187.5
 20
34.0
 30
0.0
 40
7.0
 41
0.0
 71
     5
 72
     1
  1
2
  7
CONVERTER_5
 73
     1
 44
0.7202881152461
  0
MTEXT
  5
3E0
330
1F
100
AcDbEntity
  8
1
 62
     7
100
AcDbMText
 10
170.5
 20
34.0
 30
0.0
 40
7.0
 41
0.0
 71
     5
 72
     1
  1
1
  7
CONVERTER_5
 73
     1
 44
0.7202881152461
  0
MTEXT
  5
3E1
330
1F
100
AcDbEntity
  8
0
 62
     7
100
AcDbMText
 10
339.1804630599036
 20
167.0278284037386
 30
0.0
 40
7.0
 41
0.0
 71
     5
 72
     1
  1
Rp1/2
  7
CONVERTER_5
 73
     1
 44
0.7202881152461
  0
MTEXT
  5
3E2
330
1F
100
AcDbEntity
  8
1
 62
     7
100
AcDbMText
 10
281.9578027851021
 20
425.0346008756883
 30
0.0
 40
7.0
 41
0.0
 71
     5
 72
     1
  1
3,5X19
  7
CONVERTER_5
 73
     1
 44
0.7202881152461
  0
MTEXT
  5
3E3
330
1F
100
AcDbEntity
  8
1
 62
     7
100
AcDbMText
 10
114.0
 20
41.50000000000002
 30
0.0
 40
7.0
 41
0.0
 71
     5
 72
     1
  1
シンプレット
  7
CONVERTER_1
 73
     1
 44
0.7202881152461
  0
MTEXT
  5
3E4
330
1F
100
AcDbEntity
  8
1
 62
     7
100
AcDbMText
 10
114.0
 20
49.50000000000003
 30
0.0
 40
7.0
 41
0.0
 71
     5
 72
     1
  1
水道用コンセント
  7
CONVERTER_1
 73
     1
 44
0.7202881152461
  0
MTEXT
  5
3E5
330
1F
100
AcDbEntity
  8
1
 62
     7
100
AcDbMText
 10
114.0
 20
28.5
 30
0.0
 40
7.0
 41
0.0
 71
     5
 72
     1
  1
V96LTK
  7
CONVERTER_5
 73
     1
 44
0.7202881152461
  0
DIMENSION
  5
3F2
330
1F
100
AcDbEntity
  8
0
100
AcDbDimension
  2
*D016
 10
232.2568654636021
 20
231.2111065858084
 30
0.0
 11
230.4844907082149
 21
245.9809497121904
 31
0.0
 70
     1
  1
<>
 71
     5
 42
0.0
 53
-59.99999999999776
  3
ME10_DIM_0
100
AcDbAlignedDimension
 13
251.8217286861636
 23
224.3780871814593
 33
0.0
 14
243.9717286861633
 24
237.9746860208743
 34
0.0
  0
DIMENSION
  5
3FF
330
1F
100
AcDbEntity
  8
1
100
AcDbDimension
  2
*D117
 10
346.6357852549027
 20
448.2091140017983
 30
0.0
 11
341.1357852549027
 21
457.6982774457406
 31
0.0
  1
19
 71
     5
 42
0.0
 53
90.0
  3
ME10_DIM_1
100
AcDbAlignedDimension
 13
333.5237957101235
 23
467.4491140017985
 33
0.0
 14
330.0737957101228
 24
448.2091140017983
 34
0.0
 50
90.0
100
AcDbRotatedDimension
  0
DIMENSION
  5
40A
330
1F
100
AcDbEntity
  8
1
100
AcDbDimension
  2
*D218
 10
342.6373608577724
 20
207.2615417474635
 30
0.0
 11
337.1373608577724
 21
262.7865164909904
 31
0.0
  1
113(開口寸法115)
 71
     5
 42
0.0
 53
90.0
  3
ME10_DIM_2
100
AcDbAlignedDimension
 13
322.6373608577724
 23
319.1615417474636
 33
0.0
 14
293.3873970294735
 24
207.2615417474635
 34
0.0
 50
90.0
100
AcDbRotatedDimension
  0
DIMENSION
  5
415
330
1F
100
AcDbEntity
  8
1
100
AcDbDimension
  2
*D319
 10
117.4622350164828
 20
439.5040284227302
 30
0.0
 11
159.2308552590021
 21
445.0040284227302
 31
0.0
  1
84(開口寸法86)
 71
     5
 42
0.0
 53
0.00013888888889
  3
ME10_DIM_3
100
AcDbAlignedDimension
 13
200.6622350164835
 23
423.0433134390373
 33
0.0
 14
117.4622350164827
 24
423.0433134390373
 34
0.0
100
AcDbRotatedDimension
  0
DIMENSION
  5
420
330
1F
100
AcDbEntity
  8
1
100
AcDbDimension
  2
*D420
 10
275.3873970294736
 20
175.3727371955506
 30
0.0
 11
256.3027817615021
 21
180.8727371955506
 31
0.0
  1
37
 71
     5
 42
0.0
 53
0.00013888888889
  3
ME10_DIM_4
100
AcDbAlignedDimension
 13
238.5441807864336
 23
225.1119248119544
 33
0.0
 14
275.3873970294735
 24
196.8615417474643
 34
0.0
100
AcDbRotatedDimension
  0
DIMENSION
  5
42B
330
1F
100
AcDbEntity
  8
1
100
AcDbDimension
  2
*D521
 10
244.2773705940635
 20
374.5433134390373
 30
0.0
 11
238.7773705940635
 21
390.7738621769954
 31
0.0
  1
8～15
 71
     5
 42
0.0
 53
90.0
  3
ME10_DIM_5
100
AcDbAlignedDimension
 13
215.8624764183223
 23
405.8308073823696
 33
0.0
 14
209.6622350164835
 24
374.5433134390373
 34
0.0
 50
90.0
100
AcDbRotatedDimension
  0
DIMENSION
  5
436
330
1F
100
AcDbEntity
  8
1
100
AcDbDimension
  2
*D622
 10
80.26199361465297
 20
327.0615417474623
 30
0.0
 11
74.76199361465297
 21
259.6665940919115
 31
0.0
  1
131
 71
     5
 42
0.0
 53
90.0
  3
ME10_DIM_6
100
AcDbAlignedDimension
 13
116.4622350164827
 23
196.8615417474643
 33
0.0
 14
116.4622350164827
 24
327.0615417474623
 34
0.0
 50
90.0
100
AcDbRotatedDimension
  0
DIMENSION
  5
441
330
1F
100
AcDbEntity
  8
1
100
AcDbDimension
  2
*D723
 10
108.4622350164827
 20
166.2115417474633
 30
0.0
 11
158.4534101144036
 21
171.7115417474633
 31
0.0
  1
102
 71
     5
 42
0.0
 53
0.00013888888889
  3
ME10_DIM_7
100
AcDbAlignedDimension
 13
209.6622350164835
 23
204.8615417474643
 33
0.0
 14
108.4622350164827
 24
204.8615417474643
 34
0.0
100
AcDbRotatedDimension
  0
DIMENSION
  5
44E
330
1F
100
AcDbEntity
  8
1
100
AcDbDimension
  2
*D824
 10
275.3873970294735
 20
349.0615417474623
 30
0.0
 11
288.2577893338221
 21
354.5615417474623
 31
0.0
  1
29
 71
     5
 42
0.0
 53
0.00013888888889
  3
ME10_DIM_8
100
AcDbAlignedDimension
 13
303.4373608577735
 23
307.8766310846545
 33
0.0
 14
275.3873970294735
 24
327.0615417474623
 34
0.0
100
AcDbRotatedDimension
  0
DIMENSION
  5
45B
330
1F
100
AcDbEntity
  8
1
100
AcDbDimension
  2
*D926
 10
275.3873970294736
 20
349.0615417474623
 30
0.0
 11
256.769239544552
 21
354.5615417474623
 31
0.0
  1
7
 71
     5
 42
0.0
 53
0.00013888888889
  3
ME10_DIM_9
100
AcDbAlignedDimension
 13
268.6373970294735
 23
325.0615417474623
 33
0.0
 14
275.3873970294735
 24
327.0615417474623
 34
0.0
100
AcDbRotatedDimension
  0
DIMENSION
  5
466
330
1F
100
AcDbEntity
  8
1
100
AcDbDimension
  2
*D1027
 10
275.3873970294735
 20
365.0615417474623
 30
0.0
 11
299.9031976153419
 21
370.5615417474623
 31
0.0
  1
50
 71
     5
 42
0.0
 53
0.00013888888889
  3
ME10_DIM_10
100
AcDbAlignedDimension
 13
324.6373608577724
 23
316.6615417474636
 33
0.0
 14
275.3873970294735
 24
327.0615417474623
 34
0.0
100
AcDbRotatedDimension
  0
DIMENSION
  5
471
330
1F
100
AcDbEntity
  8
1
100
AcDbDimension
  2
*D1128
 10
102.261993614653
 20
455.4486856812805
 30
0.0
 11
159.6800005339028
 21
460.9486856812805
 31
0.0
  1
114
 71
     5
 42
0.0
 53
0.00013888888889
  3
ME10_DIM_11
100
AcDbAlignedDimension
 13
215.8624764183223
 23
406.8308073823696
 33
0.0
 14
102.261993614653
 24
406.8308073823696
 34
0.0
100
AcDbRotatedDimension
  0
DIMENSION
  5
47C
330
1F
100
AcDbEntity
  8
0
100
AcDbDimension
  2
*D1229
 10
342.548832622002
 20
207.2615417474636
 30
0.0
 11
337.048832622002
 21
195.7263832328304
 31
0.0
  1
23
 71
     5
 42
0.0
 53
90.0
  3
ME10_DIM_12
100
AcDbAlignedDimension
 13
290.9373608577735
 23
184.2115417474633
 33
0.0
 14
293.3873970294735
 24
207.2615417474635
 34
0.0
 50
90.0
100
AcDbRotatedDimension
  0
DIMENSION
  5
489
330
1F
100
AcDbEntity
  8
0
100
AcDbDimension
  2
*D1330
 10
80.24409164780263
 20
196.8615417474643
 30
0.0
 11
74.74409164780263
 21
190.7372298143905
 31
0.0
  1
13
 71
     5
 42
0.0
 53
90.0
  3
ME10_DIM_13
100
AcDbAlignedDimension
 13
146.5622350164831
 23
184.2115417474633
 33
0.0
 14
116.4622350164827
 24
196.8615417474643
 34
0.0
 50
90.0
100
AcDbRotatedDimension
  0
ENDSEC
  0
SECTION
  2
OBJECTS
  0
DICTIONARY
  5
C
330
0
100
AcDbDictionary
281
     1
  3
ACAD_GROUP
350
D
  3
ACAD_LAYOUT
350
1A
  3
ACAD_MLINESTYLE
350
17
  3
ACAD_PLOTSETTINGS
350
19
  3
ACAD_PLOTSTYLENAME
350
E
  3
ACAD_TABLESTYLE
350
2A
  3
AcDbVariableDictionary
350
2C
  0
DICTIONARY
  5
D
102
{ACAD_REACTORS
330
C
102
}
330
C
100
AcDbDictionary
281
     1
  0
DICTIONARY
  5
1A
102
{ACAD_REACTORS
330
C
102
}
330
C
100
AcDbDictionary
281
     1
  3
Layout1
350
1E
  3
Layout2
350
26
  3
Model
350
22
  0
DICTIONARY
  5
17
102
{ACAD_REACTORS
330
C
102
}
330
C
100
AcDbDictionary
281
     1
  3
Standard
350
18
  0
DICTIONARY
  5
19
102
{ACAD_REACTORS
330
C
102
}
330
C
100
AcDbDictionary
281
     1
  0
ACDBDICTIONARYWDFLT
  5
E
102
{ACAD_REACTORS
330
C
102
}
330
C
100
AcDbDictionary
281
     1
  3
Normal
350
F
100
AcDbDictionaryWithDefault
340
F
  0
DICTIONARY
  5
2A
102
{ACAD_REACTORS
330
C
102
}
330
C
100
AcDbDictionary
281
     1
  3
Standard
350
2B
  0
DICTIONARY
  5
2C
102
{ACAD_REACTORS
330
C
102
}
330
C
100
AcDbDictionary
281
     1
  3
CTABLESTYLE
350
2D
  0
LAYOUT
  5
1E
102
{ACAD_REACTORS
330
1A
102
}
330
1A
100
AcDbPlotSettings
  1

  2

  4

  6

 40
0.0
 41
0.0
 42
0.0
 43
0.0
 44
0.0
 45
0.0
 46
0.0
 47
0.0
 48
0.0
 49
0.0
140
0.0
141
0.0
142
1.0
143
1.0
 70
   688
 72
     0
 73
     0
 74
     5
  7

 75
    16
147
1.0
148
0.0
149
0.0
100
AcDbLayout
  1
Layout1
 70
     1
 71
     1
 10
0.0
 20
0.0
 11
12.0
 21
9.0
 12
0.0
 22
0.0
 32
0.0
 14
1.00000000000000E+20
 24
1.00000000000000E+20
 34
1.00000000000000E+20
 15
-1.00000000000000E+20
 25
-1.00000000000000E+20
 35
-1.00000000000000E+20
146
0.0
 13
0.0
 23
0.0
 33
0.0
 16
1.0
 26
0.0
 36
0.0
 17
0.0
 27
1.0
 37
0.0
 76
     0
330
1B
  0
LAYOUT
  5
26
102
{ACAD_REACTORS
330
1A
102
}
330
1A
100
AcDbPlotSettings
  1

  2

  4

  6

 40
0.0
 41
0.0
 42
0.0
 43
0.0
 44
0.0
 45
0.0
 46
0.0
 47
0.0
 48
0.0
 49
0.0
140
0.0
141
0.0
142
1.0
143
1.0
 70
   688
 72
     0
 73
     0
 74
     5
  7

 75
    16
147
1.0
148
0.0
149
0.0
100
AcDbLayout
  1
Layout2
 70
     1
 71
     2
 10
0.0
 20
0.0
 11
0.0
 21
0.0
 12
0.0
 22
0.0
 32
0.0
 14
0.0
 24
0.0
 34
0.0
 15
0.0
 25
0.0
 35
0.0
146
0.0
 13
0.0
 23
0.0
 33
0.0
 16
1.0
 26
0.0
 36
0.0
 17
0.0
 27
1.0
 37
0.0
 76
     0
330
23
  0
LAYOUT
  5
22
102
{ACAD_REACTORS
330
1A
102
}
330
1A
100
AcDbPlotSettings
  1

  2

  4

  6

 40
0.0
 41
0.0
 42
0.0
 43
0.0
 44
0.0
 45
0.0
 46
0.0
 47
0.0
 48
0.0
 49
0.0
140
0.0
141
0.0
142
1.0
143
1.0
 70
  1712
 72
     0
 73
     0
 74
     0
  7

 75
     0
147
1.0
148
0.0
149
0.0
100
AcDbLayout
  1
Model
 70
     1
 71
     0
 10
0.0
 20
0.0
 11
0.0
 21
0.0
 12
0.0
 22
0.0
 32
0.0
 14
0.0
 24
0.0
 34
0.0
 15
420.0
 25
594.0
 35
0.0
146
0.0
 13
0.0
 23
0.0
 33
0.0
 16
1.0
 26
0.0
 36
0.0
 17
0.0
 27
1.0
 37
0.0
 76
     0
330
1F
  0
MLINESTYLE
  5
18
102
{ACAD_REACTORS
330
17
102
}
330
17
100
AcDbMlineStyle
  2
Standard
 70
     0
  3

 62
   256
 51
90.0
 52
90.0
 71
     2
 49
0.5
 62
   256
  6
BYLAYER
 49
-0.5
 62
   256
  6
BYLAYER
  0
ACDBPLACEHOLDER
  5
F
102
{ACAD_REACTORS
330
E
102
}
330
E
  0
TABLESTYLE
  5
2B
102
{ACAD_REACTORS
330
2A
102
}
330
2A
100
AcDbTableStyle
  3
Standard
 70
     0
 71
     0
 40
0.06
 41
0.06
280
     0
281
     0
  7
Standard
140
0.18
170
     2
 62
     0
 63
     7
283
     0
274
    -2
284
     1
 64
     0
275
    -2
285
     1
 65
     0
276
    -2
286
     1
 66
     0
277
    -2
287
     1
 67
     0
278
    -2
288
     1
 68
     0
279
    -2
289
     1
 69
     0
  7
Standard
140
0.25
170
     5
 62
     0
 63
     7
283
     0
274
    -2
284
     1
 64
     0
275
    -2
285
     1
 65
     0
276
    -2
286
     1
 66
     0
277
    -2
287
     1
 67
     0
278
    -2
288
     1
 68
     0
279
    -2
289
     1
 69
     0
  7
Standard
140
0.18
170
     5
 62
     0
 63
     7
283
     0
274
    -2
284
     1
 64
     0
275
    -2
285
     1
 65
     0
276
    -2
286
     1
 66
     0
277
    -2
287
     1
 67
     0
278
    -2
288
     1
 68
     0
279
    -2
289
     1
 69
     0
  0
DICTIONARYVAR
  5
2D
102
{ACAD_REACTORS
330
2C
102
}
330
2C
100
DictionaryVariables
280
     0
  1
Standard
  0
ENDSEC
  0
EOF
