  0
SECTION
  2
HEADER
  9
$ACADVER
  1
AC1015
  9
$ACADMAINTVER
 70
     6
  9
$DWGCODEPAGE
  3
ANSI_932
  9
$INSBASE
 10
0.0
 20
0.0
 30
0.0
  9
$EXTMIN
 10
0.0
 20
0.0
 30
0.0
  9
$EXTMAX
 10
2100.000000000001
 20
2970.0
 30
0.0
  9
$LIMMIN
 10
0.0
 20
0.0
  9
$LIMMAX
 10
12.0
 20
9.0
  9
$ORTHOMODE
 70
     0
  9
$REGENMODE
 70
     1
  9
$FILLMODE
 70
     1
  9
$QTEXTMODE
 70
     0
  9
$MIRRTEXT
 70
     1
  9
$LTSCALE
 40
1.0
  9
$ATTMODE
 70
     1
  9
$TEXTSIZE
 40
0.2
  9
$TRACEWID
 40
0.05
  9
$TEXTSTYLE
  7
Standard
  9
$CLAYER
  8
0
  9
$CELTYPE
  6
ByLayer
  9
$CECOLOR
 62
   256
  9
$CELTSCALE
 40
1.0
  9
$DISPSILH
 70
     0
  9
$DIMSCALE
 40
1.0
  9
$DIMASZ
 40
0.18
  9
$DIMEXO
 40
0.0625
  9
$DIMDLI
 40
0.38
  9
$DIMRND
 40
0.0
  9
$DIMDLE
 40
0.0
  9
$DIMEXE
 40
0.18
  9
$DIMTP
 40
0.0
  9
$DIMTM
 40
0.0
  9
$DIMTXT
 40
0.18
  9
$DIMCEN
 40
0.09
  9
$DIMTSZ
 40
0.0
  9
$DIMTOL
 70
     0
  9
$DIMLIM
 70
     0
  9
$DIMTIH
 70
     1
  9
$DIMTOH
 70
     1
  9
$DIMSE1
 70
     0
  9
$DIMSE2
 70
     0
  9
$DIMTAD
 70
     0
  9
$DIMZIN
 70
     0
  9
$DIMBLK
  1

  9
$DIMASO
 70
     1
  9
$DIMSHO
 70
     1
  9
$DIMPOST
  1

  9
$DIMAPOST
  1

  9
$DIMALT
 70
     0
  9
$DIMALTD
 70
     2
  9
$DIMALTF
 40
25.4
  9
$DIMLFAC
 40
1.0
  9
$DIMTOFL
 70
     0
  9
$DIMTVP
 40
0.0
  9
$DIMTIX
 70
     0
  9
$DIMSOXD
 70
     0
  9
$DIMSAH
 70
     0
  9
$DIMBLK1
  1

  9
$DIMBLK2
  1

  9
$DIMSTYLE
  2
Standard
  9
$DIMCLRD
 70
     0
  9
$DIMCLRE
 70
     0
  9
$DIMCLRT
 70
     0
  9
$DIMTFAC
 40
1.0
  9
$DIMGAP
 40
0.09
  9
$DIMJUST
 70
     0
  9
$DIMSD1
 70
     0
  9
$DIMSD2
 70
     0
  9
$DIMTOLJ
 70
     1
  9
$DIMTZIN
 70
     0
  9
$DIMALTZ
 70
     0
  9
$DIMALTTZ
 70
     0
  9
$DIMUPT
 70
     0
  9
$DIMDEC
 70
     4
  9
$DIMTDEC
 70
     4
  9
$DIMALTU
 70
     2
  9
$DIMALTTD
 70
     2
  9
$DIMTXSTY
  7
Standard
  9
$DIMAUNIT
 70
     0
  9
$DIMADEC
 70
     0
  9
$DIMALTRND
 40
0.0
  9
$DIMAZIN
 70
     0
  9
$DIMDSEP
 70
    46
  9
$DIMATFIT
 70
     3
  9
$DIMFRAC
 70
     0
  9
$DIMLDRBLK
  1

  9
$DIMLUNIT
 70
     2
  9
$DIMLWD
 70
    -2
  9
$DIMLWE
 70
    -2
  9
$DIMTMOVE
 70
     0
  9
$LUNITS
 70
     2
  9
$LUPREC
 70
     4
  9
$SKETCHINC
 40
0.1
  9
$FILLETRAD
 40
0.5
  9
$AUNITS
 70
     0
  9
$AUPREC
 70
     0
  9
$MENU
  1
.
  9
$ELEVATION
 40
0.0
  9
$PELEVATION
 40
0.0
  9
$THICKNESS
 40
0.0
  9
$LIMCHECK
 70
     0
  9
$CHAMFERA
 40
0.5
  9
$CHAMFERB
 40
0.5
  9
$CHAMFERC
 40
1.0
  9
$CHAMFERD
 40
0.0
  9
$SKPOLY
 70
     0
  9
$TDCREATE
 40
2459689.606581342
  9
$TDUCREATE
 40
2459689.231581342
  9
$TDUPDATE
 40
2459689.606583877
  9
$TDUUPDATE
 40
2459689.231583877
  9
$TDINDWG
 40
0.0000000116
  9
$TDUSRTIMER
 40
0.0000000116
  9
$USRTIMER
 70
     1
  9
$ANGBASE
 50
0.0
  9
$ANGDIR
 70
     0
  9
$PDMODE
 70
     0
  9
$PDSIZE
 40
0.0
  9
$PLINEWID
 40
0.0
  9
$SPLFRAME
 70
     0
  9
$SPLINETYPE
 70
     6
  9
$SPLINESEGS
 70
     8
  9
$HANDSEED
  5
1D4
  9
$SURFTAB1
 70
     6
  9
$SURFTAB2
 70
     6
  9
$SURFTYPE
 70
     6
  9
$SURFU
 70
     6
  9
$SURFV
 70
     6
  9
$UCSBASE
  2

  9
$UCSNAME
  2

  9
$UCSORG
 10
0.0
 20
0.0
 30
0.0
  9
$UCSXDIR
 10
1.0
 20
0.0
 30
0.0
  9
$UCSYDIR
 10
0.0
 20
1.0
 30
0.0
  9
$UCSORTHOREF
  2

  9
$UCSORTHOVIEW
 70
     0
  9
$UCSORGTOP
 10
0.0
 20
0.0
 30
0.0
  9
$UCSORGBOTTOM
 10
0.0
 20
0.0
 30
0.0
  9
$UCSORGLEFT
 10
0.0
 20
0.0
 30
0.0
  9
$UCSORGRIGHT
 10
0.0
 20
0.0
 30
0.0
  9
$UCSORGFRONT
 10
0.0
 20
0.0
 30
0.0
  9
$UCSORGBACK
 10
0.0
 20
0.0
 30
0.0
  9
$PUCSBASE
  2

  9
$PUCSNAME
  2

  9
$PUCSORG
 10
0.0
 20
0.0
 30
0.0
  9
$PUCSXDIR
 10
1.0
 20
0.0
 30
0.0
  9
$PUCSYDIR
 10
0.0
 20
1.0
 30
0.0
  9
$PUCSORTHOREF
  2

  9
$PUCSORTHOVIEW
 70
     0
  9
$PUCSORGTOP
 10
0.0
 20
0.0
 30
0.0
  9
$PUCSORGBOTTOM
 10
0.0
 20
0.0
 30
0.0
  9
$PUCSORGLEFT
 10
0.0
 20
0.0
 30
0.0
  9
$PUCSORGRIGHT
 10
0.0
 20
0.0
 30
0.0
  9
$PUCSORGFRONT
 10
0.0
 20
0.0
 30
0.0
  9
$PUCSORGBACK
 10
0.0
 20
0.0
 30
0.0
  9
$USERI1
 70
     0
  9
$USERI2
 70
     0
  9
$USERI3
 70
     0
  9
$USERI4
 70
     0
  9
$USERI5
 70
     0
  9
$USERR1
 40
18.1
  9
$USERR2
 40
0.0
  9
$USERR3
 40
0.0
  9
$USERR4
 40
0.0
  9
$USERR5
 40
0.0
  9
$WORLDVIEW
 70
     1
  9
$SHADEDGE
 70
     3
  9
$SHADEDIF
 70
    70
  9
$TILEMODE
 70
     1
  9
$MAXACTVP
 70
    64
  9
$PINSBASE
 10
0.0
 20
0.0
 30
0.0
  9
$PLIMCHECK
 70
     0
  9
$PEXTMIN
 10
1.00000000000000E+20
 20
1.00000000000000E+20
 30
1.00000000000000E+20
  9
$PEXTMAX
 10
-1.00000000000000E+20
 20
-1.00000000000000E+20
 30
-1.00000000000000E+20
  9
$PLIMMIN
 10
0.0
 20
0.0
  9
$PLIMMAX
 10
12.0
 20
9.0
  9
$UNITMODE
 70
     0
  9
$VISRETAIN
 70
     1
  9
$PLINEGEN
 70
     0
  9
$PSLTSCALE
 70
     1
  9
$TREEDEPTH
 70
  3020
  9
$CMLSTYLE
  2
Standard
  9
$CMLJUST
 70
     0
  9
$CMLSCALE
 40
1.0
  9
$PROXYGRAPHICS
 70
     1
  9
$MEASUREMENT
 70
     1
  9
$CELWEIGHT
370
    -1
  9
$ENDCAPS
280
     0
  9
$JOINSTYLE
280
     0
  9
$LWDISPLAY
290
     0
  9
$INSUNITS
 70
     4
  9
$HYPERLINKBASE
  1

  9
$STYLESHEET
  1

  9
$XEDIT
290
     1
  9
$CEPSNTYPE
380
     0
  9
$PSTYLEMODE
290
     1
  9
$FINGERPRINTGUID
  2
{BC0AE5CD-9111-4C15-9DE6-64763C75A798}
  9
$VERSIONGUID
  2
{FAEB1C32-E019-11D5-929B-00C0DF256EC4}
  9
$EXTNAMES
290
     1
  9
$PSVPSCALE
 40
0.0
  9
$OLESTARTUP
290
     0
  0
ENDSEC
  0
SECTION
  2
CLASSES
  0
CLASS
  1
ACDBDICTIONARYWDFLT
  2
AcDbDictionaryWithDefault
  3
ObjectDBX Classes
 90
        0
280
     0
281
     0
  0
CLASS
  1
VISUALSTYLE
  2
AcDbVisualStyle
  3
ObjectDBX Classes
 90
     4095
280
     0
281
     0
  0
CLASS
  1
MATERIAL
  2
AcDbMaterial
  3
ObjectDBX Classes
 90
     1153
280
     0
281
     0
  0
CLASS
  1
DICTIONARYVAR
  2
AcDbDictionaryVar
  3
ObjectDBX Classes
 90
        0
280
     0
281
     0
  0
CLASS
  1
ACDBPLACEHOLDER
  2
AcDbPlaceHolder
  3
ObjectDBX Classes
 90
        0
280
     0
281
     0
  0
CLASS
  1
LAYOUT
  2
AcDbLayout
  3
ObjectDBX Classes
 90
        0
280
     0
281
     0
  0
ENDSEC
  0
SECTION
  2
TABLES
  0
TABLE
  2
VPORT
  5
8
330
0
100
AcDbSymbolTable
 70
     1
  0
VPORT
  5
29
330
8
100
AcDbSymbolTableRecord
100
AcDbViewportTableRecord
  2
*Active
 70
     0
 10
0.0
 20
0.0
 11
1.0
 21
1.0
 12
1050.0
 22
1485.0
 13
0.0
 23
0.0
 14
0.5
 24
0.5
 15
0.5
 25
0.5
 16
0.0
 26
0.0
 36
1.0
 17
0.0
 27
0.0
 37
0.0
 40
3267.0
 41
1.60267857142857
 42
50.0
 43
0.0
 44
0.0
 50
0.0
 51
0.0
 71
     0
 72
   100
 73
     1
 74
     3
 75
     0
 76
     0
 77
     0
 78
     0
281
     0
 65
     1
110
0.0
120
0.0
130
0.0
111
1.0
121
0.0
131
0.0
112
0.0
122
1.0
132
0.0
 79
     0
146
0.0
  0
ENDTAB
  0
TABLE
  2
LTYPE
  5
5
330
0
100
AcDbSymbolTable
 70
     8
  0
LTYPE
  5
14
330
5
100
AcDbSymbolTableRecord
100
AcDbLinetypeTableRecord
  2
ByBlock
 70
     0
  3

 72
    65
 73
     0
 40
0.0
  0
LTYPE
  5
15
330
5
100
AcDbSymbolTableRecord
100
AcDbLinetypeTableRecord
  2
ByLayer
 70
     0
  3

 72
    65
 73
     0
 40
0.0
  0
LTYPE
  5
16
330
5
100
AcDbSymbolTableRecord
100
AcDbLinetypeTableRecord
  2
Continuous
 70
     0
  3
Solid line
 72
    65
 73
     0
 40
0.0
  0
LTYPE
  5
3F
330
5
100
AcDbSymbolTableRecord
100
AcDbLinetypeTableRecord
  2
DASHED
 70
     0
  3
Dashed
 72
    65
 73
     2
 40
15.0
 49
7.0
 74
     0
 49
-8.0
 74
     0
  0
LTYPE
  5
40
330
5
100
AcDbSymbolTableRecord
100
AcDbLinetypeTableRecord
  2
DOTTED
 70
     0
  3
Dotted
 72
    65
 73
     2
 40
1.0
 49
0.0
 74
     0
 49
-1.0
 74
     0
  0
LTYPE
  5
41
330
5
100
AcDbSymbolTableRecord
100
AcDbLinetypeTableRecord
  2
DOT_CENTER
 70
     0
  3
Dot_Center
 72
    65
 73
     4
 40
14.0
 49
12.0
 74
     0
 49
-1.0
 74
     0
 49
0.0
 74
     0
 49
-1.0
 74
     0
  0
LTYPE
  5
42
330
5
100
AcDbSymbolTableRecord
100
AcDbLinetypeTableRecord
  2
LONG_DASHED
 70
     0
  3
Long_Dashed
 72
    65
 73
     2
 40
15.0
 49
10.0
 74
     0
 49
-5.0
 74
     0
  0
LTYPE
  5
43
330
5
100
AcDbSymbolTableRecord
100
AcDbLinetypeTableRecord
  2
DASH_CENTER
 70
     0
  3
Dash_Center
 72
    65
 73
     4
 40
14.0
 49
11.0
 74
     0
 49
-1.0
 74
     0
 49
1.0
 74
     0
 49
-1.0
 74
     0
  0
LTYPE
  5
44
330
5
100
AcDbSymbolTableRecord
100
AcDbLinetypeTableRecord
  2
PHANTOM
 70
     0
  3
Phantom
 72
    65
 73
     6
 40
13.0
 49
10.0
 74
     0
 49
-1.0
 74
     0
 49
0.0
 74
     0
 49
-1.0
 74
     0
 49
0.0
 74
     0
 49
-1.0
 74
     0
  0
LTYPE
  5
45
330
5
100
AcDbSymbolTableRecord
100
AcDbLinetypeTableRecord
  2
CENTER_DASH_DASH
 70
     0
  3
Center_Dash_Dash
 72
    65
 73
     6
 40
14.0
 49
9.0
 74
     0
 49
-1.0
 74
     0
 49
1.0
 74
     0
 49
-1.0
 74
     0
 49
1.0
 74
     0
 49
-1.0
 74
     0
  0
ENDTAB
  0
TABLE
  2
LAYER
  5
2
330
0
100
AcDbSymbolTable
 70
     3
  0
LAYER
  5
10
330
2
100
AcDbSymbolTableRecord
100
AcDbLayerTableRecord
  2
0
 70
     0
 62
     7
  6
Continuous
370
    -3
390
F
  0
LAYER
  5
46
330
2
100
AcDbSymbolTableRecord
100
AcDbLayerTableRecord
  2
1
 70
     0
 62
     7
  6
Continuous
370
    -3
390
F
  0
LAYER
  5
47
330
2
100
AcDbSymbolTableRecord
100
AcDbLayerTableRecord
  2
_U_30EC_U_30A4_U_30E4_U_30FC_1
 70
     0
 62
     7
  6
Continuous
370
    -3
390
F
  0
ENDTAB
  0
TABLE
  2
STYLE
  5
3
330
0
100
AcDbSymbolTable
 70
     3
  0
STYLE
  5
11
330
3
100
AcDbSymbolTableRecord
100
AcDbTextStyleTableRecord
  2
Standard
 70
     0
 40
0.0
 41
1.0
 50
0.0
 71
     0
 42
0.2
  3
txt
  4

  0
STYLE
  5
B4
330
3
100
AcDbSymbolTableRecord
100
AcDbTextStyleTableRecord
  2
CONVERTER_11
 70
     0
 40
0.0
 41
0.89
 50
0.0
 71
     0
 42
0.2
  3
MS Mincho.ttf
  4

1001
ACAD
1000
MS Mincho
1071
    32785
  0
STYLE
  5
155
330
3
100
AcDbSymbolTableRecord
100
AcDbTextStyleTableRecord
  2
CONVERTER_12
 70
     0
 40
0.0
 41
0.9
 50
0.0
 71
     0
 42
0.2
  3
txt.shx
  4

  0
ENDTAB
  0
TABLE
  2
VIEW
  5
6
330
0
100
AcDbSymbolTable
 70
     0
  0
ENDTAB
  0
TABLE
  2
UCS
  5
7
330
0
100
AcDbSymbolTable
 70
     0
  0
ENDTAB
  0
TABLE
  2
APPID
  5
9
330
0
100
AcDbSymbolTable
 70
     1
  0
APPID
  5
12
330
9
100
AcDbSymbolTableRecord
100
AcDbRegAppTableRecord
  2
ACAD
 70
     0
  0
ENDTAB
  0
TABLE
  2
DIMSTYLE
  5
A
330
0
100
AcDbSymbolTable
 70
     5
100
AcDbDimStyleTable
  0
DIMSTYLE
105
27
330
A
100
AcDbSymbolTableRecord
100
AcDbDimStyleTableRecord
  2
Standard
 70
     0
178
     0
340
11
  0
DIMSTYLE
105
16D
102
{ACAD_REACTORS
330
16E
102
}
330
A
100
AcDbSymbolTableRecord
100
AcDbDimStyleTableRecord
  2
ME10_DIM_10
 70
     0
 41
35.0
 42
0.0
 44
20.0
 73
     0
 74
     0
 77
     1
 78
     8
140
30.0
147
20.0
172
     1
173
     1
174
     1
175
     1
176
     2
177
     2
271
     2
178
     7
271
     2
340
155
  0
DIMSTYLE
105
178
102
{ACAD_REACTORS
330
179
102
}
330
A
100
AcDbSymbolTableRecord
100
AcDbDimStyleTableRecord
  2
ME10_DIM_11
 70
     0
 41
35.0
 42
0.0
 44
20.0
 73
     0
 74
     0
 77
     1
 78
     8
140
30.0
147
20.0
172
     1
173
     1
174
     1
175
     1
176
     2
177
     2
271
     2
178
     7
271
     2
340
155
  0
DIMSTYLE
105
185
102
{ACAD_REACTORS
330
186
102
}
330
A
100
AcDbSymbolTableRecord
100
AcDbDimStyleTableRecord
  2
ME10_DIM_12
 70
     0
 41
35.0
 42
0.0
 44
20.0
 73
     0
 74
     0
 77
     1
 78
     8
140
30.0
147
20.0
172
     1
173
     1
174
     1
175
     1
176
     2
177
     2
271
     2
178
     7
271
     2
340
155
  0
DIMSTYLE
105
190
102
{ACAD_REACTORS
330
191
102
}
330
A
100
AcDbSymbolTableRecord
100
AcDbDimStyleTableRecord
  2
ME10_DIM_13
 70
     0
 41
35.0
 42
0.0
 44
20.0
 73
     0
 74
     0
 77
     1
 78
     8
140
30.0
147
20.0
172
     1
173
     1
174
     1
175
     1
176
     2
177
     2
271
     2
178
     7
271
     2
340
155
  0
ENDTAB
  0
TABLE
  2
BLOCK_RECORD
  5
1
330
0
100
AcDbSymbolTable
 70
    10
  0
BLOCK_RECORD
  5
1F
330
1
100
AcDbSymbolTableRecord
100
AcDbBlockTableRecord
  2
*Model_Space
340
22
  0
BLOCK_RECORD
  5
1B
330
1
100
AcDbSymbolTableRecord
100
AcDbBlockTableRecord
  2
*Paper_Space
340
1E
  0
BLOCK_RECORD
  5
23
330
1
100
AcDbSymbolTableRecord
100
AcDbBlockTableRecord
  2
*Paper_Space0
340
26
  0
BLOCK_RECORD
  5
48
330
1
100
AcDbSymbolTableRecord
100
AcDbBlockTableRecord
  2
開示A4
340
0
102
{BLKREFS
331
4C
102
}
  0
BLOCK_RECORD
  5
4B
330
1
100
AcDbSymbolTableRecord
100
AcDbBlockTableRecord
  2
開示A4枠
340
0
102
{BLKREFS
331
4F
102
}
  0
BLOCK_RECORD
  5
164
330
1
100
AcDbSymbolTableRecord
100
AcDbBlockTableRecord
  2
*D3
340
0
  0
BLOCK_RECORD
  5
16F
330
1
100
AcDbSymbolTableRecord
100
AcDbBlockTableRecord
  2
*D4
340
0
  0
BLOCK_RECORD
  5
17A
330
1
100
AcDbSymbolTableRecord
100
AcDbBlockTableRecord
  2
*D5
340
0
  0
BLOCK_RECORD
  5
187
330
1
100
AcDbSymbolTableRecord
100
AcDbBlockTableRecord
  2
*D6
340
0
  0
BLOCK_RECORD
  5
192
330
1
100
AcDbSymbolTableRecord
100
AcDbBlockTableRecord
  2
*D7
340
0
102
{BLKREFS
331
198
102
}
  0
BLOCK_RECORD
  5
199
330
1
100
AcDbSymbolTableRecord
100
AcDbBlockTableRecord
  2
*D8
340
0
102
{BLKREFS
331
19F
102
}
  0
BLOCK_RECORD
  5
1A0
330
1
100
AcDbSymbolTableRecord
100
AcDbBlockTableRecord
  2
*D9
340
0
102
{BLKREFS
331
1A6
102
}
  0
ENDTAB
  0
ENDSEC
  0
SECTION
  2
BLOCKS
  0
BLOCK
  5
20
330
1F
100
AcDbEntity
  8
0
100
AcDbBlockBegin
  2
*Model_Space
 70
     0
 10
0.0
 20
0.0
 30
0.0
  3
*Model_Space
  1

  0
ENDBLK
  5
21
330
1F
100
AcDbEntity
  8
0
100
AcDbBlockEnd
  0
BLOCK
  5
1C
330
1B
100
AcDbEntity
 67
     1
  8
0
100
AcDbBlockBegin
  2
*Paper_Space
 70
     0
 10
0.0
 20
0.0
 30
0.0
  3
*Paper_Space
  1

  0
ENDBLK
  5
1D
330
1B
100
AcDbEntity
 67
     1
  8
0
100
AcDbBlockEnd
  0
BLOCK
  5
24
330
23
100
AcDbEntity
  8
0
100
AcDbBlockBegin
  2
*Paper_Space0
 70
     0
 10
0.0
 20
0.0
 30
0.0
  3
*Paper_Space0
  1

  0
ENDBLK
  5
25
330
23
100
AcDbEntity
  8
0
100
AcDbBlockEnd
  0
BLOCK
  5
49
330
48
100
AcDbEntity
  8
0
100
AcDbBlockBegin
  2
開示A4
 70
     0
 10
0.0
 20
0.0
 30
0.0
  3
開示A4
  1

  0
POINT
  5
50
330
48
100
AcDbEntity
  8
1
 62
     4
100
AcDbPoint
 10
34.0
 20
37.5
 30
0.0
  0
POINT
  5
51
330
48
100
AcDbEntity
  8
1
 62
     4
100
AcDbPoint
 10
34.0
 20
30.5
 30
0.0
  0
POINT
  5
52
330
48
100
AcDbEntity
  8
1
 62
     4
100
AcDbPoint
 10
34.0
 20
34.0
 30
0.0
  0
POINT
  5
53
330
48
100
AcDbEntity
  8
1
 62
     4
100
AcDbPoint
 10
56.99999999999997
 20
12.25
 30
0.0
  0
POINT
  5
54
330
48
100
AcDbEntity
  8
1
 62
     4
100
AcDbPoint
 10
56.99999999999997
 20
20.75000000000001
 30
0.0
  0
POINT
  5
55
330
48
100
AcDbEntity
  8
1
 62
     4
100
AcDbPoint
 10
56.99999999999997
 20
24.75000000000001
 30
0.0
  0
POINT
  5
56
330
48
100
AcDbEntity
  8
1
 62
     4
100
AcDbPoint
 10
56.99999999999997
 20
16.25
 30
0.0
  0
POINT
  5
57
330
48
100
AcDbEntity
  8
1
 62
     4
100
AcDbPoint
 10
157.5
 20
19.00000000000001
 30
0.0
  0
POINT
  5
58
330
48
100
AcDbEntity
  8
1
 62
     4
100
AcDbPoint
 10
47.49999999999997
 20
282.0000000000003
 30
0.0
  0
POINT
  5
59
330
48
100
AcDbEntity
  8
1
 62
     4
100
AcDbPoint
 10
56.99999999999997
 20
22.75000000000001
 30
0.0
  0
POINT
  5
5A
330
48
100
AcDbEntity
  8
1
 62
     4
100
AcDbPoint
 10
56.99999999999997
 20
14.25
 30
0.0
  0
POINT
  5
5B
330
48
100
AcDbEntity
  8
1
 62
     4
100
AcDbPoint
 10
157.5
 20
12.5
 30
0.0
  0
POINT
  5
5C
330
48
100
AcDbEntity
  8
1
 62
     4
100
AcDbPoint
 10
163.25
 20
12.5
 30
0.0
  0
POINT
  5
5D
330
48
100
AcDbEntity
  8
1
 62
     4
100
AcDbPoint
 10
151.75
 20
12.5
 30
0.0
  0
POINT
  5
5E
330
48
100
AcDbEntity
  8
1
 62
     4
100
AcDbPoint
 10
134.75
 20
12.5
 30
0.0
  0
POINT
  5
5F
330
48
100
AcDbEntity
  8
1
 62
     4
100
AcDbPoint
 10
146.25
 20
12.5
 30
0.0
  0
POINT
  5
60
330
48
100
AcDbEntity
  8
1
 62
     4
100
AcDbPoint
 10
140.5
 20
12.5
 30
0.0
  0
POINT
  5
61
330
48
100
AcDbEntity
  8
1
 62
     4
100
AcDbPoint
 10
140.5
 20
19.00000000000001
 30
0.0
  0
POINT
  5
62
330
48
100
AcDbEntity
  8
1
 62
     4
100
AcDbPoint
 10
117.75
 20
12.5
 30
0.0
  0
POINT
  5
63
330
48
100
AcDbEntity
  8
1
 62
     4
100
AcDbPoint
 10
129.25
 20
12.5
 30
0.0
  0
POINT
  5
64
330
48
100
AcDbEntity
  8
1
 62
     4
100
AcDbPoint
 10
123.5
 20
12.5
 30
0.0
  0
POINT
  5
65
330
48
100
AcDbEntity
  8
1
 62
     4
100
AcDbPoint
 10
123.5
 20
19.00000000000001
 30
0.0
  0
POINT
  5
66
330
48
100
AcDbEntity
  8
1
 62
     4
100
AcDbPoint
 10
100.75
 20
12.5
 30
0.0
  0
POINT
  5
67
330
48
100
AcDbEntity
  8
1
 62
     4
100
AcDbPoint
 10
112.25
 20
12.5
 30
0.0
  0
POINT
  5
68
330
48
100
AcDbEntity
  8
1
 62
     4
100
AcDbPoint
 10
106.5
 20
12.5
 30
0.0
  0
POINT
  5
69
330
48
100
AcDbEntity
  8
1
 62
     4
100
AcDbPoint
 10
106.5
 20
19.00000000000001
 30
0.0
  0
POINT
  5
6A
330
48
100
AcDbEntity
  8
1
 62
     4
100
AcDbPoint
 10
85.24999999999997
 20
17.0
 30
0.0
  0
POINT
  5
6B
330
48
100
AcDbEntity
  8
1
 62
     4
100
AcDbPoint
 10
93.74999999999997
 20
17.0
 30
0.0
  0
POINT
  5
6C
330
48
100
AcDbEntity
  8
1
 62
     4
100
AcDbPoint
 10
183.0
 20
15.00000000000001
 30
0.0
  0
LINE
  5
6D
330
48
100
AcDbEntity
  8
1
  6
Continuous
 62
     2
100
AcDbLine
 10
80.99999999999997
 20
27.00000000000001
 30
0.0
 11
80.99999999999997
 21
10.0
 31
0.0
  0
LINE
  5
6E
330
48
100
AcDbEntity
  8
1
  6
DOT_CENTER
 62
     2
100
AcDbLine
 10
187.0
 20
26.50000000000001
 30
0.0
 11
187.0
 21
20.50000000000001
 31
0.0
  0
LINE
  5
6F
330
48
100
AcDbEntity
  8
1
  6
DOT_CENTER
 62
     2
100
AcDbLine
 10
184.0
 20
23.50000000000001
 30
0.0
 11
197.0
 21
23.50000000000001
 31
0.0
  0
LINE
  5
70
330
48
100
AcDbEntity
  8
1
  6
Continuous
 62
     7
100
AcDbLine
 10
196.0
 20
21.50000000000001
 30
0.0
 11
191.0
 21
22.30000000000001
 31
0.0
  0
LINE
  5
71
330
48
100
AcDbEntity
  8
1
  6
Continuous
 62
     7
100
AcDbLine
 10
196.0
 20
25.50000000000001
 30
0.0
 11
196.0
 21
21.50000000000001
 31
0.0
  0
LINE
  5
72
330
48
100
AcDbEntity
  8
1
  6
Continuous
 62
     7
100
AcDbLine
 10
191.0
 20
24.7
 30
0.0
 11
196.0
 21
25.50000000000001
 31
0.0
  0
LINE
  5
73
330
48
100
AcDbEntity
  8
1
  6
Continuous
 62
     7
100
AcDbLine
 10
191.0
 20
24.7
 30
0.0
 11
191.0
 21
22.30000000000001
 31
0.0
  0
LINE
  5
74
330
48
100
AcDbEntity
  8
1
  6
Continuous
 62
     2
100
AcDbLine
 10
33.0
 20
27.0
 30
0.0
 11
33.0
 21
10.0
 31
0.0
  0
LINE
  5
75
330
48
100
AcDbEntity
  8
1
  6
Continuous
 62
     2
100
AcDbLine
 10
25.0
 20
18.50000000000001
 30
0.0
 11
80.99999999999997
 21
18.50000000000001
 31
0.0
  0
LINE
  5
76
330
48
100
AcDbEntity
  8
1
  6
Continuous
 62
     7
100
AcDbLine
 10
200.0
 20
287.0000000000003
 30
0.0
 11
105.0
 21
287.0000000000003
 31
0.0
  0
LINE
  5
77
330
48
100
AcDbEntity
  8
1
  6
Continuous
 62
     7
100
AcDbLine
 10
200.0
 20
10.0
 30
0.0
 11
200.0
 21
148.5
 31
0.0
  0
LINE
  5
78
330
48
100
AcDbEntity
  8
1
  6
Continuous
 62
     7
100
AcDbLine
 10
25.0
 20
10.0
 30
0.0
 11
105.0
 21
10.0
 31
0.0
  0
LINE
  5
79
330
48
100
AcDbEntity
  8
1
  6
PHANTOM
 62
     4
100
AcDbLine
 10
0.0
 20
297.0
 30
0.0
 11
0.0
 21
0.0
 31
0.0
  0
LINE
  5
7A
330
48
100
AcDbEntity
  8
1
  6
PHANTOM
 62
     4
100
AcDbLine
 10
210.0
 20
297.0
 30
0.0
 11
0.0
 21
297.0
 31
0.0
  0
LINE
  5
7B
330
48
100
AcDbEntity
  8
1
  6
PHANTOM
 62
     4
100
AcDbLine
 10
210.0
 20
0.0
 30
0.0
 11
210.0
 21
297.0
 31
0.0
  0
LINE
  5
7C
330
48
100
AcDbEntity
  8
1
  6
PHANTOM
 62
     4
100
AcDbLine
 10
0.0
 20
0.0
 30
0.0
 11
210.0
 21
0.0
 31
0.0
  0
LINE
  5
7D
330
48
100
AcDbEntity
  8
1
  6
Continuous
 62
     7
100
AcDbLine
 10
25.0
 20
41.0
 30
0.0
 11
200.0
 21
41.0
 31
0.0
  0
LINE
  5
7E
330
48
100
AcDbEntity
  8
1
  6
Continuous
 62
     7
100
AcDbLine
 10
200.0
 20
27.00000000000001
 30
0.0
 11
25.0
 21
27.00000000000001
 31
0.0
  0
LINE
  5
7F
330
48
100
AcDbEntity
  8
1
  6
Continuous
 62
     2
100
AcDbLine
 10
33.0
 20
41.0
 30
0.0
 11
33.0
 21
27.0
 31
0.0
  0
LINE
  5
80
330
48
100
AcDbEntity
  8
1
  6
Continuous
 62
     2
100
AcDbLine
 10
54.99999999999997
 20
287.0000000000003
 30
0.0
 11
54.99999999999997
 21
277.0000000000003
 31
0.0
  0
LINE
  5
81
330
48
100
AcDbEntity
  8
1
  6
Continuous
 62
     2
100
AcDbLine
 10
40.0
 20
287.0000000000003
 30
0.0
 11
40.0
 21
277.0000000000003
 31
0.0
  0
LINE
  5
82
330
48
100
AcDbEntity
  8
1
  6
Continuous
 62
     7
100
AcDbLine
 10
25.0
 20
10.0
 30
0.0
 11
25.0
 21
148.5
 31
0.0
  0
LINE
  5
83
330
48
100
AcDbEntity
  8
1
  6
Continuous
 62
     2
100
AcDbLine
 10
54.99999999999997
 20
277.0000000000003
 30
0.0
 11
25.0
 21
277.0000000000003
 31
0.0
  0
LINE
  5
84
330
48
100
AcDbEntity
  8
1
  6
Continuous
 62
     2
100
AcDbLine
 10
166.0
 20
27.00000000000001
 30
0.0
 11
166.0
 21
10.0
 31
0.0
  0
LINE
  5
85
330
48
100
AcDbEntity
  8
1
  6
Continuous
 62
     2
100
AcDbLine
 10
132.0
 20
27.00000000000001
 30
0.0
 11
132.0
 21
9.99999999999998
 31
0.0
  0
LINE
  5
86
330
48
100
AcDbEntity
  8
1
  6
Continuous
 62
     2
100
AcDbLine
 10
149.0
 20
27.00000000000001
 30
0.0
 11
149.0
 21
10.0
 31
0.0
  0
LINE
  5
87
330
48
100
AcDbEntity
  8
1
  6
Continuous
 62
     2
100
AcDbLine
 10
115.0
 20
27.00000000000001
 30
0.0
 11
115.0
 21
9.99999999999998
 31
0.0
  0
LINE
  5
88
330
48
100
AcDbEntity
  8
1
  6
Continuous
 62
     2
100
AcDbLine
 10
97.99999999999997
 20
27.00000000000001
 30
0.0
 11
97.99999999999997
 21
9.99999999999998
 31
0.0
  0
LINE
  5
89
330
48
100
AcDbEntity
  8
1
  6
Continuous
 62
     2
100
AcDbLine
 10
166.0
 20
20.00000000000001
 30
0.0
 11
200.0
 21
20.00000000000001
 31
0.0
  0
LINE
  5
8A
330
48
100
AcDbEntity
  8
1
  6
Continuous
 62
     2
100
AcDbLine
 10
105.0
 20
287.0000000000003
 30
0.0
 11
105.0
 21
292.0000000000003
 31
0.0
  0
LINE
  5
8B
330
48
100
AcDbEntity
  8
1
  6
Continuous
 62
     7
100
AcDbLine
 10
105.0
 20
287.0000000000003
 30
0.0
 11
25.0
 21
287.0000000000003
 31
0.0
  0
LINE
  5
8C
330
48
100
AcDbEntity
  8
1
  6
Continuous
 62
     2
100
AcDbLine
 10
25.0
 20
148.5
 30
0.0
 11
20.0
 21
148.5
 31
0.0
  0
LINE
  5
8D
330
48
100
AcDbEntity
  8
1
  6
Continuous
 62
     7
100
AcDbLine
 10
25.0
 20
148.5
 30
0.0
 11
25.0
 21
287.0000000000003
 31
0.0
  0
LINE
  5
8E
330
48
100
AcDbEntity
  8
1
  6
Continuous
 62
     2
100
AcDbLine
 10
200.0
 20
148.5
 30
0.0
 11
205.0
 21
148.5
 31
0.0
  0
LINE
  5
8F
330
48
100
AcDbEntity
  8
1
  6
Continuous
 62
     7
100
AcDbLine
 10
200.0
 20
148.5
 30
0.0
 11
200.0
 21
287.0000000000003
 31
0.0
  0
LINE
  5
90
330
48
100
AcDbEntity
  8
1
  6
Continuous
 62
     2
100
AcDbLine
 10
105.0
 20
10.0
 30
0.0
 11
105.0
 21
4.99999999999999
 31
0.0
  0
LINE
  5
91
330
48
100
AcDbEntity
  8
1
  6
Continuous
 62
     7
100
AcDbLine
 10
105.0
 20
10.0
 30
0.0
 11
200.0
 21
10.0
 31
0.0
  0
CIRCLE
  5
96
330
48
100
AcDbEntity
  8
1
  6
DOT_CENTER
 62
     7
100
AcDbCircle
 10
89.49999999999997
 20
18.0
 30
0.0
 40
0.1000000000000227
  0
CIRCLE
  5
97
330
48
100
AcDbEntity
  8
1
  6
DOT_CENTER
 62
     7
100
AcDbCircle
 10
89.49999999999997
 20
16.0
 30
0.0
 40
0.1000000000000227
  0
CIRCLE
  5
98
330
48
100
AcDbEntity
  8
1
  6
Continuous
 62
     7
100
AcDbCircle
 10
187.0
 20
23.50000000000001
 30
0.0
 40
2.0
  0
CIRCLE
  5
99
330
48
100
AcDbEntity
  8
1
  6
Continuous
 62
     7
100
AcDbCircle
 10
187.0
 20
23.50000000000001
 30
0.0
 40
1.200000000000102
  0
CIRCLE
  5
9A
330
48
100
AcDbEntity
  8
1
  6
Continuous
 62
     7
100
AcDbCircle
 10
154.5
 20
12.5
 30
0.0
 40
0.3000000000000114
  0
CIRCLE
  5
9B
330
48
100
AcDbEntity
  8
1
  6
Continuous
 62
     7
100
AcDbCircle
 10
160.5
 20
12.5
 30
0.0
 40
0.3000000000000114
  0
CIRCLE
  5
9C
330
48
100
AcDbEntity
  8
1
  6
Continuous
 62
     7
100
AcDbCircle
 10
143.5
 20
12.5
 30
0.0
 40
0.3000000000000114
  0
CIRCLE
  5
9D
330
48
100
AcDbEntity
  8
1
  6
Continuous
 62
     7
100
AcDbCircle
 10
137.5
 20
12.5
 30
0.0
 40
0.3000000000000114
  0
CIRCLE
  5
9E
330
48
100
AcDbEntity
  8
1
  6
Continuous
 62
     7
100
AcDbCircle
 10
126.5
 20
12.5
 30
0.0
 40
0.2999999999999972
  0
CIRCLE
  5
9F
330
48
100
AcDbEntity
  8
1
  6
Continuous
 62
     7
100
AcDbCircle
 10
120.5
 20
12.5
 30
0.0
 40
0.2999999999999972
  0
CIRCLE
  5
A0
330
48
100
AcDbEntity
  8
1
  6
Continuous
 62
     7
100
AcDbCircle
 10
109.5
 20
12.5
 30
0.0
 40
0.2999999999999972
  0
CIRCLE
  5
A1
330
48
100
AcDbEntity
  8
1
  6
Continuous
 62
     7
100
AcDbCircle
 10
103.5
 20
12.5
 30
0.0
 40
0.2999999999999972
  0
SPLINE
  5
A2
102
{ACAD_REACTORS
330
C0
102
}
330
48
100
AcDbEntity
  8
_U_30EC_U_30A4_U_30E4_U_30FC_1
  6
Continuous
 62
     2
100
AcDbSpline
210
0.0
220
0.0
230
1.0
 70
    11
 71
     3
 72
    99
 73
    95
 74
    93
 42
0.000000001
 43
0.0000000001
 44
0.00000001
 40
0.0
 40
0.0
 40
0.0
 40
0.0
 40
0.0796417172273019
 40
0.1621768542356577
 40
0.2486489160958192
 40
0.3404969668525143
 40
0.4381912511165166
 40
0.5434463660245468
 40
0.6518115192847788
 40
0.753019093788736
 40
0.8492196919725631
 40
0.9419290312998626
 40
1.034249663570087
 40
1.129078600620246
 40
1.226697027573286
 40
1.327220425421745
 40
1.470572134938059
 40
1.595489863371259
 40
1.719934125348446
 40
1.850576620127463
 40
1.989059629987352
 40
2.134139054226972
 40
2.280698007207258
 40
2.424529739039524
 40
2.565929576985893
 40
2.708239260773584
 40
2.861717887443711
 40
3.045168540347416
 40
3.183798301138661
 40
3.314813961455502
 40
3.442083470447357
 40
3.569912708373013
 40
3.702177512509412
 40
3.842307559659581
 40
3.992872223245985
 40
4.156750662218373
 40
4.310981861107538
 40
4.44585990932264
 40
4.572393936131631
 40
4.701656719782032
 40
4.768279086008513
 40
4.835960697898455
 40
4.91278891872938
 40
5.006285208481588
 40
5.026909478751664
 40
5.047533749021229
 40
5.101808031471301
 40
5.162325165538626
 40
5.226919745995916
 40
5.294231806596763
 40
5.364544852554914
 40
5.438319055467958
 40
5.517877651324294
 40
5.607647714861606
 40
5.700449642544453
 40
5.788251142364185
 40
5.872714706039815
 40
5.955167292575395
 40
6.037192395190434
 40
6.120669181469169
 40
6.206848616686403
 40
6.296680855416821
 40
6.442558392872642
 40
6.568190371608349
 40
6.692904567360411
 40
6.824220446557208
 40
6.963121850329394
 40
7.107843738851154
 40
7.253431663907319
 40
7.39518746803677
 40
7.533140753237801
 40
7.670550457175312
 40
7.816236511769314
 40
7.987691657359275
 40
8.142277421969306
 40
8.293662615415057
 40
8.442962460879311
 40
8.591598316185358
 40
8.743678992361833
 40
8.903725323699215
 40
9.076307008890563
 40
9.265578604680618
 40
9.459203795360793
 40
9.61761981027358
 40
9.75360967136196
 40
9.874873300004108
 40
9.954520184977818
 40
10.02416413719249
 40
10.09769764405449
 40
10.18909955924975
 40
10.20974586420137
 40
10.23039218263382
 40
10.30057101881266
 40
10.37632012987543
 40
10.37632012987543
 40
10.37632012987543
 40
10.37632012987543
 10
170.146595483585
 20
14.13795663215993
 30
0.0
 10
170.1632217851219
 20
14.11720608845312
 30
0.0
 10
170.1970784206577
 20
14.07495111711903
 30
0.0
 10
170.2599822541035
 20
14.0202981139207
 30
0.0
 10
170.3332500940393
 20
13.9729902512105
 30
0.0
 10
170.4175969238636
 20
13.93527231437935
 30
0.0
 10
170.513224061546
 20
13.91040619731951
 30
0.0
 10
170.6171853775346
 20
13.90309559345937
 30
0.0
 10
170.7224020220405
 20
13.91142322794053
 30
0.0
 10
170.8206626371333
 20
13.94149179651528
 30
0.0
 10
170.9058986427548
 20
13.98848822971876
 30
0.0
 10
170.9779220206103
 20
14.04952991250856
 30
0.0
 10
171.0350917709096
 20
14.12412969578582
 30
0.0
 10
171.0767868747439
 20
14.21002464660173
 30
0.0
 10
171.1026952846292
 20
14.30485850432211
 30
0.0
 10
171.1118037332653
 20
14.41854979038366
 30
0.0
 10
171.0986864796487
 20
14.54332587770777
 30
0.0
 10
171.0325330334414
 20
14.66014719171892
 30
0.0
 10
170.9369370919569
 20
14.74512539577373
 30
0.0
 10
170.8249681022369
 20
14.81416684459161
 30
0.0
 10
170.6993659583269
 20
14.8720414204589
 30
0.0
 10
170.5656691620856
 20
14.9237372328434
 30
0.0
 10
170.431312281883
 20
14.9789909239718
 30
0.0
 10
170.3051983986877
 20
15.04939770641648
 30
0.0
 10
170.1926579987535
 20
15.13785540731249
 30
0.0
 10
170.0969963064458
 20
15.24981067868471
 30
0.0
 10
170.0334157151825
 20
15.39949910101382
 30
0.0
 10
170.0200706505016
 20
15.55932794385141
 30
0.0
 10
170.0320510987448
 20
15.71048405306844
 30
0.0
 10
170.0712298928841
 20
15.83809244591538
 30
0.0
 10
170.1354987750911
 20
15.95080874030844
 30
0.0
 10
170.223820499974
 20
16.04648609268686
 30
0.0
 10
170.3338091207628
 20
16.12354214985752
 30
0.0
 10
170.4632284401265
 20
16.18151396936278
 30
0.0
 10
170.6111838967792
 20
16.21739177588821
 30
0.0
 10
170.7682069455487
 20
16.22746719050565
 30
0.0
 10
170.917494046643
 20
16.21863637762588
 30
0.0
 10
171.059625361417
 20
16.19074899340352
 30
0.0
 10
171.1595922609625
 20
16.13413314701137
 30
0.0
 10
171.3125074736186
 20
16.08674602105506
 30
0.0
 10
171.2455131717168
 20
16.00197553001184
 30
0.0
 10
171.2296479120268
 20
15.93438901873483
 30
0.0
 10
171.1978750531297
 20
15.8692609279319
 30
0.0
 10
171.2150202209571
 20
15.76723453256952
 30
0.0
 10
171.1666427208232
 20
15.77493211681901
 30
0.0
 10
171.1315789440766
 20
15.76806771724807
 30
0.0
 10
171.1296697985719
 20
15.83263831158198
 30
0.0
 10
171.0985692931988
 20
15.87825639621391
 30
0.0
 10
171.0664551628456
 20
15.93561036628456
 30
0.0
 10
171.0208038475168
 20
15.98540462692558
 30
0.0
 10
170.9658508218387
 20
16.02994813718995
 30
0.0
 10
170.9010841173007
 20
16.06763988836549
 30
0.0
 10
170.8232377310597
 20
16.09283375791352
 30
0.0
 10
170.7355160553352
 20
16.09931230998109
 30
0.0
 10
170.6452903277806
 20
16.09235709285606
 30
0.0
 10
170.5594594694064
 20
16.06909190460921
 30
0.0
 10
170.4828343638596
 20
16.03131644107541
 30
0.0
 10
170.41652656362
 20
15.98051641089579
 30
0.0
 10
170.3622560536964
 20
15.91731143407206
 30
0.0
 10
170.3224925345459
 20
15.84276455710367
 30
0.0
 10
170.2976775510587
 20
15.75917313997762
 30
0.0
 10
170.289212426287
 20
15.65192948382285
 30
0.0
 10
170.3019697987102
 20
15.52965457267557
 30
0.0
 10
170.3681548409274
 20
15.41149724291213
 30
0.0
 10
170.4640977399831
 20
15.32606325709524
 30
0.0
 10
170.5757914963182
 20
15.25583362306725
 30
0.0
 10
170.7010863668702
 20
15.19659162305302
 30
0.0
 10
170.8349823941446
 20
15.1461670808613
 30
0.0
 10
170.968993033315
 20
15.09322516984382
 30
0.0
 10
171.0950885316914
 20
15.02750170625176
 30
0.0
 10
171.2076216638418
 20
14.94480352537319
 30
0.0
 10
171.3031370284232
 20
14.83996006310074
 30
0.0
 10
171.3672706486962
 20
14.69937117251568
 30
0.0
 10
171.3811103725278
 20
14.54065409451592
 30
0.0
 10
171.3673954712229
 20
14.38153155217875
 30
0.0
 10
171.3244739153985
 20
14.23483828819208
 30
0.0
 10
171.2545906329066
 20
14.10119796587141
 30
0.0
 10
171.1574592213829
 20
13.98532387699291
 30
0.0
 10
171.0347806023658
 20
13.89089981770087
 30
0.0
 10
170.8874408413167
 20
13.82179270651981
 30
0.0
 10
170.7177132497125
 20
13.77953210858853
 30
0.0
 10
170.5317404979596
 20
13.76781736230407
 30
0.0
 10
170.3528955926184
 20
13.77809486683436
 30
0.0
 10
170.1881733753743
 20
13.81966573769154
 30
0.0
 10
170.0834410841056
 20
13.88797642883939
 30
0.0
 10
169.9350960790366
 20
13.93675219032107
 30
0.0
 10
169.9980378194729
 20
14.02976591290841
 30
0.0
 10
170.0072274430059
 20
14.1029653624828
 30
0.0
 10
170.0303711301231
 20
14.16936294501345
 30
0.0
 10
170.0034588335317
 20
14.26974809527579
 30
0.0
 10
170.0521338956339
 20
14.26234033517377
 30
0.0
 10
170.0916530580697
 20
14.26894063620894
 30
0.0
 10
170.0996204944702
 20
14.19078703218932
 30
0.0
 10
170.1305436967922
 20
14.15600927375856
 30
0.0
 10
170.146595483585
 20
14.13795663215993
 30
0.0
 11
170.146595483585
 21
14.13795663215993
 31
0.0
 11
170.1982038075864
 21
14.07729869814735
 31
0.0
 11
170.2601105501335
 21
14.02271295163319
 31
0.0
 11
170.3327764009802
 21
13.97583980928383
 31
0.0
 11
170.4166468655843
 21
13.93839906276537
 31
0.0
 11
170.511221073241
 21
13.91390636311877
 31
0.0
 11
170.6161603327165
 21
13.90575829888472
 31
0.0
 11
170.7240739497552
 21
13.91564048638223
 31
0.0
 11
170.8208419941616
 21
13.94528704887482
 31
0.0
 11
170.9050776083319
 21
13.99175118948819
 31
0.0
 11
170.9756144207686
 21
14.05191413218149
 31
0.0
 11
171.031944210998
 21
14.12505819466319
 31
0.0
 11
171.0736690016003
 21
14.21021434047522
 31
0.0
 11
171.0994680808032
 21
14.30436190989612
 31
0.0
 11
171.1080824729446
 21
14.40451552098219
 31
0.0
 11
171.0878517703357
 21
14.54643250879396
 31
0.0
 11
171.0272522666731
 21
14.65566684036386
 31
0.0
 11
170.9364971286285
 21
14.74081306430094
 31
0.0
 11
170.826010188474
 21
14.81052746532516
 31
0.0
 11
170.7008523531254
 21
14.86979854169922
 31
0.0
 11
170.5662951950998
 21
14.9240425347412
 31
0.0
 11
170.4316884277007
 21
14.98201274306003
 31
0.0
 11
170.3065802017258
 21
15.05297399304231
 31
0.0
 11
170.196027609828
 21
15.14113315968693
 31
0.0
 11
170.1053381235265
 21
15.25080295132616
 31
0.0
 11
170.0447055469484
 21
15.39179720476315
 31
0.0
 11
170.0245079172553
 21
15.57413260402313
 31
0.0
 11
170.0374030471347
 21
15.71216131926641
 31
0.0
 11
170.0761016659391
 21
15.83733128451288
 31
0.0
 11
170.1393141731506
 21
15.94779262129083
 31
0.0
 11
170.2257499954545
 21
16.0419688539062
 31
0.0
 11
170.3336492808962
 21
16.1184654077065
 31
0.0
 11
170.4613526283328
 21
16.17615670109487
 31
0.0
 11
170.6075393259923
 21
16.21220066809973
 31
0.0
 11
170.770976856545
 21
16.22421385386062
 31
0.0
 11
170.9248918431289
 21
16.21434269066863
 31
0.0
 11
171.0564887242607
 21
16.18477329831496
 31
0.0
 11
171.172563634494
 21
16.13439993895252
 31
0.0
 11
171.2800792741122
 21
16.06264163167876
 31
0.0
 11
171.2516994050444
 21
16.00236624106886
 31
0.0
 11
171.2284855254283
 21
15.93879017337647
 31
0.0
 11
171.2078381040801
 21
15.86478841992269
 31
0.0
 11
171.1871840681487
 21
15.77360197897327
 31
0.0
 11
171.1665597978415
 21
15.77360197897327
 31
0.0
 11
171.1459355275343
 21
15.77360197897327
 31
0.0
 11
171.1256706495791
 21
15.82395108486346
 31
0.0
 11
171.099465875942
 21
15.87850045116929
 31
0.0
 11
171.0650468924451
 21
15.93316116296115
 31
0.0
 11
171.0203554612937
 21
15.9834959372541
 31
0.0
 11
170.9657333359511
 21
16.02777175321528
 31
0.0
 11
170.9016722004326
 21
16.064361423345
 31
0.0
 11
170.825968296114
 21
16.08882545979726
 31
0.0
 11
170.7365722046449
 21
16.09701100667021
 31
0.0
 11
170.6440937174207
 21
16.08926973931101
 31
0.0
 11
170.5594072091645
 21
16.06609003445565
 31
0.0
 11
170.483702448884
 21
16.02863495634008
 31
0.0
 11
170.4183754766515
 21
15.97832774281102
 31
0.0
 11
170.3650487887664
 21
15.91600293379879
 31
0.0
 11
170.3254809233901
 21
15.84249947895606
 31
0.0
 11
170.3009523754711
 21
15.75988443557391
 31
0.0
 11
170.2927954104108
 21
15.67042329844352
 31
0.0
 11
170.3130095765617
 21
15.52595308146573
 31
0.0
 11
170.373625616682
 21
15.41591177072936
 31
0.0
 11
170.4643479320758
 21
15.3303367013063
 31
0.0
 11
170.5748676948813
 21
15.25941954854625
 31
0.0
 11
170.7000089937719
 21
15.19914305550579
 31
0.0
 11
170.8345826882552
 21
15.14590447913021
 31
0.0
 11
170.9691729191967
 21
15.09039489581073
 31
0.0
 11
171.0942976816297
 21
15.02377281249409
 31
0.0
 11
171.204800907977
 21
14.94118863716749
 31
0.0
 11
171.2955397598288
 21
14.83800003476271
 31
0.0
 11
171.3561557999488
 21
14.70552315979584
 31
0.0
 11
171.3763699660997
 21
14.53526378483838
 31
0.0
 11
171.3621839747998
 21
14.38133030397411
 31
0.0
 11
171.3196087009193
 21
14.23605531269096
 31
0.0
 11
171.2499752884265
 21
14.10398854189067
 31
0.0
 11
171.1544992078713
 21
13.99007218775247
 31
0.0
 11
171.0341060772624
 21
13.89715272597017
 31
0.0
 11
170.8896160201846
 21
13.8283235766818
 31
0.0
 11
170.7223519532713
 21
13.78581275203967
 31
0.0
 11
170.5336103348226
 21
13.77165864614041
 31
0.0
 11
170.3405031726387
 21
13.78581275203967
 31
0.0
 11
170.1878975900911
 21
13.8283235766818
 31
0.0
 11
170.0661897942203
 21
13.88899033013889
 31
0.0
 11
169.9660261826363
 21
13.95734322942736
 31
0.0
 11
169.9922320587039
 21
14.03255545163076
 31
0.0
 11
170.0090121537618
 21
14.10014767383612
 31
0.0
 11
170.0206196447852
 21
14.17275926235961
 31
0.0
 11
170.0313606254139
 21
14.26352788212858
 31
0.0
 11
170.0520069443315
 21
14.26352788212858
 31
0.0
 11
170.0726532632492
 21
14.26352788212858
 31
0.0
 11
170.1048916391629
 21
14.20119204881083
 31
0.0
 11
170.146595483585
 21
14.13795663215993
 31
0.0
  0
SPLINE
  5
A3
102
{ACAD_REACTORS
330
C1
102
}
330
48
100
AcDbEntity
  8
_U_30EC_U_30A4_U_30E4_U_30FC_1
  6
Continuous
 62
     2
100
AcDbSpline
210
0.0
220
0.0
230
1.0
 70
    11
 71
     3
 72
    57
 73
    53
 74
    51
 42
0.000000001
 43
0.0000000001
 44
0.00000001
 40
0.0
 40
0.0
 40
0.0
 40
0.0
 40
0.0471632082809242
 40
0.0914861054632161
 40
0.1357762519702397
 40
0.1826527001610692
 40
0.2295203288572885
 40
0.273775197222077
 40
0.3181310461543363
 40
0.3652607198398531
 40
0.4571007286314503
 40
0.5671851029165584
 40
0.689462328386852
 40
0.8181758272545968
 40
0.9510087229274207
 40
1.085852229674065
 40
1.218126164475317
 40
1.343545131142384
 40
1.4545372029568
 40
1.56718760753081
 40
1.680710966642428
 40
1.794226869736792
 40
1.900009184247592
 40
2.004085860447871
 40
2.108162674451759
 40
2.214000150155303
 40
2.496038577352139
 40
2.76235074547928
 40
2.997275353279405
 40
3.185110082137733
 40
3.246407890063961
 40
3.312607550212777
 40
3.378877742711622
 40
3.440140399651449
 40
4.100501696006471
 40
4.754913085563524
 40
5.411331693423937
 40
6.07789043256872
 40
6.110575292670999
 40
6.143260152775779
 40
6.367989363395175
 40
6.610525374951576
 40
6.863389136467337
 40
7.119380025547624
 40
7.376036605091119
 40
7.631164770966285
 40
7.876722425456442
 40
8.104953735855977
 40
8.312916685924314
 40
8.49773029494132
 40
8.651018984313874
 40
8.764738853624612
 40
8.764738853624612
 40
8.764738853624612
 40
8.764738853624612
 10
174.7922649500513
 20
13.81626739612926
 30
0.0
 10
174.7766616726931
 20
13.81826231079077
 30
0.0
 10
174.7463947960302
 20
13.82213201360299
 30
0.0
 10
174.7010994202252
 20
13.82341984967267
 30
0.0
 10
174.6559553129349
 20
13.82308683554051
 30
0.0
 10
174.6099017123399
 20
13.82314658674223
 30
0.0
 10
174.5640496172096
 20
13.82325813650001
 30
0.0
 10
174.5183711648164
 20
13.8227783345659
 30
0.0
 10
174.4750811541608
 20
13.82461109618722
 30
0.0
 10
174.4039947951513
 20
13.80049556814656
 30
0.0
 10
174.4057477261442
 20
13.92184693977254
 30
0.0
 10
174.3586196370568
 20
14.00726239751229
 30
0.0
 10
174.3191478251761
 20
14.12486929345135
 30
0.0
 10
174.2706635532645
 20
14.2423275254044
 30
0.0
 10
174.2201017402521
 20
14.36405935761506
 30
0.0
 10
174.1718634610477
 20
14.49075967862467
 30
0.0
 10
174.1135232947595
 20
14.59933687784951
 30
0.0
 10
174.0980892667261
 20
14.75620657134409
 30
0.0
 10
173.9566586330635
 20
14.72373446548321
 30
0.0
 10
173.8508397414904
 20
14.7351288868218
 30
0.0
 10
173.7358569725222
 20
14.73392591514615
 30
0.0
 10
173.625314225214
 20
14.73506945347408
 30
0.0
 10
173.5176583522784
 20
14.73418350037526
 30
0.0
 10
173.4121322529242
 20
14.73416602390519
 30
0.0
 10
173.3109192682013
 20
14.72714032472414
 30
0.0
 10
173.1266804827753
 20
14.75135859859867
 30
0.0
 10
173.1157393685411
 20
14.44741691121884
 30
0.0
 10
173.008769163475
 20
14.22353177253396
 30
0.0
 10
172.9098148604347
 20
14.03895314292497
 30
0.0
 10
172.9225090524007
 20
13.79530204804204
 30
0.0
 10
172.8050091716397
 20
13.82508046753198
 30
0.0
 10
172.7422055868309
 20
13.82258089509603
 30
0.0
 10
172.67858720934
 20
13.82344075102805
 30
0.0
 10
172.3946014194074
 20
13.78098039941941
 30
0.0
 10
173.0251638499381
 20
14.50081952444787
 30
0.0
 10
173.108764528907
 20
15.01276539435728
 30
0.0
 10
173.4929252789341
 20
15.53353743550044
 30
0.0
 10
173.4777208288563
 20
16.23519626253211
 30
0.0
 10
173.7239265722697
 20
16.22345633081257
 30
0.0
 10
173.825634615756
 20
16.23225004452772
 30
0.0
 10
173.8249752035818
 20
15.98059650730346
 30
0.0
 10
173.9428317155828
 20
15.79818020733957
 30
0.0
 10
174.0315515260485
 20
15.55563740662865
 30
0.0
 10
174.1322292485259
 20
15.32340030530126
 30
0.0
 10
174.2311142712243
 20
15.08674644566914
 30
0.0
 10
174.3299676990667
 20
14.85461739170088
 30
0.0
 10
174.4256166390926
 20
14.6312222278879
 30
0.0
 10
174.5159904573271
 20
14.42272549049316
 30
0.0
 10
174.5989944568189
 20
14.2330844852932
 30
0.0
 10
174.6726088582798
 20
14.06663106068099
 30
0.0
 10
174.7342815895546
 20
13.92917699626097
 30
0.0
 10
174.7749458885604
 20
13.84999239430033
 30
0.0
 10
174.7922649500513
 20
13.81626739612926
 30
0.0
 11
174.7922649500513
 21
13.81626739612926
 31
0.0
 11
174.7453878317448
 21
13.82145433189185
 31
0.0
 11
174.7010975896125
 21
13.82315538223862
 31
0.0
 11
174.6568074431729
 21
13.82315538223862
 31
0.0
 11
174.6099309947159
 21
13.82315538223862
 31
0.0
 11
174.5630633657033
 21
13.82315538223862
 31
0.0
 11
174.5188084970408
 21
13.82315538223862
 31
0.0
 11
174.4744852776853
 21
13.82145433189185
 31
0.0
 11
174.4276419021443
 21
13.81626739612926
 31
0.0
 11
174.3992532136325
 21
13.90360966173243
 31
0.0
 11
174.3622721815897
 21
14.00729656274819
 31
0.0
 11
174.3188386236701
 21
14.12159987001127
 31
0.0
 11
174.2711055866936
 21
14.24113531268968
 31
0.0
 11
174.2208160133236
 21
14.36408057307564
 31
0.0
 11
174.1696467003932
 21
14.48883822929446
 31
0.0
 11
174.1197531801326
 21
14.61134141502771
 31
0.0
 11
174.0733119111841
 21
14.72784517367916
 31
0.0
 11
173.9623611907589
 21
14.73087465284505
 31
0.0
 11
173.8497309225089
 21
14.7330045486779
 31
0.0
 11
173.7362152069449
 21
14.7343219531914
 31
0.0
 11
173.62270004768
 21
14.73473315978852
 31
0.0
 11
173.5169185312816
 21
14.7343219531914
 31
0.0
 11
173.4128501919225
 21
14.7330045486779
 31
0.0
 11
173.3087951724045
 21
14.73087465284505
 31
0.0
 11
173.2030010615596
 21
14.72784517367916
 31
0.0
 11
173.0980914750139
 21
14.4660443751335
 31
0.0
 11
173.0034868690331
 21
14.21710232658459
 31
0.0
 11
172.9252231210298
 21
13.99559756969556
 31
0.0
 11
172.8693431224555
 21
13.81626739612926
 31
0.0
 11
172.8082651639442
 21
13.82145433189185
 31
0.0
 11
172.7420873618129
 21
13.82315538223862
 31
0.0
 11
172.6758390041282
 21
13.82145433189185
 31
0.0
 11
172.6147963233938
 21
13.81626739612926
 31
0.0
 11
172.889968495193
 21
14.41656508695141
 31
0.0
 11
173.158294573417
 21
15.01343642360774
 31
0.0
 11
173.4240277350405
 21
15.61366245644381
 31
0.0
 11
173.6914740737033
 21
16.22421385386062
 31
0.0
 11
173.7241589339806
 21
16.22421385386062
 31
0.0
 11
173.7568437942579
 21
16.22421385386062
 31
0.0
 11
173.8428300681057
 21
16.01658539037083
 31
0.0
 11
173.9357285813609
 21
15.79254614563516
 31
0.0
 11
174.0328714521463
 21
15.55908663180467
 31
0.0
 11
174.1317936458031
 21
15.32298128464144
 31
0.0
 11
174.2315341249927
 21
15.08649780379783
 31
0.0
 11
174.3313071129352
 21
14.85168781253709
 31
0.0
 11
174.4280608257448
 21
14.62599492196849
 31
0.0
 11
174.5188084970408
 21
14.41658052097919
 31
0.0
 11
174.6022150834546
 21
14.22607611130461
 31
0.0
 11
174.6770293263377
 21
14.05708232662467
 31
0.0
 11
174.7410729186603
 21
13.91781337700667
 31
0.0
 11
174.7922649500513
 21
13.81626739612926
 31
0.0
  0
SPLINE
  5
A4
102
{ACAD_REACTORS
330
C1
102
}
330
48
100
AcDbEntity
  8
_U_30EC_U_30A4_U_30E4_U_30FC_1
  6
Continuous
 62
     2
100
AcDbSpline
210
0.0
220
0.0
230
1.0
 70
    11
 71
     3
 72
    25
 73
    21
 74
    19
 42
0.000000001
 43
0.0000000001
 44
0.00000001
 40
0.0
 40
0.0
 40
0.0
 40
0.0
 40
0.0911479969064822
 40
0.1858117896204668
 40
0.2804128399734492
 40
0.3715889190713659
 40
0.4679080494218426
 40
0.5642683809229234
 40
0.660568322264471
 40
0.756965301581026
 40
0.8561348172522744
 40
1.092615965104293
 40
1.374867658141876
 40
1.611348812011602
 40
1.71051832842525
 40
1.809403163726568
 40
2.04520546329407
 40
2.32664691762213
 40
2.562449217190593
 40
2.661334043833912
 40
2.661334043833912
 40
2.661334043833912
 40
2.661334043833912
 10
173.2683700567199
 20
14.88614538197292
 30
0.0
 10
173.2987525917922
 20
14.88598079714554
 30
0.0
 10
173.3606895889112
 20
14.88564528689922
 30
0.0
 10
173.4541356960331
 20
14.88269055451999
 30
0.0
 10
173.5475095236357
 20
14.8797775287715
 30
0.0
 10
173.6417760753476
 20
14.87894201643416
 30
0.0
 10
173.7354964790966
 20
14.87996644658046
 30
0.0
 10
173.8352040303204
 20
14.87916977470972
 30
0.0
 10
173.9188949546312
 20
14.88921410235219
 30
0.0
 10
174.0637996315045
 20
14.86234617674164
 30
0.0
 10
173.9396132444801
 20
15.03665530280049
 30
0.0
 10
173.8965867286282
 20
15.19651711006091
 30
0.0
 10
173.7808922142209
 20
15.45518458550216
 30
0.0
 10
173.7017565431257
 20
15.59231052861858
 30
0.0
 10
173.6431576621816
 20
15.80937033134077
 30
0.0
 10
173.5864803939438
 20
15.59266134213428
 30
0.0
 10
173.5052809900478
 20
15.45327012438236
 30
0.0
 10
173.4063701281488
 20
15.20406969370195
 30
0.0
 10
173.325362509426
 20
15.01925830226073
 30
0.0
 10
173.2813683325838
 20
14.91650446856116
 30
0.0
 10
173.2683700567199
 20
14.88614538197292
 30
0.0
 11
173.2683700567199
 21
14.88614538197292
 31
0.0
 11
173.359513773782
 21
14.88526123266759
 31
0.0
 11
173.4541428297581
 21
14.88269697919598
 31
0.0
 11
173.5487082179706
 21
14.88009965280777
 31
0.0
 11
173.6398803250195
 21
14.87924857641909
 31
0.0
 11
173.7361985777706
 21
14.8796597830162
 31
0.0
 11
173.8325499034376
 21
14.88097718752971
 31
0.0
 11
173.9288262638286
 21
14.88310818579312
 31
0.0
 11
174.0251753846343
 21
14.88614538197292
 31
0.0
 11
173.9854633323141
 21
14.9770164219502
 31
0.0
 11
173.8907653613968
 21
15.19370890189602
 31
0.0
 11
173.7777387509471
 21
15.45234186183135
 31
0.0
 11
173.6830407800297
 21
15.66903434177717
 31
0.0
 11
173.6433287277095
 21
15.75990538175445
 31
0.0
 11
173.6043330259266
 21
15.66903434177717
 31
0.0
 11
173.5113432755212
 21
15.45234186183135
 31
0.0
 11
173.4003555089082
 21
15.19370890189602
 31
0.0
 11
173.3073657585028
 21
14.9770164219502
 31
0.0
 11
173.2683700567199
 21
14.88614538197292
 31
0.0
  0
SPLINE
  5
A5
102
{ACAD_REACTORS
330
C2
102
}
330
48
100
AcDbEntity
  8
_U_30EC_U_30A4_U_30E4_U_30FC_1
  6
Continuous
 62
     2
100
AcDbSpline
210
0.0
220
0.0
230
1.0
 70
    11
 71
     3
 72
    95
 73
    91
 74
    89
 42
0.000000001
 43
0.0000000001
 44
0.00000001
 40
0.0
 40
0.0
 40
0.0
 40
0.0
 40
0.6550406656911145
 40
1.308087289031874
 40
1.420803739835738
 40
1.566130759770745
 40
1.757067341888405
 40
2.006513545026404
 40
2.087328263121492
 40
2.185328872295565
 40
2.294612454748307
 40
2.408936380534758
 40
2.526802767798502
 40
2.646360524615556
 40
2.762535723971523
 40
2.870057342870096
 40
2.966883448431584
 40
3.050803243518232
 40
3.115818222436549
 40
3.156030057150192
 40
3.213914225080123
 40
3.276689026450496
 40
3.342960320981273
 40
3.404230667150522
 40
3.453822809493333
 40
3.532499827188387
 40
3.634775188507135
 40
3.754909333008133
 40
3.889736761660624
 40
4.035769602175197
 40
4.187256681197578
 40
4.338733685675918
 40
4.488478734676081
 40
4.634708317831557
 40
4.771493189921241
 40
4.892686571561183
 40
5.199775528944415
 40
5.460353566929609
 40
5.667603142345476
 40
5.814722905404463
 40
5.828990806219761
 40
5.855488336304458
 40
5.86975623711879
 40
6.189796507762798
 40
6.53189046987299
 40
6.88305363701698
 40
7.230512024911397
 40
7.566966656764557
 40
7.885203559707381
 40
8.172887439719187
 40
8.418011594062742
 40
8.443926721190664
 40
8.51076047061315
 40
8.602145393795661
 40
8.7017140416471
 40
8.79309896507533
 40
8.859932715057905
 40
8.885847842603553
 40
9.242301256612773
 40
9.589275455016733
 40
9.921808543164133
 40
10.23479624298464
 40
10.29968150889175
 40
10.35323493887755
 40
10.40154625355145
 40
10.46482922477824
 40
10.55973900668405
 40
10.69239545985618
 40
10.84920353475671
 40
11.01626328594779
 40
11.18672024367443
 40
11.3537258257721
 40
11.50257442292427
 40
11.61866495023292
 40
11.71329869152875
 40
11.82511050573908
 40
11.94464880845715
 40
12.06929242642506
 40
12.19707290435176
 40
12.32562632860529
 40
12.45034565331279
 40
12.56646595170327
 40
12.67099007414635
 40
12.76077625936782
 40
12.82703233506694
 40
12.87429132785993
 40
12.89831990323332
 40
12.9223484786002
 40
13.5398476741032
 40
14.18294284359371
 40
14.18294284359371
 40
14.18294284359371
 40
14.18294284359371
 10
177.306793564802
 20
14.70898038201724
 30
0.0
 10
177.175201975855
 20
14.82265058603232
 30
0.0
 10
176.9124193802728
 20
15.04964496316158
 30
0.0
 10
176.399739344102
 20
15.89214462956286
 30
0.0
 10
176.4106654595362
 20
15.53423377577019
 30
0.0
 10
176.4041226527991
 20
15.39267392272132
 30
0.0
 10
176.4028026631772
 20
15.1942130529928
 30
0.0
 10
176.4018117602538
 20
15.02150296045982
 30
0.0
 10
176.4024101751974
 20
14.87865373257579
 30
0.0
 10
176.4038994301882
 20
14.78265005413358
 30
0.0
 10
176.4055683588473
 20
14.67545503263141
 30
0.0
 10
176.4071934954616
 20
14.56164211517581
 30
0.0
 10
176.4092429501685
 20
14.44441572604588
 30
0.0
 10
176.4123165501927
 20
14.32656411232969
 30
0.0
 10
176.4156339697042
 20
14.21228087320619
 30
0.0
 10
176.419360534028
 20
14.10521401867277
 30
0.0
 10
176.4217338161423
 20
14.01007408766921
 30
0.0
 10
176.4278718888356
 20
13.92558557205695
 30
0.0
 10
176.4239784495947
 20
13.86923087298142
 30
0.0
 10
176.4455230443077
 20
13.79825022472353
 30
0.0
 10
176.3680940058618
 20
13.82902677604483
 30
0.0
 10
176.3116353240191
 20
13.82011242517613
 30
0.0
 10
176.2540495896807
 20
13.82896218398275
 30
0.0
 10
176.1690163478472
 20
13.79738225225943
 30
0.0
 10
176.2009714146382
 20
13.88095155992189
 30
0.0
 10
176.1990705282539
 20
13.94882608968308
 30
0.0
 10
176.21079600473
 20
14.05233256764419
 30
0.0
 10
176.2164241053
 20
14.17002125616694
 30
0.0
 10
176.223790217894
 20
14.30388609164423
 30
0.0
 10
176.2320759701611
 20
14.44764152872632
 30
0.0
 10
176.2398851897426
 20
14.59714022843445
 30
0.0
 10
176.2457571222657
 20
14.74792549402077
 30
0.0
 10
176.2503667817968
 20
14.89699943878437
 30
0.0
 10
176.2542632117542
 20
15.04122913163021
 30
0.0
 10
176.2570715126564
 20
15.17583905213018
 30
0.0
 10
176.2576698755022
 20
15.36469614347353
 30
0.0
 10
176.2616023867149
 20
15.58975494313153
 30
0.0
 10
176.2442175378499
 20
15.86367091125707
 30
0.0
 10
176.2850417342581
 20
16.02787112098595
 30
0.0
 10
176.1995153256005
 20
16.22749661465097
 30
0.0
 10
176.2660558907687
 20
16.22385458403978
 30
0.0
 10
176.2838724273231
 20
16.22413447160854
 30
0.0
 10
176.40568017975
 20
16.22632927398614
 30
0.0
 10
176.5080770335463
 20
15.94675118721514
 30
0.0
 10
176.7580021509356
 20
15.74563008536001
 30
0.0
 10
176.9870035331111
 20
15.4779261498792
 30
0.0
 10
177.2245151213108
 20
15.22646413862368
 30
0.0
 10
177.4486090740772
 20
14.98969974061361
 30
0.0
 10
177.6750716283009
 20
14.73218692583078
 30
0.0
 10
177.8325687886515
 20
14.61649335056921
 30
0.0
 10
178.0472129612673
 20
14.27997152538792
 30
0.0
 10
178.0422645974619
 20
14.40464754091602
 30
0.0
 10
178.0433931602547
 20
14.46327691935737
 30
0.0
 10
178.0428877841516
 20
14.55043662371975
 30
0.0
 10
178.0430475158113
 20
14.64416143182871
 30
0.0
 10
178.0430054891318
 20
14.73018971297034
 30
0.0
 10
178.0430202040372
 20
14.79153891945494
 30
0.0
 10
178.0429706255984
 20
14.94135231520993
 30
0.0
 10
178.0458811522811
 20
15.17989612510104
 30
0.0
 10
178.0259521041161
 20
15.544865098687
 30
0.0
 10
178.0750433936247
 20
15.80799631993412
 30
0.0
 10
177.917795150918
 20
16.21928904947752
 30
0.0
 10
178.0762112872421
 20
16.16398282551749
 30
0.0
 10
178.1311680478628
 20
16.16199686500173
 30
0.0
 10
178.182788776674
 20
16.1626477824825
 30
0.0
 10
178.2713198965366
 20
16.20369527738247
 30
0.0
 10
178.2204898303168
 20
16.05696326622987
 30
0.0
 10
178.2313389930281
 20
15.95019971954433
 30
0.0
 10
178.2166036994848
 20
15.79085705414112
 30
0.0
 10
178.2099976446204
 20
15.62853061652873
 30
0.0
 10
178.2014961399915
 20
15.45992521892395
 30
0.0
 10
178.1943227202198
 20
15.2981481470354
 30
0.0
 10
178.1889063215389
 20
15.15422331457932
 30
0.0
 10
178.1871713967648
 20
15.03437493466924
 30
0.0
 10
178.1875440672319
 20
14.92686101590514
 30
0.0
 10
178.1873656126263
 20
14.81820024645585
 30
0.0
 10
178.1877010863138
 20
14.69953570165529
 30
0.0
 10
178.1890040622184
 20
14.5755516351274
 30
0.0
 10
178.1908887351574
 20
14.44858294171104
 30
0.0
 10
178.1925004454849
 20
14.32153861551031
 30
0.0
 10
178.1941403137429
 20
14.19854884492177
 30
0.0
 10
178.1962570745752
 20
14.08300931383759
 30
0.0
 10
178.1963848422363
 20
13.98090903955837
 30
0.0
 10
178.2006514396554
 20
13.89009848838156
 30
0.0
 10
178.1908440085289
 20
13.83213621208786
 30
0.0
 10
178.2118474771689
 20
13.76517130132028
 30
0.0
 10
178.1725639739897
 20
13.77291153966688
 30
0.0
 10
177.9595307117745
 20
13.75755254145193
 30
0.0
 10
177.7636297943187
 20
14.31403058094473
 30
0.0
 10
177.4611197631544
 20
14.57556035348511
 30
0.0
 10
177.306793564802
 20
14.70898038201724
 30
0.0
 11
177.306793564802
 21
14.70898038201724
 31
0.0
 11
176.859552933851
 21
15.18757635411977
 31
0.0
 11
176.4124049070643
 21
15.66352649288969
 31
0.0
 11
176.4089664262494
 21
15.55086249986232
 31
0.0
 11
176.40556101835
 21
15.40557538184309
 31
0.0
 11
176.4029636920274
 21
15.21465645827967
 31
0.0
 11
176.4021126156603
 21
14.96521170139756
 31
0.0
 11
176.4025239230289
 21
14.88439802954279
 31
0.0
 11
176.4038420329817
 21
14.78640628477561
 31
0.0
 11
176.4055192267718
 21
14.67713557299739
 31
0.0
 11
176.4072367127517
 21
14.56282454872038
 31
0.0
 11
176.4094007838772
 21
14.44497802965265
 31
0.0
 11
176.4124049070643
 21
14.32545802100198
 31
0.0
 11
176.4158359733138
 21
14.20933349846156
 31
0.0
 11
176.4192928929998
 21
14.10186746550229
 31
0.0
 11
176.4227085253087
 21
14.00510162351264
 31
0.0
 11
176.4261896983792
 21
13.92125406276972
 31
0.0
 11
176.4296006184313
 21
13.85632862007759
 31
0.0
 11
176.4330776843148
 21
13.81626739612926
 31
0.0
 11
176.3754263821571
 21
13.82145433189185
 31
0.0
 11
176.3126746318309
 21
13.82315538223862
 31
0.0
 11
176.2464251717157
 21
13.82145433189185
 31
0.0
 11
176.1853747739675
 21
13.81626739612926
 31
0.0
 11
176.1926772737812
 21
13.86531894125589
 31
0.0
 11
176.2008793569054
 21
13.94356725720854
 31
0.0
 11
176.2090098822348
 21
14.04551893253029
 31
0.0
 11
176.2163406441397
 21
14.16542920159752
 31
0.0
 11
176.2236358280421
 21
14.30005912343889
 31
0.0
 11
176.2318444255596
 21
14.44586107652745
 31
0.0
 11
176.2395504149465
 21
14.59715203135072
 31
0.0
 11
176.2455763002093
 21
14.74850913200733
 31
0.0
 11
176.2503046247416
 21
14.89817951391434
 31
0.0
 11
176.254192897212
 21
15.04435739582222
 31
0.0
 11
176.2567527408965
 21
15.18111831592696
 31
0.0
 11
176.2576324804574
 21
15.3023085068689
 31
0.0
 11
176.257192610677
 21
15.60939715262544
 31
0.0
 11
176.2559126888347
 21
15.86997204839365
 31
0.0
 11
176.2528658717893
 21
16.07719922716124
 31
0.0
 11
176.2473049112763
 21
16.22421385386062
 31
0.0
 11
176.2615728121469
 21
16.22421385386062
 31
0.0
 11
176.2880703423352
 21
16.22421385386062
 31
0.0
 11
176.3023382432058
 21
16.22421385386062
 31
0.0
 11
176.5194743650277
 21
15.98910179662772
 31
0.0
 11
176.7512744123079
 21
15.73751281231561
 31
0.0
 11
176.9894816018839
 21
15.4794955554357
 31
0.0
 11
177.226007455752
 21
15.22497079855488
 31
0.0
 11
177.4555698717705
 21
14.97899759549137
 31
0.0
 11
177.6731797360103
 21
14.74678934034107
 31
0.0
 11
177.8713724913707
 21
14.53826680567099
 31
0.0
 11
178.0430143099086
 21
14.36326697932588
 31
0.0
 11
178.0430143099086
 21
14.38918210687042
 31
0.0
 11
178.0430143099086
 21
14.4560158568537
 31
0.0
 11
178.0430143099086
 21
14.54740078030024
 31
0.0
 11
178.0430143099086
 21
14.64696942823452
 31
0.0
 11
178.0430143099086
 21
14.73835435168105
 31
0.0
 11
178.0430143099086
 21
14.80518810166434
 31
0.0
 11
178.0430143099086
 21
14.83110322920888
 31
0.0
 11
178.0417233637609
 21
15.18755430550867
 31
0.0
 11
178.0378461155958
 21
15.53450684014415
 31
0.0
 11
178.0296197790002
 21
15.86693815950551
 31
0.0
 11
178.0154535467228
 21
16.17960510387179
 31
0.0
 11
178.0790351249618
 21
16.16666367158334
 31
0.0
 11
178.132417015961
 21
16.16238072887606
 31
0.0
 11
178.1805381084833
 21
16.16666367158333
 31
0.0
 11
178.2424836798197
 21
16.17960510387179
 31
0.0
 11
178.2351216487574
 21
16.084981284451
 31
0.0
 11
178.2269790968817
 21
15.95257496503964
 31
0.0
 11
178.2183705364004
 21
15.79600336785655
 31
0.0
 11
178.2097547223215
 21
15.6291659373427
 31
0.0
 11
178.2016187850288
 21
15.4589032550936
 31
0.0
 11
178.1942501393835
 21
15.292060312427
 31
0.0
 11
178.1891406931522
 21
15.14329943572809
 31
0.0
 11
178.1874503478904
 21
15.027221215271
 31
0.0
 11
178.1874503478904
 21
14.93258747397518
 31
0.0
 11
178.1874503478904
 21
14.82077565976706
 31
0.0
 11
178.1878461204496
 21
14.70123801222748
 31
0.0
 11
178.1890819450708
 21
14.57660052093919
 31
0.0
 11
178.1908392193317
 21
14.44883212687391
 31
0.0
 11
178.1925303477607
 21
14.32028982655878
 31
0.0
 11
178.1942876220214
 21
14.19558288214554
 31
0.0
 11
178.1959787504505
 21
14.07947489606349
 31
0.0
 11
178.1972884379172
 21
13.97495896727017
 31
0.0
 11
178.1976985420735
 21
13.88517371555652
 31
0.0
 11
178.1976985420735
 21
13.81891763918415
 31
0.0
 11
178.1976985420735
 21
13.77165864614041
 31
0.0
 11
178.1736699662976
 21
13.77165864614041
 31
0.0
 11
178.1496413905217
 21
13.77165864614041
 31
0.0
 11
177.7410729200423
 21
14.2346673526219
 31
0.0
 11
177.306793564802
 21
14.70898038201724
 31
0.0
  0
SPLINE
  5
A6
102
{ACAD_REACTORS
330
C3
102
}
330
48
100
AcDbEntity
  8
_U_30EC_U_30A4_U_30E4_U_30FC_1
  6
Continuous
 62
     2
100
AcDbSpline
210
0.0
220
0.0
230
1.0
 70
    11
 71
     3
 72
   110
 73
   106
 74
   104
 42
0.000000001
 43
0.0000000001
 44
0.00000001
 40
0.0
 40
0.0
 40
0.0
 40
0.0
 40
0.220340625727772
 40
0.4407808782838091
 40
0.5952494494615072
 40
0.7488431659393074
 40
0.902358183130906
 40
1.056801968670405
 40
1.210736449099905
 40
1.363041386539784
 40
1.515315729683126
 40
1.669377239148077
 40
1.721611652756568
 40
1.773199502942955
 40
1.824933793210001
 40
1.877110426487979
 40
1.982682281206742
 40
2.078781667087551
 40
2.172809640822272
 40
2.271937807378925
 40
2.378349933379319
 40
2.494131557736508
 40
2.626681683943641
 40
2.783145050796069
 40
2.890701232940917
 40
2.993130312454816
 40
3.099869730691798
 40
3.220237816691288
 40
3.35269548273758
 40
3.481732806389828
 40
3.593499473690366
 40
3.674323013331873
 40
3.817951711952766
 40
3.94616712079382
 40
4.061405053453505
 40
4.166480796003146
 40
4.262478775059184
 40
4.350736673551141
 40
4.433071991254026
 40
4.511216293814628
 40
4.564262454117953
 40
4.61847441557157
 40
4.670128488754171
 40
4.722296879126363
 40
4.819540945314231
 40
4.931194984128087
 40
5.049996040257729
 40
5.168643755415274
 40
5.283970811762486
 40
5.392260784910397
 40
5.486512254876414
 40
5.559178233949785
 40
5.591425852853448
 40
5.626215969637838
 40
5.667155838674373
 40
5.71744929021418
 40
5.738402360944795
 40
5.784499116553764
 40
5.830595872164738
 40
5.851548942897598
 40
5.873019280661708
 40
5.92421777840825
 40
5.985325662817628
 40
6.036524160567639
 40
6.057994498334168
 40
6.23684778960742
 40
6.381409928945592
 40
6.493190424178624
 40
6.574067534230441
 40
6.691018086205535
 40
6.814881554220452
 40
6.944307823240405
 40
7.071266716066029
 40
7.193488604461874
 40
7.309042773128101
 40
7.414007203170726
 40
7.505140441886481
 40
7.531150360599639
 40
7.559221645322237
 40
7.587202218920894
 40
7.612569159499098
 40
7.662550809480985
 40
7.702878875764123
 40
7.857328205230937
 40
8.010799568088668
 40
8.165256399657562
 40
8.322232698713872
 40
8.479564855016559
 40
8.635216230290762
 40
8.79088255092568
 40
8.948305154947246
 40
9.168271839032938
 40
9.387358980987207
 40
9.608047961033451
 40
9.832914234792659
 40
9.858338694962994
 40
9.925366817230001
 40
10.02013071422759
 40
10.12876249858997
 40
10.23739428295248
 40
10.33215817995189
 40
10.39918630222393
 40
10.42461076239782
 40
10.64992019336941
 40
10.87188524531186
 40
10.87188524531186
 40
10.87188524531186
 40
10.87188524531186
 10
179.9057788376618
 20
15.7392326039819
 30
0.0
 10
179.9092864933542
 20
15.80616462073804
 30
0.0
 10
179.9163033987662
 20
15.94005891915858
 30
0.0
 10
179.8198027599073
 20
16.2254855497147
 30
0.0
 10
180.0510134726108
 20
16.16284386190282
 30
0.0
 10
180.1919290057156
 20
16.17001554055991
 30
0.0
 10
180.3490417757588
 20
16.16235883078243
 30
0.0
 10
180.5025913427287
 20
16.16252752283039
 30
0.0
 10
180.6545104935081
 20
16.16182040535431
 30
0.0
 10
180.8142214813231
 20
16.17210158351639
 30
0.0
 10
180.9408972601117
 20
16.1549651108075
 30
0.0
 10
181.137082112208
 20
16.22727260107146
 30
0.0
 10
181.1034395279078
 20
16.12640699080116
 30
0.0
 10
181.1052011317183
 20
16.0761925394767
 30
0.0
 10
181.1027342073458
 20
16.02712335586465
 30
0.0
 10
181.1347076966011
 20
15.94063490846999
 30
0.0
 10
181.0010399903256
 20
15.98997438608335
 30
0.0
 10
180.9172208688056
 20
15.98430634314168
 30
0.0
 10
180.8173861139324
 20
15.99465516706297
 30
0.0
 10
180.7186576720146
 20
16.00086450411086
 30
0.0
 10
180.612153277111
 20
16.00697763816777
 30
0.0
 10
180.491051169806
 20
16.01588883484586
 30
0.0
 10
180.3703381502453
 20
16.00521605912383
 30
0.0
 10
180.1812553843437
 20
16.06468503080366
 30
0.0
 10
180.2129028505311
 20
15.90558320077539
 30
0.0
 10
180.1995563316833
 20
15.80839128339903
 30
0.0
 10
180.197495842645
 20
15.69634065110103
 30
0.0
 10
180.1958188044671
 20
15.5769968562935
 30
0.0
 10
180.1973336794233
 20
15.4503259215511
 30
0.0
 10
180.195658247867
 20
15.32301588016117
 30
0.0
 10
180.2058844271657
 20
15.22451566404463
 30
0.0
 10
180.1779006596582
 20
15.08388702625632
 30
0.0
 10
180.3508029999305
 20
15.13989551134095
 30
0.0
 10
180.4645020202771
 20
15.12719951478497
 30
0.0
 10
180.5840151672239
 20
15.13448377051255
 30
0.0
 10
180.6888491425071
 20
15.13878017056754
 30
0.0
 10
180.7843084898612
 20
15.14330568258976
 30
0.0
 10
180.8763823507032
 20
15.151492011462
 30
0.0
 10
180.9476551782439
 20
15.1464385063811
 30
0.0
 10
181.0544931705685
 20
15.18536425031674
 30
0.0
 10
181.0226603598036
 20
15.10517122005879
 30
0.0
 10
181.026616450393
 20
15.05562936846033
 30
0.0
 10
181.0234502392013
 20
15.00557478039818
 30
0.0
 10
181.0550791490585
 20
14.92128847612022
 30
0.0
 10
180.9210133677691
 20
14.97425365495157
 30
0.0
 10
180.82923227932
 20
14.96540080890439
 30
0.0
 10
180.7079729189602
 20
14.97570049965154
 30
0.0
 10
180.5914113119771
 20
14.97748911767501
 30
0.0
 10
180.4783375745878
 20
14.97787017109694
 30
0.0
 10
180.3679246308471
 20
14.98415449472179
 30
0.0
 10
180.2898124067839
 20
14.97189133255364
 30
0.0
 10
180.1913625833644
 20
15.00453887616124
 30
0.0
 10
180.2012355173561
 20
14.94769748054205
 30
0.0
 10
180.1973923244402
 20
14.91392130557983
 30
0.0
 10
180.1966789884268
 20
14.8711960470941
 30
0.0
 10
180.1963369642975
 20
14.83401607262152
 30
0.0
 10
180.1963834255345
 20
14.7948723737077
 30
0.0
 10
180.1963649429927
 20
14.75716849497685
 30
0.0
 10
180.1963703431807
 20
14.71944955232402
 30
0.0
 10
180.19636972142
 20
14.68994324745149
 30
0.0
 10
180.1963698151545
 20
14.65873577699299
 30
0.0
 10
180.1963704287921
 20
14.61414424908085
 30
0.0
 10
180.1963671499336
 20
14.5596395650885
 30
0.0
 10
180.1963759623481
 20
14.51505540201448
 30
0.0
 10
180.1963359653415
 20
14.43117808585739
 30
0.0
 10
180.1976024270255
 20
14.31737520677678
 30
0.0
 10
180.1950274117842
 20
14.16830395933709
 30
0.0
 10
180.2065009381719
 20
14.06597203813905
 30
0.0
 10
180.1823506222263
 20
13.93338903885832
 30
0.0
 10
180.3332993946476
 20
13.9789573227202
 30
0.0
 10
180.4428436671556
 20
13.96427012162348
 30
0.0
 10
180.573397047392
 20
13.96920435125062
 30
0.0
 10
180.6990312209514
 20
13.97257705323361
 30
0.0
 10
180.8188730625601
 20
13.97711497498772
 30
0.0
 10
180.9391362611426
 20
13.99048536182005
 30
0.0
 10
181.0222761663514
 20
13.98068712782596
 30
0.0
 10
181.1456080421075
 20
14.04126214623318
 30
0.0
 10
181.1244269203956
 20
13.9853246013402
 30
0.0
 10
181.1235950270116
 20
13.95939249372346
 30
0.0
 10
181.1218963707557
 20
13.93197256190938
 30
0.0
 10
181.1217974888829
 20
13.89738195206385
 30
0.0
 10
181.120365930133
 20
13.86050408220767
 30
0.0
 10
181.153280419219
 20
13.76846841021806
 30
0.0
 10
180.9551306988106
 20
13.84132015974832
 30
0.0
 10
180.830054829489
 20
13.81825726508606
 30
0.0
 10
180.6673071295156
 20
13.82454021985785
 30
0.0
 10
180.5129366450001
 20
13.82260943909926
 30
0.0
 10
180.3566670436944
 20
13.82393762599268
 30
0.0
 10
180.1970544465282
 20
13.82059872487862
 30
0.0
 10
180.0540326342237
 20
13.83265795728241
 30
0.0
 10
179.8197144881628
 20
13.76952001976916
 30
0.0
 10
179.9173810751196
 20
14.05620527466317
 30
0.0
 10
179.9006868780059
 20
14.24988308142659
 30
0.0
 10
179.9146296709683
 20
14.47848242880294
 30
0.0
 10
179.9142987846632
 20
14.63384593955048
 30
0.0
 10
179.9143078119263
 20
14.73966336444125
 30
0.0
 10
179.9143055876316
 20
14.80205784124214
 30
0.0
 10
179.9143065551888
 20
14.89220425248327
 30
0.0
 10
179.9143065473261
 20
14.99621167157438
 30
0.0
 10
179.9143053861102
 20
15.10022131375296
 30
0.0
 10
179.9143090971502
 20
15.19036243688767
 30
0.0
 10
179.9143011051051
 20
15.25276803097215
 30
0.0
 10
179.9143334275018
 20
15.35868835961119
 30
0.0
 10
179.9131440788319
 20
15.5162671654474
 30
0.0
 10
179.9082216489256
 20
15.66528219822065
 30
0.0
 10
179.9057788376618
 20
15.7392326039819
 30
0.0
 11
179.9057788376618
 21
15.7392326039819
 31
0.0
 11
179.896691822374
 21
15.95938578101017
 31
0.0
 11
179.8868249573133
 21
16.17960510387179
 31
0.0
 11
180.04115751414
 21
16.17312391463728
 31
0.0
 11
180.1946500189046
 21
16.16754892331924
 31
0.0
 11
180.3481160653366
 21
16.1636716750563
 31
0.0
 11
180.5025544554939
 21
16.16238072887606
 31
0.0
 11
180.6564835227473
 21
16.1636716750563
 31
0.0
 11
180.80873910046
 21
16.16754892331924
 31
0.0
 11
180.9609113551074
 21
16.17312391463728
 31
0.0
 11
181.1148364762483
 21
16.17960510387179
 31
0.0
 11
181.1070811703123
 21
16.12794961777358
 31
0.0
 11
181.1044991623591
 21
16.07642642334203
 31
0.0
 11
181.1070811703123
 21
16.02475660564659
 31
0.0
 11
181.1148364762483
 21
15.97315954836784
 31
0.0
 11
181.0094874054411
 21
15.98001446156057
 31
0.0
 11
180.913637570006
 21
15.98693552058657
 31
0.0
 11
180.8198593171903
 21
15.99378381919598
 31
0.0
 11
180.7209679915881
 21
16.00063211780539
 31
0.0
 11
180.6147532199924
 21
16.00710999974824
 31
0.0
 11
180.4991060528038
 21
16.01268829835794
 31
0.0
 11
180.3666126447258
 21
16.01656554662087
 31
0.0
 11
180.2101546018423
 21
16.01785649280111
 31
0.0
 11
180.2062663293721
 21
15.91037061609186
 31
0.0
 11
180.20153800484
 21
15.80805072896464
 31
0.0
 11
180.1976607566749
 21
15.70138175329687
 31
0.0
 11
180.1963698105272
 21
15.5810205901325
 31
0.0
 11
180.1967799146836
 21
15.44856355891564
 31
0.0
 11
180.1980896021502
 21
15.31953288186455
 31
0.0
 11
180.1994074577049
 21
15.20777398432308
 31
0.0
 11
180.199819115366
 21
15.12695149302384
 31
0.0
 11
180.3434452935874
 21
15.12780256941249
 31
0.0
 11
180.4716343930758
 21
15.13039989580076
 31
0.0
 11
180.5868078221795
 21
15.13425509545253
 31
0.0
 11
180.691775631222
 21
15.13901649302075
 31
0.0
 11
180.7876346289421
 21
15.14418027774174
 31
0.0
 11
180.8757413374193
 21
15.14934406246267
 31
0.0
 11
180.9578881438496
 21
15.15491243919738
 31
0.0
 11
181.0357692335571
 21
15.16132086801524
 31
0.0
 11
181.0280180445186
 21
15.10884407115336
 31
0.0
 11
181.0254328449317
 21
15.05469378470857
 31
0.0
 11
181.0280180445186
 21
15.00310444444366
 31
0.0
 11
181.0357692335571
 21
14.95151510417882
 31
0.0
 11
180.9389813454014
 21
14.96092324653756
 31
0.0
 11
180.8275950722015
 21
14.96865128473011
 31
0.0
 11
180.7089261429373
 21
14.97425273438145
 31
0.0
 11
180.5903167449213
 21
14.9772678819501
 31
0.0
 11
180.4750025117521
 21
14.97898767361638
 31
0.0
 11
180.3667261950699
 21
14.98070746528256
 31
0.0
 11
180.2724839317708
 21
14.98202486979616
 31
0.0
 11
180.199819115366
 21
14.98243607639328
 31
0.0
 11
180.199407457705
 21
14.9501910850819
 31
0.0
 11
180.1980896021502
 21
14.91542593752116
 31
0.0
 11
180.1967799146836
 21
14.87450702260084
 31
0.0
 11
180.1963698105272
 21
14.82421524309951
 31
0.0
 11
180.1963698105272
 21
14.80326217235821
 31
0.0
 11
180.1963698105272
 21
14.75716541672736
 31
0.0
 11
180.1963698105272
 21
14.7110686610965
 31
0.0
 11
180.1963698105272
 21
14.6901155903552
 31
0.0
 11
180.1963698105272
 21
14.6686452525828
 31
0.0
 11
180.1963698105272
 21
14.61744675481783
 31
0.0
 11
180.1963698105272
 21
14.55633887038867
 31
0.0
 11
180.1963698105272
 21
14.50514037262371
 31
0.0
 11
180.1963698105272
 21
14.4836700348513
 31
0.0
 11
180.1967799146836
 21
14.30481721371547
 31
0.0
 11
180.1980896021502
 21
14.16026100715442
 31
0.0
 11
180.2002868589709
 21
14.04850210961289
 31
0.0
 11
180.2032586986985
 21
13.96767961831364
 31
0.0
 11
180.3202092517447
 21
13.96767961831364
 31
0.0
 11
180.4440727208746
 21
13.96767961831364
 31
0.0
 11
180.5734925526422
 21
13.96897056449389
 31
0.0
 11
180.7003922282244
 21
13.97284781275682
 31
0.0
 11
180.8224658067973
 21
13.97886708358865
 31
0.0
 11
180.9377587499463
 21
13.98663260442002
 31
0.0
 11
181.0421754573518
 21
13.99734161483402
 31
0.0
 11
181.1320599255448
 21
14.01237656274691
 31
0.0
 11
181.126425403119
 21
13.98698427976715
 31
0.0
 11
181.1234433285422
 21
13.95907184053801
 31
0.0
 11
181.1221339881199
 21
13.93112191867001
 31
0.0
 11
181.1217235369194
 21
13.90575829888472
 31
0.0
 11
181.1243087365064
 21
13.85584355063325
 31
0.0
 11
181.1320599255448
 21
13.81626739612926
 31
0.0
 11
180.9776977178344
 21
13.82145433189185
 31
0.0
 11
180.8242357818764
 21
13.82315538223862
 31
0.0
 11
180.6697789496483
 21
13.82315538223862
 31
0.0
 11
180.5128026496768
 21
13.82315538223862
 31
0.0
 11
180.3554704921536
 21
13.82315538223862
 31
0.0
 11
180.199819115366
 21
13.82315538223862
 31
0.0
 11
180.0441620874241
 21
13.82145433189185
 31
0.0
 11
179.8868249573133
 21
13.81626739612926
 31
0.0
 11
179.896691822374
 21
14.03601267385209
 31
0.0
 11
179.9057788376618
 21
14.2549112849085
 31
0.0
 11
179.91217215184
 21
14.47550763902002
 31
0.0
 11
179.9143063455009
 21
14.70036378479715
 31
0.0
 11
179.9143063455009
 21
14.72578824496874
 31
0.0
 11
179.9143063455009
 21
14.79281636723931
 31
0.0
 11
179.9143063455009
 21
14.88758026424253
 31
0.0
 11
179.9143063455009
 21
14.99621204861207
 31
0.0
 11
179.9143063455009
 21
15.10484383298162
 31
0.0
 11
179.9143063455009
 21
15.19960772998484
 31
0.0
 11
179.9143063455009
 21
15.2666358522554
 31
0.0
 11
179.9143063455009
 21
15.292060312427
 31
0.0
 11
179.91217215184
 21
15.51735963528734
 31
0.0
 11
179.9057788376618
 21
15.7392326039819
 31
0.0
  0
SPLINE
  5
A7
102
{ACAD_REACTORS
330
C4
102
}
330
48
100
AcDbEntity
  8
_U_30EC_U_30A4_U_30E4_U_30FC_1
  6
Continuous
 62
     2
100
AcDbSpline
210
0.0
220
0.0
230
1.0
 70
    11
 71
     3
 72
    47
 73
    43
 74
    41
 42
0.000000001
 43
0.0000000001
 44
0.00000001
 40
0.0
 40
0.0
 40
0.0
 40
0.0
 40
0.2207912809957177
 40
0.4459404186303042
 40
0.4902387190459267
 40
0.5327473892722215
 40
0.5742260451225547
 40
0.615543263056084
 40
0.6568164066315758
 40
0.6982511618780689
 40
0.7407663929317193
 40
0.7851366743175264
 40
1.01028883383633
 40
1.231080507002179
 40
1.45176524365241
 40
1.676638205891703
 40
1.720461045359676
 40
1.830018144043534
 40
1.972442372353165
 40
2.114866600677531
 40
2.224423699395154
 40
2.268246538883393
 40
2.493628801207228
 40
2.715602830286624
 40
2.934211330706389
 40
3.149502369855384
 40
3.23138778485103
 40
3.318231873854065
 40
3.405143198198053
 40
3.48697030172049
 40
3.702258172493933
 40
3.920866283534172
 40
4.142839325931959
 40
4.368221903865424
 40
4.412044743359902
 40
4.521601842095916
 40
4.664026070452395
 40
4.806450298809101
 40
4.91600739754679
 40
4.959830237043113
 40
5.184703515847153
 40
5.405387250767532
 40
5.405387250767532
 40
5.405387250767532
 40
5.405387250767532
 10
182.6507427258645
 20
15.73406440953872
 30
0.0
 10
182.6568139420002
 20
15.7975848250121
 30
0.0
 10
182.6690762107242
 20
15.92587938689625
 30
0.0
 10
182.5604706879412
 20
16.20166220174078
 30
0.0
 10
182.6761985896603
 20
16.17188133432052
 30
0.0
 10
182.7171842509015
 20
16.1676555626282
 30
0.0
 10
182.7591205797518
 20
16.16310446389605
 30
0.0
 10
182.800419662571
 20
16.16201982929483
 30
0.0
 10
182.8417032115556
 20
16.16310338195226
 30
0.0
 10
182.8836148270646
 20
16.16766112711343
 30
0.0
 10
182.9245983549019
 20
16.17187430209727
 30
0.0
 10
183.0404922843489
 20
16.20177611317536
 30
0.0
 10
182.9295652727457
 20
15.92339806609888
 30
0.0
 10
182.9574856365265
 20
15.74283140824953
 30
0.0
 10
182.9404267346969
 20
15.50961042346471
 30
0.0
 10
182.9414637282101
 20
15.34906622543144
 30
0.0
 10
182.9414099399404
 20
15.22284817558721
 30
0.0
 10
182.9414277372479
 20
15.1242896333624
 30
0.0
 10
182.9414188581079
 20
14.99280702442963
 30
0.0
 10
182.9414263928034
 20
14.86132844968649
 30
0.0
 10
182.9414129405127
 20
14.7627622269409
 30
0.0
 10
182.9414531717491
 20
14.63639735624152
 30
0.0
 10
182.9406746403816
 20
14.4748206882287
 30
0.0
 10
182.9565958319266
 20
14.24361821892913
 30
0.0
 10
182.9333468885407
 20
14.05874351972002
 30
0.0
 10
183.0360183444366
 20
13.78935602770053
 30
0.0
 10
182.8820238362836
 20
13.82660112685817
 30
0.0
 10
182.8004129802832
 20
13.82137994680534
 30
0.0
 10
182.7188192292583
 20
13.82660620378351
 30
0.0
 10
182.5648513666841
 20
13.78937069885384
 30
0.0
 10
182.6674183421918
 20
14.0587512986288
 30
0.0
 10
182.6442045316088
 20
14.24361585325414
 30
0.0
 10
182.6600444655138
 20
14.47482218565638
 30
0.0
 10
182.6593296313427
 20
14.63639712308502
 30
0.0
 10
182.6593664569907
 20
14.76276231210521
 30
0.0
 10
182.659354900027
 20
14.86132756635981
 30
0.0
 10
182.6593575019214
 20
14.99281127417219
 30
0.0
 10
182.6593648531779
 20
15.12427548031199
 30
0.0
 10
182.6593442541351
 20
15.22287786275324
 30
0.0
 10
182.6594082192028
 20
15.34896149354426
 30
0.0
 10
182.658173394759
 20
15.51210091383771
 30
0.0
 10
182.6532040396744
 20
15.66054183777549
 30
0.0
 10
182.6507427258645
 20
15.73406440953872
 30
0.0
 11
182.6507427258645
 21
15.73406440953872
 31
0.0
 11
182.6417328200379
 21
15.95467178795577
 31
0.0
 11
182.6318769706146
 21
16.17960510387179
 31
0.0
 11
182.6756985840801
 21
16.17312391463728
 31
0.0
 11
182.7178400934215
 21
16.16754892331924
 31
0.0
 11
182.759137140979
 21
16.1636716750563
 31
0.0
 11
182.8004341885365
 21
16.16238072887606
 31
0.0
 11
182.841687138873
 21
16.1636716750563
 31
0.0
 11
182.8829400892097
 21
16.16754892331924
 31
0.0
 11
182.9250882131343
 21
16.17312391463728
 31
0.0
 11
182.9689825870145
 21
16.17960510387179
 31
0.0
 11
182.9590577693891
 21
15.95467178795577
 31
0.0
 11
182.9500384208309
 21
15.73406440953872
 31
0.0
 11
182.9435638463434
 21
15.51347467001054
 31
0.0
 11
182.9414218238285
 21
15.28861190965006
 31
0.0
 11
182.9414218238285
 21
15.24478907015484
 31
0.0
 11
182.9414218238285
 21
15.13523197141681
 31
0.0
 11
182.9414218238285
 21
14.99280774305736
 31
0.0
 11
182.9414218238285
 21
14.85038351469792
 31
0.0
 11
182.9414218238285
 21
14.74082641595988
 31
0.0
 11
182.9414218238285
 21
14.69700357646467
 31
0.0
 11
182.9435638463434
 21
14.47163149318766
 31
0.0
 11
182.9500384208309
 21
14.2497519099098
 31
0.0
 11
182.9590577693891
 21
14.03132954885328
 31
0.0
 11
182.9689825870145
 21
13.81626739612926
 31
0.0
 11
182.887261616877
 21
13.82145433189185
 31
0.0
 11
182.8004341885365
 21
13.82315538223862
 31
0.0
 11
182.7135395119339
 21
13.82145433189185
 31
0.0
 11
182.6318769706146
 21
13.81626739612926
 31
0.0
 11
182.6417328200379
 21
14.03132954885328
 31
0.0
 11
182.6507427258645
 21
14.2497519099098
 31
0.0
 11
182.6571833838798
 21
14.47163149318766
 31
0.0
 11
182.6593583588023
 21
14.69700357646467
 31
0.0
 11
182.6593583588023
 21
14.74082641595988
 31
0.0
 11
182.6593583588023
 21
14.85038351469792
 31
0.0
 11
182.6593583588023
 21
14.99280774305737
 31
0.0
 11
182.6593583588023
 21
15.13523197141681
 31
0.0
 11
182.6593583588023
 21
15.24478907015484
 31
0.0
 11
182.6593583588023
 21
15.28861190965006
 31
0.0
 11
182.6571833838798
 21
15.51347467001054
 31
0.0
 11
182.6507427258645
 21
15.73406440953872
 31
0.0
  0
SPLINE
  5
A8
102
{ACAD_REACTORS
330
C5
102
}
330
48
100
AcDbEntity
  8
_U_30EC_U_30A4_U_30E4_U_30FC_1
  6
Continuous
 62
     2
100
AcDbSpline
210
0.0
220
0.0
230
1.0
 70
    11
 71
     3
 72
   118
 73
   114
 74
   112
 42
0.000000001
 43
0.0000000001
 44
0.00000001
 40
0.0
 40
0.0
 40
0.0
 40
0.0
 40
0.1054708162973251
 40
0.2466098270051737
 40
0.3965912874591074
 40
0.5285525069753816
 40
0.6156245055642187
 40
0.6431434105797513
 40
0.7036850037986232
 40
0.7642265984504658
 40
0.7917455052354976
 40
0.928740431998999
 40
1.106572819088052
 40
1.287544879681052
 40
1.317578308030569
 40
1.399928030857208
 40
1.522968204799984
 40
1.675072986590605
 40
1.844616533180686
 40
2.01997300163875
 40
2.189516548880063
 40
2.341621331585403
 40
2.464661506320541
 40
2.547011229647104
 40
2.57704465816807
 40
2.603797890893141
 40
2.662655002908828
 40
2.72151211494964
 40
2.748265347702819
 40
2.774215307344894
 40
2.845959313407226
 40
2.954338556588427
 40
3.090194227585604
 40
3.244367517100569
 40
3.407699615844331
 40
3.57103171453948
 40
3.725205003920159
 40
3.861060674729661
 40
3.969439917716354
 40
4.041183923629028
 40
4.067133883213021
 40
4.311886746012207
 40
4.547897258335573
 40
4.764747083044018
 40
4.952749679951824
 40
5.045772974195951
 40
5.137862019645035
 40
5.330543169793086
 40
5.55344826524408
 40
5.795083855888238
 40
6.043293412177301
 40
6.285761695541243
 40
6.313902908752727
 40
6.384255941793317
 40
6.475714884766905
 40
6.567173827758968
 40
6.637526860839746
 40
6.665668074074109
 40
6.692018920328081
 40
6.749990782071153
 40
6.807962643790521
 40
6.834313490017994
 40
6.856393084245273
 40
6.913335195649896
 40
6.99119481730256
 40
7.076026942283821
 40
7.153886563725312
 40
7.210828674844894
 40
7.232908268931229
 40
7.25819933492375
 40
7.324875781592402
 40
7.419142481925061
 40
7.527204308842004
 40
7.635266135230582
 40
7.729532834168571
 40
7.796209279292894
 40
7.82150034459484
 40
7.84465298885091
 40
7.899863140541689
 40
7.965759128053856
 40
8.02096927977114
 40
8.044121924046607
 40
8.069356610160687
 40
8.109134395441458
 40
8.13223810019117
 40
8.193147867786536
 40
8.279261678876711
 40
8.377977512673926
 40
8.476693347146712
 40
8.562807160411767
 40
8.623716930826555
 40
8.646820636853509
 40
8.671988793774322
 40
8.734909185828233
 40
8.816705695188947
 40
8.898502204815518
 40
8.961422597377979
 40
8.986590754551091
 40
9.012941600733248
 40
9.07091346238033
 40
9.128885324081827
 40
9.155236170325146
 40
9.180404327929189
 40
9.243324721948262
 40
9.325121234212055
 40
9.40691774663771
 40
9.469838141978165
 40
9.49500628827094
 40
9.517811184379081
 40
9.572192090487079
 40
9.637098333281305
 40
9.691479239515502
 40
9.71428412564354
 40
9.71428412564354
 40
9.71428412564354
 40
9.71428412564354
 10
185.2874469028653
 20
15.26889163187719
 30
0.0
 10
185.3090990569037
 20
15.2411186924281
 30
0.0
 10
185.3597257109474
 20
15.17618054561235
 30
0.0
 10
185.4349383202591
 20
15.06891060312898
 30
0.0
 10
185.5248482274346
 20
14.95377438266625
 30
0.0
 10
185.5709169676673
 20
14.85357045748319
 30
0.0
 10
185.6655825294654
 20
14.78434006814942
 30
0.0
 10
185.6204439320412
 20
14.73771639678274
 30
0.0
 10
185.5947047785789
 20
14.69660308866038
 30
0.0
 10
185.5645196708012
 20
14.66065971727939
 30
0.0
 10
185.5193684730561
 20
14.58579782596091
 30
0.0
 10
185.4710504458562
 20
14.80782524253606
 30
0.0
 10
185.3968539713073
 20
14.84510677337709
 30
0.0
 10
185.2836047324607
 20
15.11610202130601
 30
0.0
 10
185.2885133578169
 20
15.00095328446228
 30
0.0
 10
185.2868486556306
 20
14.92836675781627
 30
0.0
 10
185.2876830076713
 20
14.80625588483985
 30
0.0
 10
185.2873609540265
 20
14.6591380081046
 30
0.0
 10
185.2875076912455
 20
14.49307063956556
 30
0.0
 10
185.2872950092722
 20
14.32187554608602
 30
0.0
 10
185.2879497252034
 20
14.15552828635498
 30
0.0
 10
185.2859192461138
 20
14.00935173055692
 30
0.0
 10
185.2913460399931
 20
13.8847104747461
 30
0.0
 10
185.2804930868708
 20
13.81718656540625
 30
0.0
 10
185.2956739155554
 20
13.75549061417021
 30
0.0
 10
185.2457895108134
 20
13.76727503897001
 30
0.0
 10
185.2017150342522
 20
13.75943822779968
 30
0.0
 10
185.1582371630201
 20
13.76760441372702
 30
0.0
 10
185.1092346786488
 20
13.75538056738467
 30
0.0
 10
185.1218731234825
 20
13.80960667249312
 30
0.0
 10
185.1130182968449
 20
13.86936918907556
 30
0.0
 10
185.1175058770314
 20
13.9792202904437
 30
0.0
 10
185.1157960135991
 20
14.11029975405678
 30
0.0
 10
185.1163550915986
 20
14.26198011444326
 30
0.0
 10
185.1161928768694
 20
14.42211074929953
 30
0.0
 10
185.1162269924674
 20
14.58236865674566
 30
0.0
 10
185.1162514960128
 20
14.73370247520439
 30
0.0
 10
185.1161453543224
 20
14.86582156338601
 30
0.0
 10
185.1164299141932
 20
14.97294802533194
 30
0.0
 10
185.1158675547567
 20
15.03808619579473
 30
0.0
 10
185.1180765083689
 20
15.16618957858676
 30
0.0
 10
185.0319435998602
 20
14.79097610391575
 30
0.0
 10
184.9555140818499
 20
14.63918193123395
 30
0.0
 10
184.8660040767834
 20
14.47766206446305
 30
0.0
 10
184.7640413217326
 20
14.20471848820171
 30
0.0
 10
184.7187976491039
 20
14.3671734659651
 30
0.0
 10
184.6102355941671
 20
14.45605432058119
 30
0.0
 10
184.7995791751753
 20
14.60549794961408
 30
0.0
 10
184.85653405457
 20
14.79749136974924
 30
0.0
 10
184.9717520993352
 20
15.02899622906756
 30
0.0
 10
184.9940151630132
 20
15.21797259759063
 30
0.0
 10
185.1771905152139
 20
15.49454089325928
 30
0.0
 10
185.0538033597552
 20
15.48698978832093
 30
0.0
 10
184.9925684166834
 20
15.48856772366118
 30
0.0
 10
184.9081999617064
 20
15.48882592573671
 30
0.0
 10
184.8204235085966
 20
15.48544845751205
 30
0.0
 10
184.7656768696122
 20
15.49394814982019
 30
0.0
 10
184.7104703026025
 20
15.48048561049787
 30
0.0
 10
184.7222823035536
 20
15.52931442126762
 30
0.0
 10
184.7142496151794
 20
15.57269004896708
 30
0.0
 10
184.7228186104678
 20
15.61509438309571
 30
0.0
 10
184.7102943409157
 20
15.66267796552117
 30
0.0
 10
184.7555101538735
 20
15.65267212995108
 30
0.0
 10
184.8014815562723
 20
15.6589410517406
 30
0.0
 10
184.877722204771
 20
15.65593561405871
 30
0.0
 10
184.9561296131993
 20
15.6577044827854
 30
0.0
 10
185.0323992648932
 20
15.65464793981659
 30
0.0
 10
185.0783009459475
 20
15.66103971376176
 30
0.0
 10
185.12317339654
 20
15.65093822978895
 30
0.0
 10
185.1105552275634
 20
15.70157201581898
 30
0.0
 10
185.1191936582707
 20
15.75501261882068
 30
0.0
 10
185.1152361595442
 20
15.84863255131679
 30
0.0
 10
185.1162325068335
 20
15.95112606688923
 30
0.0
 10
185.1171927413073
 20
16.05353270248163
 30
0.0
 10
185.1133211458005
 20
16.1473592960932
 30
0.0
 10
185.1217789814364
 20
16.20036542840353
 30
0.0
 10
185.1093075932835
 20
16.25211435651188
 30
0.0
 10
185.1542106389849
 20
16.23850747226756
 30
0.0
 10
185.1955083836772
 20
16.24100480320585
 30
0.0
 10
185.259534428105
 20
16.23648060574487
 30
0.0
 10
185.2986111148785
 20
16.22781003043307
 30
0.0
 10
185.3476543498742
 20
16.23515102070686
 30
0.0
 10
185.322508003059
 20
16.19602896051758
 30
0.0
 10
185.2815901333723
 20
16.20563842455808
 30
0.0
 10
185.2910109616604
 20
16.15540148169778
 30
0.0
 10
185.2855647318746
 20
16.1038594563949
 30
0.0
 10
185.2881699601804
 20
16.0195970758452
 30
0.0
 10
185.2870102202154
 20
15.92559135583408
 30
0.0
 10
185.2883591064231
 20
15.83196865395525
 30
0.0
 10
185.284997010151
 20
15.74679517552222
 30
0.0
 10
185.2920959917768
 20
15.69716856072043
 30
0.0
 10
185.2812569154546
 20
15.64993694969987
 30
0.0
 10
185.3304010225245
 20
15.66201674936851
 30
0.0
 10
185.3794877630147
 20
15.6544739336301
 30
0.0
 10
185.4573714280641
 20
15.65686070361432
 30
0.0
 10
185.5350365172896
 20
15.65899381905414
 30
0.0
 10
185.5845393931355
 20
15.65193391922454
 30
0.0
 10
185.6344594750639
 20
15.66360151936213
 30
0.0
 10
185.6223198516881
 20
15.61540235371392
 30
0.0
 10
185.6305838229143
 20
15.57249219801235
 30
0.0
 10
185.6223198650783
 20
15.52958201851383
 30
0.0
 10
185.6344594549855
 20
15.48138288754864
 30
0.0
 10
185.5845395158746
 20
15.49305034471509
 30
0.0
 10
185.5350350651203
 20
15.48599202435044
 30
0.0
 10
185.4573784382972
 20
15.48811665228603
 30
0.0
 10
185.379464386576
 20
15.49053389365759
 30
0.0
 10
185.3304500352716
 20
15.48291848194484
 30
0.0
 10
185.2813246108943
 20
15.49507952557591
 30
0.0
 10
185.2915559988571
 20
15.45073013424158
 30
0.0
 10
185.2856677678053
 20
15.4092543620291
 30
0.0
 10
185.287878830557
 20
15.34915394315303
 30
0.0
 10
185.2874109346145
 20
15.30225782762889
 30
0.0
 10
185.2874386992913
 20
15.27650146418196
 30
0.0
 10
185.2874469028653
 20
15.26889163187719
 30
0.0
 11
185.2874469028653
 21
15.26889163187719
 31
0.0
 11
185.3516977534484
 21
15.18524999634256
 31
0.0
 11
185.4348258835499
 21
15.07118889748221
 31
0.0
 11
185.5216831568895
 21
14.94891767195723
 31
0.0
 11
185.5971214371872
 21
14.84064565642876
 31
0.0
 11
185.6459925881626
 21
14.7685821875579
 31
0.0
 11
185.6296821285093
 21
14.74641782124399
 31
0.0
 11
185.5937991172719
 21
14.69765621535339
 31
0.0
 11
185.5579161060346
 21
14.64889460946279
 31
0.0
 11
185.5416056463813
 21
14.62673024314888
 31
0.0
 11
185.4763067109446
 21
14.74716139023813
 31
0.0
 11
185.3848434243234
 21
14.89966983670207
 31
0.0
 11
185.2874469028653
 21
15.05219788193142
 31
0.0
 11
185.2874469028653
 21
15.02216445328253
 31
0.0
 11
185.2874469028653
 21
14.93981472956783
 31
0.0
 11
185.2874469028653
 21
14.81677455413528
 31
0.0
 11
185.2874469028653
 21
14.66466977033283
 31
0.0
 11
185.2874469028653
 21
14.49512622150845
 31
0.0
 11
185.2874469028653
 21
14.31976975101009
 31
0.0
 11
185.2874469028653
 21
14.1502262021857
 31
0.0
 11
185.2874469028653
 21
13.99812141838325
 31
0.0
 11
185.2874469028653
 21
13.8750812429507
 31
0.0
 11
185.2874469028653
 21
13.792731519236
 31
0.0
 11
185.2874469028653
 21
13.76269809058711
 31
0.0
 11
185.2606936700409
 21
13.76269809058711
 31
0.0
 11
185.2018365578272
 21
13.76269809058711
 31
0.0
 11
185.1429794456134
 21
13.76269809058711
 31
0.0
 11
185.116226212789
 21
13.76269809058711
 31
0.0
 11
185.116226212789
 21
13.78864805031249
 31
0.0
 11
185.116226212789
 21
13.86039205661207
 31
0.0
 11
185.116226212789
 21
13.96877130017101
 31
0.0
 11
185.116226212789
 21
14.10462697167446
 31
0.0
 11
185.116226212789
 21
14.2588002618076
 31
0.0
 11
185.116226212789
 21
14.42213236125558
 31
0.0
 11
185.116226212789
 21
14.58546446070356
 31
0.0
 11
185.116226212789
 21
14.7396377508367
 31
0.0
 11
185.116226212789
 21
14.87549342234015
 31
0.0
 11
185.116226212789
 21
14.98387266589909
 31
0.0
 11
185.116226212789
 21
15.05561667219867
 31
0.0
 11
185.116226212789
 21
15.08156663192405
 31
0.0
 11
185.0379865861721
 21
14.84965603302372
 31
0.0
 11
184.9497110789303
 21
14.63077616328678
 31
0.0
 11
184.8544106930045
 21
14.43598991333546
 31
0.0
 11
184.7550964303356
 21
14.27636017379201
 31
0.0
 11
184.7109198342406
 21
14.35822446196598
 31
0.0
 11
184.658805738348
 21
14.4341488543081
 31
0.0
 11
184.7627302590299
 21
14.59640087926756
 31
0.0
 11
184.8629319864735
 21
14.7955146542178
 31
0.0
 11
184.9550446607901
 21
15.01890447916196
 31
0.0
 11
185.0347020220912
 21
15.25398465410319
 31
0.0
 11
185.097537810488
 21
15.48816947904464
 31
0.0
 11
185.0693965972142
 21
15.48816947904464
 31
0.0
 11
184.9990435640297
 21
15.48816947904464
 31
0.0
 11
184.9075846208898
 21
15.48816947904464
 31
0.0
 11
184.8161256777499
 21
15.48816947904464
 31
0.0
 11
184.7457726445654
 21
15.48816947904464
 31
0.0
 11
184.7176314312916
 21
15.48816947904464
 31
0.0
 11
184.7176314312916
 21
15.51452032539221
 31
0.0
 11
184.7176314312916
 21
15.57249218735688
 31
0.0
 11
184.7176314312916
 21
15.63046404932154
 31
0.0
 11
184.7176314312916
 21
15.65681489566911
 31
0.0
 11
184.739711025602
 21
15.65681489566911
 31
0.0
 11
184.7966531372444
 21
15.65681489566911
 31
0.0
 11
184.8745127592862
 21
15.65681489566911
 31
0.0
 11
184.9593448847944
 21
15.65681489566911
 31
0.0
 11
185.0372045068361
 21
15.65681489566911
 31
0.0
 11
185.0941466184786
 21
15.65681489566911
 31
0.0
 11
185.116226212789
 21
15.65681489566911
 31
0.0
 11
185.116226212789
 21
15.68210596174352
 31
0.0
 11
185.116226212789
 21
15.74878240866696
 31
0.0
 11
185.116226212789
 21
15.84304910948976
 31
0.0
 11
185.116226212789
 21
15.95111093726224
 31
0.0
 11
185.116226212789
 21
16.05917276503471
 31
0.0
 11
185.116226212789
 21
16.15343946585751
 31
0.0
 11
185.116226212789
 21
16.22011591278095
 31
0.0
 11
185.116226212789
 21
16.24540697885536
 31
0.0
 11
185.1393181988665
 21
16.243732131078
 31
0.0
 11
185.1943837041284
 21
16.23973826330121
 31
0.0
 11
185.2601070491184
 21
16.23497138885795
 31
0.0
 11
185.3151725543802
 21
16.23097752108116
 31
0.0
 11
185.3382645404578
 21
16.2293026733038
 31
0.0
 11
185.3249012644362
 21
16.20789677921191
 31
0.0
 11
185.2874469028653
 21
16.19450114553469
 31
0.0
 11
185.2874469028653
 21
16.17139743948578
 31
0.0
 11
185.2874469028653
 21
16.11048766899319
 31
0.0
 11
185.2874469028653
 21
16.02437385553816
 31
0.0
 11
185.2874469028653
 21
15.9256580206019
 31
0.0
 11
185.2874469028653
 21
15.82694218566564
 31
0.0
 11
185.2874469028653
 21
15.74082837221061
 31
0.0
 11
185.2874469028653
 21
15.67991860171802
 31
0.0
 11
185.2874469028653
 21
15.65681489566911
 31
0.0
 11
185.3126150604809
 21
15.65681489566911
 31
0.0
 11
185.3755354545199
 21
15.65681489566911
 31
0.0
 11
185.4573319667706
 21
15.65681489566911
 31
0.0
 11
185.5391284790212
 21
15.65681489566911
 31
0.0
 11
185.6020488730602
 21
15.65681489566911
 31
0.0
 11
185.6272170306758
 21
15.65681489566911
 31
0.0
 11
185.6272170306758
 21
15.63046404932154
 31
0.0
 11
185.6272170306758
 21
15.57249218735688
 31
0.0
 11
185.6272170306758
 21
15.51452032539221
 31
0.0
 11
185.6272170306758
 21
15.48816947904464
 31
0.0
 11
185.6020488730602
 21
15.48816947904464
 31
0.0
 11
185.5391284790212
 21
15.48816947904464
 31
0.0
 11
185.4573319667705
 21
15.48816947904464
 31
0.0
 11
185.3755354545199
 21
15.48816947904464
 31
0.0
 11
185.3126150604809
 21
15.48816947904464
 31
0.0
 11
185.2874469028653
 21
15.48816947904464
 31
0.0
 11
185.2874469028653
 21
15.46536458293923
 31
0.0
 11
185.2874469028653
 21
15.4109836768417
 31
0.0
 11
185.2874469028653
 21
15.34607743408013
 31
0.0
 11
185.2874469028653
 21
15.29169652798261
 31
0.0
 11
185.2874469028653
 21
15.26889163187719
 31
0.0
  0
SPLINE
  5
A9
102
{ACAD_REACTORS
330
C6
102
}
330
48
100
AcDbEntity
  8
_U_30EC_U_30A4_U_30E4_U_30FC_1
  6
Continuous
 62
     2
100
AcDbSpline
210
0.0
220
0.0
230
1.0
 70
    11
 71
     3
 72
    91
 73
    87
 74
    85
 42
0.000000001
 43
0.0000000001
 44
0.00000001
 40
0.0
 40
0.0
 40
0.0
 40
0.0
 40
0.0345987051695718
 40
0.1258134969461369
 40
0.2547723404888987
 40
0.4026032099154125
 40
0.5504340793416704
 40
0.679392922883608
 40
0.7706077146571035
 40
0.8052064287780925
 40
1.124852390615273
 40
1.427402236308864
 40
1.706356627453502
 40
1.955541417875186
 40
2.169485938566331
 40
2.344350786664799
 40
2.480568411561948
 40
2.59044055742897
 40
2.649189927151123
 40
2.749320643306325
 40
2.91263273988003
 40
3.14774565600023
 40
3.244827496385125
 40
3.338490056946714
 40
3.583815413207143
 40
3.761423943238503
 40
3.88695610436267
 40
3.985855451886832
 40
4.091766255337717
 40
4.25018647381191
 40
4.422734315084556
 40
4.628285684838649
 40
4.872093227758481
 40
5.152549652145594
 40
5.464967135837574
 40
5.803201477852489
 40
6.160362988813963
 40
6.193449448276018
 40
6.284170385501673
 40
6.419718138764543
 40
6.587285046385793
 40
6.774063446723707
 40
6.96724567811369
 40
7.154024078817676
 40
7.321590987026061
 40
7.45713874089042
 40
7.547859678556156
 40
7.580946138182716
 40
7.60853308471477
 40
7.669224367077749
 40
7.729915649429969
 40
7.757502595950022
 40
7.790278062553476
 40
7.880146277430974
 40
8.014419963180437
 40
8.180411842397938
 40
8.365434637679407
 40
8.556801071622708
 40
8.74182386683082
 40
8.90781574591633
 40
9.042089431507485
 40
9.13195764624961
 40
9.164733112797187
 40
9.41542506314011
 40
9.667986180958572
 40
9.69416980746271
 40
9.756607686047698
 40
9.83113031532259
 40
9.893568193900053
 40
9.91975182039887
 40
9.950967964690701
 40
9.996421631210813
 40
10.2208798103747
 40
10.44341866197557
 40
10.4784797078887
 40
10.5709133743877
 40
10.70159545461245
 40
10.85140174170376
 40
11.00120802880493
 40
11.13189010907398
 40
11.22432377583026
 40
11.25938480938972
 40
11.28697175596161
 40
11.34766303835935
 40
11.40835432042086
 40
11.4359412589212
 40
11.4359412589212
 40
11.4359412589212
 40
11.4359412589212
 10
190.0818114333289
 20
15.55242795125076
 30
0.0
 10
190.0702785844941
 20
15.55242790287914
 30
0.0
 10
190.0283409444998
 20
15.55242773704163
 30
0.0
 10
189.9434129719026
 20
15.55243125800908
 30
0.0
 10
189.8207688553128
 20
15.55240926435877
 30
0.0
 10
189.6791206916993
 20
15.55250801177053
 30
0.0
 10
189.537975369849
 20
15.5521468623242
 30
0.0
 10
189.4141351317905
 20
15.55321883609088
 30
0.0
 10
189.3317217825381
 20
15.55092249091268
 30
0.0
 10
189.1727791229693
 20
15.56048569373418
 30
0.0
 10
189.3503402353375
 20
15.1978539431137
 30
0.0
 10
189.3379739205452
 20
14.95243127723114
 30
0.0
 10
189.4064519473864
 20
14.66862501324834
 30
0.0
 10
189.469302432097
 20
14.43250999939035
 30
0.0
 10
189.5452253431728
 20
14.23326740396128
 30
0.0
 10
189.6303189577016
 20
14.07745347451374
 30
0.0
 10
189.7244607592935
 20
13.97657857781392
 30
0.0
 10
189.8282648207728
 20
13.92465852638965
 30
0.0
 10
189.9125872030774
 20
13.97606484379617
 30
0.0
 10
189.9351322179452
 20
14.09144544037517
 30
0.0
 10
189.9745730975371
 20
14.2188514970238
 30
0.0
 10
189.9202919734942
 20
14.53622328086757
 30
0.0
 10
190.0451218072473
 20
14.38982180140905
 30
0.0
 10
190.2019291513603
 20
14.35795300331172
 30
0.0
 10
190.0947720007057
 20
14.12421357767627
 30
0.0
 10
190.0808711209867
 20
13.95972776583656
 30
0.0
 10
190.0234709467225
 20
13.83130869122482
 30
0.0
 10
189.9335020145008
 20
13.76018802352826
 30
0.0
 10
189.8095274657878
 20
13.74432324142253
 30
0.0
 10
189.663427319686
 20
13.7799379755417
 30
0.0
 10
189.5243894320284
 20
13.90000570500277
 30
0.0
 10
189.4102003962144
 20
14.07435682550319
 30
0.0
 10
189.3146141301486
 20
14.2994660311124
 30
0.0
 10
189.2318652572626
 20
14.56388246006442
 30
0.0
 10
189.1807179256411
 20
14.88187933098542
 30
0.0
 10
189.0770189207339
 20
15.15543728488912
 30
0.0
 10
189.2042841208519
 20
15.56005818612865
 30
0.0
 10
189.0357890623019
 20
15.55112367849677
 30
0.0
 10
188.9511995787077
 20
15.55315961418362
 30
0.0
 10
188.8189876387627
 20
15.55213937388405
 30
0.0
 10
188.6560505094104
 20
15.55253230318428
 30
0.0
 10
188.4733759170532
 20
15.55235696313367
 30
0.0
 10
188.2847057373383
 20
15.55260105307467
 30
0.0
 10
188.1014469020189
 20
15.55185657906235
 30
0.0
 10
187.9404746832718
 20
15.55416360522424
 30
0.0
 10
187.8029808335276
 20
15.54799804883661
 30
0.0
 10
187.728959037231
 20
15.56032838458209
 30
0.0
 10
187.6613215186857
 20
15.54329323723555
 30
0.0
 10
187.6732373719269
 20
15.59524438447527
 30
0.0
 10
187.6655677285694
 20
15.64071424966528
 30
0.0
 10
187.6732592225115
 20
15.68614453703704
 30
0.0
 10
187.6613141797761
 20
15.73802395984569
 30
0.0
 10
187.7283588305867
 20
15.72119143490263
 30
0.0
 10
187.8017375665676
 20
15.7333540909267
 30
0.0
 10
187.9379128305272
 20
15.72727231074957
 30
0.0
 10
188.0973811801512
 20
15.72954834315058
 30
0.0
 10
188.2789173085836
 20
15.72881233998961
 30
0.0
 10
188.4658034862179
 20
15.72905954196132
 30
0.0
 10
188.6468012316836
 20
15.72886400799253
 30
0.0
 10
188.8080802578878
 20
15.72932234714838
 30
0.0
 10
188.9393882124887
 20
15.72812673751205
 30
0.0
 10
189.0225051322596
 20
15.73051347319741
 30
0.0
 10
189.1556236547814
 20
15.72230605725464
 30
0.0
 10
189.0645893502659
 20
15.97752868952653
 30
0.0
 10
188.9789633074417
 20
16.24164358328245
 30
0.0
 10
189.0990589003454
 20
16.22904442969164
 30
0.0
 10
189.1514264948541
 20
16.22694235763074
 30
0.0
 10
189.2214497569717
 20
16.22535399889656
 30
0.0
 10
189.2671922337816
 20
16.21602567538112
 30
0.0
 10
189.3220812646933
 20
16.22545966915425
 30
0.0
 10
189.2963574785681
 20
16.17733028655172
 30
0.0
 10
189.1825397571453
 20
16.18266829744165
 30
0.0
 10
189.3159346621136
 20
15.95449174576776
 30
0.0
 10
189.1943658735471
 20
15.72156856595922
 30
0.0
 10
189.3223188769413
 20
15.73087258884438
 30
0.0
 10
189.4049048406461
 20
15.7280100175468
 30
0.0
 10
189.5307214850824
 20
15.72923437412301
 30
0.0
 10
189.6741469838057
 20
15.72932431888963
 30
0.0
 10
189.8157420951728
 20
15.72746163183853
 30
0.0
 10
189.9459127249967
 20
15.73333075937161
 30
0.0
 10
190.0193452286191
 20
15.72070340823202
 30
0.0
 10
190.0891112922096
 20
15.73877563110411
 30
0.0
 10
190.0775772605396
 20
15.68612850546325
 30
0.0
 10
190.0833184346682
 20
15.64221317686547
 30
0.0
 10
190.0816615770911
 20
15.59089982676548
 30
0.0
 10
190.0817757561669
 20
15.56158792021633
 30
0.0
 10
190.0818114333289
 20
15.55242795125076
 30
0.0
 11
190.0818114333289
 21
15.55242795125076
 31
0.0
 11
190.0472127192051
 21
15.55242795125076
 31
0.0
 11
189.9559979274241
 21
15.55242795125076
 31
0.0
 11
189.8270390838717
 21
15.55242795125076
 31
0.0
 11
189.6792082144335
 21
15.55242795125076
 31
0.0
 11
189.5313773449954
 21
15.55242795125076
 31
0.0
 11
189.402418501443
 21
15.55242795125076
 31
0.0
 11
189.311203709662
 21
15.55242795125076
 31
0.0
 11
189.2766049955382
 21
15.55242795125076
 31
0.0
 11
189.3083140497693
 21
15.2343586493012
 31
0.0
 11
189.3527866656865
 21
14.9350952278808
 31
0.0
 11
189.4092389118319
 21
14.66191269512576
 31
0.0
 11
189.4768868567478
 21
14.42208605917227
 31
0.0
 11
189.5549465689761
 21
14.22289032815654
 31
0.0
 11
189.6426341170591
 21
14.07160051021477
 31
0.0
 11
189.7391655695388
 21
13.97549161348317
 31
0.0
 11
189.8437569949575
 21
13.94183864609792
 31
0.0
 11
189.8943077302786
 21
13.97177376978835
 31
0.0
 11
189.9310588991551
 21
14.06491619815047
 31
0.0
 11
189.9562640977528
 21
14.22627151712054
 31
0.0
 11
189.9721769222368
 21
14.46084531263482
 31
0.0
 11
190.0494082682583
 21
14.40202182306617
 31
0.0
 11
190.1327184184385
 21
14.3592188543269
 31
0.0
 11
190.1066365811217
 21
14.1152838866101
 31
0.0
 11
190.0673317805105
 21
13.94207902887562
 31
0.0
 11
190.0105702596765
 21
13.83011272445917
 31
0.0
 11
189.932118261691
 21
13.76989341669645
 31
0.0
 11
189.8277420296256
 21
13.75192954892316
 31
0.0
 11
189.6738595065097
 21
13.7895744001236
 31
0.0
 11
189.5388902376747
 21
13.89707348877402
 31
0.0
 11
189.4221739916163
 21
14.06627361744808
 31
0.0
 11
189.32305053683
 21
14.28902158871942
 31
0.0
 11
189.2408596418113
 21
14.55716420516171
 31
0.0
 11
189.1749410750559
 21
14.86254826934859
 31
0.0
 11
189.1246346050593
 21
15.19702058385372
 31
0.0
 11
189.0892800003171
 21
15.55242795125076
 31
0.0
 11
189.0561935405844
 21
15.55242795125076
 31
0.0
 11
188.9654726026075
 21
15.55242795125076
 31
0.0
 11
188.8299248482185
 21
15.55242795125076
 31
0.0
 11
188.6623579392495
 21
15.55242795125076
 31
0.0
 11
188.4755795375324
 21
15.55242795125076
 31
0.0
 11
188.2823973048992
 21
15.55242795125076
 31
0.0
 11
188.0956189031822
 21
15.55242795125076
 31
0.0
 11
187.9280519942131
 21
15.55242795125076
 31
0.0
 11
187.7925042398241
 21
15.55242795125076
 31
0.0
 11
187.7017833018473
 21
15.55242795125076
 31
0.0
 11
187.6686968421145
 21
15.55242795125076
 31
0.0
 11
187.6686968421145
 21
15.58001489785845
 31
0.0
 11
187.6686968421145
 21
15.64070618039537
 31
0.0
 11
187.6686968421145
 21
15.70139746293228
 31
0.0
 11
187.6686968421145
 21
15.72898440953997
 31
0.0
 11
187.7014723087631
 21
15.72898440953997
 31
0.0
 11
187.7913405237673
 21
15.72898440953997
 31
0.0
 11
187.9256142097148
 21
15.72898440953997
 31
0.0
 11
188.0916060891932
 21
15.72898440953997
 31
0.0
 11
188.2766288847901
 21
15.72898440953997
 31
0.0
 11
188.4679953190932
 21
15.72898440953997
 31
0.0
 11
188.6530181146902
 21
15.72898440953997
 31
0.0
 11
188.8190099941685
 21
15.72898440953997
 31
0.0
 11
188.953283680116
 21
15.72898440953997
 31
0.0
 11
189.0431518951202
 21
15.72898440953997
 31
0.0
 11
189.0759273617688
 21
15.72898440953997
 31
0.0
 11
189.0659183950103
 21
15.97947647544958
 31
0.0
 11
189.0599112510662
 21
16.2319661455253
 31
0.0
 11
189.0860575870658
 21
16.23056921608121
 31
0.0
 11
189.1484065421418
 21
16.2272380766376
 31
0.0
 11
189.2228230369099
 21
16.22326220052748
 31
0.0
 11
189.2851719919859
 21
16.21993106108388
 31
0.0
 11
189.3113183279855
 21
16.21853413163978
 31
0.0
 11
189.298293111304
 21
16.19016528616079
 31
0.0
 11
189.2551649266405
 21
16.17581274276163
 31
0.0
 11
189.2574991961821
 21
15.95136670115107
 31
0.0
 11
189.2658452735903
 21
15.72898440953997
 31
0.0
 11
189.3009063195165
 21
15.72898440953997
 31
0.0
 11
189.3933399860495
 21
15.72898440953997
 31
0.0
 11
189.5240220663201
 21
15.72898440953997
 31
0.0
 11
189.6738283534596
 21
15.72898440953997
 31
0.0
 11
189.8236346405991
 21
15.72898440953997
 31
0.0
 11
189.9543167208697
 21
15.72898440953997
 31
0.0
 11
190.0467503874027
 21
15.72898440953997
 31
0.0
 11
190.0818114333289
 21
15.72898440953997
 31
0.0
 11
190.0818114333289
 21
15.70139746293228
 31
0.0
 11
190.0818114333289
 21
15.64070618039537
 31
0.0
 11
190.0818114333289
 21
15.58001489785845
 31
0.0
 11
190.0818114333289
 21
15.55242795125076
 31
0.0
  0
SPLINE
  5
AA
102
{ACAD_REACTORS
330
C7
102
}
330
48
100
AcDbEntity
  8
_U_30EC_U_30A4_U_30E4_U_30FC_1
  6
Continuous
 62
     2
100
AcDbSpline
210
0.0
220
0.0
230
1.0
 70
    11
 71
     3
 72
    75
 73
    71
 74
    69
 42
0.000000001
 43
0.0000000001
 44
0.00000001
 40
0.0
 40
0.0
 40
0.0
 40
0.0
 40
0.0342546099129691
 40
0.1245622414432364
 40
0.2522385480897554
 40
0.3985991922940733
 40
0.5449598364980892
 40
0.6726361431438905
 40
0.7629437746737049
 40
0.7971983935298079
 40
1.101723623449672
 40
1.408591244036678
 40
1.433332471690384
 40
1.487763172450181
 40
1.542193873082012
 40
1.566935100592561
 40
1.923523931821873
 40
2.271755704953728
 40
2.590579755100916
 40
2.858943305581175
 40
2.889120339309193
 40
2.918305855191135
 40
2.941366645531256
 40
2.996357760973147
 40
3.061992318140691
 40
3.116983433626884
 40
3.140044223997562
 40
3.411273122936483
 40
3.732441619741147
 40
3.761068217532847
 40
3.837787499630407
 40
3.948858699126049
 40
4.080541049104429
 40
4.219093782625812
 40
4.350776132722366
 40
4.461847332405698
 40
4.538566614678432
 40
4.56719321254468
 40
4.594907573998938
 40
4.666381453557477
 40
4.764111044011088
 40
4.870592538125891
 40
4.968322128642342
 40
5.039796008287027
 40
5.067510369784486
 40
5.094263603185698
 40
5.153120716668331
 40
5.211977830150774
 40
5.238731063551779
 40
5.272290535139017
 40
5.363380529444878
 40
5.497618415781556
 40
5.660621563453798
 40
5.838007341749499
 40
6.015393119910851
 40
6.178396267038476
 40
6.312634151842428
 40
6.403724143059417
 40
6.437283612672513
 40
6.464036846261129
 40
6.522893960004739
 40
6.581751071484005
 40
6.608504301590948
 40
6.637253941281095
 40
6.711397748902947
 40
6.812778057283559
 40
6.923237199249336
 40
7.024617507623979
 40
7.098761315207632
 40
7.127510946007583
 40
7.127510946007583
 40
7.127510946007583
 40
7.127510946007583
 10
188.4418622390564
 20
14.95849128473264
 30
0.0
 10
188.4418622819707
 20
14.9470731340872
 30
0.0
 10
188.4418624481128
 20
14.90555257842628
 30
0.0
 10
188.4418593081788
 20
14.82146922003772
 30
0.0
 10
188.44187882798
 20
14.70004497322327
 30
0.0
 10
188.4417912187738
 20
14.55980494047448
 30
0.0
 10
188.442111623523
 20
14.42006556794575
 30
0.0
 10
188.441160590974
 20
14.29745038894927
 30
0.0
 10
188.4431978595967
 20
14.21587074438042
 30
0.0
 10
188.4349433178745
 20
14.06271267077696
 30
0.0
 10
188.74307979409
 20
14.2256023605472
 30
0.0
 10
189.0350645173739
 20
14.39482938688005
 30
0.0
 10
189.0408354448707
 20
14.25973235781911
 30
0.0
 10
189.0455471719891
 20
14.21617221160444
 30
0.0
 10
189.0482535411917
 20
14.17211249350544
 30
0.0
 10
189.0672545672961
 20
14.02272590363134
 30
0.0
 10
188.6583942247302
 20
14.0868117224126
 30
0.0
 10
188.3793710348831
 20
13.97296341411019
 30
0.0
 10
188.1018081587166
 20
13.87364095811141
 30
0.0
 10
187.8099837184401
 20
13.91630687596356
 30
0.0
 10
187.7869144678657
 20
13.8132167974454
 30
0.0
 10
187.7537474383333
 20
13.78691091244469
 30
0.0
 10
187.7480653962739
 20
13.83455309036304
 30
0.0
 10
187.7284214559044
 20
13.87180336115069
 30
0.0
 10
187.7095089485623
 20
13.93007387847564
 30
0.0
 10
187.6942849867708
 20
13.97385201007804
 30
0.0
 10
187.6477246372934
 20
14.0875942104631
 30
0.0
 10
187.9890897312451
 20
14.05576301120047
 30
0.0
 10
188.2679649367385
 20
14.02161435106477
 30
0.0
 10
188.2617753034907
 20
14.16913976479651
 30
0.0
 10
188.2630935452773
 20
14.24013150908831
 30
0.0
 10
188.2624831689948
 20
14.3471976795866
 30
0.0
 10
188.2625871570725
 20
14.47398529785997
 30
0.0
 10
188.2629987964055
 20
14.6084924349605
 30
0.0
 10
188.2613907841969
 20
14.73395549951184
 30
0.0
 10
188.2659902567925
 20
14.84505246719117
 30
0.0
 10
188.2564186502211
 20
14.90761886800688
 30
0.0
 10
188.2704001783691
 20
14.96595388295001
 30
0.0
 10
188.2147384386704
 20
14.95289710582238
 30
0.0
 10
188.1575655197821
 20
14.96136307749498
 30
0.0
 10
188.0616048925648
 20
14.95729976080636
 30
0.0
 10
187.963376752282
 20
14.95970889852474
 30
0.0
 10
187.8672582457561
 20
14.95551600613388
 30
0.0
 10
187.8104648525811
 20
14.96429346441162
 30
0.0
 10
187.7550356873384
 20
14.95094936850121
 30
0.0
 10
187.7670679427917
 20
15.00036910959256
 30
0.0
 10
187.7592003173938
 20
15.04393988030395
 30
0.0
 10
187.7666295563828
 20
15.08830469118524
 30
0.0
 10
187.7551930564144
 20
15.1390229776399
 30
0.0
 10
187.8232102370132
 20
15.12162460757742
 30
0.0
 10
187.8968496879747
 20
15.13417450237188
 30
0.0
 10
188.0325064058211
 20
15.12799677011096
 30
0.0
 10
188.1884909024525
 20
15.13029203093083
 30
0.0
 10
188.3615926358143
 20
15.12940968262529
 30
0.0
 10
188.5346942964181
 20
15.13029207142407
 30
0.0
 10
188.6906789811216
 20
15.12799662955549
 30
0.0
 10
188.8263351889797
 20
15.1341748626243
 30
0.0
 10
188.8999756705652
 20
15.12162394218334
 30
0.0
 10
188.9679914174724
 20
15.13902373012142
 30
0.0
 10
188.9565590885922
 20
15.08830130414554
 30
0.0
 10
188.9639539458297
 20
15.04397060811108
 30
0.0
 10
188.956203991227
 20
15.00028307550196
 30
0.0
 10
188.9681203741876
 20
14.95063590098476
 30
0.0
 10
188.9108170223617
 20
14.96461411338426
 30
0.0
 10
188.8520145789772
 20
14.95539755673254
 30
0.0
 10
188.7525293633199
 20
14.95952268164929
 30
0.0
 10
188.649428009835
 20
14.95822760025887
 30
0.0
 10
188.5537846354573
 20
14.95854077077641
 30
0.0
 10
188.4857467971617
 20
14.95848776697145
 30
0.0
 10
188.4514462213443
 20
14.95849051871656
 30
0.0
 10
188.4418622390564
 20
14.95849128473264
 30
0.0
 11
188.4418622390564
 21
14.95849128473264
 31
0.0
 11
188.4418622390564
 21
14.92423666587185
 31
0.0
 11
188.4418622390564
 21
14.83392903432975
 31
0.0
 11
188.4418622390564
 21
14.70625272766679
 31
0.0
 11
188.4418622390564
 21
14.55989208344339
 31
0.0
 11
188.4418622390564
 21
14.41353143921999
 31
0.0
 11
188.4418622390564
 21
14.28585513255703
 31
0.0
 11
188.4418622390564
 21
14.19554750101493
 31
0.0
 11
188.4418622390564
 21
14.16129288215414
 31
0.0
 11
188.7391932644567
 21
14.22709475713768
 31
0.0
 11
189.0384623627245
 21
14.29496038212072
 31
0.0
 11
189.0405487124976
 21
14.27030727882827
 31
0.0
 11
189.0451386819987
 21
14.2160704515849
 31
0.0
 11
189.0497286514996
 21
14.16183362434152
 31
0.0
 11
189.0518150012728
 21
14.13718052104907
 31
0.0
 11
188.705639688924
 21
14.05163370140897
 31
0.0
 11
188.3669653138837
 21
13.97060877629901
 31
0.0
 11
188.0563731516688
 21
13.89862764024928
 31
0.0
 11
187.7944444777955
 21
13.8402121877899
 31
0.0
 11
187.7817515029292
 21
13.81283442738012
 31
0.0
 11
187.7569794787513
 21
13.79740260446735
 31
0.0
 11
187.7491867589501
 21
13.81910683390636
 31
0.0
 11
187.7306041194242
 21
13.87086307333786
 31
0.0
 11
187.70842483999
 21
13.93263664943351
 31
0.0
 11
187.689842200464
 21
13.984392888865
 31
0.0
 11
187.6820494806628
 21
14.00609711830401
 31
0.0
 11
187.9482776335931
 21
14.05794001759665
 31
0.0
 11
188.2626334936289
 21
14.12373968771909
 31
0.0
 11
188.2626334936289
 21
14.15236628569624
 31
0.0
 11
188.2626334936289
 21
14.22908556827498
 31
0.0
 11
188.2626334936289
 21
14.34015676842631
 31
0.0
 11
188.2626334936289
 21
14.47183911912117
 31
0.0
 11
188.2626334936289
 21
14.61039185333055
 31
0.0
 11
188.2626334936289
 21
14.74207420402542
 31
0.0
 11
188.2626334936289
 21
14.85314540417674
 31
0.0
 11
188.2626334936289
 21
14.92986468675549
 31
0.0
 11
188.2626334936289
 21
14.95849128473264
 31
0.0
 11
188.2349191321108
 21
14.95849128473264
 31
0.0
 11
188.1634452524063
 21
14.95849128473264
 31
0.0
 11
188.06571566179
 21
14.95849128473264
 31
0.0
 11
187.9592341675364
 21
14.95849128473264
 31
0.0
 11
187.8615045769201
 21
14.95849128473264
 31
0.0
 11
187.7900306972156
 21
14.95849128473264
 31
0.0
 11
187.7623163356975
 21
14.95849128473264
 31
0.0
 11
187.7623163356975
 21
14.98524451823289
 31
0.0
 11
187.7623163356975
 21
15.04410163193343
 31
0.0
 11
187.7623163356975
 21
15.10295874563398
 31
0.0
 11
187.7623163356975
 21
15.12971197913423
 31
0.0
 11
187.7958758072874
 21
15.12971197913423
 31
0.0
 11
187.8869658016031
 21
15.12971197913423
 31
0.0
 11
188.0212036879629
 21
15.12971197913423
 31
0.0
 11
188.1842068356856
 21
15.12971197913423
 31
0.0
 11
188.3615926140897
 21
15.12971197913423
 31
0.0
 11
188.5389783924938
 21
15.12971197913423
 31
0.0
 11
188.7019815402164
 21
15.12971197913423
 31
0.0
 11
188.8362194265763
 21
15.12971197913423
 31
0.0
 11
188.9273094208918
 21
15.12971197913423
 31
0.0
 11
188.9608688924818
 21
15.12971197913423
 31
0.0
 11
188.9608688924818
 21
15.10295874563398
 31
0.0
 11
188.9608688924818
 21
15.04410163193344
 31
0.0
 11
188.9608688924818
 21
14.98524451823289
 31
0.0
 11
188.9608688924818
 21
14.95849128473264
 31
0.0
 11
188.9321192527877
 21
14.95849128473264
 31
0.0
 11
188.8579754451555
 21
14.95849128473264
 31
0.0
 11
188.7565951367604
 21
14.95849128473264
 31
0.0
 11
188.6461359947778
 21
14.95849128473264
 31
0.0
 11
188.5447556863827
 21
14.95849128473264
 31
0.0
 11
188.4706118787505
 21
14.95849128473264
 31
0.0
 11
188.4418622390564
 21
14.95849128473264
 31
0.0
  0
SPLINE
  5
AB
102
{ACAD_REACTORS
330
C8
102
}
330
48
100
AcDbEntity
  8
_U_30EC_U_30A4_U_30E4_U_30FC_1
  6
Continuous
 62
     2
100
AcDbSpline
210
0.0
220
0.0
230
1.0
 70
    11
 71
     3
 72
    15
 73
    11
 74
     9
 42
0.000000001
 43
0.0000000001
 44
0.00000001
 40
0.0
 40
0.0
 40
0.0
 40
0.0
 40
0.2785535985096532
 40
0.521562474819888
 40
0.6076917376040516
 40
0.6938210001741238
 40
0.9405019146455076
 40
1.221691403489141
 40
1.300471877081058
 40
1.379252341684821
 40
1.379252341684821
 40
1.379252341684821
 40
1.379252341684821
 10
189.5681493630999
 20
16.2293026733038
 30
0.0
 10
189.6296017794178
 20
16.17691646592715
 30
0.0
 10
189.7446649974113
 20
16.07882876798222
 30
0.0
 10
190.0397348497244
 20
15.92889785897221
 30
0.0
 10
189.9025147631856
 20
15.84343227515013
 30
0.0
 10
189.8041227843778
 20
15.71085785201554
 30
0.0
 10
189.7130033590649
 20
16.01616985781419
 30
0.0
 10
189.3636839480655
 20
16.07967869465374
 30
0.0
 10
189.511925837657
 20
16.17896509880877
 30
0.0
 10
189.5494081874237
 20
16.21252348402382
 30
0.0
 10
189.5681493630999
 20
16.2293026733038
 30
0.0
 11
189.5681493630999
 21
16.2293026733038
 31
0.0
 11
189.7919222440596
 21
16.06341774278972
 31
0.0
 11
189.9695046306383
 21
15.89753281227563
 31
0.0
 11
189.9066308127979
 21
15.83866743034591
 31
0.0
 11
189.8437569949575
 21
15.77980204841619
 31
0.0
 11
189.6688535117725
 21
15.95375677059491
 31
0.0
 11
189.447825685614
 21
16.12757920110702
 31
0.0
 11
189.507987524357
 21
16.17844093720541
 31
0.0
 11
189.5681493630999
 21
16.2293026733038
 31
0.0
  0
SPLINE
  5
AC
102
{ACAD_REACTORS
330
C9
102
}
330
48
100
AcDbEntity
  8
_U_30EC_U_30A4_U_30E4_U_30FC_1
  6
Continuous
 62
     2
100
AcDbSpline
210
0.0
220
0.0
230
1.0
 70
    11
 71
     3
 72
    35
 73
    31
 74
    29
 42
0.000000001
 43
0.0000000001
 44
0.00000001
 40
0.0
 40
0.0
 40
0.0
 40
0.0
 40
0.0335231036620562
 40
0.0713218571711968
 40
0.4278866681486973
 40
0.8116865841964018
 40
1.198190238000063
 40
1.561379546812693
 40
1.659983174622073
 40
1.7593155738072
 40
2.132719617231086
 40
2.525233363588836
 40
2.910815397779705
 40
3.265244364303295
 40
3.592606723582034
 40
3.964386154603981
 40
4.359942131737825
 40
4.758154118639309
 40
4.843846538699919
 40
4.93665006554324
 40
5.25661660253732
 40
5.581707404416054
 40
5.899719158308149
 40
6.198363494280751
 40
6.466301046615784
 40
6.493895311537106
 40
6.559697020196898
 40
6.638234543442474
 40
6.704036252154227
 40
6.731630508423033
 40
6.731630508423033
 40
6.731630508423033
 40
6.731630508423033
 10
191.9736010568669
 20
16.23463843719133
 30
0.0
 10
191.9676006097788
 20
16.22480690542323
 30
0.0
 10
191.9548344099156
 20
16.20388988579798
 30
0.0
 10
191.7949362006556
 20
16.17127126532691
 30
0.0
 10
192.2322025842335
 20
15.882066803367
 30
0.0
 10
192.4345394828263
 20
15.68041138358439
 30
0.0
 10
192.6819564267973
 20
15.43749387603277
 30
0.0
 10
193.1831513624606
 20
15.36047662757772
 30
0.0
 10
193.012556219897
 20
15.21876939174657
 30
0.0
 10
192.9383299463201
 20
15.01710366209104
 30
0.0
 10
192.6131432248188
 20
15.36956287174727
 30
0.0
 10
192.3277741670663
 20
15.5317521255956
 30
0.0
 10
192.0337604077658
 20
15.73687130053047
 30
0.0
 10
191.8084452691134
 20
16.21827488595454
 30
0.0
 10
191.5993085055522
 20
15.75343046609223
 30
0.0
 10
191.3207873674833
 20
15.5435095225291
 30
0.0
 10
191.0371383177209
 20
15.37424456359987
 30
0.0
 10
190.7078639527831
 20
15.00142360907936
 30
0.0
 10
190.6277012318224
 20
15.19708014459001
 30
0.0
 10
190.4759724909744
 20
15.32491104190595
 30
0.0
 10
190.9083395826795
 20
15.40454031765936
 30
0.0
 10
191.0962565329766
 20
15.60026634915472
 30
0.0
 10
191.3468477420502
 20
15.81632996916755
 30
0.0
 10
191.5714350470161
 20
15.98190992300057
 30
0.0
 10
191.6259775409712
 20
16.26133964636828
 30
0.0
 10
191.7494661029011
 20
16.24737950408077
 30
0.0
 10
191.806027334452
 20
16.24521268867647
 30
0.0
 10
191.8761870984944
 20
16.24046859881359
 30
0.0
 10
191.9333414022106
 20
16.2370942935054
 30
0.0
 10
191.9644190320839
 20
16.23519854711118
 30
0.0
 10
191.9736010568669
 20
16.23463843719133
 30
0.0
 11
191.9736010568669
 21
16.23463843719133
 31
0.0
 11
191.9525319069884
 21
16.20856374969785
 31
0.0
 11
191.9174464559425
 21
16.19450114553469
 31
0.0
 11
192.1512374769094
 21
15.92527961131382
 31
0.0
 11
192.4414585957566
 21
15.67413407969259
 31
0.0
 11
192.7612797483684
 21
15.45710987618783
 31
0.0
 11
193.0838708706289
 21
15.29025232631636
 31
0.0
 11
193.0213299868076
 21
15.21402035584928
 31
0.0
 11
192.9688035818975
 21
15.12971197913423
 31
0.0
 11
192.6436279095814
 21
15.31326404831579
 31
0.0
 11
192.3237227768436
 21
15.54070139743427
 31
0.0
 11
192.0354200158608
 21
15.79673855123309
 31
0.0
 11
191.8050514588095
 21
16.06609003445565
 31
0.0
 11
191.5995531719516
 21
15.81126348721035
 31
0.0
 11
191.3288301341535
 21
15.55645182277755
 31
0.0
 11
191.0119538423246
 21
15.31969466354855
 31
0.0
 11
190.6679957933741
 21
15.11903163191466
 31
0.0
 11
190.6218855341338
 21
15.19126067703553
 31
0.0
 11
190.5636970460348
 21
15.26355586798966
 31
0.0
 11
190.8433040489015
 21
15.41911456961744
 31
0.0
 11
191.1093004621154
 21
15.60601009790405
 31
0.0
 11
191.3499997459746
 21
15.81384496285208
 31
0.0
 11
191.5537153607774
 21
16.03222167446415
 31
0.0
 11
191.7087607668218
 21
16.25074274274286
 31
0.0
 11
191.7363041569865
 21
16.2490678949655
 31
0.0
 11
191.8019845489177
 21
16.24507402718872
 31
0.0
 11
191.880377274771
 21
16.24030715274547
 31
0.0
 11
191.9460576667022
 21
16.23631328496869
 31
0.0
 11
191.9736010568669
 21
16.23463843719133
 31
0.0
  0
SPLINE
  5
AD
102
{ACAD_REACTORS
330
CA
102
}
330
48
100
AcDbEntity
  8
_U_30EC_U_30A4_U_30E4_U_30FC_1
  6
Continuous
 62
     2
100
AcDbSpline
210
0.0
220
0.0
230
1.0
 70
    11
 71
     3
 72
    91
 73
    87
 74
    85
 42
0.000000001
 43
0.0000000001
 44
0.00000001
 40
0.0
 40
0.0
 40
0.0
 40
0.0
 40
0.0267532254356701
 40
0.0856103386464155
 40
0.1444674521996709
 40
0.1712206856618621
 40
0.2039416005642643
 40
0.2955601971652591
 40
0.4362601844617024
 40
0.6162252844507357
 40
0.8256392189704804
 40
1.054685709844421
 40
1.293548478893542
 40
1.532411247938314
 40
1.761457738799579
 40
1.970871673298547
 40
2.150836773256743
 40
2.291536760495604
 40
2.383155356836711
 40
2.415876284101331
 40
2.442629517487977
 40
2.501486630949111
 40
2.560343744424261
 40
2.587096977826536
 40
2.617068194440964
 40
2.699247336756105
 40
2.822032643466417
 40
2.973822353257947
 40
3.143014704823389
 40
3.318007936879968
 40
3.487200288186801
 40
3.638989997548282
 40
3.761775303794781
 40
3.843954445753115
 40
3.873925662229811
 40
3.890812773500519
 40
3.907699884771697
 40
3.937960767857304
 40
3.980983618142336
 40
4.199085915228483
 40
4.439444339237273
 40
4.677588241260915
 40
5.050698317837801
 40
5.448212454763187
 40
5.855291218044712
 40
6.138575438885376
 40
6.417434507584216
 40
6.444551104393875
 40
6.504207617363176
 40
6.563864130314474
 40
6.590980727104044
 40
6.848609460381451
 40
7.109611990668451
 40
7.352910904446114
 40
7.557830220705487
 40
7.587518925913405
 40
7.652834077375846
 40
7.718149228845852
 40
7.747837934062131
 40
7.854880190301039
 40
7.976511257403584
 40
8.369487896592386
 40
8.757514959223679
 40
9.126072419331141
 40
9.460639380392204
 40
9.746695593035945
 40
9.777569943118722
 40
9.807050320931822
 40
9.830377336128954
 40
9.886003295436028
 40
9.95239556942994
 40
10.00802152870629
 40
10.03134854388222
 40
10.21356951009592
 40
10.42203479292875
 40
10.66154556731067
 40
10.91693789564308
 40
11.15832906556568
 40
11.18982674596626
 40
11.2728660852041
 40
11.39026653033352
 40
11.52484752840889
 40
11.65942852648451
 40
11.77682897161487
 40
11.85986831085686
 40
11.89136598230431
 40
11.89136598230431
 40
11.89136598230431
 40
11.89136598230431
 10
190.7027885008196
 20
14.70699600701771
 30
0.0
 10
190.7028237765288
 20
14.71587847311984
 30
0.0
 10
190.7029366710796
 20
14.74430237047345
 30
0.0
 10
190.7012984568489
 20
14.79409639169803
 30
0.0
 10
190.7069750292911
 20
14.83657564478154
 30
0.0
 10
190.6956928731706
 20
14.88730154856847
 30
0.0
 10
190.7632296979031
 20
14.87012900740109
 30
0.0
 10
190.83880292107
 20
14.88290227165996
 30
0.0
 10
190.9828357056
 20
14.87629729457382
 30
0.0
 10
191.1569419185427
 20
14.87888462206466
 30
0.0
 10
191.3639599611003
 20
14.87800591955553
 30
0.0
 10
191.5894688172378
 20
14.87828207920027
 30
0.0
 10
191.8251162293406
 20
14.87818339658662
 30
0.0
 10
192.0607640531348
 20
14.87828184412767
 30
0.0
 10
192.2862717580626
 20
14.87800678190789
 30
0.0
 10
192.4932934632805
 20
14.87888186270735
 30
0.0
 10
192.6673888915288
 20
14.87630522678446
 30
0.0
 10
192.8114492071986
 20
14.88288290449213
 30
0.0
 10
192.8869691915293
 20
14.87016243405605
 30
0.0
 10
192.954577603703
 20
14.88726400191686
 30
0.0
 10
192.9430840140676
 20
14.83674785802941
 30
0.0
 10
192.9505104581733
 20
14.792532522265
 30
0.0
 10
192.9428838927986
 20
14.74867966503609
 30
0.0
 10
192.9546489459425
 20
14.69878374479327
 30
0.0
 10
192.8930788491983
 20
14.71393227712511
 30
0.0
 10
192.8256791738671
 20
14.70310665350673
 30
0.0
 10
192.7013004056222
 20
14.70852031626235
 30
0.0
 10
192.555442823657
 20
14.70649205390784
 30
0.0
 10
192.3893576440086
 20
14.70715777578385
 30
0.0
 10
192.2188412621724
 20
14.70689643521241
 30
0.0
 10
192.0519790855388
 20
14.70721553391093
 30
0.0
 10
191.9087346827105
 20
14.70635302590761
 30
0.0
 10
191.7773313869834
 20
14.70863300482987
 30
0.0
 10
191.7239859134656
 20
14.70407704374201
 30
0.0
 10
191.6485188456912
 20
14.70999914992876
 30
0.0
 10
191.6769075779232
 20
14.70094169343351
 30
0.0
 10
191.7033652409542
 20
14.69725912268928
 30
0.0
 10
191.6633522907701
 20
14.66654271968273
 30
0.0
 10
191.5713663691867
 20
14.67667591174634
 30
0.0
 10
191.543939620707
 20
14.43032502247784
 30
0.0
 10
191.4478793967233
 20
14.27499558764374
 30
0.0
 10
191.1917277964474
 20
13.94525417931568
 30
0.0
 10
191.7627537732762
 20
14.08430022210451
 30
0.0
 10
192.0173656320516
 20
14.08291779973363
 30
0.0
 10
192.6279647048616
 20
13.99790569242085
 30
0.0
 10
192.3340698578085
 20
14.29685417558206
 30
0.0
 10
192.0133304286514
 20
14.44330856901772
 30
0.0
 10
192.1313543360434
 20
14.50025540818288
 30
0.0
 10
192.1724716466261
 20
14.52420099873347
 30
0.0
 10
192.215681239441
 20
14.54599758811229
 30
0.0
 10
192.317457409445
 20
14.60928721253908
 30
0.0
 10
192.4328867625246
 20
14.35147151408776
 30
0.0
 10
192.6329591642277
 20
14.21616041113684
 30
0.0
 10
192.7269077387228
 20
14.03792795138881
 30
0.0
 10
192.9558829746391
 20
13.87997821027048
 30
0.0
 10
192.8596031846708
 20
13.82915972576298
 30
0.0
 10
192.8167959763778
 20
13.79881292523051
 30
0.0
 10
192.7718243528778
 20
13.77466130281462
 30
0.0
 10
192.7121720925213
 20
13.72552146747567
 30
0.0
 10
192.6789731061325
 20
13.85997475673613
 30
0.0
 10
192.5582013350795
 20
14.01594265286578
 30
0.0
 10
192.1970976005978
 20
13.88569928059557
 30
0.0
 10
191.8385061955541
 20
13.90224694409483
 30
0.0
 10
191.457092045008
 20
13.89331229351865
 30
0.0
 10
191.170345528289
 20
13.82882671672408
 30
0.0
 10
190.8592055599715
 20
13.94230668192826
 30
0.0
 10
190.8268737818788
 20
13.83122259927768
 30
0.0
 10
190.7896178253318
 20
13.81196313850012
 30
0.0
 10
190.7865737632754
 20
13.85874784087297
 30
0.0
 10
190.7679892860607
 20
13.89806853919134
 30
0.0
 10
190.7512436616778
 20
13.95765983478232
 30
0.0
 10
190.7383730915753
 20
14.00201969871282
 30
0.0
 10
190.704232780643
 20
14.091063311202
 30
0.0
 10
190.9482714457753
 20
14.02181042943769
 30
0.0
 10
191.1441394486671
 20
14.00030369057743
 30
0.0
 10
191.2395426381277
 20
14.28226484478462
 30
0.0
 10
191.2945135769598
 20
14.44363045421122
 30
0.0
 10
191.5159619357155
 20
14.71391177589737
 30
0.0
 10
191.3849239381217
 20
14.70548446853734
 30
0.0
 10
191.3110026555853
 20
14.70779008496969
 30
0.0
 10
191.1977459876244
 20
14.70671378321657
 30
0.0
 10
191.0694251807484
 20
14.70707639076509
 30
0.0
 10
190.9404252030415
 20
14.70697724466084
 30
0.0
 10
190.828784094629
 20
14.70699932712571
 30
0.0
 10
190.7514663970026
 20
14.70699579189669
 30
0.0
 10
190.713287653201
 20
14.7069959584508
 30
0.0
 10
190.7027885008196
 20
14.70699600701771
 30
0.0
 11
190.7027885008196
 21
14.70699600701771
 31
0.0
 11
190.7027885008196
 21
14.73374924051796
 31
0.0
 11
190.7027885008196
 21
14.79260635421853
 31
0.0
 11
190.7027885008196
 21
14.85146346791909
 31
0.0
 11
190.7027885008196
 21
14.87821670141935
 31
0.0
 11
190.7355094280989
 21
14.87821670141935
 31
0.0
 11
190.8271280244809
 21
14.87821670141935
 31
0.0
 11
190.9678280117818
 21
14.87821670141935
 31
0.0
 11
191.1477931118179
 21
14.87821670141935
 31
0.0
 11
191.3572070464054
 21
14.87821670141935
 31
0.0
 11
191.5862535373604
 21
14.87821670141935
 31
0.0
 11
191.8251163064992
 21
14.87821670141935
 31
0.0
 11
192.0639790756381
 21
14.87821670141935
 31
0.0
 11
192.2930255665931
 21
14.87821670141935
 31
0.0
 11
192.5024395011806
 21
14.87821670141935
 31
0.0
 11
192.6824046012167
 21
14.87821670141935
 31
0.0
 11
192.8231045885176
 21
14.87821670141935
 31
0.0
 11
192.9147231848996
 21
14.87821670141935
 31
0.0
 11
192.9474441121789
 21
14.87821670141935
 31
0.0
 11
192.9474441121789
 21
14.85146346791909
 31
0.0
 11
192.9474441121789
 21
14.79260635421853
 31
0.0
 11
192.9474441121789
 21
14.73374924051797
 31
0.0
 11
192.9474441121789
 21
14.70699600701771
 31
0.0
 11
192.9174728954758
 21
14.70699600701771
 31
0.0
 11
192.8352937529027
 21
14.70699600701771
 31
0.0
 11
192.7125084457639
 21
14.70699600701771
 31
0.0
 11
192.5607187353642
 21
14.70699600701771
 31
0.0
 11
192.3915263830077
 21
14.70699600701771
 31
0.0
 11
192.2165331499991
 21
14.70699600701771
 31
0.0
 11
192.0473407976426
 21
14.70699600701771
 31
0.0
 11
191.8955510872428
 21
14.70699600701771
 31
0.0
 11
191.7727657801042
 21
14.70699600701771
 31
0.0
 11
191.690586637531
 21
14.70699600701771
 31
0.0
 11
191.6606154208279
 21
14.70699600701771
 31
0.0
 11
191.6766359412525
 21
14.70165583340792
 31
0.0
 11
191.6926564616771
 21
14.69631565979814
 31
0.0
 11
191.670615568142
 21
14.67558114591441
 31
0.0
 11
191.6284861855363
 21
14.66685871536109
 31
0.0
 11
191.5365235541377
 21
14.46909247312656
 31
0.0
 11
191.4279078521763
 21
14.25467511978508
 31
0.0
 11
191.3127500824807
 21
14.04622559051619
 31
0.0
 11
191.685736667502
 21
14.05582441253028
 31
0.0
 11
192.083070003615
 21
14.06781232404994
 31
0.0
 11
192.4899342191145
 21
14.08102711828532
 31
0.0
 11
192.2983119496978
 21
14.2896676130248
 31
0.0
 11
192.0966752013698
 21
14.48229420151831
 31
0.0
 11
192.1204947794749
 21
14.49525327269564
 31
0.0
 11
192.1728978513061
 21
14.52376322928576
 31
0.0
 11
192.2253009231373
 21
14.55227318587587
 31
0.0
 11
192.2491205012424
 21
14.5652322570532
 31
0.0
 11
192.4387101558626
 21
14.39079508370267
 31
0.0
 11
192.6200310940435
 21
14.20305846374091
 31
0.0
 11
192.7777729231147
 21
14.01782380992436
 31
0.0
 11
192.8966252504058
 21
13.85089253500948
 31
0.0
 11
192.8715408217923
 21
13.83501202286068
 31
0.0
 11
192.8163550788425
 21
13.80007489613332
 31
0.0
 11
192.7611693358927
 21
13.76513776940595
 31
0.0
 11
192.7360849072792
 21
13.74925725725715
 31
0.0
 11
192.6775518151612
 21
13.83887824681809
 31
0.0
 11
192.6050015078457
 21
13.93650288221032
 31
0.0
 11
192.2125412924095
 21
13.91636286943759
 31
0.0
 11
191.824947406956
 21
13.89803302999773
 31
0.0
 11
191.4567378976213
 21
13.88202178722395
 31
0.0
 11
191.1224308105412
 21
13.86883756444947
 31
0.0
 11
190.8365441918518
 21
13.8589887850075
 31
0.0
 11
190.821186232174
 21
13.83220523466695
 31
0.0
 11
190.7937434290546
 21
13.82143559057245
 31
0.0
 11
190.7867927192319
 21
13.84370299445577
 31
0.0
 11
190.7702179496548
 21
13.89680218833138
 31
0.0
 11
190.7504351601596
 21
13.96017864553776
 31
0.0
 11
190.7338603905825
 21
14.01327783941337
 31
0.0
 11
190.7269096807598
 21
14.03554524329669
 31
0.0
 11
190.9091199859153
 21
14.03751638912952
 31
0.0
 11
191.1174975848588
 21
14.04356211829471
 31
0.0
 11
191.2303203127216
 21
14.25483550301553
 31
0.0
 11
191.3407936722035
 21
14.48509813155878
 31
0.0
 11
191.4358254265627
 21
14.70699600701771
 31
0.0
 11
191.4043277461597
 21
14.70699600701771
 31
0.0
 11
191.3212884069153
 21
14.70699600701771
 31
0.0
 11
191.2038879617768
 21
14.70699600701771
 31
0.0
 11
191.0693069636912
 21
14.70699600701771
 31
0.0
 11
190.9347259656055
 21
14.70699600701771
 31
0.0
 11
190.817325520467
 21
14.70699600701771
 31
0.0
 11
190.7342861812226
 21
14.70699600701771
 31
0.0
 11
190.7027885008196
 21
14.70699600701771
 31
0.0
  0
SPLINE
  5
AE
102
{ACAD_REACTORS
330
CB
102
}
330
48
100
AcDbEntity
  8
_U_30EC_U_30A4_U_30E4_U_30FC_1
  6
Continuous
 62
     2
100
AcDbSpline
210
0.0
220
0.0
230
1.0
 70
    11
 71
     3
 72
   131
 73
   127
 74
   125
 42
0.000000001
 43
0.0000000001
 44
0.00000001
 40
0.0
 40
0.0
 40
0.0
 40
0.0
 40
0.0195577029826344
 40
0.0426490537462196
 40
0.2863607575857054
 40
0.5344948436189585
 40
0.7842238845573497
 40
0.8737315789467662
 40
0.9803832810313159
 40
1.092842274517063
 40
1.199761146656821
 40
1.289788768186525
 40
1.351573580786215
 40
1.370727117561461
 40
1.41640093601787
 40
1.470914848356031
 40
1.51658866679182
 40
1.535742203552918
 40
1.634216592293225
 40
1.76028334117504
 40
1.8979666866821
 40
2.03121638736892
 40
2.049689751137914
 40
2.10111560164685
 40
2.179502577739967
 40
2.278859318314082
 40
2.393194462258736
 40
2.516516648383849
 40
2.642834515405974
 40
2.766156701983476
 40
2.880491846754589
 40
2.97984858835863
 40
3.058235565443807
 40
3.109661416668962
 40
3.128134780704137
 40
3.146783742386454
 40
3.191254343315315
 40
3.244332157315974
 40
3.288802758225877
 40
3.30745171989512
 40
3.327717853844733
 40
3.383747753580092
 40
3.468388665924483
 40
3.574487837698792
 40
3.694892515728895
 40
3.822449946852034
 40
3.950007377920423
 40
4.070412055800515
 40
4.176511227368071
 40
4.261152139501517
 40
4.317182039076711
 40
4.337448172964629
 40
4.620011002696248
 40
4.885096638397516
 40
4.945373043518335
 40
5.01410771048865
 40
5.070481727652046
 40
5.31924695563657
 40
5.584812164506042
 40
5.859000912056893
 40
6.133746937542075
 40
6.401732212968878
 40
6.420736683995469
 40
6.472845717451119
 40
6.550702743894047
 40
6.646951193874256
 40
6.75423449793058
 40
6.865196086587358
 40
6.972479390357816
 40
7.068727839771978
 40
7.146584865450987
 40
7.198693898189217
 40
7.217698368905357
 40
7.234950401630836
 40
7.27608986426988
 40
7.325191803515989
 40
7.366331266090376
 40
7.383583298769728
 40
7.402779163492105
 40
7.453386443254536
 40
7.524934666445538
 40
7.606953361405878
 40
7.688972056429029
 40
7.76052027978428
 40
7.811127559734522
 40
7.830323424546143
 40
7.847844055299773
 40
7.894799345666812
 40
7.962779392744499
 40
8.043374293560547
 40
8.12817414514945
 40
8.20876904481725
 40
8.276749090376951
 40
8.323704379669513
 40
8.341225010056244
 40
8.358497614800392
 40
8.401679126686597
 40
8.457815092185655
 40
8.51395105772806
 40
8.557132569708015
 40
8.574405174505058
 40
8.602340668616412
 40
8.643455660539953
 40
8.66322527196662
 40
8.715345156564268
 40
8.789031889628603
 40
8.873502045520333
 40
8.957972194323956
 40
9.031658925567847
 40
9.083778811234538
 40
9.103548423003
 40
9.119550083123537
 40
9.160817522379839
 40
9.217244429110204
 40
9.27872449164469
 40
9.335151398295475
 40
9.37641883735777
 40
9.392420497300558
 40
9.401196302734776
 40
9.41749422938425
 40
9.42627002774952
 40
9.440875075477551
 40
9.475702496998732
 40
9.517270709865894
 40
9.552098131994061
 40
9.566703169884269
 40
9.566703169884269
 40
9.566703169884269
 40
9.566703169884269
 10
194.6170254148479
 20
15.67015871511027
 30
0.0
 10
194.6134345093371
 20
15.66453690702159
 30
0.0
 10
194.6056039123624
 20
15.6522775441911
 30
0.0
 10
194.5129968974549
 20
15.61601916040982
 30
0.0
 10
194.4887622233245
 20
15.40148444212708
 30
0.0
 10
194.385870984594
 20
15.22197284509708
 30
0.0
 10
194.1220492364305
 20
15.03615573798144
 30
0.0
 10
194.284547156918
 20
14.9595933656608
 30
0.0
 10
194.3607225760838
 20
14.89856693195441
 30
0.0
 10
194.4492171072758
 20
14.83515804544759
 30
0.0
 10
194.538993023311
 20
14.7752563421956
 30
0.0
 10
194.5883817636046
 20
14.72102154849207
 30
0.0
 10
194.6745708157382
 20
14.69286240541833
 30
0.0
 10
194.6411260674229
 20
14.65713309652812
 30
0.0
 10
194.621467116631
 20
14.62550387991905
 30
0.0
 10
194.5919888217882
 20
14.58475872796071
 30
0.0
 10
194.5688989446031
 20
14.55504663489642
 30
0.0
 10
194.5380205968355
 20
14.50211422668497
 30
0.0
 10
194.472919336574
 20
14.62740334938902
 30
0.0
 10
194.3796000122415
 20
14.68213900233934
 30
0.0
 10
194.295063628514
 20
14.73916423939343
 30
0.0
 10
194.1722498125741
 20
14.89675287427521
 30
0.0
 10
194.1764450847302
 20
14.82035806766836
 30
0.0
 10
194.1751478652677
 20
14.77361280161294
 30
0.0
 10
194.1758126448076
 20
14.695847858126
 30
0.0
 10
194.1755549986956
 20
14.59902068324422
 30
0.0
 10
194.1756431239921
 20
14.48650279078808
 30
0.0
 10
194.1756077302281
 20
14.36524085945699
 30
0.0
 10
194.1756511758278
 20
14.24086897858961
 30
0.0
 10
194.1755199942406
 20
14.11967683631336
 30
0.0
 10
194.1759477562046
 20
14.00691148919743
 30
0.0
 10
194.174667820231
 20
13.91082913768744
 30
0.0
 10
194.1779759851044
 20
13.831138264687
 30
0.0
 10
194.1715197740086
 20
13.78815175788784
 30
0.0
 10
194.1806208705556
 20
13.74955432372043
 30
0.0
 10
194.1447910339935
 20
13.7581088772407
 30
0.0
 10
194.1115223815252
 20
13.75342519985446
 30
0.0
 10
194.060456257604
 20
13.75351298759784
 30
0.0
 10
194.0269723972813
 20
13.75794430283821
 30
0.0
 10
193.9907585408754
 20
13.74960793842509
 30
0.0
 10
194.0009782568665
 20
13.79145277179284
 30
0.0
 10
193.9936487887773
 20
13.83778560820173
 30
0.0
 10
193.9973633136103
 20
13.92374831106015
 30
0.0
 10
193.9959480554896
 20
14.02605142704849
 30
0.0
 10
193.9964105554638
 20
14.14453223931512
 30
0.0
 10
193.996277368623
 20
14.26957683153356
 30
0.0
 10
193.9963015910045
 20
14.3947582810705
 30
0.0
 10
193.9963354925551
 20
14.51286645379058
 30
0.0
 10
193.9962060293132
 20
14.61628748709516
 30
0.0
 10
193.9965507549081
 20
14.69932036153667
 30
0.0
 10
193.9958698278689
 20
14.75143368521243
 30
0.0
 10
193.9994586600624
 20
14.87912907821363
 30
0.0
 10
193.7826171386436
 20
14.58048716819618
 30
0.0
 10
193.602135492195
 20
14.35263981511514
 30
0.0
 10
193.5490322295611
 20
14.49373443289814
 30
0.0
 10
193.5200429133149
 20
14.54325767560942
 30
0.0
 10
193.419664806282
 20
14.64641779790106
 30
0.0
 10
193.7405127723261
 20
14.72695035023778
 30
0.0
 10
193.8689897005429
 20
14.91066283036434
 30
0.0
 10
194.0906454325359
 20
15.11931995771762
 30
0.0
 10
194.1770224894069
 20
15.29339211228344
 30
0.0
 10
194.4549394229074
 20
15.5696705134251
 30
0.0
 10
194.3346247839284
 20
15.56534559551114
 30
0.0
 10
194.2863197351348
 20
15.56614856202552
 30
0.0
 10
194.2102377454905
 20
15.56574582146584
 30
0.0
 10
194.116701000975
 20
15.56590275611609
 30
0.0
 10
194.0117594788557
 20
15.56582502576224
 30
0.0
 10
193.9033887738717
 20
15.56595464378554
 30
0.0
 10
193.7981454235897
 20
15.56554393490692
 30
0.0
 10
193.7056237819412
 20
15.56682073671591
 30
0.0
 10
193.6268130800708
 20
15.5634076653485
 30
0.0
 10
193.5839674565379
 20
15.5702335003632
 30
0.0
 10
193.5449499586516
 20
15.56065064201123
 30
0.0
 10
193.5526365271863
 20
15.59420779565543
 30
0.0
 10
193.5485464404312
 20
15.62523550322233
 30
0.0
 10
193.5485531368814
 20
15.672365292709
 30
0.0
 10
193.5526239724911
 20
15.70340941646779
 30
0.0
 10
193.5449495574582
 20
15.73701861635901
 30
0.0
 10
193.5834819405494
 20
15.72748410420872
 30
0.0
 10
193.624122801448
 20
15.73397435498071
 30
0.0
 10
193.6951471850463
 20
15.73100150650254
 30
0.0
 10
193.7729318149633
 20
15.73174761399158
 30
0.0
 10
193.8507292246474
 20
15.73247814044525
 30
0.0
 10
193.9217232089907
 20
15.7295423551416
 30
0.0
 10
193.962427979182
 20
15.73595468772952
 30
0.0
 10
194.000985348991
 20
15.72650524176004
 30
0.0
 10
193.9927342754927
 20
15.76264692158784
 30
0.0
 10
193.9982346669358
 20
15.80129837613226
 30
0.0
 10
193.9955754206163
 20
15.86913528561839
 30
0.0
 10
193.9965815471533
 20
15.94591641538739
 30
0.0
 10
193.9960178018318
 20
16.02849393582756
 30
0.0
 10
193.9970714526593
 20
16.10517329229877
 30
0.0
 10
193.994267586313
 20
16.17331990776699
 30
0.0
 10
194.0000702721303
 20
16.21132399809345
 30
0.0
 10
193.9915654551159
 20
16.24758448077645
 30
0.0
 10
194.0255610233125
 20
16.23755723771851
 30
0.0
 10
194.0594575683099
 20
16.24073266813706
 30
0.0
 10
194.1126669060346
 20
16.23508965640608
 30
0.0
 10
194.1660768574482
 20
16.23434774436424
 30
0.0
 10
194.1995914649491
 20
16.22819223482979
 30
0.0
 10
194.2388086183039
 20
16.23346029773592
 30
0.0
 10
194.2120263698492
 20
16.19253380793489
 30
0.0
 10
194.1708111001723
 20
16.2037120453811
 30
0.0
 10
194.1782641540873
 20
16.15867056192124
 30
0.0
 10
194.1742227952185
 20
16.11412278028144
 30
0.0
 10
194.176171404964
 20
16.04223572621703
 30
0.0
 10
194.1752364849758
 20
15.96168630588771
 30
0.0
 10
194.176510719003
 20
15.88173995404994
 30
0.0
 10
194.1732043793863
 20
15.80841837083183
 30
0.0
 10
194.1802106179961
 20
15.76688643002568
 30
0.0
 10
194.1701440380126
 20
15.72752418568113
 30
0.0
 10
194.2029814803921
 20
15.73468063430981
 30
0.0
 10
194.236457729648
 20
15.73027243137945
 30
0.0
 10
194.2915053476019
 20
15.73217943347897
 30
0.0
 10
194.3489502595314
 20
15.73185366407288
 30
0.0
 10
194.4023026248309
 20
15.73106308733082
 30
0.0
 10
194.4398540896638
 20
15.73313959118073
 30
0.0
 10
194.4623172523237
 20
15.7302233816711
 30
0.0
 10
194.4751678073731
 20
15.73572552644055
 30
0.0
 10
194.4858255685889
 20
15.7380111819779
 30
0.0
 10
194.4986635650143
 20
15.74494972588051
 30
0.0
 10
194.514599103307
 20
15.72853046313671
 30
0.0
 10
194.5410623920892
 20
15.71709122319448
 30
0.0
 10
194.5726805253757
 20
15.6964468783519
 30
0.0
 10
194.5987255892151
 20
15.68116869628294
 30
0.0
 10
194.6128517723973
 20
15.67266976323183
 30
0.0
 10
194.6170254148479
 20
15.67015871511027
 30
0.0
 11
194.6170254148479
 21
15.67015871511027
 31
0.0
 11
194.6049990002243
 21
15.65473571164187
 31
0.0
 11
194.5848961795564
 21
15.64337406233916
 31
0.0
 11
194.4778986355813
 21
15.42440620231158
 31
0.0
 11
194.3477039934324
 21
15.2131720151216
 31
0.0
 11
194.1996540366071
 21
15.01206059027478
 31
0.0
 11
194.2734958253735
 21
14.96147384935378
 31
0.0
 11
194.36056643118
 21
14.89988411653738
 31
0.0
 11
194.4518003750404
 21
14.83413160594425
 31
0.0
 11
194.5381321779687
 21
14.77105653169304
 31
0.0
 11
194.6104963609787
 21
14.71749910790241
 31
0.0
 11
194.6598274450843
 21
14.68029954869104
 31
0.0
 11
194.6486940702213
 21
14.66471410869494
 31
0.0
 11
194.6221452532403
 21
14.62754882870424
 31
0.0
 11
194.5904579555532
 21
14.58319026871533
 31
0.0
 11
194.5639091385722
 21
14.54602498872462
 31
0.0
 11
194.5527757637092
 21
14.53043954872852
 31
0.0
 11
194.4807013362947
 21
14.59754008690617
 31
0.0
 11
194.385285698538
 21
14.67993354174669
 31
0.0
 11
194.279326415217
 21
14.76785017366916
 31
0.0
 11
194.175621051109
 21
14.85152024309266
 31
0.0
 11
194.175621051109
 21
14.83304687900862
 31
0.0
 11
194.175621051109
 21
14.78162102763954
 31
0.0
 11
194.175621051109
 21
14.70323405030998
 31
0.0
 11
194.175621051109
 21
14.60387730834448
 31
0.0
 11
194.175621051109
 21
14.4895421630676
 31
0.0
 11
194.175621051109
 21
14.36621997580388
 31
0.0
 11
194.175621051109
 21
14.2399021078779
 31
0.0
 11
194.175621051109
 21
14.11657992061419
 31
0.0
 11
194.175621051109
 21
14.0022447753373
 31
0.0
 11
194.175621051109
 21
13.9028880333718
 31
0.0
 11
194.175621051109
 21
13.82450105604223
 31
0.0
 11
194.175621051109
 21
13.77307520467316
 31
0.0
 11
194.175621051109
 21
13.75460184058912
 31
0.0
 11
194.1569720893626
 21
13.75460184058912
 31
0.0
 11
194.1125014882749
 21
13.75460184058912
 31
0.0
 11
194.0594236740736
 21
13.75460184058912
 31
0.0
 11
194.0149530729859
 21
13.75460184058912
 31
0.0
 11
193.9963041112395
 21
13.75460184058912
 31
0.0
 11
193.9963041112395
 21
13.77486797460219
 31
0.0
 11
193.9963041112395
 21
13.83089787452066
 31
0.0
 11
193.9963041112395
 21
13.91553878716347
 31
0.0
 11
193.9963041112395
 21
14.02163795934953
 31
0.0
 11
193.9963041112395
 21
14.14204263789775
 31
0.0
 11
193.9963041112395
 21
14.26960006962705
 31
0.0
 11
193.9963041112395
 21
14.39715750135636
 31
0.0
 11
193.9963041112395
 21
14.51756217990458
 31
0.0
 11
193.9963041112395
 21
14.62366135209064
 31
0.0
 11
193.9963041112395
 21
14.70830226473344
 31
0.0
 11
193.9963041112395
 21
14.76433216465193
 31
0.0
 11
193.9963041112395
 21
14.78459829866499
 31
0.0
 11
193.7883272849481
 21
14.59331998274055
 31
0.0
 11
193.5763486358425
 21
14.4341488543081
 31
0.0
 11
193.5495629014482
 21
14.48814671952094
 31
0.0
 11
193.5138765415024
 21
14.54689140572026
 31
0.0
 11
193.4799697494124
 21
14.59192871537976
 31
0.0
 11
193.6830287742319
 21
14.73563387201053
 31
0.0
 11
193.881853195826
 21
14.91168423529988
 31
0.0
 11
194.0677041444178
 21
15.1132751452495
 31
0.0
 11
194.2318427502303
 21
15.33360194186109
 31
0.0
 11
194.3655301434864
 21
15.56585996513635
 31
0.0
 11
194.3465256724482
 21
15.56585996513635
 31
0.0
 11
194.2944166389562
 21
15.56585996513635
 31
0.0
 11
194.2165596124447
 21
15.56585996513635
 31
0.0
 11
194.1203111623478
 21
15.56585996513635
 31
0.0
 11
194.0130278580997
 21
15.56585996513635
 31
0.0
 11
193.9020662691345
 21
15.56585996513635
 31
0.0
 11
193.7947829648864
 21
15.56585996513635
 31
0.0
 11
193.6985345147895
 21
15.56585996513635
 31
0.0
 11
193.620677488278
 21
15.56585996513635
 31
0.0
 11
193.568568454786
 21
15.56585996513635
 31
0.0
 11
193.5495639837478
 21
15.56585996513635
 31
0.0
 11
193.5495639837478
 21
15.58311199790982
 31
0.0
 11
193.5495639837478
 21
15.62425146067731
 31
0.0
 11
193.5495639837478
 21
15.67335340010949
 31
0.0
 11
193.5495639837478
 21
15.71449286287698
 31
0.0
 11
193.5495639837478
 21
15.73174489565045
 31
0.0
 11
193.5687598486009
 21
15.73174489565045
 31
0.0
 11
193.6193671286684
 21
15.73174489565045
 31
0.0
 11
193.690915352212
 21
15.73174489565045
 31
0.0
 11
193.7729340474937
 21
15.73174489565045
 31
0.0
 11
193.8549527427753
 21
15.73174489565045
 31
0.0
 11
193.9265009663189
 21
15.73174489565045
 31
0.0
 11
193.9771082463864
 21
15.73174489565045
 31
0.0
 11
193.9963041112395
 21
15.73174489565045
 31
0.0
 11
193.9963041112395
 21
15.74926552655218
 31
0.0
 11
193.9963041112395
 21
15.79622081736882
 31
0.0
 11
193.9963041112395
 21
15.86420086526753
 31
0.0
 11
193.9963041112395
 21
15.94479576741548
 31
0.0
 11
193.9963041112395
 21
16.02959562097985
 31
0.0
 11
193.9963041112395
 21
16.11019052312781
 31
0.0
 11
193.9963041112395
 21
16.17817057102652
 31
0.0
 11
193.9963041112395
 21
16.22512586184316
 31
0.0
 11
193.9963041112395
 21
16.24264649274489
 31
0.0
 11
194.0135484112111
 21
16.24165806167518
 31
0.0
 11
194.0566591611401
 21
16.2391869840009
 31
0.0
 11
194.1127031360477
 21
16.23597458302434
 31
0.0
 11
194.1687471109553
 21
16.23276218204779
 31
0.0
 11
194.2118578608843
 21
16.23029110437351
 31
0.0
 11
194.2291021608559
 21
16.2293026733038
 31
0.0
 11
194.2143774674851
 21
16.2055629337264
 31
0.0
 11
194.175621051109
 21
16.19183767331312
 31
0.0
 11
194.175621051109
 21
16.17206806177293
 31
0.0
 11
194.175621051109
 21
16.11994817680333
 31
0.0
 11
194.175621051109
 21
16.04626144288079
 31
0.0
 11
194.175621051109
 21
15.96179128448179
 31
0.0
 11
194.175621051109
 21
15.87732112608278
 31
0.0
 11
194.175621051109
 21
15.80363439216024
 31
0.0
 11
194.175621051109
 21
15.75151450719064
 31
0.0
 11
194.175621051109
 21
15.73174489565045
 31
0.0
 11
194.1916227112935
 21
15.73174489565045
 31
0.0
 11
194.232890150717
 21
15.73174489565045
 31
0.0
 11
194.2893170576837
 21
15.73174489565045
 31
0.0
 11
194.3507971204981
 21
15.73174489565045
 31
0.0
 11
194.4072240274648
 21
15.73174489565045
 31
0.0
 11
194.4484914668882
 21
15.73174489565045
 31
0.0
 11
194.4644931270728
 21
15.73174489565045
 31
0.0
 11
194.4728206422924
 21
15.73451387455921
 31
0.0
 11
194.4882860277004
 21
15.73965626396118
 31
0.0
 11
194.49661354292
 21
15.74242524286993
 31
0.0
 11
194.5091363776005
 21
15.73490952398293
 31
0.0
 11
194.5389985218386
 21
15.71698742509853
 31
0.0
 11
194.5746404359293
 21
15.69559653288167
 31
0.0
 11
194.6045025801674
 21
15.67767443399728
 31
0.0
 11
194.6170254148479
 21
15.67015871511027
 31
0.0
  0
SPLINE
  5
AF
102
{ACAD_REACTORS
330
CC
102
}
330
48
100
AcDbEntity
  8
_U_30EC_U_30A4_U_30E4_U_30FC_1
  6
Continuous
 62
     2
100
AcDbSpline
210
0.0
220
0.0
230
1.0
 70
    11
 71
     3
 72
   124
 73
   120
 74
   118
 42
0.000000001
 43
0.0000000001
 44
0.00000001
 40
0.0
 40
0.0
 40
0.0
 40
0.0
 40
0.027818722962451
 40
0.1011590162384269
 40
0.2048470170590239
 40
0.3237088716559245
 40
0.4425707262522
 40
0.5462587270699547
 40
0.6195990203311798
 40
0.647417752257866
 40
0.6750060736115224
 40
0.7357003855242741
 40
0.7963946998054474
 40
0.8239830245571766
 40
0.854093381110286
 40
0.937339662940954
 40
1.063094687343235
 40
1.220731268638073
 40
1.399622220914748
 40
1.589140358637732
 40
1.778658496423898
 40
1.957549448940509
 40
2.115186030873159
 40
2.240941056914463
 40
2.324187341760532
 40
2.354297700109382
 40
2.38188602467189
 40
2.442580338710477
 40
2.503274652750499
 40
2.530862977314606
 40
2.560983949278559
 40
2.640393784452905
 40
2.752662861759128
 40
2.881361560118145
 40
3.010060258455192
 40
3.122329335705339
 40
3.201739170817953
 40
3.231860142753313
 40
3.26429802403037
 40
3.352343701778241
 40
3.482095226868764
 40
3.639650650173025
 40
3.811108022565485
 40
3.982565394927991
 40
4.140120818152572
 40
4.269872343141285
 40
4.357918020802347
 40
4.390355902043976
 40
4.423256253992546
 40
4.508104530073067
 40
4.624121560636834
 40
4.750528176031591
 40
4.866545206602038
 40
4.951393482691995
 40
4.984293834645396
 40
5.011450833242312
 40
5.071196230152096
 40
5.130941627057175
 40
5.158098625648839
 40
5.19099897760153
 40
5.275847253689355
 40
5.39186428425679
 40
5.518270899648335
 40
5.634287930209374
 40
5.719136206288048
 40
5.752036558235935
 40
5.782130946282961
 40
5.862783906229136
 40
5.979550131775002
 40
6.117984316640409
 40
6.263641154587954
 40
6.40207533941416
 40
6.518841564907954
 40
6.599494524815536
 40
6.629588912848773
 40
6.65440302822635
 40
6.713575149488117
 40
6.784199939329434
 40
6.843372060493536
 40
6.868186175802782
 40
6.896246243201868
 40
6.939586233758265
 40
6.967846564564892
 40
7.043584251089827
 40
7.153234334451685
 40
7.283231855734439
 40
7.420011856035469
 40
7.550009376579817
 40
7.659659458835216
 40
7.73539714441721
 40
7.763657474851382
 40
7.796409728011039
 40
7.880876065096313
 40
7.996370852465699
 40
8.122208446418593
 40
8.237703224799187
 40
8.322169562010881
 40
8.354921815205895
 40
8.382078813307675
 40
8.441824209206981
 40
8.501569605240132
 40
8.52872660348571
 40
8.561478856695759
 40
8.64594519387781
 40
8.76143998086532
 40
8.887277580764463
 40
9.002772362000984
 40
9.087238696661204
 40
9.119990949235659
 40
9.152428830613358
 40
9.240474508638574
 40
9.370226034149528
 40
9.52778145798441
 40
9.6992388309814
 40
9.870696203978593
 40
10.02825162781401
 40
10.15800315332563
 40
10.24604883135118
 40
10.27848670378521
 40
10.27848670378521
 40
10.27848670378521
 40
10.27848670378521
 10
195.3821827564383
 20
14.01410517385756
 30
0.0
 10
195.3914554737523
 20
14.01410498511273
 30
0.0
 10
195.4251744536861
 20
14.01410430876713
 30
0.0
 10
195.4934706812465
 20
14.01411807243304
 30
0.0
 10
195.592014171158
 20
14.01403224219544
 30
0.0
 10
195.7062066464812
 20
14.01441755612249
 30
0.0
 10
195.818589441707
 20
14.01300835897544
 30
0.0
 10
195.9214376600118
 20
14.01719117422242
 30
0.0
 10
195.9806839874849
 20
14.00823089251982
 30
0.0
 10
196.0371265937033
 20
14.0216443452606
 30
0.0
 10
196.0246255586955
 20
13.97087198613361
 30
0.0
 10
196.0329549635703
 20
13.92589320939065
 30
0.0
 10
196.024817084112
 20
13.88056752990487
 30
0.0
 10
196.0370529214457
 20
13.82931932408465
 30
0.0
 10
195.9747773490333
 20
13.84447955365275
 30
0.0
 10
195.9060513026868
 20
13.83359750710742
 30
0.0
 10
195.7782756749592
 20
13.83911304747971
 30
0.0
 10
195.6262984511643
 20
13.83700851253697
 30
0.0
 10
195.4502695972523
 20
13.83771002588473
 30
0.0
 10
195.2644431934287
 20
13.8374523753129
 30
0.0
 10
195.0786167437175
 20
13.83771005144602
 30
0.0
 10
194.9025880142168
 20
13.8370084184773
 30
0.0
 10
194.7506104154195
 20
13.83911332229988
 30
0.0
 10
194.6228357664554
 20
13.83359680767639
 30
0.0
 10
194.5541077836581
 20
13.84448077125941
 30
0.0
 10
194.4918349042883
 20
13.82931786684209
 30
0.0
 10
194.5040616290017
 20
13.8805751080517
 30
0.0
 10
194.4960004462597
 20
13.92582473272424
 30
0.0
 10
194.5040675809892
 20
13.97106357955322
 30
0.0
 10
194.4918238487083
 20
14.02234176909957
 30
0.0
 10
194.5525017120697
 20
14.00749577363134
 30
0.0
 10
194.6162810745736
 20
14.01756448170734
 30
0.0
 10
194.7277314353502
 20
14.01294644211998
 30
0.0
 10
194.8497533443824
 20
14.01413328905468
 30
0.0
 10
194.9719538137823
 20
14.01515863900633
 30
0.0
 10
195.0829794287392
 20
14.010924756234
 30
0.0
 10
195.1476517413958
 20
14.02018584521738
 30
0.0
 10
195.2091162810501
 20
14.00604423049682
 30
0.0
 10
195.1930065601337
 20
14.07235527884516
 30
0.0
 10
195.2042980327359
 20
14.14447790121975
 30
0.0
 10
195.198740082256
 20
14.27513760888285
 30
0.0
 10
195.2008035061691
 20
14.42607323708241
 30
0.0
 10
195.2000167127295
 20
14.59335873107885
 30
0.0
 10
195.2007845215627
 20
14.76061110332302
 30
0.0
 10
195.1988038785628
 20
14.91163289269914
 30
0.0
 10
195.204130615662
 20
15.04206069552995
 30
0.0
 10
195.1933101388425
 20
15.11465442605899
 30
0.0
 10
195.2090326429875
 20
15.18150469436798
 30
0.0
 10
195.143270813249
 20
15.16580512490824
 30
0.0
 10
195.0756367830764
 20
15.17609243083996
 30
0.0
 10
194.9615885293809
 20
15.17113786847121
 30
0.0
 10
194.8451242674902
 20
15.17414128030475
 30
0.0
 10
194.7306554121477
 20
15.16880303143389
 30
0.0
 10
194.6640324657812
 20
15.18001268074824
 30
0.0
 10
194.5990769715186
 20
15.16349132665011
 30
0.0
 10
194.6107989758708
 20
15.21473720477059
 30
0.0
 10
194.6032830189121
 20
15.2595033378409
 30
0.0
 10
194.6107989878835
 20
15.30426944897961
 30
0.0
 10
194.5990769505347
 20
15.35551536129741
 30
0.0
 10
194.66403263392
 20
15.33899381766815
 30
0.0
 10
194.7306533339821
 20
15.35020571373944
 30
0.0
 10
194.8451352858063
 20
15.34485436710664
 30
0.0
 10
194.9615454436962
 20
15.34791188771117
 30
0.0
 10
195.0757660174641
 20
15.34278499010708
 30
0.0
 10
195.1430150439227
 20
15.35345733355598
 30
0.0
 10
195.2083325941438
 20
15.33742082669077
 30
0.0
 10
195.1941391448553
 20
15.39949685750054
 30
0.0
 10
195.2036059462994
 20
15.46586761628762
 30
0.0
 10
195.1990269004085
 20
15.58239972741966
 30
0.0
 10
195.2007696555948
 20
15.71426685022376
 30
0.0
 10
195.1997551495391
 20
15.85615960150273
 30
0.0
 10
195.2017191344373
 20
15.9876905070258
 30
0.0
 10
195.1964668553851
 20
16.10524577283002
 30
0.0
 10
195.2073408763474
 20
16.16947789001584
 30
0.0
 10
195.1919536641853
 20
16.23108802545047
 30
0.0
 10
195.24075915378
 20
16.21702407382111
 30
0.0
 10
195.2853995564726
 20
16.21954742075314
 30
0.0
 10
195.3538643946742
 20
16.2151279740171
 30
0.0
 10
195.3959106169102
 20
16.20613025544035
 30
0.0
 10
195.4487544758775
 20
16.21411714866511
 30
0.0
 10
195.4207035002014
 20
16.17113917611673
 30
0.0
 10
195.3749142248594
 20
16.18259552043836
 30
0.0
 10
195.3869539073265
 20
16.12173520005136
 30
0.0
 10
195.379608607064
 20
16.05769299468772
 30
0.0
 10
195.3831195826162
 20
15.94909368863911
 30
0.0
 10
195.3819806760173
 20
15.82494319144752
 30
0.0
 10
195.3819174780263
 20
15.69189719829878
 30
0.0
 10
195.3832872966867
 20
15.56797381249555
 30
0.0
 10
195.3791638801313
 20
15.45868337849338
 30
0.0
 10
195.3877763103564
 20
15.3960858009417
 30
0.0
 10
195.3746757454401
 20
15.33740133296365
 30
0.0
 10
195.4393884328198
 20
15.35362113810902
 30
0.0
 10
195.5060405953156
 20
15.34270260383311
 30
0.0
 10
195.6198779541102
 20
15.34793740173756
 30
0.0
 10
195.7357259122097
 20
15.34485547516913
 30
0.0
 10
195.849692426328
 20
15.35018259812512
 30
0.0
 10
195.91603410181
 20
15.33904208166543
 30
0.0
 10
195.9807188525479
 20
15.35546979593178
 30
0.0
 10
195.9689820772722
 20
15.3042592521005
 30
0.0
 10
195.976516806304
 20
15.25950334121001
 30
0.0
 10
195.9689820992257
 20
15.21474739010027
 30
0.0
 10
195.9807188140736
 20
15.1635369087104
 30
0.0
 10
195.9160344075252
 20
15.1799642779422
 30
0.0
 10
195.8496886430824
 20
15.16882784447269
 30
0.0
 10
195.7357459487012
 20
15.1741311589312
 30
0.0
 10
195.6197995623054
 20
15.17114764593544
 30
0.0
 10
195.5062756882122
 20
15.17606892268393
 30
0.0
 10
195.4389231318804
 20
15.1658508751352
 30
0.0
 10
195.3734285122495
 20
15.18145996138815
 30
0.0
 10
195.3891713619218
 20
15.11463851827411
 30
0.0
 10
195.3783275998212
 20
15.04207057815878
 30
0.0
 10
195.3836581629793
 20
14.91162247614416
 30
0.0
 10
195.3817136151854
 20
14.76064558185225
 30
0.0
 10
195.3823133683214
 20
14.59322243934158
 30
0.0
 10
195.3821506559604
 20
14.4265617611837
 30
0.0
 10
195.3821895488136
 20
14.27360142921635
 30
0.0
 10
195.38218164131
 20
14.14849178985704
 30
0.0
 10
195.3821828382744
 20
14.06507890991419
 30
0.0
 10
195.3821827716208
 20
14.02491778281974
 30
0.0
 10
195.3821827564383
 20
14.01410517385756
 30
0.0
 11
195.3821827564383
 21
14.01410517385756
 31
0.0
 11
195.4100014883675
 21
14.01410517385756
 31
0.0
 11
195.4833417816353
 21
14.01410517385756
 31
0.0
 11
195.5870297824622
 21
14.01410517385756
 31
0.0
 11
195.7058916370687
 21
14.01410517385756
 31
0.0
 11
195.8247534916751
 21
14.01410517385756
 31
0.0
 11
195.928441492502
 21
14.01410517385756
 31
0.0
 11
196.0017817857698
 21
14.01410517385756
 31
0.0
 11
196.029600517699
 21
14.01410517385756
 31
0.0
 11
196.029600517699
 21
13.98651684921169
 31
0.0
 11
196.029600517699
 21
13.92582253499076
 31
0.0
 11
196.029600517699
 21
13.86512822076983
 31
0.0
 11
196.029600517699
 21
13.83753989612396
 31
0.0
 11
195.9994901593494
 21
13.83753989612396
 31
0.0
 11
195.9162438745004
 21
13.83753989612396
 31
0.0
 11
195.7904888484521
 21
13.83753989612396
 31
0.0
 11
195.6328522665041
 21
13.83753989612396
 31
0.0
 11
195.4539613139564
 21
13.83753989612396
 31
0.0
 11
195.2644431761089
 21
13.83753989612396
 31
0.0
 11
195.0749250382613
 21
13.83753989612396
 31
0.0
 11
194.8960340857136
 21
13.83753989612396
 31
0.0
 11
194.7383975037656
 21
13.83753989612396
 31
0.0
 11
194.6126424777172
 21
13.83753989612396
 31
0.0
 11
194.5293961928683
 21
13.83753989612396
 31
0.0
 11
194.4992858345187
 21
13.83753989612396
 31
0.0
 11
194.4992858345187
 21
13.86512822076984
 31
0.0
 11
194.4992858345187
 21
13.92582253499076
 31
0.0
 11
194.4992858345187
 21
13.98651684921169
 31
0.0
 11
194.4992858345187
 21
14.01410517385756
 31
0.0
 11
194.5294068064947
 21
14.01410517385756
 31
0.0
 11
194.608816641704
 21
14.01410517385756
 31
0.0
 11
194.721085719069
 21
14.01410517385756
 31
0.0
 11
194.8497844175118
 21
14.01410517385756
 31
0.0
 11
194.9784831159545
 21
14.01410517385756
 31
0.0
 11
195.0907521933195
 21
14.01410517385756
 31
0.0
 11
195.1701620285289
 21
14.01410517385756
 31
0.0
 11
195.2002830005048
 21
14.01410517385756
 31
0.0
 11
195.2002830005048
 21
14.04654305523834
 31
0.0
 11
195.2002830005048
 21
14.13458873327189
 31
0.0
 11
195.2002830005048
 21
14.26434025879502
 31
0.0
 11
195.2002830005048
 21
14.42189568264453
 31
0.0
 11
195.2002830005048
 21
14.59335305565723
 31
0.0
 11
195.2002830005048
 21
14.76481042866993
 31
0.0
 11
195.2002830005048
 21
14.92236585251944
 31
0.0
 11
195.2002830005048
 21
15.05211737804257
 31
0.0
 11
195.2002830005048
 21
15.14016305607612
 31
0.0
 11
195.2002830005048
 21
15.1726009374569
 31
0.0
 11
195.1673826485529
 21
15.1726009374569
 31
0.0
 11
195.0825343724662
 21
15.1726009374569
 31
0.0
 11
194.9665173418988
 21
15.1726009374569
 31
0.0
 11
194.8401107265044
 21
15.1726009374569
 31
0.0
 11
194.724093695937
 21
15.1726009374569
 31
0.0
 11
194.6392454198503
 21
15.1726009374569
 31
0.0
 11
194.6063450678984
 21
15.1726009374569
 31
0.0
 11
194.6063450678984
 21
15.19975793614802
 31
0.0
 11
194.6063450678984
 21
15.2595033332685
 31
0.0
 11
194.6063450678984
 21
15.31924873038898
 31
0.0
 11
194.6063450678984
 21
15.3464057290801
 31
0.0
 11
194.6392454198504
 21
15.3464057290801
 31
0.0
 11
194.724093695937
 21
15.3464057290801
 31
0.0
 11
194.8401107265044
 21
15.3464057290801
 31
0.0
 11
194.9665173418988
 21
15.3464057290801
 31
0.0
 11
195.0825343724662
 21
15.3464057290801
 31
0.0
 11
195.1673826485529
 21
15.3464057290801
 31
0.0
 11
195.2002830005048
 21
15.3464057290801
 31
0.0
 11
195.2002830005048
 21
15.3765001173137
 31
0.0
 11
195.2002830005048
 21
15.45715307777974
 31
0.0
 11
195.2002830005048
 21
15.57391930412609
 31
0.0
 11
195.2002830005048
 21
15.71235349000063
 31
0.0
 11
195.2002830005048
 21
15.85801032905124
 31
0.0
 11
195.2002830005048
 21
15.99644451492578
 31
0.0
 11
195.2002830005048
 21
16.11321074127214
 31
0.0
 11
195.2002830005048
 21
16.19386370173817
 31
0.0
 11
195.2002830005048
 21
16.22395808997177
 31
0.0
 11
195.2250405288618
 21
16.22228324219442
 31
0.0
 11
195.2840777118669
 21
16.21828937441765
 31
0.0
 11
195.3545414464214
 21
16.21352249997441
 31
0.0
 11
195.4135786294265
 21
16.20952863219765
 31
0.0
 11
195.4383361577835
 21
16.20785378442029
 31
0.0
 11
195.423306722403
 21
16.18415814206509
 31
0.0
 11
195.3821827564383
 21
16.17047697887403
 31
0.0
 11
195.3821827564383
 21
16.14221664794832
 31
0.0
 11
195.3821827564383
 21
16.06647896106739
 31
0.0
 11
195.3821827564383
 21
15.95682887707561
 31
0.0
 11
195.3821827564383
 21
15.8268313548173
 31
0.0
 11
195.3821827564383
 21
15.69005135313683
 31
0.0
 11
195.3821827564383
 21
15.56005383087853
 31
0.0
 11
195.3821827564383
 21
15.45040374688674
 31
0.0
 11
195.3821827564383
 21
15.37466606000582
 31
0.0
 11
195.3821827564383
 21
15.3464057290801
 31
0.0
 11
195.4149350096115
 21
15.3464057290801
 31
0.0
 11
195.4994013467422
 21
15.3464057290801
 31
0.0
 11
195.6148961342476
 21
15.3464057290801
 31
0.0
 11
195.7407337385445
 21
15.3464057290801
 31
0.0
 11
195.8562285260498
 21
15.3464057290801
 31
0.0
 11
195.9406948631806
 21
15.3464057290801
 31
0.0
 11
195.9734471163538
 21
15.3464057290801
 31
0.0
 11
195.9734471163538
 21
15.31924873038898
 31
0.0
 11
195.9734471163538
 21
15.2595033332685
 31
0.0
 11
195.9734471163538
 21
15.19975793614802
 31
0.0
 11
195.9734471163538
 21
15.1726009374569
 31
0.0
 11
195.9406948631806
 21
15.1726009374569
 31
0.0
 11
195.8562285260498
 21
15.1726009374569
 31
0.0
 11
195.7407337385445
 21
15.1726009374569
 31
0.0
 11
195.6148961342476
 21
15.1726009374569
 31
0.0
 11
195.4994013467422
 21
15.1726009374569
 31
0.0
 11
195.4149350096114
 21
15.1726009374569
 31
0.0
 11
195.3821827564383
 21
15.1726009374569
 31
0.0
 11
195.3821827564383
 21
15.14016305607612
 31
0.0
 11
195.3821827564383
 21
15.05211737804257
 31
0.0
 11
195.3821827564383
 21
14.92236585251944
 31
0.0
 11
195.3821827564383
 21
14.76481042866993
 31
0.0
 11
195.3821827564383
 21
14.59335305565723
 31
0.0
 11
195.3821827564383
 21
14.42189568264453
 31
0.0
 11
195.3821827564383
 21
14.26434025879502
 31
0.0
 11
195.3821827564383
 21
14.13458873327189
 31
0.0
 11
195.3821827564383
 21
14.04654305523834
 31
0.0
 11
195.3821827564383
 21
14.01410517385756
 31
0.0
  0
SPLINE
  5
B0
102
{ACAD_REACTORS
330
CD
102
}
330
48
100
AcDbEntity
  8
_U_30EC_U_30A4_U_30E4_U_30FC_1
  6
Continuous
 62
     2
100
AcDbSpline
210
0.0
220
0.0
230
1.0
 70
     8
 71
     3
 72
    62
 73
    58
 74
    56
 42
0.000000001
 43
0.0000000001
 44
0.00000001
 40
0.0
 40
0.0
 40
0.0
 40
0.0
 40
0.0598250028308485
 40
0.2024846486897331
 40
0.3727558389221031
 40
0.515415484793607
 40
0.5752404975785339
 40
0.933232677548705
 40
1.290451762839454
 40
1.602077253145875
 40
1.699931634112154
 40
1.799359756425048
 40
2.270120149657084
 40
2.80466192846154
 40
2.882342287383251
 40
3.076543185719103
 40
3.329004354835565
 40
3.581465524568392
 40
3.775666424543676
 40
3.853346784558296
 40
3.899120679595041
 40
3.984129341792039
 40
4.029903236817388
 40
4.105797496059544
 40
4.295533144152506
 40
4.54218948661175
 40
4.788845828875701
 40
4.978581476410088
 40
5.054475735244331
 40
5.621734664339352
 40
6.13086724203736
 40
6.225249780948624
 40
6.318913039727357
 40
6.663579954559022
 40
7.047498900224888
 40
7.435230791575816
 40
7.498943906668228
 40
7.650875181210222
 40
7.832212509001732
 40
7.984143783697118
 40
8.047856898903245
 40
8.091554632732752
 40
8.172707566964414
 40
8.21640530076814
 40
8.289021782161024
 40
8.462184160757397
 40
8.668861838005478
 40
8.84202421526407
 40
8.914640695475265
 40
8.989881580861471
 40
9.15541152882738
 40
9.320941477744162
 40
9.396182352487415
 40
9.454709011143962
 40
9.583467660170896
 40
9.712226309013175
 40
9.770752957989629
 40
9.770752957989629
 40
9.770752957989629
 40
9.770752957989629
 10
187.1521871691833
 20
14.93980288195949
 30
0.0
 10
187.1322348171623
 20
14.93980875568671
 30
0.0
 10
187.0647037716465
 20
14.93982863806156
 30
0.0
 10
186.9410612161789
 20
14.93949362520325
 30
0.0
 10
186.7863180150056
 20
14.9410767375051
 30
0.0
 10
186.669734948248
 20
14.93686078860494
 30
0.0
 10
186.4550942634239
 20
14.95215205331625
 30
0.0
 10
186.8518948407229
 20
14.59198721286191
 30
0.0
 10
186.8945656069266
 20
14.37510503397166
 30
0.0
 10
187.3189162146611
 20
14.19325062511444
 30
0.0
 10
187.1439821496074
 20
14.08985196568074
 30
0.0
 10
187.0194523925083
 20
13.87831523212721
 30
0.0
 10
186.7666277235943
 20
14.34806081001563
 30
0.0
 10
186.4797602893627
 20
14.99511516984521
 30
0.0
 10
186.4906335926659
 20
14.68782672154693
 30
0.0
 10
186.488289277796
 20
14.52288616971777
 30
0.0
 10
186.4861096126411
 20
14.28879670711692
 30
0.0
 10
186.4980774396346
 20
14.04498072421782
 30
0.0
 10
186.4687984740631
 20
13.89855796860983
 30
0.0
 10
186.511452262547
 20
13.75113490174537
 30
0.0
 10
186.4239814005639
 20
13.76685797306219
 30
0.0
 10
186.3768527606744
 20
13.76694303543453
 30
0.0
 10
186.2898973207713
 20
13.75109425482908
 30
0.0
 10
186.3313474021722
 20
13.89527771422761
 30
0.0
 10
186.3029875004286
 20
14.03855052698455
 30
0.0
 10
186.3145973775299
 20
14.27674947365264
 30
0.0
 10
186.3124175648271
 20
14.50517235240346
 30
0.0
 10
186.3103111127994
 20
14.66705729375995
 30
0.0
 10
186.3208035438322
 20
14.98153709333752
 30
0.0
 10
186.0128963252894
 20
14.29229470872434
 30
0.0
 10
185.7055258267455
 20
13.81476750243055
 30
0.0
 10
185.5851367066275
 20
14.03741112637428
 30
0.0
 10
185.407460791072
 20
14.15011034955563
 30
0.0
 10
185.8853326362894
 20
14.32548143465461
 30
0.0
 10
185.9353959057207
 20
14.56091929252029
 30
0.0
 10
186.3583799621717
 20
14.95322989344607
 30
0.0
 10
186.127675427354
 20
14.93655307029065
 30
0.0
 10
186.004968585934
 20
14.9426951894877
 30
0.0
 10
185.8325483095662
 20
14.93312822699573
 30
0.0
 10
185.7213224694448
 20
14.95448818489664
 30
0.0
 10
185.6025779627448
 20
14.9213626535742
 30
0.0
 10
185.6183169706686
 20
15.00203900606882
 30
0.0
 10
185.6178550933763
 20
15.04645414290854
 30
0.0
 10
185.6027881889931
 20
15.12967081778533
 30
0.0
 10
185.7372380935443
 20
15.09062651983883
 30
0.0
 10
185.8619755545747
 20
15.11739729328422
 30
0.0
 10
186.062875523728
 20
15.10063949044052
 30
0.0
 10
186.1921540949352
 20
15.12204225913004
 30
0.0
 10
186.3328419928295
 20
15.0886877885342
 30
0.0
 10
186.2980927452614
 20
15.22651875785068
 30
0.0
 10
186.3222185666714
 20
15.34963257349481
 30
0.0
 10
186.2967086182391
 20
15.47024055670335
 30
0.0
 10
186.3333251146685
 20
15.60539865141495
 30
0.0
 10
186.2211417027769
 20
15.58094545781891
 30
0.0
 10
186.1280356457136
 20
15.59307749842022
 30
0.0
 10
186.0191547579819
 20
15.58957630069994
 30
0.0
 10
185.9569697640964
 20
15.58981755951603
 30
0.0
 10
185.9375369557246
 20
15.58989295124144
 30
0.0
 11
187.1521871691833
 21
14.93980288195949
 31
0.0
 11
187.0923621563982
 21
14.93980288195949
 31
0.0
 11
186.949702510526
 21
14.93980288195949
 31
0.0
 11
186.7794313202913
 21
14.93980288195949
 31
0.0
 11
186.6367716744191
 21
14.93980288195949
 31
0.0
 11
186.576946661634
 21
14.93980288195949
 31
0.0
 11
186.7679960754842
 21
14.6370512796689
 31
0.0
 11
186.9941272785629
 21
14.36051890576684
 31
0.0
 11
187.2244526173371
 21
14.15061253493457
 31
0.0
 11
187.1521596330703
 21
14.08466403668716
 31
0.0
 11
187.0879364402643
 21
14.0087605905256
 31
0.0
 11
186.7732818215558
 21
14.35891458349362
 31
0.0
 11
186.4886640249976
 21
14.811382951436
 31
0.0
 11
186.4886640249976
 21
14.73370259137312
 31
0.0
 11
186.4886640249976
 21
14.53950169121592
 31
0.0
 11
186.4886640249976
 21
14.28704052101155
 31
0.0
 11
186.4886640249976
 21
14.03457935080719
 31
0.0
 11
186.4886640249976
 21
13.84037845064999
 31
0.0
 11
186.4886640249976
 21
13.76269809058711
 31
0.0
 11
186.4428901295605
 21
13.76269809058711
 31
0.0
 11
186.3578814666058
 21
13.76269809058711
 31
0.0
 11
186.3121075711687
 21
13.76269809058711
 31
0.0
 11
186.3121075711687
 21
13.83859234982739
 31
0.0
 11
186.3121075711687
 21
14.02832799792811
 31
0.0
 11
186.3121075711687
 21
14.27498434045903
 31
0.0
 11
186.3121075711687
 21
14.52164068298995
 31
0.0
 11
186.3121075711687
 21
14.71137633109067
 31
0.0
 11
186.3121075711687
 21
14.78727059033095
 31
0.0
 11
185.9987626399266
 21
14.31440946197693
 31
0.0
 11
185.6352328662148
 21
13.95795177109382
 31
0.0
 11
185.5773927461627
 21
14.03253450545022
 31
0.0
 11
185.509485230534
 21
14.09704322939242
 31
0.0
 11
185.7750721898319
 21
14.31672219795889
 31
0.0
 11
186.0233764972061
 21
14.60953395971697
 31
0.0
 11
186.226498280526
 21
14.93980288195949
 31
0.0
 11
186.1627851652721
 21
14.93980288195949
 31
0.0
 11
186.0108538904359
 21
14.93980288195949
 31
0.0
 11
185.8295165624055
 21
14.93980288195949
 31
0.0
 11
185.6775852875693
 21
14.93980288195949
 31
0.0
 11
185.6138721723154
 21
14.93980288195949
 31
0.0
 11
185.6138721723154
 21
14.98350061600207
 31
0.0
 11
185.6138721723154
 21
15.06465355065259
 31
0.0
 11
185.6138721723154
 21
15.10835128469517
 31
0.0
 11
185.6864886537961
 21
15.10835128469517
 31
0.0
 11
185.8596510327118
 21
15.10835128469517
 31
0.0
 11
186.0663287107723
 21
15.10835128469517
 31
0.0
 11
186.239491089688
 21
15.10835128469517
 31
0.0
 11
186.3121075711687
 21
15.10835128469517
 31
0.0
 11
186.3121075711687
 21
15.18359217009302
 31
0.0
 11
186.3121075711687
 21
15.3491221179683
 31
0.0
 11
186.3121075711687
 21
15.51465206584358
 31
0.0
 11
186.3121075711687
 21
15.58989295124144
 31
0.0
 11
186.2535809125055
 21
15.58989295124144
 31
0.0
 11
186.1248222634467
 21
15.58989295124144
 31
0.0
 11
185.9960636143877
 21
15.58989295124144
 31
0.0
 11
185.9375369557246
 21
15.58989295124144
 31
0.0
  0
SPLINE
  5
B1
102
{ACAD_REACTORS
330
CD
102
}
330
48
100
AcDbEntity
  8
_U_30EC_U_30A4_U_30E4_U_30FC_1
  6
Continuous
 62
     2
100
AcDbSpline
210
0.0
220
0.0
230
1.0
 70
     8
 71
     3
 72
    70
 73
    66
 74
    64
 42
0.000000001
 43
0.0000000001
 44
0.00000001
 40
0.0
 40
0.0
 40
0.0
 40
0.0
 40
0.0241731073021472
 40
0.0846058988987013
 40
0.1631685280353284
 40
0.2417311571789756
 40
0.3021639488292751
 40
0.3263370654895541
 40
0.3533118254248881
 40
0.4228783438922111
 40
0.5179999095313402
 40
0.6216398239466102
 40
0.7167613891499706
 40
0.7863279069649863
 40
0.8133026791761836
 40
0.8372943998771676
 40
0.8945054261372871
 40
0.9627895541962641
 40
1.020000580349074
 40
1.043992300975173
 40
1.071934345522897
 40
1.113121768772908
 40
1.145225199332233
 40
1.225483775412768
 40
1.329819923771476
 40
1.434156071994366
 40
1.514414647795788
 40
1.546518078208396
 40
1.578974764260169
 40
1.662678849314164
 40
1.777131373668384
 40
1.901833377474775
 40
2.016285900500565
 40
2.099989982527932
 40
2.132446666570291
 40
2.158782354486013
 40
2.216720867907803
 40
2.274659381334227
 40
2.300995069256161
 40
2.333451754066133
 40
2.417155836543813
 40
2.531608358985253
 40
2.656310362283748
 40
2.77076288638888
 40
2.854466971340046
 40
2.886923657363852
 40
2.913597976833286
 40
2.98238964287509
 40
3.076451716946953
 40
3.17893726045857
 40
3.272999334739972
 40
3.341791001059195
 40
3.368465320663507
 40
3.396976080738729
 40
3.472140811845965
 40
3.578408190308654
 40
3.700226892456091
 40
3.822045594634308
 40
3.928312973256415
 40
4.003477705314812
 40
4.031988456866878
 40
4.058324144797678
 40
4.116262658236843
 40
4.174201171400642
 40
4.200536849608578
 40
4.200536849608578
 40
4.200536849608578
 40
4.200536849608578
 10
185.9857704961609
 20
15.75844135397705
 30
0.0
 10
185.9938259544679
 20
15.75844359811686
 30
0.0
 10
186.0220200663241
 20
15.75845146032798
 30
0.0
 10
186.0765534803672
 20
15.75830754828372
 30
0.0
 10
186.1482891808604
 20
15.75909120499898
 30
0.0
 10
186.2236240137062
 20
15.75627570463811
 30
0.0
 10
186.2713052366438
 20
15.76298403400957
 30
0.0
 10
186.3195071245616
 20
15.75197563692433
 30
0.0
 10
186.3062571799873
 20
15.80546402997033
 30
0.0
 10
186.3151093964539
 20
15.86049583543092
 30
0.0
 10
186.3108698036285
 20
15.95419908726109
 30
0.0
 10
186.313348348128
 20
16.04959482218532
 30
0.0
 10
186.309093870606
 20
16.14356821983387
 30
0.0
 10
186.3179818665847
 20
16.19795062438012
 30
0.0
 10
186.3046977409945
 20
16.25233997691461
 30
0.0
 10
186.3514119277108
 20
16.23842216335357
 30
0.0
 10
186.3943254545737
 20
16.24103877374043
 30
0.0
 10
186.4605443456686
 20
16.23648422450754
 30
0.0
 10
186.5013342271798
 20
16.22778162134161
 30
0.0
 10
186.5525145690819
 20
16.23531799890194
 30
0.0
 10
186.52537204872
 20
16.19349970223285
 30
0.0
 10
186.4803096055707
 20
16.20284992072596
 30
0.0
 10
186.4942065045051
 20
16.13841207371837
 30
0.0
 10
186.4858414431653
 20
16.07378219627399
 30
0.0
 10
186.4903632178398
 20
15.97529141193887
 30
0.0
 10
186.4854741311167
 20
15.8759593284257
 30
0.0
 10
186.4950258992082
 20
15.81293115552969
 30
0.0
 10
186.47997614552
 20
15.74964011499788
 30
0.0
 10
186.5449159457208
 20
15.76515072944269
 30
0.0
 10
186.6116246399496
 20
15.75499387697812
 30
0.0
 10
186.7241435470828
 20
15.75988800099367
 30
0.0
 10
186.8390235448953
 20
15.75691204732783
 30
0.0
 10
186.9519871999747
 20
15.76221664184991
 30
0.0
 10
187.0176267597677
 20
15.75107306472089
 30
0.0
 10
187.0816276691053
 20
15.76744532319857
 30
0.0
 10
187.0703142889189
 20
15.71761689905274
 30
0.0
 10
187.077533987151
 20
15.67416715212123
 30
0.0
 10
187.0703142611268
 20
15.63071745587445
 30
0.0
 10
187.0816277175994
 20
15.58088895196876
 30
0.0
 10
187.0176263598971
 20
15.59726166091362
 30
0.0
 10
186.951992124046
 20
15.58611271661588
 30
0.0
 10
186.838997431733
 20
15.59144857206854
 30
0.0
 10
186.7242456548644
 20
15.58834345663822
 30
0.0
 10
186.611318368686
 20
15.59364894682588
 30
0.0
 10
186.5455220903585
 20
15.58257300019594
 30
0.0
 10
186.4816097975358
 20
15.59887597847617
 30
0.0
 10
186.4936015165126
 20
15.54423524395741
 30
0.0
 10
186.4862104613005
 20
15.48854295047842
 30
0.0
 10
186.4892684841983
 20
15.3964968914057
 30
0.0
 10
186.4893422785683
 20
15.30179109873101
 30
0.0
 10
186.486031357836
 20
15.20952782902265
 30
0.0
 10
186.4939505989903
 20
15.15435768736139
 30
0.0
 10
186.4815076611618
 20
15.10058169100136
 30
0.0
 10
186.5389116551631
 20
15.1145376886278
 30
0.0
 10
186.5994708140383
 20
15.10511457884226
 30
0.0
 10
186.7048680855081
 20
15.10942885928705
 30
0.0
 10
186.8204294070622
 20
15.10835504612031
 30
0.0
 10
186.9359688877797
 20
15.10725965900995
 30
0.0
 10
187.0414181130841
 20
15.11162525770632
 30
0.0
 10
187.1018680471804
 20
15.10209426030671
 30
0.0
 10
187.159283773911
 20
15.11617289606379
 30
0.0
 10
187.1477773876708
 20
15.06707153265682
 30
0.0
 10
187.1537566781749
 20
15.02564658018648
 30
0.0
 10
187.1520311050802
 20
14.97651677966695
 30
0.0
 10
187.1521500122971
 20
14.94854428447607
 30
0.0
 10
187.1521871691833
 20
14.93980288195949
 30
0.0
 11
185.9857704961609
 21
15.75844135397705
 31
0.0
 11
186.0099436128282
 21
15.75844135397705
 31
0.0
 11
186.0703764044962
 21
15.75844135397705
 31
0.0
 11
186.1489390336648
 21
15.75844135397705
 31
0.0
 11
186.2275016628334
 21
15.75844135397705
 31
0.0
 11
186.2879344545015
 21
15.75844135397705
 31
0.0
 11
186.3121075711687
 21
15.75844135397705
 31
0.0
 11
186.3121075711687
 21
15.78541612620063
 31
0.0
 11
186.3121075711687
 21
15.85498264404039
 31
0.0
 11
186.3121075711687
 21
15.95010420924985
 31
0.0
 11
186.3121075711687
 21
16.05374412358256
 31
0.0
 11
186.3121075711687
 21
16.14886568879202
 31
0.0
 11
186.3121075711687
 21
16.21843220663178
 31
0.0
 11
186.3121075711687
 21
16.24540697885536
 31
0.0
 11
186.3360407604892
 21
16.243732131078
 31
0.0
 11
186.3931122119458
 21
16.23973826330121
 31
0.0
 11
186.461229750781
 21
16.23497138885795
 31
0.0
 11
186.5183012022376
 21
16.23097752108116
 31
0.0
 11
186.5422343915581
 21
16.2293026733038
 31
0.0
 11
186.5274972731229
 21
16.2055629337264
 31
0.0
 11
186.4886640249976
 21
16.19183767331312
 31
0.0
 11
186.4886640249976
 21
16.15973424225119
 31
0.0
 11
186.4886640249976
 21
16.07947566459636
 31
0.0
 11
186.4886640249976
 21
15.97513951364509
 31
0.0
 11
186.4886640249976
 21
15.87080336269381
 31
0.0
 11
186.4886640249976
 21
15.79054478503898
 31
0.0
 11
186.4886640249976
 21
15.75844135397705
 31
0.0
 11
186.5211207110824
 21
15.75844135397705
 31
0.0
 11
186.6048247962486
 21
15.75844135397705
 31
0.0
 11
186.7192773208634
 21
15.75844135397705
 31
0.0
 11
186.8439793252946
 21
15.75844135397705
 31
0.0
 11
186.9584318499095
 21
15.75844135397705
 31
0.0
 11
187.0421359350756
 21
15.75844135397705
 31
0.0
 11
187.0745926211604
 21
15.75844135397705
 31
0.0
 11
187.0745926211604
 21
15.73210566604961
 31
0.0
 11
187.0745926211604
 21
15.67416715260924
 31
0.0
 11
187.0745926211604
 21
15.61622863916888
 31
0.0
 11
187.0745926211604
 21
15.58989295124144
 31
0.0
 11
187.0421359350756
 21
15.58989295124144
 31
0.0
 11
186.9584318499095
 21
15.58989295124144
 31
0.0
 11
186.8439793252946
 21
15.58989295124144
 31
0.0
 11
186.7192773208634
 21
15.58989295124144
 31
0.0
 11
186.6048247962485
 21
15.58989295124144
 31
0.0
 11
186.5211207110824
 21
15.58989295124144
 31
0.0
 11
186.4886640249976
 21
15.58989295124144
 31
0.0
 11
186.4886640249976
 21
15.56321863152022
 31
0.0
 11
186.4886640249976
 21
15.49442696487075
 31
0.0
 11
186.4886640249976
 21
15.40036489006434
 31
0.0
 11
186.4886640249976
 21
15.29787934587227
 31
0.0
 11
186.4886640249976
 21
15.20381727106586
 31
0.0
 11
186.4886640249976
 21
15.13502560441639
 31
0.0
 11
186.4886640249976
 21
15.10835128469517
 31
0.0
 11
186.5171747850993
 21
15.10835128469517
 31
0.0
 11
186.5923395162766
 21
15.10835128469517
 31
0.0
 11
186.6986068948376
 21
15.10835128469517
 31
0.0
 11
186.8204255970904
 21
15.10835128469517
 31
0.0
 11
186.9422442993433
 21
15.10835128469517
 31
0.0
 11
187.0485116779043
 21
15.10835128469517
 31
0.0
 11
187.1236764090816
 21
15.10835128469517
 31
0.0
 11
187.1521871691833
 21
15.10835128469517
 31
0.0
 11
187.1521871691833
 21
15.08201559676772
 31
0.0
 11
187.1521871691833
 21
15.02407708332733
 31
0.0
 11
187.1521871691833
 21
14.96613856988694
 31
0.0
 11
187.1521871691833
 21
14.93980288195949
 31
0.0
  0
SPLINE
  5
B2
102
{ACAD_REACTORS
330
CD
102
}
330
48
100
AcDbEntity
  8
_U_30EC_U_30A4_U_30E4_U_30FC_1
  6
Continuous
 62
     2
100
AcDbSpline
210
0.0
220
0.0
230
1.0
 70
     8
 71
     3
 72
    24
 73
    20
 74
    18
 42
0.000000001
 43
0.0000000001
 44
0.00000001
 40
0.0
 40
0.0
 40
0.0
 40
0.0
 40
0.2211075008753901
 40
0.4273218586245225
 40
0.5080174679239218
 40
0.5914835907870112
 40
0.8143265690192547
 40
1.054651302686566
 40
1.295452694023155
 40
1.518109231328816
 40
1.540864321905431
 40
1.595126460622693
 40
1.659890947896007
 40
1.714153085187366
 40
1.736908174961667
 40
1.764951100735348
 40
1.801562291220937
 40
1.953914424543612
 40
2.126104167379693
 40
2.126104167379693
 40
2.126104167379693
 40
2.126104167379693
 10
185.9375369556889
 20
15.58989295113015
 30
0.0
 10
185.9112579081811
 20
15.53097628234373
 30
0.0
 10
185.8604698894426
 20
15.41711139679258
 30
0.0
 10
185.813178483911
 20
15.14441958233115
 30
0.0
 10
185.7043482802619
 20
15.24445482575454
 30
0.0
 10
185.5514800279636
 20
15.2711859336733
 30
0.0
 10
185.76861551812
 20
15.48518135017632
 30
0.0
 10
185.783848367438
 20
15.70332117782486
 30
0.0
 10
185.8906889492
 20
15.88451579066425
 30
0.0
 10
185.8305380947077
 20
16.16913226311402
 30
0.0
 10
185.9334317395402
 20
16.1411408922245
 30
0.0
 10
185.9779933468149
 20
16.13243251602299
 30
0.0
 10
186.0380842395397
 20
16.12139654183354
 30
0.0
 10
186.0756619587438
 20
16.10767523055559
 30
0.0
 10
186.1252466928606
 20
16.10756076160221
 30
0.0
 10
186.0930158919325
 20
16.07306592398623
 30
0.0
 10
186.0171802221881
 20
16.08404104537963
 30
0.0
 10
186.0429447159694
 20
15.89858969582449
 30
0.0
 10
186.005589676385
 20
15.80702313549589
 30
0.0
 10
185.9857704961609
 20
15.75844135397705
 30
0.0
 11
185.9375369556889
 21
15.58989295113015
 31
0.0
 11
185.8616471328552
 21
15.38221708318559
 31
0.0
 11
185.7717402238433
 21
15.19663392356192
 31
0.0
 11
185.701149392311
 21
15.2357327256355
 31
0.0
 11
185.6245525192651
 21
15.26889163187719
 31
0.0
 11
185.7214026947455
 21
15.46958801203537
 31
0.0
 11
185.7994641467471
 21
15.69688163177023
 31
0.0
 11
185.858971692972
 21
15.93021436608691
 31
0.0
 11
185.9001601511226
 21
16.14902808999054
 31
0.0
 11
185.9224183822214
 21
16.14429889221395
 31
0.0
 11
185.975495702534
 21
16.13302157443899
 31
0.0
 11
186.0388460525844
 21
16.11956154999791
 31
0.0
 11
186.091923372897
 21
16.10828423222296
 31
0.0
 11
186.1141816039958
 21
16.10355503444636
 31
0.0
 11
186.096409715746
 21
16.08186250841009
 31
0.0
 11
186.0606122998071
 21
16.07418628445367
 31
0.0
 11
186.028195330148
 21
15.92532288171313
 31
0.0
 11
185.9857704961609
 21
15.75844135397705
 31
0.0
  0
LWPOLYLINE
  5
B3
102
{ACAD_REACTORS
330
CE
102
}
330
48
100
AcDbEntity
  8
_U_30EC_U_30A4_U_30E4_U_30FC_1
  6
Continuous
 62
     2
100
AcDbPolyline
 90
        5
 70
     1
 43
0.0
 10
191.1602971697031
 20
15.39722336795624
 10
192.4578138032671
 20
15.39722336795624
 10
192.4578138032671
 20
15.22875434022057
 10
191.1602971697031
 20
15.22875434022057
 10
191.1602971697031
 20
15.39722336795624
  0
MTEXT
  5
B5
330
48
100
AcDbEntity
  8
1
 62
   250
100
AcDbMText
 10
25.0
 20
5.0
 30
0.0
 40
3.5
 41
0.0
 71
     4
 72
     1
  1
備考欄の文字列 原点位置=4
  7
CONVERTER_11
 73
     1
 44
0.54545454545455
  0
MTEXT
  5
B6
330
48
100
AcDbEntity
  8
1
 62
     2
100
AcDbMText
 10
89.49999999999997
 20
24.00000000000001
 30
0.0
 40
3.5
 41
0.0
 71
     5
 72
     1
  1
尺度
  7
CONVERTER_11
 73
     1
 44
0.54545454545455
  0
MTEXT
  5
B7
330
48
100
AcDbEntity
  8
1
 62
     2
100
AcDbMText
 10
135.5
 20
25.00000000000001
 30
0.0
 40
3.0
 41
0.0
 71
     5
 72
     1
  1
製図
  7
CONVERTER_11
 73
     1
 44
0.59090909090909
  0
MTEXT
  5
B8
330
48
100
AcDbEntity
  8
1
 62
     2
100
AcDbMText
 10
152.5
 20
25.00000000000001
 30
0.0
 40
3.0
 41
0.0
 71
     5
 72
     1
  1
設計
  7
CONVERTER_11
 73
     1
 44
0.59090909090909
  0
MTEXT
  5
B9
330
48
100
AcDbEntity
  8
1
 62
     2
100
AcDbMText
 10
118.5
 20
25.00000000000001
 30
0.0
 40
3.0
 41
0.0
 71
     5
 72
     1
  1
検図
  7
CONVERTER_11
 73
     1
 44
0.59090909090909
  0
MTEXT
  5
BA
330
48
100
AcDbEntity
  8
1
 62
     2
100
AcDbMText
 10
175.0
 20
23.50000000000001
 30
0.0
 40
3.5
 41
0.0
 71
     5
 72
     1
  1
第三角法
  7
CONVERTER_11
 73
     1
 44
0.54545454545455
  0
MTEXT
  5
BB
330
48
100
AcDbEntity
  8
1
 62
     2
100
AcDbMText
 10
101.5
 20
25.00000000000001
 30
0.0
 40
3.0
 41
0.0
 71
     5
 72
     1
  1
承認
  7
CONVERTER_11
 73
     1
 44
0.59090909090909
  0
MTEXT
  5
BC
330
48
100
AcDbEntity
  8
1
 62
     2
100
AcDbMText
 10
29.0
 20
14.25
 30
0.0
 40
3.5
 41
0.0
 71
     5
 72
     1
  1
品番
  7
CONVERTER_11
 73
     1
 44
0.72727272727273
  0
MTEXT
  5
BD
330
48
100
AcDbEntity
  8
1
 62
     2
100
AcDbMText
 10
29.0
 20
22.75
 30
0.0
 40
3.5
 41
0.0
 71
     5
 72
     1
  1
品名
  7
CONVERTER_11
 73
     1
 44
0.72727272727273
  0
MTEXT
  5
BE
330
48
100
AcDbEntity
  8
1
 62
     2
100
AcDbMText
 10
29.0
 20
34.0
 30
0.0
 40
3.5
 41
0.0
 71
     5
 72
     1
  1
備考
  7
CONVERTER_11
 73
     1
 44
0.45454545454545
  0
MTEXT
  5
BF
330
48
100
AcDbEntity
  8
1
 62
     2
100
AcDbMText
 10
32.5
 20
282.0000000000003
 30
0.0
 40
5.0
 41
0.0
 71
     5
 72
     1
  1
図番
  7
CONVERTER_11
 73
     1
 44
0.45454545454545
  0
HATCH
  5
C0
330
48
100
AcDbEntity
  8
1
  6
Continuous
 62
     2
100
AcDbHatch
 10
0.0
 20
0.0
 30
0.0
210
0.0
220
0.0
230
1.0
  2
CUSTOM0
 70
     0
 71
     1
 91
        1
 92
        1
 93
        1
 72
     4
 94
        3
 73
     0
 74
     0
 95
       99
 96
       95
 40
0.0
 40
0.0
 40
0.0
 40
0.0
 40
0.0796417172273019
 40
0.1621768542356577
 40
0.2486489160958192
 40
0.3404969668525143
 40
0.4381912511165166
 40
0.5434463660245468
 40
0.6518115192847788
 40
0.753019093788736
 40
0.8492196919725631
 40
0.9419290312998626
 40
1.034249663570087
 40
1.129078600620246
 40
1.226697027573286
 40
1.327220425421745
 40
1.470572134938059
 40
1.595489863371259
 40
1.719934125348446
 40
1.850576620127463
 40
1.989059629987352
 40
2.134139054226972
 40
2.280698007207258
 40
2.424529739039524
 40
2.565929576985893
 40
2.708239260773584
 40
2.861717887443711
 40
3.045168540347416
 40
3.183798301138661
 40
3.314813961455502
 40
3.442083470447357
 40
3.569912708373013
 40
3.702177512509412
 40
3.842307559659581
 40
3.992872223245985
 40
4.156750662218373
 40
4.310981861107538
 40
4.44585990932264
 40
4.572393936131631
 40
4.701656719782032
 40
4.768279086008513
 40
4.835960697898455
 40
4.91278891872938
 40
5.006285208481588
 40
5.026909478751664
 40
5.047533749021229
 40
5.101808031471301
 40
5.162325165538626
 40
5.226919745995916
 40
5.294231806596763
 40
5.364544852554914
 40
5.438319055467958
 40
5.517877651324294
 40
5.607647714861606
 40
5.700449642544453
 40
5.788251142364185
 40
5.872714706039815
 40
5.955167292575395
 40
6.037192395190434
 40
6.120669181469169
 40
6.206848616686403
 40
6.296680855416821
 40
6.442558392872642
 40
6.568190371608349
 40
6.692904567360411
 40
6.824220446557208
 40
6.963121850329394
 40
7.107843738851154
 40
7.253431663907319
 40
7.39518746803677
 40
7.533140753237801
 40
7.670550457175312
 40
7.816236511769314
 40
7.987691657359275
 40
8.142277421969306
 40
8.293662615415057
 40
8.442962460879311
 40
8.591598316185358
 40
8.743678992361833
 40
8.903725323699215
 40
9.076307008890563
 40
9.265578604680618
 40
9.459203795360793
 40
9.61761981027358
 40
9.75360967136196
 40
9.874873300004108
 40
9.954520184977818
 40
10.02416413719249
 40
10.09769764405449
 40
10.18909955924975
 40
10.20974586420137
 40
10.23039218263382
 40
10.30057101881266
 40
10.37632012987543
 40
10.37632012987543
 40
10.37632012987543
 40
10.37632012987543
 10
170.146595483585
 20
14.13795663215993
 10
170.1632217851219
 20
14.11720608845312
 10
170.1970784206577
 20
14.07495111711903
 10
170.2599822541035
 20
14.0202981139207
 10
170.3332500940393
 20
13.9729902512105
 10
170.4175969238636
 20
13.93527231437935
 10
170.513224061546
 20
13.91040619731951
 10
170.6171853775346
 20
13.90309559345937
 10
170.7224020220405
 20
13.91142322794053
 10
170.8206626371333
 20
13.94149179651528
 10
170.9058986427548
 20
13.98848822971876
 10
170.9779220206103
 20
14.04952991250856
 10
171.0350917709096
 20
14.12412969578582
 10
171.0767868747439
 20
14.21002464660173
 10
171.1026952846292
 20
14.30485850432211
 10
171.1118037332653
 20
14.41854979038366
 10
171.0986864796487
 20
14.54332587770777
 10
171.0325330334414
 20
14.66014719171892
 10
170.9369370919569
 20
14.74512539577373
 10
170.8249681022369
 20
14.81416684459161
 10
170.6993659583269
 20
14.8720414204589
 10
170.5656691620856
 20
14.9237372328434
 10
170.431312281883
 20
14.9789909239718
 10
170.3051983986877
 20
15.04939770641648
 10
170.1926579987535
 20
15.13785540731249
 10
170.0969963064458
 20
15.24981067868471
 10
170.0334157151825
 20
15.39949910101382
 10
170.0200706505016
 20
15.55932794385141
 10
170.0320510987448
 20
15.71048405306844
 10
170.0712298928841
 20
15.83809244591538
 10
170.1354987750911
 20
15.95080874030844
 10
170.223820499974
 20
16.04648609268686
 10
170.3338091207628
 20
16.12354214985752
 10
170.4632284401265
 20
16.18151396936278
 10
170.6111838967792
 20
16.21739177588821
 10
170.7682069455487
 20
16.22746719050565
 10
170.917494046643
 20
16.21863637762588
 10
171.059625361417
 20
16.19074899340352
 10
171.1595922609625
 20
16.13413314701137
 10
171.3125074736186
 20
16.08674602105506
 10
171.2455131717168
 20
16.00197553001184
 10
171.2296479120268
 20
15.93438901873483
 10
171.1978750531297
 20
15.8692609279319
 10
171.2150202209571
 20
15.76723453256952
 10
171.1666427208232
 20
15.77493211681901
 10
171.1315789440766
 20
15.76806771724807
 10
171.1296697985719
 20
15.83263831158198
 10
171.0985692931988
 20
15.87825639621391
 10
171.0664551628456
 20
15.93561036628456
 10
171.0208038475168
 20
15.98540462692558
 10
170.9658508218387
 20
16.02994813718995
 10
170.9010841173007
 20
16.06763988836549
 10
170.8232377310597
 20
16.09283375791352
 10
170.7355160553352
 20
16.09931230998109
 10
170.6452903277806
 20
16.09235709285606
 10
170.5594594694064
 20
16.06909190460921
 10
170.4828343638596
 20
16.03131644107541
 10
170.41652656362
 20
15.98051641089579
 10
170.3622560536964
 20
15.91731143407206
 10
170.3224925345459
 20
15.84276455710367
 10
170.2976775510587
 20
15.75917313997762
 10
170.289212426287
 20
15.65192948382285
 10
170.3019697987102
 20
15.52965457267557
 10
170.3681548409274
 20
15.41149724291213
 10
170.4640977399831
 20
15.32606325709524
 10
170.5757914963182
 20
15.25583362306725
 10
170.7010863668702
 20
15.19659162305302
 10
170.8349823941446
 20
15.1461670808613
 10
170.968993033315
 20
15.09322516984382
 10
171.0950885316914
 20
15.02750170625176
 10
171.2076216638418
 20
14.94480352537319
 10
171.3031370284232
 20
14.83996006310074
 10
171.3672706486962
 20
14.69937117251568
 10
171.3811103725278
 20
14.54065409451592
 10
171.3673954712229
 20
14.38153155217875
 10
171.3244739153985
 20
14.23483828819208
 10
171.2545906329066
 20
14.10119796587141
 10
171.1574592213829
 20
13.98532387699291
 10
171.0347806023658
 20
13.89089981770087
 10
170.8874408413167
 20
13.82179270651981
 10
170.7177132497125
 20
13.77953210858853
 10
170.5317404979596
 20
13.76781736230407
 10
170.3528955926184
 20
13.77809486683436
 10
170.1881733753743
 20
13.81966573769154
 10
170.0834410841056
 20
13.88797642883939
 10
169.9350960790366
 20
13.93675219032107
 10
169.9980378194729
 20
14.02976591290841
 10
170.0072274430059
 20
14.1029653624828
 10
170.0303711301231
 20
14.16936294501345
 10
170.0034588335317
 20
14.26974809527579
 10
170.0521338956339
 20
14.26234033517377
 10
170.0916530580697
 20
14.26894063620894
 10
170.0996204944702
 20
14.19078703218932
 10
170.1305436967922
 20
14.15600927375856
 10
170.146595483585
 20
14.13795663215993
 97
        1
330
A2
 75
     1
 76
     2
 52
45.0
 41
0.1
 77
     0
 78
     1
 53
45.0
 43
0.0
 44
0.0
 45
-0.282842712474619
 46
0.0
 79
     0
 98
        1
 10
0.0
 20
0.0
  0
HATCH
  5
C1
330
48
100
AcDbEntity
  8
1
  6
Continuous
 62
     2
100
AcDbHatch
 10
0.0
 20
0.0
 30
0.0
210
0.0
220
0.0
230
1.0
  2
CUSTOM1
 70
     0
 71
     1
 91
        2
 92
        1
 93
        1
 72
     4
 94
        3
 73
     0
 74
     0
 95
       57
 96
       53
 40
0.0
 40
0.0
 40
0.0
 40
0.0
 40
0.0471632082809242
 40
0.0914861054632161
 40
0.1357762519702397
 40
0.1826527001610692
 40
0.2295203288572885
 40
0.273775197222077
 40
0.3181310461543363
 40
0.3652607198398531
 40
0.4571007286314503
 40
0.5671851029165584
 40
0.689462328386852
 40
0.8181758272545968
 40
0.9510087229274207
 40
1.085852229674065
 40
1.218126164475317
 40
1.343545131142384
 40
1.4545372029568
 40
1.56718760753081
 40
1.680710966642428
 40
1.794226869736792
 40
1.900009184247592
 40
2.004085860447871
 40
2.108162674451759
 40
2.214000150155303
 40
2.496038577352139
 40
2.76235074547928
 40
2.997275353279405
 40
3.185110082137733
 40
3.246407890063961
 40
3.312607550212777
 40
3.378877742711622
 40
3.440140399651449
 40
4.100501696006471
 40
4.754913085563524
 40
5.411331693423937
 40
6.07789043256872
 40
6.110575292670999
 40
6.143260152775779
 40
6.367989363395175
 40
6.610525374951576
 40
6.863389136467337
 40
7.119380025547624
 40
7.376036605091119
 40
7.631164770966285
 40
7.876722425456442
 40
8.104953735855977
 40
8.312916685924314
 40
8.49773029494132
 40
8.651018984313874
 40
8.764738853624612
 40
8.764738853624612
 40
8.764738853624612
 40
8.764738853624612
 10
174.7922649500513
 20
13.81626739612926
 10
174.7766616726931
 20
13.81826231079077
 10
174.7463947960302
 20
13.82213201360299
 10
174.7010994202252
 20
13.82341984967267
 10
174.6559553129349
 20
13.82308683554051
 10
174.6099017123399
 20
13.82314658674223
 10
174.5640496172096
 20
13.82325813650001
 10
174.5183711648164
 20
13.8227783345659
 10
174.4750811541608
 20
13.82461109618722
 10
174.4039947951513
 20
13.80049556814656
 10
174.4057477261442
 20
13.92184693977254
 10
174.3586196370568
 20
14.00726239751229
 10
174.3191478251761
 20
14.12486929345135
 10
174.2706635532645
 20
14.2423275254044
 10
174.2201017402521
 20
14.36405935761506
 10
174.1718634610477
 20
14.49075967862467
 10
174.1135232947595
 20
14.59933687784951
 10
174.0980892667261
 20
14.75620657134409
 10
173.9566586330635
 20
14.72373446548321
 10
173.8508397414904
 20
14.7351288868218
 10
173.7358569725222
 20
14.73392591514615
 10
173.625314225214
 20
14.73506945347408
 10
173.5176583522784
 20
14.73418350037526
 10
173.4121322529242
 20
14.73416602390519
 10
173.3109192682013
 20
14.72714032472414
 10
173.1266804827753
 20
14.75135859859867
 10
173.1157393685411
 20
14.44741691121884
 10
173.008769163475
 20
14.22353177253396
 10
172.9098148604347
 20
14.03895314292497
 10
172.9225090524007
 20
13.79530204804204
 10
172.8050091716397
 20
13.82508046753198
 10
172.7422055868309
 20
13.82258089509603
 10
172.67858720934
 20
13.82344075102805
 10
172.3946014194074
 20
13.78098039941941
 10
173.0251638499381
 20
14.50081952444787
 10
173.108764528907
 20
15.01276539435728
 10
173.4929252789341
 20
15.53353743550044
 10
173.4777208288563
 20
16.23519626253211
 10
173.7239265722697
 20
16.22345633081257
 10
173.825634615756
 20
16.23225004452772
 10
173.8249752035818
 20
15.98059650730346
 10
173.9428317155828
 20
15.79818020733957
 10
174.0315515260485
 20
15.55563740662865
 10
174.1322292485259
 20
15.32340030530126
 10
174.2311142712243
 20
15.08674644566914
 10
174.3299676990667
 20
14.85461739170088
 10
174.4256166390926
 20
14.6312222278879
 10
174.5159904573271
 20
14.42272549049316
 10
174.5989944568189
 20
14.2330844852932
 10
174.6726088582798
 20
14.06663106068099
 10
174.7342815895546
 20
13.92917699626097
 10
174.7749458885604
 20
13.84999239430033
 10
174.7922649500513
 20
13.81626739612926
 97
        1
330
A3
 92
       16
 93
        1
 72
     4
 94
        3
 73
     0
 74
     0
 95
       25
 96
       21
 40
0.0
 40
0.0
 40
0.0
 40
0.0
 40
0.0911479969064822
 40
0.1858117896204668
 40
0.2804128399734492
 40
0.3715889190713659
 40
0.4679080494218426
 40
0.5642683809229234
 40
0.660568322264471
 40
0.756965301581026
 40
0.8561348172522744
 40
1.092615965104293
 40
1.374867658141876
 40
1.611348812011602
 40
1.71051832842525
 40
1.809403163726568
 40
2.04520546329407
 40
2.32664691762213
 40
2.562449217190593
 40
2.661334043833912
 40
2.661334043833912
 40
2.661334043833912
 40
2.661334043833912
 10
173.2683700567199
 20
14.88614538197292
 10
173.2987525917922
 20
14.88598079714554
 10
173.3606895889112
 20
14.88564528689922
 10
173.4541356960331
 20
14.88269055451999
 10
173.5475095236357
 20
14.8797775287715
 10
173.6417760753476
 20
14.87894201643416
 10
173.7354964790966
 20
14.87996644658046
 10
173.8352040303204
 20
14.87916977470972
 10
173.9188949546312
 20
14.88921410235219
 10
174.0637996315045
 20
14.86234617674164
 10
173.9396132444801
 20
15.03665530280049
 10
173.8965867286282
 20
15.19651711006091
 10
173.7808922142209
 20
15.45518458550216
 10
173.7017565431257
 20
15.59231052861858
 10
173.6431576621816
 20
15.80937033134077
 10
173.5864803939438
 20
15.59266134213428
 10
173.5052809900478
 20
15.45327012438236
 10
173.4063701281488
 20
15.20406969370195
 10
173.325362509426
 20
15.01925830226073
 10
173.2813683325838
 20
14.91650446856116
 10
173.2683700567199
 20
14.88614538197292
 97
        1
330
A4
 75
     1
 76
     2
 52
45.0
 41
0.1
 77
     0
 78
     1
 53
45.0
 43
0.0
 44
0.0
 45
-0.282842712474619
 46
0.0
 79
     0
 98
        1
 10
0.0
 20
0.0
  0
HATCH
  5
C2
330
48
100
AcDbEntity
  8
1
  6
Continuous
 62
     2
100
AcDbHatch
 10
0.0
 20
0.0
 30
0.0
210
0.0
220
0.0
230
1.0
  2
CUSTOM2
 70
     0
 71
     1
 91
        1
 92
        1
 93
        1
 72
     4
 94
        3
 73
     0
 74
     0
 95
       95
 96
       91
 40
0.0
 40
0.0
 40
0.0
 40
0.0
 40
0.6550406656911145
 40
1.308087289031874
 40
1.420803739835738
 40
1.566130759770745
 40
1.757067341888405
 40
2.006513545026404
 40
2.087328263121492
 40
2.185328872295565
 40
2.294612454748307
 40
2.408936380534758
 40
2.526802767798502
 40
2.646360524615556
 40
2.762535723971523
 40
2.870057342870096
 40
2.966883448431584
 40
3.050803243518232
 40
3.115818222436549
 40
3.156030057150192
 40
3.213914225080123
 40
3.276689026450496
 40
3.342960320981273
 40
3.404230667150522
 40
3.453822809493333
 40
3.532499827188387
 40
3.634775188507135
 40
3.754909333008133
 40
3.889736761660624
 40
4.035769602175197
 40
4.187256681197578
 40
4.338733685675918
 40
4.488478734676081
 40
4.634708317831557
 40
4.771493189921241
 40
4.892686571561183
 40
5.199775528944415
 40
5.460353566929609
 40
5.667603142345476
 40
5.814722905404463
 40
5.828990806219761
 40
5.855488336304458
 40
5.86975623711879
 40
6.189796507762798
 40
6.53189046987299
 40
6.88305363701698
 40
7.230512024911397
 40
7.566966656764557
 40
7.885203559707381
 40
8.172887439719187
 40
8.418011594062742
 40
8.443926721190664
 40
8.51076047061315
 40
8.602145393795661
 40
8.7017140416471
 40
8.79309896507533
 40
8.859932715057905
 40
8.885847842603553
 40
9.242301256612773
 40
9.589275455016733
 40
9.921808543164133
 40
10.23479624298464
 40
10.29968150889175
 40
10.35323493887755
 40
10.40154625355145
 40
10.46482922477824
 40
10.55973900668405
 40
10.69239545985618
 40
10.84920353475671
 40
11.01626328594779
 40
11.18672024367443
 40
11.3537258257721
 40
11.50257442292427
 40
11.61866495023292
 40
11.71329869152875
 40
11.82511050573908
 40
11.94464880845715
 40
12.06929242642506
 40
12.19707290435176
 40
12.32562632860529
 40
12.45034565331279
 40
12.56646595170327
 40
12.67099007414635
 40
12.76077625936782
 40
12.82703233506694
 40
12.87429132785993
 40
12.89831990323332
 40
12.9223484786002
 40
13.5398476741032
 40
14.18294284359371
 40
14.18294284359371
 40
14.18294284359371
 40
14.18294284359371
 10
177.306793564802
 20
14.70898038201724
 10
177.175201975855
 20
14.82265058603232
 10
176.9124193802728
 20
15.04964496316158
 10
176.399739344102
 20
15.89214462956286
 10
176.4106654595362
 20
15.53423377577019
 10
176.4041226527991
 20
15.39267392272132
 10
176.4028026631772
 20
15.1942130529928
 10
176.4018117602538
 20
15.02150296045982
 10
176.4024101751974
 20
14.87865373257579
 10
176.4038994301882
 20
14.78265005413358
 10
176.4055683588473
 20
14.67545503263141
 10
176.4071934954616
 20
14.56164211517581
 10
176.4092429501685
 20
14.44441572604588
 10
176.4123165501927
 20
14.32656411232969
 10
176.4156339697042
 20
14.21228087320619
 10
176.419360534028
 20
14.10521401867277
 10
176.4217338161423
 20
14.01007408766921
 10
176.4278718888356
 20
13.92558557205695
 10
176.4239784495947
 20
13.86923087298142
 10
176.4455230443077
 20
13.79825022472353
 10
176.3680940058618
 20
13.82902677604483
 10
176.3116353240191
 20
13.82011242517613
 10
176.2540495896807
 20
13.82896218398275
 10
176.1690163478472
 20
13.79738225225943
 10
176.2009714146382
 20
13.88095155992189
 10
176.1990705282539
 20
13.94882608968308
 10
176.21079600473
 20
14.05233256764419
 10
176.2164241053
 20
14.17002125616694
 10
176.223790217894
 20
14.30388609164423
 10
176.2320759701611
 20
14.44764152872632
 10
176.2398851897426
 20
14.59714022843445
 10
176.2457571222657
 20
14.74792549402077
 10
176.2503667817968
 20
14.89699943878437
 10
176.2542632117542
 20
15.04122913163021
 10
176.2570715126564
 20
15.17583905213018
 10
176.2576698755022
 20
15.36469614347353
 10
176.2616023867149
 20
15.58975494313153
 10
176.2442175378499
 20
15.86367091125707
 10
176.2850417342581
 20
16.02787112098595
 10
176.1995153256005
 20
16.22749661465097
 10
176.2660558907687
 20
16.22385458403978
 10
176.2838724273231
 20
16.22413447160854
 10
176.40568017975
 20
16.22632927398614
 10
176.5080770335463
 20
15.94675118721514
 10
176.7580021509356
 20
15.74563008536001
 10
176.9870035331111
 20
15.4779261498792
 10
177.2245151213108
 20
15.22646413862368
 10
177.4486090740772
 20
14.98969974061361
 10
177.6750716283009
 20
14.73218692583078
 10
177.8325687886515
 20
14.61649335056921
 10
178.0472129612673
 20
14.27997152538792
 10
178.0422645974619
 20
14.40464754091602
 10
178.0433931602547
 20
14.46327691935737
 10
178.0428877841516
 20
14.55043662371975
 10
178.0430475158113
 20
14.64416143182871
 10
178.0430054891318
 20
14.73018971297034
 10
178.0430202040372
 20
14.79153891945494
 10
178.0429706255984
 20
14.94135231520993
 10
178.0458811522811
 20
15.17989612510104
 10
178.0259521041161
 20
15.544865098687
 10
178.0750433936247
 20
15.80799631993412
 10
177.917795150918
 20
16.21928904947752
 10
178.0762112872421
 20
16.16398282551749
 10
178.1311680478628
 20
16.16199686500173
 10
178.182788776674
 20
16.1626477824825
 10
178.2713198965366
 20
16.20369527738247
 10
178.2204898303168
 20
16.05696326622987
 10
178.2313389930281
 20
15.95019971954433
 10
178.2166036994848
 20
15.79085705414112
 10
178.2099976446204
 20
15.62853061652873
 10
178.2014961399915
 20
15.45992521892395
 10
178.1943227202198
 20
15.2981481470354
 10
178.1889063215389
 20
15.15422331457932
 10
178.1871713967648
 20
15.03437493466924
 10
178.1875440672319
 20
14.92686101590514
 10
178.1873656126263
 20
14.81820024645585
 10
178.1877010863138
 20
14.69953570165529
 10
178.1890040622184
 20
14.5755516351274
 10
178.1908887351574
 20
14.44858294171104
 10
178.1925004454849
 20
14.32153861551031
 10
178.1941403137429
 20
14.19854884492177
 10
178.1962570745752
 20
14.08300931383759
 10
178.1963848422363
 20
13.98090903955837
 10
178.2006514396554
 20
13.89009848838156
 10
178.1908440085289
 20
13.83213621208786
 10
178.2118474771689
 20
13.76517130132028
 10
178.1725639739897
 20
13.77291153966688
 10
177.9595307117745
 20
13.75755254145193
 10
177.7636297943187
 20
14.31403058094473
 10
177.4611197631544
 20
14.57556035348511
 10
177.306793564802
 20
14.70898038201724
 97
        1
330
A5
 75
     1
 76
     2
 52
45.0
 41
0.1
 77
     0
 78
     1
 53
45.0
 43
0.0
 44
0.0
 45
-0.282842712474619
 46
0.0
 79
     0
 98
        1
 10
0.0
 20
0.0
  0
HATCH
  5
C3
330
48
100
AcDbEntity
  8
1
  6
Continuous
 62
     2
100
AcDbHatch
 10
0.0
 20
0.0
 30
0.0
210
0.0
220
0.0
230
1.0
  2
CUSTOM3
 70
     0
 71
     1
 91
        1
 92
        1
 93
        1
 72
     4
 94
        3
 73
     0
 74
     0
 95
      110
 96
      106
 40
0.0
 40
0.0
 40
0.0
 40
0.0
 40
0.220340625727772
 40
0.4407808782838091
 40
0.5952494494615072
 40
0.7488431659393074
 40
0.902358183130906
 40
1.056801968670405
 40
1.210736449099905
 40
1.363041386539784
 40
1.515315729683126
 40
1.669377239148077
 40
1.721611652756568
 40
1.773199502942955
 40
1.824933793210001
 40
1.877110426487979
 40
1.982682281206742
 40
2.078781667087551
 40
2.172809640822272
 40
2.271937807378925
 40
2.378349933379319
 40
2.494131557736508
 40
2.626681683943641
 40
2.783145050796069
 40
2.890701232940917
 40
2.993130312454816
 40
3.099869730691798
 40
3.220237816691288
 40
3.35269548273758
 40
3.481732806389828
 40
3.593499473690366
 40
3.674323013331873
 40
3.817951711952766
 40
3.94616712079382
 40
4.061405053453505
 40
4.166480796003146
 40
4.262478775059184
 40
4.350736673551141
 40
4.433071991254026
 40
4.511216293814628
 40
4.564262454117953
 40
4.61847441557157
 40
4.670128488754171
 40
4.722296879126363
 40
4.819540945314231
 40
4.931194984128087
 40
5.049996040257729
 40
5.168643755415274
 40
5.283970811762486
 40
5.392260784910397
 40
5.486512254876414
 40
5.559178233949785
 40
5.591425852853448
 40
5.626215969637838
 40
5.667155838674373
 40
5.71744929021418
 40
5.738402360944795
 40
5.784499116553764
 40
5.830595872164738
 40
5.851548942897598
 40
5.873019280661708
 40
5.92421777840825
 40
5.985325662817628
 40
6.036524160567639
 40
6.057994498334168
 40
6.23684778960742
 40
6.381409928945592
 40
6.493190424178624
 40
6.574067534230441
 40
6.691018086205535
 40
6.814881554220452
 40
6.944307823240405
 40
7.071266716066029
 40
7.193488604461874
 40
7.309042773128101
 40
7.414007203170726
 40
7.505140441886481
 40
7.531150360599639
 40
7.559221645322237
 40
7.587202218920894
 40
7.612569159499098
 40
7.662550809480985
 40
7.702878875764123
 40
7.857328205230937
 40
8.010799568088668
 40
8.165256399657562
 40
8.322232698713872
 40
8.479564855016559
 40
8.635216230290762
 40
8.79088255092568
 40
8.948305154947246
 40
9.168271839032938
 40
9.387358980987207
 40
9.608047961033451
 40
9.832914234792659
 40
9.858338694962994
 40
9.925366817230001
 40
10.02013071422759
 40
10.12876249858997
 40
10.23739428295248
 40
10.33215817995189
 40
10.39918630222393
 40
10.42461076239782
 40
10.64992019336941
 40
10.87188524531186
 40
10.87188524531186
 40
10.87188524531186
 40
10.87188524531186
 10
179.9057788376618
 20
15.7392326039819
 10
179.9092864933542
 20
15.80616462073804
 10
179.9163033987662
 20
15.94005891915858
 10
179.8198027599073
 20
16.2254855497147
 10
180.0510134726108
 20
16.16284386190282
 10
180.1919290057156
 20
16.17001554055991
 10
180.3490417757588
 20
16.16235883078243
 10
180.5025913427287
 20
16.16252752283039
 10
180.6545104935081
 20
16.16182040535431
 10
180.8142214813231
 20
16.17210158351639
 10
180.9408972601117
 20
16.1549651108075
 10
181.137082112208
 20
16.22727260107146
 10
181.1034395279078
 20
16.12640699080116
 10
181.1052011317183
 20
16.0761925394767
 10
181.1027342073458
 20
16.02712335586465
 10
181.1347076966011
 20
15.94063490846999
 10
181.0010399903256
 20
15.98997438608335
 10
180.9172208688056
 20
15.98430634314168
 10
180.8173861139324
 20
15.99465516706297
 10
180.7186576720146
 20
16.00086450411086
 10
180.612153277111
 20
16.00697763816777
 10
180.491051169806
 20
16.01588883484586
 10
180.3703381502453
 20
16.00521605912383
 10
180.1812553843437
 20
16.06468503080366
 10
180.2129028505311
 20
15.90558320077539
 10
180.1995563316833
 20
15.80839128339903
 10
180.197495842645
 20
15.69634065110103
 10
180.1958188044671
 20
15.5769968562935
 10
180.1973336794233
 20
15.4503259215511
 10
180.195658247867
 20
15.32301588016117
 10
180.2058844271657
 20
15.22451566404463
 10
180.1779006596582
 20
15.08388702625632
 10
180.3508029999305
 20
15.13989551134095
 10
180.4645020202771
 20
15.12719951478497
 10
180.5840151672239
 20
15.13448377051255
 10
180.6888491425071
 20
15.13878017056754
 10
180.7843084898612
 20
15.14330568258976
 10
180.8763823507032
 20
15.151492011462
 10
180.9476551782439
 20
15.1464385063811
 10
181.0544931705685
 20
15.18536425031674
 10
181.0226603598036
 20
15.10517122005879
 10
181.026616450393
 20
15.05562936846033
 10
181.0234502392013
 20
15.00557478039818
 10
181.0550791490585
 20
14.92128847612022
 10
180.9210133677691
 20
14.97425365495157
 10
180.82923227932
 20
14.96540080890439
 10
180.7079729189602
 20
14.97570049965154
 10
180.5914113119771
 20
14.97748911767501
 10
180.4783375745878
 20
14.97787017109694
 10
180.3679246308471
 20
14.98415449472179
 10
180.2898124067839
 20
14.97189133255364
 10
180.1913625833644
 20
15.00453887616124
 10
180.2012355173561
 20
14.94769748054205
 10
180.1973923244402
 20
14.91392130557983
 10
180.1966789884268
 20
14.8711960470941
 10
180.1963369642975
 20
14.83401607262152
 10
180.1963834255345
 20
14.7948723737077
 10
180.1963649429927
 20
14.75716849497685
 10
180.1963703431807
 20
14.71944955232402
 10
180.19636972142
 20
14.68994324745149
 10
180.1963698151545
 20
14.65873577699299
 10
180.1963704287921
 20
14.61414424908085
 10
180.1963671499336
 20
14.5596395650885
 10
180.1963759623481
 20
14.51505540201448
 10
180.1963359653415
 20
14.43117808585739
 10
180.1976024270255
 20
14.31737520677678
 10
180.1950274117842
 20
14.16830395933709
 10
180.2065009381719
 20
14.06597203813905
 10
180.1823506222263
 20
13.93338903885832
 10
180.3332993946476
 20
13.9789573227202
 10
180.4428436671556
 20
13.96427012162348
 10
180.573397047392
 20
13.96920435125062
 10
180.6990312209514
 20
13.97257705323361
 10
180.8188730625601
 20
13.97711497498772
 10
180.9391362611426
 20
13.99048536182005
 10
181.0222761663514
 20
13.98068712782596
 10
181.1456080421075
 20
14.04126214623318
 10
181.1244269203956
 20
13.9853246013402
 10
181.1235950270116
 20
13.95939249372346
 10
181.1218963707557
 20
13.93197256190938
 10
181.1217974888829
 20
13.89738195206385
 10
181.120365930133
 20
13.86050408220767
 10
181.153280419219
 20
13.76846841021806
 10
180.9551306988106
 20
13.84132015974832
 10
180.830054829489
 20
13.81825726508606
 10
180.6673071295156
 20
13.82454021985785
 10
180.5129366450001
 20
13.82260943909926
 10
180.3566670436944
 20
13.82393762599268
 10
180.1970544465282
 20
13.82059872487862
 10
180.0540326342237
 20
13.83265795728241
 10
179.8197144881628
 20
13.76952001976916
 10
179.9173810751196
 20
14.05620527466317
 10
179.9006868780059
 20
14.24988308142659
 10
179.9146296709683
 20
14.47848242880294
 10
179.9142987846632
 20
14.63384593955048
 10
179.9143078119263
 20
14.73966336444125
 10
179.9143055876316
 20
14.80205784124214
 10
179.9143065551888
 20
14.89220425248327
 10
179.9143065473261
 20
14.99621167157438
 10
179.9143053861102
 20
15.10022131375296
 10
179.9143090971502
 20
15.19036243688767
 10
179.9143011051051
 20
15.25276803097215
 10
179.9143334275018
 20
15.35868835961119
 10
179.9131440788319
 20
15.5162671654474
 10
179.9082216489256
 20
15.66528219822065
 10
179.9057788376618
 20
15.7392326039819
 97
        1
330
A6
 75
     1
 76
     2
 52
45.0
 41
0.1
 77
     0
 78
     1
 53
45.0
 43
0.0
 44
0.0
 45
-0.282842712474619
 46
0.0
 79
     0
 98
        1
 10
0.0
 20
0.0
  0
HATCH
  5
C4
330
48
100
AcDbEntity
  8
1
  6
Continuous
 62
     2
100
AcDbHatch
 10
0.0
 20
0.0
 30
0.0
210
0.0
220
0.0
230
1.0
  2
CUSTOM4
 70
     0
 71
     1
 91
        1
 92
        1
 93
        1
 72
     4
 94
        3
 73
     0
 74
     0
 95
       47
 96
       43
 40
0.0
 40
0.0
 40
0.0
 40
0.0
 40
0.2207912809957177
 40
0.4459404186303042
 40
0.4902387190459267
 40
0.5327473892722215
 40
0.5742260451225547
 40
0.615543263056084
 40
0.6568164066315758
 40
0.6982511618780689
 40
0.7407663929317193
 40
0.7851366743175264
 40
1.01028883383633
 40
1.231080507002179
 40
1.45176524365241
 40
1.676638205891703
 40
1.720461045359676
 40
1.830018144043534
 40
1.972442372353165
 40
2.114866600677531
 40
2.224423699395154
 40
2.268246538883393
 40
2.493628801207228
 40
2.715602830286624
 40
2.934211330706389
 40
3.149502369855384
 40
3.23138778485103
 40
3.318231873854065
 40
3.405143198198053
 40
3.48697030172049
 40
3.702258172493933
 40
3.920866283534172
 40
4.142839325931959
 40
4.368221903865424
 40
4.412044743359902
 40
4.521601842095916
 40
4.664026070452395
 40
4.806450298809101
 40
4.91600739754679
 40
4.959830237043113
 40
5.184703515847153
 40
5.405387250767532
 40
5.405387250767532
 40
5.405387250767532
 40
5.405387250767532
 10
182.6507427258645
 20
15.73406440953872
 10
182.6568139420002
 20
15.7975848250121
 10
182.6690762107242
 20
15.92587938689625
 10
182.5604706879412
 20
16.20166220174078
 10
182.6761985896603
 20
16.17188133432052
 10
182.7171842509015
 20
16.1676555626282
 10
182.7591205797518
 20
16.16310446389605
 10
182.800419662571
 20
16.16201982929483
 10
182.8417032115556
 20
16.16310338195226
 10
182.8836148270646
 20
16.16766112711343
 10
182.9245983549019
 20
16.17187430209727
 10
183.0404922843489
 20
16.20177611317536
 10
182.9295652727457
 20
15.92339806609888
 10
182.9574856365265
 20
15.74283140824953
 10
182.9404267346969
 20
15.50961042346471
 10
182.9414637282101
 20
15.34906622543144
 10
182.9414099399404
 20
15.22284817558721
 10
182.9414277372479
 20
15.1242896333624
 10
182.9414188581079
 20
14.99280702442963
 10
182.9414263928034
 20
14.86132844968649
 10
182.9414129405127
 20
14.7627622269409
 10
182.9414531717491
 20
14.63639735624152
 10
182.9406746403816
 20
14.4748206882287
 10
182.9565958319266
 20
14.24361821892913
 10
182.9333468885407
 20
14.05874351972002
 10
183.0360183444366
 20
13.78935602770053
 10
182.8820238362836
 20
13.82660112685817
 10
182.8004129802832
 20
13.82137994680534
 10
182.7188192292583
 20
13.82660620378351
 10
182.5648513666841
 20
13.78937069885384
 10
182.6674183421918
 20
14.0587512986288
 10
182.6442045316088
 20
14.24361585325414
 10
182.6600444655138
 20
14.47482218565638
 10
182.6593296313427
 20
14.63639712308502
 10
182.6593664569907
 20
14.76276231210521
 10
182.659354900027
 20
14.86132756635981
 10
182.6593575019214
 20
14.99281127417219
 10
182.6593648531779
 20
15.12427548031199
 10
182.6593442541351
 20
15.22287786275324
 10
182.6594082192028
 20
15.34896149354426
 10
182.658173394759
 20
15.51210091383771
 10
182.6532040396744
 20
15.66054183777549
 10
182.6507427258645
 20
15.73406440953872
 97
        1
330
A7
 75
     1
 76
     2
 52
45.0
 41
0.1
 77
     0
 78
     1
 53
45.0
 43
0.0
 44
0.0
 45
-0.282842712474619
 46
0.0
 79
     0
 98
        1
 10
0.0
 20
0.0
  0
HATCH
  5
C5
330
48
100
AcDbEntity
  8
1
  6
Continuous
 62
     2
100
AcDbHatch
 10
0.0
 20
0.0
 30
0.0
210
0.0
220
0.0
230
1.0
  2
CUSTOM5
 70
     0
 71
     1
 91
        1
 92
        1
 93
        1
 72
     4
 94
        3
 73
     0
 74
     0
 95
      118
 96
      114
 40
0.0
 40
0.0
 40
0.0
 40
0.0
 40
0.1054708162973251
 40
0.2466098270051737
 40
0.3965912874591074
 40
0.5285525069753816
 40
0.6156245055642187
 40
0.6431434105797513
 40
0.7036850037986232
 40
0.7642265984504658
 40
0.7917455052354976
 40
0.928740431998999
 40
1.106572819088052
 40
1.287544879681052
 40
1.317578308030569
 40
1.399928030857208
 40
1.522968204799984
 40
1.675072986590605
 40
1.844616533180686
 40
2.01997300163875
 40
2.189516548880063
 40
2.341621331585403
 40
2.464661506320541
 40
2.547011229647104
 40
2.57704465816807
 40
2.603797890893141
 40
2.662655002908828
 40
2.72151211494964
 40
2.748265347702819
 40
2.774215307344894
 40
2.845959313407226
 40
2.954338556588427
 40
3.090194227585604
 40
3.244367517100569
 40
3.407699615844331
 40
3.57103171453948
 40
3.725205003920159
 40
3.861060674729661
 40
3.969439917716354
 40
4.041183923629028
 40
4.067133883213021
 40
4.311886746012207
 40
4.547897258335573
 40
4.764747083044018
 40
4.952749679951824
 40
5.045772974195951
 40
5.137862019645035
 40
5.330543169793086
 40
5.55344826524408
 40
5.795083855888238
 40
6.043293412177301
 40
6.285761695541243
 40
6.313902908752727
 40
6.384255941793317
 40
6.475714884766905
 40
6.567173827758968
 40
6.637526860839746
 40
6.665668074074109
 40
6.692018920328081
 40
6.749990782071153
 40
6.807962643790521
 40
6.834313490017994
 40
6.856393084245273
 40
6.913335195649896
 40
6.99119481730256
 40
7.076026942283821
 40
7.153886563725312
 40
7.210828674844894
 40
7.232908268931229
 40
7.25819933492375
 40
7.324875781592402
 40
7.419142481925061
 40
7.527204308842004
 40
7.635266135230582
 40
7.729532834168571
 40
7.796209279292894
 40
7.82150034459484
 40
7.84465298885091
 40
7.899863140541689
 40
7.965759128053856
 40
8.02096927977114
 40
8.044121924046607
 40
8.069356610160687
 40
8.109134395441458
 40
8.13223810019117
 40
8.193147867786536
 40
8.279261678876711
 40
8.377977512673926
 40
8.476693347146712
 40
8.562807160411767
 40
8.623716930826555
 40
8.646820636853509
 40
8.671988793774322
 40
8.734909185828233
 40
8.816705695188947
 40
8.898502204815518
 40
8.961422597377979
 40
8.986590754551091
 40
9.012941600733248
 40
9.07091346238033
 40
9.128885324081827
 40
9.155236170325146
 40
9.180404327929189
 40
9.243324721948262
 40
9.325121234212055
 40
9.40691774663771
 40
9.469838141978165
 40
9.49500628827094
 40
9.517811184379081
 40
9.572192090487079
 40
9.637098333281305
 40
9.691479239515502
 40
9.71428412564354
 40
9.71428412564354
 40
9.71428412564354
 40
9.71428412564354
 10
185.2874469028653
 20
15.26889163187719
 10
185.3090990569037
 20
15.2411186924281
 10
185.3597257109474
 20
15.17618054561235
 10
185.4349383202591
 20
15.06891060312898
 10
185.5248482274346
 20
14.95377438266625
 10
185.5709169676673
 20
14.85357045748319
 10
185.6655825294654
 20
14.78434006814942
 10
185.6204439320412
 20
14.73771639678274
 10
185.5947047785789
 20
14.69660308866038
 10
185.5645196708012
 20
14.66065971727939
 10
185.5193684730561
 20
14.58579782596091
 10
185.4710504458562
 20
14.80782524253606
 10
185.3968539713073
 20
14.84510677337709
 10
185.2836047324607
 20
15.11610202130601
 10
185.2885133578169
 20
15.00095328446228
 10
185.2868486556306
 20
14.92836675781627
 10
185.2876830076713
 20
14.80625588483985
 10
185.2873609540265
 20
14.6591380081046
 10
185.2875076912455
 20
14.49307063956556
 10
185.2872950092722
 20
14.32187554608602
 10
185.2879497252034
 20
14.15552828635498
 10
185.2859192461138
 20
14.00935173055692
 10
185.2913460399931
 20
13.8847104747461
 10
185.2804930868708
 20
13.81718656540625
 10
185.2956739155554
 20
13.75549061417021
 10
185.2457895108134
 20
13.76727503897001
 10
185.2017150342522
 20
13.75943822779968
 10
185.1582371630201
 20
13.76760441372702
 10
185.1092346786488
 20
13.75538056738467
 10
185.1218731234825
 20
13.80960667249312
 10
185.1130182968449
 20
13.86936918907556
 10
185.1175058770314
 20
13.9792202904437
 10
185.1157960135991
 20
14.11029975405678
 10
185.1163550915986
 20
14.26198011444326
 10
185.1161928768694
 20
14.42211074929953
 10
185.1162269924674
 20
14.58236865674566
 10
185.1162514960128
 20
14.73370247520439
 10
185.1161453543224
 20
14.86582156338601
 10
185.1164299141932
 20
14.97294802533194
 10
185.1158675547567
 20
15.03808619579473
 10
185.1180765083689
 20
15.16618957858676
 10
185.0319435998602
 20
14.79097610391575
 10
184.9555140818499
 20
14.63918193123395
 10
184.8660040767834
 20
14.47766206446305
 10
184.7640413217326
 20
14.20471848820171
 10
184.7187976491039
 20
14.3671734659651
 10
184.6102355941671
 20
14.45605432058119
 10
184.7995791751753
 20
14.60549794961408
 10
184.85653405457
 20
14.79749136974924
 10
184.9717520993352
 20
15.02899622906756
 10
184.9940151630132
 20
15.21797259759063
 10
185.1771905152139
 20
15.49454089325928
 10
185.0538033597552
 20
15.48698978832093
 10
184.9925684166834
 20
15.48856772366118
 10
184.9081999617064
 20
15.48882592573671
 10
184.8204235085966
 20
15.48544845751205
 10
184.7656768696122
 20
15.49394814982019
 10
184.7104703026025
 20
15.48048561049787
 10
184.7222823035536
 20
15.52931442126762
 10
184.7142496151794
 20
15.57269004896708
 10
184.7228186104678
 20
15.61509438309571
 10
184.7102943409157
 20
15.66267796552117
 10
184.7555101538735
 20
15.65267212995108
 10
184.8014815562723
 20
15.6589410517406
 10
184.877722204771
 20
15.65593561405871
 10
184.9561296131993
 20
15.6577044827854
 10
185.0323992648932
 20
15.65464793981659
 10
185.0783009459475
 20
15.66103971376176
 10
185.12317339654
 20
15.65093822978895
 10
185.1105552275634
 20
15.70157201581898
 10
185.1191936582707
 20
15.75501261882068
 10
185.1152361595442
 20
15.84863255131679
 10
185.1162325068335
 20
15.95112606688923
 10
185.1171927413073
 20
16.05353270248163
 10
185.1133211458005
 20
16.1473592960932
 10
185.1217789814364
 20
16.20036542840353
 10
185.1093075932835
 20
16.25211435651188
 10
185.1542106389849
 20
16.23850747226756
 10
185.1955083836772
 20
16.24100480320585
 10
185.259534428105
 20
16.23648060574487
 10
185.2986111148785
 20
16.22781003043307
 10
185.3476543498742
 20
16.23515102070686
 10
185.322508003059
 20
16.19602896051758
 10
185.2815901333723
 20
16.20563842455808
 10
185.2910109616604
 20
16.15540148169778
 10
185.2855647318746
 20
16.1038594563949
 10
185.2881699601804
 20
16.0195970758452
 10
185.2870102202154
 20
15.92559135583408
 10
185.2883591064231
 20
15.83196865395525
 10
185.284997010151
 20
15.74679517552222
 10
185.2920959917768
 20
15.69716856072043
 10
185.2812569154546
 20
15.64993694969987
 10
185.3304010225245
 20
15.66201674936851
 10
185.3794877630147
 20
15.6544739336301
 10
185.4573714280641
 20
15.65686070361432
 10
185.5350365172896
 20
15.65899381905414
 10
185.5845393931355
 20
15.65193391922454
 10
185.6344594750639
 20
15.66360151936213
 10
185.6223198516881
 20
15.61540235371392
 10
185.6305838229143
 20
15.57249219801235
 10
185.6223198650783
 20
15.52958201851383
 10
185.6344594549855
 20
15.48138288754864
 10
185.5845395158746
 20
15.49305034471509
 10
185.5350350651203
 20
15.48599202435044
 10
185.4573784382972
 20
15.48811665228603
 10
185.379464386576
 20
15.49053389365759
 10
185.3304500352716
 20
15.48291848194484
 10
185.2813246108943
 20
15.49507952557591
 10
185.2915559988571
 20
15.45073013424158
 10
185.2856677678053
 20
15.4092543620291
 10
185.287878830557
 20
15.34915394315303
 10
185.2874109346145
 20
15.30225782762889
 10
185.2874386992913
 20
15.27650146418196
 10
185.2874469028653
 20
15.26889163187719
 97
        1
330
A8
 75
     1
 76
     2
 52
45.0
 41
0.1
 77
     0
 78
     1
 53
45.0
 43
0.0
 44
0.0
 45
-0.282842712474619
 46
0.0
 79
     0
 98
        1
 10
0.0
 20
0.0
  0
HATCH
  5
C6
330
48
100
AcDbEntity
  8
1
  6
Continuous
 62
     2
100
AcDbHatch
 10
0.0
 20
0.0
 30
0.0
210
0.0
220
0.0
230
1.0
  2
CUSTOM6
 70
     0
 71
     1
 91
        1
 92
        1
 93
        1
 72
     4
 94
        3
 73
     0
 74
     0
 95
       91
 96
       87
 40
0.0
 40
0.0
 40
0.0
 40
0.0
 40
0.0345987051695718
 40
0.1258134969461369
 40
0.2547723404888987
 40
0.4026032099154125
 40
0.5504340793416704
 40
0.679392922883608
 40
0.7706077146571035
 40
0.8052064287780925
 40
1.124852390615273
 40
1.427402236308864
 40
1.706356627453502
 40
1.955541417875186
 40
2.169485938566331
 40
2.344350786664799
 40
2.480568411561948
 40
2.59044055742897
 40
2.649189927151123
 40
2.749320643306325
 40
2.91263273988003
 40
3.14774565600023
 40
3.244827496385125
 40
3.338490056946714
 40
3.583815413207143
 40
3.761423943238503
 40
3.88695610436267
 40
3.985855451886832
 40
4.091766255337717
 40
4.25018647381191
 40
4.422734315084556
 40
4.628285684838649
 40
4.872093227758481
 40
5.152549652145594
 40
5.464967135837574
 40
5.803201477852489
 40
6.160362988813963
 40
6.193449448276018
 40
6.284170385501673
 40
6.419718138764543
 40
6.587285046385793
 40
6.774063446723707
 40
6.96724567811369
 40
7.154024078817676
 40
7.321590987026061
 40
7.45713874089042
 40
7.547859678556156
 40
7.580946138182716
 40
7.60853308471477
 40
7.669224367077749
 40
7.729915649429969
 40
7.757502595950022
 40
7.790278062553476
 40
7.880146277430974
 40
8.014419963180437
 40
8.180411842397938
 40
8.365434637679407
 40
8.556801071622708
 40
8.74182386683082
 40
8.90781574591633
 40
9.042089431507485
 40
9.13195764624961
 40
9.164733112797187
 40
9.41542506314011
 40
9.667986180958572
 40
9.69416980746271
 40
9.756607686047698
 40
9.83113031532259
 40
9.893568193900053
 40
9.91975182039887
 40
9.950967964690701
 40
9.996421631210813
 40
10.2208798103747
 40
10.44341866197557
 40
10.4784797078887
 40
10.5709133743877
 40
10.70159545461245
 40
10.85140174170376
 40
11.00120802880493
 40
11.13189010907398
 40
11.22432377583026
 40
11.25938480938972
 40
11.28697175596161
 40
11.34766303835935
 40
11.40835432042086
 40
11.4359412589212
 40
11.4359412589212
 40
11.4359412589212
 40
11.4359412589212
 10
190.0818114333289
 20
15.55242795125076
 10
190.0702785844941
 20
15.55242790287914
 10
190.0283409444998
 20
15.55242773704163
 10
189.9434129719026
 20
15.55243125800908
 10
189.8207688553128
 20
15.55240926435877
 10
189.6791206916993
 20
15.55250801177053
 10
189.537975369849
 20
15.5521468623242
 10
189.4141351317905
 20
15.55321883609088
 10
189.3317217825381
 20
15.55092249091268
 10
189.1727791229693
 20
15.56048569373418
 10
189.3503402353375
 20
15.1978539431137
 10
189.3379739205452
 20
14.95243127723114
 10
189.4064519473864
 20
14.66862501324834
 10
189.469302432097
 20
14.43250999939035
 10
189.5452253431728
 20
14.23326740396128
 10
189.6303189577016
 20
14.07745347451374
 10
189.7244607592935
 20
13.97657857781392
 10
189.8282648207728
 20
13.92465852638965
 10
189.9125872030774
 20
13.97606484379617
 10
189.9351322179452
 20
14.09144544037517
 10
189.9745730975371
 20
14.2188514970238
 10
189.9202919734942
 20
14.53622328086757
 10
190.0451218072473
 20
14.38982180140905
 10
190.2019291513603
 20
14.35795300331172
 10
190.0947720007057
 20
14.12421357767627
 10
190.0808711209867
 20
13.95972776583656
 10
190.0234709467225
 20
13.83130869122482
 10
189.9335020145008
 20
13.76018802352826
 10
189.8095274657878
 20
13.74432324142253
 10
189.663427319686
 20
13.7799379755417
 10
189.5243894320284
 20
13.90000570500277
 10
189.4102003962144
 20
14.07435682550319
 10
189.3146141301486
 20
14.2994660311124
 10
189.2318652572626
 20
14.56388246006442
 10
189.1807179256411
 20
14.88187933098542
 10
189.0770189207339
 20
15.15543728488912
 10
189.2042841208519
 20
15.56005818612865
 10
189.0357890623019
 20
15.55112367849677
 10
188.9511995787077
 20
15.55315961418362
 10
188.8189876387627
 20
15.55213937388405
 10
188.6560505094104
 20
15.55253230318428
 10
188.4733759170532
 20
15.55235696313367
 10
188.2847057373383
 20
15.55260105307467
 10
188.1014469020189
 20
15.55185657906235
 10
187.9404746832718
 20
15.55416360522424
 10
187.8029808335276
 20
15.54799804883661
 10
187.728959037231
 20
15.56032838458209
 10
187.6613215186857
 20
15.54329323723555
 10
187.6732373719269
 20
15.59524438447527
 10
187.6655677285694
 20
15.64071424966528
 10
187.6732592225115
 20
15.68614453703704
 10
187.6613141797761
 20
15.73802395984569
 10
187.7283588305867
 20
15.72119143490263
 10
187.8017375665676
 20
15.7333540909267
 10
187.9379128305272
 20
15.72727231074957
 10
188.0973811801512
 20
15.72954834315058
 10
188.2789173085836
 20
15.72881233998961
 10
188.4658034862179
 20
15.72905954196132
 10
188.6468012316836
 20
15.72886400799253
 10
188.8080802578878
 20
15.72932234714838
 10
188.9393882124887
 20
15.72812673751205
 10
189.0225051322596
 20
15.73051347319741
 10
189.1556236547814
 20
15.72230605725464
 10
189.0645893502659
 20
15.97752868952653
 10
188.9789633074417
 20
16.24164358328245
 10
189.0990589003454
 20
16.22904442969164
 10
189.1514264948541
 20
16.22694235763074
 10
189.2214497569717
 20
16.22535399889656
 10
189.2671922337816
 20
16.21602567538112
 10
189.3220812646933
 20
16.22545966915425
 10
189.2963574785681
 20
16.17733028655172
 10
189.1825397571453
 20
16.18266829744165
 10
189.3159346621136
 20
15.95449174576776
 10
189.1943658735471
 20
15.72156856595922
 10
189.3223188769413
 20
15.73087258884438
 10
189.4049048406461
 20
15.7280100175468
 10
189.5307214850824
 20
15.72923437412301
 10
189.6741469838057
 20
15.72932431888963
 10
189.8157420951728
 20
15.72746163183853
 10
189.9459127249967
 20
15.73333075937161
 10
190.0193452286191
 20
15.72070340823202
 10
190.0891112922096
 20
15.73877563110411
 10
190.0775772605396
 20
15.68612850546325
 10
190.0833184346682
 20
15.64221317686547
 10
190.0816615770911
 20
15.59089982676548
 10
190.0817757561669
 20
15.56158792021633
 10
190.0818114333289
 20
15.55242795125076
 97
        1
330
A9
 75
     1
 76
     2
 52
45.0
 41
0.1
 77
     0
 78
     1
 53
45.0
 43
0.0
 44
0.0
 45
-0.282842712474619
 46
0.0
 79
     0
 98
        1
 10
0.0
 20
0.0
  0
HATCH
  5
C7
330
48
100
AcDbEntity
  8
1
  6
Continuous
 62
     2
100
AcDbHatch
 10
0.0
 20
0.0
 30
0.0
210
0.0
220
0.0
230
1.0
  2
CUSTOM7
 70
     0
 71
     1
 91
        1
 92
        1
 93
        1
 72
     4
 94
        3
 73
     0
 74
     0
 95
       75
 96
       71
 40
0.0
 40
0.0
 40
0.0
 40
0.0
 40
0.0342546099129691
 40
0.1245622414432364
 40
0.2522385480897554
 40
0.3985991922940733
 40
0.5449598364980892
 40
0.6726361431438905
 40
0.7629437746737049
 40
0.7971983935298079
 40
1.101723623449672
 40
1.408591244036678
 40
1.433332471690384
 40
1.487763172450181
 40
1.542193873082012
 40
1.566935100592561
 40
1.923523931821873
 40
2.271755704953728
 40
2.590579755100916
 40
2.858943305581175
 40
2.889120339309193
 40
2.918305855191135
 40
2.941366645531256
 40
2.996357760973147
 40
3.061992318140691
 40
3.116983433626884
 40
3.140044223997562
 40
3.411273122936483
 40
3.732441619741147
 40
3.761068217532847
 40
3.837787499630407
 40
3.948858699126049
 40
4.080541049104429
 40
4.219093782625812
 40
4.350776132722366
 40
4.461847332405698
 40
4.538566614678432
 40
4.56719321254468
 40
4.594907573998938
 40
4.666381453557477
 40
4.764111044011088
 40
4.870592538125891
 40
4.968322128642342
 40
5.039796008287027
 40
5.067510369784486
 40
5.094263603185698
 40
5.153120716668331
 40
5.211977830150774
 40
5.238731063551779
 40
5.272290535139017
 40
5.363380529444878
 40
5.497618415781556
 40
5.660621563453798
 40
5.838007341749499
 40
6.015393119910851
 40
6.178396267038476
 40
6.312634151842428
 40
6.403724143059417
 40
6.437283612672513
 40
6.464036846261129
 40
6.522893960004739
 40
6.581751071484005
 40
6.608504301590948
 40
6.637253941281095
 40
6.711397748902947
 40
6.812778057283559
 40
6.923237199249336
 40
7.024617507623979
 40
7.098761315207632
 40
7.127510946007583
 40
7.127510946007583
 40
7.127510946007583
 40
7.127510946007583
 10
188.4418622390564
 20
14.95849128473264
 10
188.4418622819707
 20
14.9470731340872
 10
188.4418624481128
 20
14.90555257842628
 10
188.4418593081788
 20
14.82146922003772
 10
188.44187882798
 20
14.70004497322327
 10
188.4417912187738
 20
14.55980494047448
 10
188.442111623523
 20
14.42006556794575
 10
188.441160590974
 20
14.29745038894927
 10
188.4431978595967
 20
14.21587074438042
 10
188.4349433178745
 20
14.06271267077696
 10
188.74307979409
 20
14.2256023605472
 10
189.0350645173739
 20
14.39482938688005
 10
189.0408354448707
 20
14.25973235781911
 10
189.0455471719891
 20
14.21617221160444
 10
189.0482535411917
 20
14.17211249350544
 10
189.0672545672961
 20
14.02272590363134
 10
188.6583942247302
 20
14.0868117224126
 10
188.3793710348831
 20
13.97296341411019
 10
188.1018081587166
 20
13.87364095811141
 10
187.8099837184401
 20
13.91630687596356
 10
187.7869144678657
 20
13.8132167974454
 10
187.7537474383333
 20
13.78691091244469
 10
187.7480653962739
 20
13.83455309036304
 10
187.7284214559044
 20
13.87180336115069
 10
187.7095089485623
 20
13.93007387847564
 10
187.6942849867708
 20
13.97385201007804
 10
187.6477246372934
 20
14.0875942104631
 10
187.9890897312451
 20
14.05576301120047
 10
188.2679649367385
 20
14.02161435106477
 10
188.2617753034907
 20
14.16913976479651
 10
188.2630935452773
 20
14.24013150908831
 10
188.2624831689948
 20
14.3471976795866
 10
188.2625871570725
 20
14.47398529785997
 10
188.2629987964055
 20
14.6084924349605
 10
188.2613907841969
 20
14.73395549951184
 10
188.2659902567925
 20
14.84505246719117
 10
188.2564186502211
 20
14.90761886800688
 10
188.2704001783691
 20
14.96595388295001
 10
188.2147384386704
 20
14.95289710582238
 10
188.1575655197821
 20
14.96136307749498
 10
188.0616048925648
 20
14.95729976080636
 10
187.963376752282
 20
14.95970889852474
 10
187.8672582457561
 20
14.95551600613388
 10
187.8104648525811
 20
14.96429346441162
 10
187.7550356873384
 20
14.95094936850121
 10
187.7670679427917
 20
15.00036910959256
 10
187.7592003173938
 20
15.04393988030395
 10
187.7666295563828
 20
15.08830469118524
 10
187.7551930564144
 20
15.1390229776399
 10
187.8232102370132
 20
15.12162460757742
 10
187.8968496879747
 20
15.13417450237188
 10
188.0325064058211
 20
15.12799677011096
 10
188.1884909024525
 20
15.13029203093083
 10
188.3615926358143
 20
15.12940968262529
 10
188.5346942964181
 20
15.13029207142407
 10
188.6906789811216
 20
15.12799662955549
 10
188.8263351889797
 20
15.1341748626243
 10
188.8999756705652
 20
15.12162394218334
 10
188.9679914174724
 20
15.13902373012142
 10
188.9565590885922
 20
15.08830130414554
 10
188.9639539458297
 20
15.04397060811108
 10
188.956203991227
 20
15.00028307550196
 10
188.9681203741876
 20
14.95063590098476
 10
188.9108170223617
 20
14.96461411338426
 10
188.8520145789772
 20
14.95539755673254
 10
188.7525293633199
 20
14.95952268164929
 10
188.649428009835
 20
14.95822760025887
 10
188.5537846354573
 20
14.95854077077641
 10
188.4857467971617
 20
14.95848776697145
 10
188.4514462213443
 20
14.95849051871656
 10
188.4418622390564
 20
14.95849128473264
 97
        1
330
AA
 75
     1
 76
     2
 52
45.0
 41
0.1
 77
     0
 78
     1
 53
45.0
 43
0.0
 44
0.0
 45
-0.282842712474619
 46
0.0
 79
     0
 98
        1
 10
0.0
 20
0.0
  0
HATCH
  5
C8
330
48
100
AcDbEntity
  8
1
  6
Continuous
 62
     2
100
AcDbHatch
 10
0.0
 20
0.0
 30
0.0
210
0.0
220
0.0
230
1.0
  2
CUSTOM8
 70
     0
 71
     1
 91
        1
 92
        1
 93
        1
 72
     4
 94
        3
 73
     0
 74
     0
 95
       15
 96
       11
 40
0.0
 40
0.0
 40
0.0
 40
0.0
 40
0.2785535985096532
 40
0.521562474819888
 40
0.6076917376040516
 40
0.6938210001741238
 40
0.9405019146455076
 40
1.221691403489141
 40
1.300471877081058
 40
1.379252341684821
 40
1.379252341684821
 40
1.379252341684821
 40
1.379252341684821
 10
189.5681493630999
 20
16.2293026733038
 10
189.6296017794178
 20
16.17691646592715
 10
189.7446649974113
 20
16.07882876798222
 10
190.0397348497244
 20
15.92889785897221
 10
189.9025147631856
 20
15.84343227515013
 10
189.8041227843778
 20
15.71085785201554
 10
189.7130033590649
 20
16.01616985781419
 10
189.3636839480655
 20
16.07967869465374
 10
189.511925837657
 20
16.17896509880877
 10
189.5494081874237
 20
16.21252348402382
 10
189.5681493630999
 20
16.2293026733038
 97
        1
330
AB
 75
     1
 76
     2
 52
45.0
 41
0.1
 77
     0
 78
     1
 53
45.0
 43
0.0
 44
0.0
 45
-0.282842712474619
 46
0.0
 79
     0
 98
        1
 10
0.0
 20
0.0
  0
HATCH
  5
C9
330
48
100
AcDbEntity
  8
1
  6
Continuous
 62
     2
100
AcDbHatch
 10
0.0
 20
0.0
 30
0.0
210
0.0
220
0.0
230
1.0
  2
CUSTOM9
 70
     0
 71
     1
 91
        1
 92
        1
 93
        1
 72
     4
 94
        3
 73
     0
 74
     0
 95
       35
 96
       31
 40
0.0
 40
0.0
 40
0.0
 40
0.0
 40
0.0335231036620562
 40
0.0713218571711968
 40
0.4278866681486973
 40
0.8116865841964018
 40
1.198190238000063
 40
1.561379546812693
 40
1.659983174622073
 40
1.7593155738072
 40
2.132719617231086
 40
2.525233363588836
 40
2.910815397779705
 40
3.265244364303295
 40
3.592606723582034
 40
3.964386154603981
 40
4.359942131737825
 40
4.758154118639309
 40
4.843846538699919
 40
4.93665006554324
 40
5.25661660253732
 40
5.581707404416054
 40
5.899719158308149
 40
6.198363494280751
 40
6.466301046615784
 40
6.493895311537106
 40
6.559697020196898
 40
6.638234543442474
 40
6.704036252154227
 40
6.731630508423033
 40
6.731630508423033
 40
6.731630508423033
 40
6.731630508423033
 10
191.9736010568669
 20
16.23463843719133
 10
191.9676006097788
 20
16.22480690542323
 10
191.9548344099156
 20
16.20388988579798
 10
191.7949362006556
 20
16.17127126532691
 10
192.2322025842335
 20
15.882066803367
 10
192.4345394828263
 20
15.68041138358439
 10
192.6819564267973
 20
15.43749387603277
 10
193.1831513624606
 20
15.36047662757772
 10
193.012556219897
 20
15.21876939174657
 10
192.9383299463201
 20
15.01710366209104
 10
192.6131432248188
 20
15.36956287174727
 10
192.3277741670663
 20
15.5317521255956
 10
192.0337604077658
 20
15.73687130053047
 10
191.8084452691134
 20
16.21827488595454
 10
191.5993085055522
 20
15.75343046609223
 10
191.3207873674833
 20
15.5435095225291
 10
191.0371383177209
 20
15.37424456359987
 10
190.7078639527831
 20
15.00142360907936
 10
190.6277012318224
 20
15.19708014459001
 10
190.4759724909744
 20
15.32491104190595
 10
190.9083395826795
 20
15.40454031765936
 10
191.0962565329766
 20
15.60026634915472
 10
191.3468477420502
 20
15.81632996916755
 10
191.5714350470161
 20
15.98190992300057
 10
191.6259775409712
 20
16.26133964636828
 10
191.7494661029011
 20
16.24737950408077
 10
191.806027334452
 20
16.24521268867647
 10
191.8761870984944
 20
16.24046859881359
 10
191.9333414022106
 20
16.2370942935054
 10
191.9644190320839
 20
16.23519854711118
 10
191.9736010568669
 20
16.23463843719133
 97
        1
330
AC
 75
     1
 76
     2
 52
45.0
 41
0.1
 77
     0
 78
     1
 53
45.0
 43
0.0
 44
0.0
 45
-0.282842712474619
 46
0.0
 79
     0
 98
        1
 10
0.0
 20
0.0
  0
HATCH
  5
CA
330
48
100
AcDbEntity
  8
1
  6
Continuous
 62
     2
100
AcDbHatch
 10
0.0
 20
0.0
 30
0.0
210
0.0
220
0.0
230
1.0
  2
CUSTOM10
 70
     0
 71
     1
 91
        1
 92
        1
 93
        1
 72
     4
 94
        3
 73
     0
 74
     0
 95
       91
 96
       87
 40
0.0
 40
0.0
 40
0.0
 40
0.0
 40
0.0267532254356701
 40
0.0856103386464155
 40
0.1444674521996709
 40
0.1712206856618621
 40
0.2039416005642643
 40
0.2955601971652591
 40
0.4362601844617024
 40
0.6162252844507357
 40
0.8256392189704804
 40
1.054685709844421
 40
1.293548478893542
 40
1.532411247938314
 40
1.761457738799579
 40
1.970871673298547
 40
2.150836773256743
 40
2.291536760495604
 40
2.383155356836711
 40
2.415876284101331
 40
2.442629517487977
 40
2.501486630949111
 40
2.560343744424261
 40
2.587096977826536
 40
2.617068194440964
 40
2.699247336756105
 40
2.822032643466417
 40
2.973822353257947
 40
3.143014704823389
 40
3.318007936879968
 40
3.487200288186801
 40
3.638989997548282
 40
3.761775303794781
 40
3.843954445753115
 40
3.873925662229811
 40
3.890812773500519
 40
3.907699884771697
 40
3.937960767857304
 40
3.980983618142336
 40
4.199085915228483
 40
4.439444339237273
 40
4.677588241260915
 40
5.050698317837801
 40
5.448212454763187
 40
5.855291218044712
 40
6.138575438885376
 40
6.417434507584216
 40
6.444551104393875
 40
6.504207617363176
 40
6.563864130314474
 40
6.590980727104044
 40
6.848609460381451
 40
7.109611990668451
 40
7.352910904446114
 40
7.557830220705487
 40
7.587518925913405
 40
7.652834077375846
 40
7.718149228845852
 40
7.747837934062131
 40
7.854880190301039
 40
7.976511257403584
 40
8.369487896592386
 40
8.757514959223679
 40
9.126072419331141
 40
9.460639380392204
 40
9.746695593035945
 40
9.777569943118722
 40
9.807050320931822
 40
9.830377336128954
 40
9.886003295436028
 40
9.95239556942994
 40
10.00802152870629
 40
10.03134854388222
 40
10.21356951009592
 40
10.42203479292875
 40
10.66154556731067
 40
10.91693789564308
 40
11.15832906556568
 40
11.18982674596626
 40
11.2728660852041
 40
11.39026653033352
 40
11.52484752840889
 40
11.65942852648451
 40
11.77682897161487
 40
11.85986831085686
 40
11.89136598230431
 40
11.89136598230431
 40
11.89136598230431
 40
11.89136598230431
 10
190.7027885008196
 20
14.70699600701771
 10
190.7028237765288
 20
14.71587847311984
 10
190.7029366710796
 20
14.74430237047345
 10
190.7012984568489
 20
14.79409639169803
 10
190.7069750292911
 20
14.83657564478154
 10
190.6956928731706
 20
14.88730154856847
 10
190.7632296979031
 20
14.87012900740109
 10
190.83880292107
 20
14.88290227165996
 10
190.9828357056
 20
14.87629729457382
 10
191.1569419185427
 20
14.87888462206466
 10
191.3639599611003
 20
14.87800591955553
 10
191.5894688172378
 20
14.87828207920027
 10
191.8251162293406
 20
14.87818339658662
 10
192.0607640531348
 20
14.87828184412767
 10
192.2862717580626
 20
14.87800678190789
 10
192.4932934632805
 20
14.87888186270735
 10
192.6673888915288
 20
14.87630522678446
 10
192.8114492071986
 20
14.88288290449213
 10
192.8869691915293
 20
14.87016243405605
 10
192.954577603703
 20
14.88726400191686
 10
192.9430840140676
 20
14.83674785802941
 10
192.9505104581733
 20
14.792532522265
 10
192.9428838927986
 20
14.74867966503609
 10
192.9546489459425
 20
14.69878374479327
 10
192.8930788491983
 20
14.71393227712511
 10
192.8256791738671
 20
14.70310665350673
 10
192.7013004056222
 20
14.70852031626235
 10
192.555442823657
 20
14.70649205390784
 10
192.3893576440086
 20
14.70715777578385
 10
192.2188412621724
 20
14.70689643521241
 10
192.0519790855388
 20
14.70721553391093
 10
191.9087346827105
 20
14.70635302590761
 10
191.7773313869834
 20
14.70863300482987
 10
191.7239859134656
 20
14.70407704374201
 10
191.6485188456912
 20
14.70999914992876
 10
191.6769075779232
 20
14.70094169343351
 10
191.7033652409542
 20
14.69725912268928
 10
191.6633522907701
 20
14.66654271968273
 10
191.5713663691867
 20
14.67667591174634
 10
191.543939620707
 20
14.43032502247784
 10
191.4478793967233
 20
14.27499558764374
 10
191.1917277964474
 20
13.94525417931568
 10
191.7627537732762
 20
14.08430022210451
 10
192.0173656320516
 20
14.08291779973363
 10
192.6279647048616
 20
13.99790569242085
 10
192.3340698578085
 20
14.29685417558206
 10
192.0133304286514
 20
14.44330856901772
 10
192.1313543360434
 20
14.50025540818288
 10
192.1724716466261
 20
14.52420099873347
 10
192.215681239441
 20
14.54599758811229
 10
192.317457409445
 20
14.60928721253908
 10
192.4328867625246
 20
14.35147151408776
 10
192.6329591642277
 20
14.21616041113684
 10
192.7269077387228
 20
14.03792795138881
 10
192.9558829746391
 20
13.87997821027048
 10
192.8596031846708
 20
13.82915972576298
 10
192.8167959763778
 20
13.79881292523051
 10
192.7718243528778
 20
13.77466130281462
 10
192.7121720925213
 20
13.72552146747567
 10
192.6789731061325
 20
13.85997475673613
 10
192.5582013350795
 20
14.01594265286578
 10
192.1970976005978
 20
13.88569928059557
 10
191.8385061955541
 20
13.90224694409483
 10
191.457092045008
 20
13.89331229351865
 10
191.170345528289
 20
13.82882671672408
 10
190.8592055599715
 20
13.94230668192826
 10
190.8268737818788
 20
13.83122259927768
 10
190.7896178253318
 20
13.81196313850012
 10
190.7865737632754
 20
13.85874784087297
 10
190.7679892860607
 20
13.89806853919134
 10
190.7512436616778
 20
13.95765983478232
 10
190.7383730915753
 20
14.00201969871282
 10
190.704232780643
 20
14.091063311202
 10
190.9482714457753
 20
14.02181042943769
 10
191.1441394486671
 20
14.00030369057743
 10
191.2395426381277
 20
14.28226484478462
 10
191.2945135769598
 20
14.44363045421122
 10
191.5159619357155
 20
14.71391177589737
 10
191.3849239381217
 20
14.70548446853734
 10
191.3110026555853
 20
14.70779008496969
 10
191.1977459876244
 20
14.70671378321657
 10
191.0694251807484
 20
14.70707639076509
 10
190.9404252030415
 20
14.70697724466084
 10
190.828784094629
 20
14.70699932712571
 10
190.7514663970026
 20
14.70699579189669
 10
190.713287653201
 20
14.7069959584508
 10
190.7027885008196
 20
14.70699600701771
 97
        1
330
AD
 75
     1
 76
     2
 52
45.0
 41
0.1
 77
     0
 78
     1
 53
45.0
 43
0.0
 44
0.0
 45
-0.282842712474619
 46
0.0
 79
     0
 98
        1
 10
0.0
 20
0.0
  0
HATCH
  5
CB
330
48
100
AcDbEntity
  8
1
  6
Continuous
 62
     2
100
AcDbHatch
 10
0.0
 20
0.0
 30
0.0
210
0.0
220
0.0
230
1.0
  2
CUSTOM11
 70
     0
 71
     1
 91
        1
 92
        1
 93
        1
 72
     4
 94
        3
 73
     0
 74
     0
 95
      131
 96
      127
 40
0.0
 40
0.0
 40
0.0
 40
0.0
 40
0.0195577029826344
 40
0.0426490537462196
 40
0.2863607575857054
 40
0.5344948436189585
 40
0.7842238845573497
 40
0.8737315789467662
 40
0.9803832810313159
 40
1.092842274517063
 40
1.199761146656821
 40
1.289788768186525
 40
1.351573580786215
 40
1.370727117561461
 40
1.41640093601787
 40
1.470914848356031
 40
1.51658866679182
 40
1.535742203552918
 40
1.634216592293225
 40
1.76028334117504
 40
1.8979666866821
 40
2.03121638736892
 40
2.049689751137914
 40
2.10111560164685
 40
2.179502577739967
 40
2.278859318314082
 40
2.393194462258736
 40
2.516516648383849
 40
2.642834515405974
 40
2.766156701983476
 40
2.880491846754589
 40
2.97984858835863
 40
3.058235565443807
 40
3.109661416668962
 40
3.128134780704137
 40
3.146783742386454
 40
3.191254343315315
 40
3.244332157315974
 40
3.288802758225877
 40
3.30745171989512
 40
3.327717853844733
 40
3.383747753580092
 40
3.468388665924483
 40
3.574487837698792
 40
3.694892515728895
 40
3.822449946852034
 40
3.950007377920423
 40
4.070412055800515
 40
4.176511227368071
 40
4.261152139501517
 40
4.317182039076711
 40
4.337448172964629
 40
4.620011002696248
 40
4.885096638397516
 40
4.945373043518335
 40
5.01410771048865
 40
5.070481727652046
 40
5.31924695563657
 40
5.584812164506042
 40
5.859000912056893
 40
6.133746937542075
 40
6.401732212968878
 40
6.420736683995469
 40
6.472845717451119
 40
6.550702743894047
 40
6.646951193874256
 40
6.75423449793058
 40
6.865196086587358
 40
6.972479390357816
 40
7.068727839771978
 40
7.146584865450987
 40
7.198693898189217
 40
7.217698368905357
 40
7.234950401630836
 40
7.27608986426988
 40
7.325191803515989
 40
7.366331266090376
 40
7.383583298769728
 40
7.402779163492105
 40
7.453386443254536
 40
7.524934666445538
 40
7.606953361405878
 40
7.688972056429029
 40
7.76052027978428
 40
7.811127559734522
 40
7.830323424546143
 40
7.847844055299773
 40
7.894799345666812
 40
7.962779392744499
 40
8.043374293560547
 40
8.12817414514945
 40
8.20876904481725
 40
8.276749090376951
 40
8.323704379669513
 40
8.341225010056244
 40
8.358497614800392
 40
8.401679126686597
 40
8.457815092185655
 40
8.51395105772806
 40
8.557132569708015
 40
8.574405174505058
 40
8.602340668616412
 40
8.643455660539953
 40
8.66322527196662
 40
8.715345156564268
 40
8.789031889628603
 40
8.873502045520333
 40
8.957972194323956
 40
9.031658925567847
 40
9.083778811234538
 40
9.103548423003
 40
9.119550083123537
 40
9.160817522379839
 40
9.217244429110204
 40
9.27872449164469
 40
9.335151398295475
 40
9.37641883735777
 40
9.392420497300558
 40
9.401196302734776
 40
9.41749422938425
 40
9.42627002774952
 40
9.440875075477551
 40
9.475702496998732
 40
9.517270709865894
 40
9.552098131994061
 40
9.566703169884269
 40
9.566703169884269
 40
9.566703169884269
 40
9.566703169884269
 10
194.6170254148479
 20
15.67015871511027
 10
194.6134345093371
 20
15.66453690702159
 10
194.6056039123624
 20
15.6522775441911
 10
194.5129968974549
 20
15.61601916040982
 10
194.4887622233245
 20
15.40148444212708
 10
194.385870984594
 20
15.22197284509708
 10
194.1220492364305
 20
15.03615573798144
 10
194.284547156918
 20
14.9595933656608
 10
194.3607225760838
 20
14.89856693195441
 10
194.4492171072758
 20
14.83515804544759
 10
194.538993023311
 20
14.7752563421956
 10
194.5883817636046
 20
14.72102154849207
 10
194.6745708157382
 20
14.69286240541833
 10
194.6411260674229
 20
14.65713309652812
 10
194.621467116631
 20
14.62550387991905
 10
194.5919888217882
 20
14.58475872796071
 10
194.5688989446031
 20
14.55504663489642
 10
194.5380205968355
 20
14.50211422668497
 10
194.472919336574
 20
14.62740334938902
 10
194.3796000122415
 20
14.68213900233934
 10
194.295063628514
 20
14.73916423939343
 10
194.1722498125741
 20
14.89675287427521
 10
194.1764450847302
 20
14.82035806766836
 10
194.1751478652677
 20
14.77361280161294
 10
194.1758126448076
 20
14.695847858126
 10
194.1755549986956
 20
14.59902068324422
 10
194.1756431239921
 20
14.48650279078808
 10
194.1756077302281
 20
14.36524085945699
 10
194.1756511758278
 20
14.24086897858961
 10
194.1755199942406
 20
14.11967683631336
 10
194.1759477562046
 20
14.00691148919743
 10
194.174667820231
 20
13.91082913768744
 10
194.1779759851044
 20
13.831138264687
 10
194.1715197740086
 20
13.78815175788784
 10
194.1806208705556
 20
13.74955432372043
 10
194.1447910339935
 20
13.7581088772407
 10
194.1115223815252
 20
13.75342519985446
 10
194.060456257604
 20
13.75351298759784
 10
194.0269723972813
 20
13.75794430283821
 10
193.9907585408754
 20
13.74960793842509
 10
194.0009782568665
 20
13.79145277179284
 10
193.9936487887773
 20
13.83778560820173
 10
193.9973633136103
 20
13.92374831106015
 10
193.9959480554896
 20
14.02605142704849
 10
193.9964105554638
 20
14.14453223931512
 10
193.996277368623
 20
14.26957683153356
 10
193.9963015910045
 20
14.3947582810705
 10
193.9963354925551
 20
14.51286645379058
 10
193.9962060293132
 20
14.61628748709516
 10
193.9965507549081
 20
14.69932036153667
 10
193.9958698278689
 20
14.75143368521243
 10
193.9994586600624
 20
14.87912907821363
 10
193.7826171386436
 20
14.58048716819618
 10
193.602135492195
 20
14.35263981511514
 10
193.5490322295611
 20
14.49373443289814
 10
193.5200429133149
 20
14.54325767560942
 10
193.419664806282
 20
14.64641779790106
 10
193.7405127723261
 20
14.72695035023778
 10
193.8689897005429
 20
14.91066283036434
 10
194.0906454325359
 20
15.11931995771762
 10
194.1770224894069
 20
15.29339211228344
 10
194.4549394229074
 20
15.5696705134251
 10
194.3346247839284
 20
15.56534559551114
 10
194.2863197351348
 20
15.56614856202552
 10
194.2102377454905
 20
15.56574582146584
 10
194.116701000975
 20
15.56590275611609
 10
194.0117594788557
 20
15.56582502576224
 10
193.9033887738717
 20
15.56595464378554
 10
193.7981454235897
 20
15.56554393490692
 10
193.7056237819412
 20
15.56682073671591
 10
193.6268130800708
 20
15.5634076653485
 10
193.5839674565379
 20
15.5702335003632
 10
193.5449499586516
 20
15.56065064201123
 10
193.5526365271863
 20
15.59420779565543
 10
193.5485464404312
 20
15.62523550322233
 10
193.5485531368814
 20
15.672365292709
 10
193.5526239724911
 20
15.70340941646779
 10
193.5449495574582
 20
15.73701861635901
 10
193.5834819405494
 20
15.72748410420872
 10
193.624122801448
 20
15.73397435498071
 10
193.6951471850463
 20
15.73100150650254
 10
193.7729318149633
 20
15.73174761399158
 10
193.8507292246474
 20
15.73247814044525
 10
193.9217232089907
 20
15.7295423551416
 10
193.962427979182
 20
15.73595468772952
 10
194.000985348991
 20
15.72650524176004
 10
193.9927342754927
 20
15.76264692158784
 10
193.9982346669358
 20
15.80129837613226
 10
193.9955754206163
 20
15.86913528561839
 10
193.9965815471533
 20
15.94591641538739
 10
193.9960178018318
 20
16.02849393582756
 10
193.9970714526593
 20
16.10517329229877
 10
193.994267586313
 20
16.17331990776699
 10
194.0000702721303
 20
16.21132399809345
 10
193.9915654551159
 20
16.24758448077645
 10
194.0255610233125
 20
16.23755723771851
 10
194.0594575683099
 20
16.24073266813706
 10
194.1126669060346
 20
16.23508965640608
 10
194.1660768574482
 20
16.23434774436424
 10
194.1995914649491
 20
16.22819223482979
 10
194.2388086183039
 20
16.23346029773592
 10
194.2120263698492
 20
16.19253380793489
 10
194.1708111001723
 20
16.2037120453811
 10
194.1782641540873
 20
16.15867056192124
 10
194.1742227952185
 20
16.11412278028144
 10
194.176171404964
 20
16.04223572621703
 10
194.1752364849758
 20
15.96168630588771
 10
194.176510719003
 20
15.88173995404994
 10
194.1732043793863
 20
15.80841837083183
 10
194.1802106179961
 20
15.76688643002568
 10
194.1701440380126
 20
15.72752418568113
 10
194.2029814803921
 20
15.73468063430981
 10
194.236457729648
 20
15.73027243137945
 10
194.2915053476019
 20
15.73217943347897
 10
194.3489502595314
 20
15.73185366407288
 10
194.4023026248309
 20
15.73106308733082
 10
194.4398540896638
 20
15.73313959118073
 10
194.4623172523237
 20
15.7302233816711
 10
194.4751678073731
 20
15.73572552644055
 10
194.4858255685889
 20
15.7380111819779
 10
194.4986635650143
 20
15.74494972588051
 10
194.514599103307
 20
15.72853046313671
 10
194.5410623920892
 20
15.71709122319448
 10
194.5726805253757
 20
15.6964468783519
 10
194.5987255892151
 20
15.68116869628294
 10
194.6128517723973
 20
15.67266976323183
 10
194.6170254148479
 20
15.67015871511027
 97
        1
330
AE
 75
     1
 76
     2
 52
45.0
 41
0.1
 77
     0
 78
     1
 53
45.0
 43
0.0
 44
0.0
 45
-0.282842712474619
 46
0.0
 79
     0
 98
        1
 10
0.0
 20
0.0
  0
HATCH
  5
CC
330
48
100
AcDbEntity
  8
1
  6
Continuous
 62
     2
100
AcDbHatch
 10
0.0
 20
0.0
 30
0.0
210
0.0
220
0.0
230
1.0
  2
CUSTOM12
 70
     0
 71
     1
 91
        1
 92
        1
 93
        1
 72
     4
 94
        3
 73
     0
 74
     0
 95
      124
 96
      120
 40
0.0
 40
0.0
 40
0.0
 40
0.0
 40
0.027818722962451
 40
0.1011590162384269
 40
0.2048470170590239
 40
0.3237088716559245
 40
0.4425707262522
 40
0.5462587270699547
 40
0.6195990203311798
 40
0.647417752257866
 40
0.6750060736115224
 40
0.7357003855242741
 40
0.7963946998054474
 40
0.8239830245571766
 40
0.854093381110286
 40
0.937339662940954
 40
1.063094687343235
 40
1.220731268638073
 40
1.399622220914748
 40
1.589140358637732
 40
1.778658496423898
 40
1.957549448940509
 40
2.115186030873159
 40
2.240941056914463
 40
2.324187341760532
 40
2.354297700109382
 40
2.38188602467189
 40
2.442580338710477
 40
2.503274652750499
 40
2.530862977314606
 40
2.560983949278559
 40
2.640393784452905
 40
2.752662861759128
 40
2.881361560118145
 40
3.010060258455192
 40
3.122329335705339
 40
3.201739170817953
 40
3.231860142753313
 40
3.26429802403037
 40
3.352343701778241
 40
3.482095226868764
 40
3.639650650173025
 40
3.811108022565485
 40
3.982565394927991
 40
4.140120818152572
 40
4.269872343141285
 40
4.357918020802347
 40
4.390355902043976
 40
4.423256253992546
 40
4.508104530073067
 40
4.624121560636834
 40
4.750528176031591
 40
4.866545206602038
 40
4.951393482691995
 40
4.984293834645396
 40
5.011450833242312
 40
5.071196230152096
 40
5.130941627057175
 40
5.158098625648839
 40
5.19099897760153
 40
5.275847253689355
 40
5.39186428425679
 40
5.518270899648335
 40
5.634287930209374
 40
5.719136206288048
 40
5.752036558235935
 40
5.782130946282961
 40
5.862783906229136
 40
5.979550131775002
 40
6.117984316640409
 40
6.263641154587954
 40
6.40207533941416
 40
6.518841564907954
 40
6.599494524815536
 40
6.629588912848773
 40
6.65440302822635
 40
6.713575149488117
 40
6.784199939329434
 40
6.843372060493536
 40
6.868186175802782
 40
6.896246243201868
 40
6.939586233758265
 40
6.967846564564892
 40
7.043584251089827
 40
7.153234334451685
 40
7.283231855734439
 40
7.420011856035469
 40
7.550009376579817
 40
7.659659458835216
 40
7.73539714441721
 40
7.763657474851382
 40
7.796409728011039
 40
7.880876065096313
 40
7.996370852465699
 40
8.122208446418593
 40
8.237703224799187
 40
8.322169562010881
 40
8.354921815205895
 40
8.382078813307675
 40
8.441824209206981
 40
8.501569605240132
 40
8.52872660348571
 40
8.561478856695759
 40
8.64594519387781
 40
8.76143998086532
 40
8.887277580764463
 40
9.002772362000984
 40
9.087238696661204
 40
9.119990949235659
 40
9.152428830613358
 40
9.240474508638574
 40
9.370226034149528
 40
9.52778145798441
 40
9.6992388309814
 40
9.870696203978593
 40
10.02825162781401
 40
10.15800315332563
 40
10.24604883135118
 40
10.27848670378521
 40
10.27848670378521
 40
10.27848670378521
 40
10.27848670378521
 10
195.3821827564383
 20
14.01410517385756
 10
195.3914554737523
 20
14.01410498511273
 10
195.4251744536861
 20
14.01410430876713
 10
195.4934706812465
 20
14.01411807243304
 10
195.592014171158
 20
14.01403224219544
 10
195.7062066464812
 20
14.01441755612249
 10
195.818589441707
 20
14.01300835897544
 10
195.9214376600118
 20
14.01719117422242
 10
195.9806839874849
 20
14.00823089251982
 10
196.0371265937033
 20
14.0216443452606
 10
196.0246255586955
 20
13.97087198613361
 10
196.0329549635703
 20
13.92589320939065
 10
196.024817084112
 20
13.88056752990487
 10
196.0370529214457
 20
13.82931932408465
 10
195.9747773490333
 20
13.84447955365275
 10
195.9060513026868
 20
13.83359750710742
 10
195.7782756749592
 20
13.83911304747971
 10
195.6262984511643
 20
13.83700851253697
 10
195.4502695972523
 20
13.83771002588473
 10
195.2644431934287
 20
13.8374523753129
 10
195.0786167437175
 20
13.83771005144602
 10
194.9025880142168
 20
13.8370084184773
 10
194.7506104154195
 20
13.83911332229988
 10
194.6228357664554
 20
13.83359680767639
 10
194.5541077836581
 20
13.84448077125941
 10
194.4918349042883
 20
13.82931786684209
 10
194.5040616290017
 20
13.8805751080517
 10
194.4960004462597
 20
13.92582473272424
 10
194.5040675809892
 20
13.97106357955322
 10
194.4918238487083
 20
14.02234176909957
 10
194.5525017120697
 20
14.00749577363134
 10
194.6162810745736
 20
14.01756448170734
 10
194.7277314353502
 20
14.01294644211998
 10
194.8497533443824
 20
14.01413328905468
 10
194.9719538137823
 20
14.01515863900633
 10
195.0829794287392
 20
14.010924756234
 10
195.1476517413958
 20
14.02018584521738
 10
195.2091162810501
 20
14.00604423049682
 10
195.1930065601337
 20
14.07235527884516
 10
195.2042980327359
 20
14.14447790121975
 10
195.198740082256
 20
14.27513760888285
 10
195.2008035061691
 20
14.42607323708241
 10
195.2000167127295
 20
14.59335873107885
 10
195.2007845215627
 20
14.76061110332302
 10
195.1988038785628
 20
14.91163289269914
 10
195.204130615662
 20
15.04206069552995
 10
195.1933101388425
 20
15.11465442605899
 10
195.2090326429875
 20
15.18150469436798
 10
195.143270813249
 20
15.16580512490824
 10
195.0756367830764
 20
15.17609243083996
 10
194.9615885293809
 20
15.17113786847121
 10
194.8451242674902
 20
15.17414128030475
 10
194.7306554121477
 20
15.16880303143389
 10
194.6640324657812
 20
15.18001268074824
 10
194.5990769715186
 20
15.16349132665011
 10
194.6107989758708
 20
15.21473720477059
 10
194.6032830189121
 20
15.2595033378409
 10
194.6107989878835
 20
15.30426944897961
 10
194.5990769505347
 20
15.35551536129741
 10
194.66403263392
 20
15.33899381766815
 10
194.7306533339821
 20
15.35020571373944
 10
194.8451352858063
 20
15.34485436710664
 10
194.9615454436962
 20
15.34791188771117
 10
195.0757660174641
 20
15.34278499010708
 10
195.1430150439227
 20
15.35345733355598
 10
195.2083325941438
 20
15.33742082669077
 10
195.1941391448553
 20
15.39949685750054
 10
195.2036059462994
 20
15.46586761628762
 10
195.1990269004085
 20
15.58239972741966
 10
195.2007696555948
 20
15.71426685022376
 10
195.1997551495391
 20
15.85615960150273
 10
195.2017191344373
 20
15.9876905070258
 10
195.1964668553851
 20
16.10524577283002
 10
195.2073408763474
 20
16.16947789001584
 10
195.1919536641853
 20
16.23108802545047
 10
195.24075915378
 20
16.21702407382111
 10
195.2853995564726
 20
16.21954742075314
 10
195.3538643946742
 20
16.2151279740171
 10
195.3959106169102
 20
16.20613025544035
 10
195.4487544758775
 20
16.21411714866511
 10
195.4207035002014
 20
16.17113917611673
 10
195.3749142248594
 20
16.18259552043836
 10
195.3869539073265
 20
16.12173520005136
 10
195.379608607064
 20
16.05769299468772
 10
195.3831195826162
 20
15.94909368863911
 10
195.3819806760173
 20
15.82494319144752
 10
195.3819174780263
 20
15.69189719829878
 10
195.3832872966867
 20
15.56797381249555
 10
195.3791638801313
 20
15.45868337849338
 10
195.3877763103564
 20
15.3960858009417
 10
195.3746757454401
 20
15.33740133296365
 10
195.4393884328198
 20
15.35362113810902
 10
195.5060405953156
 20
15.34270260383311
 10
195.6198779541102
 20
15.34793740173756
 10
195.7357259122097
 20
15.34485547516913
 10
195.849692426328
 20
15.35018259812512
 10
195.91603410181
 20
15.33904208166543
 10
195.9807188525479
 20
15.35546979593178
 10
195.9689820772722
 20
15.3042592521005
 10
195.976516806304
 20
15.25950334121001
 10
195.9689820992257
 20
15.21474739010027
 10
195.9807188140736
 20
15.1635369087104
 10
195.9160344075252
 20
15.1799642779422
 10
195.8496886430824
 20
15.16882784447269
 10
195.7357459487012
 20
15.1741311589312
 10
195.6197995623054
 20
15.17114764593544
 10
195.5062756882122
 20
15.17606892268393
 10
195.4389231318804
 20
15.1658508751352
 10
195.3734285122495
 20
15.18145996138815
 10
195.3891713619218
 20
15.11463851827411
 10
195.3783275998212
 20
15.04207057815878
 10
195.3836581629793
 20
14.91162247614416
 10
195.3817136151854
 20
14.76064558185225
 10
195.3823133683214
 20
14.59322243934158
 10
195.3821506559604
 20
14.4265617611837
 10
195.3821895488136
 20
14.27360142921635
 10
195.38218164131
 20
14.14849178985704
 10
195.3821828382744
 20
14.06507890991419
 10
195.3821827716208
 20
14.02491778281974
 10
195.3821827564383
 20
14.01410517385756
 97
        1
330
AF
 75
     1
 76
     2
 52
45.0
 41
0.1
 77
     0
 78
     1
 53
45.0
 43
0.0
 44
0.0
 45
-0.282842712474619
 46
0.0
 79
     0
 98
        1
 10
0.0
 20
0.0
  0
HATCH
  5
CD
330
48
100
AcDbEntity
  8
1
  6
Continuous
 62
     2
100
AcDbHatch
 10
0.0
 20
0.0
 30
0.0
210
0.0
220
0.0
230
1.0
  2
CUSTOM13
 70
     0
 71
     1
 91
        1
 92
        1
 93
        3
 72
     4
 94
        3
 73
     0
 74
     0
 95
       24
 96
       20
 40
0.0
 40
0.0
 40
0.0
 40
0.0
 40
0.2211075008753901
 40
0.4273218586245225
 40
0.5080174679239218
 40
0.5914835907870112
 40
0.8143265690192547
 40
1.054651302686566
 40
1.295452694023155
 40
1.518109231328816
 40
1.540864321905431
 40
1.595126460622693
 40
1.659890947896007
 40
1.714153085187366
 40
1.736908174961667
 40
1.764951100735348
 40
1.801562291220937
 40
1.953914424543612
 40
2.126104167379693
 40
2.126104167379693
 40
2.126104167379693
 40
2.126104167379693
 10
185.9375369556889
 20
15.58989295113015
 10
185.9112579081811
 20
15.53097628234373
 10
185.8604698894426
 20
15.41711139679258
 10
185.813178483911
 20
15.14441958233115
 10
185.7043482802619
 20
15.24445482575454
 10
185.5514800279636
 20
15.2711859336733
 10
185.76861551812
 20
15.48518135017632
 10
185.783848367438
 20
15.70332117782486
 10
185.8906889492
 20
15.88451579066425
 10
185.8305380947077
 20
16.16913226311402
 10
185.9334317395402
 20
16.1411408922245
 10
185.9779933468149
 20
16.13243251602299
 10
186.0380842395397
 20
16.12139654183354
 10
186.0756619587438
 20
16.10767523055559
 10
186.1252466928606
 20
16.10756076160221
 10
186.0930158919325
 20
16.07306592398623
 10
186.0171802221881
 20
16.08404104537963
 10
186.0429447159694
 20
15.89858969582449
 10
186.005589676385
 20
15.80702313549589
 10
185.9857704961609
 20
15.75844135397705
 72
     4
 94
        3
 73
     0
 74
     0
 95
       70
 96
       66
 40
0.0
 40
0.0
 40
0.0
 40
0.0
 40
0.0241731073021472
 40
0.0846058988987013
 40
0.1631685280353284
 40
0.2417311571789756
 40
0.3021639488292751
 40
0.3263370654895541
 40
0.3533118254248881
 40
0.4228783438922111
 40
0.5179999095313402
 40
0.6216398239466102
 40
0.7167613891499706
 40
0.7863279069649863
 40
0.8133026791761836
 40
0.8372943998771676
 40
0.8945054261372871
 40
0.9627895541962641
 40
1.020000580349074
 40
1.043992300975173
 40
1.071934345522897
 40
1.113121768772908
 40
1.145225199332233
 40
1.225483775412768
 40
1.329819923771476
 40
1.434156071994366
 40
1.514414647795788
 40
1.546518078208396
 40
1.578974764260169
 40
1.662678849314164
 40
1.777131373668384
 40
1.901833377474775
 40
2.016285900500565
 40
2.099989982527932
 40
2.132446666570291
 40
2.158782354486013
 40
2.216720867907803
 40
2.274659381334227
 40
2.300995069256161
 40
2.333451754066133
 40
2.417155836543813
 40
2.531608358985253
 40
2.656310362283748
 40
2.77076288638888
 40
2.854466971340046
 40
2.886923657363852
 40
2.913597976833286
 40
2.98238964287509
 40
3.076451716946953
 40
3.17893726045857
 40
3.272999334739972
 40
3.341791001059195
 40
3.368465320663507
 40
3.396976080738729
 40
3.472140811845965
 40
3.578408190308654
 40
3.700226892456091
 40
3.822045594634308
 40
3.928312973256415
 40
4.003477705314812
 40
4.031988456866878
 40
4.058324144797678
 40
4.116262658236843
 40
4.174201171400642
 40
4.200536849608578
 40
4.200536849608578
 40
4.200536849608578
 40
4.200536849608578
 10
185.9857704961609
 20
15.75844135397705
 10
185.9938259544679
 20
15.75844359811686
 10
186.0220200663241
 20
15.75845146032798
 10
186.0765534803672
 20
15.75830754828372
 10
186.1482891808604
 20
15.75909120499898
 10
186.2236240137062
 20
15.75627570463811
 10
186.2713052366438
 20
15.76298403400957
 10
186.3195071245616
 20
15.75197563692433
 10
186.3062571799873
 20
15.80546402997033
 10
186.3151093964539
 20
15.86049583543092
 10
186.3108698036285
 20
15.95419908726109
 10
186.313348348128
 20
16.04959482218532
 10
186.309093870606
 20
16.14356821983387
 10
186.3179818665847
 20
16.19795062438012
 10
186.3046977409945
 20
16.25233997691461
 10
186.3514119277108
 20
16.23842216335357
 10
186.3943254545737
 20
16.24103877374043
 10
186.4605443456686
 20
16.23648422450754
 10
186.5013342271798
 20
16.22778162134161
 10
186.5525145690819
 20
16.23531799890194
 10
186.52537204872
 20
16.19349970223285
 10
186.4803096055707
 20
16.20284992072596
 10
186.4942065045051
 20
16.13841207371837
 10
186.4858414431653
 20
16.07378219627399
 10
186.4903632178398
 20
15.97529141193887
 10
186.4854741311167
 20
15.8759593284257
 10
186.4950258992082
 20
15.81293115552969
 10
186.47997614552
 20
15.74964011499788
 10
186.5449159457208
 20
15.76515072944269
 10
186.6116246399496
 20
15.75499387697812
 10
186.7241435470828
 20
15.75988800099367
 10
186.8390235448953
 20
15.75691204732783
 10
186.9519871999747
 20
15.76221664184991
 10
187.0176267597677
 20
15.75107306472089
 10
187.0816276691053
 20
15.76744532319857
 10
187.0703142889189
 20
15.71761689905274
 10
187.077533987151
 20
15.67416715212123
 10
187.0703142611268
 20
15.63071745587445
 10
187.0816277175994
 20
15.58088895196876
 10
187.0176263598971
 20
15.59726166091362
 10
186.951992124046
 20
15.58611271661588
 10
186.838997431733
 20
15.59144857206854
 10
186.7242456548644
 20
15.58834345663822
 10
186.611318368686
 20
15.59364894682588
 10
186.5455220903585
 20
15.58257300019594
 10
186.4816097975358
 20
15.59887597847617
 10
186.4936015165126
 20
15.54423524395741
 10
186.4862104613005
 20
15.48854295047842
 10
186.4892684841983
 20
15.3964968914057
 10
186.4893422785683
 20
15.30179109873101
 10
186.486031357836
 20
15.20952782902265
 10
186.4939505989903
 20
15.15435768736139
 10
186.4815076611618
 20
15.10058169100136
 10
186.5389116551631
 20
15.1145376886278
 10
186.5994708140383
 20
15.10511457884226
 10
186.7048680855081
 20
15.10942885928705
 10
186.8204294070622
 20
15.10835504612031
 10
186.9359688877797
 20
15.10725965900995
 10
187.0414181130841
 20
15.11162525770632
 10
187.1018680471804
 20
15.10209426030671
 10
187.159283773911
 20
15.11617289606379
 10
187.1477773876708
 20
15.06707153265682
 10
187.1537566781749
 20
15.02564658018648
 10
187.1520311050802
 20
14.97651677966695
 10
187.1521500122971
 20
14.94854428447607
 10
187.1521871691833
 20
14.93980288195949
 72
     4
 94
        3
 73
     0
 74
     0
 95
       62
 96
       58
 40
0.0
 40
0.0
 40
0.0
 40
0.0
 40
0.0598250028308485
 40
0.2024846486897331
 40
0.3727558389221031
 40
0.515415484793607
 40
0.5752404975785339
 40
0.933232677548705
 40
1.290451762839454
 40
1.602077253145875
 40
1.699931634112154
 40
1.799359756425048
 40
2.270120149657084
 40
2.80466192846154
 40
2.882342287383251
 40
3.076543185719103
 40
3.329004354835565
 40
3.581465524568392
 40
3.775666424543676
 40
3.853346784558296
 40
3.899120679595041
 40
3.984129341792039
 40
4.029903236817388
 40
4.105797496059544
 40
4.295533144152506
 40
4.54218948661175
 40
4.788845828875701
 40
4.978581476410088
 40
5.054475735244331
 40
5.621734664339352
 40
6.13086724203736
 40
6.225249780948624
 40
6.318913039727357
 40
6.663579954559022
 40
7.047498900224888
 40
7.435230791575816
 40
7.498943906668228
 40
7.650875181210222
 40
7.832212509001732
 40
7.984143783697118
 40
8.047856898903245
 40
8.091554632732752
 40
8.172707566964414
 40
8.21640530076814
 40
8.289021782161024
 40
8.462184160757397
 40
8.668861838005478
 40
8.84202421526407
 40
8.914640695475265
 40
8.989881580861471
 40
9.15541152882738
 40
9.320941477744162
 40
9.396182352487415
 40
9.454709011143962
 40
9.583467660170896
 40
9.712226309013175
 40
9.770752957989629
 40
9.770752957989629
 40
9.770752957989629
 40
9.770752957989629
 10
187.1521871691833
 20
14.93980288195949
 10
187.1322348171623
 20
14.93980875568671
 10
187.0647037716465
 20
14.93982863806156
 10
186.9410612161789
 20
14.93949362520325
 10
186.7863180150056
 20
14.9410767375051
 10
186.669734948248
 20
14.93686078860494
 10
186.4550942634239
 20
14.95215205331625
 10
186.8518948407229
 20
14.59198721286191
 10
186.8945656069266
 20
14.37510503397166
 10
187.3189162146611
 20
14.19325062511444
 10
187.1439821496074
 20
14.08985196568074
 10
187.0194523925083
 20
13.87831523212721
 10
186.7666277235943
 20
14.34806081001563
 10
186.4797602893627
 20
14.99511516984521
 10
186.4906335926659
 20
14.68782672154693
 10
186.488289277796
 20
14.52288616971777
 10
186.4861096126411
 20
14.28879670711692
 10
186.4980774396346
 20
14.04498072421782
 10
186.4687984740631
 20
13.89855796860983
 10
186.511452262547
 20
13.75113490174537
 10
186.4239814005639
 20
13.76685797306219
 10
186.3768527606744
 20
13.76694303543453
 10
186.2898973207713
 20
13.75109425482908
 10
186.3313474021722
 20
13.89527771422761
 10
186.3029875004286
 20
14.03855052698455
 10
186.3145973775299
 20
14.27674947365264
 10
186.3124175648271
 20
14.50517235240346
 10
186.3103111127994
 20
14.66705729375995
 10
186.3208035438322
 20
14.98153709333752
 10
186.0128963252894
 20
14.29229470872434
 10
185.7055258267455
 20
13.81476750243055
 10
185.5851367066275
 20
14.03741112637428
 10
185.407460791072
 20
14.15011034955563
 10
185.8853326362894
 20
14.32548143465461
 10
185.9353959057207
 20
14.56091929252029
 10
186.3583799621717
 20
14.95322989344607
 10
186.127675427354
 20
14.93655307029065
 10
186.004968585934
 20
14.9426951894877
 10
185.8325483095662
 20
14.93312822699573
 10
185.7213224694448
 20
14.95448818489664
 10
185.6025779627448
 20
14.9213626535742
 10
185.6183169706686
 20
15.00203900606882
 10
185.6178550933763
 20
15.04645414290854
 10
185.6027881889931
 20
15.12967081778533
 10
185.7372380935443
 20
15.09062651983883
 10
185.8619755545747
 20
15.11739729328422
 10
186.062875523728
 20
15.10063949044052
 10
186.1921540949352
 20
15.12204225913004
 10
186.3328419928295
 20
15.0886877885342
 10
186.2980927452614
 20
15.22651875785068
 10
186.3222185666714
 20
15.34963257349481
 10
186.2967086182391
 20
15.47024055670335
 10
186.3333251146685
 20
15.60539865141495
 10
186.2211417027769
 20
15.58094545781891
 10
186.1280356457136
 20
15.59307749842022
 10
186.0191547579819
 20
15.58957630069994
 10
185.9569697640964
 20
15.58981755951603
 10
185.9375369557246
 20
15.58989295124144
 97
        3
330
B1
330
B2
330
B0
 75
     1
 76
     2
 52
45.0
 41
0.1
 77
     0
 78
     1
 53
45.0
 43
0.0
 44
0.0
 45
-0.282842712474619
 46
0.0
 79
     0
 98
        1
 10
0.0
 20
0.0
  0
HATCH
  5
CE
330
48
100
AcDbEntity
  8
1
  6
Continuous
 62
     2
100
AcDbHatch
 10
0.0
 20
0.0
 30
0.0
210
0.0
220
0.0
230
1.0
  2
CUSTOM14
 70
     0
 71
     1
 91
        1
 92
        1
 93
        4
 72
     1
 10
192.4578138032671
 20
15.22875434022057
 11
191.1602971697031
 21
15.22875434022057
 72
     1
 10
191.1602971697031
 20
15.22875434022057
 11
191.1602971697031
 21
15.39722336795624
 72
     1
 10
191.1602971697031
 20
15.39722336795624
 11
192.4578138032671
 21
15.39722336795624
 72
     1
 10
192.4578138032671
 20
15.39722336795624
 11
192.4578138032671
 21
15.22875434022057
 97
        1
330
B3
 75
     1
 76
     2
 52
45.0
 41
0.1
 77
     0
 78
     1
 53
45.0
 43
0.0
 44
0.0
 45
-0.282842712474619
 46
0.0
 79
     0
 98
        1
 10
0.0
 20
0.0
  0
ENDBLK
  5
4A
330
48
100
AcDbEntity
  8
0
100
AcDbBlockEnd
  0
BLOCK
  5
4D
330
4B
100
AcDbEntity
  8
0
100
AcDbBlockBegin
  2
開示A4枠
 70
     0
 10
2504.893401617768
 20
915.7464176624432
 30
0.0
  3
開示A4枠
  1

  0
INSERT
  5
4C
330
4B
100
AcDbEntity
  8
1
100
AcDbBlockReference
  2
開示A4
 10
0.0
 20
0.0
 30
0.0
 41
10.0
 42
10.0
 43
10.0
  0
ENDBLK
  5
4E
330
4B
100
AcDbEntity
  8
0
100
AcDbBlockEnd
  0
BLOCK
  5
16B
330
164
100
AcDbEntity
  8
0
100
AcDbBlockBegin
  2
*D3
 70
     1
 10
0.0
 20
0.0
 30
0.0
  3
*D3
  1

  0
LINE
  5
165
330
164
100
AcDbEntity
  8
1
  6
Continuous
 62
     2
100
AcDbLine
 10
1562.424305062085
 20
1781.698089386418
 30
0.0
 11
962.4243050620848
 21
1781.698089386418
 31
0.0
  0
LINE
  5
166
330
164
100
AcDbEntity
  8
1
  6
Continuous
 62
     2
100
AcDbLine
 10
1562.424305062085
 20
1697.798498712091
 30
0.0
 11
1562.424305062085
 21
1801.698089386418
 31
0.0
  0
LINE
  5
167
330
164
100
AcDbEntity
  8
1
  6
Continuous
 62
     2
100
AcDbLine
 10
962.4243050620848
 20
993.7507829062008
 30
0.0
 11
962.4243050620848
 21
1801.698089386418
 31
0.0
  0
SOLID
  5
168
330
164
100
AcDbEntity
  8
1
 62
     2
100
AcDbTrace
 10
1527.424305062085
 20
1777.090251970859
 30
0.0
 11
1527.424305062085
 21
1786.305926801977
 31
0.0
 12
1562.424305062085
 22
1781.698089386418
 32
0.0
 13
1562.424305062085
 23
1781.698089386418
 33
0.0
  0
SOLID
  5
169
330
164
100
AcDbEntity
  8
1
 62
     2
100
AcDbTrace
 10
997.4243050620848
 20
1786.305926801977
 30
0.0
 11
997.4243050620848
 21
1777.090251970859
 31
0.0
 12
962.4243050620848
 22
1781.698089386418
 32
0.0
 13
962.4243050620848
 23
1781.698089386418
 33
0.0
  0
MTEXT
  5
16A
330
164
100
AcDbEntity
  8
1
 62
     7
100
AcDbMText
 10
1226.424305062085
 20
1801.698089386418
 30
0.0
 40
30.0
 41
0.0
 71
     7
 72
     1
  1
600
  7
CONVERTER_12
 11
0.9999999999970619
 21
2.424068405545306E-6
 31
0.0
 73
     1
 44
0.60024009603842
  0
ENDBLK
  5
16C
330
164
100
AcDbEntity
  8
0
100
AcDbBlockEnd
  0
BLOCK
  5
176
330
16F
100
AcDbEntity
  8
0
100
AcDbBlockBegin
  2
*D4
 70
     1
 10
0.0
 20
0.0
 30
0.0
  3
*D4
  1

  0
LINE
  5
170
330
16F
100
AcDbEntity
  8
1
  6
Continuous
 62
     2
100
AcDbLine
 10
1758.683021393105
 20
1643.894991425444
 30
0.0
 11
1758.683021393105
 21
943.8949914254437
 31
0.0
  0
LINE
  5
171
330
16F
100
AcDbEntity
  8
1
  6
Continuous
 62
     2
100
AcDbLine
 10
1614.259686233517
 20
1643.894991425444
 30
0.0
 11
1778.683021393105
 21
1643.894991425444
 31
0.0
  0
LINE
  5
172
330
16F
100
AcDbEntity
  8
1
  6
Continuous
 62
     2
100
AcDbLine
 10
1512.424305062085
 20
943.8949914254437
 30
0.0
 11
1778.683021393105
 21
943.8949914254437
 31
0.0
  0
SOLID
  5
173
330
16F
100
AcDbEntity
  8
1
 62
     2
100
AcDbTrace
 10
1763.290858808664
 20
1608.894991425444
 30
0.0
 11
1754.075183977546
 21
1608.894991425444
 31
0.0
 12
1758.683021393105
 22
1643.894991425444
 32
0.0
 13
1758.683021393105
 23
1643.894991425444
 33
0.0
  0
SOLID
  5
174
330
16F
100
AcDbEntity
  8
1
 62
     2
100
AcDbTrace
 10
1754.075183977546
 20
978.8949914254437
 30
0.0
 11
1763.290858808664
 21
978.8949914254437
 31
0.0
 12
1758.683021393105
 22
943.8949914254437
 32
0.0
 13
1758.683021393105
 23
943.8949914254437
 33
0.0
  0
MTEXT
  5
175
330
16F
100
AcDbEntity
  8
1
 62
     7
100
AcDbMText
 10
1738.683021393105
 20
1249.124132810067
 30
0.0
 40
30.0
 41
0.0
 71
     7
 72
     1
  1
700
  7
CONVERTER_12
 11
0.0
 21
1.0
 31
0.0
 73
     1
 44
0.60024009603842
  0
ENDBLK
  5
177
330
16F
100
AcDbEntity
  8
0
100
AcDbBlockEnd
  0
BLOCK
  5
183
330
17A
100
AcDbEntity
  8
0
100
AcDbBlockBegin
  2
*D5
 70
     1
 10
0.0
 20
0.0
 30
0.0
  3
*D5
  1

  0
LINE
  5
17B
330
17A
100
AcDbEntity
  8
1
  6
Continuous
 62
     2
100
AcDbLine
 10
642.4225030859054
 20
1781.698089386418
 30
0.0
 11
712.4225030859054
 21
1781.698089386418
 31
0.0
  0
LINE
  5
17C
330
17A
100
AcDbEntity
  8
1
  6
Continuous
 62
     2
100
AcDbLine
 10
562.4225030859052
 20
1781.698089386418
 30
0.0
 11
642.4225030859054
 21
1781.698089386418
 31
0.0
  0
LINE
  5
17D
330
17A
100
AcDbEntity
  8
1
  6
Continuous
 62
     2
100
AcDbLine
 10
492.4225030859052
 20
1781.698089386418
 30
0.0
 11
562.4225030859052
 21
1781.698089386418
 31
0.0
  0
LINE
  5
17E
330
17A
100
AcDbEntity
  8
1
  6
Continuous
 62
     2
100
AcDbLine
 10
642.4225030859054
 20
1593.894991425444
 30
0.0
 11
642.4225030859054
 21
1801.698089386418
 31
0.0
  0
LINE
  5
17F
330
17A
100
AcDbEntity
  8
1
  6
Continuous
 62
     2
100
AcDbLine
 10
562.4225030859052
 20
1752.937100425224
 30
0.0
 11
562.4225030859052
 21
1801.698089386418
 31
0.0
  0
SOLID
  5
180
330
17A
100
AcDbEntity
  8
1
 62
     2
100
AcDbTrace
 10
677.4225030859054
 20
1786.305926801977
 30
0.0
 11
677.4225030859054
 21
1777.090251970859
 31
0.0
 12
642.4225030859054
 22
1781.698089386418
 32
0.0
 13
642.4225030859054
 23
1781.698089386418
 33
0.0
  0
SOLID
  5
181
330
17A
100
AcDbEntity
  8
1
 62
     2
100
AcDbTrace
 10
527.4225030859052
 20
1777.090251970859
 30
0.0
 11
527.4225030859052
 21
1786.305926801977
 31
0.0
 12
562.4225030859052
 22
1781.698089386418
 32
0.0
 13
562.4225030859052
 23
1781.698089386418
 33
0.0
  0
MTEXT
  5
182
330
17A
100
AcDbEntity
  8
1
 62
     7
100
AcDbMText
 10
582.9622477737593
 20
1801.698089386418
 30
0.0
 40
30.0
 41
0.0
 71
     7
 72
     1
  1
80
  7
CONVERTER_12
 11
0.9999999999970619
 21
2.424068405545306E-6
 31
0.0
 73
     1
 44
0.60024009603842
  0
ENDBLK
  5
184
330
17A
100
AcDbEntity
  8
0
100
AcDbBlockEnd
  0
BLOCK
  5
18E
330
187
100
AcDbEntity
  8
0
100
AcDbBlockBegin
  2
*D6
 70
     1
 10
0.0
 20
0.0
 30
0.0
  3
*D6
  1

  0
LINE
  5
188
330
187
100
AcDbEntity
  8
1
  6
Continuous
 62
     2
100
AcDbLine
 10
1678.683021393105
 20
1143.894991425444
 30
0.0
 11
1678.683021393105
 21
1643.894991425444
 31
0.0
  0
LINE
  5
189
330
187
100
AcDbEntity
  8
1
  6
Continuous
 62
     2
100
AcDbLine
 10
1614.259686233517
 20
1643.894991425444
 30
0.0
 11
1698.683021393105
 21
1643.894991425444
 31
0.0
  0
LINE
  5
18A
330
187
100
AcDbEntity
  8
1
  6
Continuous
 62
     2
100
AcDbLine
 10
1614.259686233517
 20
1143.894991425444
 30
0.0
 11
1698.683021393105
 21
1143.894991425444
 31
0.0
  0
SOLID
  5
18B
330
187
100
AcDbEntity
  8
1
 62
     2
100
AcDbTrace
 10
1674.075183977546
 20
1178.894991425444
 30
0.0
 11
1683.290858808664
 21
1178.894991425444
 31
0.0
 12
1678.683021393105
 22
1143.894991425444
 32
0.0
 13
1678.683021393105
 23
1143.894991425444
 33
0.0
  0
SOLID
  5
18C
330
187
100
AcDbEntity
  8
1
 62
     2
100
AcDbTrace
 10
1683.290858808664
 20
1608.894991425444
 30
0.0
 11
1674.075183977546
 21
1608.894991425444
 31
0.0
 12
1678.683021393105
 22
1643.894991425444
 32
0.0
 13
1678.683021393105
 23
1643.894991425444
 33
0.0
  0
MTEXT
  5
18D
330
187
100
AcDbEntity
  8
1
 62
     7
100
AcDbMText
 10
1658.683021393105
 20
1350.110398234612
 30
0.0
 40
30.0
 41
0.0
 71
     7
 72
     1
  1
500
  7
CONVERTER_12
 11
0.0
 21
1.0
 31
0.0
 73
     1
 44
0.60024009603842
  0
ENDBLK
  5
18F
330
187
100
AcDbEntity
  8
0
100
AcDbBlockEnd
  0
BLOCK
  5
196
330
192
100
AcDbEntity
  8
0
100
AcDbBlockBegin
  2
*D7
 70
     1
 10
0.0
 20
0.0
 30
0.0
  3
*D7
  1

  0
LINE
  5
193
330
192
100
AcDbEntity
  8
1
  6
Continuous
 62
     2
100
AcDbLine
 10
634.3595557612298
 20
1621.121515494944
 30
0.0
 11
764.4124969982265
 21
1705.554953445671
 31
0.0
  0
SOLID
  5
194
330
192
100
AcDbEntity
  8
1
 62
     2
100
AcDbTrace
 10
661.2063847078964
 20
1644.044864751906
 30
0.0
 11
666.2246005600184
 21
1636.315299935281
 31
0.0
 12
634.3595557612298
 22
1621.121515494944
 32
0.0
 13
634.3595557612298
 23
1621.121515494944
 33
0.0
  0
MTEXT
  5
195
330
192
100
AcDbEntity
  8
1
 62
     7
100
AcDbMText
 10
695.1455100463749
 20
1684.430453011057
 30
0.0
 40
30.0
 41
0.0
 71
     7
 72
     1
  1
\C7;R\C7;50
  7
CONVERTER_12
 11
0.8387410535064898
 21
0.5445304813899989
 31
0.0
 73
     1
 44
0.60024009603842
  0
ENDBLK
  5
197
330
192
100
AcDbEntity
  8
0
100
AcDbBlockEnd
  0
BLOCK
  5
19D
330
199
100
AcDbEntity
  8
0
100
AcDbBlockBegin
  2
*D8
 70
     1
 10
0.0
 20
0.0
 30
0.0
  3
*D8
  1

  0
LINE
  5
19A
330
199
100
AcDbEntity
  8
1
  6
Continuous
 62
     2
100
AcDbLine
 10
1424.749397318992
 20
1056.247635913001
 30
0.0
 11
1553.170744762005
 21
964.9169367671213
 31
0.0
  0
SOLID
  5
19B
330
199
100
AcDbEntity
  8
1
 62
     2
100
AcDbTrace
 10
1521.977713682366
 20
981.4465156399456
 30
0.0
 11
1527.318760261756
 21
988.9566344159498
 31
0.0
 12
1553.170744762005
 22
964.9169367671213
 32
0.0
 13
1553.170744762005
 23
964.9169367671213
 33
0.0
  0
MTEXT
  5
19C
330
199
100
AcDbEntity
  8
1
 62
     7
100
AcDbMText
 10
1445.630807433903
 20
1065.939215330871
 30
0.0
 40
30.0
 41
0.0
 71
     7
 72
     1
  1
\C7;R\C7;50
  7
CONVERTER_12
 11
0.8149287939984058
 21
-0.5795610931664615
 31
0.0
 73
     1
 44
0.60024009603842
  0
ENDBLK
  5
19E
330
199
100
AcDbEntity
  8
0
100
AcDbBlockEnd
  0
BLOCK
  5
1A4
330
1A0
100
AcDbEntity
  8
0
100
AcDbBlockBegin
  2
*D9
 70
     1
 10
0.0
 20
0.0
 30
0.0
  3
*D9
  1

  0
LINE
  5
1A1
330
1A0
100
AcDbEntity
  8
1
  6
Continuous
 62
     2
100
AcDbLine
 10
972.4888032586296
 20
1958.039113787112
 30
0.0
 11
857.025951854373
 21
1871.05403186898
 31
0.0
  0
SOLID
  5
1A2
330
1A0
100
AcDbEntity
  8
1
 62
     2
100
AcDbTrace
 10
947.3065620061955
 20
1933.298723912406
 30
0.0
 11
941.7613419862262
 21
1940.65937588917
 31
0.0
 12
972.4888032586296
 22
1958.039113787112
 32
0.0
 13
972.4888032586296
 23
1958.039113787112
 33
0.0
  0
MTEXT
  5
1A3
330
1A0
100
AcDbEntity
  8
1
 62
     7
100
AcDbMText
 10
854.0969240448047
 20
1893.887796256194
 30
0.0
 40
30.0
 41
0.0
 71
     7
 72
     1
  1
\C7;R\C7;50
  7
CONVERTER_12
 11
0.7987100360691179
 21
0.6017161110378119
 31
0.0
 73
     1
 44
0.60024009603842
  0
ENDBLK
  5
1A5
330
1A0
100
AcDbEntity
  8
0
100
AcDbBlockEnd
  0
ENDSEC
  0
SECTION
  2
ENTITIES
  0
INSERT
  5
4F
330
1F
100
AcDbEntity
  8
0
100
AcDbBlockReference
  2
開示A4枠
 10
2504.893401617768
 20
915.746417662443
 30
0.0
 41
1.0
 42
1.0
 43
1.0
  0
LINE
  5
CF
330
1F
100
AcDbEntity
  8
1
  6
DASH_CENTER
 62
     2
100
AcDbLine
 10
1614.259686233517
 20
1643.894991425444
 30
0.0
 11
1512.568513581328
 21
1643.894991425444
 31
0.0
  0
LINE
  5
D0
330
1F
100
AcDbEntity
  8
1
  6
Continuous
 62
     7
100
AcDbLine
 10
623.4225030859054
 20
962.894991425444
 30
0.0
 11
567.4225030859054
 21
962.8949914254442
 31
0.0
  0
LINE
  5
D1
330
1F
100
AcDbEntity
  8
1
  6
Continuous
 62
     7
100
AcDbLine
 10
623.4225030859054
 20
962.894991425444
 30
0.0
 11
623.4225030859054
 21
1124.894991425444
 31
0.0
  0
LINE
  5
D2
330
1F
100
AcDbEntity
  8
1
  6
DASH_CENTER
 62
     2
100
AcDbLine
 10
553.5091212270011
 20
1643.894991425444
 30
0.0
 11
592.4225030859054
 21
1643.894991425444
 31
0.0
  0
LINE
  5
D3
330
1F
100
AcDbEntity
  8
1
  6
Continuous
 62
     7
100
AcDbLine
 10
562.4225030859054
 20
1606.894991425444
 30
0.0
 11
562.4225030859054
 21
1643.894991425444
 31
0.0
  0
LINE
  5
D4
330
1F
100
AcDbEntity
  8
1
  6
Continuous
 62
     7
100
AcDbLine
 10
567.4225030859052
 20
1643.894991425444
 30
0.0
 11
567.4225030859052
 21
1626.894991425444
 31
0.0
  0
LINE
  5
D5
330
1F
100
AcDbEntity
  8
1
  6
Continuous
 62
     7
100
AcDbLine
 10
567.4225030859052
 20
1643.894991425444
 30
0.0
 11
567.4225030859052
 21
1660.894991425444
 31
0.0
  0
LINE
  5
D6
330
1F
100
AcDbEntity
  8
1
  6
Continuous
 62
     7
100
AcDbLine
 10
562.4225030859054
 20
1643.894991425444
 30
0.0
 11
562.4225030859054
 21
1680.894991425444
 31
0.0
  0
LINE
  5
D7
330
1F
100
AcDbEntity
  8
1
  6
Continuous
 62
     7
100
AcDbLine
 10
567.4225030859052
 20
1626.894991425444
 30
0.0
 11
567.4225030859052
 21
1624.855760650408
 31
0.0
  0
LINE
  5
D8
330
1F
100
AcDbEntity
  8
1
  6
Continuous
 62
     7
100
AcDbLine
 10
567.4225030859052
 20
1660.894991425444
 30
0.0
 11
567.4225030859052
 21
1662.872516677611
 31
0.0
  0
LINE
  5
D9
330
1F
100
AcDbEntity
  8
1
  6
DASH_CENTER
 62
     2
100
AcDbLine
 10
1562.424305062085
 20
1697.798498712091
 30
0.0
 11
1562.424305062085
 21
993.8949914254439
 31
0.0
  0
LINE
  5
DA
330
1F
100
AcDbEntity
  8
1
  6
Continuous
 62
     7
100
AcDbLine
 10
1510.424305062085
 20
926.8949914254442
 30
0.0
 11
962.4243050620851
 21
926.894991425444
 31
0.0
  0
LINE
  5
DB
330
1F
100
AcDbEntity
  8
1
  6
Continuous
 62
     7
100
AcDbLine
 10
1579.424305062085
 20
995.8949914254445
 30
0.0
 11
1579.424305062085
 21
1643.894991425444
 31
0.0
  0
LINE
  5
DC
330
1F
100
AcDbEntity
  8
1
  6
Continuous
 62
     7
100
AcDbLine
 10
1545.424305062085
 20
1001.894991425444
 30
0.0
 11
1545.424305062085
 21
1643.894991425444
 31
0.0
  0
LINE
  5
DD
330
1F
100
AcDbEntity
  8
1
  6
DASH_CENTER
 62
     2
100
AcDbLine
 10
1512.424305062085
 20
943.894991425444
 30
0.0
 11
918.1884626192494
 21
943.894991425444
 31
0.0
  0
LINE
  5
DE
330
1F
100
AcDbEntity
  8
1
  6
DASH_CENTER
 62
     2
100
AcDbLine
 10
553.5091212270011
 20
943.8949914254442
 30
0.0
 11
669.730941505703
 21
943.8949914254442
 31
0.0
  0
LINE
  5
DF
330
1F
100
AcDbEntity
  8
1
  6
Continuous
 62
     7
100
AcDbLine
 10
562.4225030859054
 20
906.8949914254442
 30
0.0
 11
562.4225030859054
 21
943.8949914254442
 31
0.0
  0
LINE
  5
E0
330
1F
100
AcDbEntity
  8
1
  6
Continuous
 62
     7
100
AcDbLine
 10
567.4225030859054
 20
943.8949914254442
 30
0.0
 11
567.4225030859054
 21
926.8949914254442
 31
0.0
  0
LINE
  5
E1
330
1F
100
AcDbEntity
  8
1
  6
Continuous
 62
     7
100
AcDbLine
 10
567.4225030859054
 20
943.8949914254442
 30
0.0
 11
567.4225030859054
 21
960.8949914254442
 31
0.0
  0
LINE
  5
E2
330
1F
100
AcDbEntity
  8
1
  6
Continuous
 62
     7
100
AcDbLine
 10
562.4225030859054
 20
943.8949914254442
 30
0.0
 11
562.4225030859054
 21
980.8949914254442
 31
0.0
  0
LINE
  5
E3
330
1F
100
AcDbEntity
  8
1
  6
CENTER_DASH_DASH
 62
     2
100
AcDbLine
 10
562.4225030859054
 20
844.3772419175126
 30
0.0
 11
562.4225030859054
 21
906.8949914254442
 31
0.0
  0
LINE
  5
E4
330
1F
100
AcDbEntity
  8
1
  6
DASH_CENTER
 62
     2
100
AcDbLine
 10
962.424305062085
 20
892.0596102540112
 30
0.0
 11
962.4243050620848
 21
993.750782906201
 31
0.0
  0
LINE
  5
E5
330
1F
100
AcDbEntity
  8
1
  6
Continuous
 62
     7
100
AcDbLine
 10
642.4225030859056
 20
924.8949914254445
 30
0.0
 11
567.4225030859054
 21
924.8949914254445
 31
0.0
  0
LINE
  5
E6
330
1F
100
AcDbEntity
  8
1
  6
Continuous
 62
     7
100
AcDbLine
 10
567.4225030859054
 20
926.8949914254442
 30
0.0
 11
567.4225030859054
 21
910.8949914254442
 31
0.0
  0
LINE
  5
E7
330
1F
100
AcDbEntity
  8
1
  6
Continuous
 62
     7
100
AcDbLine
 10
642.4225030859056
 20
962.894991425444
 30
0.0
 11
623.4225030859054
 21
962.894991425444
 31
0.0
  0
LINE
  5
E8
330
1F
100
AcDbEntity
  8
1
  6
Continuous
 62
     7
100
AcDbLine
 10
567.4225030859054
 20
960.8949914254442
 30
0.0
 11
567.4225030859054
 21
976.8949914254442
 31
0.0
  0
LINE
  5
E9
330
1F
100
AcDbEntity
  8
1
  6
DASH_CENTER
 62
     2
100
AcDbLine
 10
642.4225030859054
 20
1593.894991425444
 30
0.0
 11
642.4225030859054
 21
1143.894991425444
 31
0.0
  0
LINE
  5
EA
330
1F
100
AcDbEntity
  8
1
  6
Continuous
 62
     7
100
AcDbLine
 10
661.4225030859052
 20
1593.872516677611
 30
0.0
 11
661.4225030859052
 21
943.8949914254442
 31
0.0
  0
LINE
  5
EB
330
1F
100
AcDbEntity
  8
1
  6
Continuous
 62
     7
100
AcDbLine
 10
592.4225030859052
 20
1662.872516677611
 30
0.0
 11
567.4225030859052
 21
1662.872516677611
 31
0.0
  0
LINE
  5
EC
330
1F
100
AcDbEntity
  8
1
  6
Continuous
 62
     7
100
AcDbLine
 10
567.4225030859052
 20
1662.872516677611
 30
0.0
 11
567.4225030859052
 21
1676.894991425444
 31
0.0
  0
LINE
  5
ED
330
1F
100
AcDbEntity
  8
1
  6
Continuous
 62
     7
100
AcDbLine
 10
582.4225030859054
 20
1624.855760650408
 30
0.0
 11
567.4225030859052
 21
1624.855760650408
 31
0.0
  0
LINE
  5
EE
330
1F
100
AcDbEntity
  8
1
  6
Continuous
 62
     7
100
AcDbLine
 10
567.4225030859052
 20
1624.855760650408
 30
0.0
 11
567.4225030859052
 21
1610.894991425444
 31
0.0
  0
LINE
  5
EF
330
1F
100
AcDbEntity
  8
1
  6
Continuous
 62
     7
100
AcDbLine
 10
563.4225030859054
 20
1001.370607702706
 30
0.0
 11
562.4225030859054
 21
1001.370607702706
 31
0.0
  0
LINE
  5
F0
330
1F
100
AcDbEntity
  8
1
  6
CENTER_DASH_DASH
 62
     2
100
AcDbLine
 10
562.4225030859054
 20
1001.370607702706
 30
0.0
 11
562.4225030859054
 21
1606.894991425444
 31
0.0
  0
LINE
  5
F1
330
1F
100
AcDbEntity
  8
1
  6
Continuous
 62
     7
100
AcDbLine
 10
563.4225030859054
 20
980.8949914254442
 30
0.0
 11
562.4225030859054
 21
980.8949914254442
 31
0.0
  0
LINE
  5
F2
330
1F
100
AcDbEntity
  8
1
  6
CENTER_DASH_DASH
 62
     2
100
AcDbLine
 10
562.4225030859054
 20
980.8949914254442
 30
0.0
 11
562.4225030859054
 21
1001.370607702706
 31
0.0
  0
LINE
  5
F3
330
1F
100
AcDbEntity
  8
1
  6
Continuous
 62
     7
100
AcDbLine
 10
563.4225030859054
 20
906.8949914254442
 30
0.0
 11
562.4225030859054
 21
906.8949914254442
 31
0.0
  0
LINE
  5
F4
330
1F
100
AcDbEntity
  8
1
  6
CENTER_DASH_DASH
 62
     2
100
AcDbLine
 10
562.4225030859054
 20
906.8949914254442
 30
0.0
 11
562.4225030859054
 21
980.8949914254442
 31
0.0
  0
LINE
  5
F5
330
1F
100
AcDbEntity
  8
1
  6
Continuous
 62
     7
100
AcDbLine
 10
563.4225030859052
 20
1680.894991425444
 30
0.0
 11
562.4225030859054
 21
1680.894991425444
 31
0.0
  0
LINE
  5
F6
330
1F
100
AcDbEntity
  8
1
  6
CENTER_DASH_DASH
 62
     2
100
AcDbLine
 10
562.4225030859054
 20
1680.894991425444
 30
0.0
 11
562.4225030859052
 21
1752.937100425224
 31
0.0
  0
LINE
  5
F7
330
1F
100
AcDbEntity
  8
1
  6
Continuous
 62
     7
100
AcDbLine
 10
563.4225030859052
 20
1606.894991425444
 30
0.0
 11
562.4225030859054
 21
1606.894991425444
 31
0.0
  0
LINE
  5
F8
330
1F
100
AcDbEntity
  8
1
  6
CENTER_DASH_DASH
 62
     2
100
AcDbLine
 10
562.4225030859054
 20
1606.894991425444
 30
0.0
 11
562.4225030859054
 21
1680.894991425444
 31
0.0
  0
LINE
  5
F9
330
1F
100
AcDbEntity
  8
1
  6
DASH_CENTER
 62
     2
100
AcDbLine
 10
1614.259686233517
 20
1143.894991425444
 30
0.0
 11
1512.568513581328
 21
1143.894991425444
 31
0.0
  0
LINE
  5
FA
330
1F
100
AcDbEntity
  8
1
  6
Continuous
 62
     7
100
AcDbLine
 10
623.4225030859054
 20
1162.894991425444
 30
0.0
 11
567.4225030859054
 21
1162.894991425444
 31
0.0
  0
LINE
  5
FB
330
1F
100
AcDbEntity
  8
1
  6
DASH_CENTER
 62
     2
100
AcDbLine
 10
553.5091212270011
 20
1143.894991425444
 30
0.0
 11
669.730941505703
 21
1143.894991425444
 31
0.0
  0
LINE
  5
FC
330
1F
100
AcDbEntity
  8
1
  6
Continuous
 62
     7
100
AcDbLine
 10
562.4225030859054
 20
1106.894991425444
 30
0.0
 11
562.4225030859054
 21
1143.894991425444
 31
0.0
  0
LINE
  5
FD
330
1F
100
AcDbEntity
  8
1
  6
Continuous
 62
     7
100
AcDbLine
 10
567.4225030859054
 20
1143.894991425444
 30
0.0
 11
567.4225030859054
 21
1126.894991425444
 31
0.0
  0
LINE
  5
FE
330
1F
100
AcDbEntity
  8
1
  6
Continuous
 62
     7
100
AcDbLine
 10
567.4225030859054
 20
1143.894991425444
 30
0.0
 11
567.4225030859054
 21
1160.894991425444
 31
0.0
  0
LINE
  5
FF
330
1F
100
AcDbEntity
  8
1
  6
Continuous
 62
     7
100
AcDbLine
 10
562.4225030859054
 20
1143.894991425444
 30
0.0
 11
562.4225030859054
 21
1180.894991425444
 31
0.0
  0
LINE
  5
100
330
1F
100
AcDbEntity
  8
1
  6
Continuous
 62
     7
100
AcDbLine
 10
567.4225030859054
 20
1126.894991425444
 30
0.0
 11
567.4225030859054
 21
1110.894991425444
 31
0.0
  0
LINE
  5
101
330
1F
100
AcDbEntity
  8
1
  6
Continuous
 62
     7
100
AcDbLine
 10
567.4225030859054
 20
1160.894991425444
 30
0.0
 11
567.4225030859054
 21
1176.894991425444
 31
0.0
  0
LINE
  5
102
330
1F
100
AcDbEntity
  8
1
  6
Continuous
 62
     7
100
AcDbLine
 10
563.4225030859054
 20
1180.894991425444
 30
0.0
 11
562.4225030859054
 21
1180.894991425444
 31
0.0
  0
LINE
  5
103
330
1F
100
AcDbEntity
  8
1
  6
Continuous
 62
     7
100
AcDbLine
 10
563.4225030859054
 20
1106.894991425444
 30
0.0
 11
562.4225030859054
 21
1106.894991425444
 31
0.0
  0
LINE
  5
104
330
1F
100
AcDbEntity
  8
1
  6
CENTER_DASH_DASH
 62
     2
100
AcDbLine
 10
562.4225030859054
 20
1106.894991425444
 30
0.0
 11
562.4225030859054
 21
1180.894991425444
 31
0.0
  0
LINE
  5
105
330
1F
100
AcDbEntity
  8
1
  6
Continuous
 62
     7
100
AcDbLine
 10
623.4225030859054
 20
1124.894991425444
 30
0.0
 11
567.4225030859054
 21
1124.894991425444
 31
0.0
  0
LINE
  5
106
330
1F
100
AcDbEntity
  8
1
  6
DASH_CENTER
 62
     2
100
AcDbLine
 10
642.4225030859054
 20
1143.894991425444
 30
0.0
 11
642.4225030859056
 21
900.9534245603495
 31
0.0
  0
LINE
  5
107
330
1F
100
AcDbEntity
  8
1
  6
Continuous
 62
     7
100
AcDbLine
 10
623.4225030859054
 20
1162.894991425444
 30
0.0
 11
623.4225030859054
 21
1583.855760650408
 31
0.0
  0
LINE
  5
108
330
1F
100
AcDbEntity
  8
1
  6
Continuous
 62
     7
100
AcDbLine
 10
1543.424305062085
 20
2013.124919339003
 30
0.0
 11
1543.424305062085
 21
1957.124919339003
 31
0.0
  0
LINE
  5
109
330
1F
100
AcDbEntity
  8
1
  6
Continuous
 62
     7
100
AcDbLine
 10
1381.424305062085
 20
1957.124919339003
 30
0.0
 11
1543.424305062085
 21
1957.124919339003
 31
0.0
  0
LINE
  5
10A
330
1F
100
AcDbEntity
  8
1
  6
DASH_CENTER
 62
     2
100
AcDbLine
 10
1562.424305062085
 20
1910.816480919205
 30
0.0
 11
1562.424305062085
 21
2027.038301197907
 31
0.0
  0
LINE
  5
10B
330
1F
100
AcDbEntity
  8
1
  6
DASH_CENTER
 62
     2
100
AcDbLine
 10
962.4243050620854
 20
1988.124919339002
 30
0.0
 11
962.4243050620847
 21
2027.038301197907
 31
0.0
  0
LINE
  5
10C
330
1F
100
AcDbEntity
  8
1
  6
Continuous
 62
     7
100
AcDbLine
 10
962.4243050620847
 20
2018.124919339003
 30
0.0
 11
999.4243050620847
 21
2018.124919339003
 31
0.0
  0
LINE
  5
10D
330
1F
100
AcDbEntity
  8
1
  6
Continuous
 62
     7
100
AcDbLine
 10
979.4243050620847
 20
2013.124919339003
 30
0.0
 11
962.4243050620847
 21
2013.124919339003
 31
0.0
  0
LINE
  5
10E
330
1F
100
AcDbEntity
  8
1
  6
Continuous
 62
     7
100
AcDbLine
 10
945.4243050620847
 20
2013.124919339003
 30
0.0
 11
962.4243050620847
 21
2013.124919339003
 31
0.0
  0
LINE
  5
10F
330
1F
100
AcDbEntity
  8
1
  6
Continuous
 62
     7
100
AcDbLine
 10
925.4243050620847
 20
2018.124919339003
 30
0.0
 11
962.4243050620847
 21
2018.124919339003
 31
0.0
  0
LINE
  5
110
330
1F
100
AcDbEntity
  8
1
  6
Continuous
 62
     7
100
AcDbLine
 10
981.4635358371213
 20
2013.124919339003
 30
0.0
 11
979.4243050620847
 21
2013.124919339003
 31
0.0
  0
LINE
  5
111
330
1F
100
AcDbEntity
  8
1
  6
Continuous
 62
     7
100
AcDbLine
 10
943.4467798099182
 20
2013.124919339003
 30
0.0
 11
945.4243050620847
 21
2013.124919339003
 31
0.0
  0
LINE
  5
112
330
1F
100
AcDbEntity
  8
1
  6
Continuous
 62
     7
100
AcDbLine
 10
1562.424305062085
 20
2018.124919339003
 30
0.0
 11
1599.424305062085
 21
2018.124919339003
 31
0.0
  0
LINE
  5
113
330
1F
100
AcDbEntity
  8
1
  6
Continuous
 62
     7
100
AcDbLine
 10
1579.424305062085
 20
2013.124919339003
 30
0.0
 11
1562.424305062085
 21
2013.124919339003
 31
0.0
  0
LINE
  5
114
330
1F
100
AcDbEntity
  8
1
  6
Continuous
 62
     7
100
AcDbLine
 10
1545.424305062085
 20
2013.124919339003
 30
0.0
 11
1562.424305062085
 21
2013.124919339003
 31
0.0
  0
LINE
  5
115
330
1F
100
AcDbEntity
  8
1
  6
Continuous
 62
     7
100
AcDbLine
 10
1525.424305062085
 20
2018.124919339003
 30
0.0
 11
1562.424305062085
 21
2018.124919339003
 31
0.0
  0
LINE
  5
116
330
1F
100
AcDbEntity
  8
1
  6
Continuous
 62
     7
100
AcDbLine
 10
1581.424305062085
 20
2013.124919339003
 30
0.0
 11
1581.424305062085
 21
1938.124919339003
 31
0.0
  0
LINE
  5
117
330
1F
100
AcDbEntity
  8
1
  6
Continuous
 62
     7
100
AcDbLine
 10
1595.424305062085
 20
2013.124919339003
 30
0.0
 11
1579.424305062085
 21
2013.124919339003
 31
0.0
  0
LINE
  5
118
330
1F
100
AcDbEntity
  8
1
  6
Continuous
 62
     7
100
AcDbLine
 10
1543.424305062085
 20
1957.124919339003
 30
0.0
 11
1543.424305062085
 21
1938.124919339003
 31
0.0
  0
LINE
  5
119
330
1F
100
AcDbEntity
  8
1
  6
Continuous
 62
     7
100
AcDbLine
 10
1529.424305062085
 20
2013.124919339003
 30
0.0
 11
1545.424305062085
 21
2013.124919339003
 31
0.0
  0
LINE
  5
11A
330
1F
100
AcDbEntity
  8
1
  6
Continuous
 62
     7
100
AcDbLine
 10
943.4467798099182
 20
2013.124919339003
 30
0.0
 11
943.4467798099182
 21
1988.124919339003
 31
0.0
  0
LINE
  5
11B
330
1F
100
AcDbEntity
  8
1
  6
Continuous
 62
     7
100
AcDbLine
 10
929.4243050620847
 20
2013.124919339003
 30
0.0
 11
943.4467798099182
 21
2013.124919339003
 31
0.0
  0
LINE
  5
11C
330
1F
100
AcDbEntity
  8
1
  6
Continuous
 62
     7
100
AcDbLine
 10
981.4635358371213
 20
2013.124919339003
 30
0.0
 11
981.4635358371213
 21
1998.124919339003
 31
0.0
  0
LINE
  5
11D
330
1F
100
AcDbEntity
  8
1
  6
Continuous
 62
     7
100
AcDbLine
 10
995.4243050620847
 20
2013.124919339003
 30
0.0
 11
981.4635358371213
 21
2013.124919339003
 31
0.0
  0
LINE
  5
11E
330
1F
100
AcDbEntity
  8
1
  6
Continuous
 62
     7
100
AcDbLine
 10
1525.424305062085
 20
2018.124919339003
 30
0.0
 11
1525.424305062085
 21
2017.124919339003
 31
0.0
  0
LINE
  5
11F
330
1F
100
AcDbEntity
  8
1
  6
CENTER_DASH_DASH
 62
     2
100
AcDbLine
 10
853.3821960623054
 20
2018.124919339003
 30
0.0
 11
1815.424305062085
 21
2018.124919339003
 31
0.0
  0
LINE
  5
120
330
1F
100
AcDbEntity
  8
1
  6
CENTER_DASH_DASH
 62
     2
100
AcDbLine
 10
1525.424305062085
 20
2018.124919339003
 30
0.0
 11
1599.424305062085
 21
2018.124919339003
 31
0.0
  0
LINE
  5
121
330
1F
100
AcDbEntity
  8
1
  6
Continuous
 62
     7
100
AcDbLine
 10
925.4243050620847
 20
2018.124919339003
 30
0.0
 11
925.4243050620847
 21
2017.124919339003
 31
0.0
  0
LINE
  5
122
330
1F
100
AcDbEntity
  8
1
  6
Continuous
 62
     7
100
AcDbLine
 10
999.4243050620847
 20
2018.124919339003
 30
0.0
 11
999.4243050620847
 21
2017.124919339003
 31
0.0
  0
LINE
  5
123
330
1F
100
AcDbEntity
  8
1
  6
CENTER_DASH_DASH
 62
     2
100
AcDbLine
 10
925.4243050620847
 20
2018.124919339003
 30
0.0
 11
999.4243050620847
 21
2018.124919339003
 31
0.0
  0
LINE
  5
124
330
1F
100
AcDbEntity
  8
1
  6
Continuous
 62
     7
100
AcDbLine
 10
1562.424305062085
 20
2018.124919339003
 30
0.0
 11
1599.424305062085
 21
2018.124919339003
 31
0.0
  0
LINE
  5
125
330
1F
100
AcDbEntity
  8
1
  6
Continuous
 62
     7
100
AcDbLine
 10
1579.424305062085
 20
2013.124919339003
 30
0.0
 11
1562.424305062085
 21
2013.124919339003
 31
0.0
  0
LINE
  5
126
330
1F
100
AcDbEntity
  8
1
  6
Continuous
 62
     7
100
AcDbLine
 10
1545.424305062085
 20
2013.124919339003
 30
0.0
 11
1562.424305062085
 21
2013.124919339003
 31
0.0
  0
LINE
  5
127
330
1F
100
AcDbEntity
  8
1
  6
Continuous
 62
     7
100
AcDbLine
 10
1525.424305062085
 20
2018.124919339003
 30
0.0
 11
1562.424305062085
 21
2018.124919339003
 31
0.0
  0
LINE
  5
128
330
1F
100
AcDbEntity
  8
1
  6
Continuous
 62
     7
100
AcDbLine
 10
1595.424305062085
 20
2013.124919339003
 30
0.0
 11
1579.424305062085
 21
2013.124919339003
 31
0.0
  0
LINE
  5
129
330
1F
100
AcDbEntity
  8
1
  6
Continuous
 62
     7
100
AcDbLine
 10
1529.424305062085
 20
2013.124919339003
 30
0.0
 11
1545.424305062085
 21
2013.124919339003
 31
0.0
  0
LINE
  5
12A
330
1F
100
AcDbEntity
  8
1
  6
Continuous
 62
     7
100
AcDbLine
 10
1525.424305062085
 20
2018.124919339003
 30
0.0
 11
1525.424305062085
 21
2017.124919339003
 31
0.0
  0
LINE
  5
12B
330
1F
100
AcDbEntity
  8
1
  6
CENTER_DASH_DASH
 62
     2
100
AcDbLine
 10
1525.424305062085
 20
2018.124919339003
 30
0.0
 11
1599.424305062085
 21
2018.124919339003
 31
0.0
  0
LINE
  5
12C
330
1F
100
AcDbEntity
  8
1
  6
Continuous
 62
     7
100
AcDbLine
 10
1562.424305062085
 20
1919.124919339003
 30
0.0
 11
1012.446779809918
 21
1919.124919339003
 31
0.0
  0
LINE
  5
12D
330
1F
100
AcDbEntity
  8
1
  6
DASH_CENTER
 62
     2
100
AcDbLine
 10
1592.479987449444
 20
1938.124919339003
 30
0.0
 11
1012.424305062085
 21
1938.124919339003
 31
0.0
  0
LINE
  5
12E
330
1F
100
AcDbEntity
  8
1
  6
Continuous
 62
     7
100
AcDbLine
 10
962.4243050620851
 20
960.894991425444
 30
0.0
 11
1504.424305062085
 21
960.8949914254442
 31
0.0
  0
LINE
  5
12F
330
1F
100
AcDbEntity
  8
1
  6
Continuous
 62
     7
100
AcDbLine
 10
1022.463535837121
 20
1957.124919339003
 30
0.0
 11
1543.424305062085
 21
1957.124919339003
 31
0.0
  0
ARC
  5
130
330
1F
100
AcDbEntity
  8
1
  6
Continuous
 62
     7
100
AcDbCircle
 10
642.4225030859054
 20
943.894991425444
 30
0.0
 40
18.99999999999955
100
AcDbArc
 50
270.0000000000007
 51
0.00000000000069
  0
ARC
  5
131
330
1F
100
AcDbEntity
  8
1
  6
Continuous
 62
     7
100
AcDbCircle
 10
642.4225030859054
 20
943.894991425444
 30
0.0
 40
18.99999999999977
100
AcDbArc
 50
0.00000000000069
 51
89.9999999999993
  0
ARC
  5
132
330
1F
100
AcDbEntity
  8
1
  6
Continuous
 62
     7
100
AcDbCircle
 10
1562.424305062085
 20
1643.894991425444
 30
0.0
 40
17.0
100
AcDbArc
 50
0.0
 51
180.0
  0
ARC
  5
133
330
1F
100
AcDbEntity
  8
1
  6
Continuous
 62
     7
100
AcDbCircle
 10
962.4243050620848
 20
943.8949914254442
 30
0.0
 40
16.99999999999977
100
AcDbArc
 50
89.99999999999925
 51
270.0000000000007
  0
ARC
  5
134
330
1F
100
AcDbEntity
  8
1
  6
Continuous
 62
     7
100
AcDbCircle
 10
962.4243050620848
 20
943.8949914254442
 30
0.0
 40
36.99999999999982
100
AcDbArc
 50
27.35223290912839
 51
332.647767090871
  0
ARC
  5
135
330
1F
100
AcDbEntity
  8
1
  6
Continuous
 62
     7
100
AcDbCircle
 10
1562.424305062085
 20
1643.894991425444
 30
0.0
 40
37.0
100
AcDbArc
 50
90.0
 51
242.6477670908715
  0
ARC
  5
136
330
1F
100
AcDbEntity
  8
1
  6
Continuous
 62
     7
100
AcDbCircle
 10
1562.424305062085
 20
1643.894991425444
 30
0.0
 40
37.00000000000014
100
AcDbArc
 50
297.3522329091285
 51
90.0
  0
ARC
  5
137
330
1F
100
AcDbEntity
  8
1
  6
Continuous
 62
     7
100
AcDbCircle
 10
1562.424305062085
 20
1143.894991425444
 30
0.0
 40
37.00000000000014
100
AcDbArc
 50
297.3522329091285
 51
0.0
  0
ARC
  5
138
330
1F
100
AcDbEntity
  8
1
  6
Continuous
 62
     7
100
AcDbCircle
 10
1562.424305062085
 20
1143.894991425444
 30
0.0
 40
37.0
100
AcDbArc
 50
0.0
 51
62.64776709087131
  0
ARC
  5
139
330
1F
100
AcDbEntity
  8
1
  6
Continuous
 62
     7
100
AcDbCircle
 10
1562.424305062085
 20
1143.894991425444
 30
0.0
 40
36.99999999999993
100
AcDbArc
 50
117.3522329091287
 51
242.6477670908715
  0
ARC
  5
13A
330
1F
100
AcDbEntity
  8
1
  6
Continuous
 62
     7
100
AcDbCircle
 10
623.4225030859054
 20
1143.894991425444
 30
0.0
 40
19.0
100
AcDbArc
 50
270.0
 51
0.0
  0
ARC
  5
13B
330
1F
100
AcDbEntity
  8
1
  6
Continuous
 62
     7
100
AcDbCircle
 10
623.4225030859054
 20
1143.894991425444
 30
0.0
 40
19.0
100
AcDbArc
 50
0.0
 51
90.0
  0
ARC
  5
13C
330
1F
100
AcDbEntity
  8
1
  6
Continuous
 62
     7
100
AcDbCircle
 10
1562.424305062085
 20
1938.124919339003
 30
0.0
 40
19.0
100
AcDbArc
 50
270.0
 51
0.0
  0
ARC
  5
13D
330
1F
100
AcDbEntity
  8
1
  6
Continuous
 62
     7
100
AcDbCircle
 10
1562.424305062085
 20
1938.124919339003
 30
0.0
 40
19.0
100
AcDbArc
 50
180.0
 51
270.0
  0
ARC
  5
140
330
1F
100
AcDbEntity
  8
1
  6
Continuous
 62
     7
100
AcDbCircle
 10
1012.446779809918
 20
1988.124919339003
 30
0.0
 40
68.99999999999977
100
AcDbArc
 50
180.0
 51
270.0
  0
ARC
  5
141
330
1F
100
AcDbEntity
  8
1
  6
Continuous
 62
     7
100
AcDbCircle
 10
592.4225030859052
 20
1593.872516677611
 30
0.0
 40
69.0
100
AcDbArc
 50
0.0
 51
90.0
  0
ARC
  5
142
330
1F
100
AcDbEntity
  8
1
  6
Continuous
 62
     7
100
AcDbCircle
 10
1510.424305062085
 20
995.8949914254445
 30
0.0
 40
69.00000000000023
100
AcDbArc
 50
270.0
 51
0.0
  0
ARC
  5
143
330
1F
100
AcDbEntity
  8
1
  6
Continuous
 62
     7
100
AcDbCircle
 10
1504.424305062085
 20
1001.894991425444
 30
0.0
 40
40.99999999999977
100
AcDbArc
 50
270.0
 51
0.0
  0
ARC
  5
144
330
1F
100
AcDbEntity
  8
1
  6
Continuous
 62
     7
100
AcDbCircle
 10
582.4225030859054
 20
1583.855760650408
 30
0.0
 40
41.0
100
AcDbArc
 50
0.0
 51
90.0
  0
ARC
  5
145
330
1F
100
AcDbEntity
  8
1
  6
Continuous
 62
     7
100
AcDbCircle
 10
1022.463535837121
 20
1998.124919339003
 30
0.0
 40
40.99999999999966
100
AcDbArc
 50
180.0
 51
270.0
  0
ARC
  5
146
330
1F
100
AcDbEntity
  8
1
  6
DOT_CENTER
 62
     2
100
AcDbCircle
 10
1512.424305062085
 20
993.894991425444
 30
0.0
 40
50.0
100
AcDbArc
 50
270.0
 51
359.9999999999998
  0
ARC
  5
147
330
1F
100
AcDbEntity
  8
1
  6
DOT_CENTER
 62
     2
100
AcDbCircle
 10
1012.424305062085
 20
1988.124919339003
 30
0.0
 40
49.99999999999955
100
AcDbArc
 50
180.0000000000013
 51
270.0
  0
ARC
  5
148
330
1F
100
AcDbEntity
  8
1
  6
DOT_CENTER
 62
     2
100
AcDbCircle
 10
592.4225030859054
 20
1593.894991425444
 30
0.0
 40
50.0
100
AcDbArc
 50
0.0
 51
90.0
  0
ARC
  5
149
330
1F
100
AcDbEntity
  8
1
  6
Continuous
 62
     7
100
AcDbCircle
 10
563.4225030859052
 20
1610.894991425444
 30
0.0
 40
4.0
100
AcDbArc
 50
270.0
 51
0.0
  0
ARC
  5
14A
330
1F
100
AcDbEntity
  8
1
  6
Continuous
 62
     7
100
AcDbCircle
 10
563.4225030859052
 20
1676.894991425444
 30
0.0
 40
4.0
100
AcDbArc
 50
0.0
 51
90.0
  0
ARC
  5
14B
330
1F
100
AcDbEntity
  8
1
  6
Continuous
 62
     7
100
AcDbCircle
 10
563.4225030859054
 20
910.8949914254442
 30
0.0
 40
4.0
100
AcDbArc
 50
270.0
 51
0.0
  0
ARC
  5
14C
330
1F
100
AcDbEntity
  8
1
  6
Continuous
 62
     7
100
AcDbCircle
 10
563.4225030859054
 20
976.8949914254442
 30
0.0
 40
4.0
100
AcDbArc
 50
0.0
 51
90.0
  0
ARC
  5
14D
330
1F
100
AcDbEntity
  8
1
  6
Continuous
 62
     7
100
AcDbCircle
 10
563.4225030859054
 20
1110.894991425444
 30
0.0
 40
4.0
100
AcDbArc
 50
270.0
 51
0.0
  0
ARC
  5
14E
330
1F
100
AcDbEntity
  8
1
  6
Continuous
 62
     7
100
AcDbCircle
 10
563.4225030859054
 20
1176.894991425444
 30
0.0
 40
4.0
100
AcDbArc
 50
0.0
 51
90.0
  0
ARC
  5
14F
330
1F
100
AcDbEntity
  8
1
  6
Continuous
 62
     7
100
AcDbCircle
 10
995.4243050620847
 20
2017.124919339003
 30
0.0
 40
4.0
100
AcDbArc
 50
270.0
 51
0.0
  0
ARC
  5
150
330
1F
100
AcDbEntity
  8
1
  6
Continuous
 62
     7
100
AcDbCircle
 10
929.4243050620847
 20
2017.124919339003
 30
0.0
 40
4.0
100
AcDbArc
 50
180.0
 51
270.0
  0
ARC
  5
151
330
1F
100
AcDbEntity
  8
1
  6
Continuous
 62
     7
100
AcDbCircle
 10
1595.424305062085
 20
2017.124919339003
 30
0.0
 40
4.0
100
AcDbArc
 50
270.0
 51
0.0
  0
ARC
  5
152
330
1F
100
AcDbEntity
  8
1
  6
Continuous
 62
     7
100
AcDbCircle
 10
1529.424305062085
 20
2017.124919339003
 30
0.0
 40
4.0
100
AcDbArc
 50
180.0
 51
270.0
  0
ARC
  5
153
330
1F
100
AcDbEntity
  8
1
  6
Continuous
 62
     7
100
AcDbCircle
 10
1595.424305062085
 20
2017.124919339003
 30
0.0
 40
4.0
100
AcDbArc
 50
270.0
 51
0.0
  0
ARC
  5
154
330
1F
100
AcDbEntity
  8
1
  6
Continuous
 62
     7
100
AcDbCircle
 10
1529.424305062085
 20
2017.124919339003
 30
0.0
 40
4.0
100
AcDbArc
 50
180.0
 51
270.0
  0
MTEXT
  5
156
330
1F
100
AcDbEntity
  8
1
 62
     7
100
AcDbMText
 10
1065.0
 20
125.0000000000002
 30
0.0
 40
25.0
 41
0.0
 71
     5
 72
     1
  1
8
  7
CONVERTER_12
 73
     1
 44
0.7202881152461
  0
MTEXT
  5
157
330
1F
100
AcDbEntity
  8
1
 62
     7
100
AcDbMText
 10
1007.500000000001
 20
125.0000000000002
 30
0.0
 40
25.0
 41
0.0
 71
     5
 72
     1
  1
06
  7
CONVERTER_12
 73
     1
 44
0.7202881152461
  0
MTEXT
  5
158
330
1F
100
AcDbEntity
  8
1
 62
     7
100
AcDbMText
 10
1235.0
 20
125.0000000000002
 30
0.0
 40
25.0
 41
0.0
 71
     5
 72
     1
  1
8
  7
CONVERTER_12
 73
     1
 44
0.7202881152461
  0
MTEXT
  5
159
330
1F
100
AcDbEntity
  8
1
 62
     7
100
AcDbMText
 10
1177.500000000001
 20
125.0000000000002
 30
0.0
 40
25.0
 41
0.0
 71
     5
 72
     1
  1
06
  7
CONVERTER_12
 73
     1
 44
0.7202881152461
  0
MTEXT
  5
15A
330
1F
100
AcDbEntity
  8
1
 62
     7
100
AcDbMText
 10
340.0
 20
305.0000000000001
 30
0.0
 40
30.0
 41
0.0
 71
     4
 72
     1
  1
パイプ径：25,32,34,38
  7
CONVERTER_11
 73
     1
 44
0.63636363636364
  0
MTEXT
  5
15B
330
1F
100
AcDbEntity
  8
0
 62
     7
100
AcDbMText
 10
339.9999999999996
 20
375.0
 30
0.0
 40
35.0
 41
0.0
 71
     4
 72
     1
  1
表面仕上げ：鏡面又はヘアーライン
  7
CONVERTER_11
 73
     1
 44
0.63636363636364
  0
MTEXT
  5
15C
330
1F
100
AcDbEntity
  8
1
 62
     7
100
AcDbMText
 10
852.5000000000005
 20
170.0000000000002
 30
0.0
 40
35.0
 41
0.0
 71
     5
 72
     1
  1
1
  7
CONVERTER_12
 73
     1
 44
0.7202881152461
  0
MTEXT
  5
15D
330
1F
100
AcDbEntity
  8
1
 62
     7
100
AcDbMText
 10
570.0000000000005
 20
227.5000000000004
 30
0.0
 40
35.0
 41
0.0
 71
     5
 72
     1
  1
L型ニギリバー
  7
CONVERTER_11
 73
     1
 44
0.54545454545455
  0
MTEXT
  5
15E
330
1F
100
AcDbEntity
  8
1
 62
     7
100
AcDbMText
 10
570.0000000000005
 20
142.5000000000002
 30
0.0
 40
35.0
 41
0.0
 71
     5
 72
     1
  1
W92-600R
  7
CONVERTER_12
 73
     1
 44
0.7202881152461
  0
MTEXT
  5
15F
330
1F
100
AcDbEntity
  8
1
 62
     7
100
AcDbMText
 10
937.5000000000005
 20
170.0000000000002
 30
0.0
 40
35.0
 41
0.0
 71
     5
 72
     1
  1
10
  7
CONVERTER_12
 73
     1
 44
0.7202881152461
  0
MTEXT
  5
160
330
1F
100
AcDbEntity
  8
1
 62
     7
100
AcDbMText
 10
1347.500000000001
 20
125.0000000000002
 30
0.0
 40
25.0
 41
0.0
 71
     5
 72
     1
  1
06
  7
CONVERTER_12
 73
     1
 44
0.7202881152461
  0
MTEXT
  5
161
330
1F
100
AcDbEntity
  8
1
 62
     7
100
AcDbMText
 10
1405.0
 20
125.0000000000002
 30
0.0
 40
25.0
 41
0.0
 71
     5
 72
     1
  1
8
  7
CONVERTER_12
 73
     1
 44
0.7202881152461
  0
MTEXT
  5
162
330
1F
100
AcDbEntity
  8
1
 62
     7
100
AcDbMText
 10
1517.5
 20
125.0000000000002
 30
0.0
 40
25.0
 41
0.0
 71
     5
 72
     1
  1
04
  7
CONVERTER_12
 73
     1
 44
0.7202881152461
  0
MTEXT
  5
163
330
1F
100
AcDbEntity
  8
1
 62
     7
100
AcDbMText
 10
1575.0
 20
125.0000000000002
 30
0.0
 40
25.0
 41
0.0
 71
     5
 72
     1
  1
3
  7
CONVERTER_12
 73
     1
 44
0.7202881152461
  0
DIMENSION
  5
16E
330
1F
100
AcDbEntity
  8
1
100
AcDbDimension
  2
*D3
 10
1562.424305062085
 20
1781.698089386418
 30
0.0
 11
1262.424305062085
 21
1816.698089386418
 31
0.0
 70
    32
  1
<>
 71
     5
 42
-1.0
 53
0.00013888888889
  3
ME10_DIM_10
100
AcDbAlignedDimension
 13
962.4243050620848
 23
993.750782906201
 33
0.0
 14
1562.424305062085
 24
1697.798498712091
 34
0.0
100
AcDbRotatedDimension
  0
DIMENSION
  5
179
330
1F
100
AcDbEntity
  8
1
100
AcDbDimension
  2
*D4
 10
1758.683021393105
 20
1643.894991425444
 30
0.0
 11
1723.683021393105
 21
1285.124132810067
 31
0.0
 70
    32
  1
<>
 71
     5
 42
-1.0
 53
90.0
  3
ME10_DIM_11
100
AcDbAlignedDimension
 13
1512.424305062085
 23
943.894991425444
 33
0.0
 14
1614.259686233517
 24
1643.894991425444
 34
0.0
 50
90.0
100
AcDbRotatedDimension
  0
DIMENSION
  5
186
330
1F
100
AcDbEntity
  8
1
100
AcDbDimension
  2
*D5
 10
642.4225030859054
 20
1781.698089386418
 30
0.0
 11
605.4622477737593
 21
1816.698089386418
 31
0.0
 70
    32
  1
<>
 71
     5
 42
-1.0
 53
0.00013888888889
  3
ME10_DIM_12
100
AcDbAlignedDimension
 13
562.4225030859052
 23
1752.937100425224
 33
0.0
 14
642.4225030859054
 24
1593.894991425444
 34
0.0
100
AcDbRotatedDimension
  0
DIMENSION
  5
191
330
1F
100
AcDbEntity
  8
1
100
AcDbDimension
  2
*D6
 10
1678.683021393105
 20
1143.894991425444
 30
0.0
 11
1643.683021393105
 21
1386.110398234612
 31
0.0
 70
    32
  1
<>
 71
     5
 42
-1.0
 53
90.0
  3
ME10_DIM_13
100
AcDbAlignedDimension
 13
1614.259686233517
 23
1643.894991425444
 33
0.0
 14
1614.259686233517
 24
1143.894991425444
 34
0.0
 50
90.0
100
AcDbRotatedDimension
  0
INSERT
  5
198
330
1F
100
AcDbEntity
  8
1
100
AcDbBlockReference
  2
*D7
 10
0.0
 20
0.0
 30
0.0
  0
INSERT
  5
19F
330
1F
100
AcDbEntity
  8
1
100
AcDbBlockReference
  2
*D8
 10
0.0
 20
0.0
 30
0.0
  0
INSERT
  5
1A6
330
1F
100
AcDbEntity
  8
1
100
AcDbBlockReference
  2
*D9
 10
0.0
 20
0.0
 30
0.0
  0
HATCH
  5
1A7
330
1F
100
AcDbEntity
  8
0
  6
Continuous
 62
     4
100
AcDbHatch
 10
0.0
 20
0.0
 30
0.0
210
0.0
220
0.0
230
1.0
  2
CUSTOM15
 70
     0
 71
     0
 91
        1
 92
        1
 93
        4
 72
     1
 10
562.4225030859054
 20
844.3772419175126
 11
512.4225030859054
 21
843.061433649638
 72
     1
 10
512.4225030859054
 20
843.061433649638
 11
512.4225030859052
 21
1752.937100425224
 72
     1
 10
512.4225030859052
 20
1752.937100425224
 11
562.4225030859052
 21
1752.937100425224
 72
     1
 10
562.4225030859052
 20
1752.937100425224
 11
562.4225030859054
 21
844.3772419175126
 97
        0
 75
     1
 76
     2
 52
45.0
 41
40.0
 77
     0
 78
     2
 53
45.0
 43
0.0
 44
0.0
 45
-56.5685424949238
 46
0.0000000000000044
 79
     0
 53
45.0
 43
9.428090415820634
 44
-9.428090415820632
 45
-56.5685424949238
 46
0.0000000000000044
 79
     0
 98
        1
 10
0.0
 20
0.0
  0
HATCH
  5
1A8
330
1F
100
AcDbEntity
  8
0
  6
Continuous
 62
     4
100
AcDbHatch
 10
0.0
 20
0.0
 30
0.0
210
0.0
220
0.0
230
1.0
  2
CUSTOM16
 70
     0
 71
     0
 91
        1
 92
        1
 93
        4
 72
     1
 10
1815.942054570016
 20
2018.124919339003
 11
1817.257862837891
 21
2068.124919339003
 72
     1
 10
1817.257862837891
 20
2068.124919339003
 11
853.3821960623054
 21
2068.124919339003
 72
     1
 10
853.3821960623054
 20
2068.124919339003
 11
853.3821960623054
 21
2018.124919339003
 72
     1
 10
853.3821960623054
 20
2018.124919339003
 11
1815.942054570016
 21
2018.124919339003
 97
        0
 75
     1
 76
     2
 52
45.0
 41
40.0
 77
     0
 78
     2
 53
45.0
 43
0.0
 44
0.0
 45
-56.5685424949238
 46
0.0000000000000044
 79
     0
 53
45.0
 43
9.428090415820634
 44
-9.428090415820632
 45
-56.5685424949238
 46
0.0000000000000044
 79
     0
 98
        1
 10
0.0
 20
0.0
  0
ENDSEC
  0
SECTION
  2
OBJECTS
  0
DICTIONARY
  5
C
330
0
100
AcDbDictionary
281
     1
  3
ACAD_GROUP
350
D
  3
ACAD_LAYOUT
350
1A
  3
ACAD_MATERIAL
350
3B
  3
ACAD_MLEADERSTYLE
350
1AB
  3
ACAD_MLINESTYLE
350
17
  3
ACAD_PLOTSETTINGS
350
19
  3
ACAD_PLOTSTYLENAME
350
E
  3
ACAD_VISUALSTYLE
350
2A
  3
AcDbVariableDictionary
350
1A9
  0
DICTIONARY
  5
D
102
{ACAD_REACTORS
330
C
102
}
330
C
100
AcDbDictionary
281
     1
  0
DICTIONARY
  5
1A
102
{ACAD_REACTORS
330
C
102
}
330
C
100
AcDbDictionary
281
     1
  3
Layout1
350
1E
  3
Layout2
350
26
  3
Model
350
22
  0
DICTIONARY
  5
3B
102
{ACAD_REACTORS
330
C
102
}
330
C
100
AcDbDictionary
281
     1
  3
ByBlock
350
3D
  3
ByLayer
350
3C
  3
Global
350
3E
  0
DICTIONARY
  5
1AB
102
{ACAD_REACTORS
330
C
102
}
330
C
100
AcDbDictionary
281
     1
  0
DICTIONARY
  5
17
102
{ACAD_REACTORS
330
C
102
}
330
C
100
AcDbDictionary
281
     1
  3
Standard
350
18
  0
DICTIONARY
  5
19
102
{ACAD_REACTORS
330
C
102
}
330
C
100
AcDbDictionary
281
     1
  0
ACDBDICTIONARYWDFLT
  5
E
102
{ACAD_REACTORS
330
C
102
}
330
C
100
AcDbDictionary
281
     1
  3
Normal
350
F
100
AcDbDictionaryWithDefault
340
F
  0
DICTIONARY
  5
2A
102
{ACAD_REACTORS
330
C
102
}
330
C
100
AcDbDictionary
281
     1
  3
2dWireframe
350
2F
  3
3D Hidden
350
31
  3
3dWireframe
350
30
  3
Basic
350
32
  3
Brighten
350
36
  3
ColorChange
350
3A
  3
Conceptual
350
34
  3
Dim
350
35
  3
Facepattern
350
39
  3
Flat
350
2B
  3
FlatWithEdges
350
2C
  3
Gouraud
350
2D
  3
GouraudWithEdges
350
2E
  3
Linepattern
350
38
  3
Realistic
350
33
  3
Thicken
350
37
  0
DICTIONARY
  5
1A9
102
{ACAD_REACTORS
330
C
102
}
330
C
100
AcDbDictionary
281
     1
  3
DIMASSOC
350
1AC
  3
HIDETEXT
350
1AD
  0
LAYOUT
  5
1E
102
{ACAD_REACTORS
330
1A
102
}
330
1A
100
AcDbPlotSettings
  1

  2
none_device
  4

  6

 40
0.0
 41
0.0
 42
0.0
 43
0.0
 44
0.0
 45
0.0
 46
0.0
 47
0.0
 48
0.0
 49
0.0
140
0.0
141
0.0
142
1.0
143
1.0
 70
   688
 72
     0
 73
     0
 74
     5
  7

 75
    16
147
1.0
148
0.0
149
0.0
100
AcDbLayout
  1
Layout1
 70
     1
 71
     1
 10
0.0
 20
0.0
 11
12.0
 21
9.0
 12
0.0
 22
0.0
 32
0.0
 14
1.00000000000000E+20
 24
1.00000000000000E+20
 34
1.00000000000000E+20
 15
-1.00000000000000E+20
 25
-1.00000000000000E+20
 35
-1.00000000000000E+20
146
0.0
 13
0.0
 23
0.0
 33
0.0
 16
1.0
 26
0.0
 36
0.0
 17
0.0
 27
1.0
 37
0.0
 76
     0
330
1B
  0
LAYOUT
  5
26
102
{ACAD_REACTORS
330
1A
102
}
330
1A
100
AcDbPlotSettings
  1

  2
none_device
  4

  6

 40
0.0
 41
0.0
 42
0.0
 43
0.0
 44
0.0
 45
0.0
 46
0.0
 47
0.0
 48
0.0
 49
0.0
140
0.0
141
0.0
142
1.0
143
1.0
 70
   688
 72
     0
 73
     0
 74
     5
  7

 75
    16
147
1.0
148
0.0
149
0.0
100
AcDbLayout
  1
Layout2
 70
     1
 71
     2
 10
0.0
 20
0.0
 11
0.0
 21
0.0
 12
0.0
 22
0.0
 32
0.0
 14
0.0
 24
0.0
 34
0.0
 15
0.0
 25
0.0
 35
0.0
146
0.0
 13
0.0
 23
0.0
 33
0.0
 16
1.0
 26
0.0
 36
0.0
 17
0.0
 27
1.0
 37
0.0
 76
     0
330
23
  0
LAYOUT
  5
22
102
{ACAD_REACTORS
330
1A
102
}
330
1A
100
AcDbPlotSettings
  1

  2
none_device
  4

  6

 40
0.0
 41
0.0
 42
0.0
 43
0.0
 44
0.0
 45
0.0
 46
0.0
 47
0.0
 48
0.0
 49
0.0
140
0.0
141
0.0
142
1.0
143
1.0
 70
  1712
 72
     0
 73
     0
 74
     0
  7

 75
     0
147
1.0
148
0.0
149
0.0
100
AcDbLayout
  1
Model
 70
     1
 71
     0
 10
0.0
 20
0.0
 11
12.0
 21
9.0
 12
0.0
 22
0.0
 32
0.0
 14
0.0
 24
0.0
 34
0.0
 15
2100.000000000001
 25
2970.0
 35
0.0
146
0.0
 13
0.0
 23
0.0
 33
0.0
 16
1.0
 26
0.0
 36
0.0
 17
0.0
 27
1.0
 37
0.0
 76
     0
330
1F
331
29
  0
MATERIAL
  5
3D
102
{ACAD_REACTORS
330
3B
102
}
102
{ACAD_XDICTIONARY
360
1D0
102
}
330
3B
100
AcDbMaterial
  1
ByBlock
  0
MATERIAL
  5
3C
102
{ACAD_REACTORS
330
3B
102
}
102
{ACAD_XDICTIONARY
360
1CE
102
}
330
3B
100
AcDbMaterial
  1
ByLayer
  0
MATERIAL
  5
3E
102
{ACAD_REACTORS
330
3B
102
}
102
{ACAD_XDICTIONARY
360
1D2
102
}
330
3B
100
AcDbMaterial
  1
Global
  0
MLINESTYLE
  5
18
102
{ACAD_REACTORS
330
17
102
}
330
17
100
AcDbMlineStyle
  2
Standard
 70
     0
  3

 62
   256
 51
90.0
 52
90.0
 71
     2
 49
0.5
 62
   256
  6
BYLAYER
 49
-0.5
 62
   256
  6
BYLAYER
  0
ACDBPLACEHOLDER
  5
F
102
{ACAD_REACTORS
330
E
102
}
330
E
  0
VISUALSTYLE
  5
2F
102
{ACAD_REACTORS
330
2A
102
}
102
{ACAD_XDICTIONARY
360
1B6
102
}
330
2A
100
AcDbVisualStyle
  2
2dWireframe
 70
     4
 71
     0
 72
     2
 73
     0
 90
        0
 40
-0.6
 41
-30.0
 62
     5
 63
     7
 74
     1
 91
        4
 64
     7
 65
   257
 75
     1
175
     1
 42
1.0
 92
        0
 66
   257
 43
1.0
 76
     1
 77
     6
 78
     2
 67
     7
 79
     5
170
     0
171
     0
290
     0
174
     0
 93
        1
 44
0.0
173
     0
291
     0
 45
0.0
1001
ACAD
1000
AcDbSavedByObjectVersion
1070
     0
  0
VISUALSTYLE
  5
31
102
{ACAD_REACTORS
330
2A
102
}
102
{ACAD_XDICTIONARY
360
1BA
102
}
330
2A
100
AcDbVisualStyle
  2
3D Hidden
 70
     6
 71
     1
 72
     2
 73
     2
 90
        0
 40
-0.6
 41
-30.0
 62
     5
 63
     7
 74
     2
 91
        2
 64
     7
 65
   257
 75
     2
175
     1
 42
40.0
 92
        0
 66
   257
 43
1.0
 76
     1
 77
     6
 78
     2
 67
     7
 79
     3
170
     0
171
     0
290
     0
174
     0
 93
        1
 44
0.0
173
     0
291
     0
 45
0.0
1001
ACAD
1000
AcDbSavedByObjectVersion
1070
     0
  0
VISUALSTYLE
  5
30
102
{ACAD_REACTORS
330
2A
102
}
102
{ACAD_XDICTIONARY
360
1B8
102
}
330
2A
100
AcDbVisualStyle
  2
3dWireframe
 70
     5
 71
     0
 72
     2
 73
     0
 90
        0
 40
-0.6
 41
-30.0
 62
     5
 63
     7
 74
     1
 91
        4
 64
     7
 65
   257
 75
     1
175
     1
 42
1.0
 92
        0
 66
   257
 43
1.0
 76
     1
 77
     6
 78
     2
 67
     7
 79
     5
170
     0
171
     0
290
     0
174
     0
 93
        1
 44
0.0
173
     0
291
     0
 45
0.0
1001
ACAD
1000
AcDbSavedByObjectVersion
1070
     0
  0
VISUALSTYLE
  5
32
102
{ACAD_REACTORS
330
2A
102
}
102
{ACAD_XDICTIONARY
360
1BC
102
}
330
2A
100
AcDbVisualStyle
  2
Basic
 70
     7
 71
     1
 72
     0
 73
     1
 90
        0
 40
-0.6
 41
-30.0
 62
     5
 63
     7
 74
     0
 91
        4
 64
     7
 65
   257
 75
     1
175
     1
 42
1.0
 92
        8
 66
     7
 43
1.0
 76
     1
 77
     6
 78
     2
 67
     7
 79
     5
170
     0
171
     0
290
     0
174
     0
 93
        1
 44
0.0
173
     0
291
     1
 45
0.0
1001
ACAD
1000
AcDbSavedByObjectVersion
1070
     0
  0
VISUALSTYLE
  5
36
102
{ACAD_REACTORS
330
2A
102
}
102
{ACAD_XDICTIONARY
360
1C4
102
}
330
2A
100
AcDbVisualStyle
  2
Brighten
 70
    12
 71
     2
 72
     2
 73
     0
 90
        0
 40
-0.6
 41
-30.0
 62
     5
 63
     7
 74
     1
 91
        4
 64
     7
 65
   257
 75
     1
175
     1
 42
1.0
 92
        8
 66
     7
 43
1.0
 76
     1
 77
     6
 78
     2
 67
     7
 79
     5
170
     0
171
     0
290
     0
174
     0
 93
        1
 44
50.0
173
     0
291
     1
 45
0.0
1001
ACAD
1000
AcDbSavedByObjectVersion
1070
     0
  0
VISUALSTYLE
  5
3A
102
{ACAD_REACTORS
330
2A
102
}
102
{ACAD_XDICTIONARY
360
1CC
102
}
330
2A
100
AcDbVisualStyle
  2
ColorChange
 70
    16
 71
     2
 72
     2
 73
     3
 90
        0
 40
-0.6
 41
-30.0
 62
     5
 63
     8
 74
     1
 91
        4
 64
     7
 65
   257
 75
     1
175
     1
 42
1.0
 92
        8
 66
     8
 43
1.0
 76
     1
 77
     6
 78
     2
 67
     7
 79
     5
170
     0
171
     0
290
     0
174
     0
 93
        1
 44
0.0
173
     0
291
     1
 45
0.0
1001
ACAD
1000
AcDbSavedByObjectVersion
1070
     0
  0
VISUALSTYLE
  5
34
102
{ACAD_REACTORS
330
2A
102
}
102
{ACAD_XDICTIONARY
360
1C0
102
}
330
2A
100
AcDbVisualStyle
  2
Conceptual
 70
     9
 71
     3
 72
     2
 73
     0
 90
        0
 40
-0.6
 41
-30.0
 62
     5
 63
     7
 74
     2
 91
        2
 64
     7
 65
   257
 75
     1
175
     1
 42
40.0
 92
        8
 66
     7
 43
1.0
 76
     1
 77
     6
 78
     2
 67
     7
 79
     3
170
     0
171
     0
290
     0
174
     0
 93
        1
 44
0.0
173
     0
291
     0
 45
0.0
1001
ACAD
1000
AcDbSavedByObjectVersion
1070
     0
  0
VISUALSTYLE
  5
35
102
{ACAD_REACTORS
330
2A
102
}
102
{ACAD_XDICTIONARY
360
1C2
102
}
330
2A
100
AcDbVisualStyle
  2
Dim
 70
    11
 71
     2
 72
     2
 73
     0
 90
        0
 40
-0.6
 41
-30.0
 62
     5
 63
     7
 74
     1
 91
        4
 64
     7
 65
   257
 75
     1
175
     1
 42
1.0
 92
        8
 66
     7
 43
1.0
 76
     1
 77
     6
 78
     2
 67
     7
 79
     5
170
     0
171
     0
290
     0
174
     0
 93
        1
 44
-50.0
173
     0
291
     1
 45
0.0
1001
ACAD
1000
AcDbSavedByObjectVersion
1070
     0
  0
VISUALSTYLE
  5
39
102
{ACAD_REACTORS
330
2A
102
}
102
{ACAD_XDICTIONARY
360
1CA
102
}
330
2A
100
AcDbVisualStyle
  2
Facepattern
 70
    15
 71
     2
 72
     2
 73
     0
 90
        0
 40
-0.6
 41
-30.0
 62
     5
 63
     7
 74
     1
 91
        4
 64
     7
 65
   257
 75
     1
175
     1
 42
1.0
 92
        8
 66
     7
 43
1.0
 76
     1
 77
     6
 78
     2
 67
     7
 79
     5
170
     0
171
     0
290
     0
174
     0
 93
        1
 44
0.0
173
     0
291
     1
 45
0.0
1001
ACAD
1000
AcDbSavedByObjectVersion
1070
     0
  0
VISUALSTYLE
  5
2B
102
{ACAD_REACTORS
330
2A
102
}
102
{ACAD_XDICTIONARY
360
1AE
102
}
330
2A
100
AcDbVisualStyle
  2
Flat
 70
     0
 71
     2
 72
     1
 73
     1
 90
        2
 40
-0.6
 41
30.0
 62
     5
 63
     7
 74
     0
 91
        4
 64
     7
 65
   257
 75
     1
175
     1
 42
1.0
 92
        8
 66
     7
 43
1.0
 76
     1
 77
     6
 78
     2
 67
     7
 79
     5
170
     0
171
     0
290
     0
174
     0
 93
       13
 44
0.0
173
     0
291
     1
 45
0.0
1001
ACAD
1000
AcDbSavedByObjectVersion
1070
     0
  0
VISUALSTYLE
  5
2C
102
{ACAD_REACTORS
330
2A
102
}
102
{ACAD_XDICTIONARY
360
1B0
102
}
330
2A
100
AcDbVisualStyle
  2
FlatWithEdges
 70
     1
 71
     2
 72
     1
 73
     1
 90
        2
 40
-0.6
 41
30.0
 62
     5
 63
     7
 74
     1
 91
        4
 64
     7
 65
   257
 75
     1
175
     1
 42
1.0
 92
        0
 66
   257
 43
1.0
 76
     1
 77
     6
 78
     2
 67
     7
 79
     5
170
     0
171
     0
290
     0
174
     0
 93
       13
 44
0.0
173
     0
291
     1
 45
0.0
1001
ACAD
1000
AcDbSavedByObjectVersion
1070
     0
  0
VISUALSTYLE
  5
2D
102
{ACAD_REACTORS
330
2A
102
}
102
{ACAD_XDICTIONARY
360
1B2
102
}
330
2A
100
AcDbVisualStyle
  2
Gouraud
 70
     2
 71
     2
 72
     2
 73
     1
 90
        2
 40
-0.6
 41
30.0
 62
     5
 63
     7
 74
     0
 91
        4
 64
     7
 65
   257
 75
     1
175
     1
 42
1.0
 92
        0
 66
     7
 43
1.0
 76
     1
 77
     6
 78
     2
 67
     7
 79
     5
170
     0
171
     0
290
     0
174
     0
 93
       13
 44
0.0
173
     0
291
     1
 45
0.0
1001
ACAD
1000
AcDbSavedByObjectVersion
1070
     0
  0
VISUALSTYLE
  5
2E
102
{ACAD_REACTORS
330
2A
102
}
102
{ACAD_XDICTIONARY
360
1B4
102
}
330
2A
100
AcDbVisualStyle
  2
GouraudWithEdges
 70
     3
 71
     2
 72
     2
 73
     1
 90
        2
 40
-0.6
 41
30.0
 62
     5
 63
     7
 74
     1
 91
        4
 64
     7
 65
   257
 75
     1
175
     1
 42
1.0
 92
        0
 66
   257
 43
1.0
 76
     1
 77
     6
 78
     2
 67
     7
 79
     5
170
     0
171
     0
290
     0
174
     0
 93
       13
 44
0.0
173
     0
291
     1
 45
0.0
1001
ACAD
1000
AcDbSavedByObjectVersion
1070
     0
  0
VISUALSTYLE
  5
38
102
{ACAD_REACTORS
330
2A
102
}
102
{ACAD_XDICTIONARY
360
1C8
102
}
330
2A
100
AcDbVisualStyle
  2
Linepattern
 70
    14
 71
     2
 72
     2
 73
     0
 90
        0
 40
-0.6
 41
-30.0
 62
     5
 63
     7
 74
     1
 91
        4
 64
     7
 65
   257
 75
     7
175
     7
 42
1.0
 92
        8
 66
     7
 43
1.0
 76
     1
 77
     6
 78
     2
 67
     7
 79
     5
170
     0
171
     0
290
     0
174
     0
 93
        1
 44
0.0
173
     0
291
     1
 45
0.0
1001
ACAD
1000
AcDbSavedByObjectVersion
1070
     0
  0
VISUALSTYLE
  5
33
102
{ACAD_REACTORS
330
2A
102
}
102
{ACAD_XDICTIONARY
360
1BE
102
}
330
2A
100
AcDbVisualStyle
  2
Realistic
 70
     8
 71
     2
 72
     2
 73
     0
 90
        0
 40
-0.6
 41
-30.0
 62
     5
 63
     7
 74
     1
 91
        0
 64
     7
 65
   257
 75
     1
175
     1
 42
1.0
 92
        8
 66
     8
 43
1.0
 76
     1
 77
     6
 78
     2
 67
     7
 79
     5
170
     0
171
     0
290
     0
174
     0
 93
       13
 44
0.0
173
     0
291
     0
 45
0.0
1001
ACAD
1000
AcDbSavedByObjectVersion
1070
     0
  0
VISUALSTYLE
  5
37
102
{ACAD_REACTORS
330
2A
102
}
102
{ACAD_XDICTIONARY
360
1C6
102
}
330
2A
100
AcDbVisualStyle
  2
Thicken
 70
    13
 71
     2
 72
     2
 73
     0
 90
        0
 40
-0.6
 41
-30.0
 62
     5
 63
     7
 74
     1
 91
        4
 64
     7
 65
   257
 75
     1
175
     1
 42
1.0
 92
       12
 66
     7
 43
1.0
 76
     1
 77
     6
 78
     2
 67
     7
 79
     5
170
     0
171
     0
290
     0
174
     0
 93
        1
 44
0.0
173
     0
291
     1
 45
0.0
1001
ACAD
1000
AcDbSavedByObjectVersion
1070
     0
  0
DICTIONARYVAR
  5
1AC
102
{ACAD_REACTORS
330
1A9
102
}
330
1A9
100
DictionaryVariables
280
     0
  1
2
  0
DICTIONARYVAR
  5
1AD
102
{ACAD_REACTORS
330
1A9
102
}
330
1A9
100
DictionaryVariables
280
     0
  1
1
  0
DICTIONARY
  5
1D0
330
3D
100
AcDbDictionary
280
     1
281
     1
  3
ACAD_XREC_ROUNDTRIP
360
1D1
  0
DICTIONARY
  5
1CE
330
3C
100
AcDbDictionary
280
     1
281
     1
  3
ACAD_XREC_ROUNDTRIP
360
1CF
  0
DICTIONARY
  5
1D2
330
3E
100
AcDbDictionary
280
     1
281
     1
  3
ACAD_XREC_ROUNDTRIP
360
1D3
  0
DICTIONARY
  5
1B6
330
2F
100
AcDbDictionary
280
     1
281
     1
  3
ACAD_XREC_ROUNDTRIP
360
1B7
  0
DICTIONARY
  5
1BA
330
31
100
AcDbDictionary
280
     1
281
     1
  3
ACAD_XREC_ROUNDTRIP
360
1BB
  0
DICTIONARY
  5
1B8
330
30
100
AcDbDictionary
280
     1
281
     1
  3
ACAD_XREC_ROUNDTRIP
360
1B9
  0
DICTIONARY
  5
1BC
330
32
100
AcDbDictionary
280
     1
281
     1
  3
ACAD_XREC_ROUNDTRIP
360
1BD
  0
DICTIONARY
  5
1C4
330
36
100
AcDbDictionary
280
     1
281
     1
  3
ACAD_XREC_ROUNDTRIP
360
1C5
  0
DICTIONARY
  5
1CC
330
3A
100
AcDbDictionary
280
     1
281
     1
  3
ACAD_XREC_ROUNDTRIP
360
1CD
  0
DICTIONARY
  5
1C0
330
34
100
AcDbDictionary
280
     1
281
     1
  3
ACAD_XREC_ROUNDTRIP
360
1C1
  0
DICTIONARY
  5
1C2
330
35
100
AcDbDictionary
280
     1
281
     1
  3
ACAD_XREC_ROUNDTRIP
360
1C3
  0
DICTIONARY
  5
1CA
330
39
100
AcDbDictionary
280
     1
281
     1
  3
ACAD_XREC_ROUNDTRIP
360
1CB
  0
DICTIONARY
  5
1AE
330
2B
100
AcDbDictionary
280
     1
281
     1
  3
ACAD_XREC_ROUNDTRIP
360
1AF
  0
DICTIONARY
  5
1B0
330
2C
100
AcDbDictionary
280
     1
281
     1
  3
ACAD_XREC_ROUNDTRIP
360
1B1
  0
DICTIONARY
  5
1B2
330
2D
100
AcDbDictionary
280
     1
281
     1
  3
ACAD_XREC_ROUNDTRIP
360
1B3
  0
DICTIONARY
  5
1B4
330
2E
100
AcDbDictionary
280
     1
281
     1
  3
ACAD_XREC_ROUNDTRIP
360
1B5
  0
DICTIONARY
  5
1C8
330
38
100
AcDbDictionary
280
     1
281
     1
  3
ACAD_XREC_ROUNDTRIP
360
1C9
  0
DICTIONARY
  5
1BE
330
33
100
AcDbDictionary
280
     1
281
     1
  3
ACAD_XREC_ROUNDTRIP
360
1BF
  0
DICTIONARY
  5
1C6
330
37
100
AcDbDictionary
280
     1
281
     1
  3
ACAD_XREC_ROUNDTRIP
360
1C7
  0
XRECORD
  5
1D1
102
{ACAD_REACTORS
330
1D0
102
}
330
1D0
100
AcDbXrecord
280
     1
102
MATERIAL
148
0.0
149
0.0
149
0.0
 93
        0
 94
      127
282
     0
 72
     1
 77
     1
171
     1
175
     1
179
     1
273
     0
  0
XRECORD
  5
1CF
102
{ACAD_REACTORS
330
1CE
102
}
330
1CE
100
AcDbXrecord
280
     1
102
MATERIAL
148
0.0
149
0.0
149
0.0
 93
        0
 94
      127
282
     0
 72
     1
 77
     1
171
     1
175
     1
179
     1
273
     0
  0
XRECORD
  5
1D3
102
{ACAD_REACTORS
330
1D2
102
}
330
1D2
100
AcDbXrecord
280
     1
102
MATERIAL
148
0.0
149
0.0
149
0.0
 93
        0
 94
      127
282
     0
 72
     1
 77
     1
171
     1
175
     1
179
     1
273
     0
  0
XRECORD
  5
1B7
102
{ACAD_REACTORS
330
1B6
102
}
330
1B6
100
AcDbXrecord
280
     1
102
RTVSPropertyOp0
 70
     1
102
RTVSPropertyOp1
 70
     1
102
RTVSPropertyOp2
 70
     1
102
RTVSPropertyOp3
 70
     1
102
RTVSPropertyOp4
 70
     1
102
RTVSPropertyOp5
 70
     1
102
RTVSPropertyOp6
 70
     1
102
RTVSPropertyOp7
 70
     1
102
RTVSPropertyOp8
 70
     1
102
RTVSPropertyOp9
 70
     1
102
RTVSPropertyOp10
 70
     1
102
RTVSPropertyOp11
 70
     1
102
RTVSPropertyOp12
 70
     1
102
RTVSPropertyOp13
 70
     1
102
RTVSPropertyOp14
 70
     1
102
RTVSPropertyOp15
 70
     1
102
RTVSPropertyOp16
 70
     1
102
RTVSPropertyOp17
 70
     1
102
RTVSPropertyOp18
 70
     1
102
RTVSPropertyOp19
 70
     1
102
RTVSPropertyOp20
 70
     1
102
RTVSPropertyOp21
 70
     1
102
RTVSPropertyOp22
 70
     1
102
RTVSPropertyOp23
 70
     1
102
RTVSPropertyOp24
 70
     1
102
RTVSPropertyOp25
 70
     1
102
RTVSPropertyOp26
 70
     1
102
RTVSPropertyOp27
 70
     1
102
RTVSPropertyOp28
 70
     1
102
RTVSPropertyOp29
 70
     1
102
RTVSPropertyOp30
 70
     1
102
RTVSPropertyOp31
 70
     1
102
RTVSPropertyOp32
 70
     1
  0
XRECORD
  5
1BB
102
{ACAD_REACTORS
330
1BA
102
}
330
1BA
100
AcDbXrecord
280
     1
102
RTVSPropertyOp0
 70
     1
102
RTVSPropertyOp1
 70
     1
102
RTVSPropertyOp2
 70
     1
102
RTVSPropertyOp3
 70
     1
102
RTVSPropertyOp4
 70
     1
102
RTVSPropertyOp5
 70
     1
102
RTVSPropertyOp6
 70
     1
102
RTVSPropertyOp7
 70
     1
102
RTVSPropertyOp8
 70
     1
102
RTVSPropertyOp9
 70
     1
102
RTVSPropertyOp10
 70
     1
102
RTVSPropertyOp11
 70
     1
102
RTVSPropertyOp12
 70
     1
102
RTVSPropertyOp13
 70
     1
102
RTVSPropertyOp14
 70
     1
102
RTVSPropertyOp15
 70
     1
102
RTVSPropertyOp16
 70
     1
102
RTVSPropertyOp17
 70
     1
102
RTVSPropertyOp18
 70
     1
102
RTVSPropertyOp19
 70
     1
102
RTVSPropertyOp20
 70
     1
102
RTVSPropertyOp21
 70
     1
102
RTVSPropertyOp22
 70
     1
102
RTVSPropertyOp23
 70
     1
102
RTVSPropertyOp24
 70
     1
102
RTVSPropertyOp25
 70
     1
102
RTVSPropertyOp26
 70
     1
102
RTVSPropertyOp27
 70
     1
102
RTVSPropertyOp28
 70
     1
102
RTVSPropertyOp29
 70
     1
102
RTVSPropertyOp30
 70
     1
102
RTVSPropertyOp31
 70
     1
102
RTVSPropertyOp32
 70
     1
  0
XRECORD
  5
1B9
102
{ACAD_REACTORS
330
1B8
102
}
330
1B8
100
AcDbXrecord
280
     1
102
RTVSPropertyOp0
 70
     1
102
RTVSPropertyOp1
 70
     1
102
RTVSPropertyOp2
 70
     1
102
RTVSPropertyOp3
 70
     1
102
RTVSPropertyOp4
 70
     1
102
RTVSPropertyOp5
 70
     1
102
RTVSPropertyOp6
 70
     1
102
RTVSPropertyOp7
 70
     1
102
RTVSPropertyOp8
 70
     1
102
RTVSPropertyOp9
 70
     1
102
RTVSPropertyOp10
 70
     1
102
RTVSPropertyOp11
 70
     1
102
RTVSPropertyOp12
 70
     1
102
RTVSPropertyOp13
 70
     1
102
RTVSPropertyOp14
 70
     1
102
RTVSPropertyOp15
 70
     1
102
RTVSPropertyOp16
 70
     1
102
RTVSPropertyOp17
 70
     1
102
RTVSPropertyOp18
 70
     1
102
RTVSPropertyOp19
 70
     1
102
RTVSPropertyOp20
 70
     1
102
RTVSPropertyOp21
 70
     1
102
RTVSPropertyOp22
 70
     1
102
RTVSPropertyOp23
 70
     1
102
RTVSPropertyOp24
 70
     1
102
RTVSPropertyOp25
 70
     1
102
RTVSPropertyOp26
 70
     1
102
RTVSPropertyOp27
 70
     1
102
RTVSPropertyOp28
 70
     1
102
RTVSPropertyOp29
 70
     1
102
RTVSPropertyOp30
 70
     1
102
RTVSPropertyOp31
 70
     1
102
RTVSPropertyOp32
 70
     1
  0
XRECORD
  5
1BD
102
{ACAD_REACTORS
330
1BC
102
}
330
1BC
100
AcDbXrecord
280
     1
102
RTVSPropertyOp0
 70
     1
102
RTVSPropertyOp1
 70
     1
102
RTVSPropertyOp2
 70
     1
102
RTVSPropertyOp3
 70
     1
102
RTVSPropertyOp4
 70
     1
102
RTVSPropertyOp5
 70
     1
102
RTVSPropertyOp6
 70
     1
102
RTVSPropertyOp7
 70
     1
102
RTVSPropertyOp8
 70
     1
102
RTVSPropertyOp9
 70
     1
102
RTVSPropertyOp10
 70
     1
102
RTVSPropertyOp11
 70
     1
102
RTVSPropertyOp12
 70
     1
102
RTVSPropertyOp13
 70
     1
102
RTVSPropertyOp14
 70
     1
102
RTVSPropertyOp15
 70
     1
102
RTVSPropertyOp16
 70
     1
102
RTVSPropertyOp17
 70
     1
102
RTVSPropertyOp18
 70
     1
102
RTVSPropertyOp19
 70
     1
102
RTVSPropertyOp20
 70
     1
102
RTVSPropertyOp21
 70
     1
102
RTVSPropertyOp22
 70
     1
102
RTVSPropertyOp23
 70
     1
102
RTVSPropertyOp24
 70
     1
102
RTVSPropertyOp25
 70
     1
102
RTVSPropertyOp26
 70
     1
102
RTVSPropertyOp27
 70
     1
102
RTVSPropertyOp28
 70
     1
102
RTVSPropertyOp29
 70
     1
102
RTVSPropertyOp30
 70
     1
102
RTVSPropertyOp31
 70
     1
102
RTVSPropertyOp32
 70
     1
  0
XRECORD
  5
1C5
102
{ACAD_REACTORS
330
1C4
102
}
330
1C4
100
AcDbXrecord
280
     1
102
RTVSPropertyOp0
 70
     1
102
RTVSPropertyOp1
 70
     1
102
RTVSPropertyOp2
 70
     1
102
RTVSPropertyOp3
 70
     1
102
RTVSPropertyOp4
 70
     1
102
RTVSPropertyOp5
 70
     1
102
RTVSPropertyOp6
 70
     1
102
RTVSPropertyOp7
 70
     1
102
RTVSPropertyOp8
 70
     1
102
RTVSPropertyOp9
 70
     1
102
RTVSPropertyOp10
 70
     1
102
RTVSPropertyOp11
 70
     1
102
RTVSPropertyOp12
 70
     1
102
RTVSPropertyOp13
 70
     1
102
RTVSPropertyOp14
 70
     1
102
RTVSPropertyOp15
 70
     1
102
RTVSPropertyOp16
 70
     1
102
RTVSPropertyOp17
 70
     1
102
RTVSPropertyOp18
 70
     1
102
RTVSPropertyOp19
 70
     1
102
RTVSPropertyOp20
 70
     1
102
RTVSPropertyOp21
 70
     1
102
RTVSPropertyOp22
 70
     1
102
RTVSPropertyOp23
 70
     1
102
RTVSPropertyOp24
 70
     1
102
RTVSPropertyOp25
 70
     1
102
RTVSPropertyOp26
 70
     1
102
RTVSPropertyOp27
 70
     1
102
RTVSPropertyOp28
 70
     1
102
RTVSPropertyOp29
 70
     1
102
RTVSPropertyOp30
 70
     1
102
RTVSPropertyOp31
 70
     1
102
RTVSPropertyOp32
 70
     1
  0
XRECORD
  5
1CD
102
{ACAD_REACTORS
330
1CC
102
}
330
1CC
100
AcDbXrecord
280
     1
102
RTVSPropertyOp0
 70
     1
102
RTVSPropertyOp1
 70
     1
102
RTVSPropertyOp2
 70
     1
102
RTVSPropertyOp3
 70
     1
102
RTVSPropertyOp4
 70
     1
102
RTVSPropertyOp5
 70
     1
102
RTVSPropertyOp6
 70
     1
102
RTVSPropertyOp7
 70
     1
102
RTVSPropertyOp8
 70
     1
102
RTVSPropertyOp9
 70
     1
102
RTVSPropertyOp10
 70
     1
102
RTVSPropertyOp11
 70
     1
102
RTVSPropertyOp12
 70
     1
102
RTVSPropertyOp13
 70
     1
102
RTVSPropertyOp14
 70
     1
102
RTVSPropertyOp15
 70
     1
102
RTVSPropertyOp16
 70
     1
102
RTVSPropertyOp17
 70
     1
102
RTVSPropertyOp18
 70
     1
102
RTVSPropertyOp19
 70
     1
102
RTVSPropertyOp20
 70
     1
102
RTVSPropertyOp21
 70
     1
102
RTVSPropertyOp22
 70
     1
102
RTVSPropertyOp23
 70
     1
102
RTVSPropertyOp24
 70
     1
102
RTVSPropertyOp25
 70
     1
102
RTVSPropertyOp26
 70
     1
102
RTVSPropertyOp27
 70
     1
102
RTVSPropertyOp28
 70
     1
102
RTVSPropertyOp29
 70
     1
102
RTVSPropertyOp30
 70
     1
102
RTVSPropertyOp31
 70
     1
102
RTVSPropertyOp32
 70
     1
  0
XRECORD
  5
1C1
102
{ACAD_REACTORS
330
1C0
102
}
330
1C0
100
AcDbXrecord
280
     1
102
RTVSPropertyOp0
 70
     1
102
RTVSPropertyOp1
 70
     1
102
RTVSPropertyOp2
 70
     1
102
RTVSPropertyOp3
 70
     1
102
RTVSPropertyOp4
 70
     1
102
RTVSPropertyOp5
 70
     1
102
RTVSPropertyOp6
 70
     1
102
RTVSPropertyOp7
 70
     1
102
RTVSPropertyOp8
 70
     1
102
RTVSPropertyOp9
 70
     1
102
RTVSPropertyOp10
 70
     1
102
RTVSPropertyOp11
 70
     1
102
RTVSPropertyOp12
 70
     1
102
RTVSPropertyOp13
 70
     1
102
RTVSPropertyOp14
 70
     1
102
RTVSPropertyOp15
 70
     1
102
RTVSPropertyOp16
 70
     1
102
RTVSPropertyOp17
 70
     1
102
RTVSPropertyOp18
 70
     1
102
RTVSPropertyOp19
 70
     1
102
RTVSPropertyOp20
 70
     1
102
RTVSPropertyOp21
 70
     1
102
RTVSPropertyOp22
 70
     1
102
RTVSPropertyOp23
 70
     1
102
RTVSPropertyOp24
 70
     1
102
RTVSPropertyOp25
 70
     1
102
RTVSPropertyOp26
 70
     1
102
RTVSPropertyOp27
 70
     1
102
RTVSPropertyOp28
 70
     1
102
RTVSPropertyOp29
 70
     1
102
RTVSPropertyOp30
 70
     1
102
RTVSPropertyOp31
 70
     1
102
RTVSPropertyOp32
 70
     1
  0
XRECORD
  5
1C3
102
{ACAD_REACTORS
330
1C2
102
}
330
1C2
100
AcDbXrecord
280
     1
102
RTVSPropertyOp0
 70
     1
102
RTVSPropertyOp1
 70
     1
102
RTVSPropertyOp2
 70
     1
102
RTVSPropertyOp3
 70
     1
102
RTVSPropertyOp4
 70
     1
102
RTVSPropertyOp5
 70
     1
102
RTVSPropertyOp6
 70
     1
102
RTVSPropertyOp7
 70
     1
102
RTVSPropertyOp8
 70
     1
102
RTVSPropertyOp9
 70
     1
102
RTVSPropertyOp10
 70
     1
102
RTVSPropertyOp11
 70
     1
102
RTVSPropertyOp12
 70
     1
102
RTVSPropertyOp13
 70
     1
102
RTVSPropertyOp14
 70
     1
102
RTVSPropertyOp15
 70
     1
102
RTVSPropertyOp16
 70
     1
102
RTVSPropertyOp17
 70
     1
102
RTVSPropertyOp18
 70
     1
102
RTVSPropertyOp19
 70
     1
102
RTVSPropertyOp20
 70
     1
102
RTVSPropertyOp21
 70
     1
102
RTVSPropertyOp22
 70
     1
102
RTVSPropertyOp23
 70
     1
102
RTVSPropertyOp24
 70
     1
102
RTVSPropertyOp25
 70
     1
102
RTVSPropertyOp26
 70
     1
102
RTVSPropertyOp27
 70
     1
102
RTVSPropertyOp28
 70
     1
102
RTVSPropertyOp29
 70
     1
102
RTVSPropertyOp30
 70
     1
102
RTVSPropertyOp31
 70
     1
102
RTVSPropertyOp32
 70
     1
  0
XRECORD
  5
1CB
102
{ACAD_REACTORS
330
1CA
102
}
330
1CA
100
AcDbXrecord
280
     1
102
RTVSPropertyOp0
 70
     1
102
RTVSPropertyOp1
 70
     1
102
RTVSPropertyOp2
 70
     1
102
RTVSPropertyOp3
 70
     1
102
RTVSPropertyOp4
 70
     1
102
RTVSPropertyOp5
 70
     1
102
RTVSPropertyOp6
 70
     1
102
RTVSPropertyOp7
 70
     1
102
RTVSPropertyOp8
 70
     1
102
RTVSPropertyOp9
 70
     1
102
RTVSPropertyOp10
 70
     1
102
RTVSPropertyOp11
 70
     1
102
RTVSPropertyOp12
 70
     1
102
RTVSPropertyOp13
 70
     1
102
RTVSPropertyOp14
 70
     1
102
RTVSPropertyOp15
 70
     1
102
RTVSPropertyOp16
 70
     1
102
RTVSPropertyOp17
 70
     1
102
RTVSPropertyOp18
 70
     1
102
RTVSPropertyOp19
 70
     1
102
RTVSPropertyOp20
 70
     1
102
RTVSPropertyOp21
 70
     1
102
RTVSPropertyOp22
 70
     1
102
RTVSPropertyOp23
 70
     1
102
RTVSPropertyOp24
 70
     1
102
RTVSPropertyOp25
 70
     1
102
RTVSPropertyOp26
 70
     1
102
RTVSPropertyOp27
 70
     1
102
RTVSPropertyOp28
 70
     1
102
RTVSPropertyOp29
 70
     1
102
RTVSPropertyOp30
 70
     1
102
RTVSPropertyOp31
 70
     1
102
RTVSPropertyOp32
 70
     1
  0
XRECORD
  5
1AF
102
{ACAD_REACTORS
330
1AE
102
}
330
1AE
100
AcDbXrecord
280
     1
102
RTVSPropertyOp0
 70
     1
102
RTVSPropertyOp1
 70
     1
102
RTVSPropertyOp2
 70
     1
102
RTVSPropertyOp3
 70
     1
102
RTVSPropertyOp4
 70
     1
102
RTVSPropertyOp5
 70
     1
102
RTVSPropertyOp6
 70
     1
102
RTVSPropertyOp7
 70
     1
102
RTVSPropertyOp8
 70
     1
102
RTVSPropertyOp9
 70
     1
102
RTVSPropertyOp10
 70
     1
102
RTVSPropertyOp11
 70
     1
102
RTVSPropertyOp12
 70
     1
102
RTVSPropertyOp13
 70
     1
102
RTVSPropertyOp14
 70
     1
102
RTVSPropertyOp15
 70
     1
102
RTVSPropertyOp16
 70
     1
102
RTVSPropertyOp17
 70
     1
102
RTVSPropertyOp18
 70
     1
102
RTVSPropertyOp19
 70
     1
102
RTVSPropertyOp20
 70
     1
102
RTVSPropertyOp21
 70
     1
102
RTVSPropertyOp22
 70
     1
102
RTVSPropertyOp23
 70
     1
102
RTVSPropertyOp24
 70
     1
102
RTVSPropertyOp25
 70
     1
102
RTVSPropertyOp26
 70
     1
102
RTVSPropertyOp27
 70
     1
102
RTVSPropertyOp28
 70
     1
102
RTVSPropertyOp29
 70
     1
102
RTVSPropertyOp30
 70
     1
102
RTVSPropertyOp31
 70
     1
102
RTVSPropertyOp32
 70
     1
  0
XRECORD
  5
1B1
102
{ACAD_REACTORS
330
1B0
102
}
330
1B0
100
AcDbXrecord
280
     1
102
RTVSPropertyOp0
 70
     1
102
RTVSPropertyOp1
 70
     1
102
RTVSPropertyOp2
 70
     1
102
RTVSPropertyOp3
 70
     1
102
RTVSPropertyOp4
 70
     1
102
RTVSPropertyOp5
 70
     1
102
RTVSPropertyOp6
 70
     1
102
RTVSPropertyOp7
 70
     1
102
RTVSPropertyOp8
 70
     1
102
RTVSPropertyOp9
 70
     1
102
RTVSPropertyOp10
 70
     1
102
RTVSPropertyOp11
 70
     1
102
RTVSPropertyOp12
 70
     1
102
RTVSPropertyOp13
 70
     1
102
RTVSPropertyOp14
 70
     1
102
RTVSPropertyOp15
 70
     1
102
RTVSPropertyOp16
 70
     1
102
RTVSPropertyOp17
 70
     1
102
RTVSPropertyOp18
 70
     1
102
RTVSPropertyOp19
 70
     1
102
RTVSPropertyOp20
 70
     1
102
RTVSPropertyOp21
 70
     1
102
RTVSPropertyOp22
 70
     1
102
RTVSPropertyOp23
 70
     1
102
RTVSPropertyOp24
 70
     1
102
RTVSPropertyOp25
 70
     1
102
RTVSPropertyOp26
 70
     1
102
RTVSPropertyOp27
 70
     1
102
RTVSPropertyOp28
 70
     1
102
RTVSPropertyOp29
 70
     1
102
RTVSPropertyOp30
 70
     1
102
RTVSPropertyOp31
 70
     1
102
RTVSPropertyOp32
 70
     1
  0
XRECORD
  5
1B3
102
{ACAD_REACTORS
330
1B2
102
}
330
1B2
100
AcDbXrecord
280
     1
102
RTVSPropertyOp0
 70
     1
102
RTVSPropertyOp1
 70
     1
102
RTVSPropertyOp2
 70
     1
102
RTVSPropertyOp3
 70
     1
102
RTVSPropertyOp4
 70
     1
102
RTVSPropertyOp5
 70
     1
102
RTVSPropertyOp6
 70
     1
102
RTVSPropertyOp7
 70
     1
102
RTVSPropertyOp8
 70
     1
102
RTVSPropertyOp9
 70
     1
102
RTVSPropertyOp10
 70
     1
102
RTVSPropertyOp11
 70
     1
102
RTVSPropertyOp12
 70
     1
102
RTVSPropertyOp13
 70
     1
102
RTVSPropertyOp14
 70
     1
102
RTVSPropertyOp15
 70
     1
102
RTVSPropertyOp16
 70
     1
102
RTVSPropertyOp17
 70
     1
102
RTVSPropertyOp18
 70
     1
102
RTVSPropertyOp19
 70
     1
102
RTVSPropertyOp20
 70
     1
102
RTVSPropertyOp21
 70
     1
102
RTVSPropertyOp22
 70
     1
102
RTVSPropertyOp23
 70
     1
102
RTVSPropertyOp24
 70
     1
102
RTVSPropertyOp25
 70
     1
102
RTVSPropertyOp26
 70
     1
102
RTVSPropertyOp27
 70
     1
102
RTVSPropertyOp28
 70
     1
102
RTVSPropertyOp29
 70
     1
102
RTVSPropertyOp30
 70
     1
102
RTVSPropertyOp31
 70
     1
102
RTVSPropertyOp32
 70
     1
  0
XRECORD
  5
1B5
102
{ACAD_REACTORS
330
1B4
102
}
330
1B4
100
AcDbXrecord
280
     1
102
RTVSPropertyOp0
 70
     1
102
RTVSPropertyOp1
 70
     1
102
RTVSPropertyOp2
 70
     1
102
RTVSPropertyOp3
 70
     1
102
RTVSPropertyOp4
 70
     1
102
RTVSPropertyOp5
 70
     1
102
RTVSPropertyOp6
 70
     1
102
RTVSPropertyOp7
 70
     1
102
RTVSPropertyOp8
 70
     1
102
RTVSPropertyOp9
 70
     1
102
RTVSPropertyOp10
 70
     1
102
RTVSPropertyOp11
 70
     1
102
RTVSPropertyOp12
 70
     1
102
RTVSPropertyOp13
 70
     1
102
RTVSPropertyOp14
 70
     1
102
RTVSPropertyOp15
 70
     1
102
RTVSPropertyOp16
 70
     1
102
RTVSPropertyOp17
 70
     1
102
RTVSPropertyOp18
 70
     1
102
RTVSPropertyOp19
 70
     1
102
RTVSPropertyOp20
 70
     1
102
RTVSPropertyOp21
 70
     1
102
RTVSPropertyOp22
 70
     1
102
RTVSPropertyOp23
 70
     1
102
RTVSPropertyOp24
 70
     1
102
RTVSPropertyOp25
 70
     1
102
RTVSPropertyOp26
 70
     1
102
RTVSPropertyOp27
 70
     1
102
RTVSPropertyOp28
 70
     1
102
RTVSPropertyOp29
 70
     1
102
RTVSPropertyOp30
 70
     1
102
RTVSPropertyOp31
 70
     1
102
RTVSPropertyOp32
 70
     1
  0
XRECORD
  5
1C9
102
{ACAD_REACTORS
330
1C8
102
}
330
1C8
100
AcDbXrecord
280
     1
102
RTVSPropertyOp0
 70
     1
102
RTVSPropertyOp1
 70
     1
102
RTVSPropertyOp2
 70
     1
102
RTVSPropertyOp3
 70
     1
102
RTVSPropertyOp4
 70
     1
102
RTVSPropertyOp5
 70
     1
102
RTVSPropertyOp6
 70
     1
102
RTVSPropertyOp7
 70
     1
102
RTVSPropertyOp8
 70
     1
102
RTVSPropertyOp9
 70
     1
102
RTVSPropertyOp10
 70
     1
102
RTVSPropertyOp11
 70
     1
102
RTVSPropertyOp12
 70
     1
102
RTVSPropertyOp13
 70
     1
102
RTVSPropertyOp14
 70
     1
102
RTVSPropertyOp15
 70
     1
102
RTVSPropertyOp16
 70
     1
102
RTVSPropertyOp17
 70
     1
102
RTVSPropertyOp18
 70
     1
102
RTVSPropertyOp19
 70
     1
102
RTVSPropertyOp20
 70
     1
102
RTVSPropertyOp21
 70
     1
102
RTVSPropertyOp22
 70
     1
102
RTVSPropertyOp23
 70
     1
102
RTVSPropertyOp24
 70
     1
102
RTVSPropertyOp25
 70
     1
102
RTVSPropertyOp26
 70
     1
102
RTVSPropertyOp27
 70
     1
102
RTVSPropertyOp28
 70
     1
102
RTVSPropertyOp29
 70
     1
102
RTVSPropertyOp30
 70
     1
102
RTVSPropertyOp31
 70
     1
102
RTVSPropertyOp32
 70
     1
  0
XRECORD
  5
1BF
102
{ACAD_REACTORS
330
1BE
102
}
330
1BE
100
AcDbXrecord
280
     1
102
RTVSPropertyOp0
 70
     1
102
RTVSPropertyOp1
 70
     1
102
RTVSPropertyOp2
 70
     1
102
RTVSPropertyOp3
 70
     1
102
RTVSPropertyOp4
 70
     1
102
RTVSPropertyOp5
 70
     1
102
RTVSPropertyOp6
 70
     1
102
RTVSPropertyOp7
 70
     1
102
RTVSPropertyOp8
 70
     1
102
RTVSPropertyOp9
 70
     1
102
RTVSPropertyOp10
 70
     1
102
RTVSPropertyOp11
 70
     1
102
RTVSPropertyOp12
 70
     1
102
RTVSPropertyOp13
 70
     1
102
RTVSPropertyOp14
 70
     1
102
RTVSPropertyOp15
 70
     1
102
RTVSPropertyOp16
 70
     1
102
RTVSPropertyOp17
 70
     1
102
RTVSPropertyOp18
 70
     1
102
RTVSPropertyOp19
 70
     1
102
RTVSPropertyOp20
 70
     1
102
RTVSPropertyOp21
 70
     1
102
RTVSPropertyOp22
 70
     1
102
RTVSPropertyOp23
 70
     1
102
RTVSPropertyOp24
 70
     1
102
RTVSPropertyOp25
 70
     1
102
RTVSPropertyOp26
 70
     1
102
RTVSPropertyOp27
 70
     1
102
RTVSPropertyOp28
 70
     1
102
RTVSPropertyOp29
 70
     1
102
RTVSPropertyOp30
 70
     1
102
RTVSPropertyOp31
 70
     1
102
RTVSPropertyOp32
 70
     1
  0
XRECORD
  5
1C7
102
{ACAD_REACTORS
330
1C6
102
}
330
1C6
100
AcDbXrecord
280
     1
102
RTVSPropertyOp0
 70
     1
102
RTVSPropertyOp1
 70
     1
102
RTVSPropertyOp2
 70
     1
102
RTVSPropertyOp3
 70
     1
102
RTVSPropertyOp4
 70
     1
102
RTVSPropertyOp5
 70
     1
102
RTVSPropertyOp6
 70
     1
102
RTVSPropertyOp7
 70
     1
102
RTVSPropertyOp8
 70
     1
102
RTVSPropertyOp9
 70
     1
102
RTVSPropertyOp10
 70
     1
102
RTVSPropertyOp11
 70
     1
102
RTVSPropertyOp12
 70
     1
102
RTVSPropertyOp13
 70
     1
102
RTVSPropertyOp14
 70
     1
102
RTVSPropertyOp15
 70
     1
102
RTVSPropertyOp16
 70
     1
102
RTVSPropertyOp17
 70
     1
102
RTVSPropertyOp18
 70
     1
102
RTVSPropertyOp19
 70
     1
102
RTVSPropertyOp20
 70
     1
102
RTVSPropertyOp21
 70
     1
102
RTVSPropertyOp22
 70
     1
102
RTVSPropertyOp23
 70
     1
102
RTVSPropertyOp24
 70
     1
102
RTVSPropertyOp25
 70
     1
102
RTVSPropertyOp26
 70
     1
102
RTVSPropertyOp27
 70
     1
102
RTVSPropertyOp28
 70
     1
102
RTVSPropertyOp29
 70
     1
102
RTVSPropertyOp30
 70
     1
102
RTVSPropertyOp31
 70
     1
102
RTVSPropertyOp32
 70
     1
  0
ENDSEC
  0
EOF
