  0
SECTION
  2
HEADER
  9
$ACADVER
  1
AC1015
  9
$ACADMAINTVER
 70
     6
  9
$DWGCODEPAGE
  3
ANSI_932
  9
$INSBASE
 10
0.0
 20
0.0
 30
0.0
  9
$EXTMIN
 10
-100.1003009547976
 20
-701.7569167286231
 30
0.0
  9
$EXTMAX
 10
1999.899699045202
 20
2268.24308327138
 30
0.0
  9
$LIMMIN
 10
0.0
 20
0.0
  9
$LIMMAX
 10
12.0
 20
9.0
  9
$ORTHOMODE
 70
     0
  9
$REGENMODE
 70
     1
  9
$FILLMODE
 70
     1
  9
$QTEXTMODE
 70
     0
  9
$MIRRTEXT
 70
     1
  9
$LTSCALE
 40
1.0
  9
$ATTMODE
 70
     1
  9
$TEXTSIZE
 40
0.2
  9
$TRACEWID
 40
0.05
  9
$TEXTSTYLE
  7
Standard
  9
$CLAYER
  8
0
  9
$CELTYPE
  6
ByLayer
  9
$CECOLOR
 62
   256
  9
$CELTSCALE
 40
1.0
  9
$DISPSILH
 70
     0
  9
$DIMSCALE
 40
1.0
  9
$DIMASZ
 40
0.18
  9
$DIMEXO
 40
0.0625
  9
$DIMDLI
 40
0.38
  9
$DIMRND
 40
0.0
  9
$DIMDLE
 40
0.0
  9
$DIMEXE
 40
0.18
  9
$DIMTP
 40
0.0
  9
$DIMTM
 40
0.0
  9
$DIMTXT
 40
0.18
  9
$DIMCEN
 40
0.09
  9
$DIMTSZ
 40
0.0
  9
$DIMTOL
 70
     0
  9
$DIMLIM
 70
     0
  9
$DIMTIH
 70
     1
  9
$DIMTOH
 70
     1
  9
$DIMSE1
 70
     0
  9
$DIMSE2
 70
     0
  9
$DIMTAD
 70
     0
  9
$DIMZIN
 70
     0
  9
$DIMBLK
  1

  9
$DIMASO
 70
     1
  9
$DIMSHO
 70
     1
  9
$DIMPOST
  1

  9
$DIMAPOST
  1

  9
$DIMALT
 70
     0
  9
$DIMALTD
 70
     2
  9
$DIMALTF
 40
25.4
  9
$DIMLFAC
 40
1.0
  9
$DIMTOFL
 70
     0
  9
$DIMTVP
 40
0.0
  9
$DIMTIX
 70
     0
  9
$DIMSOXD
 70
     0
  9
$DIMSAH
 70
     0
  9
$DIMBLK1
  1

  9
$DIMBLK2
  1

  9
$DIMSTYLE
  2
Standard
  9
$DIMCLRD
 70
     0
  9
$DIMCLRE
 70
     0
  9
$DIMCLRT
 70
     0
  9
$DIMTFAC
 40
1.0
  9
$DIMGAP
 40
0.09
  9
$DIMJUST
 70
     0
  9
$DIMSD1
 70
     0
  9
$DIMSD2
 70
     0
  9
$DIMTOLJ
 70
     1
  9
$DIMTZIN
 70
     0
  9
$DIMALTZ
 70
     0
  9
$DIMALTTZ
 70
     0
  9
$DIMUPT
 70
     0
  9
$DIMDEC
 70
     4
  9
$DIMTDEC
 70
     4
  9
$DIMALTU
 70
     2
  9
$DIMALTTD
 70
     2
  9
$DIMTXSTY
  7
Standard
  9
$DIMAUNIT
 70
     0
  9
$DIMADEC
 70
     0
  9
$DIMALTRND
 40
0.0
  9
$DIMAZIN
 70
     0
  9
$DIMDSEP
 70
    46
  9
$DIMATFIT
 70
     3
  9
$DIMFRAC
 70
     0
  9
$DIMLDRBLK
  1

  9
$DIMLUNIT
 70
     2
  9
$DIMLWD
 70
    -2
  9
$DIMLWE
 70
    -2
  9
$DIMTMOVE
 70
     0
  9
$LUNITS
 70
     2
  9
$LUPREC
 70
     4
  9
$SKETCHINC
 40
0.1
  9
$FILLETRAD
 40
0.5
  9
$AUNITS
 70
     0
  9
$AUPREC
 70
     0
  9
$MENU
  1
.
  9
$ELEVATION
 40
0.0
  9
$PELEVATION
 40
0.0
  9
$THICKNESS
 40
0.0
  9
$LIMCHECK
 70
     0
  9
$CHAMFERA
 40
0.5
  9
$CHAMFERB
 40
0.5
  9
$CHAMFERC
 40
1.0
  9
$CHAMFERD
 40
0.0
  9
$SKPOLY
 70
     0
  9
$TDCREATE
 40
2459312.53853647
  9
$TDUCREATE
 40
2459312.16353647
  9
$TDUPDATE
 40
2459312.538538461
  9
$TDUUPDATE
 40
2459312.163538461
  9
$TDINDWG
 40
0.0000000116
  9
$TDUSRTIMER
 40
0.0000000116
  9
$USRTIMER
 70
     1
  9
$ANGBASE
 50
0.0
  9
$ANGDIR
 70
     0
  9
$PDMODE
 70
     0
  9
$PDSIZE
 40
0.0
  9
$PLINEWID
 40
0.0
  9
$SPLFRAME
 70
     0
  9
$SPLINETYPE
 70
     6
  9
$SPLINESEGS
 70
     8
  9
$HANDSEED
  5
1C6
  9
$SURFTAB1
 70
     6
  9
$SURFTAB2
 70
     6
  9
$SURFTYPE
 70
     6
  9
$SURFU
 70
     6
  9
$SURFV
 70
     6
  9
$UCSBASE
  2

  9
$UCSNAME
  2

  9
$UCSORG
 10
0.0
 20
0.0
 30
0.0
  9
$UCSXDIR
 10
1.0
 20
0.0
 30
0.0
  9
$UCSYDIR
 10
0.0
 20
1.0
 30
0.0
  9
$UCSORTHOREF
  2

  9
$UCSORTHOVIEW
 70
     0
  9
$UCSORGTOP
 10
0.0
 20
0.0
 30
0.0
  9
$UCSORGBOTTOM
 10
0.0
 20
0.0
 30
0.0
  9
$UCSORGLEFT
 10
0.0
 20
0.0
 30
0.0
  9
$UCSORGRIGHT
 10
0.0
 20
0.0
 30
0.0
  9
$UCSORGFRONT
 10
0.0
 20
0.0
 30
0.0
  9
$UCSORGBACK
 10
0.0
 20
0.0
 30
0.0
  9
$PUCSBASE
  2

  9
$PUCSNAME
  2

  9
$PUCSORG
 10
0.0
 20
0.0
 30
0.0
  9
$PUCSXDIR
 10
1.0
 20
0.0
 30
0.0
  9
$PUCSYDIR
 10
0.0
 20
1.0
 30
0.0
  9
$PUCSORTHOREF
  2

  9
$PUCSORTHOVIEW
 70
     0
  9
$PUCSORGTOP
 10
0.0
 20
0.0
 30
0.0
  9
$PUCSORGBOTTOM
 10
0.0
 20
0.0
 30
0.0
  9
$PUCSORGLEFT
 10
0.0
 20
0.0
 30
0.0
  9
$PUCSORGRIGHT
 10
0.0
 20
0.0
 30
0.0
  9
$PUCSORGFRONT
 10
0.0
 20
0.0
 30
0.0
  9
$PUCSORGBACK
 10
0.0
 20
0.0
 30
0.0
  9
$USERI1
 70
     0
  9
$USERI2
 70
     0
  9
$USERI3
 70
     0
  9
$USERI4
 70
     0
  9
$USERI5
 70
     0
  9
$USERR1
 40
18.1
  9
$USERR2
 40
0.0
  9
$USERR3
 40
0.0
  9
$USERR4
 40
0.0
  9
$USERR5
 40
0.0
  9
$WORLDVIEW
 70
     1
  9
$SHADEDGE
 70
     3
  9
$SHADEDIF
 70
    70
  9
$TILEMODE
 70
     1
  9
$MAXACTVP
 70
    64
  9
$PINSBASE
 10
0.0
 20
0.0
 30
0.0
  9
$PLIMCHECK
 70
     0
  9
$PEXTMIN
 10
1.00000000000000E+20
 20
1.00000000000000E+20
 30
1.00000000000000E+20
  9
$PEXTMAX
 10
-1.00000000000000E+20
 20
-1.00000000000000E+20
 30
-1.00000000000000E+20
  9
$PLIMMIN
 10
0.0
 20
0.0
  9
$PLIMMAX
 10
12.0
 20
9.0
  9
$UNITMODE
 70
     0
  9
$VISRETAIN
 70
     1
  9
$PLINEGEN
 70
     0
  9
$PSLTSCALE
 70
     1
  9
$TREEDEPTH
 70
  3020
  9
$CMLSTYLE
  2
Standard
  9
$CMLJUST
 70
     0
  9
$CMLSCALE
 40
1.0
  9
$PROXYGRAPHICS
 70
     1
  9
$MEASUREMENT
 70
     1
  9
$CELWEIGHT
370
    -1
  9
$ENDCAPS
280
     0
  9
$JOINSTYLE
280
     0
  9
$LWDISPLAY
290
     0
  9
$INSUNITS
 70
     4
  9
$HYPERLINKBASE
  1

  9
$STYLESHEET
  1

  9
$XEDIT
290
     1
  9
$CEPSNTYPE
380
     0
  9
$PSTYLEMODE
290
     1
  9
$FINGERPRINTGUID
  2
{92758998-B09C-4523-85E1-0B55E423A503}
  9
$VERSIONGUID
  2
{FAEB1C32-E019-11D5-929B-00C0DF256EC4}
  9
$EXTNAMES
290
     1
  9
$PSVPSCALE
 40
0.0
  9
$OLESTARTUP
290
     0
  0
ENDSEC
  0
SECTION
  2
CLASSES
  0
CLASS
  1
ACDBDICTIONARYWDFLT
  2
AcDbDictionaryWithDefault
  3
ObjectDBX Classes
 90
        0
280
     0
281
     0
  0
CLASS
  1
VISUALSTYLE
  2
AcDbVisualStyle
  3
ObjectDBX Classes
 90
     4095
280
     0
281
     0
  0
CLASS
  1
MATERIAL
  2
AcDbMaterial
  3
ObjectDBX Classes
 90
     1153
280
     0
281
     0
  0
CLASS
  1
DICTIONARYVAR
  2
AcDbDictionaryVar
  3
ObjectDBX Classes
 90
        0
280
     0
281
     0
  0
CLASS
  1
ACDBPLACEHOLDER
  2
AcDbPlaceHolder
  3
ObjectDBX Classes
 90
        0
280
     0
281
     0
  0
CLASS
  1
LAYOUT
  2
AcDbLayout
  3
ObjectDBX Classes
 90
        0
280
     0
281
     0
  0
ENDSEC
  0
SECTION
  2
TABLES
  0
TABLE
  2
VPORT
  5
8
330
0
100
AcDbSymbolTable
 70
     1
  0
VPORT
  5
29
330
8
100
AcDbSymbolTableRecord
100
AcDbViewportTableRecord
  2
*Active
 70
     0
 10
0.0
 20
0.0
 11
1.0
 21
1.0
 12
949.8996990452022
 22
783.2430832713784
 13
0.0
 23
0.0
 14
0.5
 24
0.5
 15
0.5
 25
0.5
 16
0.0
 26
0.0
 36
1.0
 17
0.0
 27
0.0
 37
0.0
 40
3267.000000000003
 41
1.60267857142857
 42
50.0
 43
0.0
 44
0.0
 50
0.0
 51
0.0
 71
     0
 72
   100
 73
     1
 74
     3
 75
     0
 76
     0
 77
     0
 78
     0
281
     0
 65
     1
110
0.0
120
0.0
130
0.0
111
1.0
121
0.0
131
0.0
112
0.0
122
1.0
132
0.0
 79
     0
146
0.0
  0
ENDTAB
  0
TABLE
  2
LTYPE
  5
5
330
0
100
AcDbSymbolTable
 70
     8
  0
LTYPE
  5
14
330
5
100
AcDbSymbolTableRecord
100
AcDbLinetypeTableRecord
  2
ByBlock
 70
     0
  3

 72
    65
 73
     0
 40
0.0
  0
LTYPE
  5
15
330
5
100
AcDbSymbolTableRecord
100
AcDbLinetypeTableRecord
  2
ByLayer
 70
     0
  3

 72
    65
 73
     0
 40
0.0
  0
LTYPE
  5
16
330
5
100
AcDbSymbolTableRecord
100
AcDbLinetypeTableRecord
  2
Continuous
 70
     0
  3
Solid line
 72
    65
 73
     0
 40
0.0
  0
LTYPE
  5
3F
330
5
100
AcDbSymbolTableRecord
100
AcDbLinetypeTableRecord
  2
DASHED
 70
     0
  3
Dashed
 72
    65
 73
     2
 40
15.0
 49
7.0
 74
     0
 49
-8.0
 74
     0
  0
LTYPE
  5
40
330
5
100
AcDbSymbolTableRecord
100
AcDbLinetypeTableRecord
  2
DOTTED
 70
     0
  3
Dotted
 72
    65
 73
     2
 40
1.0
 49
0.0
 74
     0
 49
-1.0
 74
     0
  0
LTYPE
  5
41
330
5
100
AcDbSymbolTableRecord
100
AcDbLinetypeTableRecord
  2
DOT_CENTER
 70
     0
  3
Dot_Center
 72
    65
 73
     4
 40
14.0
 49
12.0
 74
     0
 49
-1.0
 74
     0
 49
0.0
 74
     0
 49
-1.0
 74
     0
  0
LTYPE
  5
42
330
5
100
AcDbSymbolTableRecord
100
AcDbLinetypeTableRecord
  2
LONG_DASHED
 70
     0
  3
Long_Dashed
 72
    65
 73
     2
 40
15.0
 49
10.0
 74
     0
 49
-5.0
 74
     0
  0
LTYPE
  5
43
330
5
100
AcDbSymbolTableRecord
100
AcDbLinetypeTableRecord
  2
DASH_CENTER
 70
     0
  3
Dash_Center
 72
    65
 73
     4
 40
14.0
 49
11.0
 74
     0
 49
-1.0
 74
     0
 49
1.0
 74
     0
 49
-1.0
 74
     0
  0
LTYPE
  5
44
330
5
100
AcDbSymbolTableRecord
100
AcDbLinetypeTableRecord
  2
PHANTOM
 70
     0
  3
Phantom
 72
    65
 73
     6
 40
13.0
 49
10.0
 74
     0
 49
-1.0
 74
     0
 49
0.0
 74
     0
 49
-1.0
 74
     0
 49
0.0
 74
     0
 49
-1.0
 74
     0
  0
LTYPE
  5
45
330
5
100
AcDbSymbolTableRecord
100
AcDbLinetypeTableRecord
  2
CENTER_DASH_DASH
 70
     0
  3
Center_Dash_Dash
 72
    65
 73
     6
 40
14.0
 49
9.0
 74
     0
 49
-1.0
 74
     0
 49
1.0
 74
     0
 49
-1.0
 74
     0
 49
1.0
 74
     0
 49
-1.0
 74
     0
  0
ENDTAB
  0
TABLE
  2
LAYER
  5
2
330
0
100
AcDbSymbolTable
 70
     2
  0
LAYER
  5
10
330
2
100
AcDbSymbolTableRecord
100
AcDbLayerTableRecord
  2
0
 70
     0
 62
     7
  6
Continuous
370
    -3
390
F
  0
LAYER
  5
46
330
2
100
AcDbSymbolTableRecord
100
AcDbLayerTableRecord
  2
1
 70
     0
 62
     7
  6
Continuous
370
    -3
390
F
  0
ENDTAB
  0
TABLE
  2
STYLE
  5
3
330
0
100
AcDbSymbolTable
 70
     3
  0
STYLE
  5
11
330
3
100
AcDbSymbolTableRecord
100
AcDbTextStyleTableRecord
  2
Standard
 70
     0
 40
0.0
 41
1.0
 50
0.0
 71
     0
 42
0.2
  3
txt
  4

  0
STYLE
  5
D3
330
3
100
AcDbSymbolTableRecord
100
AcDbTextStyleTableRecord
  2
CONVERTER_11
 70
     0
 40
0.0
 41
0.89
 50
0.0
 71
     0
 42
0.2
  3
msmincho.ttc
  4

1001
ACAD
1000
MS Mincho
1071
    32785
  0
STYLE
  5
153
330
3
100
AcDbSymbolTableRecord
100
AcDbTextStyleTableRecord
  2
CONVERTER_12
 70
     0
 40
0.0
 41
0.9
 50
0.0
 71
     0
 42
0.2
  3
txt.shx
  4

  0
ENDTAB
  0
TABLE
  2
VIEW
  5
6
330
0
100
AcDbSymbolTable
 70
     0
  0
ENDTAB
  0
TABLE
  2
UCS
  5
7
330
0
100
AcDbSymbolTable
 70
     0
  0
ENDTAB
  0
TABLE
  2
APPID
  5
9
330
0
100
AcDbSymbolTable
 70
     1
  0
APPID
  5
12
330
9
100
AcDbSymbolTableRecord
100
AcDbRegAppTableRecord
  2
ACAD
 70
     0
  0
ENDTAB
  0
TABLE
  2
DIMSTYLE
  5
A
330
0
100
AcDbSymbolTable
 70
     5
100
AcDbDimStyleTable
  0
DIMSTYLE
105
27
330
A
100
AcDbSymbolTableRecord
100
AcDbDimStyleTableRecord
  2
Standard
 70
     0
178
     0
340
11
  0
DIMSTYLE
105
16E
102
{ACAD_REACTORS
330
16F
102
}
330
A
100
AcDbSymbolTableRecord
100
AcDbDimStyleTableRecord
  2
ME10_DIM_10
 70
     0
 41
35.0
 42
0.0
 44
20.0
 73
     0
 74
     0
 77
     1
 78
     8
140
30.0
147
20.0
172
     1
173
     1
174
     1
175
     1
176
     2
177
     2
271
     2
178
     7
271
     2
340
153
  0
DIMSTYLE
105
179
102
{ACAD_REACTORS
330
17A
102
}
330
A
100
AcDbSymbolTableRecord
100
AcDbDimStyleTableRecord
  2
ME10_DIM_11
 70
     0
 41
35.0
 42
0.0
 44
20.0
 73
     0
 74
     0
 77
     1
 78
     8
140
30.0
147
20.0
172
     1
173
     1
174
     1
175
     1
176
     2
177
     2
271
     2
178
     7
271
     2
340
153
  0
DIMSTYLE
105
184
102
{ACAD_REACTORS
330
185
102
}
330
A
100
AcDbSymbolTableRecord
100
AcDbDimStyleTableRecord
  2
ME10_DIM_12
 70
     0
 41
35.0
 42
0.0
 44
20.0
 73
     0
 74
     0
 77
     1
 78
     8
140
30.0
147
20.0
172
     1
173
     1
174
     1
175
     1
176
     2
177
     2
271
     2
178
     7
271
     2
340
153
  0
DIMSTYLE
105
18F
102
{ACAD_REACTORS
330
190
102
}
330
A
100
AcDbSymbolTableRecord
100
AcDbDimStyleTableRecord
  2
ME10_DIM_13
 70
     0
 41
35.0
 42
0.0
 44
20.0
 73
     0
 74
     0
 77
     1
 78
     8
140
30.0
147
20.0
172
     1
173
     1
174
     1
175
     1
176
     2
177
     2
271
     2
178
     7
271
     2
340
153
  0
ENDTAB
  0
TABLE
  2
BLOCK_RECORD
  5
1
330
0
100
AcDbSymbolTable
 70
     8
  0
BLOCK_RECORD
  5
1F
330
1
100
AcDbSymbolTableRecord
100
AcDbBlockTableRecord
  2
*Model_Space
340
22
  0
BLOCK_RECORD
  5
1B
330
1
100
AcDbSymbolTableRecord
100
AcDbBlockTableRecord
  2
*Paper_Space
340
1E
  0
BLOCK_RECORD
  5
23
330
1
100
AcDbSymbolTableRecord
100
AcDbBlockTableRecord
  2
*Paper_Space0
340
26
  0
BLOCK_RECORD
  5
47
330
1
100
AcDbSymbolTableRecord
100
AcDbBlockTableRecord
  2
組図HP-A4
340
0
102
{BLKREFS
331
4B
102
}
  0
BLOCK_RECORD
  5
4A
330
1
100
AcDbSymbolTableRecord
100
AcDbBlockTableRecord
  2
開示縦HP-A4
340
0
102
{BLKREFS
331
4E
102
}
  0
BLOCK_RECORD
  5
165
330
1
100
AcDbSymbolTableRecord
100
AcDbBlockTableRecord
  2
*D3
340
0
  0
BLOCK_RECORD
  5
170
330
1
100
AcDbSymbolTableRecord
100
AcDbBlockTableRecord
  2
*D4
340
0
  0
BLOCK_RECORD
  5
17B
330
1
100
AcDbSymbolTableRecord
100
AcDbBlockTableRecord
  2
*D5
340
0
  0
BLOCK_RECORD
  5
186
330
1
100
AcDbSymbolTableRecord
100
AcDbBlockTableRecord
  2
*D6
340
0
  0
BLOCK_RECORD
  5
191
330
1
100
AcDbSymbolTableRecord
100
AcDbBlockTableRecord
  2
*D7
340
0
102
{BLKREFS
331
197
102
}
  0
ENDTAB
  0
ENDSEC
  0
SECTION
  2
BLOCKS
  0
BLOCK
  5
20
330
1F
100
AcDbEntity
  8
0
100
AcDbBlockBegin
  2
*Model_Space
 70
     0
 10
0.0
 20
0.0
 30
0.0
  3
*Model_Space
  1

  0
ENDBLK
  5
21
330
1F
100
AcDbEntity
  8
0
100
AcDbBlockEnd
  0
BLOCK
  5
1C
330
1B
100
AcDbEntity
 67
     1
  8
0
100
AcDbBlockBegin
  2
*Paper_Space
 70
     0
 10
0.0
 20
0.0
 30
0.0
  3
*Paper_Space
  1

  0
ENDBLK
  5
1D
330
1B
100
AcDbEntity
 67
     1
  8
0
100
AcDbBlockEnd
  0
BLOCK
  5
24
330
23
100
AcDbEntity
  8
0
100
AcDbBlockBegin
  2
*Paper_Space0
 70
     0
 10
0.0
 20
0.0
 30
0.0
  3
*Paper_Space0
  1

  0
ENDBLK
  5
25
330
23
100
AcDbEntity
  8
0
100
AcDbBlockEnd
  0
BLOCK
  5
48
330
47
100
AcDbEntity
  8
0
100
AcDbBlockBegin
  2
組図HP-A4
 70
     0
 10
789.9012498495853
 20
-114.8252624148776
 30
0.0
  3
組図HP-A4
  1

  0
LINE
  5
4F
330
47
100
AcDbEntity
  8
1
  6
Continuous
 62
     7
100
AcDbLine
 10
629.9012498495853
 20
158.1747375851227
 30
0.0
 11
614.9012498495853
 21
158.1747375851227
 31
0.0
  0
LINE
  5
50
330
47
100
AcDbEntity
  8
1
  6
Continuous
 62
     2
100
AcDbLine
 10
629.9012498495853
 20
148.1747375851227
 30
0.0
 11
644.9012498495853
 21
148.1747375851227
 31
0.0
  0
LINE
  5
51
330
47
100
AcDbEntity
  8
1
  6
Continuous
 62
     2
100
AcDbLine
 10
629.9012498495853
 20
158.1747375851227
 30
0.0
 11
629.9012498495853
 21
148.1747375851227
 31
0.0
  0
LINE
  5
52
330
47
100
AcDbEntity
  8
1
  6
Continuous
 62
     7
100
AcDbLine
 10
644.9012498495853
 20
158.1747375851227
 30
0.0
 11
629.9012498495853
 21
158.1747375851227
 31
0.0
  0
LINE
  5
53
330
47
100
AcDbEntity
  8
1
  6
Continuous
 62
     2
100
AcDbLine
 10
644.9012498495853
 20
148.1747375851227
 30
0.0
 11
644.9012498495853
 21
158.1747375851227
 31
0.0
  0
LINE
  5
54
330
47
100
AcDbEntity
  8
1
  6
Continuous
 62
     7
100
AcDbLine
 10
614.9012498495853
 20
148.1747375851227
 30
0.0
 11
614.9012498495853
 21
158.1747375851227
 31
0.0
  0
LINE
  5
55
330
47
100
AcDbEntity
  8
1
  6
Continuous
 62
     2
100
AcDbLine
 10
614.9012498495853
 20
148.1747375851227
 30
0.0
 11
629.9012498495853
 21
148.1747375851227
 31
0.0
  0
LINE
  5
56
330
47
100
AcDbEntity
  8
0
  6
Continuous
 62
     2
100
AcDbLine
 10
752.9012498495853
 20
-100.8252624148776
 30
0.0
 11
752.9012498495853
 21
-114.8252624148776
 31
0.0
  0
LINE
  5
57
330
47
100
AcDbEntity
  8
0
  6
Continuous
 62
     2
100
AcDbLine
 10
744.9012498495853
 20
-114.8252624148776
 30
0.0
 11
744.9012498495853
 21
-100.8252624148776
 31
0.0
  0
LINE
  5
58
330
47
100
AcDbEntity
  8
0
  6
Continuous
 62
     2
100
AcDbLine
 10
739.9012498495853
 20
-114.8252624148776
 30
0.0
 11
739.9012498495853
 21
-100.8252624148776
 31
0.0
  0
LINE
  5
59
330
47
100
AcDbEntity
  8
0
  6
Continuous
 62
     2
100
AcDbLine
 10
731.9012498495853
 20
-114.8252624148776
 30
0.0
 11
731.9012498495853
 21
-100.8252624148776
 31
0.0
  0
LINE
  5
5A
330
47
100
AcDbEntity
  8
0
  6
Continuous
 62
     2
100
AcDbLine
 10
726.9012498495853
 20
-114.8252624148776
 30
0.0
 11
726.9012498495853
 21
-100.8252624148776
 31
0.0
  0
LINE
  5
5B
330
47
100
AcDbEntity
  8
0
  6
Continuous
 62
     2
100
AcDbLine
 10
718.9012498495853
 20
-114.8252624148776
 30
0.0
 11
718.9012498495853
 21
-100.8252624148776
 31
0.0
  0
LINE
  5
5C
330
47
100
AcDbEntity
  8
0
  6
Continuous
 62
     2
100
AcDbLine
 10
713.9012498495853
 20
-114.8252624148776
 30
0.0
 11
713.9012498495853
 21
-100.8252624148776
 31
0.0
  0
LINE
  5
5D
330
47
100
AcDbEntity
  8
0
  6
Continuous
 62
     2
100
AcDbLine
 10
705.9012498495853
 20
-100.8252624148776
 30
0.0
 11
705.9012498495853
 21
-114.8252624148776
 31
0.0
  0
LINE
  5
5E
330
47
100
AcDbEntity
  8
0
  6
Continuous
 62
     2
100
AcDbLine
 10
700.9012498495853
 20
-100.8252624148776
 30
0.0
 11
700.9012498495853
 21
-114.8252624148776
 31
0.0
  0
LINE
  5
5F
330
47
100
AcDbEntity
  8
0
  6
Continuous
 62
     2
100
AcDbLine
 10
699.6634746175968
 20
-104.7506905535263
 30
0.0
 11
693.4213878167462
 21
-112.4606033548494
 31
0.0
  0
LINE
  5
60
330
47
100
AcDbEntity
  8
0
  6
Continuous
 62
     2
100
AcDbLine
 10
691.9012498495853
 20
-114.8252624148776
 30
0.0
 11
691.9012498495853
 21
-100.8252624148776
 31
0.0
  0
LINE
  5
61
330
47
100
AcDbEntity
  8
0
  6
Continuous
 62
     2
100
AcDbLine
 10
686.9012498495853
 20
-114.8252624148776
 30
0.0
 11
686.9012498495853
 21
-100.8252624148776
 31
0.0
  0
LINE
  5
62
330
47
100
AcDbEntity
  8
0
  6
Continuous
 62
     2
100
AcDbLine
 10
664.9012498495854
 20
-114.8252624148776
 30
0.0
 11
664.9012498495854
 21
-100.8252624148776
 31
0.0
  0
LINE
  5
63
330
47
100
AcDbEntity
  8
0
  6
Continuous
 62
     2
100
AcDbLine
 10
659.9012498495854
 20
-100.8252624148776
 30
0.0
 11
659.9012498495854
 21
-114.8252624148776
 31
0.0
  0
LINE
  5
64
330
47
100
AcDbEntity
  8
0
  6
Continuous
 62
     2
100
AcDbLine
 10
619.9012498495854
 20
-86.82526241487759
 30
0.0
 11
619.9012498495854
 21
-114.8252624148776
 31
0.0
  0
LINE
  5
65
330
47
100
AcDbEntity
  8
0
  6
Continuous
 62
     2
100
AcDbLine
 10
614.9012498495853
 20
-100.8252624148776
 30
0.0
 11
789.9012498495853
 21
-100.8252624148776
 31
0.0
  0
LINE
  5
66
330
47
100
AcDbEntity
  8
0
  6
Continuous
 62
     7
100
AcDbLine
 10
614.9012498495853
 20
-86.82526241487759
 30
0.0
 11
619.9012498495854
 21
-86.82526241487759
 31
0.0
  0
LINE
  5
67
330
47
100
AcDbEntity
  8
1
  6
PHANTOM
 62
     4
100
AcDbLine
 10
589.9012498495853
 20
-124.8252624148776
 30
0.0
 11
799.9012498495853
 21
-124.8252624148776
 31
0.0
  0
LINE
  5
68
330
47
100
AcDbEntity
  8
1
  6
PHANTOM
 62
     4
100
AcDbLine
 10
589.9012498495853
 20
172.1747375851227
 30
0.0
 11
589.9012498495853
 21
-124.8252624148776
 31
0.0
  0
LINE
  5
69
330
47
100
AcDbEntity
  8
1
  6
PHANTOM
 62
     4
100
AcDbLine
 10
799.9012498495853
 20
-124.8252624148776
 30
0.0
 11
799.9012498495853
 21
172.1747375851227
 31
0.0
  0
LINE
  5
6A
330
47
100
AcDbEntity
  8
1
  6
PHANTOM
 62
     4
100
AcDbLine
 10
799.9012498495853
 20
172.1747375851227
 30
0.0
 11
589.9012498495853
 21
172.1747375851227
 31
0.0
  0
LINE
  5
6B
330
47
100
AcDbEntity
  8
1
  6
Continuous
 62
     7
100
AcDbLine
 10
789.9012498495853
 20
-114.8252624148776
 30
0.0
 11
789.9012498495853
 21
19.67473758512259
 31
0.0
  0
LINE
  5
6C
330
47
100
AcDbEntity
  8
1
  6
Continuous
 62
     7
100
AcDbLine
 10
789.9012498495853
 20
158.1747375851227
 30
0.0
 11
694.9012498495853
 21
158.1747375851227
 31
0.0
  0
LINE
  5
6D
330
47
100
AcDbEntity
  8
1
  6
Continuous
 62
     7
100
AcDbLine
 10
614.9012498495853
 20
-114.8252624148776
 30
0.0
 11
694.9012498495853
 21
-114.8252624148776
 31
0.0
  0
LINE
  5
6E
330
47
100
AcDbEntity
  8
1
  6
Continuous
 62
     7
100
AcDbLine
 10
614.9012498495853
 20
-114.8252624148776
 30
0.0
 11
614.9012498495853
 21
19.67473758512259
 31
0.0
  0
LINE
  5
6F
330
47
100
AcDbEntity
  8
1
  6
Continuous
 62
     2
100
AcDbLine
 10
694.9012498495853
 20
158.1747375851227
 30
0.0
 11
694.9012498495853
 21
163.1747375851227
 31
0.0
  0
LINE
  5
70
330
47
100
AcDbEntity
  8
1
  6
Continuous
 62
     7
100
AcDbLine
 10
694.9012498495853
 20
158.1747375851227
 30
0.0
 11
644.9012498495853
 21
158.1747375851227
 31
0.0
  0
LINE
  5
71
330
47
100
AcDbEntity
  8
1
  6
Continuous
 62
     2
100
AcDbLine
 10
789.9012498495853
 20
19.67473758512259
 30
0.0
 11
794.9012498495853
 21
19.67473758512259
 31
0.0
  0
LINE
  5
72
330
47
100
AcDbEntity
  8
1
  6
Continuous
 62
     7
100
AcDbLine
 10
789.9012498495853
 20
19.67473758512259
 30
0.0
 11
789.9012498495853
 21
158.1747375851227
 31
0.0
  0
LINE
  5
73
330
47
100
AcDbEntity
  8
1
  6
Continuous
 62
     2
100
AcDbLine
 10
614.9012498495853
 20
19.67473758512259
 30
0.0
 11
609.9012498495853
 21
19.67473758512259
 31
0.0
  0
LINE
  5
74
330
47
100
AcDbEntity
  8
1
  6
Continuous
 62
     7
100
AcDbLine
 10
614.9012498495853
 20
19.67473758512259
 30
0.0
 11
614.9012498495853
 21
148.1747375851227
 31
0.0
  0
LINE
  5
75
330
47
100
AcDbEntity
  8
1
  6
Continuous
 62
     2
100
AcDbLine
 10
694.9012498495853
 20
-114.8252624148776
 30
0.0
 11
694.9012498495853
 21
-119.8252624148776
 31
0.0
  0
LINE
  5
76
330
47
100
AcDbEntity
  8
1
  6
Continuous
 62
     7
100
AcDbLine
 10
694.9012498495853
 20
-114.8252624148776
 30
0.0
 11
789.9012498495853
 21
-114.8252624148776
 31
0.0
  0
LINE
  5
77
102
{ACAD_REACTORS
330
E9
102
}
330
47
100
AcDbEntity
  8
1
  6
Continuous
 62
     7
100
AcDbLine
 10
758.8356908457326
 20
-102.6135580521182
 30
0.0
 11
758.6756527367453
 21
-102.8907521880315
 31
0.0
  0
LINE
  5
78
102
{ACAD_REACTORS
330
E9
102
}
330
47
100
AcDbEntity
  8
1
  6
Continuous
 62
     7
100
AcDbLine
 10
759.4807735916028
 20
-104.2852624148775
 30
0.0
 11
759.8008498095771
 21
-104.2852624148775
 31
0.0
  0
LINE
  5
79
102
{ACAD_REACTORS
330
E9
102
}
330
47
100
AcDbEntity
  8
1
  6
Continuous
 62
     7
100
AcDbLine
 10
758.7664088134301
 20
-106.076966777637
 30
0.0
 11
758.6063707044425
 21
-105.7997726417237
 31
0.0
  0
LINE
  5
7A
102
{ACAD_REACTORS
330
E9
102
}
330
47
100
AcDbEntity
  8
1
  6
Continuous
 62
     7
100
AcDbLine
 10
756.996128994728
 20
-105.7997726417237
 30
0.0
 11
756.8360908857405
 21
-106.076966777637
 31
0.0
  0
LINE
  5
7B
102
{ACAD_REACTORS
330
E9
102
}
330
47
100
AcDbEntity
  8
1
  6
Continuous
 62
     7
100
AcDbLine
 10
756.9268469624252
 20
-102.8907521880315
 30
0.0
 11
756.766808853438
 21
-102.6135580521182
 31
0.0
  0
LINE
  5
7C
102
{ACAD_REACTORS
330
E9
102
}
330
47
100
AcDbEntity
  8
1
  6
Continuous
 62
     7
100
AcDbLine
 10
755.8016498895935
 20
-104.2852624148775
 30
0.0
 11
756.1217261075678
 21
-104.2852624148775
 31
0.0
  0
LINE
  5
7D
102
{ACAD_REACTORS
330
E9
102
}
330
47
100
AcDbEntity
  8
1
  6
Continuous
 62
     7
100
AcDbLine
 10
756.8360908857405
 20
-102.5735580521182
 30
0.0
 11
757.8012498495854
 21
-104.2452624148776
 31
0.0
  0
LINE
  5
7E
102
{ACAD_REACTORS
330
E9
102
}
330
47
100
AcDbEntity
  8
1
  6
Continuous
 62
     7
100
AcDbLine
 10
757.7319678172827
 20
-104.2852624148775
 30
0.0
 11
756.9668588725086
 21
-102.9600548492038
 31
0.0
  0
LINE
  5
7F
102
{ACAD_REACTORS
330
E9
102
}
330
47
100
AcDbEntity
  8
1
  6
Continuous
 62
     7
100
AcDbLine
 10
757.7319678172827
 20
-104.2852624148775
 30
0.0
 11
756.2017499277348
 21
-104.2852624148775
 31
0.0
  0
LINE
  5
80
102
{ACAD_REACTORS
330
E9
102
}
330
47
100
AcDbEntity
  8
1
  6
Continuous
 62
     7
100
AcDbLine
 10
757.7319678172827
 20
-104.3652624148776
 30
0.0
 11
755.8016498895935
 21
-104.3652624148776
 31
0.0
  0
LINE
  5
81
102
{ACAD_REACTORS
330
E9
102
}
330
47
100
AcDbEntity
  8
1
  6
Continuous
 62
     7
100
AcDbLine
 10
759.8008498095771
 20
-104.3652624148776
 30
0.0
 11
757.8705318818879
 21
-104.3652624148776
 31
0.0
  0
LINE
  5
82
102
{ACAD_REACTORS
330
E9
102
}
330
47
100
AcDbEntity
  8
1
  6
Continuous
 62
     7
100
AcDbLine
 10
757.8705318818879
 20
-104.2852624148775
 30
0.0
 11
759.4007497714359
 21
-104.2852624148775
 31
0.0
  0
LINE
  5
83
102
{ACAD_REACTORS
330
E9
102
}
330
47
100
AcDbEntity
  8
1
  6
Continuous
 62
     7
100
AcDbLine
 10
757.8705318818879
 20
-104.2852624148775
 30
0.0
 11
758.6356408266621
 21
-102.9600548492038
 31
0.0
  0
LINE
  5
84
102
{ACAD_REACTORS
330
E9
102
}
330
47
100
AcDbEntity
  8
1
  6
Continuous
 62
     7
100
AcDbLine
 10
757.8012498495854
 20
-104.2452624148776
 30
0.0
 11
758.7664088134301
 21
-102.5735580521182
 31
0.0
  0
LINE
  5
85
102
{ACAD_REACTORS
330
E9
102
}
330
47
100
AcDbEntity
  8
1
  6
Continuous
 62
     7
100
AcDbLine
 10
757.8705318818879
 20
-104.3652624148776
 30
0.0
 11
758.8356908457326
 21
-106.036966777637
 31
0.0
  0
LINE
  5
86
102
{ACAD_REACTORS
330
E9
102
}
330
47
100
AcDbEntity
  8
1
  6
Continuous
 62
     7
100
AcDbLine
 10
757.8012498495854
 20
-104.4052624148776
 30
0.0
 11
758.5663587943592
 21
-105.7304699805513
 31
0.0
  0
LINE
  5
87
102
{ACAD_REACTORS
330
E9
102
}
330
47
100
AcDbEntity
  8
1
  6
Continuous
 62
     7
100
AcDbLine
 10
757.8012498495854
 20
-104.4052624148776
 30
0.0
 11
757.0361409048113
 21
-105.7304699805513
 31
0.0
  0
LINE
  5
88
102
{ACAD_REACTORS
330
E9
102
}
330
47
100
AcDbEntity
  8
1
  6
Continuous
 62
     7
100
AcDbLine
 10
756.766808853438
 20
-106.036966777637
 30
0.0
 11
757.7319678172827
 21
-104.3652624148776
 31
0.0
  0
LINE
  5
89
102
{ACAD_REACTORS
330
EA
102
}
330
47
100
AcDbEntity
  8
1
  6
Continuous
 62
     7
100
AcDbLine
 10
770.1052498495853
 20
-102.7252624148776
 30
0.0
 11
770.1052498495853
 21
-105.4452624148776
 31
0.0
  0
LINE
  5
8A
102
{ACAD_REACTORS
330
EA
102
}
330
47
100
AcDbEntity
  8
1
  6
Continuous
 62
     7
100
AcDbLine
 10
769.6252498495854
 20
-102.7252624148776
 30
0.0
 11
770.1052498495853
 21
-102.7252624148776
 31
0.0
  0
LINE
  5
8B
102
{ACAD_REACTORS
330
EA
102
}
330
47
100
AcDbEntity
  8
1
  6
Continuous
 62
     7
100
AcDbLine
 10
769.6252498495854
 20
-105.4452624148776
 30
0.0
 11
769.6252498495854
 21
-102.7252624148776
 31
0.0
  0
LINE
  5
8C
102
{ACAD_REACTORS
330
EA
102
}
330
47
100
AcDbEntity
  8
1
  6
Continuous
 62
     7
100
AcDbLine
 10
767.7052498495852
 20
-105.9252624148776
 30
0.0
 11
767.7052498495852
 21
-103.2052624148776
 31
0.0
  0
LINE
  5
8D
102
{ACAD_REACTORS
330
EA
102
}
330
47
100
AcDbEntity
  8
1
  6
Continuous
 62
     7
100
AcDbLine
 10
768.1852498495854
 20
-105.9252624148776
 30
0.0
 11
767.7052498495852
 21
-105.9252624148776
 31
0.0
  0
LINE
  5
8E
102
{ACAD_REACTORS
330
EA
102
}
330
47
100
AcDbEntity
  8
1
  6
Continuous
 62
     7
100
AcDbLine
 10
768.1852498495854
 20
-103.2052624148776
 30
0.0
 11
768.1852498495854
 21
-105.9252624148776
 31
0.0
  0
LINE
  5
8F
102
{ACAD_REACTORS
330
EA
102
}
330
47
100
AcDbEntity
  8
1
  6
Continuous
 62
     7
100
AcDbLine
 10
768.1852498495854
 20
-103.2052624148776
 30
0.0
 11
769.1813107114843
 21
-105.6277947179424
 31
0.0
  0
LINE
  5
90
102
{ACAD_REACTORS
330
EA
102
}
330
47
100
AcDbEntity
  8
1
  6
Continuous
 62
     7
100
AcDbLine
 10
769.6252498495854
 20
-105.4452624148776
 30
0.0
 11
768.6291889876862
 21
-103.0227301118127
 31
0.0
  0
LINE
  5
91
102
{ACAD_REACTORS
330
EB
102
}
330
47
100
AcDbEntity
  8
0
  6
Continuous
 62
     7
100
AcDbLine
 10
762.3212498495852
 20
-103.2052624148776
 30
0.0
 11
763.6412498495853
 21
-103.2052624148776
 31
0.0
  0
LINE
  5
92
102
{ACAD_REACTORS
330
EB
102
}
330
47
100
AcDbEntity
  8
0
  6
Continuous
 62
     7
100
AcDbLine
 10
762.8812498495853
 20
-104.0852624148776
 30
0.0
 11
762.3212498495852
 21
-104.0852624148776
 31
0.0
  0
LINE
  5
93
102
{ACAD_REACTORS
330
EB
102
}
330
47
100
AcDbEntity
  8
0
  6
Continuous
 62
     7
100
AcDbLine
 10
761.4012498495853
 20
-105.9252624148776
 30
0.0
 11
762.8812498495853
 21
-105.9252624148776
 31
0.0
  0
LINE
  5
94
102
{ACAD_REACTORS
330
EB
102
}
330
47
100
AcDbEntity
  8
0
  6
Continuous
 62
     7
100
AcDbLine
 10
761.4012498495853
 20
-105.4452624148776
 30
0.0
 11
761.4012498495853
 21
-105.9252624148776
 31
0.0
  0
LINE
  5
95
102
{ACAD_REACTORS
330
EB
102
}
330
47
100
AcDbEntity
  8
0
  6
Continuous
 62
     7
100
AcDbLine
 10
762.8812498495853
 20
-105.4452624148776
 30
0.0
 11
761.4012498495853
 21
-105.4452624148776
 31
0.0
  0
LINE
  5
96
102
{ACAD_REACTORS
330
EB
102
}
330
47
100
AcDbEntity
  8
0
  6
Continuous
 62
     7
100
AcDbLine
 10
762.3212498495852
 20
-104.5652624148776
 30
0.0
 11
762.8812498495853
 21
-104.5652624148776
 31
0.0
  0
LINE
  5
97
102
{ACAD_REACTORS
330
EB
102
}
330
47
100
AcDbEntity
  8
0
  6
Continuous
 62
     7
100
AcDbLine
 10
763.6412498495853
 20
-102.7252624148776
 30
0.0
 11
762.3212498495852
 21
-102.7252624148776
 31
0.0
  0
LINE
  5
98
102
{ACAD_REACTORS
330
EB
102
}
330
47
100
AcDbEntity
  8
0
  6
Continuous
 62
     7
100
AcDbLine
 10
763.6412498495853
 20
-103.2052624148776
 30
0.0
 11
763.6412498495853
 21
-102.7252624148776
 31
0.0
  0
LINE
  5
99
102
{ACAD_REACTORS
330
EC
102
}
330
47
100
AcDbEntity
  8
0
  6
Continuous
 62
     7
100
AcDbLine
 10
766.4732498495854
 20
-105.2852624148775
 30
0.0
 11
766.4732498495854
 21
-105.9252624148776
 31
0.0
  0
LINE
  5
9A
102
{ACAD_REACTORS
330
EC
102
}
330
47
100
AcDbEntity
  8
0
  6
Continuous
 62
     7
100
AcDbLine
 10
765.0332498495851
 20
-105.2852624148775
 30
0.0
 11
766.4732498495854
 21
-105.2852624148775
 31
0.0
  0
LINE
  5
9B
102
{ACAD_REACTORS
330
EC
102
}
330
47
100
AcDbEntity
  8
0
  6
Continuous
 62
     7
100
AcDbLine
 10
765.0332498495851
 20
-104.8052624148776
 30
0.0
 11
765.0332498495851
 21
-103.9252624148776
 31
0.0
  0
LINE
  5
9C
102
{ACAD_REACTORS
330
EC
102
}
330
47
100
AcDbEntity
  8
0
  6
Continuous
 62
     7
100
AcDbLine
 10
765.0332498495851
 20
-104.8052624148776
 30
0.0
 11
766.4732498495854
 21
-104.8052624148776
 31
0.0
  0
LINE
  5
9D
102
{ACAD_REACTORS
330
EC
102
}
330
47
100
AcDbEntity
  8
0
  6
Continuous
 62
     7
100
AcDbLine
 10
764.5532498495852
 20
-105.9252624148776
 30
0.0
 11
765.0332498495851
 21
-105.9252624148776
 31
0.0
  0
LINE
  5
9E
102
{ACAD_REACTORS
330
EC
102
}
330
47
100
AcDbEntity
  8
0
  6
Continuous
 62
     7
100
AcDbLine
 10
764.5532498495852
 20
-103.9252624148776
 30
0.0
 11
764.5532498495852
 21
-105.9252624148776
 31
0.0
  0
LINE
  5
9F
102
{ACAD_REACTORS
330
EC
102
}
330
47
100
AcDbEntity
  8
0
  6
Continuous
 62
     7
100
AcDbLine
 10
766.9532498495852
 20
-105.9252624148776
 30
0.0
 11
766.9532498495852
 21
-103.9252624148776
 31
0.0
  0
LINE
  5
A0
102
{ACAD_REACTORS
330
EC
102
}
330
47
100
AcDbEntity
  8
0
  6
Continuous
 62
     7
100
AcDbLine
 10
766.4732498495854
 20
-105.9252624148776
 30
0.0
 11
766.9532498495852
 21
-105.9252624148776
 31
0.0
  0
LINE
  5
A1
102
{ACAD_REACTORS
330
EC
102
}
330
47
100
AcDbEntity
  8
0
  6
Continuous
 62
     7
100
AcDbLine
 10
766.4732498495854
 20
-103.9252624148776
 30
0.0
 11
766.4732498495854
 21
-104.8052624148776
 31
0.0
  0
LINE
  5
A2
102
{ACAD_REACTORS
330
EC
102
}
330
47
100
AcDbEntity
  8
0
  6
Continuous
 62
     7
100
AcDbLine
 10
765.0332498495851
 20
-105.9252624148776
 30
0.0
 11
765.0332498495851
 21
-105.2852624148775
 31
0.0
  0
LINE
  5
A3
102
{ACAD_REACTORS
330
ED
102
}
330
47
100
AcDbEntity
  8
0
  6
Continuous
 62
     7
100
AcDbLine
 10
770.8572498495854
 20
-104.0452624148776
 30
0.0
 11
770.8572498495854
 21
-104.6052624148775
 31
0.0
  0
LINE
  5
A4
102
{ACAD_REACTORS
330
ED
102
}
330
47
100
AcDbEntity
  8
0
  6
Continuous
 62
     7
100
AcDbLine
 10
772.4572498495851
 20
-104.0452624148776
 30
0.0
 11
770.8572498495854
 21
-104.0452624148776
 31
0.0
  0
LINE
  5
A5
102
{ACAD_REACTORS
330
ED
102
}
330
47
100
AcDbEntity
  8
0
  6
Continuous
 62
     7
100
AcDbLine
 10
772.4572498495851
 20
-104.6052624148775
 30
0.0
 11
772.4572498495851
 21
-104.0452624148776
 31
0.0
  0
LINE
  5
A6
102
{ACAD_REACTORS
330
ED
102
}
330
47
100
AcDbEntity
  8
0
  6
Continuous
 62
     7
100
AcDbLine
 10
770.8572498495854
 20
-104.6052624148775
 30
0.0
 11
772.4572498495851
 21
-104.6052624148775
 31
0.0
  0
LINE
  5
A7
102
{ACAD_REACTORS
330
E8
102
}
330
47
100
AcDbEntity
  8
0
  6
Continuous
 62
     7
100
AcDbLine
 10
775.6092498495851
 20
-105.9252624148776
 30
0.0
 11
773.6092498495851
 21
-105.9252624148776
 31
0.0
  0
LINE
  5
A8
102
{ACAD_REACTORS
330
E8
102
}
330
47
100
AcDbEntity
  8
0
  6
Continuous
 62
     7
100
AcDbLine
 10
773.2092498495853
 20
-105.5252624148776
 30
0.0
 11
773.2092498495853
 21
-103.1252624148776
 31
0.0
  0
LINE
  5
A9
102
{ACAD_REACTORS
330
E8
102
}
330
47
100
AcDbEntity
  8
0
  6
Continuous
 62
     7
100
AcDbLine
 10
775.6092498495851
 20
-102.7252624148776
 30
0.0
 11
773.6092498495851
 21
-102.7252624148776
 31
0.0
  0
LINE
  5
AA
102
{ACAD_REACTORS
330
E8
102
}
330
47
100
AcDbEntity
  8
0
  6
Continuous
 62
     7
100
AcDbLine
 10
775.6092498495851
 20
-103.2052624148776
 30
0.0
 11
775.6092498495851
 21
-102.7252624148776
 31
0.0
  0
LINE
  5
AB
102
{ACAD_REACTORS
330
E8
102
}
330
47
100
AcDbEntity
  8
0
  6
Continuous
 62
     7
100
AcDbLine
 10
775.6092498495851
 20
-103.2052624148776
 30
0.0
 11
773.8492498495854
 21
-103.2052624148776
 31
0.0
  0
LINE
  5
AC
102
{ACAD_REACTORS
330
E8
102
}
330
47
100
AcDbEntity
  8
0
  6
Continuous
 62
     7
100
AcDbLine
 10
773.6892498495853
 20
-103.3652624148776
 30
0.0
 11
773.6892498495853
 21
-104.0852624148776
 31
0.0
  0
LINE
  5
AD
102
{ACAD_REACTORS
330
E8
102
}
330
47
100
AcDbEntity
  8
0
  6
Continuous
 62
     7
100
AcDbLine
 10
775.6092498495851
 20
-104.0852624148776
 30
0.0
 11
773.6892498495853
 21
-104.0852624148776
 31
0.0
  0
LINE
  5
AE
102
{ACAD_REACTORS
330
E8
102
}
330
47
100
AcDbEntity
  8
0
  6
Continuous
 62
     7
100
AcDbLine
 10
775.6092498495851
 20
-104.5652624148776
 30
0.0
 11
775.6092498495851
 21
-104.0852624148776
 31
0.0
  0
LINE
  5
AF
102
{ACAD_REACTORS
330
E8
102
}
330
47
100
AcDbEntity
  8
0
  6
Continuous
 62
     7
100
AcDbLine
 10
775.6092498495851
 20
-104.5652624148776
 30
0.0
 11
773.6892498495853
 21
-104.5652624148776
 31
0.0
  0
LINE
  5
B0
102
{ACAD_REACTORS
330
E8
102
}
330
47
100
AcDbEntity
  8
0
  6
Continuous
 62
     7
100
AcDbLine
 10
773.6892498495853
 20
-104.5652624148776
 30
0.0
 11
773.6892498495853
 21
-105.2852624148775
 31
0.0
  0
LINE
  5
B1
102
{ACAD_REACTORS
330
E8
102
}
330
47
100
AcDbEntity
  8
0
  6
Continuous
 62
     7
100
AcDbLine
 10
775.6092498495851
 20
-105.4452624148776
 30
0.0
 11
773.8492498495854
 21
-105.4452624148776
 31
0.0
  0
LINE
  5
B2
102
{ACAD_REACTORS
330
E8
102
}
330
47
100
AcDbEntity
  8
0
  6
Continuous
 62
     7
100
AcDbLine
 10
775.6092498495851
 20
-105.9252624148776
 30
0.0
 11
775.6092498495851
 21
-105.4452624148776
 31
0.0
  0
LINE
  5
B3
102
{ACAD_REACTORS
330
EE
102
}
330
47
100
AcDbEntity
  8
0
  6
Continuous
 62
     7
100
AcDbLine
 10
776.3612498495851
 20
-102.7252624148776
 30
0.0
 11
776.3612498495851
 21
-105.9252624148776
 31
0.0
  0
LINE
  5
B4
102
{ACAD_REACTORS
330
EE
102
}
330
47
100
AcDbEntity
  8
0
  6
Continuous
 62
     7
100
AcDbLine
 10
777.0012498495852
 20
-102.7252624148776
 30
0.0
 11
776.3612498495851
 21
-102.7252624148776
 31
0.0
  0
LINE
  5
B5
102
{ACAD_REACTORS
330
EE
102
}
330
47
100
AcDbEntity
  8
0
  6
Continuous
 62
     7
100
AcDbLine
 10
777.0012498495852
 20
-105.9252624148776
 30
0.0
 11
777.0012498495852
 21
-102.7252624148776
 31
0.0
  0
LINE
  5
B6
102
{ACAD_REACTORS
330
EE
102
}
330
47
100
AcDbEntity
  8
0
  6
Continuous
 62
     7
100
AcDbLine
 10
776.3612498495851
 20
-105.9252624148776
 30
0.0
 11
777.0012498495852
 21
-105.9252624148776
 31
0.0
  0
LINE
  5
B7
330
47
100
AcDbEntity
  8
0
  6
Continuous
 62
     7
100
AcDbLine
 10
619.9012498495854
 20
-86.82526241487759
 30
0.0
 11
789.9012498495853
 21
-86.82526241487759
 31
0.0
  0
ARC
  5
B8
102
{ACAD_REACTORS
330
E9
102
}
330
47
100
AcDbEntity
  8
1
  6
Continuous
 62
     7
100
AcDbCircle
 10
757.8012498495854
 20
-104.3252624148776
 30
0.0
 40
1.999999999999941
100
AcDbArc
 50
301.1459919983864
 51
358.8540080016111
  0
ARC
  5
B9
102
{ACAD_REACTORS
330
E9
102
}
330
47
100
AcDbEntity
  8
1
  6
Continuous
 62
     7
100
AcDbCircle
 10
757.8012498495854
 20
-104.3252624148776
 30
0.0
 40
1.999999999999885
100
AcDbArc
 50
181.1459919983889
 51
238.8540080016108
  0
ARC
  5
BA
102
{ACAD_REACTORS
330
E9
102
}
330
47
100
AcDbEntity
  8
1
  6
Continuous
 62
     7
100
AcDbCircle
 10
757.8012498495854
 20
-104.3252624148776
 30
0.0
 40
2.000000000000028
100
AcDbArc
 50
61.14599199838598
 51
118.8540080016169
  0
ARC
  5
BB
102
{ACAD_REACTORS
330
E9
102
}
330
47
100
AcDbEntity
  8
1
  6
Continuous
 62
     7
100
AcDbCircle
 10
757.8012498495854
 20
-104.3252624148776
 30
0.0
 40
1.600000000000016
100
AcDbArc
 50
121.4325437375691
 51
178.5674562624297
  0
ARC
  5
BC
102
{ACAD_REACTORS
330
E9
102
}
330
47
100
AcDbEntity
  8
1
  6
Continuous
 62
     7
100
AcDbCircle
 10
757.8012498495854
 20
-104.3252624148776
 30
0.0
 40
1.680000000000021
100
AcDbArc
 50
121.3643141506694
 51
178.6356858493307
  0
ARC
  5
BD
102
{ACAD_REACTORS
330
E9
102
}
330
47
100
AcDbEntity
  8
1
  6
Continuous
 62
     7
100
AcDbCircle
 10
757.8012498495854
 20
-104.3252624148776
 30
0.0
 40
2.0
100
AcDbArc
 50
121.1459919983892
 51
178.8540080016083
  0
ARC
  5
BE
102
{ACAD_REACTORS
330
E9
102
}
330
47
100
AcDbEntity
  8
1
  6
Continuous
 62
     7
100
AcDbCircle
 10
757.8012498495854
 20
-104.3252624148776
 30
0.0
 40
1.599999999999992
100
AcDbArc
 50
1.4325437375703
 51
58.56745626243088
  0
ARC
  5
BF
102
{ACAD_REACTORS
330
E9
102
}
330
47
100
AcDbEntity
  8
1
  6
Continuous
 62
     7
100
AcDbCircle
 10
757.8012498495854
 20
-104.3252624148776
 30
0.0
 40
1.68000000000005
100
AcDbArc
 50
1.3643141506694
 51
58.63568584933723
  0
ARC
  5
C0
102
{ACAD_REACTORS
330
E9
102
}
330
47
100
AcDbEntity
  8
1
  6
Continuous
 62
     7
100
AcDbCircle
 10
757.8012498495854
 20
-104.3252624148776
 30
0.0
 40
1.999999999999774
100
AcDbArc
 50
1.14599199839175
 51
58.85400800161356
  0
ARC
  5
C1
102
{ACAD_REACTORS
330
E9
102
}
330
47
100
AcDbEntity
  8
1
  6
Continuous
 62
     7
100
AcDbCircle
 10
757.8012498495854
 20
-104.3252624148776
 30
0.0
 40
2.000000000000083
100
AcDbArc
 50
241.1459919983831
 51
298.854008001614
  0
ARC
  5
C2
102
{ACAD_REACTORS
330
E9
102
}
330
47
100
AcDbEntity
  8
1
  6
Continuous
 62
     7
100
AcDbCircle
 10
757.8012498495854
 20
-104.3252624148776
 30
0.0
 40
1.680000000000003
100
AcDbArc
 50
241.3643141506635
 51
298.6356858493297
  0
ARC
  5
C3
102
{ACAD_REACTORS
330
E9
102
}
330
47
100
AcDbEntity
  8
1
  6
Continuous
 62
     7
100
AcDbCircle
 10
757.8012498495854
 20
-104.3252624148776
 30
0.0
 40
1.599999999999966
100
AcDbArc
 50
241.4325437375599
 51
298.5674562624329
  0
ARC
  5
C4
102
{ACAD_REACTORS
330
EA
102
}
330
47
100
AcDbEntity
  8
1
  6
Continuous
 62
     7
100
AcDbCircle
 10
769.6252498495854
 20
-105.4452624148776
 30
0.0
 40
0.4800000000000746
100
AcDbArc
 50
202.350756941892
 51
0.0
  0
ARC
  5
C5
102
{ACAD_REACTORS
330
EA
102
}
330
47
100
AcDbEntity
  8
1
  6
Continuous
 62
     7
100
AcDbCircle
 10
768.1852498495854
 20
-103.2052624148776
 30
0.0
 40
0.4799999999999022
100
AcDbArc
 50
22.3507569419133
 51
180.0
  0
ARC
  5
C6
102
{ACAD_REACTORS
330
EB
102
}
330
47
100
AcDbEntity
  8
0
  6
Continuous
 62
     7
100
AcDbCircle
 10
762.3212498495852
 20
-103.6452624148776
 30
0.0
 40
0.4400000000000119
100
AcDbArc
 50
90.0
 51
270.0
  0
ARC
  5
C7
102
{ACAD_REACTORS
330
EB
102
}
330
47
100
AcDbEntity
  8
0
  6
Continuous
 62
     7
100
AcDbCircle
 10
762.8812498495853
 20
-105.0052624148775
 30
0.0
 40
0.920000000000087
100
AcDbArc
 50
270.0
 51
90.0
  0
ARC
  5
C8
102
{ACAD_REACTORS
330
EB
102
}
330
47
100
AcDbEntity
  8
0
  6
Continuous
 62
     7
100
AcDbCircle
 10
762.8812498495853
 20
-105.0052624148775
 30
0.0
 40
0.4400000000000972
100
AcDbArc
 50
270.0
 51
90.0
  0
ARC
  5
C9
102
{ACAD_REACTORS
330
EB
102
}
330
47
100
AcDbEntity
  8
0
  6
Continuous
 62
     7
100
AcDbCircle
 10
762.3212498495852
 20
-103.6452624148776
 30
0.0
 40
0.9200000000000017
100
AcDbArc
 50
90.0
 51
270.0
  0
ARC
  5
CA
102
{ACAD_REACTORS
330
EC
102
}
330
47
100
AcDbEntity
  8
0
  6
Continuous
 62
     7
100
AcDbCircle
 10
765.7532498495852
 20
-103.9252624148776
 30
0.0
 40
1.199999999999932
100
AcDbArc
 50
0.0
 51
180.0
  0
ARC
  5
CB
102
{ACAD_REACTORS
330
EC
102
}
330
47
100
AcDbEntity
  8
0
  6
Continuous
 62
     7
100
AcDbCircle
 10
765.7532498495852
 20
-103.9252624148776
 30
0.0
 40
0.720000000000141
100
AcDbArc
 50
0.0
 51
180.0
  0
CIRCLE
  5
CC
102
{ACAD_REACTORS
330
E7
102
}
330
47
100
AcDbEntity
  8
1
  6
Continuous
 62
     7
100
AcDbCircle
 10
757.8012498495854
 20
-104.3252624148776
 30
0.0
 40
2.480000000000004
  0
CIRCLE
  5
CD
102
{ACAD_REACTORS
330
E7
102
}
330
47
100
AcDbEntity
  8
1
  6
Continuous
 62
     7
100
AcDbCircle
 10
757.8012498495854
 20
-104.3252624148776
 30
0.0
 40
2.400000000000006
  0
CIRCLE
  5
CE
102
{ACAD_REACTORS
330
E9
102
}
330
47
100
AcDbEntity
  8
1
  6
Continuous
 62
     7
100
AcDbCircle
 10
757.8012498495854
 20
-104.3252624148776
 30
0.0
 40
2.079999999999998
  0
ARC
  5
CF
102
{ACAD_REACTORS
330
E8
102
}
330
47
100
AcDbEntity
  8
1
  6
Continuous
 62
     7
100
AcDbCircle
 10
773.8492498495854
 20
-103.3652624148776
 30
0.0
 40
0.1600000000000108
100
AcDbArc
 50
90.0
 51
180.0
  0
ARC
  5
D0
102
{ACAD_REACTORS
330
E8
102
}
330
47
100
AcDbEntity
  8
1
  6
Continuous
 62
     7
100
AcDbCircle
 10
773.8492498495854
 20
-105.2852624148775
 30
0.0
 40
0.1600000000000819
100
AcDbArc
 50
180.0
 51
270.0
  0
ARC
  5
D1
102
{ACAD_REACTORS
330
E8
102
}
330
47
100
AcDbEntity
  8
1
  6
Continuous
 62
     7
100
AcDbCircle
 10
773.6092498495851
 20
-105.5252624148776
 30
0.0
 40
0.3999999999998636
100
AcDbArc
 50
180.0
 51
270.0
  0
ARC
  5
D2
102
{ACAD_REACTORS
330
E8
102
}
330
47
100
AcDbEntity
  8
1
  6
Continuous
 62
     7
100
AcDbCircle
 10
773.6092498495851
 20
-103.1252624148776
 30
0.0
 40
0.3999999999999915
100
AcDbArc
 50
90.0
 51
180.0
  0
MTEXT
  5
D4
330
47
100
AcDbEntity
  8
1
 62
     2
100
AcDbMText
 10
622.4012498495853
 20
153.1747375851227
 30
0.0
 40
4.5
 41
0.0
 71
     5
 72
     1
  1
図番
  7
CONVERTER_11
 73
     1
 44
0.54545454545455
  0
MTEXT
  5
D5
330
47
100
AcDbEntity
  8
1
 62
     2
100
AcDbMText
 10
776.0426242756845
 20
-111.3252624148776
 30
0.0
 40
3.0
 41
0.0
 71
     5
 72
     1
  1
三栄水栓製作所
  7
CONVERTER_11
 73
     1
 44
1.0
  0
MTEXT
  5
D6
330
47
100
AcDbEntity
  8
1
 62
     2
100
AcDbMText
 10
758.7598754234859
 20
-111.3252624148776
 30
0.0
 40
2.5
 41
0.0
 71
     5
 72
     1
  1
株式会社
  7
CONVERTER_11
 73
     1
 44
1.0
  0
MTEXT
  5
D7
330
47
100
AcDbEntity
  8
1
 62
     2
100
AcDbMText
 10
742.4012498495853
 20
-111.3252624148776
 30
0.0
 40
4.0
 41
0.0
 71
     5
 72
     1
  1
計
  7
CONVERTER_11
 73
     1
 44
1.0
  0
MTEXT
  5
D8
330
47
100
AcDbEntity
  8
1
 62
     2
100
AcDbMText
 10
742.4012498495853
 20
-104.3252624148776
 30
0.0
 40
4.0
 41
0.0
 71
     5
 72
     1
  1
設
  7
CONVERTER_11
 73
     1
 44
1.0
  0
MTEXT
  5
D9
330
47
100
AcDbEntity
  8
1
 62
     2
100
AcDbMText
 10
729.4012498495853
 20
-111.3252624148776
 30
0.0
 40
4.0
 41
0.0
 71
     5
 72
     1
  1
図
  7
CONVERTER_11
 73
     1
 44
1.0
  0
MTEXT
  5
DA
330
47
100
AcDbEntity
  8
1
 62
     2
100
AcDbMText
 10
729.4012498495853
 20
-104.3252624148776
 30
0.0
 40
4.0
 41
0.0
 71
     5
 72
     1
  1
製
  7
CONVERTER_11
 73
     1
 44
1.0
  0
MTEXT
  5
DB
330
47
100
AcDbEntity
  8
1
 62
     2
100
AcDbMText
 10
716.4012498495853
 20
-111.3252624148776
 30
0.0
 40
4.0
 41
0.0
 71
     5
 72
     1
  1
図
  7
CONVERTER_11
 73
     1
 44
1.0
  0
MTEXT
  5
DC
330
47
100
AcDbEntity
  8
1
 62
     2
100
AcDbMText
 10
716.4012498495853
 20
-104.3252624148776
 30
0.0
 40
4.0
 41
0.0
 71
     5
 72
     1
  1
検
  7
CONVERTER_11
 73
     1
 44
1.0
  0
MTEXT
  5
DD
330
47
100
AcDbEntity
  8
1
 62
     2
100
AcDbMText
 10
703.4012498495853
 20
-111.3252624148776
 30
0.0
 40
4.0
 41
0.0
 71
     5
 72
     1
  1
認
  7
CONVERTER_11
 73
     1
 44
1.0
  0
MTEXT
  5
DE
330
47
100
AcDbEntity
  8
1
 62
     2
100
AcDbMText
 10
703.4012498495853
 20
-104.3252624148776
 30
0.0
 40
4.0
 41
0.0
 71
     5
 72
     1
  1
承
  7
CONVERTER_11
 73
     1
 44
1.0
  0
MTEXT
  5
DF
330
47
100
AcDbEntity
  8
1
 62
     2
100
AcDbMText
 10
689.4012498495853
 20
-111.3252624148776
 30
0.0
 40
4.0
 41
0.0
 71
     5
 72
     1
  1
度
  7
CONVERTER_11
 73
     1
 44
1.0
  0
MTEXT
  5
E0
330
47
100
AcDbEntity
  8
1
 62
     2
100
AcDbMText
 10
689.4012498495853
 20
-104.3252624148776
 30
0.0
 40
4.0
 41
0.0
 71
     5
 72
     1
  1
尺
  7
CONVERTER_11
 73
     1
 44
1.0
  0
MTEXT
  5
E1
330
47
100
AcDbEntity
  8
1
 62
     2
100
AcDbMText
 10
662.4012498495854
 20
-111.3252624148776
 30
0.0
 40
4.0
 41
0.0
 71
     5
 72
     1
  1
番
  7
CONVERTER_11
 73
     1
 44
1.0
  0
MTEXT
  5
E2
330
47
100
AcDbEntity
  8
1
 62
     2
100
AcDbMText
 10
662.4012498495854
 20
-104.3252624148776
 30
0.0
 40
4.0
 41
0.0
 71
     5
 72
     1
  1
品
  7
CONVERTER_11
 73
     1
 44
1.0
  0
MTEXT
  5
E3
330
47
100
AcDbEntity
  8
1
 62
     2
100
AcDbMText
 10
617.4012498495854
 20
-111.3252624148776
 30
0.0
 40
4.0
 41
0.0
 71
     5
 72
     1
  1
名
  7
CONVERTER_11
 73
     1
 44
1.0
  0
MTEXT
  5
E4
330
47
100
AcDbEntity
  8
1
 62
     2
100
AcDbMText
 10
617.4012498495854
 20
-104.3252624148776
 30
0.0
 40
4.0
 41
0.0
 71
     5
 72
     1
  1
品
  7
CONVERTER_11
 73
     1
 44
1.0
  0
MTEXT
  5
E5
330
47
100
AcDbEntity
  8
1
 62
     2
100
AcDbMText
 10
617.4012498495854
 20
-90.32526241487759
 30
0.0
 40
4.0
 41
0.0
 71
     5
 72
     1
  1
備
  7
CONVERTER_11
 73
     1
 44
1.0
  0
MTEXT
  5
E6
330
47
100
AcDbEntity
  8
1
 62
     2
100
AcDbMText
 10
617.4012498495854
 20
-97.32526241487759
 30
0.0
 40
4.0
 41
0.0
 71
     5
 72
     1
  1
考
  7
CONVERTER_11
 73
     1
 44
1.0
  0
HATCH
  5
E7
330
47
100
AcDbEntity
  8
1
  6
Continuous
 62
     2
100
AcDbHatch
 10
0.0
 20
0.0
 30
0.0
210
0.0
220
0.0
230
1.0
  2
_USER
 70
     0
 71
     1
 91
        2
 92
        1
 93
        1
 72
     2
 10
757.8012498495854
 20
-104.3252624148776
 40
2.480000000000004
 50
0.0
 51
360.0
 73
     1
 97
        1
330
CC
 92
       16
 93
        1
 72
     2
 10
757.8012498495854
 20
-104.3252624148776
 40
2.400000000000006
 50
0.0
 51
360.0
 73
     1
 97
        1
330
CD
 75
     1
 76
     0
 52
44.99999999999998
 41
0.2
 77
     0
 78
     1
 53
44.99999999999998
 43
0.0
 44
0.0
 45
-0.1414213562373094
 46
0.1414213562373096
 79
     0
 98
        1
 10
0.0
 20
0.0
  0
HATCH
  5
E8
330
47
100
AcDbEntity
  8
0
  6
Continuous
 62
     2
100
AcDbHatch
 10
0.0
 20
0.0
 30
0.0
210
0.0
220
0.0
230
1.0
  2
_USER
 70
     0
 71
     1
 91
        1
 92
        1
 93
       16
 72
     1
 10
775.6092498495851
 20
-102.7252624148776
 11
773.6092498495851
 21
-102.7252624148776
 72
     2
 10
773.6092498495851
 20
-103.1252624148776
 40
0.3999999999999915
 50
90.0
 51
180.0
 73
     1
 72
     1
 10
773.2092498495853
 20
-103.1252624148776
 11
773.2092498495853
 21
-105.5252624148776
 72
     2
 10
773.6092498495851
 20
-105.5252624148776
 40
0.3999999999998636
 50
180.0
 51
270.0
 73
     1
 72
     1
 10
773.6092498495851
 20
-105.9252624148776
 11
775.6092498495851
 21
-105.9252624148776
 72
     1
 10
775.6092498495851
 20
-105.9252624148776
 11
775.6092498495851
 21
-105.4452624148776
 72
     1
 10
775.6092498495851
 20
-105.4452624148776
 11
773.8492498495854
 21
-105.4452624148776
 72
     2
 10
773.8492498495854
 20
-105.2852624148775
 40
0.1600000000000819
 50
90.0
 51
180.0
 73
     0
 72
     1
 10
773.6892498495853
 20
-105.2852624148775
 11
773.6892498495853
 21
-104.5652624148776
 72
     1
 10
773.6892498495853
 20
-104.5652624148776
 11
775.6092498495851
 21
-104.5652624148776
 72
     1
 10
775.6092498495851
 20
-104.5652624148776
 11
775.6092498495851
 21
-104.0852624148776
 72
     1
 10
775.6092498495851
 20
-104.0852624148776
 11
773.6892498495853
 21
-104.0852624148776
 72
     1
 10
773.6892498495853
 20
-104.0852624148776
 11
773.6892498495853
 21
-103.3652624148776
 72
     2
 10
773.8492498495854
 20
-103.3652624148776
 40
0.1600000000000108
 50
180.0
 51
270.0
 73
     0
 72
     1
 10
773.8492498495854
 20
-103.2052624148776
 11
775.6092498495851
 21
-103.2052624148776
 72
     1
 10
775.6092498495851
 20
-103.2052624148776
 11
775.6092498495851
 21
-102.7252624148776
 97
       16
330
A9
330
D2
330
A8
330
D1
330
A7
330
B2
330
B1
330
D0
330
B0
330
AF
330
AE
330
AD
330
AC
330
CF
330
AB
330
AA
 75
     1
 76
     0
 52
44.99999999999998
 41
0.2
 77
     0
 78
     1
 53
44.99999999999998
 43
0.0
 44
0.0
 45
-0.1414213562373094
 46
0.1414213562373096
 79
     0
 98
        1
 10
0.0
 20
0.0
  0
HATCH
  5
E9
330
47
100
AcDbEntity
  8
1
  6
Continuous
 62
     2
100
AcDbHatch
 10
0.0
 20
0.0
 30
0.0
210
0.0
220
0.0
230
1.0
  2
_USER
 70
     0
 71
     1
 91
       10
 92
        1
 93
        1
 72
     2
 10
757.8012498495854
 20
-104.3252624148776
 40
2.079999999999998
 50
0.0
 51
360.0
 73
     1
 97
        1
330
CE
 92
       16
 93
        3
 72
     2
 10
757.8012498495854
 20
-104.3252624148776
 40
1.999999999999941
 50
301.1459919983864
 51
358.8540080016111
 73
     1
 72
     1
 10
759.8008498095771
 20
-104.3652624148776
 11
757.8705318818879
 21
-104.3652624148776
 72
     1
 10
757.8705318818879
 20
-104.3652624148776
 11
758.8356908457326
 21
-106.036966777637
 97
        3
330
B8
330
81
330
85
 92
       16
 93
        3
 72
     2
 10
757.8012498495854
 20
-104.3252624148776
 40
1.999999999999885
 50
181.1459919983889
 51
238.8540080016108
 73
     1
 72
     1
 10
756.766808853438
 20
-106.036966777637
 11
757.7319678172827
 21
-104.3652624148776
 72
     1
 10
757.7319678172827
 20
-104.3652624148776
 11
755.8016498895935
 21
-104.3652624148776
 97
        3
330
B9
330
88
330
80
 92
       16
 93
        3
 72
     2
 10
757.8012498495854
 20
-104.3252624148776
 40
2.000000000000028
 50
61.14599199838598
 51
118.8540080016169
 73
     1
 72
     1
 10
756.8360908857405
 20
-102.5735580521182
 11
757.8012498495854
 21
-104.2452624148776
 72
     1
 10
757.8012498495854
 20
-104.2452624148776
 11
758.7664088134301
 21
-102.5735580521182
 97
        3
330
BA
330
7D
330
84
 92
       16
 93
        3
 72
     2
 10
757.8012498495854
 20
-104.3252624148776
 40
1.600000000000016
 50
121.4325437375691
 51
178.5674562624297
 73
     1
 72
     1
 10
756.2017499277348
 20
-104.2852624148775
 11
757.7319678172827
 21
-104.2852624148775
 72
     1
 10
757.7319678172827
 20
-104.2852624148775
 11
756.9668588725086
 21
-102.9600548492038
 97
        3
330
BB
330
7F
330
7E
 92
       16
 93
        4
 72
     2
 10
757.8012498495854
 20
-104.3252624148776
 40
2.0
 50
121.1459919983892
 51
178.8540080016083
 73
     1
 72
     1
 10
755.8016498895935
 20
-104.2852624148775
 11
756.1217261075678
 21
-104.2852624148775
 72
     2
 10
757.8012498495854
 20
-104.3252624148776
 40
1.680000000000021
 50
181.3643141506693
 51
238.6356858493306
 73
     0
 72
     1
 10
756.9268469624252
 20
-102.8907521880315
 11
756.766808853438
 21
-102.6135580521182
 97
        4
330
BD
330
7C
330
BC
330
7B
 92
       16
 93
        3
 72
     2
 10
757.8012498495854
 20
-104.3252624148776
 40
1.599999999999992
 50
1.432543737570302
 51
58.56745626243088
 73
     1
 72
     1
 10
758.6356408266621
 20
-102.9600548492038
 11
757.8705318818879
 21
-104.2852624148775
 72
     1
 10
757.8705318818879
 20
-104.2852624148775
 11
759.4007497714359
 21
-104.2852624148775
 97
        3
330
BE
330
83
330
82
 92
       16
 93
        4
 72
     2
 10
757.8012498495854
 20
-104.3252624148776
 40
1.999999999999774
 50
1.145991998391752
 51
58.85400800161356
 73
     1
 72
     1
 10
758.8356908457326
 20
-102.6135580521182
 11
758.6756527367453
 21
-102.8907521880315
 72
     2
 10
757.8012498495854
 20
-104.3252624148776
 40
1.68000000000005
 50
301.3643141506628
 51
358.6356858493306
 73
     0
 72
     1
 10
759.4807735916028
 20
-104.2852624148775
 11
759.8008498095771
 21
-104.2852624148775
 97
        4
330
C0
330
77
330
BF
330
78
 92
       16
 93
        4
 72
     2
 10
757.8012498495854
 20
-104.3252624148776
 40
1.680000000000003
 50
241.3643141506635
 51
298.6356858493297
 73
     1
 72
     1
 10
758.6063707044425
 20
-105.7997726417237
 11
758.7664088134301
 21
-106.076966777637
 72
     2
 10
757.8012498495854
 20
-104.3252624148776
 40
2.000000000000083
 50
61.14599199838595
 51
118.8540080016169
 73
     0
 72
     1
 10
756.8360908857405
 20
-106.076966777637
 11
756.996128994728
 21
-105.7997726417237
 97
        4
330
C2
330
79
330
C1
330
7A
 92
       16
 93
        3
 72
     2
 10
757.8012498495854
 20
-104.3252624148776
 40
1.599999999999966
 50
241.4325437375599
 51
298.5674562624329
 73
     1
 72
     1
 10
758.5663587943592
 20
-105.7304699805513
 11
757.8012498495854
 21
-104.4052624148776
 72
     1
 10
757.8012498495854
 20
-104.4052624148776
 11
757.0361409048113
 21
-105.7304699805513
 97
        3
330
C3
330
86
330
87
 75
     1
 76
     0
 52
44.99999999999998
 41
0.2
 77
     0
 78
     1
 53
44.99999999999998
 43
0.0
 44
0.0
 45
-0.1414213562373094
 46
0.1414213562373096
 79
     0
 98
        1
 10
0.0
 20
0.0
  0
HATCH
  5
EA
330
47
100
AcDbEntity
  8
1
  6
Continuous
 62
     2
100
AcDbHatch
 10
0.0
 20
0.0
 30
0.0
210
0.0
220
0.0
230
1.0
  2
_USER
 70
     0
 71
     1
 91
        1
 92
        1
 93
       10
 72
     2
 10
768.1852498495854
 20
-103.2052624148776
 40
0.4799999999999022
 50
22.3507569419133
 51
180.0
 73
     1
 72
     1
 10
767.7052498495852
 20
-103.2052624148776
 11
767.7052498495852
 21
-105.9252624148776
 72
     1
 10
767.7052498495852
 20
-105.9252624148776
 11
768.1852498495854
 21
-105.9252624148776
 72
     1
 10
768.1852498495854
 20
-105.9252624148776
 11
768.1852498495854
 21
-103.2052624148776
 72
     1
 10
768.1852498495854
 20
-103.2052624148776
 11
769.1813107114843
 21
-105.6277947179424
 72
     2
 10
769.6252498495854
 20
-105.4452624148776
 40
0.4800000000000746
 50
202.350756941892
 51
360.0
 73
     1
 72
     1
 10
770.1052498495853
 20
-105.4452624148776
 11
770.1052498495853
 21
-102.7252624148776
 72
     1
 10
770.1052498495853
 20
-102.7252624148776
 11
769.6252498495854
 21
-102.7252624148776
 72
     1
 10
769.6252498495854
 20
-102.7252624148776
 11
769.6252498495854
 21
-105.4452624148776
 72
     1
 10
769.6252498495854
 20
-105.4452624148776
 11
768.6291889876862
 21
-103.0227301118127
 97
       10
330
C5
330
8C
330
8D
330
8E
330
8F
330
C4
330
89
330
8A
330
8B
330
90
 75
     1
 76
     0
 52
44.99999999999998
 41
0.2
 77
     0
 78
     1
 53
44.99999999999998
 43
0.0
 44
0.0
 45
-0.1414213562373094
 46
0.1414213562373096
 79
     0
 98
        1
 10
0.0
 20
0.0
  0
HATCH
  5
EB
330
47
100
AcDbEntity
  8
0
  6
Continuous
 62
     2
100
AcDbHatch
 10
0.0
 20
0.0
 30
0.0
210
0.0
220
0.0
230
1.0
  2
_USER
 70
     0
 71
     1
 91
        1
 92
        1
 93
       12
 72
     2
 10
762.3212498495852
 20
-103.6452624148776
 40
0.9200000000000017
 50
90.0
 51
270.0
 73
     1
 72
     1
 10
762.3212498495852
 20
-104.5652624148776
 11
762.8812498495853
 21
-104.5652624148776
 72
     2
 10
762.8812498495853
 20
-105.0052624148775
 40
0.4400000000000972
 50
270.0
 51
450.0
 73
     0
 72
     1
 10
762.8812498495853
 20
-105.4452624148776
 11
761.4012498495853
 21
-105.4452624148776
 72
     1
 10
761.4012498495853
 20
-105.4452624148776
 11
761.4012498495853
 21
-105.9252624148776
 72
     1
 10
761.4012498495853
 20
-105.9252624148776
 11
762.8812498495853
 21
-105.9252624148776
 72
     2
 10
762.8812498495853
 20
-105.0052624148775
 40
0.920000000000087
 50
270.0
 51
450.0
 73
     1
 72
     1
 10
762.8812498495853
 20
-104.0852624148776
 11
762.3212498495852
 21
-104.0852624148776
 72
     2
 10
762.3212498495852
 20
-103.6452624148776
 40
0.4400000000000119
 50
90.0
 51
270.0
 73
     0
 72
     1
 10
762.3212498495852
 20
-103.2052624148776
 11
763.6412498495853
 21
-103.2052624148776
 72
     1
 10
763.6412498495853
 20
-103.2052624148776
 11
763.6412498495853
 21
-102.7252624148776
 72
     1
 10
763.6412498495853
 20
-102.7252624148776
 11
762.3212498495852
 21
-102.7252624148776
 97
       12
330
C9
330
96
330
C8
330
95
330
94
330
93
330
C7
330
92
330
C6
330
91
330
98
330
97
 75
     1
 76
     0
 52
44.99999999999998
 41
0.2
 77
     0
 78
     1
 53
44.99999999999998
 43
0.0
 44
0.0
 45
-0.1414213562373094
 46
0.1414213562373096
 79
     0
 98
        1
 10
0.0
 20
0.0
  0
HATCH
  5
EC
330
47
100
AcDbEntity
  8
0
  6
Continuous
 62
     2
100
AcDbHatch
 10
0.0
 20
0.0
 30
0.0
210
0.0
220
0.0
230
1.0
  2
_USER
 70
     0
 71
     1
 91
        2
 92
        1
 93
        8
 72
     2
 10
765.7532498495852
 20
-103.9252624148776
 40
1.199999999999932
 50
0.0
 51
180.0
 73
     1
 72
     1
 10
764.5532498495852
 20
-103.9252624148776
 11
764.5532498495852
 21
-105.9252624148776
 72
     1
 10
764.5532498495852
 20
-105.9252624148776
 11
765.0332498495851
 21
-105.9252624148776
 72
     1
 10
765.0332498495851
 20
-105.9252624148776
 11
765.0332498495851
 21
-105.2852624148775
 72
     1
 10
765.0332498495851
 20
-105.2852624148775
 11
766.4732498495854
 21
-105.2852624148775
 72
     1
 10
766.4732498495854
 20
-105.2852624148775
 11
766.4732498495854
 21
-105.9252624148776
 72
     1
 10
766.4732498495854
 20
-105.9252624148776
 11
766.9532498495852
 21
-105.9252624148776
 72
     1
 10
766.9532498495852
 20
-105.9252624148776
 11
766.9532498495852
 21
-103.9252624148776
 97
        8
330
CA
330
9E
330
9D
330
A2
330
9A
330
99
330
A0
330
9F
 92
       16
 93
        4
 72
     2
 10
765.7532498495852
 20
-103.9252624148776
 40
0.720000000000141
 50
0.0
 51
180.0
 73
     1
 72
     1
 10
765.0332498495851
 20
-103.9252624148776
 11
765.0332498495851
 21
-104.8052624148776
 72
     1
 10
765.0332498495851
 20
-104.8052624148776
 11
766.4732498495854
 21
-104.8052624148776
 72
     1
 10
766.4732498495854
 20
-104.8052624148776
 11
766.4732498495854
 21
-103.9252624148776
 97
        4
330
CB
330
9B
330
9C
330
A1
 75
     1
 76
     0
 52
44.99999999999998
 41
0.2
 77
     0
 78
     1
 53
44.99999999999998
 43
0.0
 44
0.0
 45
-0.1414213562373094
 46
0.1414213562373096
 79
     0
 98
        1
 10
0.0
 20
0.0
  0
HATCH
  5
ED
330
47
100
AcDbEntity
  8
0
  6
Continuous
 62
     2
100
AcDbHatch
 10
0.0
 20
0.0
 30
0.0
210
0.0
220
0.0
230
1.0
  2
_USER
 70
     0
 71
     1
 91
        1
 92
        1
 93
        4
 72
     1
 10
772.4572498495851
 20
-104.0452624148776
 11
770.8572498495854
 21
-104.0452624148776
 72
     1
 10
770.8572498495854
 20
-104.0452624148776
 11
770.8572498495854
 21
-104.6052624148775
 72
     1
 10
770.8572498495854
 20
-104.6052624148775
 11
772.4572498495851
 21
-104.6052624148775
 72
     1
 10
772.4572498495851
 20
-104.6052624148775
 11
772.4572498495851
 21
-104.0452624148776
 97
        4
330
A4
330
A3
330
A6
330
A5
 75
     1
 76
     0
 52
44.99999999999998
 41
0.2
 77
     0
 78
     1
 53
44.99999999999998
 43
0.0
 44
0.0
 45
-0.1414213562373094
 46
0.1414213562373096
 79
     0
 98
        1
 10
0.0
 20
0.0
  0
HATCH
  5
EE
330
47
100
AcDbEntity
  8
0
  6
Continuous
 62
     2
100
AcDbHatch
 10
0.0
 20
0.0
 30
0.0
210
0.0
220
0.0
230
1.0
  2
_USER
 70
     0
 71
     1
 91
        1
 92
        1
 93
        4
 72
     1
 10
777.0012498495852
 20
-102.7252624148776
 11
776.3612498495851
 21
-102.7252624148776
 72
     1
 10
776.3612498495851
 20
-102.7252624148776
 11
776.3612498495851
 21
-105.9252624148776
 72
     1
 10
776.3612498495851
 20
-105.9252624148776
 11
777.0012498495852
 21
-105.9252624148776
 72
     1
 10
777.0012498495852
 20
-105.9252624148776
 11
777.0012498495852
 21
-102.7252624148776
 97
        4
330
B4
330
B3
330
B6
330
B5
 75
     1
 76
     0
 52
44.99999999999998
 41
0.2
 77
     0
 78
     1
 53
44.99999999999998
 43
0.0
 44
0.0
 45
-0.1414213562373094
 46
0.1414213562373096
 79
     0
 98
        1
 10
0.0
 20
0.0
  0
ENDBLK
  5
49
330
47
100
AcDbEntity
  8
0
100
AcDbBlockEnd
  0
BLOCK
  5
4C
330
4A
100
AcDbEntity
  8
0
100
AcDbBlockBegin
  2
開示縦HP-A4
 70
     0
 10
1696.423105502663
 20
-693.9415711065027
 30
0.0
  3
開示縦HP-A4
  1

  0
INSERT
  5
4B
330
4A
100
AcDbEntity
  8
1
100
AcDbBlockReference
  2
組図HP-A4
 10
1899.899699045201
 20
-601.756916728623
 30
0.0
 41
10.0
 42
10.0
 43
10.0
  0
ENDBLK
  5
4D
330
4A
100
AcDbEntity
  8
0
100
AcDbBlockEnd
  0
BLOCK
  5
16C
330
165
100
AcDbEntity
  8
0
100
AcDbBlockBegin
  2
*D3
 70
     1
 10
0.0
 20
0.0
 30
0.0
  3
*D3
  1

  0
LINE
  5
166
330
165
100
AcDbEntity
  8
1
  6
Continuous
 62
     2
100
AcDbLine
 10
895.8993040462501
 20
786.7107002602365
 30
0.0
 11
895.8993040462501
 21
886.7107002602361
 31
0.0
  0
LINE
  5
167
330
165
100
AcDbEntity
  8
1
  6
Continuous
 62
     2
100
AcDbLine
 10
991.4859915814891
 20
786.7107002602365
 30
0.0
 11
875.8993040462501
 21
786.7107002602365
 31
0.0
  0
LINE
  5
168
330
165
100
AcDbEntity
  8
1
  6
Continuous
 62
     2
100
AcDbLine
 10
1110.485991581489
 20
886.7107002602361
 30
0.0
 11
875.8993040462501
 21
886.7107002602361
 31
0.0
  0
SOLID
  5
169
330
165
100
AcDbEntity
  8
1
 62
     2
100
AcDbTrace
 10
900.5071414618089
 20
851.7107002602361
 30
0.0
 11
891.2914666306913
 21
851.7107002602361
 31
0.0
 12
895.8993040462501
 22
886.7107002602361
 32
0.0
 13
895.8993040462501
 23
886.7107002602361
 33
0.0
  0
SOLID
  5
16A
330
165
100
AcDbEntity
  8
1
 62
     2
100
AcDbTrace
 10
891.2914666306913
 20
821.7107002602365
 30
0.0
 11
900.5071414618089
 21
821.7107002602365
 31
0.0
 12
895.8993040462501
 22
786.7107002602365
 32
0.0
 13
895.8993040462501
 23
786.7107002602365
 33
0.0
  0
MTEXT
  5
16B
330
165
100
AcDbEntity
  8
1
 62
     7
100
AcDbMText
 10
875.8993040462501
 20
796.6765880145812
 30
0.0
 40
30.0
 41
0.0
 71
     7
 72
     1
  1
100
  7
CONVERTER_12
 11
0.0
 21
1.0
 31
0.0
 73
     1
 44
0.60024009603842
  0
ENDBLK
  5
16D
330
165
100
AcDbEntity
  8
0
100
AcDbBlockEnd
  0
BLOCK
  5
177
330
170
100
AcDbEntity
  8
0
100
AcDbBlockBegin
  2
*D4
 70
     1
 10
0.0
 20
0.0
 30
0.0
  3
*D4
  1

  0
LINE
  5
171
330
170
100
AcDbEntity
  8
1
  6
Continuous
 62
     2
100
AcDbLine
 10
446.6352496736922
 20
186.710700260236
 30
0.0
 11
446.6352496736922
 21
886.7107002602359
 31
0.0
  0
LINE
  5
172
330
170
100
AcDbEntity
  8
1
  6
Continuous
 62
     2
100
AcDbLine
 10
499.4859915814891
 20
886.7107002602359
 30
0.0
 11
426.6352496736922
 21
886.7107002602359
 31
0.0
  0
LINE
  5
173
330
170
100
AcDbEntity
  8
1
  6
Continuous
 62
     2
100
AcDbLine
 10
320.9859915814891
 20
186.710700260236
 30
0.0
 11
466.6352496736922
 21
186.710700260236
 31
0.0
  0
SOLID
  5
174
330
170
100
AcDbEntity
  8
1
 62
     2
100
AcDbTrace
 10
451.243087089251
 20
851.7107002602359
 30
0.0
 11
442.0274122581334
 21
851.7107002602359
 31
0.0
 12
446.6352496736922
 22
886.7107002602359
 32
0.0
 13
446.6352496736922
 23
886.7107002602359
 33
0.0
  0
SOLID
  5
175
330
170
100
AcDbEntity
  8
1
 62
     2
100
AcDbTrace
 10
442.0274122581334
 20
221.710700260236
 30
0.0
 11
451.243087089251
 21
221.710700260236
 31
0.0
 12
446.6352496736922
 22
186.710700260236
 32
0.0
 13
446.6352496736922
 23
186.710700260236
 33
0.0
  0
MTEXT
  5
176
330
170
100
AcDbEntity
  8
1
 62
     7
100
AcDbMText
 10
426.6352496736922
 20
491.8353010455987
 30
0.0
 40
30.0
 41
0.0
 71
     7
 72
     1
  1
700
  7
CONVERTER_12
 11
0.0
 21
1.0
 31
0.0
 73
     1
 44
0.60024009603842
  0
ENDBLK
  5
178
330
170
100
AcDbEntity
  8
0
100
AcDbBlockEnd
  0
BLOCK
  5
182
330
17B
100
AcDbEntity
  8
0
100
AcDbBlockBegin
  2
*D5
 70
     1
 10
0.0
 20
0.0
 30
0.0
  3
*D5
  1

  0
LINE
  5
17C
330
17B
100
AcDbEntity
  8
1
  6
Continuous
 62
     2
100
AcDbLine
 10
1010.485991581489
 20
1085.735253412887
 30
0.0
 11
1710.485991581489
 21
1085.735253412887
 31
0.0
  0
LINE
  5
17D
330
17B
100
AcDbEntity
  8
1
  6
Continuous
 62
     2
100
AcDbLine
 10
1010.485991581489
 20
786.7107002602364
 30
0.0
 11
1010.485991581489
 21
1105.735253412887
 31
0.0
  0
LINE
  5
17E
330
17B
100
AcDbEntity
  8
1
  6
Continuous
 62
     2
100
AcDbLine
 10
1710.485991581489
 20
923.7107002602361
 30
0.0
 11
1710.485991581489
 21
1105.735253412887
 31
0.0
  0
SOLID
  5
17F
330
17B
100
AcDbEntity
  8
1
 62
     2
100
AcDbTrace
 10
1045.485991581489
 20
1090.343090828446
 30
0.0
 11
1045.485991581489
 21
1081.127415997328
 31
0.0
 12
1010.485991581489
 22
1085.735253412887
 32
0.0
 13
1010.485991581489
 23
1085.735253412887
 33
0.0
  0
SOLID
  5
180
330
17B
100
AcDbEntity
  8
1
 62
     2
100
AcDbTrace
 10
1675.485991581489
 20
1081.127415997328
 30
0.0
 11
1675.485991581489
 21
1090.343090828446
 31
0.0
 12
1710.485991581489
 22
1085.735253412887
 32
0.0
 13
1710.485991581489
 23
1085.735253412887
 33
0.0
  0
MTEXT
  5
181
330
17B
100
AcDbEntity
  8
1
 62
     7
100
AcDbMText
 10
1305.283602556873
 20
1105.735253412887
 30
0.0
 40
30.0
 41
0.0
 71
     7
 72
     1
  1
700
  7
CONVERTER_12
 11
0.9999999999970619
 21
2.424068405545306E-6
 31
0.0
 73
     1
 44
0.60024009603842
  0
ENDBLK
  5
183
330
17B
100
AcDbEntity
  8
0
100
AcDbBlockEnd
  0
BLOCK
  5
18D
330
186
100
AcDbEntity
  8
0
100
AcDbBlockBegin
  2
*D6
 70
     1
 10
0.0
 20
0.0
 30
0.0
  3
*D6
  1

  0
LINE
  5
187
330
186
100
AcDbEntity
  8
1
  6
Continuous
 62
     2
100
AcDbLine
 10
1260.48599158149
 20
1007.960935875081
 30
0.0
 11
1710.48599158149
 21
1007.960935875081
 31
0.0
  0
LINE
  5
188
330
186
100
AcDbEntity
  8
1
  6
Continuous
 62
     2
100
AcDbLine
 10
1260.48599158149
 20
922.4730149925756
 30
0.0
 11
1260.48599158149
 21
1027.960935875081
 31
0.0
  0
LINE
  5
189
330
186
100
AcDbEntity
  8
1
  6
Continuous
 62
     2
100
AcDbLine
 10
1710.48599158149
 20
923.7107002602361
 30
0.0
 11
1710.48599158149
 21
1027.960935875081
 31
0.0
  0
SOLID
  5
18A
330
186
100
AcDbEntity
  8
1
 62
     2
100
AcDbTrace
 10
1295.48599158149
 20
1012.56877329064
 30
0.0
 11
1295.48599158149
 21
1003.353098459522
 31
0.0
 12
1260.48599158149
 22
1007.960935875081
 32
0.0
 13
1260.48599158149
 23
1007.960935875081
 33
0.0
  0
SOLID
  5
18B
330
186
100
AcDbEntity
  8
1
 62
     2
100
AcDbTrace
 10
1675.48599158149
 20
1003.353098459522
 30
0.0
 11
1675.48599158149
 21
1012.56877329064
 31
0.0
 12
1710.48599158149
 22
1007.960935875081
 32
0.0
 13
1710.48599158149
 23
1007.960935875081
 33
0.0
  0
MTEXT
  5
18C
330
186
100
AcDbEntity
  8
1
 62
     7
100
AcDbMText
 10
1452.003371455573
 20
1027.960935875081
 30
0.0
 40
30.0
 41
0.0
 71
     7
 72
     1
  1
450
  7
CONVERTER_12
 11
0.9999999999970619
 21
2.424068405545306E-6
 31
0.0
 73
     1
 44
0.60024009603842
  0
ENDBLK
  5
18E
330
186
100
AcDbEntity
  8
0
100
AcDbBlockEnd
  0
BLOCK
  5
195
330
191
100
AcDbEntity
  8
0
100
AcDbBlockBegin
  2
*D7
 70
     1
 10
0.0
 20
0.0
 30
0.0
  3
*D7
  1

  0
LINE
  5
192
330
191
100
AcDbEntity
  8
0
  6
Continuous
 62
     2
100
AcDbLine
 10
1110.485991581489
 20
786.7107002602364
 30
0.0
 11
1045.635159253747
 21
862.8314566043446
 31
0.0
  0
SOLID
  5
193
330
191
100
AcDbEntity
  8
0
 62
     2
100
AcDbTrace
 10
1071.840471260286
 20
839.177412800205
 30
0.0
 11
1064.825429876626
 21
833.2009709676072
 31
0.0
 12
1045.635159253747
 22
862.8314566043446
 32
0.0
 13
1045.635159253747
 23
862.8314566043446
 33
0.0
  0
MTEXT
  5
194
330
191
100
AcDbEntity
  8
0
 62
     7
100
AcDbMText
 10
1089.469321153084
 20
842.2197002165116
 30
0.0
 40
30.0
 41
0.0
 71
     7
 72
     1
  1
R
  7
CONVERTER_12
 11
0.6485083232774229
 21
-0.76120756344108
 31
0.0
 73
     1
 44
0.60024009603842
  0
ENDBLK
  5
196
330
191
100
AcDbEntity
  8
0
100
AcDbBlockEnd
  0
ENDSEC
  0
SECTION
  2
ENTITIES
  0
INSERT
  5
4E
330
1F
100
AcDbEntity
  8
0
100
AcDbBlockReference
  2
開示縦HP-A4
 10
1696.423105502663
 20
-693.9415711065026
 30
0.0
 41
1.0
 42
1.0
 43
1.0
  0
LINE
  5
EF
330
1F
100
AcDbEntity
  8
1
  6
Continuous
 62
     2
100
AcDbLine
 10
1424.846325126299
 20
-585.9115397642593
 30
0.0
 11
1424.846325126299
 21
-585.9115397642627
 31
0.0
  0
LINE
  5
F0
330
1F
100
AcDbEntity
  8
1
  6
DASH_CENTER
 62
     2
100
AcDbLine
 10
499.4859915814891
 20
1448.000000000001
 30
0.0
 11
633.4859915814891
 21
1448.000000000001
 31
0.0
  0
LINE
  5
F1
330
1F
100
AcDbEntity
  8
1
  6
Continuous
 62
     7
100
AcDbLine
 10
603.4859915814891
 20
1894.000000000001
 30
0.0
 11
603.4859915814891
 21
1898.000000000001
 31
0.0
  0
LINE
  5
F2
330
1F
100
AcDbEntity
  8
1
  6
Continuous
 62
     7
100
AcDbLine
 10
566.4859915814891
 20
1898.000000000001
 30
0.0
 11
603.4859915814891
 21
1898.000000000001
 31
0.0
  0
LINE
  5
F3
330
1F
100
AcDbEntity
  8
1
  6
Continuous
 62
     7
100
AcDbLine
 10
585.4859915814891
 20
1890.000000000001
 30
0.0
 11
599.4859915814891
 21
1890.000000000001
 31
0.0
  0
LINE
  5
F4
330
1F
100
AcDbEntity
  8
1
  6
Continuous
 62
     7
100
AcDbLine
 10
529.4859915814891
 20
1898.000000000001
 30
0.0
 11
529.4859915814891
 21
1894.000000000001
 31
0.0
  0
LINE
  5
F5
330
1F
100
AcDbEntity
  8
1
  6
Continuous
 62
     7
100
AcDbLine
 10
547.4859915814891
 20
1890.000000000001
 30
0.0
 11
533.4859915814891
 21
1890.000000000001
 31
0.0
  0
LINE
  5
F6
330
1F
100
AcDbEntity
  8
1
  6
Continuous
 62
     7
100
AcDbLine
 10
529.4859915814891
 20
1898.000000000001
 30
0.0
 11
566.4859915814891
 21
1898.000000000001
 31
0.0
  0
LINE
  5
F7
330
1F
100
AcDbEntity
  8
1
  6
Continuous
 62
     7
100
AcDbLine
 10
547.4859915814891
 20
1890.000000000001
 30
0.0
 11
566.4859915814891
 21
1890.000000000001
 31
0.0
  0
LINE
  5
F8
330
1F
100
AcDbEntity
  8
1
  6
Continuous
 62
     7
100
AcDbLine
 10
566.4859915814891
 20
1890.000000000001
 30
0.0
 11
585.4859915814891
 21
1890.000000000001
 31
0.0
  0
LINE
  5
F9
330
1F
100
AcDbEntity
  8
1
  6
CENTER_DASH_DASH
 62
     2
100
AcDbLine
 10
963.4547689595261
 20
186.7107002602361
 30
0.0
 11
1710.485991581489
 21
186.7107002602361
 31
0.0
  0
LINE
  5
FA
330
1F
100
AcDbEntity
  8
1
  6
Continuous
 62
     7
100
AcDbLine
 10
547.4859915814891
 20
786.7107002602364
 30
0.0
 11
547.4859915814891
 21
886.7107002602354
 31
0.0
  0
LINE
  5
FB
330
1F
100
AcDbEntity
  8
1
  6
Continuous
 62
     7
100
AcDbLine
 10
585.4859915814891
 20
786.7107002602364
 30
0.0
 11
585.4859915814891
 21
194.7107002602361
 31
0.0
  0
LINE
  5
FC
330
1F
100
AcDbEntity
  8
1
  6
Continuous
 62
     7
100
AcDbLine
 10
547.4859915814891
 20
786.7107002602364
 30
0.0
 11
585.4859915814891
 21
786.7107002602364
 31
0.0
  0
LINE
  5
FD
330
1F
100
AcDbEntity
  8
1
  6
DASH_CENTER
 62
     2
100
AcDbLine
 10
603.4859915814891
 20
886.7107002602359
 30
0.0
 11
633.4859915814891
 21
886.7107002602359
 31
0.0
  0
LINE
  5
FE
330
1F
100
AcDbEntity
  8
1
  6
Continuous
 62
     7
100
AcDbLine
 10
991.4859915814891
 20
786.7107002602365
 30
0.0
 11
1029.485991581489
 21
786.7107002602363
 31
0.0
  0
LINE
  5
FF
330
1F
100
AcDbEntity
  8
1
  6
DASH_CENTER
 62
     2
100
AcDbLine
 10
1010.485991581489
 20
786.7107002602364
 30
0.0
 11
1010.48599158149
 21
756.7107002602365
 31
0.0
  0
LINE
  5
100
330
1F
100
AcDbEntity
  8
1
  6
DASH_CENTER
 62
     2
100
AcDbLine
 10
1110.485991581489
 20
886.7107002602361
 30
0.0
 11
1740.485991581489
 21
886.7107002602361
 31
0.0
  0
LINE
  5
101
330
1F
100
AcDbEntity
  8
1
  6
Continuous
 62
     7
100
AcDbLine
 10
1710.485991581489
 20
923.7107002602361
 30
0.0
 11
1706.485991581489
 21
923.7107002602361
 31
0.0
  0
LINE
  5
102
330
1F
100
AcDbEntity
  8
1
  6
Continuous
 62
     7
100
AcDbLine
 10
1702.485991581489
 20
905.7107002602361
 30
0.0
 11
1702.485991581489
 21
919.7107002602361
 31
0.0
  0
LINE
  5
103
330
1F
100
AcDbEntity
  8
1
  6
Continuous
 62
     7
100
AcDbLine
 10
1710.485991581489
 20
923.7107002602361
 30
0.0
 11
1710.485991581489
 21
886.7107002602361
 31
0.0
  0
LINE
  5
104
330
1F
100
AcDbEntity
  8
1
  6
Continuous
 62
     7
100
AcDbLine
 10
1702.485991581489
 20
905.7107002602361
 30
0.0
 11
1702.485991581489
 21
886.7107002602361
 31
0.0
  0
LINE
  5
105
330
1F
100
AcDbEntity
  8
1
  6
Continuous
 62
     7
100
AcDbLine
 10
1706.485991581489
 20
849.7107002602361
 30
0.0
 11
1710.485991581489
 21
849.7107002602361
 31
0.0
  0
LINE
  5
106
330
1F
100
AcDbEntity
  8
1
  6
Continuous
 62
     7
100
AcDbLine
 10
1702.485991581489
 20
853.7107002602361
 30
0.0
 11
1702.485991581489
 21
867.7107002602361
 31
0.0
  0
LINE
  5
107
330
1F
100
AcDbEntity
  8
1
  6
Continuous
 62
     7
100
AcDbLine
 10
1710.485991581489
 20
886.7107002602361
 30
0.0
 11
1710.485991581489
 21
849.7107002602361
 31
0.0
  0
LINE
  5
108
330
1F
100
AcDbEntity
  8
1
  6
Continuous
 62
     7
100
AcDbLine
 10
1702.485991581489
 20
886.7107002602361
 30
0.0
 11
1702.485991581489
 21
867.7107002602361
 31
0.0
  0
LINE
  5
109
330
1F
100
AcDbEntity
  8
1
  6
Continuous
 62
     7
100
AcDbLine
 10
585.4859915814891
 20
1198.000000000001
 30
0.0
 11
585.4859915814891
 21
1890.000000000001
 31
0.0
  0
LINE
  5
10A
330
1F
100
AcDbEntity
  8
1
  6
Continuous
 62
     7
100
AcDbLine
 10
547.4859915814882
 20
1198.000000000001
 30
0.0
 11
547.4859915814891
 21
1890.000000000001
 31
0.0
  0
LINE
  5
10B
330
1F
100
AcDbEntity
  8
1
  6
DASH_CENTER
 62
     2
100
AcDbLine
 10
499.4859915814891
 20
886.7107002602359
 30
0.0
 11
603.4859915814891
 21
886.7107002602359
 31
0.0
  0
LINE
  5
10C
330
1F
100
AcDbEntity
  8
1
  6
Continuous
 62
     7
100
AcDbLine
 10
547.4859915814891
 20
194.7107002602361
 30
0.0
 11
547.4859915814891
 21
786.7107002602364
 31
0.0
  0
LINE
  5
10D
330
1F
100
AcDbEntity
  8
0
  6
Continuous
 62
     7
100
AcDbLine
 10
1279.48599158149
 20
867.7107002602363
 30
0.0
 11
1702.485991581489
 21
867.7107002602361
 31
0.0
  0
LINE
  5
10E
330
1F
100
AcDbEntity
  8
0
  6
Continuous
 62
     7
100
AcDbLine
 10
1110.485991581489
 20
905.7107002602361
 30
0.0
 11
1702.485991581489
 21
905.7107002602361
 31
0.0
  0
LINE
  5
10F
330
1F
100
AcDbEntity
  8
1
  6
CENTER_DASH_DASH
 62
     2
100
AcDbLine
 10
320.9859915814891
 20
186.7107002602361
 30
0.0
 11
795.9263911586313
 21
186.7107002602361
 31
0.0
  0
LINE
  5
110
330
1F
100
AcDbEntity
  8
1
  6
CENTER_DASH_DASH
 62
     2
100
AcDbLine
 10
1710.485991581489
 20
186.7107002602361
 30
0.0
 11
1710.485991581489
 21
1202.270558767948
 31
0.0
  0
LINE
  5
111
330
1F
100
AcDbEntity
  8
1
  6
Continuous
 62
     7
100
AcDbLine
 10
1297.485991581489
 20
186.7107002602361
 30
0.0
 11
1297.485991581489
 21
190.7107002602361
 31
0.0
  0
LINE
  5
112
330
1F
100
AcDbEntity
  8
1
  6
Continuous
 62
     7
100
AcDbLine
 10
1279.48599158149
 20
194.7107002602361
 30
0.0
 11
1293.485991581489
 21
194.7107002602361
 31
0.0
  0
LINE
  5
113
330
1F
100
AcDbEntity
  8
1
  6
Continuous
 62
     7
100
AcDbLine
 10
1297.485991581489
 20
186.7107002602361
 30
0.0
 11
1260.485991581489
 21
186.7107002602358
 31
0.0
  0
LINE
  5
114
330
1F
100
AcDbEntity
  8
1
  6
Continuous
 62
     7
100
AcDbLine
 10
1279.48599158149
 20
194.7107002602361
 30
0.0
 11
1260.485991581489
 21
194.7107002602361
 31
0.0
  0
LINE
  5
115
330
1F
100
AcDbEntity
  8
1
  6
Continuous
 62
     7
100
AcDbLine
 10
1223.48599158149
 20
190.7107002602361
 30
0.0
 11
1223.48599158149
 21
186.7107002602361
 31
0.0
  0
LINE
  5
116
330
1F
100
AcDbEntity
  8
1
  6
Continuous
 62
     7
100
AcDbLine
 10
1227.48599158149
 20
194.7107002602361
 30
0.0
 11
1241.48599158149
 21
194.7107002602361
 31
0.0
  0
LINE
  5
117
330
1F
100
AcDbEntity
  8
1
  6
Continuous
 62
     7
100
AcDbLine
 10
1260.485991581489
 20
186.7107002602358
 30
0.0
 11
1223.48599158149
 21
186.7107002602361
 31
0.0
  0
LINE
  5
118
330
1F
100
AcDbEntity
  8
1
  6
Continuous
 62
     7
100
AcDbLine
 10
1260.485991581489
 20
194.7107002602361
 30
0.0
 11
1241.48599158149
 21
194.7107002602361
 31
0.0
  0
LINE
  5
119
330
1F
100
AcDbEntity
  8
1
  6
DASH_CENTER
 62
     2
100
AcDbLine
 10
1260.485991581489
 20
922.4730149925756
 30
0.0
 11
1260.485991581489
 21
156.7107002602359
 31
0.0
  0
LINE
  5
11A
330
1F
100
AcDbEntity
  8
1
  6
Continuous
 62
     7
100
AcDbLine
 10
1279.48599158149
 20
867.7107002602363
 30
0.0
 11
1279.48599158149
 21
194.7107002602361
 31
0.0
  0
LINE
  5
11B
330
1F
100
AcDbEntity
  8
1
  6
Continuous
 62
     7
100
AcDbLine
 10
1241.48599158149
 20
194.7107002602361
 30
0.0
 11
1241.485991581489
 21
867.7107002602363
 31
0.0
  0
LINE
  5
11C
330
1F
100
AcDbEntity
  8
0
  6
Continuous
 62
     7
100
AcDbLine
 10
1110.485991581489
 20
867.7107002602361
 30
0.0
 11
1241.485991581489
 21
867.7107002602363
 31
0.0
  0
LINE
  5
11D
330
1F
100
AcDbEntity
  8
0
  6
DASH_CENTER
 62
     2
100
AcDbLine
 10
517.4859915814882
 20
1198.000000000001
 30
0.0
 11
615.4859915814891
 21
1198.000000000001
 31
0.0
  0
LINE
  5
11E
330
1F
100
AcDbEntity
  8
1
  6
DASH_CENTER
 62
     2
100
AcDbLine
 10
566.4859915814891
 20
1923.842226409345
 30
0.0
 11
566.4859915814891
 21
1149.0
 31
0.0
  0
LINE
  5
11F
330
1F
100
AcDbEntity
  8
1
  6
Continuous
 62
     7
100
AcDbLine
 10
603.4859915814891
 20
186.7107002602361
 30
0.0
 11
603.4859915814891
 21
190.7107002602361
 31
0.0
  0
LINE
  5
120
330
1F
100
AcDbEntity
  8
1
  6
Continuous
 62
     7
100
AcDbLine
 10
603.4859915814891
 20
186.7107002602361
 30
0.0
 11
566.4859915814891
 21
186.710700260236
 31
0.0
  0
LINE
  5
121
330
1F
100
AcDbEntity
  8
1
  6
Continuous
 62
     7
100
AcDbLine
 10
599.4859915814891
 20
194.7107002602361
 30
0.0
 11
585.4859915814891
 21
194.7107002602361
 31
0.0
  0
LINE
  5
122
330
1F
100
AcDbEntity
  8
1
  6
Continuous
 62
     7
100
AcDbLine
 10
529.4859915814891
 20
190.7107002602361
 30
0.0
 11
529.4859915814891
 21
186.7107002602361
 31
0.0
  0
LINE
  5
123
330
1F
100
AcDbEntity
  8
1
  6
Continuous
 62
     7
100
AcDbLine
 10
533.4859915814891
 20
194.7107002602361
 30
0.0
 11
547.4859915814891
 21
194.7107002602361
 31
0.0
  0
LINE
  5
124
330
1F
100
AcDbEntity
  8
1
  6
Continuous
 62
     7
100
AcDbLine
 10
566.4859915814891
 20
186.710700260236
 30
0.0
 11
529.4859915814891
 21
186.7107002602361
 31
0.0
  0
LINE
  5
125
330
1F
100
AcDbEntity
  8
1
  6
Continuous
 62
     7
100
AcDbLine
 10
566.4859915814891
 20
194.7107002602361
 30
0.0
 11
547.4859915814891
 21
194.7107002602361
 31
0.0
  0
LINE
  5
126
330
1F
100
AcDbEntity
  8
1
  6
DASH_CENTER
 62
     2
100
AcDbLine
 10
566.4859915814891
 20
905.7107002602359
 30
0.0
 11
566.4859915814891
 21
156.710700260236
 31
0.0
  0
LINE
  5
127
330
1F
100
AcDbEntity
  8
1
  6
Continuous
 62
     7
100
AcDbLine
 10
585.4859915814891
 20
194.7107002602361
 30
0.0
 11
566.4859915814891
 21
194.7107002602361
 31
0.0
  0
LINE
  5
128
330
1F
100
AcDbEntity
  8
1
  6
Continuous
 62
     7
100
AcDbLine
 10
585.4859915814891
 20
867.7107002602363
 30
0.0
 11
585.4859915814891
 21
786.7107002602364
 31
0.0
  0
LINE
  5
129
330
1F
100
AcDbEntity
  8
1
  6
DASH_CENTER
 62
     2
100
AcDbLine
 10
566.4859915814891
 20
953.7107002602361
 30
0.0
 11
566.4859915814891
 21
905.7107002602359
 31
0.0
  0
LINE
  5
12A
330
1F
100
AcDbEntity
  8
1
  6
Continuous
 62
     7
100
AcDbLine
 10
585.4859915814891
 20
886.7107002602359
 30
0.0
 11
585.4859915814891
 21
867.7107002602363
 31
0.0
  0
LINE
  5
12B
330
1F
100
AcDbEntity
  8
1
  6
Continuous
 62
     7
100
AcDbLine
 10
1601.42264320948
 20
-188.8875722126376
 30
0.0
 11
1601.42264320948
 21
-272.2209055459715
 31
0.0
  0
LINE
  5
12C
330
1F
100
AcDbEntity
  8
1
  6
Continuous
 62
     7
100
AcDbLine
 10
1601.42264320948
 20
-105.5542388793054
 30
0.0
 11
1601.42264320948
 21
-188.8875722126376
 31
0.0
  0
LINE
  5
12D
330
1F
100
AcDbEntity
  8
1
  6
Continuous
 62
     7
100
AcDbLine
 10
1345.832632907634
 20
-272.2209055459715
 30
0.0
 11
1601.42264320948
 21
-272.2209055459715
 31
0.0
  0
LINE
  5
12E
330
1F
100
AcDbEntity
  8
1
  6
Continuous
 62
     7
100
AcDbLine
 10
1345.832632907634
 20
-22.22090554597151
 30
0.0
 11
1345.832632907634
 21
-272.2209055459715
 31
0.0
  0
LINE
  5
12F
330
1F
100
AcDbEntity
  8
1
  6
Continuous
 62
     7
100
AcDbLine
 10
1345.832632907634
 20
61.11242778736244
 30
0.0
 11
1345.832632907634
 21
-22.22090554597151
 31
0.0
  0
LINE
  5
130
330
1F
100
AcDbEntity
  8
1
  6
Continuous
 62
     2
100
AcDbLine
 10
1345.832632907634
 20
-105.5542388793054
 30
0.0
 11
1601.42264320948
 21
-105.5542388793054
 31
0.0
  0
LINE
  5
131
330
1F
100
AcDbEntity
  8
1
  6
Continuous
 62
     2
100
AcDbLine
 10
1345.832632907634
 20
-188.8875722126376
 30
0.0
 11
1601.42264320948
 21
-188.8875722126376
 31
0.0
  0
LINE
  5
132
330
1F
100
AcDbEntity
  8
1
  6
Continuous
 62
     7
100
AcDbLine
 10
1601.42264320948
 20
-272.2209055459715
 30
0.0
 11
1857.01265351133
 21
-272.2209055459715
 31
0.0
  0
LINE
  5
133
330
1F
100
AcDbEntity
  8
1
  6
Continuous
 62
     7
100
AcDbLine
 10
1857.01265351133
 20
-272.2209055459715
 30
0.0
 11
1857.01265351133
 21
-22.22090554597151
 31
0.0
  0
LINE
  5
134
330
1F
100
AcDbEntity
  8
1
  6
Continuous
 62
     7
100
AcDbLine
 10
1345.832632907634
 20
-22.22090554597151
 30
0.0
 11
1601.42264320948
 21
-22.22090554597151
 31
0.0
  0
LINE
  5
135
330
1F
100
AcDbEntity
  8
1
  6
Continuous
 62
     7
100
AcDbLine
 10
1857.01265351133
 20
-22.22090554597151
 30
0.0
 11
1857.01265351133
 21
61.11242778736244
 31
0.0
  0
LINE
  5
136
330
1F
100
AcDbEntity
  8
1
  6
Continuous
 62
     7
100
AcDbLine
 10
1345.832632907634
 20
61.11242778736244
 30
0.0
 11
1601.42264320948
 21
61.11242778736153
 31
0.0
  0
LINE
  5
137
330
1F
100
AcDbEntity
  8
1
  6
Continuous
 62
     2
100
AcDbLine
 10
1601.42264320948
 20
-105.5542388793054
 30
0.0
 11
1857.01265351133
 21
-105.5542388793054
 31
0.0
  0
LINE
  5
138
330
1F
100
AcDbEntity
  8
1
  6
Continuous
 62
     7
100
AcDbLine
 10
1601.42264320948
 20
-22.22090554597151
 30
0.0
 11
1857.01265351133
 21
-22.22090554597151
 31
0.0
  0
LINE
  5
139
330
1F
100
AcDbEntity
  8
1
  6
Continuous
 62
     7
100
AcDbLine
 10
1601.42264320948
 20
-22.22090554597151
 30
0.0
 11
1601.42264320948
 21
-105.5542388793054
 31
0.0
  0
LINE
  5
13A
330
1F
100
AcDbEntity
  8
1
  6
Continuous
 62
     7
100
AcDbLine
 10
1601.42264320948
 20
61.11242778736153
 30
0.0
 11
1857.01265351133
 21
61.11242778736244
 31
0.0
  0
LINE
  5
13B
330
1F
100
AcDbEntity
  8
1
  6
Continuous
 62
     7
100
AcDbLine
 10
1601.42264320948
 20
61.11242778736153
 30
0.0
 11
1601.42264320948
 21
-22.22090554597151
 31
0.0
  0
LINE
  5
13C
330
1F
100
AcDbEntity
  8
1
  6
PHANTOM
 62
     2
100
AcDbLine
 10
424.4734830876101
 20
1898.000000000001
 30
0.0
 11
703.97348308761
 21
1898.000000000001
 31
0.0
  0
ARC
  5
13D
330
1F
100
AcDbEntity
  8
1
  6
Continuous
 62
     7
100
AcDbCircle
 10
566.4859915814891
 20
1448.000000000001
 30
0.0
 40
36.99999999999913
100
AcDbArc
 50
120.898147825236
 51
239.1018521747647
  0
ARC
  5
13E
330
1F
100
AcDbEntity
  8
1
  6
Continuous
 62
     7
100
AcDbCircle
 10
566.4859915814891
 20
886.7107002602359
 30
0.0
 40
37.0
100
AcDbArc
 50
0.0
 51
239.1018521747648
  0
ARC
  5
13F
330
1F
100
AcDbEntity
  8
1
  6
Continuous
 62
     7
100
AcDbCircle
 10
566.4859915814891
 20
886.7107002602359
 30
0.0
 40
37.00000000000001
100
AcDbArc
 50
300.8981478252352
 51
0.0
  0
ARC
  5
140
330
1F
100
AcDbEntity
  8
0
  6
Continuous
 62
     7
100
AcDbCircle
 10
1260.485991581489
 20
867.7107002602361
 30
0.0
 40
19.00000000000091
100
AcDbArc
 50
0.00000000000069
 51
179.9999999999993
  0
ARC
  5
141
330
1F
100
AcDbEntity
  8
1
  6
Continuous
 62
     7
100
AcDbCircle
 10
566.4859915814891
 20
1448.000000000001
 30
0.0
 40
36.99999999999991
100
AcDbArc
 50
300.8981478252353
 51
59.101852174764
  0
ARC
  5
142
330
1F
100
AcDbEntity
  8
1
  6
Continuous
 62
     7
100
AcDbCircle
 10
566.4859915814882
 20
1198.000000000001
 30
0.0
 40
19.0
100
AcDbArc
 50
180.0
 51
0.0
  0
ARC
  5
143
330
1F
100
AcDbEntity
  8
0
  6
Continuous
 62
     7
100
AcDbCircle
 10
566.4859915814891
 20
886.7107002602359
 30
0.0
 40
19.0
100
AcDbArc
 50
0.0
 51
90.0
  0
ARC
  5
144
330
1F
100
AcDbEntity
  8
0
  6
Continuous
 62
     7
100
AcDbCircle
 10
566.4859915814891
 20
886.7107002602359
 30
0.0
 40
19.0
100
AcDbArc
 50
90.0
 51
180.0000000000014
  0
ARC
  5
148
330
1F
100
AcDbEntity
  8
1
  6
Continuous
 62
     7
100
AcDbCircle
 10
599.4859915814891
 20
1894.000000000001
 30
0.0
 40
4.0
100
AcDbArc
 50
270.0
 51
0.0
  0
ARC
  5
149
330
1F
100
AcDbEntity
  8
1
  6
Continuous
 62
     7
100
AcDbCircle
 10
533.4859915814891
 20
1894.000000000001
 30
0.0
 40
4.0
100
AcDbArc
 50
180.0
 51
270.0
  0
ARC
  5
14A
330
1F
100
AcDbEntity
  8
1
  6
Continuous
 62
     7
100
AcDbCircle
 10
1110.485991581489
 20
786.7107002602364
 30
0.0
 40
80.99999999999966
100
AcDbArc
 50
90.0
 51
180.0000000000001
  0
ARC
  5
14B
330
1F
100
AcDbEntity
  8
1
  6
Continuous
 62
     7
100
AcDbCircle
 10
1110.485991581489
 20
786.7107002602364
 30
0.0
 40
118.9999999999997
100
AcDbArc
 50
90.0
 51
179.9999999999999
  0
ARC
  5
14C
330
1F
100
AcDbEntity
  8
1
  6
DASH_CENTER
 62
     2
100
AcDbCircle
 10
1110.485991581489
 20
786.7107002602364
 30
0.0
 40
99.99999999999966
100
AcDbArc
 50
90.0
 51
180.0
  0
ARC
  5
14D
330
1F
100
AcDbEntity
  8
1
  6
Continuous
 62
     7
100
AcDbCircle
 10
1706.485991581489
 20
919.7107002602361
 30
0.0
 40
4.0
100
AcDbArc
 50
90.0
 51
180.0
  0
ARC
  5
14E
330
1F
100
AcDbEntity
  8
1
  6
Continuous
 62
     7
100
AcDbCircle
 10
1706.485991581489
 20
853.7107002602361
 30
0.0
 40
4.0
100
AcDbArc
 50
180.0
 51
270.0
  0
ARC
  5
14F
330
1F
100
AcDbEntity
  8
1
  6
Continuous
 62
     7
100
AcDbCircle
 10
1293.485991581489
 20
190.7107002602361
 30
0.0
 40
4.0
100
AcDbArc
 50
0.0
 51
90.0
  0
ARC
  5
150
330
1F
100
AcDbEntity
  8
1
  6
Continuous
 62
     7
100
AcDbCircle
 10
1227.48599158149
 20
190.7107002602361
 30
0.0
 40
4.0
100
AcDbArc
 50
90.0
 51
180.0
  0
ARC
  5
151
330
1F
100
AcDbEntity
  8
1
  6
Continuous
 62
     7
100
AcDbCircle
 10
599.4859915814891
 20
190.7107002602361
 30
0.0
 40
4.0
100
AcDbArc
 50
0.0
 51
90.0
  0
ARC
  5
152
330
1F
100
AcDbEntity
  8
1
  6
Continuous
 62
     7
100
AcDbCircle
 10
533.4859915814891
 20
190.7107002602361
 30
0.0
 40
4.0
100
AcDbArc
 50
90.0
 51
180.0
  0
MTEXT
  5
154
330
1F
100
AcDbEntity
  8
1
 62
     7
100
AcDbMText
 10
1098.53751256832
 20
-582.696954340643
 30
0.0
 40
25.0
 41
0.0
 71
     5
 72
     1
  1
04.4
  7
CONVERTER_12
 73
     1
 44
0.7202881152461
  0
MTEXT
  5
155
330
1F
100
AcDbEntity
  8
1
 62
     7
100
AcDbMText
 10
1228.19557128041
 20
-584.882202521184
 30
0.0
 40
25.0
 41
0.0
 71
     5
 72
     1
  1
04.3
  7
CONVERTER_12
 73
     1
 44
0.7202881152461
  0
MTEXT
  5
156
330
1F
100
AcDbEntity
  8
1
 62
     7
100
AcDbMText
 10
1360.76729423322
 20
-584.882202521184
 30
0.0
 40
25.0
 41
0.0
 71
     5
 72
     1
  1
04.3
  7
CONVERTER_12
 73
     1
 44
0.7202881152461
  0
MTEXT
  5
157
330
1F
100
AcDbEntity
  8
1
 62
     7
100
AcDbMText
 10
1489.69693688513
 20
-582.696954340643
 30
0.0
 40
25.0
 41
0.0
 71
     5
 72
     1
  1
04.3
  7
CONVERTER_12
 73
     1
 44
0.7202881152461
  0
MTEXT
  5
158
330
1F
100
AcDbEntity
  8
1
 62
     7
100
AcDbMText
 10
1425.682965581669
 20
-79.66936851023172
 30
0.0
 40
30.0
 41
0.0
 71
     7
 72
     1
  1
{\Fgdt;n} 32
  7
CONVERTER_12
 73
     1
 44
1.32052821128451
  0
TEXT
  5
159
330
1F
100
AcDbEntity
  8
1
 62
     7
100
AcDbText
 10
1414.089133476501
 20
-1.8477954606177
 30
0.0
 40
30.0
  1
パイプ径
 41
0.89
  7
CONVERTER_11
100
AcDbText
  0
MTEXT
  5
15A
330
1F
100
AcDbEntity
  8
1
 62
     7
100
AcDbMText
 10
1425.682965581669
 20
-161.3360351768987
 30
0.0
 40
30.0
 41
0.0
 71
     7
 72
     1
  1
{\Fgdt;n} 34
  7
CONVERTER_12
 73
     1
 44
1.32052821128451
  0
MTEXT
  5
15B
330
1F
100
AcDbEntity
  8
1
 62
     7
100
AcDbMText
 10
1425.682965581669
 20
-243.0027018435648
 30
0.0
 40
30.0
 41
0.0
 71
     7
 72
     1
  1
{\Fgdt;n} 38
  7
CONVERTER_12
 73
     1
 44
1.32052821128451
  0
MTEXT
  5
15C
330
1F
100
AcDbEntity
  8
1
 62
     7
100
AcDbMText
 10
1760.828987503959
 20
-77.33603517689778
 30
0.0
 40
30.0
 41
0.0
 71
     9
 72
     1
  1
R50
  7
CONVERTER_12
 73
     1
 44
1.32052821128451
  0
MTEXT
  5
15D
330
1F
100
AcDbEntity
  8
1
 62
     7
100
AcDbMText
 10
1734.756152942464
 20
-2.51446212728376
 30
0.0
 40
30.0
 41
0.0
 71
     9
 72
     1
  1
R
  7
CONVERTER_12
 73
     1
 44
1.32052821128451
  0
MTEXT
  5
15E
330
1F
100
AcDbEntity
  8
1
 62
     7
100
AcDbMText
 10
1760.828987503959
 20
-203.3360351768978
 30
0.0
 40
30.0
 41
0.0
 71
     9
 72
     1
  1
R70
  7
CONVERTER_12
 73
     1
 44
1.32052821128451
  0
MTEXT
  5
15F
330
1F
100
AcDbEntity
  8
1
 62
     7
100
AcDbMText
 10
399.8996990451997
 20
-525.2084815439583
 30
0.0
 40
35.0
 41
0.0
 71
     5
 72
     1
  1
洋式トイレ手すり
  7
CONVERTER_11
 73
     1
 44
0.63636363636364
  0
MTEXT
  5
160
330
1F
100
AcDbEntity
  8
1
 62
     7
100
AcDbMText
 10
758.5218122897313
 20
-524.8768241292735
 30
0.0
 40
35.0
 41
0.0
 71
     5
 72
     1
  1
W94\P-62-700
  7
CONVERTER_12
 73
     1
 44
0.84033613445378
  0
TEXT
  5
161
330
1F
100
AcDbEntity
  8
1
 62
     7
100
AcDbText
 10
943.7107699492517
 20
-517.7467339595959
 30
0.0
 40
35.0
  1
1
 41
0.9
  7
CONVERTER_12
100
AcDbText
  0
TEXT
  5
162
330
1F
100
AcDbEntity
  8
1
 62
     7
100
AcDbText
 10
958.9096734983104
 20
-587.5467945357349
 30
0.0
 40
35.0
  1
10
 41
0.9
  7
CONVERTER_12
100
AcDbText
  0
MTEXT
  5
163
330
1F
100
AcDbEntity
  8
1
 62
     7
100
AcDbMText
 10
261.0891334765001
 20
-427.8477954606173
 30
0.0
 40
30.0
 41
0.0
 71
     7
 72
     1
  1
表面仕上げ：鏡面又はヘアーライン
  7
CONVERTER_11
 73
     1
 44
1.0
  0
MTEXT
  5
164
330
1F
100
AcDbEntity
  8
1
 62
     7
100
AcDbMText
 10
454.614286131113
 20
-369.2284982933495
 30
0.0
 40
30.0
 41
0.0
 71
     5
 72
     1
  1
パイプ径：32,34,38
  7
CONVERTER_11
 73
     1
 44
0.54545454545455
  0
DIMENSION
  5
16F
330
1F
100
AcDbEntity
  8
1
100
AcDbDimension
  2
*D3
 10
895.8993040462501
 20
886.7107002602361
 30
0.0
 11
860.8993040462501
 21
828.1765880145812
 31
0.0
 70
    32
  1
<>
 71
     5
 42
-1.0
 53
90.0
  3
ME10_DIM_10
100
AcDbAlignedDimension
 13
991.4859915814891
 23
786.7107002602365
 33
0.0
 14
1110.485991581489
 24
886.7107002602361
 34
0.0
 50
90.0
100
AcDbRotatedDimension
  0
DIMENSION
  5
17A
330
1F
100
AcDbEntity
  8
1
100
AcDbDimension
  2
*D4
 10
446.6352496736922
 20
886.7107002602359
 30
0.0
 11
411.6352496736922
 21
527.8353010455987
 31
0.0
 70
    32
  1
<>
 71
     5
 42
-1.0
 53
90.0
  3
ME10_DIM_11
100
AcDbAlignedDimension
 13
320.9859915814891
 23
186.7107002602361
 33
0.0
 14
499.4859915814891
 24
886.7107002602359
 34
0.0
 50
90.0
100
AcDbRotatedDimension
  0
DIMENSION
  5
185
330
1F
100
AcDbEntity
  8
1
100
AcDbDimension
  2
*D5
 10
1010.485991581489
 20
1085.735253412887
 30
0.0
 11
1341.283602556873
 21
1120.735253412887
 31
0.0
 70
    32
  1
<>
 71
     5
 42
-1.0
 53
0.00013888888889
  3
ME10_DIM_12
100
AcDbAlignedDimension
 13
1710.485991581489
 23
923.7107002602361
 33
0.0
 14
1010.485991581489
 24
786.7107002602364
 34
0.0
100
AcDbRotatedDimension
  0
DIMENSION
  5
190
330
1F
100
AcDbEntity
  8
1
100
AcDbDimension
  2
*D6
 10
1260.48599158149
 20
1007.960935875081
 30
0.0
 11
1488.003371455573
 21
1042.960935875081
 31
0.0
 70
    32
  1
<>
 71
     5
 42
-1.0
 53
0.00013888888889
  3
ME10_DIM_13
100
AcDbAlignedDimension
 13
1710.485991581489
 23
923.7107002602361
 33
0.0
 14
1260.485991581489
 24
922.4730149925756
 34
0.0
100
AcDbRotatedDimension
  0
INSERT
  5
197
330
1F
100
AcDbEntity
  8
0
100
AcDbBlockReference
  2
*D7
 10
0.0
 20
0.0
 30
0.0
  0
HATCH
  5
198
330
1F
100
AcDbEntity
  8
1
  6
Continuous
 62
     4
100
AcDbHatch
 10
0.0
 20
0.0
 30
0.0
210
0.0
220
0.0
230
1.0
  2
CUSTOM0
 70
     0
 71
     0
 91
        1
 92
        1
 93
        4
 72
     1
 10
795.9263911586313
 20
186.7107002602361
 11
795.9263911586313
 21
137.3573008849557
 72
     1
 10
795.9263911586313
 20
137.3573008849557
 11
320.9859915814891
 21
137.3573008849557
 72
     1
 10
320.9859915814891
 20
137.3573008849557
 11
320.9859915814891
 21
186.7107002602361
 72
     1
 10
320.9859915814891
 20
186.7107002602361
 11
795.9263911586313
 21
186.7107002602361
 97
        0
 75
     1
 76
     2
 52
45.0
 41
40.0
 77
     0
 78
     2
 53
45.0
 43
0.0
 44
0.0
 45
-56.5685424949238
 46
0.0000000000000044
 79
     0
 53
45.0
 43
9.428090415820634
 44
-9.428090415820632
 45
-56.5685424949238
 46
0.0000000000000044
 79
     0
 98
        1
 10
0.0
 20
0.0
  0
HATCH
  5
199
330
1F
100
AcDbEntity
  8
1
  6
Continuous
 62
     4
100
AcDbHatch
 10
0.0
 20
0.0
 30
0.0
210
0.0
220
0.0
230
1.0
  2
CUSTOM1
 70
     0
 71
     0
 91
        1
 92
        1
 93
        6
 72
     1
 10
963.4547689595261
 20
186.7107002602361
 11
963.4547689595261
 21
137.3573008849557
 72
     1
 10
963.4547689595261
 20
137.3573008849557
 11
1766.576318083182
 21
137.3573008849557
 72
     1
 10
1766.576318083182
 20
137.3573008849557
 11
1766.576318083182
 21
1202.270558767948
 72
     1
 10
1766.576318083182
 20
1202.270558767948
 11
1710.485991581489
 21
1202.270558767948
 72
     1
 10
1710.485991581489
 20
1202.270558767948
 11
1710.485991581489
 21
186.7107002602361
 72
     1
 10
1710.485991581489
 20
186.7107002602361
 11
963.4547689595261
 21
186.7107002602361
 97
        0
 75
     1
 76
     2
 52
45.0
 41
40.0
 77
     0
 78
     2
 53
45.0
 43
0.0
 44
0.0
 45
-56.5685424949238
 46
0.0000000000000044
 79
     0
 53
45.0
 43
9.428090415820634
 44
-9.428090415820632
 45
-56.5685424949238
 46
0.0000000000000044
 79
     0
 98
        1
 10
0.0
 20
0.0
  0
HATCH
  5
19A
330
1F
100
AcDbEntity
  8
1
  6
Continuous
 62
     4
100
AcDbHatch
 10
0.0
 20
0.0
 30
0.0
210
0.0
220
0.0
230
1.0
  2
CUSTOM2
 70
     0
 71
     0
 91
        1
 92
        1
 93
        4
 72
     1
 10
424.4734830876101
 20
1898.000000000001
 11
424.473483087609
 21
1953.000000000001
 72
     1
 10
424.473483087609
 20
1953.000000000001
 11
703.098512455611
 21
1953.000000000001
 72
     1
 10
703.098512455611
 20
1953.000000000001
 11
703.97348308761
 21
1898.000000000001
 72
     1
 10
703.97348308761
 20
1898.000000000001
 11
424.4734830876101
 21
1898.000000000001
 97
        0
 75
     1
 76
     2
 52
45.0
 41
40.0
 77
     0
 78
     2
 53
45.0
 43
0.0
 44
0.0
 45
-56.5685424949238
 46
0.0000000000000044
 79
     0
 53
45.0
 43
9.428090415820634
 44
-9.428090415820632
 45
-56.5685424949238
 46
0.0000000000000044
 79
     0
 98
        1
 10
0.0
 20
0.0
  0
ENDSEC
  0
SECTION
  2
OBJECTS
  0
DICTIONARY
  5
C
330
0
100
AcDbDictionary
281
     1
  3
ACAD_GROUP
350
D
  3
ACAD_LAYOUT
350
1A
  3
ACAD_MATERIAL
350
3B
  3
ACAD_MLEADERSTYLE
350
19D
  3
ACAD_MLINESTYLE
350
17
  3
ACAD_PLOTSETTINGS
350
19
  3
ACAD_PLOTSTYLENAME
350
E
  3
ACAD_VISUALSTYLE
350
2A
  3
AcDbVariableDictionary
350
19B
  0
DICTIONARY
  5
D
102
{ACAD_REACTORS
330
C
102
}
330
C
100
AcDbDictionary
281
     1
  0
DICTIONARY
  5
1A
102
{ACAD_REACTORS
330
C
102
}
330
C
100
AcDbDictionary
281
     1
  3
Layout1
350
1E
  3
Layout2
350
26
  3
Model
350
22
  0
DICTIONARY
  5
3B
102
{ACAD_REACTORS
330
C
102
}
330
C
100
AcDbDictionary
281
     1
  3
ByBlock
350
3D
  3
ByLayer
350
3C
  3
Global
350
3E
  0
DICTIONARY
  5
19D
102
{ACAD_REACTORS
330
C
102
}
330
C
100
AcDbDictionary
281
     1
  0
DICTIONARY
  5
17
102
{ACAD_REACTORS
330
C
102
}
330
C
100
AcDbDictionary
281
     1
  3
Standard
350
18
  0
DICTIONARY
  5
19
102
{ACAD_REACTORS
330
C
102
}
330
C
100
AcDbDictionary
281
     1
  0
ACDBDICTIONARYWDFLT
  5
E
102
{ACAD_REACTORS
330
C
102
}
330
C
100
AcDbDictionary
281
     1
  3
Normal
350
F
100
AcDbDictionaryWithDefault
340
F
  0
DICTIONARY
  5
2A
102
{ACAD_REACTORS
330
C
102
}
330
C
100
AcDbDictionary
281
     1
  3
2dWireframe
350
2F
  3
3D Hidden
350
31
  3
3dWireframe
350
30
  3
Basic
350
32
  3
Brighten
350
36
  3
ColorChange
350
3A
  3
Conceptual
350
34
  3
Dim
350
35
  3
Facepattern
350
39
  3
Flat
350
2B
  3
FlatWithEdges
350
2C
  3
Gouraud
350
2D
  3
GouraudWithEdges
350
2E
  3
Linepattern
350
38
  3
Realistic
350
33
  3
Thicken
350
37
  0
DICTIONARY
  5
19B
102
{ACAD_REACTORS
330
C
102
}
330
C
100
AcDbDictionary
281
     1
  3
DIMASSOC
350
19E
  3
HIDETEXT
350
19F
  0
LAYOUT
  5
1E
102
{ACAD_REACTORS
330
1A
102
}
330
1A
100
AcDbPlotSettings
  1

  2
none_device
  4

  6

 40
0.0
 41
0.0
 42
0.0
 43
0.0
 44
0.0
 45
0.0
 46
0.0
 47
0.0
 48
0.0
 49
0.0
140
0.0
141
0.0
142
1.0
143
1.0
 70
   688
 72
     0
 73
     0
 74
     5
  7

 75
    16
147
1.0
148
0.0
149
0.0
100
AcDbLayout
  1
Layout1
 70
     1
 71
     1
 10
0.0
 20
0.0
 11
12.0
 21
9.0
 12
0.0
 22
0.0
 32
0.0
 14
1.00000000000000E+20
 24
1.00000000000000E+20
 34
1.00000000000000E+20
 15
-1.00000000000000E+20
 25
-1.00000000000000E+20
 35
-1.00000000000000E+20
146
0.0
 13
0.0
 23
0.0
 33
0.0
 16
1.0
 26
0.0
 36
0.0
 17
0.0
 27
1.0
 37
0.0
 76
     0
330
1B
  0
LAYOUT
  5
26
102
{ACAD_REACTORS
330
1A
102
}
330
1A
100
AcDbPlotSettings
  1

  2
none_device
  4

  6

 40
0.0
 41
0.0
 42
0.0
 43
0.0
 44
0.0
 45
0.0
 46
0.0
 47
0.0
 48
0.0
 49
0.0
140
0.0
141
0.0
142
1.0
143
1.0
 70
   688
 72
     0
 73
     0
 74
     5
  7

 75
    16
147
1.0
148
0.0
149
0.0
100
AcDbLayout
  1
Layout2
 70
     1
 71
     2
 10
0.0
 20
0.0
 11
0.0
 21
0.0
 12
0.0
 22
0.0
 32
0.0
 14
0.0
 24
0.0
 34
0.0
 15
0.0
 25
0.0
 35
0.0
146
0.0
 13
0.0
 23
0.0
 33
0.0
 16
1.0
 26
0.0
 36
0.0
 17
0.0
 27
1.0
 37
0.0
 76
     0
330
23
  0
LAYOUT
  5
22
102
{ACAD_REACTORS
330
1A
102
}
330
1A
100
AcDbPlotSettings
  1

  2
none_device
  4

  6

 40
0.0
 41
0.0
 42
0.0
 43
0.0
 44
0.0
 45
0.0
 46
0.0
 47
0.0
 48
0.0
 49
0.0
140
0.0
141
0.0
142
1.0
143
1.0
 70
  1712
 72
     0
 73
     0
 74
     0
  7

 75
     0
147
1.0
148
0.0
149
0.0
100
AcDbLayout
  1
Model
 70
     1
 71
     0
 10
0.0
 20
0.0
 11
12.0
 21
9.0
 12
0.0
 22
0.0
 32
0.0
 14
-100.1003009547976
 24
-701.7569167286231
 34
0.0
 15
1999.899699045202
 25
2268.24308327138
 35
0.0
146
0.0
 13
0.0
 23
0.0
 33
0.0
 16
1.0
 26
0.0
 36
0.0
 17
0.0
 27
1.0
 37
0.0
 76
     0
330
1F
331
29
  0
MATERIAL
  5
3D
102
{ACAD_REACTORS
330
3B
102
}
102
{ACAD_XDICTIONARY
360
1C2
102
}
330
3B
100
AcDbMaterial
  1
ByBlock
  0
MATERIAL
  5
3C
102
{ACAD_REACTORS
330
3B
102
}
102
{ACAD_XDICTIONARY
360
1C0
102
}
330
3B
100
AcDbMaterial
  1
ByLayer
  0
MATERIAL
  5
3E
102
{ACAD_REACTORS
330
3B
102
}
102
{ACAD_XDICTIONARY
360
1C4
102
}
330
3B
100
AcDbMaterial
  1
Global
  0
MLINESTYLE
  5
18
102
{ACAD_REACTORS
330
17
102
}
330
17
100
AcDbMlineStyle
  2
Standard
 70
     0
  3

 62
   256
 51
90.0
 52
90.0
 71
     2
 49
0.5
 62
   256
  6
BYLAYER
 49
-0.5
 62
   256
  6
BYLAYER
  0
ACDBPLACEHOLDER
  5
F
102
{ACAD_REACTORS
330
E
102
}
330
E
  0
VISUALSTYLE
  5
2F
102
{ACAD_REACTORS
330
2A
102
}
102
{ACAD_XDICTIONARY
360
1A8
102
}
330
2A
100
AcDbVisualStyle
  2
2dWireframe
 70
     4
 71
     0
 72
     2
 73
     0
 90
        0
 40
-0.6
 41
-30.0
 62
     5
 63
     7
 74
     1
 91
        4
 64
     7
 65
   257
 75
     1
175
     1
 42
1.0
 92
        0
 66
   257
 43
1.0
 76
     1
 77
     6
 78
     2
 67
     7
 79
     5
170
     0
171
     0
290
     0
174
     0
 93
        1
 44
0.0
173
     0
291
     0
 45
0.0
1001
ACAD
1000
AcDbSavedByObjectVersion
1070
     0
  0
VISUALSTYLE
  5
31
102
{ACAD_REACTORS
330
2A
102
}
102
{ACAD_XDICTIONARY
360
1AC
102
}
330
2A
100
AcDbVisualStyle
  2
3D Hidden
 70
     6
 71
     1
 72
     2
 73
     2
 90
        0
 40
-0.6
 41
-30.0
 62
     5
 63
     7
 74
     2
 91
        2
 64
     7
 65
   257
 75
     2
175
     1
 42
40.0
 92
        0
 66
   257
 43
1.0
 76
     1
 77
     6
 78
     2
 67
     7
 79
     3
170
     0
171
     0
290
     0
174
     0
 93
        1
 44
0.0
173
     0
291
     0
 45
0.0
1001
ACAD
1000
AcDbSavedByObjectVersion
1070
     0
  0
VISUALSTYLE
  5
30
102
{ACAD_REACTORS
330
2A
102
}
102
{ACAD_XDICTIONARY
360
1AA
102
}
330
2A
100
AcDbVisualStyle
  2
3dWireframe
 70
     5
 71
     0
 72
     2
 73
     0
 90
        0
 40
-0.6
 41
-30.0
 62
     5
 63
     7
 74
     1
 91
        4
 64
     7
 65
   257
 75
     1
175
     1
 42
1.0
 92
        0
 66
   257
 43
1.0
 76
     1
 77
     6
 78
     2
 67
     7
 79
     5
170
     0
171
     0
290
     0
174
     0
 93
        1
 44
0.0
173
     0
291
     0
 45
0.0
1001
ACAD
1000
AcDbSavedByObjectVersion
1070
     0
  0
VISUALSTYLE
  5
32
102
{ACAD_REACTORS
330
2A
102
}
102
{ACAD_XDICTIONARY
360
1AE
102
}
330
2A
100
AcDbVisualStyle
  2
Basic
 70
     7
 71
     1
 72
     0
 73
     1
 90
        0
 40
-0.6
 41
-30.0
 62
     5
 63
     7
 74
     0
 91
        4
 64
     7
 65
   257
 75
     1
175
     1
 42
1.0
 92
        8
 66
     7
 43
1.0
 76
     1
 77
     6
 78
     2
 67
     7
 79
     5
170
     0
171
     0
290
     0
174
     0
 93
        1
 44
0.0
173
     0
291
     1
 45
0.0
1001
ACAD
1000
AcDbSavedByObjectVersion
1070
     0
  0
VISUALSTYLE
  5
36
102
{ACAD_REACTORS
330
2A
102
}
102
{ACAD_XDICTIONARY
360
1B6
102
}
330
2A
100
AcDbVisualStyle
  2
Brighten
 70
    12
 71
     2
 72
     2
 73
     0
 90
        0
 40
-0.6
 41
-30.0
 62
     5
 63
     7
 74
     1
 91
        4
 64
     7
 65
   257
 75
     1
175
     1
 42
1.0
 92
        8
 66
     7
 43
1.0
 76
     1
 77
     6
 78
     2
 67
     7
 79
     5
170
     0
171
     0
290
     0
174
     0
 93
        1
 44
50.0
173
     0
291
     1
 45
0.0
1001
ACAD
1000
AcDbSavedByObjectVersion
1070
     0
  0
VISUALSTYLE
  5
3A
102
{ACAD_REACTORS
330
2A
102
}
102
{ACAD_XDICTIONARY
360
1BE
102
}
330
2A
100
AcDbVisualStyle
  2
ColorChange
 70
    16
 71
     2
 72
     2
 73
     3
 90
        0
 40
-0.6
 41
-30.0
 62
     5
 63
     8
 74
     1
 91
        4
 64
     7
 65
   257
 75
     1
175
     1
 42
1.0
 92
        8
 66
     8
 43
1.0
 76
     1
 77
     6
 78
     2
 67
     7
 79
     5
170
     0
171
     0
290
     0
174
     0
 93
        1
 44
0.0
173
     0
291
     1
 45
0.0
1001
ACAD
1000
AcDbSavedByObjectVersion
1070
     0
  0
VISUALSTYLE
  5
34
102
{ACAD_REACTORS
330
2A
102
}
102
{ACAD_XDICTIONARY
360
1B2
102
}
330
2A
100
AcDbVisualStyle
  2
Conceptual
 70
     9
 71
     3
 72
     2
 73
     0
 90
        0
 40
-0.6
 41
-30.0
 62
     5
 63
     7
 74
     2
 91
        2
 64
     7
 65
   257
 75
     1
175
     1
 42
40.0
 92
        8
 66
     7
 43
1.0
 76
     1
 77
     6
 78
     2
 67
     7
 79
     3
170
     0
171
     0
290
     0
174
     0
 93
        1
 44
0.0
173
     0
291
     0
 45
0.0
1001
ACAD
1000
AcDbSavedByObjectVersion
1070
     0
  0
VISUALSTYLE
  5
35
102
{ACAD_REACTORS
330
2A
102
}
102
{ACAD_XDICTIONARY
360
1B4
102
}
330
2A
100
AcDbVisualStyle
  2
Dim
 70
    11
 71
     2
 72
     2
 73
     0
 90
        0
 40
-0.6
 41
-30.0
 62
     5
 63
     7
 74
     1
 91
        4
 64
     7
 65
   257
 75
     1
175
     1
 42
1.0
 92
        8
 66
     7
 43
1.0
 76
     1
 77
     6
 78
     2
 67
     7
 79
     5
170
     0
171
     0
290
     0
174
     0
 93
        1
 44
-50.0
173
     0
291
     1
 45
0.0
1001
ACAD
1000
AcDbSavedByObjectVersion
1070
     0
  0
VISUALSTYLE
  5
39
102
{ACAD_REACTORS
330
2A
102
}
102
{ACAD_XDICTIONARY
360
1BC
102
}
330
2A
100
AcDbVisualStyle
  2
Facepattern
 70
    15
 71
     2
 72
     2
 73
     0
 90
        0
 40
-0.6
 41
-30.0
 62
     5
 63
     7
 74
     1
 91
        4
 64
     7
 65
   257
 75
     1
175
     1
 42
1.0
 92
        8
 66
     7
 43
1.0
 76
     1
 77
     6
 78
     2
 67
     7
 79
     5
170
     0
171
     0
290
     0
174
     0
 93
        1
 44
0.0
173
     0
291
     1
 45
0.0
1001
ACAD
1000
AcDbSavedByObjectVersion
1070
     0
  0
VISUALSTYLE
  5
2B
102
{ACAD_REACTORS
330
2A
102
}
102
{ACAD_XDICTIONARY
360
1A0
102
}
330
2A
100
AcDbVisualStyle
  2
Flat
 70
     0
 71
     2
 72
     1
 73
     1
 90
        2
 40
-0.6
 41
30.0
 62
     5
 63
     7
 74
     0
 91
        4
 64
     7
 65
   257
 75
     1
175
     1
 42
1.0
 92
        8
 66
     7
 43
1.0
 76
     1
 77
     6
 78
     2
 67
     7
 79
     5
170
     0
171
     0
290
     0
174
     0
 93
       13
 44
0.0
173
     0
291
     1
 45
0.0
1001
ACAD
1000
AcDbSavedByObjectVersion
1070
     0
  0
VISUALSTYLE
  5
2C
102
{ACAD_REACTORS
330
2A
102
}
102
{ACAD_XDICTIONARY
360
1A2
102
}
330
2A
100
AcDbVisualStyle
  2
FlatWithEdges
 70
     1
 71
     2
 72
     1
 73
     1
 90
        2
 40
-0.6
 41
30.0
 62
     5
 63
     7
 74
     1
 91
        4
 64
     7
 65
   257
 75
     1
175
     1
 42
1.0
 92
        0
 66
   257
 43
1.0
 76
     1
 77
     6
 78
     2
 67
     7
 79
     5
170
     0
171
     0
290
     0
174
     0
 93
       13
 44
0.0
173
     0
291
     1
 45
0.0
1001
ACAD
1000
AcDbSavedByObjectVersion
1070
     0
  0
VISUALSTYLE
  5
2D
102
{ACAD_REACTORS
330
2A
102
}
102
{ACAD_XDICTIONARY
360
1A4
102
}
330
2A
100
AcDbVisualStyle
  2
Gouraud
 70
     2
 71
     2
 72
     2
 73
     1
 90
        2
 40
-0.6
 41
30.0
 62
     5
 63
     7
 74
     0
 91
        4
 64
     7
 65
   257
 75
     1
175
     1
 42
1.0
 92
        0
 66
     7
 43
1.0
 76
     1
 77
     6
 78
     2
 67
     7
 79
     5
170
     0
171
     0
290
     0
174
     0
 93
       13
 44
0.0
173
     0
291
     1
 45
0.0
1001
ACAD
1000
AcDbSavedByObjectVersion
1070
     0
  0
VISUALSTYLE
  5
2E
102
{ACAD_REACTORS
330
2A
102
}
102
{ACAD_XDICTIONARY
360
1A6
102
}
330
2A
100
AcDbVisualStyle
  2
GouraudWithEdges
 70
     3
 71
     2
 72
     2
 73
     1
 90
        2
 40
-0.6
 41
30.0
 62
     5
 63
     7
 74
     1
 91
        4
 64
     7
 65
   257
 75
     1
175
     1
 42
1.0
 92
        0
 66
   257
 43
1.0
 76
     1
 77
     6
 78
     2
 67
     7
 79
     5
170
     0
171
     0
290
     0
174
     0
 93
       13
 44
0.0
173
     0
291
     1
 45
0.0
1001
ACAD
1000
AcDbSavedByObjectVersion
1070
     0
  0
VISUALSTYLE
  5
38
102
{ACAD_REACTORS
330
2A
102
}
102
{ACAD_XDICTIONARY
360
1BA
102
}
330
2A
100
AcDbVisualStyle
  2
Linepattern
 70
    14
 71
     2
 72
     2
 73
     0
 90
        0
 40
-0.6
 41
-30.0
 62
     5
 63
     7
 74
     1
 91
        4
 64
     7
 65
   257
 75
     7
175
     7
 42
1.0
 92
        8
 66
     7
 43
1.0
 76
     1
 77
     6
 78
     2
 67
     7
 79
     5
170
     0
171
     0
290
     0
174
     0
 93
        1
 44
0.0
173
     0
291
     1
 45
0.0
1001
ACAD
1000
AcDbSavedByObjectVersion
1070
     0
  0
VISUALSTYLE
  5
33
102
{ACAD_REACTORS
330
2A
102
}
102
{ACAD_XDICTIONARY
360
1B0
102
}
330
2A
100
AcDbVisualStyle
  2
Realistic
 70
     8
 71
     2
 72
     2
 73
     0
 90
        0
 40
-0.6
 41
-30.0
 62
     5
 63
     7
 74
     1
 91
        0
 64
     7
 65
   257
 75
     1
175
     1
 42
1.0
 92
        8
 66
     8
 43
1.0
 76
     1
 77
     6
 78
     2
 67
     7
 79
     5
170
     0
171
     0
290
     0
174
     0
 93
       13
 44
0.0
173
     0
291
     0
 45
0.0
1001
ACAD
1000
AcDbSavedByObjectVersion
1070
     0
  0
VISUALSTYLE
  5
37
102
{ACAD_REACTORS
330
2A
102
}
102
{ACAD_XDICTIONARY
360
1B8
102
}
330
2A
100
AcDbVisualStyle
  2
Thicken
 70
    13
 71
     2
 72
     2
 73
     0
 90
        0
 40
-0.6
 41
-30.0
 62
     5
 63
     7
 74
     1
 91
        4
 64
     7
 65
   257
 75
     1
175
     1
 42
1.0
 92
       12
 66
     7
 43
1.0
 76
     1
 77
     6
 78
     2
 67
     7
 79
     5
170
     0
171
     0
290
     0
174
     0
 93
        1
 44
0.0
173
     0
291
     1
 45
0.0
1001
ACAD
1000
AcDbSavedByObjectVersion
1070
     0
  0
DICTIONARYVAR
  5
19E
102
{ACAD_REACTORS
330
19B
102
}
330
19B
100
DictionaryVariables
280
     0
  1
2
  0
DICTIONARYVAR
  5
19F
102
{ACAD_REACTORS
330
19B
102
}
330
19B
100
DictionaryVariables
280
     0
  1
1
  0
DICTIONARY
  5
1C2
330
3D
100
AcDbDictionary
280
     1
281
     1
  3
ACAD_XREC_ROUNDTRIP
360
1C3
  0
DICTIONARY
  5
1C0
330
3C
100
AcDbDictionary
280
     1
281
     1
  3
ACAD_XREC_ROUNDTRIP
360
1C1
  0
DICTIONARY
  5
1C4
330
3E
100
AcDbDictionary
280
     1
281
     1
  3
ACAD_XREC_ROUNDTRIP
360
1C5
  0
DICTIONARY
  5
1A8
330
2F
100
AcDbDictionary
280
     1
281
     1
  3
ACAD_XREC_ROUNDTRIP
360
1A9
  0
DICTIONARY
  5
1AC
330
31
100
AcDbDictionary
280
     1
281
     1
  3
ACAD_XREC_ROUNDTRIP
360
1AD
  0
DICTIONARY
  5
1AA
330
30
100
AcDbDictionary
280
     1
281
     1
  3
ACAD_XREC_ROUNDTRIP
360
1AB
  0
DICTIONARY
  5
1AE
330
32
100
AcDbDictionary
280
     1
281
     1
  3
ACAD_XREC_ROUNDTRIP
360
1AF
  0
DICTIONARY
  5
1B6
330
36
100
AcDbDictionary
280
     1
281
     1
  3
ACAD_XREC_ROUNDTRIP
360
1B7
  0
DICTIONARY
  5
1BE
330
3A
100
AcDbDictionary
280
     1
281
     1
  3
ACAD_XREC_ROUNDTRIP
360
1BF
  0
DICTIONARY
  5
1B2
330
34
100
AcDbDictionary
280
     1
281
     1
  3
ACAD_XREC_ROUNDTRIP
360
1B3
  0
DICTIONARY
  5
1B4
330
35
100
AcDbDictionary
280
     1
281
     1
  3
ACAD_XREC_ROUNDTRIP
360
1B5
  0
DICTIONARY
  5
1BC
330
39
100
AcDbDictionary
280
     1
281
     1
  3
ACAD_XREC_ROUNDTRIP
360
1BD
  0
DICTIONARY
  5
1A0
330
2B
100
AcDbDictionary
280
     1
281
     1
  3
ACAD_XREC_ROUNDTRIP
360
1A1
  0
DICTIONARY
  5
1A2
330
2C
100
AcDbDictionary
280
     1
281
     1
  3
ACAD_XREC_ROUNDTRIP
360
1A3
  0
DICTIONARY
  5
1A4
330
2D
100
AcDbDictionary
280
     1
281
     1
  3
ACAD_XREC_ROUNDTRIP
360
1A5
  0
DICTIONARY
  5
1A6
330
2E
100
AcDbDictionary
280
     1
281
     1
  3
ACAD_XREC_ROUNDTRIP
360
1A7
  0
DICTIONARY
  5
1BA
330
38
100
AcDbDictionary
280
     1
281
     1
  3
ACAD_XREC_ROUNDTRIP
360
1BB
  0
DICTIONARY
  5
1B0
330
33
100
AcDbDictionary
280
     1
281
     1
  3
ACAD_XREC_ROUNDTRIP
360
1B1
  0
DICTIONARY
  5
1B8
330
37
100
AcDbDictionary
280
     1
281
     1
  3
ACAD_XREC_ROUNDTRIP
360
1B9
  0
XRECORD
  5
1C3
102
{ACAD_REACTORS
330
1C2
102
}
330
1C2
100
AcDbXrecord
280
     1
102
MATERIAL
148
0.0
149
0.0
149
0.0
 93
        0
 94
      127
282
     0
 72
     1
 77
     1
171
     1
175
     1
179
     1
273
     0
  0
XRECORD
  5
1C1
102
{ACAD_REACTORS
330
1C0
102
}
330
1C0
100
AcDbXrecord
280
     1
102
MATERIAL
148
0.0
149
0.0
149
0.0
 93
        0
 94
      127
282
     0
 72
     1
 77
     1
171
     1
175
     1
179
     1
273
     0
  0
XRECORD
  5
1C5
102
{ACAD_REACTORS
330
1C4
102
}
330
1C4
100
AcDbXrecord
280
     1
102
MATERIAL
148
0.0
149
0.0
149
0.0
 93
        0
 94
      127
282
     0
 72
     1
 77
     1
171
     1
175
     1
179
     1
273
     0
  0
XRECORD
  5
1A9
102
{ACAD_REACTORS
330
1A8
102
}
330
1A8
100
AcDbXrecord
280
     1
102
RTVSPropertyOp0
 70
     1
102
RTVSPropertyOp1
 70
     1
102
RTVSPropertyOp2
 70
     1
102
RTVSPropertyOp3
 70
     1
102
RTVSPropertyOp4
 70
     1
102
RTVSPropertyOp5
 70
     1
102
RTVSPropertyOp6
 70
     1
102
RTVSPropertyOp7
 70
     1
102
RTVSPropertyOp8
 70
     1
102
RTVSPropertyOp9
 70
     1
102
RTVSPropertyOp10
 70
     1
102
RTVSPropertyOp11
 70
     1
102
RTVSPropertyOp12
 70
     1
102
RTVSPropertyOp13
 70
     1
102
RTVSPropertyOp14
 70
     1
102
RTVSPropertyOp15
 70
     1
102
RTVSPropertyOp16
 70
     1
102
RTVSPropertyOp17
 70
     1
102
RTVSPropertyOp18
 70
     1
102
RTVSPropertyOp19
 70
     1
102
RTVSPropertyOp20
 70
     1
102
RTVSPropertyOp21
 70
     1
102
RTVSPropertyOp22
 70
     1
102
RTVSPropertyOp23
 70
     1
102
RTVSPropertyOp24
 70
     1
102
RTVSPropertyOp25
 70
     1
102
RTVSPropertyOp26
 70
     1
102
RTVSPropertyOp27
 70
     1
102
RTVSPropertyOp28
 70
     1
102
RTVSPropertyOp29
 70
     1
102
RTVSPropertyOp30
 70
     1
102
RTVSPropertyOp31
 70
     1
102
RTVSPropertyOp32
 70
     1
  0
XRECORD
  5
1AD
102
{ACAD_REACTORS
330
1AC
102
}
330
1AC
100
AcDbXrecord
280
     1
102
RTVSPropertyOp0
 70
     1
102
RTVSPropertyOp1
 70
     1
102
RTVSPropertyOp2
 70
     1
102
RTVSPropertyOp3
 70
     1
102
RTVSPropertyOp4
 70
     1
102
RTVSPropertyOp5
 70
     1
102
RTVSPropertyOp6
 70
     1
102
RTVSPropertyOp7
 70
     1
102
RTVSPropertyOp8
 70
     1
102
RTVSPropertyOp9
 70
     1
102
RTVSPropertyOp10
 70
     1
102
RTVSPropertyOp11
 70
     1
102
RTVSPropertyOp12
 70
     1
102
RTVSPropertyOp13
 70
     1
102
RTVSPropertyOp14
 70
     1
102
RTVSPropertyOp15
 70
     1
102
RTVSPropertyOp16
 70
     1
102
RTVSPropertyOp17
 70
     1
102
RTVSPropertyOp18
 70
     1
102
RTVSPropertyOp19
 70
     1
102
RTVSPropertyOp20
 70
     1
102
RTVSPropertyOp21
 70
     1
102
RTVSPropertyOp22
 70
     1
102
RTVSPropertyOp23
 70
     1
102
RTVSPropertyOp24
 70
     1
102
RTVSPropertyOp25
 70
     1
102
RTVSPropertyOp26
 70
     1
102
RTVSPropertyOp27
 70
     1
102
RTVSPropertyOp28
 70
     1
102
RTVSPropertyOp29
 70
     1
102
RTVSPropertyOp30
 70
     1
102
RTVSPropertyOp31
 70
     1
102
RTVSPropertyOp32
 70
     1
  0
XRECORD
  5
1AB
102
{ACAD_REACTORS
330
1AA
102
}
330
1AA
100
AcDbXrecord
280
     1
102
RTVSPropertyOp0
 70
     1
102
RTVSPropertyOp1
 70
     1
102
RTVSPropertyOp2
 70
     1
102
RTVSPropertyOp3
 70
     1
102
RTVSPropertyOp4
 70
     1
102
RTVSPropertyOp5
 70
     1
102
RTVSPropertyOp6
 70
     1
102
RTVSPropertyOp7
 70
     1
102
RTVSPropertyOp8
 70
     1
102
RTVSPropertyOp9
 70
     1
102
RTVSPropertyOp10
 70
     1
102
RTVSPropertyOp11
 70
     1
102
RTVSPropertyOp12
 70
     1
102
RTVSPropertyOp13
 70
     1
102
RTVSPropertyOp14
 70
     1
102
RTVSPropertyOp15
 70
     1
102
RTVSPropertyOp16
 70
     1
102
RTVSPropertyOp17
 70
     1
102
RTVSPropertyOp18
 70
     1
102
RTVSPropertyOp19
 70
     1
102
RTVSPropertyOp20
 70
     1
102
RTVSPropertyOp21
 70
     1
102
RTVSPropertyOp22
 70
     1
102
RTVSPropertyOp23
 70
     1
102
RTVSPropertyOp24
 70
     1
102
RTVSPropertyOp25
 70
     1
102
RTVSPropertyOp26
 70
     1
102
RTVSPropertyOp27
 70
     1
102
RTVSPropertyOp28
 70
     1
102
RTVSPropertyOp29
 70
     1
102
RTVSPropertyOp30
 70
     1
102
RTVSPropertyOp31
 70
     1
102
RTVSPropertyOp32
 70
     1
  0
XRECORD
  5
1AF
102
{ACAD_REACTORS
330
1AE
102
}
330
1AE
100
AcDbXrecord
280
     1
102
RTVSPropertyOp0
 70
     1
102
RTVSPropertyOp1
 70
     1
102
RTVSPropertyOp2
 70
     1
102
RTVSPropertyOp3
 70
     1
102
RTVSPropertyOp4
 70
     1
102
RTVSPropertyOp5
 70
     1
102
RTVSPropertyOp6
 70
     1
102
RTVSPropertyOp7
 70
     1
102
RTVSPropertyOp8
 70
     1
102
RTVSPropertyOp9
 70
     1
102
RTVSPropertyOp10
 70
     1
102
RTVSPropertyOp11
 70
     1
102
RTVSPropertyOp12
 70
     1
102
RTVSPropertyOp13
 70
     1
102
RTVSPropertyOp14
 70
     1
102
RTVSPropertyOp15
 70
     1
102
RTVSPropertyOp16
 70
     1
102
RTVSPropertyOp17
 70
     1
102
RTVSPropertyOp18
 70
     1
102
RTVSPropertyOp19
 70
     1
102
RTVSPropertyOp20
 70
     1
102
RTVSPropertyOp21
 70
     1
102
RTVSPropertyOp22
 70
     1
102
RTVSPropertyOp23
 70
     1
102
RTVSPropertyOp24
 70
     1
102
RTVSPropertyOp25
 70
     1
102
RTVSPropertyOp26
 70
     1
102
RTVSPropertyOp27
 70
     1
102
RTVSPropertyOp28
 70
     1
102
RTVSPropertyOp29
 70
     1
102
RTVSPropertyOp30
 70
     1
102
RTVSPropertyOp31
 70
     1
102
RTVSPropertyOp32
 70
     1
  0
XRECORD
  5
1B7
102
{ACAD_REACTORS
330
1B6
102
}
330
1B6
100
AcDbXrecord
280
     1
102
RTVSPropertyOp0
 70
     1
102
RTVSPropertyOp1
 70
     1
102
RTVSPropertyOp2
 70
     1
102
RTVSPropertyOp3
 70
     1
102
RTVSPropertyOp4
 70
     1
102
RTVSPropertyOp5
 70
     1
102
RTVSPropertyOp6
 70
     1
102
RTVSPropertyOp7
 70
     1
102
RTVSPropertyOp8
 70
     1
102
RTVSPropertyOp9
 70
     1
102
RTVSPropertyOp10
 70
     1
102
RTVSPropertyOp11
 70
     1
102
RTVSPropertyOp12
 70
     1
102
RTVSPropertyOp13
 70
     1
102
RTVSPropertyOp14
 70
     1
102
RTVSPropertyOp15
 70
     1
102
RTVSPropertyOp16
 70
     1
102
RTVSPropertyOp17
 70
     1
102
RTVSPropertyOp18
 70
     1
102
RTVSPropertyOp19
 70
     1
102
RTVSPropertyOp20
 70
     1
102
RTVSPropertyOp21
 70
     1
102
RTVSPropertyOp22
 70
     1
102
RTVSPropertyOp23
 70
     1
102
RTVSPropertyOp24
 70
     1
102
RTVSPropertyOp25
 70
     1
102
RTVSPropertyOp26
 70
     1
102
RTVSPropertyOp27
 70
     1
102
RTVSPropertyOp28
 70
     1
102
RTVSPropertyOp29
 70
     1
102
RTVSPropertyOp30
 70
     1
102
RTVSPropertyOp31
 70
     1
102
RTVSPropertyOp32
 70
     1
  0
XRECORD
  5
1BF
102
{ACAD_REACTORS
330
1BE
102
}
330
1BE
100
AcDbXrecord
280
     1
102
RTVSPropertyOp0
 70
     1
102
RTVSPropertyOp1
 70
     1
102
RTVSPropertyOp2
 70
     1
102
RTVSPropertyOp3
 70
     1
102
RTVSPropertyOp4
 70
     1
102
RTVSPropertyOp5
 70
     1
102
RTVSPropertyOp6
 70
     1
102
RTVSPropertyOp7
 70
     1
102
RTVSPropertyOp8
 70
     1
102
RTVSPropertyOp9
 70
     1
102
RTVSPropertyOp10
 70
     1
102
RTVSPropertyOp11
 70
     1
102
RTVSPropertyOp12
 70
     1
102
RTVSPropertyOp13
 70
     1
102
RTVSPropertyOp14
 70
     1
102
RTVSPropertyOp15
 70
     1
102
RTVSPropertyOp16
 70
     1
102
RTVSPropertyOp17
 70
     1
102
RTVSPropertyOp18
 70
     1
102
RTVSPropertyOp19
 70
     1
102
RTVSPropertyOp20
 70
     1
102
RTVSPropertyOp21
 70
     1
102
RTVSPropertyOp22
 70
     1
102
RTVSPropertyOp23
 70
     1
102
RTVSPropertyOp24
 70
     1
102
RTVSPropertyOp25
 70
     1
102
RTVSPropertyOp26
 70
     1
102
RTVSPropertyOp27
 70
     1
102
RTVSPropertyOp28
 70
     1
102
RTVSPropertyOp29
 70
     1
102
RTVSPropertyOp30
 70
     1
102
RTVSPropertyOp31
 70
     1
102
RTVSPropertyOp32
 70
     1
  0
XRECORD
  5
1B3
102
{ACAD_REACTORS
330
1B2
102
}
330
1B2
100
AcDbXrecord
280
     1
102
RTVSPropertyOp0
 70
     1
102
RTVSPropertyOp1
 70
     1
102
RTVSPropertyOp2
 70
     1
102
RTVSPropertyOp3
 70
     1
102
RTVSPropertyOp4
 70
     1
102
RTVSPropertyOp5
 70
     1
102
RTVSPropertyOp6
 70
     1
102
RTVSPropertyOp7
 70
     1
102
RTVSPropertyOp8
 70
     1
102
RTVSPropertyOp9
 70
     1
102
RTVSPropertyOp10
 70
     1
102
RTVSPropertyOp11
 70
     1
102
RTVSPropertyOp12
 70
     1
102
RTVSPropertyOp13
 70
     1
102
RTVSPropertyOp14
 70
     1
102
RTVSPropertyOp15
 70
     1
102
RTVSPropertyOp16
 70
     1
102
RTVSPropertyOp17
 70
     1
102
RTVSPropertyOp18
 70
     1
102
RTVSPropertyOp19
 70
     1
102
RTVSPropertyOp20
 70
     1
102
RTVSPropertyOp21
 70
     1
102
RTVSPropertyOp22
 70
     1
102
RTVSPropertyOp23
 70
     1
102
RTVSPropertyOp24
 70
     1
102
RTVSPropertyOp25
 70
     1
102
RTVSPropertyOp26
 70
     1
102
RTVSPropertyOp27
 70
     1
102
RTVSPropertyOp28
 70
     1
102
RTVSPropertyOp29
 70
     1
102
RTVSPropertyOp30
 70
     1
102
RTVSPropertyOp31
 70
     1
102
RTVSPropertyOp32
 70
     1
  0
XRECORD
  5
1B5
102
{ACAD_REACTORS
330
1B4
102
}
330
1B4
100
AcDbXrecord
280
     1
102
RTVSPropertyOp0
 70
     1
102
RTVSPropertyOp1
 70
     1
102
RTVSPropertyOp2
 70
     1
102
RTVSPropertyOp3
 70
     1
102
RTVSPropertyOp4
 70
     1
102
RTVSPropertyOp5
 70
     1
102
RTVSPropertyOp6
 70
     1
102
RTVSPropertyOp7
 70
     1
102
RTVSPropertyOp8
 70
     1
102
RTVSPropertyOp9
 70
     1
102
RTVSPropertyOp10
 70
     1
102
RTVSPropertyOp11
 70
     1
102
RTVSPropertyOp12
 70
     1
102
RTVSPropertyOp13
 70
     1
102
RTVSPropertyOp14
 70
     1
102
RTVSPropertyOp15
 70
     1
102
RTVSPropertyOp16
 70
     1
102
RTVSPropertyOp17
 70
     1
102
RTVSPropertyOp18
 70
     1
102
RTVSPropertyOp19
 70
     1
102
RTVSPropertyOp20
 70
     1
102
RTVSPropertyOp21
 70
     1
102
RTVSPropertyOp22
 70
     1
102
RTVSPropertyOp23
 70
     1
102
RTVSPropertyOp24
 70
     1
102
RTVSPropertyOp25
 70
     1
102
RTVSPropertyOp26
 70
     1
102
RTVSPropertyOp27
 70
     1
102
RTVSPropertyOp28
 70
     1
102
RTVSPropertyOp29
 70
     1
102
RTVSPropertyOp30
 70
     1
102
RTVSPropertyOp31
 70
     1
102
RTVSPropertyOp32
 70
     1
  0
XRECORD
  5
1BD
102
{ACAD_REACTORS
330
1BC
102
}
330
1BC
100
AcDbXrecord
280
     1
102
RTVSPropertyOp0
 70
     1
102
RTVSPropertyOp1
 70
     1
102
RTVSPropertyOp2
 70
     1
102
RTVSPropertyOp3
 70
     1
102
RTVSPropertyOp4
 70
     1
102
RTVSPropertyOp5
 70
     1
102
RTVSPropertyOp6
 70
     1
102
RTVSPropertyOp7
 70
     1
102
RTVSPropertyOp8
 70
     1
102
RTVSPropertyOp9
 70
     1
102
RTVSPropertyOp10
 70
     1
102
RTVSPropertyOp11
 70
     1
102
RTVSPropertyOp12
 70
     1
102
RTVSPropertyOp13
 70
     1
102
RTVSPropertyOp14
 70
     1
102
RTVSPropertyOp15
 70
     1
102
RTVSPropertyOp16
 70
     1
102
RTVSPropertyOp17
 70
     1
102
RTVSPropertyOp18
 70
     1
102
RTVSPropertyOp19
 70
     1
102
RTVSPropertyOp20
 70
     1
102
RTVSPropertyOp21
 70
     1
102
RTVSPropertyOp22
 70
     1
102
RTVSPropertyOp23
 70
     1
102
RTVSPropertyOp24
 70
     1
102
RTVSPropertyOp25
 70
     1
102
RTVSPropertyOp26
 70
     1
102
RTVSPropertyOp27
 70
     1
102
RTVSPropertyOp28
 70
     1
102
RTVSPropertyOp29
 70
     1
102
RTVSPropertyOp30
 70
     1
102
RTVSPropertyOp31
 70
     1
102
RTVSPropertyOp32
 70
     1
  0
XRECORD
  5
1A1
102
{ACAD_REACTORS
330
1A0
102
}
330
1A0
100
AcDbXrecord
280
     1
102
RTVSPropertyOp0
 70
     1
102
RTVSPropertyOp1
 70
     1
102
RTVSPropertyOp2
 70
     1
102
RTVSPropertyOp3
 70
     1
102
RTVSPropertyOp4
 70
     1
102
RTVSPropertyOp5
 70
     1
102
RTVSPropertyOp6
 70
     1
102
RTVSPropertyOp7
 70
     1
102
RTVSPropertyOp8
 70
     1
102
RTVSPropertyOp9
 70
     1
102
RTVSPropertyOp10
 70
     1
102
RTVSPropertyOp11
 70
     1
102
RTVSPropertyOp12
 70
     1
102
RTVSPropertyOp13
 70
     1
102
RTVSPropertyOp14
 70
     1
102
RTVSPropertyOp15
 70
     1
102
RTVSPropertyOp16
 70
     1
102
RTVSPropertyOp17
 70
     1
102
RTVSPropertyOp18
 70
     1
102
RTVSPropertyOp19
 70
     1
102
RTVSPropertyOp20
 70
     1
102
RTVSPropertyOp21
 70
     1
102
RTVSPropertyOp22
 70
     1
102
RTVSPropertyOp23
 70
     1
102
RTVSPropertyOp24
 70
     1
102
RTVSPropertyOp25
 70
     1
102
RTVSPropertyOp26
 70
     1
102
RTVSPropertyOp27
 70
     1
102
RTVSPropertyOp28
 70
     1
102
RTVSPropertyOp29
 70
     1
102
RTVSPropertyOp30
 70
     1
102
RTVSPropertyOp31
 70
     1
102
RTVSPropertyOp32
 70
     1
  0
XRECORD
  5
1A3
102
{ACAD_REACTORS
330
1A2
102
}
330
1A2
100
AcDbXrecord
280
     1
102
RTVSPropertyOp0
 70
     1
102
RTVSPropertyOp1
 70
     1
102
RTVSPropertyOp2
 70
     1
102
RTVSPropertyOp3
 70
     1
102
RTVSPropertyOp4
 70
     1
102
RTVSPropertyOp5
 70
     1
102
RTVSPropertyOp6
 70
     1
102
RTVSPropertyOp7
 70
     1
102
RTVSPropertyOp8
 70
     1
102
RTVSPropertyOp9
 70
     1
102
RTVSPropertyOp10
 70
     1
102
RTVSPropertyOp11
 70
     1
102
RTVSPropertyOp12
 70
     1
102
RTVSPropertyOp13
 70
     1
102
RTVSPropertyOp14
 70
     1
102
RTVSPropertyOp15
 70
     1
102
RTVSPropertyOp16
 70
     1
102
RTVSPropertyOp17
 70
     1
102
RTVSPropertyOp18
 70
     1
102
RTVSPropertyOp19
 70
     1
102
RTVSPropertyOp20
 70
     1
102
RTVSPropertyOp21
 70
     1
102
RTVSPropertyOp22
 70
     1
102
RTVSPropertyOp23
 70
     1
102
RTVSPropertyOp24
 70
     1
102
RTVSPropertyOp25
 70
     1
102
RTVSPropertyOp26
 70
     1
102
RTVSPropertyOp27
 70
     1
102
RTVSPropertyOp28
 70
     1
102
RTVSPropertyOp29
 70
     1
102
RTVSPropertyOp30
 70
     1
102
RTVSPropertyOp31
 70
     1
102
RTVSPropertyOp32
 70
     1
  0
XRECORD
  5
1A5
102
{ACAD_REACTORS
330
1A4
102
}
330
1A4
100
AcDbXrecord
280
     1
102
RTVSPropertyOp0
 70
     1
102
RTVSPropertyOp1
 70
     1
102
RTVSPropertyOp2
 70
     1
102
RTVSPropertyOp3
 70
     1
102
RTVSPropertyOp4
 70
     1
102
RTVSPropertyOp5
 70
     1
102
RTVSPropertyOp6
 70
     1
102
RTVSPropertyOp7
 70
     1
102
RTVSPropertyOp8
 70
     1
102
RTVSPropertyOp9
 70
     1
102
RTVSPropertyOp10
 70
     1
102
RTVSPropertyOp11
 70
     1
102
RTVSPropertyOp12
 70
     1
102
RTVSPropertyOp13
 70
     1
102
RTVSPropertyOp14
 70
     1
102
RTVSPropertyOp15
 70
     1
102
RTVSPropertyOp16
 70
     1
102
RTVSPropertyOp17
 70
     1
102
RTVSPropertyOp18
 70
     1
102
RTVSPropertyOp19
 70
     1
102
RTVSPropertyOp20
 70
     1
102
RTVSPropertyOp21
 70
     1
102
RTVSPropertyOp22
 70
     1
102
RTVSPropertyOp23
 70
     1
102
RTVSPropertyOp24
 70
     1
102
RTVSPropertyOp25
 70
     1
102
RTVSPropertyOp26
 70
     1
102
RTVSPropertyOp27
 70
     1
102
RTVSPropertyOp28
 70
     1
102
RTVSPropertyOp29
 70
     1
102
RTVSPropertyOp30
 70
     1
102
RTVSPropertyOp31
 70
     1
102
RTVSPropertyOp32
 70
     1
  0
XRECORD
  5
1A7
102
{ACAD_REACTORS
330
1A6
102
}
330
1A6
100
AcDbXrecord
280
     1
102
RTVSPropertyOp0
 70
     1
102
RTVSPropertyOp1
 70
     1
102
RTVSPropertyOp2
 70
     1
102
RTVSPropertyOp3
 70
     1
102
RTVSPropertyOp4
 70
     1
102
RTVSPropertyOp5
 70
     1
102
RTVSPropertyOp6
 70
     1
102
RTVSPropertyOp7
 70
     1
102
RTVSPropertyOp8
 70
     1
102
RTVSPropertyOp9
 70
     1
102
RTVSPropertyOp10
 70
     1
102
RTVSPropertyOp11
 70
     1
102
RTVSPropertyOp12
 70
     1
102
RTVSPropertyOp13
 70
     1
102
RTVSPropertyOp14
 70
     1
102
RTVSPropertyOp15
 70
     1
102
RTVSPropertyOp16
 70
     1
102
RTVSPropertyOp17
 70
     1
102
RTVSPropertyOp18
 70
     1
102
RTVSPropertyOp19
 70
     1
102
RTVSPropertyOp20
 70
     1
102
RTVSPropertyOp21
 70
     1
102
RTVSPropertyOp22
 70
     1
102
RTVSPropertyOp23
 70
     1
102
RTVSPropertyOp24
 70
     1
102
RTVSPropertyOp25
 70
     1
102
RTVSPropertyOp26
 70
     1
102
RTVSPropertyOp27
 70
     1
102
RTVSPropertyOp28
 70
     1
102
RTVSPropertyOp29
 70
     1
102
RTVSPropertyOp30
 70
     1
102
RTVSPropertyOp31
 70
     1
102
RTVSPropertyOp32
 70
     1
  0
XRECORD
  5
1BB
102
{ACAD_REACTORS
330
1BA
102
}
330
1BA
100
AcDbXrecord
280
     1
102
RTVSPropertyOp0
 70
     1
102
RTVSPropertyOp1
 70
     1
102
RTVSPropertyOp2
 70
     1
102
RTVSPropertyOp3
 70
     1
102
RTVSPropertyOp4
 70
     1
102
RTVSPropertyOp5
 70
     1
102
RTVSPropertyOp6
 70
     1
102
RTVSPropertyOp7
 70
     1
102
RTVSPropertyOp8
 70
     1
102
RTVSPropertyOp9
 70
     1
102
RTVSPropertyOp10
 70
     1
102
RTVSPropertyOp11
 70
     1
102
RTVSPropertyOp12
 70
     1
102
RTVSPropertyOp13
 70
     1
102
RTVSPropertyOp14
 70
     1
102
RTVSPropertyOp15
 70
     1
102
RTVSPropertyOp16
 70
     1
102
RTVSPropertyOp17
 70
     1
102
RTVSPropertyOp18
 70
     1
102
RTVSPropertyOp19
 70
     1
102
RTVSPropertyOp20
 70
     1
102
RTVSPropertyOp21
 70
     1
102
RTVSPropertyOp22
 70
     1
102
RTVSPropertyOp23
 70
     1
102
RTVSPropertyOp24
 70
     1
102
RTVSPropertyOp25
 70
     1
102
RTVSPropertyOp26
 70
     1
102
RTVSPropertyOp27
 70
     1
102
RTVSPropertyOp28
 70
     1
102
RTVSPropertyOp29
 70
     1
102
RTVSPropertyOp30
 70
     1
102
RTVSPropertyOp31
 70
     1
102
RTVSPropertyOp32
 70
     1
  0
XRECORD
  5
1B1
102
{ACAD_REACTORS
330
1B0
102
}
330
1B0
100
AcDbXrecord
280
     1
102
RTVSPropertyOp0
 70
     1
102
RTVSPropertyOp1
 70
     1
102
RTVSPropertyOp2
 70
     1
102
RTVSPropertyOp3
 70
     1
102
RTVSPropertyOp4
 70
     1
102
RTVSPropertyOp5
 70
     1
102
RTVSPropertyOp6
 70
     1
102
RTVSPropertyOp7
 70
     1
102
RTVSPropertyOp8
 70
     1
102
RTVSPropertyOp9
 70
     1
102
RTVSPropertyOp10
 70
     1
102
RTVSPropertyOp11
 70
     1
102
RTVSPropertyOp12
 70
     1
102
RTVSPropertyOp13
 70
     1
102
RTVSPropertyOp14
 70
     1
102
RTVSPropertyOp15
 70
     1
102
RTVSPropertyOp16
 70
     1
102
RTVSPropertyOp17
 70
     1
102
RTVSPropertyOp18
 70
     1
102
RTVSPropertyOp19
 70
     1
102
RTVSPropertyOp20
 70
     1
102
RTVSPropertyOp21
 70
     1
102
RTVSPropertyOp22
 70
     1
102
RTVSPropertyOp23
 70
     1
102
RTVSPropertyOp24
 70
     1
102
RTVSPropertyOp25
 70
     1
102
RTVSPropertyOp26
 70
     1
102
RTVSPropertyOp27
 70
     1
102
RTVSPropertyOp28
 70
     1
102
RTVSPropertyOp29
 70
     1
102
RTVSPropertyOp30
 70
     1
102
RTVSPropertyOp31
 70
     1
102
RTVSPropertyOp32
 70
     1
  0
XRECORD
  5
1B9
102
{ACAD_REACTORS
330
1B8
102
}
330
1B8
100
AcDbXrecord
280
     1
102
RTVSPropertyOp0
 70
     1
102
RTVSPropertyOp1
 70
     1
102
RTVSPropertyOp2
 70
     1
102
RTVSPropertyOp3
 70
     1
102
RTVSPropertyOp4
 70
     1
102
RTVSPropertyOp5
 70
     1
102
RTVSPropertyOp6
 70
     1
102
RTVSPropertyOp7
 70
     1
102
RTVSPropertyOp8
 70
     1
102
RTVSPropertyOp9
 70
     1
102
RTVSPropertyOp10
 70
     1
102
RTVSPropertyOp11
 70
     1
102
RTVSPropertyOp12
 70
     1
102
RTVSPropertyOp13
 70
     1
102
RTVSPropertyOp14
 70
     1
102
RTVSPropertyOp15
 70
     1
102
RTVSPropertyOp16
 70
     1
102
RTVSPropertyOp17
 70
     1
102
RTVSPropertyOp18
 70
     1
102
RTVSPropertyOp19
 70
     1
102
RTVSPropertyOp20
 70
     1
102
RTVSPropertyOp21
 70
     1
102
RTVSPropertyOp22
 70
     1
102
RTVSPropertyOp23
 70
     1
102
RTVSPropertyOp24
 70
     1
102
RTVSPropertyOp25
 70
     1
102
RTVSPropertyOp26
 70
     1
102
RTVSPropertyOp27
 70
     1
102
RTVSPropertyOp28
 70
     1
102
RTVSPropertyOp29
 70
     1
102
RTVSPropertyOp30
 70
     1
102
RTVSPropertyOp31
 70
     1
102
RTVSPropertyOp32
 70
     1
  0
ENDSEC
  0
EOF
