  0
SECTION
  2
HEADER
  9
$ACADVER
  1
AC1015
  9
$ACADMAINTVER
 70
     6
  9
$DWGCODEPAGE
  3
DOS932
  9
$INSBASE
 10
0.0
 20
0.0
 30
0.0
  9
$EXTMIN
 10
0.0
 20
0.0
 30
0.0
  9
$EXTMAX
 10
315.0
 20
445.5
 30
0.0
  9
$LIMMIN
 10
0.0
 20
0.0
  9
$LIMMAX
 10
12.0
 20
9.0
  9
$ORTHOMODE
 70
     0
  9
$REGENMODE
 70
     1
  9
$FILLMODE
 70
     1
  9
$QTEXTMODE
 70
     0
  9
$MIRRTEXT
 70
     1
  9
$LTSCALE
 40
1.0
  9
$ATTMODE
 70
     1
  9
$TEXTSIZE
 40
0.2
  9
$TRACEWID
 40
0.05
  9
$TEXTSTYLE
  7
Standard
  9
$CLAYER
  8
0
  9
$CELTYPE
  6
ByLayer
  9
$CECOLOR
 62
   256
  9
$CELTSCALE
 40
1.0
  9
$DISPSILH
 70
     0
  9
$DIMSCALE
 40
1.0
  9
$DIMASZ
 40
0.18
  9
$DIMEXO
 40
0.0625
  9
$DIMDLI
 40
0.38
  9
$DIMRND
 40
0.0
  9
$DIMDLE
 40
0.0
  9
$DIMEXE
 40
0.18
  9
$DIMTP
 40
0.0
  9
$DIMTM
 40
0.0
  9
$DIMTXT
 40
0.18
  9
$DIMCEN
 40
0.09
  9
$DIMTSZ
 40
0.0
  9
$DIMTOL
 70
     0
  9
$DIMLIM
 70
     0
  9
$DIMTIH
 70
     1
  9
$DIMTOH
 70
     1
  9
$DIMSE1
 70
     0
  9
$DIMSE2
 70
     0
  9
$DIMTAD
 70
     0
  9
$DIMZIN
 70
     0
  9
$DIMBLK
  1

  9
$DIMASO
 70
     1
  9
$DIMSHO
 70
     1
  9
$DIMPOST
  1

  9
$DIMAPOST
  1

  9
$DIMALT
 70
     0
  9
$DIMALTD
 70
     2
  9
$DIMALTF
 40
25.4
  9
$DIMLFAC
 40
1.0
  9
$DIMTOFL
 70
     0
  9
$DIMTVP
 40
0.0
  9
$DIMTIX
 70
     0
  9
$DIMSOXD
 70
     0
  9
$DIMSAH
 70
     0
  9
$DIMBLK1
  1

  9
$DIMBLK2
  1

  9
$DIMSTYLE
  2
Standard
  9
$DIMCLRD
 70
     0
  9
$DIMCLRE
 70
     0
  9
$DIMCLRT
 70
     0
  9
$DIMTFAC
 40
1.0
  9
$DIMGAP
 40
0.09
  9
$DIMJUST
 70
     0
  9
$DIMSD1
 70
     0
  9
$DIMSD2
 70
     0
  9
$DIMTOLJ
 70
     1
  9
$DIMTZIN
 70
     0
  9
$DIMALTZ
 70
     0
  9
$DIMALTTZ
 70
     0
  9
$DIMUPT
 70
     0
  9
$DIMDEC
 70
     4
  9
$DIMTDEC
 70
     4
  9
$DIMALTU
 70
     2
  9
$DIMALTTD
 70
     2
  9
$DIMTXSTY
  7
Standard
  9
$DIMAUNIT
 70
     0
  9
$DIMADEC
 70
     0
  9
$DIMALTRND
 40
0.0
  9
$DIMAZIN
 70
     0
  9
$DIMDSEP
 70
    46
  9
$DIMATFIT
 70
     3
  9
$DIMFRAC
 70
     0
  9
$DIMLDRBLK
  1

  9
$DIMLUNIT
 70
     2
  9
$DIMLWD
 70
    -2
  9
$DIMLWE
 70
    -2
  9
$DIMTMOVE
 70
     0
  9
$LUNITS
 70
     2
  9
$LUPREC
 70
     4
  9
$SKETCHINC
 40
0.1
  9
$FILLETRAD
 40
0.5
  9
$AUNITS
 70
     0
  9
$AUPREC
 70
     0
  9
$MENU
  1
.
  9
$ELEVATION
 40
0.0
  9
$PELEVATION
 40
0.0
  9
$THICKNESS
 40
0.0
  9
$LIMCHECK
 70
     0
  9
$CHAMFERA
 40
0.5
  9
$CHAMFERB
 40
0.5
  9
$CHAMFERC
 40
1.0
  9
$CHAMFERD
 40
0.0
  9
$SKPOLY
 70
     0
  9
$TDCREATE
 40
2456143.580245764
  9
$TDUCREATE
 40
2456143.205245764
  9
$TDUPDATE
 40
2456143.580245776
  9
$TDUUPDATE
 40
2456143.205245776
  9
$TDINDWG
 40
0.0000000116
  9
$TDUSRTIMER
 40
0.0000000116
  9
$USRTIMER
 70
     1
  9
$ANGBASE
 50
0.0
  9
$ANGDIR
 70
     0
  9
$PDMODE
 70
     0
  9
$PDSIZE
 40
0.0
  9
$PLINEWID
 40
0.0
  9
$SPLFRAME
 70
     0
  9
$SPLINETYPE
 70
     6
  9
$SPLINESEGS
 70
     8
  9
$HANDSEED
  5
20B
  9
$SURFTAB1
 70
     6
  9
$SURFTAB2
 70
     6
  9
$SURFTYPE
 70
     6
  9
$SURFU
 70
     6
  9
$SURFV
 70
     6
  9
$UCSBASE
  2

  9
$UCSNAME
  2

  9
$UCSORG
 10
0.0
 20
0.0
 30
0.0
  9
$UCSXDIR
 10
1.0
 20
0.0
 30
0.0
  9
$UCSYDIR
 10
0.0
 20
1.0
 30
0.0
  9
$UCSORTHOREF
  2

  9
$UCSORTHOVIEW
 70
     0
  9
$UCSORGTOP
 10
0.0
 20
0.0
 30
0.0
  9
$UCSORGBOTTOM
 10
0.0
 20
0.0
 30
0.0
  9
$UCSORGLEFT
 10
0.0
 20
0.0
 30
0.0
  9
$UCSORGRIGHT
 10
0.0
 20
0.0
 30
0.0
  9
$UCSORGFRONT
 10
0.0
 20
0.0
 30
0.0
  9
$UCSORGBACK
 10
0.0
 20
0.0
 30
0.0
  9
$PUCSBASE
  2

  9
$PUCSNAME
  2

  9
$PUCSORG
 10
0.0
 20
0.0
 30
0.0
  9
$PUCSXDIR
 10
1.0
 20
0.0
 30
0.0
  9
$PUCSYDIR
 10
0.0
 20
1.0
 30
0.0
  9
$PUCSORTHOREF
  2

  9
$PUCSORTHOVIEW
 70
     0
  9
$PUCSORGTOP
 10
0.0
 20
0.0
 30
0.0
  9
$PUCSORGBOTTOM
 10
0.0
 20
0.0
 30
0.0
  9
$PUCSORGLEFT
 10
0.0
 20
0.0
 30
0.0
  9
$PUCSORGRIGHT
 10
0.0
 20
0.0
 30
0.0
  9
$PUCSORGFRONT
 10
0.0
 20
0.0
 30
0.0
  9
$PUCSORGBACK
 10
0.0
 20
0.0
 30
0.0
  9
$USERI1
 70
     0
  9
$USERI2
 70
     0
  9
$USERI3
 70
     0
  9
$USERI4
 70
     0
  9
$USERI5
 70
     0
  9
$USERR1
 40
13.2
  9
$USERR2
 40
0.0
  9
$USERR3
 40
0.0
  9
$USERR4
 40
0.0
  9
$USERR5
 40
0.0
  9
$WORLDVIEW
 70
     1
  9
$SHADEDGE
 70
     3
  9
$SHADEDIF
 70
    70
  9
$TILEMODE
 70
     1
  9
$MAXACTVP
 70
    64
  9
$PINSBASE
 10
0.0
 20
0.0
 30
0.0
  9
$PLIMCHECK
 70
     0
  9
$PEXTMIN
 10
1.00000000000000E+20
 20
1.00000000000000E+20
 30
1.00000000000000E+20
  9
$PEXTMAX
 10
-1.00000000000000E+20
 20
-1.00000000000000E+20
 30
-1.00000000000000E+20
  9
$PLIMMIN
 10
0.0
 20
0.0
  9
$PLIMMAX
 10
12.0
 20
9.0
  9
$UNITMODE
 70
     0
  9
$VISRETAIN
 70
     1
  9
$PLINEGEN
 70
     0
  9
$PSLTSCALE
 70
     1
  9
$TREEDEPTH
 70
  3020
  9
$CMLSTYLE
  2
Standard
  9
$CMLJUST
 70
     0
  9
$CMLSCALE
 40
1.0
  9
$PROXYGRAPHICS
 70
     1
  9
$MEASUREMENT
 70
     1
  9
$CELWEIGHT
370
    -1
  9
$ENDCAPS
280
     0
  9
$JOINSTYLE
280
     0
  9
$LWDISPLAY
290
     0
  9
$INSUNITS
 70
     1
  9
$HYPERLINKBASE
  1

  9
$STYLESHEET
  1

  9
$XEDIT
290
     1
  9
$CEPSNTYPE
380
     0
  9
$PSTYLEMODE
290
     0
  9
$FINGERPRINTGUID
  2
{FAEB1C30-E019-11D5-929B-00C0DF256EC4}
  9
$VERSIONGUID
  2
{FAEB1C32-E019-11D5-929B-00C0DF256EC4}
  9
$EXTNAMES
290
     1
  9
$PSVPSCALE
 40
0.0
  9
$OLESTARTUP
290
     0
  0
ENDSEC
  0
SECTION
  2
CLASSES
  0
CLASS
  1
ACDBDICTIONARYWDFLT
  2
AcDbDictionaryWithDefault
  3
ObjectDBX Classes
 90
        0
280
     0
281
     0
  0
CLASS
  1
TABLESTYLE
  2
AcDbTableStyle
  3
ObjectDBX Classes
 90
     2047
280
     0
281
     0
  0
CLASS
  1
DICTIONARYVAR
  2
AcDbDictionaryVar
  3
ObjectDBX Classes
 90
        0
280
     0
281
     0
  0
CLASS
  1

  2
exOdDbCircle
  3

 90
        0
280
     0
281
     1
  0
CLASS
  1

  2
exOdDbSpline
  3

 90
        0
280
     0
281
     1
  0
CLASS
  1
ACDBPLACEHOLDER
  2
AcDbPlaceHolder
  3
ObjectDBX Classes
 90
        0
280
     0
281
     0
  0
CLASS
  1
LAYOUT
  2
AcDbLayout
  3
ObjectDBX Classes
 90
        0
280
     0
281
     0
  0
ENDSEC
  0
SECTION
  2
TABLES
  0
TABLE
  2
VPORT
  5
8
330
0
100
AcDbSymbolTable
 70
     2
  0
VPORT
  5
29
330
8
100
AcDbSymbolTableRecord
100
AcDbViewportTableRecord
  2
*Active
 70
     0
 10
0.0
 20
0.0
 11
1.0
 21
1.0
 12
157.5
 22
222.75
 13
0.0
 23
0.0
 14
0.5
 24
0.5
 15
0.5
 25
0.5
 16
0.0
 26
0.0
 36
1.0
 17
0.0
 27
0.0
 37
0.0
 40
490.05
 41
1.60267857142857
 42
50.0
 43
0.0
 44
0.0
 50
0.0
 51
0.0
 71
     0
 72
   100
 73
     1
 74
     3
 75
     0
 76
     0
 77
     0
 78
     0
281
     0
 65
     1
110
0.0
120
0.0
130
0.0
111
1.0
121
0.0
131
0.0
112
0.0
122
1.0
132
0.0
 79
     0
146
0.0
  0
ENDTAB
  0
TABLE
  2
LTYPE
  5
5
330
0
100
AcDbSymbolTable
 70
     8
  0
LTYPE
  5
14
330
5
100
AcDbSymbolTableRecord
100
AcDbLinetypeTableRecord
  2
ByBlock
 70
     0
  3

 72
    65
 73
     0
 40
0.0
  0
LTYPE
  5
15
330
5
100
AcDbSymbolTableRecord
100
AcDbLinetypeTableRecord
  2
ByLayer
 70
     0
  3

 72
    65
 73
     0
 40
0.0
  0
LTYPE
  5
16
330
5
100
AcDbSymbolTableRecord
100
AcDbLinetypeTableRecord
  2
Continuous
 70
     0
  3
Solid line
 72
    65
 73
     0
 40
0.0
  0
LTYPE
  5
2E
330
5
100
AcDbSymbolTableRecord
100
AcDbLinetypeTableRecord
  2
DASHED
 70
     0
  3
Dashed
 72
    65
 73
     2
 40
15.0
 49
7.0
 74
     0
 49
-8.0
 74
     0
  0
LTYPE
  5
2F
330
5
100
AcDbSymbolTableRecord
100
AcDbLinetypeTableRecord
  2
DOTTED
 70
     0
  3
Dotted
 72
    65
 73
     2
 40
1.0
 49
0.0
 74
     0
 49
-1.0
 74
     0
  0
LTYPE
  5
30
330
5
100
AcDbSymbolTableRecord
100
AcDbLinetypeTableRecord
  2
DOT_CENTER
 70
     0
  3
Dot_Center
 72
    65
 73
     4
 40
14.0
 49
12.0
 74
     0
 49
-1.0
 74
     0
 49
0.0
 74
     0
 49
-1.0
 74
     0
  0
LTYPE
  5
31
330
5
100
AcDbSymbolTableRecord
100
AcDbLinetypeTableRecord
  2
LONG_DASHED
 70
     0
  3
Long_Dashed
 72
    65
 73
     2
 40
15.0
 49
10.0
 74
     0
 49
-5.0
 74
     0
  0
LTYPE
  5
32
330
5
100
AcDbSymbolTableRecord
100
AcDbLinetypeTableRecord
  2
DASH_CENTER
 70
     0
  3
Dash_Center
 72
    65
 73
     4
 40
14.0
 49
11.0
 74
     0
 49
-1.0
 74
     0
 49
1.0
 74
     0
 49
-1.0
 74
     0
  0
LTYPE
  5
33
330
5
100
AcDbSymbolTableRecord
100
AcDbLinetypeTableRecord
  2
PHANTOM
 70
     0
  3
Phantom
 72
    65
 73
     6
 40
13.0
 49
10.0
 74
     0
 49
-1.0
 74
     0
 49
0.0
 74
     0
 49
-1.0
 74
     0
 49
0.0
 74
     0
 49
-1.0
 74
     0
  0
LTYPE
  5
34
330
5
100
AcDbSymbolTableRecord
100
AcDbLinetypeTableRecord
  2
CENTER_DASH_DASH
 70
     0
  3
Center_Dash_Dash
 72
    65
 73
     6
 40
14.0
 49
9.0
 74
     0
 49
-1.0
 74
     0
 49
1.0
 74
     0
 49
-1.0
 74
     0
 49
1.0
 74
     0
 49
-1.0
 74
     0
  0
ENDTAB
  0
TABLE
  2
LAYER
  5
2
330
0
100
AcDbSymbolTable
 70
     2
  0
LAYER
  5
10
330
2
100
AcDbSymbolTableRecord
100
AcDbLayerTableRecord
  2
0
 70
     0
 62
     7
  6
Continuous
370
    -3
390
F
  0
LAYER
  5
35
330
2
100
AcDbSymbolTableRecord
100
AcDbLayerTableRecord
  2
1
 70
     0
 62
     7
  6
Continuous
370
    -3
390
F
  0
ENDTAB
  0
TABLE
  2
STYLE
  5
3
330
0
100
AcDbSymbolTable
 70
     3
  0
STYLE
  5
11
330
3
100
AcDbSymbolTableRecord
100
AcDbTextStyleTableRecord
  2
Standard
 70
     0
 40
0.0
 41
1.0
 50
0.0
 71
     0
 42
0.2
  3
txt
  4

  0
STYLE
  5
A5
330
3
100
AcDbSymbolTableRecord
100
AcDbTextStyleTableRecord
  2
CONVERTER_1
 70
     0
 40
0.0
 41
0.89
 50
0.0
 71
     0
 42
0.2
  3
msmincho.ttc
  4

1001
ACAD
1000
MS Mincho
1071
    32785
  0
STYLE
  5
1BF
330
3
100
AcDbSymbolTableRecord
100
AcDbTextStyleTableRecord
  2
CONVERTER_2
 70
     0
 40
0.0
 41
0.9
 50
0.0
 71
     0
 42
0.2
  3
txt.shx
  4

  0
ENDTAB
  0
TABLE
  2
VIEW
  5
6
330
0
100
AcDbSymbolTable
 70
     0
  0
ENDTAB
  0
TABLE
  2
UCS
  5
7
330
0
100
AcDbSymbolTable
 70
     0
  0
ENDTAB
  0
TABLE
  2
APPID
  5
9
330
0
100
AcDbSymbolTable
 70
     1
  0
APPID
  5
12
330
9
100
AcDbSymbolTableRecord
100
AcDbRegAppTableRecord
  2
ACAD
 70
     0
  0
ENDTAB
  0
TABLE
  2
DIMSTYLE
  5
A
330
0
100
AcDbSymbolTable
 70
     7
100
AcDbDimStyleTable
  0
DIMSTYLE
105
27
330
A
100
AcDbSymbolTableRecord
100
AcDbDimStyleTableRecord
  2
Standard
 70
     0
340
11
  0
DIMSTYLE
105
1CF
102
{ACAD_REACTORS
330
1D0
102
}
330
A
100
AcDbSymbolTableRecord
100
AcDbDimStyleTableRecord
  2
ME10_DIM_0
 70
     0
 41
5.25
 42
0.0
 44
1.5
 73
     0
 74
     0
 77
     1
 78
     8
140
5.25
147
0.625
172
     1
173
     1
176
     2
177
     2
178
     7
271
     2
340
1BF
  0
DIMSTYLE
105
1DA
102
{ACAD_REACTORS
330
1DB
102
}
330
A
100
AcDbSymbolTableRecord
100
AcDbDimStyleTableRecord
  2
ME10_DIM_1
 70
     0
 41
5.25
 42
0.0
 44
1.5
 73
     0
 74
     0
 77
     1
 78
     8
140
5.25
147
0.625
172
     1
173
     1
176
     2
177
     2
178
     7
271
     2
340
1BF
  0
DIMSTYLE
105
1E8
102
{ACAD_REACTORS
330
1E9
102
}
330
A
100
AcDbSymbolTableRecord
100
AcDbDimStyleTableRecord
  2
ME10_DIM_2
 70
     0
 41
5.25
 42
0.0
 44
1.5
 73
     0
 74
     0
 77
     1
 78
     8
140
5.25
147
0.625
172
     1
173
     1
176
     2
177
     2
178
     7
271
     2
340
1BF
343
1E5
  0
DIMSTYLE
105
1F3
102
{ACAD_REACTORS
330
1F4
102
}
330
A
100
AcDbSymbolTableRecord
100
AcDbDimStyleTableRecord
  2
ME10_DIM_3
 70
     0
 41
5.25
 42
0.0
 44
1.5
 73
     0
 74
     0
 77
     1
 78
     8
140
5.25
147
0.625
172
     1
173
     1
176
     2
177
     2
178
     7
271
     2
340
1BF
  0
DIMSTYLE
105
1FE
102
{ACAD_REACTORS
330
1FF
102
}
330
A
100
AcDbSymbolTableRecord
100
AcDbDimStyleTableRecord
  2
ME10_DIM_4
 70
     0
  3
{\Fgdt;n}<>
 41
5.25
 42
0.0
 44
1.5
 73
     0
 74
     0
 77
     1
 78
     8
140
5.25
147
0.625
172
     1
173
     1
176
     2
177
     2
178
     7
271
     2
340
1BF
  0
DIMSTYLE
105
209
102
{ACAD_REACTORS
330
20A
102
}
330
A
100
AcDbSymbolTableRecord
100
AcDbDimStyleTableRecord
  2
ME10_DIM_5
 70
     0
 41
5.25
 42
0.0
 44
1.5
 73
     0
 74
     0
 77
     1
 78
     8
140
5.25
147
0.625
172
     1
173
     1
176
     2
177
     2
178
     7
271
     2
340
A5
  0
ENDTAB
  0
TABLE
  2
BLOCK_RECORD
  5
1
330
0
100
AcDbSymbolTable
 70
    17
  0
BLOCK_RECORD
  5
1F
330
1
100
AcDbSymbolTableRecord
100
AcDbBlockTableRecord
  2
*Model_Space
340
22
  0
BLOCK_RECORD
  5
1B
330
1
100
AcDbSymbolTableRecord
100
AcDbBlockTableRecord
  2
*Paper_Space
340
1E
  0
BLOCK_RECORD
  5
23
330
1
100
AcDbSymbolTableRecord
100
AcDbBlockTableRecord
  2
*Paper_Space0
340
26
  0
BLOCK_RECORD
  5
36
330
1
100
AcDbSymbolTableRecord
100
AcDbBlockTableRecord
  2
_J__A4
340
0
102
{BLKREFS
331
56
102
}
  0
BLOCK_RECORD
  5
39
330
1
100
AcDbSymbolTableRecord
100
AcDbBlockTableRecord
  2
Y10-0-13
340
0
102
{BLKREFS
331
57
102
}
  0
BLOCK_RECORD
  5
3C
330
1
100
AcDbSymbolTableRecord
100
AcDbBlockTableRecord
  2
21-1A
340
0
102
{BLKREFS
331
43
102
}
  0
BLOCK_RECORD
  5
3F
330
1
100
AcDbSymbolTableRecord
100
AcDbBlockTableRecord
  2
37-1-13
340
0
102
{BLKREFS
331
44
102
}
  0
BLOCK_RECORD
  5
42
330
1
100
AcDbSymbolTableRecord
100
AcDbBlockTableRecord
  2
R10A-13__1
340
0
102
{BLKREFS
331
58
102
}
  0
BLOCK_RECORD
  5
47
330
1
100
AcDbSymbolTableRecord
100
AcDbBlockTableRecord
  2
42-1
340
0
102
{BLKREFS
331
51
102
}
  0
BLOCK_RECORD
  5
4A
330
1
100
AcDbSymbolTableRecord
100
AcDbBlockTableRecord
  2
R20F
340
0
102
{BLKREFS
331
52
102
}
  0
BLOCK_RECORD
  5
4D
330
1
100
AcDbSymbolTableRecord
100
AcDbBlockTableRecord
  2
36-1A-13-M4
340
0
102
{BLKREFS
331
53
102
}
  0
BLOCK_RECORD
  5
50
330
1
100
AcDbSymbolTableRecord
100
AcDbBlockTableRecord
  2
R10A-13__2
340
0
102
{BLKREFS
331
59
102
}
  0
BLOCK_RECORD
  5
1C6
330
1
100
AcDbSymbolTableRecord
100
AcDbBlockTableRecord
  2
*D010
340
0
  0
BLOCK_RECORD
  5
1D1
330
1
100
AcDbSymbolTableRecord
100
AcDbBlockTableRecord
  2
*D111
340
0
  0
BLOCK_RECORD
  5
1DC
330
1
100
AcDbSymbolTableRecord
100
AcDbBlockTableRecord
  2
*D212
340
0
  0
BLOCK_RECORD
  5
1E5
330
1
100
AcDbSymbolTableRecord
100
AcDbBlockTableRecord
  2
_None
340
0
  0
BLOCK_RECORD
  5
1EA
330
1
100
AcDbSymbolTableRecord
100
AcDbBlockTableRecord
  2
*D314
340
0
  0
BLOCK_RECORD
  5
1F5
330
1
100
AcDbSymbolTableRecord
100
AcDbBlockTableRecord
  2
*D415
340
0
  0
BLOCK_RECORD
  5
200
330
1
100
AcDbSymbolTableRecord
100
AcDbBlockTableRecord
  2
*D516
340
0
  0
ENDTAB
  0
ENDSEC
  0
SECTION
  2
BLOCKS
  0
BLOCK
  5
20
330
1F
100
AcDbEntity
  8
0
100
AcDbBlockBegin
  2
*Model_Space
 70
     0
 71
     0
 10
0.0
 20
0.0
 30
0.0
  3
*Model_Space
  1

  0
ENDBLK
  5
21
330
1F
100
AcDbEntity
  8
0
100
AcDbBlockEnd
  0
BLOCK
  5
1C
330
1B
100
AcDbEntity
 67
     1
  8
0
100
AcDbBlockBegin
  2
*Paper_Space
 70
     0
 71
     0
 10
0.0
 20
0.0
 30
0.0
  3
*Paper_Space
  1

  0
ENDBLK
  5
1D
330
1B
100
AcDbEntity
 67
     1
  8
0
100
AcDbBlockEnd
  0
BLOCK
  5
24
330
23
100
AcDbEntity
  8
0
100
AcDbBlockBegin
  2
*Paper_Space0
 70
     0
 71
     0
 10
0.0
 20
0.0
 30
0.0
  3
*Paper_Space0
  1

  0
ENDBLK
  5
25
330
23
100
AcDbEntity
  8
0
100
AcDbBlockEnd
  0
BLOCK
  5
37
330
36
100
AcDbEntity
  8
0
100
AcDbBlockBegin
  2
_J__A4
 70
     0
 71
     0
 10
0.0
 20
0.0
 30
0.0
  3
_J__A4
  1

  0
POINT
  5
5A
330
36
100
AcDbEntity
  8
1
 62
     4
100
AcDbPoint
 10
34.0
 20
34.00000000000001
 30
0.0
  0
POINT
  5
5B
330
36
100
AcDbEntity
  8
1
 62
     4
100
AcDbPoint
 10
57.0
 20
12.25
 30
0.0
  0
POINT
  5
5C
330
36
100
AcDbEntity
  8
1
 62
     4
100
AcDbPoint
 10
57.0
 20
20.75000000000001
 30
0.0
  0
POINT
  5
5D
330
36
100
AcDbEntity
  8
1
 62
     4
100
AcDbPoint
 10
57.0
 20
24.75000000000001
 30
0.0
  0
POINT
  5
5E
330
36
100
AcDbEntity
  8
1
 62
     4
100
AcDbPoint
 10
57.0
 20
16.25
 30
0.0
  0
POINT
  5
5F
330
36
100
AcDbEntity
  8
1
 62
     4
100
AcDbPoint
 10
157.5
 20
19.00000000000001
 30
0.0
  0
POINT
  5
60
330
36
100
AcDbEntity
  8
1
 62
     4
100
AcDbPoint
 10
47.5
 20
282.0000000000003
 30
0.0
  0
POINT
  5
61
330
36
100
AcDbEntity
  8
1
 62
     4
100
AcDbPoint
 10
57.0
 20
22.75000000000001
 30
0.0
  0
POINT
  5
62
330
36
100
AcDbEntity
  8
1
 62
     4
100
AcDbPoint
 10
57.0
 20
14.25
 30
0.0
  0
POINT
  5
63
330
36
100
AcDbEntity
  8
1
 62
     4
100
AcDbPoint
 10
157.5
 20
12.5
 30
0.0
  0
POINT
  5
64
330
36
100
AcDbEntity
  8
1
 62
     4
100
AcDbPoint
 10
163.25
 20
12.5
 30
0.0
  0
POINT
  5
65
330
36
100
AcDbEntity
  8
1
 62
     4
100
AcDbPoint
 10
151.75
 20
12.5
 30
0.0
  0
POINT
  5
66
330
36
100
AcDbEntity
  8
1
 62
     4
100
AcDbPoint
 10
134.75
 20
12.5
 30
0.0
  0
POINT
  5
67
330
36
100
AcDbEntity
  8
1
 62
     4
100
AcDbPoint
 10
146.25
 20
12.5
 30
0.0
  0
POINT
  5
68
330
36
100
AcDbEntity
  8
1
 62
     4
100
AcDbPoint
 10
140.5
 20
12.5
 30
0.0
  0
POINT
  5
69
330
36
100
AcDbEntity
  8
1
 62
     4
100
AcDbPoint
 10
140.5
 20
19.00000000000001
 30
0.0
  0
POINT
  5
6A
330
36
100
AcDbEntity
  8
1
 62
     4
100
AcDbPoint
 10
117.75
 20
12.5
 30
0.0
  0
POINT
  5
6B
330
36
100
AcDbEntity
  8
1
 62
     4
100
AcDbPoint
 10
129.25
 20
12.5
 30
0.0
  0
POINT
  5
6C
330
36
100
AcDbEntity
  8
1
 62
     4
100
AcDbPoint
 10
123.5
 20
12.5
 30
0.0
  0
POINT
  5
6D
330
36
100
AcDbEntity
  8
1
 62
     4
100
AcDbPoint
 10
123.5
 20
19.00000000000001
 30
0.0
  0
POINT
  5
6E
330
36
100
AcDbEntity
  8
1
 62
     4
100
AcDbPoint
 10
100.75
 20
12.5
 30
0.0
  0
POINT
  5
6F
330
36
100
AcDbEntity
  8
1
 62
     4
100
AcDbPoint
 10
112.25
 20
12.5
 30
0.0
  0
POINT
  5
70
330
36
100
AcDbEntity
  8
1
 62
     4
100
AcDbPoint
 10
106.5
 20
12.5
 30
0.0
  0
POINT
  5
71
330
36
100
AcDbEntity
  8
1
 62
     4
100
AcDbPoint
 10
106.5
 20
19.00000000000001
 30
0.0
  0
POINT
  5
72
330
36
100
AcDbEntity
  8
1
 62
     4
100
AcDbPoint
 10
85.25
 20
17.0
 30
0.0
  0
POINT
  5
73
330
36
100
AcDbEntity
  8
1
 62
     4
100
AcDbPoint
 10
93.75
 20
17.0
 30
0.0
  0
LINE
  5
74
330
36
100
AcDbEntity
  8
1
  6
Continuous
 62
     2
100
AcDbLine
 10
81.0
 20
27.00000000000001
 30
0.0
 11
81.0
 21
10.0
 31
0.0
  0
LINE
  5
75
330
36
100
AcDbEntity
  8
1
  6
DOT_CENTER
 62
     2
100
AcDbLine
 10
187.0
 20
26.50000000000001
 30
0.0
 11
187.0
 21
20.50000000000001
 31
0.0
  0
LINE
  5
76
330
36
100
AcDbEntity
  8
1
  6
DOT_CENTER
 62
     2
100
AcDbLine
 10
184.0
 20
23.50000000000001
 30
0.0
 11
197.0
 21
23.50000000000001
 31
0.0
  0
LINE
  5
77
330
36
100
AcDbEntity
  8
1
  6
Continuous
 62
     7
100
AcDbLine
 10
196.0
 20
21.50000000000001
 30
0.0
 11
191.0
 21
22.30000000000001
 31
0.0
  0
LINE
  5
78
330
36
100
AcDbEntity
  8
1
  6
Continuous
 62
     7
100
AcDbLine
 10
196.0
 20
25.50000000000001
 30
0.0
 11
196.0
 21
21.50000000000001
 31
0.0
  0
LINE
  5
79
330
36
100
AcDbEntity
  8
1
  6
Continuous
 62
     7
100
AcDbLine
 10
191.0
 20
24.70000000000001
 30
0.0
 11
196.0
 21
25.50000000000001
 31
0.0
  0
LINE
  5
7A
330
36
100
AcDbEntity
  8
1
  6
Continuous
 62
     7
100
AcDbLine
 10
191.0
 20
24.70000000000001
 30
0.0
 11
191.0
 21
22.30000000000001
 31
0.0
  0
LINE
  5
7B
330
36
100
AcDbEntity
  8
1
  6
Continuous
 62
     2
100
AcDbLine
 10
33.0
 20
27.0
 30
0.0
 11
33.0
 21
10.0
 31
0.0
  0
LINE
  5
7C
330
36
100
AcDbEntity
  8
1
  6
Continuous
 62
     2
100
AcDbLine
 10
25.0
 20
18.50000000000001
 30
0.0
 11
81.0
 21
18.50000000000001
 31
0.0
  0
LINE
  5
7D
330
36
100
AcDbEntity
  8
1
  6
Continuous
 62
     7
100
AcDbLine
 10
200.0
 20
287.0000000000003
 30
0.0
 11
105.0
 21
287.0000000000003
 31
0.0
  0
LINE
  5
7E
330
36
100
AcDbEntity
  8
1
  6
Continuous
 62
     7
100
AcDbLine
 10
200.0
 20
10.0
 30
0.0
 11
200.0
 21
148.5
 31
0.0
  0
LINE
  5
7F
330
36
100
AcDbEntity
  8
1
  6
Continuous
 62
     7
100
AcDbLine
 10
25.0
 20
10.0
 30
0.0
 11
105.0
 21
10.0
 31
0.0
  0
LINE
  5
80
330
36
100
AcDbEntity
  8
1
  6
PHANTOM
 62
     4
100
AcDbLine
 10
0.0
 20
297.0
 30
0.0
 11
0.0
 21
0.0
 31
0.0
  0
LINE
  5
81
330
36
100
AcDbEntity
  8
1
  6
PHANTOM
 62
     4
100
AcDbLine
 10
210.0
 20
297.0
 30
0.0
 11
0.0
 21
297.0
 31
0.0
  0
LINE
  5
82
330
36
100
AcDbEntity
  8
1
  6
PHANTOM
 62
     4
100
AcDbLine
 10
210.0
 20
0.0
 30
0.0
 11
210.0
 21
297.0
 31
0.0
  0
LINE
  5
83
330
36
100
AcDbEntity
  8
1
  6
PHANTOM
 62
     4
100
AcDbLine
 10
0.0
 20
0.0
 30
0.0
 11
210.0
 21
0.0
 31
0.0
  0
LINE
  5
84
330
36
100
AcDbEntity
  8
1
  6
Continuous
 62
     7
100
AcDbLine
 10
25.0
 20
41.0
 30
0.0
 11
200.0
 21
41.0
 31
0.0
  0
LINE
  5
85
330
36
100
AcDbEntity
  8
1
  6
Continuous
 62
     7
100
AcDbLine
 10
200.0
 20
27.00000000000001
 30
0.0
 11
25.0
 21
27.00000000000001
 31
0.0
  0
LINE
  5
86
330
36
100
AcDbEntity
  8
1
  6
Continuous
 62
     2
100
AcDbLine
 10
33.0
 20
41.00000000000001
 30
0.0
 11
33.0
 21
27.0
 31
0.0
  0
LINE
  5
87
330
36
100
AcDbEntity
  8
1
  6
Continuous
 62
     2
100
AcDbLine
 10
55.0
 20
287.0000000000003
 30
0.0
 11
55.0
 21
277.0000000000003
 31
0.0
  0
LINE
  5
88
330
36
100
AcDbEntity
  8
1
  6
Continuous
 62
     2
100
AcDbLine
 10
40.0
 20
287.0000000000003
 30
0.0
 11
40.0
 21
277.0000000000003
 31
0.0
  0
LINE
  5
89
330
36
100
AcDbEntity
  8
1
  6
Continuous
 62
     7
100
AcDbLine
 10
25.0
 20
10.0
 30
0.0
 11
25.0
 21
148.5
 31
0.0
  0
LINE
  5
8A
330
36
100
AcDbEntity
  8
1
  6
Continuous
 62
     2
100
AcDbLine
 10
55.0
 20
277.0000000000003
 30
0.0
 11
25.0
 21
277.0000000000003
 31
0.0
  0
LINE
  5
8B
330
36
100
AcDbEntity
  8
1
  6
Continuous
 62
     2
100
AcDbLine
 10
166.0
 20
27.00000000000001
 30
0.0
 11
166.0
 21
10.0
 31
0.0
  0
LINE
  5
8C
330
36
100
AcDbEntity
  8
1
  6
Continuous
 62
     2
100
AcDbLine
 10
132.0
 20
27.00000000000001
 30
0.0
 11
132.0
 21
9.99999999999999
 31
0.0
  0
LINE
  5
8D
330
36
100
AcDbEntity
  8
1
  6
Continuous
 62
     2
100
AcDbLine
 10
149.0
 20
27.00000000000001
 30
0.0
 11
149.0
 21
10.0
 31
0.0
  0
LINE
  5
8E
330
36
100
AcDbEntity
  8
1
  6
Continuous
 62
     2
100
AcDbLine
 10
115.0
 20
27.00000000000001
 30
0.0
 11
115.0
 21
9.99999999999999
 31
0.0
  0
LINE
  5
8F
330
36
100
AcDbEntity
  8
1
  6
Continuous
 62
     2
100
AcDbLine
 10
98.0
 20
27.00000000000001
 30
0.0
 11
98.0
 21
9.99999999999999
 31
0.0
  0
LINE
  5
90
330
36
100
AcDbEntity
  8
1
  6
Continuous
 62
     2
100
AcDbLine
 10
166.0
 20
20.00000000000001
 30
0.0
 11
200.0
 21
20.00000000000001
 31
0.0
  0
LINE
  5
91
330
36
100
AcDbEntity
  8
1
  6
Continuous
 62
     2
100
AcDbLine
 10
105.0
 20
287.0000000000003
 30
0.0
 11
105.0
 21
292.0000000000003
 31
0.0
  0
LINE
  5
92
330
36
100
AcDbEntity
  8
1
  6
Continuous
 62
     7
100
AcDbLine
 10
105.0
 20
287.0000000000003
 30
0.0
 11
25.0
 21
287.0000000000003
 31
0.0
  0
LINE
  5
93
330
36
100
AcDbEntity
  8
1
  6
Continuous
 62
     2
100
AcDbLine
 10
25.0
 20
148.5
 30
0.0
 11
20.0
 21
148.5
 31
0.0
  0
LINE
  5
94
330
36
100
AcDbEntity
  8
1
  6
Continuous
 62
     7
100
AcDbLine
 10
25.0
 20
148.5
 30
0.0
 11
25.0
 21
287.0000000000003
 31
0.0
  0
LINE
  5
95
330
36
100
AcDbEntity
  8
1
  6
Continuous
 62
     2
100
AcDbLine
 10
200.0
 20
148.5
 30
0.0
 11
205.0
 21
148.5
 31
0.0
  0
LINE
  5
96
330
36
100
AcDbEntity
  8
1
  6
Continuous
 62
     7
100
AcDbLine
 10
200.0
 20
148.5
 30
0.0
 11
200.0
 21
287.0000000000003
 31
0.0
  0
LINE
  5
97
330
36
100
AcDbEntity
  8
1
  6
Continuous
 62
     2
100
AcDbLine
 10
105.0
 20
10.0
 30
0.0
 11
105.0
 21
5.0
 31
0.0
  0
LINE
  5
98
330
36
100
AcDbEntity
  8
1
  6
Continuous
 62
     7
100
AcDbLine
 10
105.0
 20
10.0
 30
0.0
 11
200.0
 21
10.0
 31
0.0
  0
CIRCLE
  5
99
330
36
100
AcDbEntity
  8
1
  6
DOT_CENTER
 62
     7
100
AcDbCircle
 10
89.5
 20
18.0
 30
0.0
 40
0.1000000000000227
  0
CIRCLE
  5
9A
330
36
100
AcDbEntity
  8
1
  6
DOT_CENTER
 62
     7
100
AcDbCircle
 10
89.5
 20
16.0
 30
0.0
 40
0.1000000000000227
  0
CIRCLE
  5
9B
330
36
100
AcDbEntity
  8
1
  6
Continuous
 62
     7
100
AcDbCircle
 10
187.0
 20
23.50000000000001
 30
0.0
 40
2.0
  0
CIRCLE
  5
9C
330
36
100
AcDbEntity
  8
1
  6
Continuous
 62
     7
100
AcDbCircle
 10
187.0
 20
23.50000000000001
 30
0.0
 40
1.200000000000102
  0
CIRCLE
  5
9D
330
36
100
AcDbEntity
  8
1
  6
Continuous
 62
     7
100
AcDbCircle
 10
154.5
 20
12.5
 30
0.0
 40
0.3000000000000114
  0
CIRCLE
  5
9E
330
36
100
AcDbEntity
  8
1
  6
Continuous
 62
     7
100
AcDbCircle
 10
160.5
 20
12.5
 30
0.0
 40
0.3000000000000114
  0
CIRCLE
  5
9F
330
36
100
AcDbEntity
  8
1
  6
Continuous
 62
     7
100
AcDbCircle
 10
143.5
 20
12.5
 30
0.0
 40
0.3000000000000114
  0
CIRCLE
  5
A0
330
36
100
AcDbEntity
  8
1
  6
Continuous
 62
     7
100
AcDbCircle
 10
137.5
 20
12.5
 30
0.0
 40
0.3000000000000114
  0
CIRCLE
  5
A1
330
36
100
AcDbEntity
  8
1
  6
Continuous
 62
     7
100
AcDbCircle
 10
126.5
 20
12.5
 30
0.0
 40
0.2999999999999972
  0
CIRCLE
  5
A2
330
36
100
AcDbEntity
  8
1
  6
Continuous
 62
     7
100
AcDbCircle
 10
120.5
 20
12.5
 30
0.0
 40
0.2999999999999972
  0
CIRCLE
  5
A3
330
36
100
AcDbEntity
  8
1
  6
Continuous
 62
     7
100
AcDbCircle
 10
109.5
 20
12.5
 30
0.0
 40
0.2999999999999972
  0
CIRCLE
  5
A4
330
36
100
AcDbEntity
  8
1
  6
Continuous
 62
     7
100
AcDbCircle
 10
103.5
 20
12.5
 30
0.0
 40
0.2999999999999972
  0
MTEXT
  5
A6
330
36
100
AcDbEntity
  8
1
 62
   250
100
AcDbMText
 10
25.0
 20
5.0
 30
0.0
 40
3.5
 41
0.0
 71
     4
 72
     1
  1
備考欄の文字列 原点位置=4
  7
CONVERTER_1
 73
     1
 44
0.7202881152461
  0
MTEXT
  5
A7
330
36
100
AcDbEntity
  8
1
 62
     2
100
AcDbMText
 10
89.5
 20
24.00000000000001
 30
0.0
 40
3.5
 41
0.0
 71
     5
 72
     1
  1
尺度
  7
CONVERTER_1
 73
     1
 44
0.7202881152461
  0
MTEXT
  5
A8
330
36
100
AcDbEntity
  8
1
 62
     2
100
AcDbMText
 10
135.5
 20
25.00000000000001
 30
0.0
 40
3.0
 41
0.0
 71
     5
 72
     1
  1
製図
  7
CONVERTER_1
 73
     1
 44
0.78031212484994
  0
MTEXT
  5
A9
330
36
100
AcDbEntity
  8
1
 62
     2
100
AcDbMText
 10
152.5
 20
25.00000000000001
 30
0.0
 40
3.0
 41
0.0
 71
     5
 72
     1
  1
設計
  7
CONVERTER_1
 73
     1
 44
0.78031212484994
  0
MTEXT
  5
AA
330
36
100
AcDbEntity
  8
1
 62
     2
100
AcDbMText
 10
118.5
 20
25.00000000000001
 30
0.0
 40
3.0
 41
0.0
 71
     5
 72
     1
  1
検図
  7
CONVERTER_1
 73
     1
 44
0.78031212484994
  0
MTEXT
  5
AB
330
36
100
AcDbEntity
  8
1
 62
     2
100
AcDbMText
 10
175.0
 20
23.50000000000001
 30
0.0
 40
3.5
 41
0.0
 71
     5
 72
     1
  1
第三角法
  7
CONVERTER_1
 73
     1
 44
0.7202881152461
  0
MTEXT
  5
AC
330
36
100
AcDbEntity
  8
1
 62
     2
100
AcDbMText
 10
101.5
 20
25.00000000000001
 30
0.0
 40
3.0
 41
0.0
 71
     5
 72
     1
  1
承認
  7
CONVERTER_1
 73
     1
 44
0.78031212484994
  0
MTEXT
  5
AD
330
36
100
AcDbEntity
  8
1
 62
     2
100
AcDbMText
 10
29.0
 20
14.25
 30
0.0
 40
3.5
 41
0.0
 71
     5
 72
     1
  1
品番
  7
CONVERTER_1
 73
     1
 44
0.96038415366146
  0
MTEXT
  5
AE
330
36
100
AcDbEntity
  8
1
 62
     2
100
AcDbMText
 10
29.0
 20
22.75
 30
0.0
 40
3.5
 41
0.0
 71
     5
 72
     1
  1
品名
  7
CONVERTER_1
 73
     1
 44
0.96038415366146
  0
MTEXT
  5
AF
330
36
100
AcDbEntity
  8
1
 62
     2
100
AcDbMText
 10
29.0
 20
34.00000000000001
 30
0.0
 40
3.5
 41
0.0
 71
     5
 72
     1
  1
備考
  7
CONVERTER_1
 73
     1
 44
0.60024009603842
  0
MTEXT
  5
B0
330
36
100
AcDbEntity
  8
1
 62
     2
100
AcDbMText
 10
32.5
 20
282.0000000000003
 30
0.0
 40
5.0
 41
0.0
 71
     5
 72
     1
  1
図番
  7
CONVERTER_1
 73
     1
 44
0.60024009603842
  0
MTEXT
  5
B1
330
36
100
AcDbEntity
  8
1
 62
     7
100
AcDbMText
 10
171.5
 20
15.0
 30
0.0
 40
2.5
 41
0.0
 71
     5
 72
     1
  1
株式会社
  7
CONVERTER_1
 73
     1
 44
1.32052821128451
  0
MTEXT
  5
B2
330
36
100
AcDbEntity
  8
1
 62
     7
100
AcDbMText
 10
188.5
 20
15.0
 30
0.0
 40
3.0
 41
0.0
 71
     5
 72
     1
  1
三栄水栓製作所
  7
CONVERTER_1
 73
     1
 44
1.32052821128451
  0
ENDBLK
  5
38
330
36
100
AcDbEntity
  8
0
100
AcDbBlockEnd
  0
BLOCK
  5
3A
330
39
100
AcDbEntity
  8
0
100
AcDbBlockBegin
  2
Y10-0-13
 70
     0
 71
     0
 10
-165.6185839491855
 20
162.5671871155035
 30
0.0
  3
Y10-0-13
  1

  0
LINE
  5
B3
330
39
100
AcDbEntity
  8
0
  6
Continuous
 62
     7
100
AcDbLine
 10
82.63141605081458
 20
366.5650361823407
 30
0.0
 11
108.1314160508145
 21
366.5650361823407
 31
0.0
  0
LINE
  5
B4
330
39
100
AcDbEntity
  8
1
  6
Continuous
 62
     7
100
AcDbLine
 10
108.1314160508145
 20
366.5650361823407
 30
0.0
 11
117.9206455986784
 21
366.5650361823407
 31
0.0
  0
LINE
  5
B5
330
39
100
AcDbEntity
  8
1
  6
Continuous
 62
     7
100
AcDbLine
 10
104.1314160508145
 20
300.0817762942033
 30
0.0
 11
103.6314160508145
 21
289.1012996033784
 31
0.0
  0
LINE
  5
B6
330
39
100
AcDbEntity
  8
1
  6
Continuous
 62
     7
100
AcDbLine
 10
86.63141605081447
 20
300.0817762942033
 30
0.0
 11
87.13141605081447
 21
289.1012996033784
 31
0.0
  0
LINE
  5
B7
330
39
100
AcDbEntity
  8
1
  6
Continuous
 62
     7
100
AcDbLine
 10
163.3814160508146
 20
137.5671871155035
 30
0.0
 11
171.5699218018555
 21
136.5617650324111
 31
0.0
  0
LINE
  5
B8
330
39
100
AcDbEntity
  8
1
  6
Continuous
 62
     7
100
AcDbLine
 10
155.1929102997736
 20
138.572609198596
 30
0.0
 11
163.3814160508146
 21
137.5671871155035
 31
0.0
  0
LINE
  5
B9
330
39
100
AcDbEntity
  8
1
  6
Continuous
 62
     7
100
AcDbLine
 10
171.5699218018555
 20
136.5617650324111
 30
0.0
 11
172.8806836186836
 21
147.2370633532209
 31
0.0
  0
LINE
  5
BA
330
39
100
AcDbEntity
  8
1
  6
Continuous
 62
     7
100
AcDbLine
 10
155.1929102997736
 20
138.572609198596
 30
0.0
 11
157.3845828324158
 21
156.4223495611107
 31
0.0
  0
LINE
  5
BB
330
39
100
AcDbEntity
  8
1
  6
Continuous
 62
     7
100
AcDbLine
 10
85.88141605081447
 20
382.1012996033782
 30
0.0
 11
104.8814160508145
 21
382.1012996033782
 31
0.0
  0
LINE
  5
BC
330
39
100
AcDbEntity
  8
1
  6
Continuous
 62
     7
100
AcDbLine
 10
85.88141605081447
 20
370.8333504109471
 30
0.0
 11
104.8814160508145
 21
370.8333504109471
 31
0.0
  0
LINE
  5
BD
330
39
100
AcDbEntity
  8
1
  6
Continuous
 62
     7
100
AcDbLine
 10
84.88141605081447
 20
369.1012996033782
 30
0.0
 11
105.8814160508145
 21
369.1012996033782
 31
0.0
  0
LINE
  5
BE
330
39
100
AcDbEntity
  8
1
  6
Continuous
 62
     7
100
AcDbLine
 10
72.84218650295057
 20
366.5650361823407
 30
0.0
 11
82.63141605081458
 21
366.5650361823407
 31
0.0
  0
LINE
  5
BF
330
39
100
AcDbEntity
  8
1
  6
Continuous
 62
     7
100
AcDbLine
 10
95.38141605081447
 20
383.1012996033782
 30
0.0
 11
85.88141605081447
 21
383.1012996033782
 31
0.0
  0
LINE
  5
C0
330
39
100
AcDbEntity
  8
1
  6
Continuous
 62
     7
100
AcDbLine
 10
105.8814160508145
 20
370.8333504109471
 30
0.0
 11
105.8814160508145
 21
369.1012996033782
 31
0.0
  0
LINE
  5
C1
330
39
100
AcDbEntity
  8
1
  6
Continuous
 62
     7
100
AcDbLine
 10
95.38141605081447
 20
383.1012996033782
 30
0.0
 11
104.8814160508145
 21
383.1012996033782
 31
0.0
  0
LINE
  5
C2
330
39
100
AcDbEntity
  8
1
  6
Continuous
 62
     7
100
AcDbLine
 10
105.8814160508145
 20
382.1012996033782
 30
0.0
 11
104.8814160508145
 21
383.1012996033782
 31
0.0
  0
LINE
  5
C3
330
39
100
AcDbEntity
  8
1
  6
Continuous
 62
     7
100
AcDbLine
 10
105.8814160508145
 20
370.8333504109471
 30
0.0
 11
104.8814160508145
 21
370.8333504109471
 31
0.0
  0
LINE
  5
C4
330
39
100
AcDbEntity
  8
1
  6
Continuous
 62
     7
100
AcDbLine
 10
105.8814160508145
 20
382.1012996033782
 30
0.0
 11
105.8814160508145
 21
370.8333504109471
 31
0.0
  0
LINE
  5
C5
330
39
100
AcDbEntity
  8
1
  6
Continuous
 62
     7
100
AcDbLine
 10
104.8814160508145
 20
382.1012996033782
 30
0.0
 11
105.8814160508145
 21
382.1012996033782
 31
0.0
  0
LINE
  5
C6
330
39
100
AcDbEntity
  8
1
  6
Continuous
 62
     7
100
AcDbLine
 10
84.88141605081447
 20
382.1012996033782
 30
0.0
 11
85.88141605081447
 21
382.1012996033782
 31
0.0
  0
LINE
  5
C7
330
39
100
AcDbEntity
  8
1
  6
Continuous
 62
     7
100
AcDbLine
 10
84.88141605081447
 20
370.8333504109471
 30
0.0
 11
84.88141605081447
 21
382.1012996033782
 31
0.0
  0
LINE
  5
C8
330
39
100
AcDbEntity
  8
1
  6
Continuous
 62
     7
100
AcDbLine
 10
85.88141605081447
 20
370.8333504109471
 30
0.0
 11
84.88141605081447
 21
370.8333504109471
 31
0.0
  0
LINE
  5
C9
330
39
100
AcDbEntity
  8
1
  6
Continuous
 62
     7
100
AcDbLine
 10
85.88141605081447
 20
383.1012996033782
 30
0.0
 11
84.88141605081447
 21
382.1012996033782
 31
0.0
  0
LINE
  5
CA
330
39
100
AcDbEntity
  8
1
  6
Continuous
 62
     7
100
AcDbLine
 10
84.88141605081447
 20
369.1012996033782
 30
0.0
 11
84.88141605081447
 21
370.8333504109471
 31
0.0
  0
LINE
  5
CB
330
39
100
AcDbEntity
  8
1
  6
Continuous
 62
     7
100
AcDbLine
 10
86.63141605081447
 20
362.5650361823407
 30
0.0
 11
86.63141605081447
 21
348.1208229125532
 31
0.0
  0
LINE
  5
CC
330
39
100
AcDbEntity
  8
1
  6
Continuous
 62
     2
100
AcDbLine
 10
85.88141605081447
 20
382.1012996033782
 30
0.0
 11
85.88141605081447
 21
383.1012996033782
 31
0.0
  0
LINE
  5
CD
330
39
100
AcDbEntity
  8
1
  6
Continuous
 62
     2
100
AcDbLine
 10
85.88141605081447
 20
370.8333504109471
 30
0.0
 11
85.88141605081447
 21
382.1012996033782
 31
0.0
  0
LINE
  5
CE
330
39
100
AcDbEntity
  8
1
  6
Continuous
 62
     2
100
AcDbLine
 10
84.88141605081447
 20
369.1012996033782
 30
0.0
 11
85.88141605081447
 21
370.8333504109471
 31
0.0
  0
LINE
  5
CF
330
39
100
AcDbEntity
  8
1
  6
Continuous
 62
     7
100
AcDbLine
 10
72.38141605081447
 20
369.1012996033782
 30
0.0
 11
84.88141605081447
 21
369.1012996033782
 31
0.0
  0
LINE
  5
D0
330
39
100
AcDbEntity
  8
1
  6
Continuous
 62
     7
100
AcDbLine
 10
72.38141605081447
 20
369.1012996033782
 30
0.0
 11
72.38141605081447
 21
367.0634948492073
 31
0.0
  0
LINE
  5
D1
330
39
100
AcDbEntity
  8
1
  6
Continuous
 62
     7
100
AcDbLine
 10
104.1314160508145
 20
362.5650361823407
 30
0.0
 11
104.1314160508145
 21
348.1208229125532
 31
0.0
  0
LINE
  5
D2
330
39
100
AcDbEntity
  8
1
  6
Continuous
 62
     7
100
AcDbLine
 10
118.3814160508145
 20
367.0634948492073
 30
0.0
 11
118.3814160508145
 21
369.1012996033782
 31
0.0
  0
LINE
  5
D3
330
39
100
AcDbEntity
  8
1
  6
Continuous
 62
     7
100
AcDbLine
 10
105.8814160508145
 20
369.1012996033782
 30
0.0
 11
118.3814160508145
 21
369.1012996033782
 31
0.0
  0
LINE
  5
D4
330
39
100
AcDbEntity
  8
1
  6
Continuous
 62
     2
100
AcDbLine
 10
104.8814160508145
 20
370.8333504109471
 30
0.0
 11
105.8814160508145
 21
369.1012996033782
 31
0.0
  0
LINE
  5
D5
330
39
100
AcDbEntity
  8
1
  6
Continuous
 62
     2
100
AcDbLine
 10
104.8814160508145
 20
382.1012996033782
 30
0.0
 11
104.8814160508145
 21
370.8333504109471
 31
0.0
  0
LINE
  5
D6
330
39
100
AcDbEntity
  8
1
  6
Continuous
 62
     2
100
AcDbLine
 10
104.8814160508145
 20
383.1012996033782
 30
0.0
 11
104.8814160508145
 21
382.1012996033782
 31
0.0
  0
LINE
  5
D7
330
39
100
AcDbEntity
  8
1
  6
Continuous
 62
     7
100
AcDbLine
 10
182.4960964693319
 20
171.7021958663973
 30
0.0
 11
169.5859714150518
 21
169.3517172420594
 31
0.0
  0
LINE
  5
D8
330
39
100
AcDbEntity
  8
1
  6
Continuous
 62
     7
100
AcDbLine
 10
240.8893313426624
 20
185.1064166633674
 30
0.0
 11
240.8814160508145
 21
171.3171871155035
 31
0.0
  0
LINE
  5
D9
330
39
100
AcDbEntity
  8
1
  6
Continuous
 62
     7
100
AcDbLine
 10
243.3814160508145
 20
185.5671871155035
 30
0.0
 11
241.387790009529
 21
185.5671871155035
 31
0.0
  0
LINE
  5
DA
330
39
100
AcDbEntity
  8
1
  6
Continuous
 62
     7
100
AcDbLine
 10
243.3814160508145
 20
185.5671871155035
 30
0.0
 11
243.3814160508145
 21
173.0671871155035
 31
0.0
  0
LINE
  5
DB
330
39
100
AcDbEntity
  8
1
  6
Continuous
 62
     7
100
AcDbLine
 10
243.3814160508145
 20
173.0671871155035
 30
0.0
 11
256.3814160508144
 21
173.0671871155035
 31
0.0
  0
LINE
  5
DC
330
39
100
AcDbEntity
  8
1
  6
Continuous
 62
     2
100
AcDbLine
 10
243.3814160508145
 20
173.0671871155035
 30
0.0
 11
245.1134668583834
 21
172.0671871155035
 31
0.0
  0
LINE
  5
DD
330
39
100
AcDbEntity
  8
1
  6
Continuous
 62
     2
100
AcDbLine
 10
245.1134668583834
 20
172.0671871155035
 30
0.0
 11
257.3814160508144
 21
172.0671871155035
 31
0.0
  0
LINE
  5
DE
330
39
100
AcDbEntity
  8
1
  6
Continuous
 62
     7
100
AcDbLine
 10
257.3814160508144
 20
172.0671871155035
 30
0.0
 11
257.3814160508144
 21
156.5671871155035
 31
0.0
  0
LINE
  5
DF
330
39
100
AcDbEntity
  8
1
  6
Continuous
 62
     7
100
AcDbLine
 10
257.3814160508144
 20
172.0671871155035
 30
0.0
 11
256.3814160508144
 21
173.0671871155035
 31
0.0
  0
LINE
  5
E0
330
39
100
AcDbEntity
  8
1
  6
Continuous
 62
     7
100
AcDbLine
 10
245.1134668583834
 20
172.0671871155035
 30
0.0
 11
245.1134668583834
 21
173.0671871155035
 31
0.0
  0
LINE
  5
E1
330
39
100
AcDbEntity
  8
1
  6
Continuous
 62
     7
100
AcDbLine
 10
256.3814160508144
 20
173.0671871155035
 30
0.0
 11
256.3814160508144
 21
172.0671871155035
 31
0.0
  0
LINE
  5
E2
330
39
100
AcDbEntity
  8
1
  6
Continuous
 62
     2
100
AcDbLine
 10
257.3814160508144
 20
153.0671871155035
 30
0.0
 11
245.1134668583834
 21
153.0671871155035
 31
0.0
  0
LINE
  5
E3
330
39
100
AcDbEntity
  8
1
  6
Continuous
 62
     7
100
AcDbLine
 10
256.3814160508144
 20
153.0671871155035
 30
0.0
 11
256.3814160508144
 21
152.0671871155035
 31
0.0
  0
LINE
  5
E4
330
39
100
AcDbEntity
  8
1
  6
Continuous
 62
     7
100
AcDbLine
 10
256.3814160508144
 20
152.0671871155035
 30
0.0
 11
243.3814160508145
 21
152.0671871155035
 31
0.0
  0
LINE
  5
E5
330
39
100
AcDbEntity
  8
1
  6
Continuous
 62
     7
100
AcDbLine
 10
245.1134668583834
 20
152.0671871155035
 30
0.0
 11
245.1134668583834
 21
153.0671871155035
 31
0.0
  0
LINE
  5
E6
330
39
100
AcDbEntity
  8
1
  6
Continuous
 62
     7
100
AcDbLine
 10
256.3814160508144
 20
152.0671871155035
 30
0.0
 11
257.3814160508144
 21
153.0671871155035
 31
0.0
  0
LINE
  5
E7
330
39
100
AcDbEntity
  8
1
  6
Continuous
 62
     2
100
AcDbLine
 10
245.1134668583834
 20
153.0671871155035
 30
0.0
 11
243.3814160508145
 21
152.0671871155035
 31
0.0
  0
LINE
  5
E8
330
39
100
AcDbEntity
  8
1
  6
Continuous
 62
     7
100
AcDbLine
 10
243.3814160508145
 20
152.0671871155035
 30
0.0
 11
243.3814160508145
 21
139.5671871155035
 31
0.0
  0
LINE
  5
E9
330
39
100
AcDbEntity
  8
1
  6
Continuous
 62
     7
100
AcDbLine
 10
257.3814160508144
 20
156.5671871155035
 30
0.0
 11
257.3814160508144
 21
153.0671871155035
 31
0.0
  0
LINE
  5
EA
330
39
100
AcDbEntity
  8
1
  6
Continuous
 62
     7
100
AcDbLine
 10
210.3814160508146
 20
177.899208092537
 30
0.0
 11
210.3814160508146
 21
187.9968784036885
 31
0.0
  0
LINE
  5
EB
330
39
100
AcDbEntity
  8
1
  6
Continuous
 62
     7
100
AcDbLine
 10
236.845152629777
 20
171.3171871155035
 30
0.0
 11
222.4009393599895
 21
171.3171871155035
 31
0.0
  0
LINE
  5
EC
330
39
100
AcDbEntity
  8
1
  6
Continuous
 62
     2
100
AcDbLine
 10
209.3814160508146
 20
186.5671871155035
 30
0.0
 11
210.3814160508146
 21
184.8351363079346
 31
0.0
  0
LINE
  5
ED
330
39
100
AcDbEntity
  8
1
  6
Continuous
 62
     2
100
AcDbLine
 10
209.3814160508146
 20
187.9968784036885
 30
0.0
 11
209.3814160508146
 21
186.5671871155035
 31
0.0
  0
LINE
  5
EE
330
39
100
AcDbEntity
  8
1
  6
Continuous
 62
     7
100
AcDbLine
 10
209.3814160508146
 20
186.5671871155035
 30
0.0
 11
210.3814160508146
 21
186.5671871155035
 31
0.0
  0
LINE
  5
EF
330
39
100
AcDbEntity
  8
1
  6
Continuous
 62
     7
100
AcDbLine
 10
186.3814160508146
 20
187.9968784036885
 30
0.0
 11
186.3814160508146
 21
177.3171871155035
 31
0.0
  0
LINE
  5
F0
330
39
100
AcDbEntity
  8
1
  6
Continuous
 62
     7
100
AcDbLine
 10
186.3814160508146
 20
186.5671871155035
 30
0.0
 11
187.3814160508146
 21
186.5671871155035
 31
0.0
  0
LINE
  5
F1
330
39
100
AcDbEntity
  8
1
  6
Continuous
 62
     2
100
AcDbLine
 10
187.3814160508146
 20
186.5671871155035
 30
0.0
 11
187.3814160508146
 21
187.9968784036885
 31
0.0
  0
LINE
  5
F2
330
39
100
AcDbEntity
  8
1
  6
Continuous
 62
     2
100
AcDbLine
 10
186.3814160508146
 20
184.8351363079346
 30
0.0
 11
187.3814160508146
 21
186.5671871155035
 31
0.0
  0
LINE
  5
F3
330
39
100
AcDbEntity
  8
1
  6
Continuous
 62
     7
100
AcDbLine
 10
222.4009393599895
 20
153.8171871155035
 30
0.0
 11
236.845152629777
 21
153.8171871155035
 31
0.0
  0
LINE
  5
F4
330
39
100
AcDbEntity
  8
1
  6
Continuous
 62
     7
100
AcDbLine
 10
107.3814160508146
 20
187.9968784036885
 30
0.0
 11
107.3814160508146
 21
168.6499496458017
 31
0.0
  0
LINE
  5
F5
330
39
100
AcDbEntity
  8
1
  6
Continuous
 62
     7
100
AcDbLine
 10
103.6313950492521
 20
137.5650942467472
 30
0.0
 11
104.1296543745621
 21
162.3916131114072
 31
0.0
  0
LINE
  5
F6
330
39
100
AcDbEntity
  8
1
  6
Continuous
 62
     7
100
AcDbLine
 10
87.13143705237698
 20
137.5650942467472
 30
0.0
 11
86.63317772706697
 21
162.3916131114072
 31
0.0
  0
LINE
  5
F7
330
39
100
AcDbEntity
  8
1
  6
PHANTOM
 62
     4
100
AcDbLine
 10
105.7575308240606
 20
137.5671871155035
 30
0.0
 11
84.72669084238748
 21
137.5671871155035
 31
0.0
  0
LINE
  5
F8
330
39
100
AcDbEntity
  8
1
  6
Continuous
 62
     7
100
AcDbLine
 10
240.8814160508145
 20
153.8171871155035
 30
0.0
 11
240.8893313426624
 21
140.0279575676396
 31
0.0
  0
LINE
  5
F9
330
39
100
AcDbEntity
  8
1
  6
Continuous
 62
     7
100
AcDbLine
 10
241.387790009529
 20
139.5671871155035
 30
0.0
 11
243.3814160508145
 21
139.5671871155035
 31
0.0
  0
LINE
  5
FA
330
39
100
AcDbEntity
  8
1
  6
Continuous
 62
     7
100
AcDbLine
 10
243.3814160508145
 20
152.0671871155035
 30
0.0
 11
243.3814160508145
 21
139.5671871155035
 31
0.0
  0
LINE
  5
FB
330
39
100
AcDbEntity
  8
1
  6
Continuous
 62
     7
100
AcDbLine
 10
240.8814160508145
 20
171.3171871155035
 30
0.0
 11
240.8814160508145
 21
153.8171871155035
 31
0.0
  0
LINE
  5
FC
330
39
100
AcDbEntity
  8
1
  6
Continuous
 62
     7
100
AcDbLine
 10
243.3814160508145
 20
152.0671871155035
 30
0.0
 11
243.3814160508145
 21
173.0671871155035
 31
0.0
  0
LINE
  5
FD
330
39
100
AcDbEntity
  8
1
  6
Continuous
 62
     7
100
AcDbLine
 10
245.1134668583834
 20
172.0671871155035
 30
0.0
 11
245.1134668583834
 21
153.0671871155035
 31
0.0
  0
LINE
  5
FE
330
39
100
AcDbEntity
  8
1
  6
Continuous
 62
     7
100
AcDbLine
 10
256.3814160508144
 20
153.0671871155035
 30
0.0
 11
256.3814160508144
 21
172.0671871155035
 31
0.0
  0
LINE
  5
FF
330
39
100
AcDbEntity
  8
1
  6
Continuous
 62
     7
100
AcDbLine
 10
209.3814160508146
 20
186.5671871155035
 30
0.0
 11
187.3814160508146
 21
186.5671871155035
 31
0.0
  0
LINE
  5
100
330
39
100
AcDbEntity
  8
1
  6
Continuous
 62
     2
100
AcDbLine
 10
106.3814160508146
 20
186.5671871155035
 30
0.0
 11
107.3814160508146
 21
184.8351363079346
 31
0.0
  0
LINE
  5
101
330
39
100
AcDbEntity
  8
1
  6
Continuous
 62
     2
100
AcDbLine
 10
106.3814160508146
 20
187.9968784036885
 30
0.0
 11
106.3814160508146
 21
186.5671871155035
 31
0.0
  0
LINE
  5
102
330
39
100
AcDbEntity
  8
1
  6
Continuous
 62
     7
100
AcDbLine
 10
106.3814160508146
 20
186.5671871155035
 30
0.0
 11
107.3814160508146
 21
186.5671871155035
 31
0.0
  0
LINE
  5
103
330
39
100
AcDbEntity
  8
1
  6
Continuous
 62
     7
100
AcDbLine
 10
83.38141605081458
 20
186.5671871155035
 30
0.0
 11
84.38141605081458
 21
186.5671871155035
 31
0.0
  0
LINE
  5
104
330
39
100
AcDbEntity
  8
1
  6
Continuous
 62
     2
100
AcDbLine
 10
84.38141605081458
 20
186.5671871155035
 30
0.0
 11
84.38141605081458
 21
187.9968784036885
 31
0.0
  0
LINE
  5
105
330
39
100
AcDbEntity
  8
1
  6
Continuous
 62
     2
100
AcDbLine
 10
83.38141605081458
 20
184.8351363079346
 30
0.0
 11
84.38141605081458
 21
186.5671871155035
 31
0.0
  0
LINE
  5
106
330
39
100
AcDbEntity
  8
1
  6
Continuous
 62
     7
100
AcDbLine
 10
106.3814160508146
 20
186.5671871155035
 30
0.0
 11
84.38141605081458
 21
186.5671871155035
 31
0.0
  0
LINE
  5
107
330
39
100
AcDbEntity
  8
1
  6
Continuous
 62
     7
100
AcDbLine
 10
83.38141605081458
 20
168.6499496458017
 30
0.0
 11
83.38141605081438
 21
187.9968784036885
 31
0.0
  0
ARC
  5
108
330
39
100
AcDbEntity
  8
1
  6
Continuous
 62
     7
100
AcDbCircle
 10
68.38141605081447
 20
324.1012996033783
 30
0.0
 40
40.00000000000001
100
AcDbArc
 50
-17.45760312372209
 51
-11.21543997265024
  0
ARC
  5
109
330
39
100
AcDbEntity
  8
1
  6
Continuous
 62
     7
100
AcDbCircle
 10
95.32369604631487
 20
289.1016726460333
 30
0.0
 40
8.192280003993812
100
AcDbArc
 50
-179.9973909864284
 51
-89.59631018326235
  0
ARC
  5
10A
330
39
100
AcDbEntity
  8
1
  6
Continuous
 62
     7
100
AcDbCircle
 10
95.43913605531407
 20
289.1016726460333
 30
0.0
 40
8.192280003993776
100
AcDbArc
 50
-90.40368981673765
 51
-0.00260901357164
  0
ARC
  5
10B
330
39
100
AcDbEntity
  8
1
  6
Continuous
 62
     7
100
AcDbCircle
 10
122.3814160508145
 20
324.1012996033783
 30
0.0
 40
39.99999999999993
100
AcDbArc
 50
-168.7845600273499
 51
-162.5423968762779
  0
ARC
  5
10C
330
39
100
AcDbEntity
  8
1
  6
Continuous
 62
     7
100
AcDbCircle
 10
122.3814160508145
 20
324.1012996033783
 30
0.0
 40
40.00000000000001
100
AcDbArc
 50
-162.5423968762779
 51
-159.931945379181
  0
ARC
  5
10D
330
39
100
AcDbEntity
  8
1
  6
Continuous
 62
     7
100
AcDbCircle
 10
68.38141605081447
 20
324.1012996033783
 30
0.0
 40
40.00000000000003
100
AcDbArc
 50
-20.068054620819
 51
-17.45760312372209
  0
ARC
  5
10E
330
39
100
AcDbEntity
  8
1
  6
Continuous
 62
     7
100
AcDbCircle
 10
198.3814160508146
 20
189.5671871155035
 30
0.0
 40
39.99999999999996
100
AcDbArc
 50
-113.2499311660118
 51
-69.93194537918097
  0
ARC
  5
10F
330
39
100
AcDbEntity
  8
1
  6
Continuous
 62
     7
100
AcDbCircle
 10
180.3814160508146
 20
177.3171871155035
 30
0.0
 40
5.999999999999965
100
AcDbArc
 50
-69.36295833392789
 51
0.0
  0
ARC
  5
110
330
39
100
AcDbEntity
  8
1
  6
Continuous
 62
     7
100
AcDbCircle
 10
95.38141605081458
 20
162.5671871155035
 30
0.0
 40
13.0
100
AcDbArc
 50
-48.84476167558626
 51
18.67171806400808
  0
ARC
  5
111
330
39
100
AcDbEntity
  8
1
  6
Continuous
 62
     7
100
AcDbCircle
 10
95.38141605081458
 20
162.5671871155035
 30
0.0
 40
8.74999999999995
100
AcDbArc
 50
-1.14975138276898
 51
-178.8502486172311
  0
ARC
  5
112
330
39
100
AcDbEntity
  8
1
  6
Continuous
 62
     7
100
AcDbCircle
 10
95.38141605081458
 20
162.5671871155035
 30
0.0
 40
13.0000000000001
100
AcDbArc
 50
161.3282819359922
 51
-131.1552383244137
  0
ARC
  5
113
330
39
100
AcDbEntity
  8
1
  6
Continuous
 62
     7
100
AcDbCircle
 10
95.38141605081458
 20
162.5671871155035
 30
0.0
 40
23.00000000000001
100
AcDbArc
 50
0.0
 51
58.55101861062045
  0
ARC
  5
114
330
39
100
AcDbEntity
  8
1
  6
Continuous
 62
     7
100
AcDbCircle
 10
95.38141605081458
 20
162.5671871155035
 30
0.0
 40
22.99999999999993
100
AcDbArc
 50
-68.78913469357539
 51
0.0
  0
ARC
  5
115
330
39
100
AcDbEntity
  8
1
  6
Continuous
 62
     7
100
AcDbCircle
 10
95.38141605081458
 20
162.5671871155035
 30
0.0
 40
23.00000000000003
100
AcDbArc
 50
121.4489813893795
 51
-111.2108653064248
  0
SPLINE
  5
116
330
39
100
AcDbEntity
  8
1
  6
Continuous
 62
     7
100
AcDbSpline
210
0.0
220
0.0
230
1.0
 70
     8
 71
     3
 72
    43
 73
    39
 74
    37
 42
0.0000000001
 43
0.0000000001
 44
0.00000001
 40
0.0
 40
0.0
 40
0.0
 40
0.0
 40
0.1688137855046529
 40
0.3257916605814265
 40
0.5840608809992707
 40
0.8432525004892024
 40
1.210036324264164
 40
1.576450108881298
 40
2.041907679455218
 40
2.50733546900669
 40
3.059042714115887
 40
3.610725051692997
 40
4.232678113220537
 40
4.854618900493215
 40
5.528446411375399
 40
6.202268200923455
 40
6.907902927075025
 40
7.613535086912797
 40
8.329885337892476
 40
9.046235588872197
 40
9.751867748710026
 40
10.45750247486155
 40
11.13132426440957
 40
11.80515177529178
 40
12.42709256256449
 40
13.04904562409207
 40
13.60072796166922
 40
14.15243520677848
 40
14.61786299632994
 40
15.0833205669038
 40
15.44973435152086
 40
15.81651817529582
 40
16.07570979478578
 40
16.33397901520364
 40
16.4909568902804
 40
16.65977067578502
 40
16.71613081065312
 40
16.76421246671913
 40
16.76421246671913
 40
16.76421246671913
 40
16.76421246671913
 10
103.5907431872637
 20
137.6592890105387
 30
0.0
 10
103.5510962645672
 20
137.6998388747524
 30
0.0
 10
103.474582153213
 20
137.7780955619006
 30
0.0
 10
103.2966831570121
 20
137.8634064855591
 30
0.0
 10
103.0816229693842
 20
137.9279379090606
 30
0.0
 10
102.7981860133459
 20
138.0093416555462
 30
0.0
 10
102.4755927570144
 20
138.0832308776015
 30
0.0
 10
102.0827866184297
 20
138.1567222196964
 30
0.0
 10
101.6551985587604
 20
138.2217112039131
 30
0.0
 10
101.1651757696609
 20
138.285992727623
 30
0.0
 10
100.6453078015489
 20
138.3429508838606
 30
0.0
 10
100.0726153987409
 20
138.395905099038
 30
0.0
 10
99.47580112186371
 20
138.4414510108699
 30
0.0
 10
98.83780385127099
 20
138.4815625061277
 30
0.0
 10
98.18206834588872
 20
138.5142141361922
 30
0.0
 10
97.49812335964569
 20
138.5403008677883
 30
0.0
 10
96.80332584042819
 20
138.5588196008533
 30
0.0
 10
96.09419737010154
 20
138.5701488440335
 30
0.0
 10
95.38141605082156
 20
138.5738486482434
 30
0.0
 10
94.66863473149969
 20
138.5701488440633
 30
0.0
 10
93.95950626129664
 20
138.5588196007359
 30
0.0
 10
93.26470874163448
 20
138.5403008682207
 30
0.0
 10
92.58076375697689
 20
138.5142141346585
 30
0.0
 10
91.92502824588689
 20
138.4815625116743
 30
0.0
 10
91.28703099503007
 20
138.4414509919337
 30
0.0
 10
90.69021664849137
 20
138.3959051665179
 30
0.0
 10
90.11752447776927
 20
138.3429506634348
 30
0.0
 10
89.59765571009582
 20
138.285993499064
 30
0.0
 10
89.10763546418325
 20
138.2217088204957
 30
0.0
 10
88.68003891913506
 20
138.1567303625085
 30
0.0
 10
88.28725813283509
 20
138.0832075705553
 30
0.0
 10
87.96458408573433
 20
138.0094185705619
 30
0.0
 10
87.68136628676197
 20
137.9277429567176
 30
0.0
 10
87.46565566522122
 20
137.8640184054433
 30
0.0
 10
87.28934212489583
 20
137.7767407019352
 30
0.0
 10
87.1952730670219
 20
137.6903031215984
 30
0.0
 10
87.13771897403055
 20
137.6164516549569
 30
0.0
 10
87.13341730092118
 20
137.5812877645199
 30
0.0
 10
87.13143694837166
 20
137.565099435396
 30
0.0
 11
103.5907431872637
 21
137.6592890105387
 31
0.0
 11
103.4657025633636
 21
137.772703897353
 31
0.0
 11
103.326687870267
 21
137.8456214423395
 31
0.0
 11
103.0817020221555
 21
137.9273828295607
 31
0.0
 11
102.8321880322931
 21
137.9975473824117
 31
0.0
 11
102.4749883577026
 21
138.0808466372426
 31
0.0
 11
102.1149383201131
 21
138.1488395191441
 31
0.0
 11
101.6549748975378
 21
138.220144497213
 31
0.0
 11
101.1935098612939
 21
138.280750170307
 31
0.0
 11
100.6451467339149
 21
138.3414029924765
 31
0.0
 11
100.0958234568266
 21
138.3923670861454
 31
0.0
 11
99.47570228566246
 21
138.4400676502669
 31
0.0
 11
98.85499269312892
 21
138.4791821566578
 31
0.0
 11
98.18200978825747
 21
138.5129093589205
 31
0.0
 11
97.50867938810025
 21
138.5386382588941
 31
0.0
 11
96.80329853075806
 21
138.5575647706223
 31
0.0
 11
96.09775634919753
 21
138.5688330906446
 31
0.0
 11
95.38141605081457
 21
138.572609198596
 31
0.0
 11
94.66507575243156
 21
138.5688330906446
 31
0.0
 11
93.95953357087097
 21
138.5575647706223
 31
0.0
 11
93.25415271352883
 21
138.5386382588941
 31
0.0
 11
92.58082231337164
 21
138.5129093589205
 31
0.0
 11
91.90783940850017
 21
138.4791821566578
 31
0.0
 11
91.28712981596659
 21
138.4400676502669
 31
0.0
 11
90.66700864480242
 21
138.3923670861454
 31
0.0
 11
90.11768536771406
 21
138.3414029924765
 31
0.0
 11
89.56932224033503
 21
138.280750170307
 31
0.0
 11
89.10785720409113
 21
138.220144497213
 31
0.0
 11
88.6478937815159
 21
138.1488395191441
 31
0.0
 11
88.2878437439265
 21
138.0808466372426
 31
0.0
 11
87.93064406933594
 21
137.9975473824117
 31
0.0
 11
87.68113007947356
 21
137.9273828295607
 31
0.0
 11
87.43614423136205
 21
137.8456214423395
 31
0.0
 11
87.29712953826541
 21
137.772703897353
 31
0.0
 11
87.17208891436539
 21
137.6592890105387
 31
0.0
 11
87.14112852376769
 21
137.6121942229674
 31
0.0
 11
87.13143694837166
 21
137.565099435396
 31
0.0
  0
SPLINE
  5
117
330
39
100
AcDbEntity
  8
1
  6
Continuous
 62
     7
100
AcDbSpline
210
0.0
220
0.0
230
1.0
 70
     8
 71
     3
 72
     9
 73
     5
 74
     3
 42
0.0000000001
 43
0.0000000001
 44
0.00000001
 40
0.0
 40
0.0
 40
0.0
 40
0.0
 40
0.0480816560589374
 40
0.1044417909184979
 40
0.1044417909184979
 40
0.1044417909184979
 40
0.1044417909184979
 10
103.6313951532576
 20
137.5650994354119
 30
0.0
 10
103.6294476112995
 20
137.5813284665258
 30
0.0
 10
103.6252172085501
 20
137.6165807688244
 30
0.0
 10
103.6028261301728
 20
137.6443200215109
 30
0.0
 10
103.5907431872637
 20
137.6592890105387
 30
0.0
 11
103.6313951532576
 21
137.5650994354119
 31
0.0
 11
103.6217035778579
 21
137.6121942229753
 31
0.0
 11
103.5907431872637
 21
137.6592890105387
 31
0.0
  0
SPLINE
  5
118
330
39
100
AcDbEntity
  8
1
  6
Continuous
 62
     7
100
AcDbSpline
210
0.0
220
0.0
230
1.0
 70
    24
 71
     3
 72
     9
 73
     5
 74
     3
 42
0.0000000001
 43
0.0000000001
 44
0.00000001
 40
0.0
 40
0.0
 40
0.0
 40
0.0
 40
0.0000025948447497
 40
0.0000051896910771
 40
0.0000051896910771
 40
0.0000051896910771
 40
0.0000051896910771
 10
87.13143694837166
 20
137.565099435396
 30
0.0
 10
87.13143696568974
 20
137.5650985706212
 30
0.0
 10
87.13143700032592
 20
137.5650968410709
 30
0.0
 10
87.13143703502664
 20
137.5650951115219
 30
0.0
 10
87.13143705237698
 20
137.5650942467472
 30
0.0
 11
87.13143694837166
 21
137.565099435396
 31
0.0
 11
87.13143700034205
 21
137.5650968410718
 31
0.0
 11
87.13143705237698
 21
137.5650942467472
 31
0.0
  0
SPLINE
  5
119
330
39
100
AcDbEntity
  8
1
  6
Continuous
 62
     7
100
AcDbSpline
210
0.0
220
0.0
230
1.0
 70
    24
 71
     3
 72
     9
 73
     5
 74
     3
 42
0.0000000001
 43
0.0000000001
 44
0.00000001
 40
0.0
 40
0.0
 40
0.0
 40
0.0
 40
0.0000025948648905
 40
0.0000051897284863
 40
0.0000051897284863
 40
0.0000051897284863
 40
0.0000051897284863
 10
103.6313950492516
 20
137.5650942467257
 30
0.0
 10
103.6313950666021
 20
137.5650951115066
 30
0.0
 10
103.631395101303
 20
137.5650968410681
 30
0.0
 10
103.6313951359394
 20
137.5650985706307
 30
0.0
 10
103.6313951532576
 20
137.5650994354119
 30
0.0
 11
103.6313950492516
 21
137.5650942467257
 31
0.0
 11
103.6313951012869
 21
137.5650968410688
 31
0.0
 11
103.6313951532576
 21
137.5650994354119
 31
0.0
  0
SPLINE
  5
11A
330
39
100
AcDbEntity
  8
1
  6
Continuous
 62
     7
100
AcDbSpline
210
0.0
220
0.0
230
1.0
 70
     8
 71
     3
 72
    45
 73
    41
 74
    39
 42
0.0000000001
 43
0.0000000001
 44
0.00000001
 40
0.0
 40
0.0
 40
0.0
 40
0.0
 40
0.0462393280975121
 40
0.1003470414998174
 40
0.2691608270044598
 40
0.4261387020812585
 40
0.6844079224991613
 40
0.9435995419890912
 40
1.310383365764019
 40
1.676797150381105
 40
2.142254720954983
 40
2.607682510506544
 40
3.159389755615826
 40
3.711072093192941
 40
4.333025154720438
 40
4.95496594199313
 40
5.628793452875339
 40
6.302615242423355
 40
7.008249968574884
 40
7.713882128412713
 40
8.43023237939242
 40
9.146582630372098
 40
9.852214790209899
 40
10.55784951636146
 40
11.2316713059095
 40
11.90549881679168
 40
12.52743960406436
 40
13.14939266559191
 40
13.70107500316906
 40
14.25278224827832
 40
14.71821003782984
 40
15.18366760840371
 40
15.55008139302077
 40
15.91686521679571
 40
16.17605683628563
 40
16.43432605670349
 40
16.59130393178027
 40
16.7601177172849
 40
16.81422543067538
 40
16.86046475876362
 40
16.86046475876362
 40
16.86046475876362
 40
16.86046475876362
 10
87.13143705237698
 20
137.5650942467472
 30
0.0
 10
87.1338498115789
 20
137.54962652683
 30
0.0
 10
87.13908590080702
 20
137.5160589990068
 30
0.0
 10
87.19578217354018
 20
137.4436894030567
 30
0.0
 10
87.28935759617195
 20
137.3575899345357
 30
0.0
 10
87.46564867764924
 20
137.2703755149518
 30
0.0
 10
87.68136851294148
 20
137.2066250014219
 30
0.0
 10
87.96458320743439
 20
137.1249581352946
 30
0.0
 10
88.28725839898047
 20
137.0511659105146
 30
0.0
 10
88.6800388261515
 20
136.9776441305051
 30
0.0
 10
89.10763549139975
 20
136.9126653338216
 30
0.0
 10
89.59765570128675
 20
136.8483807567653
 30
0.0
 10
90.11752448028643
 20
136.7914235604798
 30
0.0
 10
90.69021664772092
 20
136.7384690666605
 30
0.0
 10
91.28703099524634
 20
136.6929232384639
 30
0.0
 10
91.92502824582357
 20
136.6528117195112
 30
0.0
 10
92.58076375699433
 20
136.6201600962994
 30
0.0
 10
93.2647087416297
 20
136.5940733628001
 30
0.0
 10
93.95950626129742
 20
136.575554630268
 30
0.0
 10
94.66863473150123
 20
136.5642253869424
 30
0.0
 10
95.38141605081455
 20
136.5605255827719
 30
0.0
 10
96.09419737012783
 20
136.5642253869424
 30
0.0
 10
96.80332584033164
 20
136.575554630268
 30
0.0
 10
97.49812335999937
 20
136.5940733628001
 30
0.0
 10
98.18206834463473
 20
136.6201600962993
 30
0.0
 10
98.83780385580556
 20
136.6528117195113
 30
0.0
 10
99.4758011063827
 20
136.6929232384639
 30
0.0
 10
100.0726154539082
 20
136.7384690666605
 30
0.0
 10
100.6453076213427
 20
136.7914235604797
 30
0.0
 10
101.1651764003424
 20
136.8483807567653
 30
0.0
 10
101.6551966102293
 20
136.9126653338215
 30
0.0
 10
102.0827932754776
 20
136.9776441305051
 30
0.0
 10
102.4755737026486
 20
137.0511659105146
 30
0.0
 10
102.7982488941947
 20
137.1249581352946
 30
0.0
 10
103.0814635886875
 20
137.2066250014219
 30
0.0
 10
103.2971834239798
 20
137.2703755149518
 30
0.0
 10
103.4734745054569
 20
137.3575899345356
 30
0.0
 10
103.5670499280862
 20
137.4436894030546
 30
0.0
 10
103.6237462008148
 20
137.5160589989973
 30
0.0
 10
103.6289822900476
 20
137.5496265268122
 30
0.0
 10
103.6313950492516
 20
137.5650942467257
 30
0.0
 11
87.13143705237698
 21
137.5650942467472
 31
0.0
 11
87.14205163008896
 21
137.5200897336079
 31
0.0
 11
87.17208891436529
 21
137.4750852204683
 31
0.0
 11
87.29712953826537
 21
137.3616703336541
 31
0.0
 11
87.43614423136204
 21
137.2887527886676
 31
0.0
 11
87.68113007947358
 21
137.2069914014463
 31
0.0
 11
87.93064406933594
 21
137.1368268485954
 31
0.0
 11
88.28784374392647
 21
137.0535275937645
 31
0.0
 11
88.6478937815159
 21
136.985534711863
 31
0.0
 11
89.10785720409115
 21
136.9142297337941
 31
0.0
 11
89.56932224033514
 21
136.8536240607001
 31
0.0
 11
90.1176853677142
 21
136.7929712385306
 31
0.0
 11
90.66700864480252
 21
136.7420071448616
 31
0.0
 11
91.28712981596661
 21
136.6943065807401
 31
0.0
 11
91.90783940850017
 21
136.6551920743493
 31
0.0
 11
92.58082231337164
 21
136.6214648720866
 31
0.0
 11
93.25415271352883
 21
136.5957359721129
 31
0.0
 11
93.95953357087097
 21
136.5768094603847
 31
0.0
 11
94.66507575243156
 21
136.5655411403624
 31
0.0
 11
95.38141605081455
 21
136.5617650324111
 31
0.0
 11
96.09775634919751
 21
136.5655411403624
 31
0.0
 11
96.80329853075807
 21
136.5768094603847
 31
0.0
 11
97.50867938810025
 21
136.5957359721129
 31
0.0
 11
98.18200978825746
 21
136.6214648720866
 31
0.0
 11
98.85499269312891
 21
136.6551920743493
 31
0.0
 11
99.47570228566245
 21
136.6943065807401
 31
0.0
 11
100.0958234568266
 21
136.7420071448616
 31
0.0
 11
100.645146733915
 21
136.7929712385305
 31
0.0
 11
101.193509861294
 21
136.8536240607001
 31
0.0
 11
101.6549748975379
 21
136.9142297337941
 31
0.0
 11
102.1149383201132
 21
136.985534711863
 31
0.0
 11
102.4749883577026
 21
137.0535275937645
 31
0.0
 11
102.8321880322931
 21
137.1368268485954
 31
0.0
 11
103.0817020221555
 21
137.2069914014463
 31
0.0
 11
103.326687870267
 21
137.2887527886676
 31
0.0
 11
103.4657025633636
 21
137.3616703336541
 31
0.0
 11
103.5907431872637
 21
137.4750852204683
 31
0.0
 11
103.6207804715351
 21
137.520089733597
 31
0.0
 11
103.6313950492516
 21
137.5650942467257
 31
0.0
  0
ARC
  5
11B
330
39
100
AcDbEntity
  8
0
  6
Continuous
 62
     7
100
AcDbCircle
 10
108.1314160508145
 20
362.5650361823407
 30
0.0
 40
4.0
100
AcDbArc
 50
90.0
 51
180.0
  0
ARC
  5
11C
330
39
100
AcDbEntity
  8
0
  6
Continuous
 62
     7
100
AcDbCircle
 10
82.63141605081458
 20
362.5650361823407
 30
0.0
 40
3.999999999999886
100
AcDbArc
 50
0.0
 51
90.0
  0
ARC
  5
11D
330
39
100
AcDbEntity
  8
1
  6
Continuous
 62
     7
100
AcDbCircle
 10
179.8285066801728
 20
146.3839779493848
 30
0.0
 40
7.00000000000009
100
AcDbArc
 50
66.75006883398784
 51
172.9999999999996
  0
ARC
  5
11E
330
39
100
AcDbEntity
  8
1
  6
Continuous
 62
     7
100
AcDbCircle
 10
172.2727751070357
 20
154.5943094100335
 30
0.0
 40
14.99999999999993
100
AcDbArc
 50
100.3185208330362
 51
173.0000000000001
  0
ARC
  5
11F
330
39
100
AcDbEntity
  8
1
  6
Continuous
 62
     7
100
AcDbCircle
 10
216.3814160508146
 20
177.899208092537
 30
0.0
 40
6.0
100
AcDbArc
 50
180.0
 51
-120.0881938159433
  0
ARC
  5
120
330
39
100
AcDbEntity
  8
1
  6
Continuous
 62
     7
100
AcDbCircle
 10
222.4009393599895
 20
201.3171871155035
 30
0.0
 40
29.9999999999999
100
AcDbArc
 50
-107.5127047003517
 51
-90.0
  0
ARC
  5
121
330
39
100
AcDbEntity
  8
1
  6
Continuous
 62
     7
100
AcDbCircle
 10
222.4009393599895
 20
123.8171871155035
 30
0.0
 40
29.99999999999999
100
AcDbArc
 50
90.0
 51
110.0680546208192
  0
ARC
  5
122
330
39
100
AcDbEntity
  8
1
  6
Continuous
 62
     7
100
AcDbCircle
 10
56.63141605081447
 20
348.1208229125532
 30
0.0
 40
29.99999999999993
100
AcDbArc
 50
-16.33962819070417
 51
0.0
  0
ARC
  5
123
330
39
100
AcDbEntity
  8
1
  6
Continuous
 62
     7
100
AcDbCircle
 10
56.63141605081447
 20
300.0817762942033
 30
0.0
 40
29.99999999999999
100
AcDbArc
 50
0.0
 51
20.06805462081948
  0
ARC
  5
124
330
39
100
AcDbEntity
  8
1
  6
Continuous
 62
     7
100
AcDbCircle
 10
134.1314160508145
 20
300.0817762942033
 30
0.0
 40
30.00000000000002
100
AcDbArc
 50
159.9319453791805
 51
180.0
  0
ARC
  5
125
330
39
100
AcDbEntity
  8
1
  6
Continuous
 62
     7
100
AcDbCircle
 10
72.88141605081447
 20
367.0634948492073
 30
0.0
 40
0.5
100
AcDbArc
 50
180.0
 51
-94.49999999999668
  0
ARC
  5
126
330
39
100
AcDbEntity
  8
1
  6
Continuous
 62
     7
100
AcDbCircle
 10
117.8814160508145
 20
367.0634948492073
 30
0.0
 40
0.5000000000000461
100
AcDbArc
 50
-85.50000000000171
 51
0.0
  0
ARC
  5
127
330
39
100
AcDbEntity
  8
1
  6
Continuous
 62
     7
100
AcDbCircle
 10
241.387790009529
 20
185.0671871155035
 30
0.0
 40
0.5
100
AcDbArc
 50
90.0
 51
175.5000000000001
  0
ARC
  5
128
330
39
100
AcDbEntity
  8
1
  6
Continuous
 62
     7
100
AcDbCircle
 10
134.1314160508145
 20
348.1208229125532
 30
0.0
 40
30.0
100
AcDbArc
 50
180.0
 51
-163.6603718092958
  0
ARC
  5
129
330
39
100
AcDbEntity
  8
1
  6
Continuous
 62
     7
100
AcDbCircle
 10
113.3814160508146
 20
168.6499496458017
 30
0.0
 40
6.0
100
AcDbArc
 50
180.0
 51
-161.3282819359926
  0
ARC
  5
12A
330
39
100
AcDbEntity
  8
1
  6
Continuous
 62
     7
100
AcDbCircle
 10
241.387790009529
 20
140.0671871155035
 30
0.0
 40
0.500000000000045
100
AcDbArc
 50
-175.5000000000033
 51
-90.0
  0
ARC
  5
12B
330
39
100
AcDbEntity
  8
0
  6
Continuous
 62
     7
100
AcDbCircle
 10
236.845152629777
 20
149.8171871155035
 30
0.0
 40
4.0
100
AcDbArc
 50
0.0
 51
90.0
  0
ARC
  5
12C
330
39
100
AcDbEntity
  8
0
  6
Continuous
 62
     7
100
AcDbCircle
 10
236.845152629777
 20
175.3171871155035
 30
0.0
 40
4.0
100
AcDbArc
 50
-90.0
 51
0.0
  0
ARC
  5
12D
330
39
100
AcDbEntity
  8
1
  6
Continuous
 62
     7
100
AcDbCircle
 10
77.38141605081458
 20
168.6499496458017
 30
0.0
 40
5.999999999999907
100
AcDbArc
 50
-18.67171806400806
 51
0.0
  0
ENDBLK
  5
3B
330
39
100
AcDbEntity
  8
0
100
AcDbBlockEnd
  0
BLOCK
  5
3D
330
3C
100
AcDbEntity
  8
0
100
AcDbBlockBegin
  2
21-1A
 70
     0
 71
     0
 10
-95.1761630290502
 20
151.5070913905122
 30
0.0
  3
21-1A
  1

  0
LINE
  5
12E
330
3C
100
AcDbEntity
  8
1
  6
Continuous
 62
     7
100
AcDbLine
 10
89.58586109308007
 20
297.5483853327633
 30
0.0
 11
85.93445188160968
 21
311.1756300291962
 31
0.0
  0
LINE
  5
12F
330
3C
100
AcDbEntity
  8
1
  6
Continuous
 62
     7
100
AcDbLine
 10
69.48814026908428
 20
332.3586589162591
 30
0.0
 11
79.46397575404666
 21
322.3828234312969
 31
0.0
  0
LINE
  5
130
330
3C
100
AcDbEntity
  8
1
  6
Continuous
 62
     7
100
AcDbLine
 10
75.28369522681868
 20
342.396854561113
 30
0.0
 11
88.91093992325148
 21
338.7454453496424
 31
0.0
  0
LINE
  5
131
330
3C
100
AcDbEntity
  8
1
  6
Continuous
 62
     7
100
AcDbLine
 10
116.2396417774309
 20
342.6006312356099
 30
0.0
 11
101.8518921783776
 21
338.7454453496424
 31
0.0
  0
LINE
  5
132
330
3C
100
AcDbEntity
  8
1
  6
Continuous
 62
     7
100
AcDbLine
 10
121.2746918325448
 20
332.3586589162591
 30
0.0
 11
111.2988563475825
 21
322.3828234312969
 31
0.0
  0
LINE
  5
133
330
3C
100
AcDbEntity
  8
1
  6
Continuous
 62
     7
100
AcDbLine
 10
101.176971008549
 20
297.5483853327633
 30
0.0
 11
104.8283802200194
 21
311.1756300291961
 31
0.0
  0
LINE
  5
134
330
3C
100
AcDbEntity
  8
1
  6
Continuous
 62
     7
100
AcDbLine
 10
216.3061903387401
 20
205.0671871155035
 30
0.0
 11
198.3814160508146
 21
205.0671871155035
 31
0.0
  0
LINE
  5
135
330
3C
100
AcDbEntity
  8
1
  6
Continuous
 62
     7
100
AcDbLine
 10
167.9133743190467
 20
208.8522668708542
 30
0.0
 11
167.4614662200543
 21
205.6367736659835
 31
0.0
  0
LINE
  5
136
330
3C
100
AcDbEntity
  8
1
  6
Continuous
 62
     7
100
AcDbLine
 10
216.1841019051657
 20
210.0262637212471
 30
0.0
 11
216.8013193991732
 21
205.6368090482161
 31
0.0
  0
LINE
  5
137
330
3C
100
AcDbEntity
  8
1
  6
Continuous
 62
     7
100
AcDbLine
 10
167.9566002544251
 20
205.0671871155035
 30
0.0
 11
198.3814160508146
 21
205.0671871155035
 31
0.0
  0
LINE
  5
138
330
3C
100
AcDbEntity
  8
1
  6
Continuous
 62
     7
100
AcDbLine
 10
68.23078095620366
 20
205.0671871155035
 30
0.0
 11
122.5320511454257
 21
205.0671871155035
 31
0.0
  0
LINE
  5
139
330
3C
100
AcDbEntity
  8
1
  6
Continuous
 62
     7
100
AcDbLine
 10
123.0271851797966
 20
205.6367736659837
 30
0.0
 11
122.575277080804
 21
208.8522668708542
 31
0.0
  0
LINE
  5
13A
330
3C
100
AcDbEntity
  8
1
  6
Continuous
 62
     7
100
AcDbLine
 10
68.18755502082539
 20
208.8522668708542
 30
0.0
 11
67.73564692183288
 21
205.6367736659837
 31
0.0
  0
LINE
  5
13B
330
3C
100
AcDbEntity
  8
1
  6
Continuous
 62
     7
100
AcDbLine
 10
88.91093992325187
 20
207.0749176481424
 30
0.0
 11
88.91093992325187
 21
208.8522668708542
 31
0.0
  0
LINE
  5
13C
330
3C
100
AcDbEntity
  8
1
  6
Continuous
 62
     7
100
AcDbLine
 10
101.8518921783777
 20
208.8522668708542
 30
0.0
 11
101.8518921783777
 21
206.922078486797
 31
0.0
  0
ARC
  5
13D
330
3C
100
AcDbEntity
  8
1
  6
Continuous
 62
     7
100
AcDbCircle
 10
95.38141605081447
 20
299.1012996033785
 30
0.0
 40
6.000000000000004
100
AcDbArc
 50
-164.9999999999994
 51
-90.0
  0
ARC
  5
13E
330
3C
100
AcDbEntity
  8
1
  6
Continuous
 62
     7
100
AcDbCircle
 10
73.73078095620357
 20
336.6012996033785
 30
0.0
 40
6.000000000000092
100
AcDbArc
 50
75.00000000000044
 51
-134.9999999999994
  0
ARC
  5
13F
330
3C
100
AcDbEntity
  8
1
  6
Continuous
 62
     7
100
AcDbCircle
 10
117.0320511454256
 20
336.6012996033785
 30
0.0
 40
6.000000000000008
100
AcDbArc
 50
-45.00000000000115
 51
97.52424107894127
  0
ARC
  5
140
330
3C
100
AcDbEntity
  8
1
  6
Continuous
 62
     7
100
AcDbCircle
 10
95.38141605081447
 20
299.1012996033785
 30
0.0
 40
6.0
100
AcDbArc
 50
-90.0
 51
-15.00000000000029
  0
ARC
  5
141
330
3C
100
AcDbEntity
  8
1
  6
Continuous
 62
     7
100
AcDbCircle
 10
198.3814160508146
 20
66.06718711550352
 30
0.0
 40
150.0533238552215
100
AcDbArc
 50
91.52752544221293
 51
99.8029017937678
  0
ARC
  5
142
330
3C
100
AcDbEntity
  8
1
  6
Continuous
 62
     7
100
AcDbCircle
 10
198.7456117160613
 20
141.1553661068043
 30
0.0
 40
74.99999999999996
100
AcDbArc
 50
80.40850751733497
 51
87.22136103403736
  0
ARC
  5
143
330
3C
100
AcDbEntity
  8
1
  6
Continuous
 62
     7
100
AcDbCircle
 10
93.74432569992538
 20
88.6970345751792
 30
0.0
 40
127.494833408141
100
AcDbArc
 50
79.19050675364777
 51
87.46588310520266
  0
ARC
  5
144
330
3C
100
AcDbEntity
  8
1
  6
Continuous
 62
     7
100
AcDbCircle
 10
97.01850640170395
 20
88.6970345751792
 30
0.0
 40
127.4948334081408
100
AcDbArc
 50
92.53411689479744
 51
100.8094932463522
  0
SPLINE
  5
145
330
3C
100
AcDbEntity
  8
0
  6
Continuous
 62
     7
100
AcDbSpline
210
0.0
220
0.0
230
1.0
 70
     8
 71
     3
 72
    35
 73
    31
 74
    29
 42
0.0000000001
 43
0.0000000001
 44
0.00000001
 40
0.0
 40
0.0
 40
0.0
 40
0.0
 40
0.6095664701736261
 40
1.217631710174672
 40
1.818364858744356
 40
2.420251448870761
 40
3.012574584768626
 40
3.604379366438598
 40
4.187127320374309
 40
4.770042709358951
 40
5.344635662521339
 40
5.919155670249238
 40
6.487495311597993
 40
7.055844637159737
 40
7.620860568606083
 40
8.185865086527238
 40
8.750867887076897
 40
9.315885831846122
 40
9.884245147472033
 40
10.45257411423284
 40
11.02705120930342
 40
11.6016888206777
 40
12.26274694007698
 40
12.92355591635749
 40
13.43733587887815
 40
13.95144934917281
 40
14.55327005497662
 40
15.15406389004654
 40
15.76214773013169
 40
16.37169678613083
 40
16.37169678613083
 40
16.37169678613083
 40
16.37169678613083
 10
89.30115738077208
 20
211.2770159293798
 30
0.0
 10
89.3741203050709
 20
211.4666498908009
 30
0.0
 10
89.51986646179114
 20
211.8454507862744
 30
0.0
 10
89.76725748346043
 20
212.3995956016115
 30
0.0
 10
90.07022115526289
 20
212.9228838491542
 30
0.0
 10
90.41648684889155
 20
213.4116447814868
 30
0.0
 10
90.79878136690465
 20
213.8688638206027
 30
0.0
 10
91.21408360647061
 20
214.2875607901887
 30
0.0
 10
91.66290201491631
 20
214.6652807475623
 30
0.0
 10
92.13913481035755
 20
214.9978869500671
 30
0.0
 10
92.64123456326762
 20
215.2844886369862
 30
0.0
 10
93.16315057225727
 20
215.5217582881295
 30
0.0
 10
93.70304246257184
 20
215.7083840585249
 30
0.0
 10
94.25502457840631
 20
215.8427053724211
 30
0.0
 10
94.81619714307658
 20
215.9236394001497
 30
0.0
 10
95.38141542295558
 20
215.9508173662717
 30
0.0
 10
95.94663470532515
 20
215.923643733735
 30
0.0
 10
96.50781057465196
 20
215.8427064918087
 30
0.0
 10
97.05979047871814
 20
215.7083730678052
 30
0.0
 10
97.59966851942333
 20
215.5217583012905
 30
0.0
 10
98.12159915364958
 20
215.2845180426741
 30
0.0
 10
98.64633263661064
 20
214.984978351004
 30
0.0
 10
99.16325460709618
 20
214.6191184875034
 30
0.0
 10
99.62514896439166
 20
214.2161681432914
 30
0.0
 10
100.0150086477036
 20
213.8094023713807
 30
0.0
 10
100.3613801159758
 20
213.3903473601909
 30
0.0
 10
100.6925349386683
 20
212.9228583396125
 30
0.0
 10
100.9955790804242
 20
212.3996161664198
 30
0.0
 10
101.2429966950118
 20
211.845456619875
 30
0.0
 10
101.3887235929906
 20
211.4666481036073
 30
0.0
 10
101.4616747208571
 20
211.2770159293798
 30
0.0
 11
89.30115738077208
 21
211.2770159293798
 31
0.0
 11
89.52503701247926
 21
211.8439808242953
 31
0.0
 11
89.77781934976406
 21
212.3970128541583
 31
0.0
 11
90.07770773871307
 21
212.9175388092883
 31
0.0
 11
90.42474376896078
 21
213.4093044659622
 31
0.0
 11
90.80511442433922
 21
213.8633582753801
 31
0.0
 11
91.22227416724437
 21
214.283132796411
 31
0.0
 11
91.66818447572042
 21
214.6583116532394
 31
0.0
 11
92.14617798703299
 21
214.9919470138626
 31
0.0
 11
92.6452776638876
 21
215.2766513769965
 31
0.0
 11
93.16838287827989
 21
215.5142101569969
 31
0.0
 11
93.70555908186009
 21
215.699821779035
 31
0.0
 11
94.25782966262568
 21
215.8340535244878
 31
0.0
 11
94.81705951350814
 21
215.9147069600635
 31
0.0
 11
95.38141605081458
 21
215.9417588374624
 31
0.0
 11
95.94577102547845
 21
215.9147102293448
 31
0.0
 11
96.50500243900316
 21
215.8340535244878
 31
0.0
 11
97.05728089792294
 21
215.6998118935682
 31
0.0
 11
97.59444922334907
 21
215.5142101569969
 31
0.0
 11
98.11752402686285
 21
215.276688194455
 31
0.0
 11
98.61665411459629
 21
214.9919470138626
 31
0.0
 11
99.1563996687415
 21
214.610276247358
 31
0.0
 11
99.65442681254868
 21
214.1759520974836
 31
0.0
 11
100.0102248099237
 21
213.8053072068515
 31
0.0
 11
100.3380883326684
 21
213.4093044659622
 31
0.0
 11
100.6850425025094
 21
212.9175616816083
 31
0.0
 11
100.985012751865
 21
212.3970128541583
 31
0.0
 11
101.2378228567369
 21
211.8439730658543
 31
0.0
 11
101.4616747208571
 21
211.2770159293798
 31
0.0
  0
ARC
  5
146
330
3C
100
AcDbEntity
  8
1
  6
Continuous
 62
     7
100
AcDbCircle
 10
61.78630622438288
 20
304.7051539016331
 30
0.0
 40
25.00000000000012
100
AcDbArc
 50
15.0000000000002
 51
45.00000000000009
  0
ARC
  5
147
330
3C
100
AcDbEntity
  8
1
  6
Continuous
 62
     7
100
AcDbCircle
 10
95.38141605081447
 20
362.8935910068691
 30
0.0
 40
24.99999999999996
100
AcDbArc
 50
-105.0
 51
-74.99999999999973
  0
ARC
  5
148
330
3C
100
AcDbEntity
  8
1
  6
Continuous
 62
     7
100
AcDbCircle
 10
128.9765258772462
 20
304.7051539016331
 30
0.0
 40
25.0000000000001
100
AcDbArc
 50
134.9999999999998
 51
165.0000000000001
  0
ARC
  5
149
330
3C
100
AcDbEntity
  8
1
  6
Continuous
 62
     7
100
AcDbCircle
 10
173.8549827314961
 20
208.0172282650939
 30
0.0
 40
5.999999999999911
100
AcDbArc
 50
99.80290179376826
 51
172.0000000000008
  0
ARC
  5
14A
330
3C
100
AcDbEntity
  8
1
  6
Continuous
 62
     7
100
AcDbCircle
 10
210.2425531799685
 20
209.1908005286957
 30
0.0
 40
6.000000000000063
100
AcDbArc
 50
8.00409437170091
 51
80.4085075173346
  0
ARC
  5
14B
330
3C
100
AcDbEntity
  8
1
  6
Continuous
 62
     7
100
AcDbCircle
 10
167.9566002544251
 20
205.5671871155035
 30
0.0
 40
0.5000000000000184
100
AcDbArc
 50
172.0000000000028
 51
-90.0
  0
ARC
  5
14C
330
3C
100
AcDbEntity
  8
1
  6
Continuous
 62
     7
100
AcDbCircle
 10
216.3061903387401
 20
205.5671871155035
 30
0.0
 40
0.5
100
AcDbArc
 50
-90.0
 51
8.00409437169984
  0
ARC
  5
14D
330
3C
100
AcDbEntity
  8
1
  6
Continuous
 62
     7
100
AcDbCircle
 10
116.6336686683547
 20
208.017228265094
 30
0.0
 40
5.999999999999854
100
AcDbArc
 50
7.99999999999851
 51
80.19709820623207
  0
ARC
  5
14E
330
3C
100
AcDbEntity
  8
1
  6
Continuous
 62
     7
100
AcDbCircle
 10
122.5320511454257
 20
205.5671871155035
 30
0.0
 40
0.5
100
AcDbArc
 50
-90.0
 51
8.00000000001819
  0
ARC
  5
14F
330
3C
100
AcDbEntity
  8
1
  6
Continuous
 62
     7
100
AcDbCircle
 10
68.23078095620366
 20
205.5671871155035
 30
0.0
 40
0.500000000000018
100
AcDbArc
 50
171.9999999999798
 51
-90.0
  0
ARC
  5
150
330
3C
100
AcDbEntity
  8
1
  6
Continuous
 62
     7
100
AcDbCircle
 10
74.12916343327458
 20
208.017228265094
 30
0.0
 40
5.99999999999992
100
AcDbArc
 50
99.80290179376713
 51
172.0000000000014
  0
ENDBLK
  5
3E
330
3C
100
AcDbEntity
  8
0
100
AcDbBlockEnd
  0
BLOCK
  5
40
330
3F
100
AcDbEntity
  8
0
100
AcDbBlockBegin
  2
37-1-13
 70
     0
 71
     0
 10
-17.25007120374224
 20
160.6532280086533
 30
0.0
  3
37-1-13
  1

  0
LINE
  5
151
330
3F
100
AcDbEntity
  8
1
  6
Continuous
 62
     7
100
AcDbLine
 10
84.88141605081478
 20
195.4968784036886
 30
0.0
 11
105.3814160508146
 21
195.4968784036885
 31
0.0
  0
LINE
  5
152
330
3F
100
AcDbEntity
  8
1
  6
Continuous
 62
     7
100
AcDbLine
 10
84.35704688653587
 20
315.4551151090901
 30
0.0
 11
83.31926718549278
 21
316.0542774988469
 31
0.0
  0
LINE
  5
153
330
3F
100
AcDbEntity
  8
1
  6
Continuous
 62
     7
100
AcDbLine
 10
108.3814160508145
 20
318.8770080935593
 30
0.0
 11
108.3814160508145
 21
317.6786833140458
 31
0.0
  0
LINE
  5
154
330
3F
100
AcDbEntity
  8
1
  6
Continuous
 62
     7
100
AcDbLine
 10
93.40578521509306
 20
337.9717756074855
 30
0.0
 11
94.44356491613618
 21
338.5709379972423
 31
0.0
  0
LINE
  5
155
330
3F
100
AcDbEntity
  8
1
  6
Continuous
 62
     7
100
AcDbLine
 10
107.4435649161362
 20
316.0542774988469
 30
0.0
 11
106.4057852150931
 21
315.4551151090901
 31
0.0
  0
LINE
  5
156
330
3F
100
AcDbEntity
  8
1
  6
Continuous
 62
     7
100
AcDbLine
 10
96.31926718549269
 20
338.5709379972423
 30
0.0
 11
97.35704688653587
 21
337.9717756074855
 31
0.0
  0
LINE
  5
157
330
3F
100
AcDbEntity
  8
1
  6
Continuous
 62
     7
100
AcDbLine
 10
82.38141605081447
 20
317.6786833140458
 30
0.0
 11
82.38141605081447
 21
318.8770080935594
 31
0.0
  0
LINE
  5
158
330
3F
100
AcDbEntity
  8
1
  6
Continuous
 62
     7
100
AcDbLine
 10
204.3814160508146
 20
201.9968784036885
 30
0.0
 11
192.3814160508146
 21
201.9968784036885
 31
0.0
  0
LINE
  5
159
330
3F
100
AcDbEntity
  8
1
  6
Continuous
 62
     7
100
AcDbLine
 10
211.4521302650859
 20
187.9968784036885
 30
0.0
 11
185.310701836543
 21
187.9968784036885
 31
0.0
  0
LINE
  5
15A
330
3F
100
AcDbEntity
  8
1
  6
Continuous
 62
     7
100
AcDbLine
 10
185.8814160508147
 20
195.4968784036886
 30
0.0
 11
198.3814160508146
 21
195.4968784036885
 31
0.0
  0
LINE
  5
15B
330
3F
100
AcDbEntity
  8
1
  6
Continuous
 62
     7
100
AcDbLine
 10
198.3814160508146
 20
195.4968784036885
 30
0.0
 11
210.8814160508143
 21
195.4968784036886
 31
0.0
  0
LINE
  5
15C
330
3F
100
AcDbEntity
  8
1
  6
Continuous
 62
     7
100
AcDbLine
 10
95.38141605081458
 20
201.9968784036885
 30
0.0
 11
90.38141605081458
 21
201.9968784036885
 31
0.0
  0
LINE
  5
15D
330
3F
100
AcDbEntity
  8
1
  6
Continuous
 62
     7
100
AcDbLine
 10
95.38141605081458
 20
201.9968784036885
 30
0.0
 11
101.3814160508146
 21
201.9968784036885
 31
0.0
  0
LINE
  5
15E
330
3F
100
AcDbEntity
  8
1
  6
Continuous
 62
     7
100
AcDbLine
 10
90.38141605081458
 20
201.9968784036885
 30
0.0
 11
89.38141605081458
 21
201.9968784036885
 31
0.0
  0
LINE
  5
15F
330
3F
100
AcDbEntity
  8
1
  6
Continuous
 62
     7
100
AcDbLine
 10
95.38141605081458
 20
187.9968784036885
 30
0.0
 11
108.3814160508146
 21
187.9968784036885
 31
0.0
  0
LINE
  5
160
330
3F
100
AcDbEntity
  8
1
  6
Continuous
 62
     7
100
AcDbLine
 10
95.38141605081458
 20
187.9968784036885
 30
0.0
 11
82.38141605081458
 21
187.9968784036885
 31
0.0
  0
LINE
  5
161
330
3F
100
AcDbEntity
  8
1
  6
Continuous
 62
     7
100
AcDbLine
 10
108.3814160508146
 20
195.0675926179599
 30
0.0
 11
108.3814160508146
 21
187.9968784036885
 31
0.0
  0
LINE
  5
162
330
3F
100
AcDbEntity
  8
1
  6
Continuous
 62
     7
100
AcDbLine
 10
82.38141605081458
 20
187.9968784036885
 30
0.0
 11
82.38141605081458
 21
195.0675926179599
 31
0.0
  0
ARC
  5
163
330
3F
100
AcDbEntity
  8
1
  6
Continuous
 62
     7
100
AcDbCircle
 10
95.38141605081458
 20
324.1012996033785
 30
0.0
 40
14.49999999999982
100
AcDbArc
 50
86.29155527472989
 51
90.00000000000046
  0
ARC
  5
164
330
3F
100
AcDbEntity
  8
1
  6
Continuous
 62
     7
100
AcDbCircle
 10
95.38141605081458
 20
324.1012996033785
 30
0.0
 40
14.5
100
AcDbArc
 50
-33.70844472527153
 51
-26.29155527472988
  0
ARC
  5
165
330
3F
100
AcDbEntity
  8
1
  6
Continuous
 62
     7
100
AcDbCircle
 10
95.38141605081458
 20
324.1012996033785
 30
0.0
 40
14.49999999999989
100
AcDbArc
 50
90.00000000000046
 51
93.70844472527125
  0
ARC
  5
166
330
3F
100
AcDbEntity
  8
1
  6
Continuous
 62
     7
100
AcDbCircle
 10
95.38141605081458
 20
324.1012996033785
 30
0.0
 40
14.50000000000015
100
AcDbArc
 50
-153.7084447252705
 51
-146.2915552747289
  0
ARC
  5
167
330
3F
100
AcDbEntity
  8
1
  6
Continuous
 62
     7
100
AcDbCircle
 10
188.8814160508146
 20
191.4968784036885
 30
0.0
 40
5.00000000000004
100
AcDbArc
 50
126.8698976458425
 51
-135.5729959991959
  0
ARC
  5
168
330
3F
100
AcDbEntity
  8
1
  6
Continuous
 62
     7
100
AcDbCircle
 10
172.4749608456995
 20
215.4033336088035
 30
0.0
 40
24.00000000000012
100
AcDbArc
 50
-56.04080749990196
 51
-33.95919250009744
  0
ARC
  5
169
330
3F
100
AcDbEntity
  8
1
  6
Continuous
 62
     7
100
AcDbCircle
 10
207.8814160508146
 20
191.4968784036885
 30
0.0
 40
4.999999999999915
100
AcDbArc
 50
-44.42700400080667
 51
53.13010235415963
  0
ARC
  5
16A
330
3F
100
AcDbEntity
  8
1
  6
Continuous
 62
     7
100
AcDbCircle
 10
224.2878712559294
 20
215.4033336088035
 30
0.0
 40
23.99999999999993
100
AcDbArc
 50
-146.0408074999021
 51
-123.9591925000979
  0
ARC
  5
16B
330
3F
100
AcDbEntity
  8
1
  6
Continuous
 62
     7
100
AcDbCircle
 10
121.2878712559296
 20
215.4033336088035
 30
0.0
 40
24.00000000000012
100
AcDbArc
 50
-146.0408074999025
 51
-123.9591925000977
  0
ARC
  5
16C
330
3F
100
AcDbEntity
  8
1
  6
Continuous
 62
     7
100
AcDbCircle
 10
104.8814160508146
 20
191.4968784036885
 30
0.0
 40
4.999999999999975
100
AcDbArc
 50
45.57299599919402
 51
53.13010235415676
  0
ARC
  5
16D
330
3F
100
AcDbEntity
  8
1
  6
Continuous
 62
     7
100
AcDbCircle
 10
69.47496084569968
 20
215.4033336088035
 30
0.0
 40
23.99999999999996
100
AcDbArc
 50
-56.04080749990252
 51
-33.95919250009771
  0
ARC
  5
16E
330
3F
100
AcDbEntity
  8
1
  6
Continuous
 62
     7
100
AcDbCircle
 10
85.88141605081458
 20
191.4968784036885
 30
0.0
 40
5.000000000000091
100
AcDbArc
 50
126.8698976458433
 51
134.427004000806
  0
SPLINE
  5
16F
330
3F
100
AcDbEntity
  8
1
  6
Continuous
 62
     7
100
AcDbSpline
210
0.0
220
0.0
230
1.0
 70
    11
 71
     3
 72
    79
 73
    75
 74
    73
 42
0.0000000001
 43
0.0000000001
 44
0.00000001
 40
0.0
 40
0.0
 40
0.0
 40
0.0
 40
0.3102615659794887
 40
0.6205595479395853
 40
0.942216302741863
 40
1.263944877610412
 40
1.606039025452127
 40
1.948193473341295
 40
2.316051889495028
 40
2.683951052454275
 40
3.079084668228832
 40
3.474244784278473
 40
3.894897963282707
 40
4.315568211551504
 40
4.757452130783305
 40
5.199346678283736
 40
5.656354166028165
 40
6.113367482700981
 40
6.578223041779974
 40
7.043080459895363
 40
7.507937878010782
 40
7.972793437089801
 40
8.429806753762655
 40
8.886814241507159
 40
9.32870878900752
 40
9.770592708239285
 40
10.19126295650798
 40
10.61191613551213
 40
11.00707625156188
 40
11.4022098673365
 40
11.77010903029576
 40
12.13796744644948
 40
12.48012189433861
 40
12.82221604218031
 40
13.14394461704883
 40
13.46560137185117
 40
13.77589935381127
 40
14.08616091979076
 40
14.39642248577019
 40
14.70672046773023
 40
15.02837722253255
 40
15.35010579740109
 40
15.69219994524272
 40
16.03435439313183
 40
16.40221280928562
 40
16.77011197224495
 40
17.16524558801959
 40
17.56040570406931
 40
17.98105888307341
 40
18.40172913134208
 40
18.84361305057384
 40
19.28550759807421
 40
19.74251508581872
 40
20.19952840249161
 40
20.66438396157062
 40
21.12924137968604
 40
21.59409879780143
 40
22.05895435688041
 40
22.51596767355323
 40
22.97297516129769
 40
23.41486970879812
 40
23.85675362802993
 40
24.27742387629869
 40
24.69807705530288
 40
25.09323717135253
 40
25.48837078712707
 40
25.85626995008643
 40
26.22412836624019
 40
26.56628281412934
 40
26.90837696197098
 40
27.23010553683951
 40
27.55176229164181
 40
27.86206027360188
 40
28.17232183958128
 40
28.17232183958128
 40
28.17232183958128
 40
28.17232183958128
 10
94.44356491613638
 20
191.5322355108242
 30
0.0
 10
94.43953172431958
 20
191.6357256953328
 30
0.0
 10
94.43146486730277
 20
191.8427182111869
 30
0.0
 10
94.36748088934698
 20
192.1515670804789
 30
0.0
 10
94.26606009239779
 20
192.4535339931305
 30
0.0
 10
94.12363759223385
 20
192.7504436486819
 30
0.0
 10
93.94453501931382
 20
193.0347617566535
 30
0.0
 10
93.72656475136725
 20
193.3102628026367
 30
0.0
 10
93.4762825972599
 20
193.5688688230534
 30
0.0
 10
93.18982043543511
 20
193.8146267124552
 30
0.0
 10
92.87598968310766
 20
194.0402719724784
 30
0.0
 10
92.53007551804534
 20
194.2490436402232
 30
0.0
 10
92.16195672587132
 20
194.4352644083795
 30
0.0
 10
91.76726279093604
 20
194.6009489386309
 30
0.0
 10
91.35570959094989
 20
194.7422567114041
 30
0.0
 10
90.92428389134393
 20
194.860036199915
 30
0.0
 10
90.48150986262399
 20
194.952154501501
 30
0.0
 10
90.02645186402199
 20
195.0186404288484
 30
0.0
 10
89.5656847619336
 20
195.0586979857177
 30
0.0
 10
89.10076258649571
 20
195.0720399429737
 30
0.0
 10
88.63584041106165
 20
195.0586979857177
 30
0.0
 10
88.17507330896167
 20
195.0186404288483
 30
0.0
 10
87.72001531040141
 20
194.9521545015011
 30
0.0
 10
87.27724128152792
 20
194.860036199915
 30
0.0
 10
86.84581558247677
 20
194.7422567114042
 30
0.0
 10
86.43426238046794
 20
194.6009489386309
 30
0.0
 10
86.03956845273484
 20
194.4352644083795
 30
0.0
 10
85.6714496345016
 20
194.2490436402232
 30
0.0
 10
85.32553556106691
 20
194.0402719724784
 30
0.0
 10
85.01170447911748
 20
193.8146267124552
 30
0.0
 10
84.72524346663323
 20
193.5688688230534
 30
0.0
 10
84.47495718754999
 20
193.3102628026367
 30
0.0
 10
84.25700128953386
 20
193.0347617566536
 30
0.0
 10
84.07784697578715
 20
192.7504436486818
 30
0.0
 10
83.93560662439352
 20
192.4535339931305
 30
0.0
 10
83.83352297234926
 20
192.151567080479
 30
0.0
 10
83.77192973241897
 20
191.8427182111869
 30
0.0
 10
83.75097592895673
 20
191.5322355108243
 30
0.0
 10
83.77192973241897
 20
191.2217528104615
 30
0.0
 10
83.83352297234927
 20
190.9129039411695
 30
0.0
 10
83.93560662439349
 20
190.6109370285181
 30
0.0
 10
84.07784697578715
 20
190.3140273729667
 30
0.0
 10
84.25700128953386
 20
190.0297092649951
 30
0.0
 10
84.47495718755002
 20
189.7542082190118
 30
0.0
 10
84.72524346663327
 20
189.4956021985952
 30
0.0
 10
85.01170447911741
 20
189.2498443091932
 30
0.0
 10
85.32553556106691
 20
189.02419904917
 30
0.0
 10
85.67144963450159
 20
188.8154273814252
 30
0.0
 10
86.03956845273486
 20
188.6292066132691
 30
0.0
 10
86.43426238046797
 20
188.4635220830178
 30
0.0
 10
86.84581558247675
 20
188.3222143102444
 30
0.0
 10
87.27724128152798
 20
188.2044348217337
 30
0.0
 10
87.72001531040138
 20
188.1123165201474
 30
0.0
 10
88.17507330896164
 20
188.0458305928
 30
0.0
 10
88.63584041106168
 20
188.0057730359308
 30
0.0
 10
89.10076258649571
 20
187.9924310786748
 30
0.0
 10
89.56568476193357
 20
188.0057730359307
 30
0.0
 10
90.02645186402202
 20
188.0458305928
 30
0.0
 10
90.48150986262398
 20
188.1123165201475
 30
0.0
 10
90.92428389134393
 20
188.2044348217336
 30
0.0
 10
91.35570959094983
 20
188.3222143102444
 30
0.0
 10
91.76726279093606
 20
188.4635220830178
 30
0.0
 10
92.16195672587131
 20
188.629206613269
 30
0.0
 10
92.53007551804539
 20
188.8154273814252
 30
0.0
 10
92.87598968310765
 20
189.02419904917
 30
0.0
 10
93.18982043543512
 20
189.2498443091933
 30
0.0
 10
93.47628259725991
 20
189.4956021985952
 30
0.0
 10
93.72656475136725
 20
189.7542082190119
 30
0.0
 10
93.94453501931378
 20
190.0297092649951
 30
0.0
 10
94.12363759223388
 20
190.3140273729667
 30
0.0
 10
94.26606009239779
 20
190.6109370285181
 30
0.0
 10
94.36748088934701
 20
190.9129039411695
 30
0.0
 10
94.43146486730274
 20
191.2217528104616
 30
0.0
 10
94.43953172431961
 20
191.4287453263156
 30
0.0
 10
94.44356491613638
 20
191.5322355108242
 30
0.0
 11
94.44356491613638
 21
191.5322355108242
 31
0.0
 11
94.42294782293563
 21
191.8418113089609
 31
0.0
 11
94.36239574353758
 21
192.1461438298802
 31
0.0
 11
94.25992885490567
 21
192.4510431651436
 31
0.0
 11
94.12135450997678
 21
192.7413988553142
 31
0.0
 11
93.93956246561953
 21
193.0311919860057
 31
0.0
 11
93.72776513136338
 21
193.2999140643921
 31
0.0
 11
93.47240862108951
 21
193.564702408161
 31
0.0
 11
93.19358662180028
 21
193.8047192551082
 31
0.0
 11
92.87309469417534
 21
194.0358371874335
 31
0.0
 11
92.53504972499349
 21
194.2404761771867
 31
0.0
 11
92.15988600114926
 21
194.4307425097779
 31
0.0
 11
91.77216375131638
 21
194.5939445770536
 31
0.0
 11
91.35432742685509
 21
194.7377298476356
 31
0.0
 11
90.92810860504056
 21
194.8543844962427
 31
0.0
 11
90.48071863895065
 21
194.9476478979421
 31
0.0
 11
90.02853047467298
 21
195.0138825995982
 31
0.0
 11
89.56542726146063
 21
195.054207588365
 31
0.0
 11
89.10076258649636
 21
195.0675926179599
 31
0.0
 11
88.63609791153206
 21
195.0542075883649
 31
0.0
 11
88.17299469831968
 21
195.0138825995982
 31
0.0
 11
87.72080653404197
 21
194.9476478979421
 31
0.0
 11
87.27341656795198
 21
194.8543844962427
 31
0.0
 11
86.84719774613751
 21
194.7377298476357
 31
0.0
 11
86.42936142167628
 21
194.5939445770536
 31
0.0
 11
86.04163917184351
 21
194.4307425097779
 31
0.0
 11
85.66647544799938
 21
194.2404761771867
 31
0.0
 11
85.32843047881742
 21
194.0358371874335
 31
0.0
 11
85.00793855119238
 21
193.8047192551082
 31
0.0
 11
84.72911655190313
 21
193.564702408161
 31
0.0
 11
84.47376004162928
 21
193.2999140643921
 31
0.0
 11
84.26196270737319
 21
193.0311919860057
 31
0.0
 11
84.08017066301596
 21
192.7413988553142
 31
0.0
 11
83.94159631808704
 21
192.4510431651436
 31
0.0
 11
83.83912942945509
 21
192.1461438298802
 31
0.0
 11
83.77857735005702
 21
191.8418113089609
 31
0.0
 11
83.75796025685628
 21
191.5322355108242
 31
0.0
 11
83.77857735005703
 21
191.2226597126875
 31
0.0
 11
83.83912942945509
 21
190.9183271917683
 31
0.0
 11
83.94159631808702
 21
190.6134278565049
 31
0.0
 11
84.08017066301596
 21
190.3230721663343
 31
0.0
 11
84.26196270737319
 21
190.0332790356429
 31
0.0
 11
84.47376004162928
 21
189.7645569572565
 31
0.0
 11
84.72911655190313
 21
189.4997686134875
 31
0.0
 11
85.00793855119238
 21
189.2597517665402
 31
0.0
 11
85.32843047881741
 21
189.0286338342149
 31
0.0
 11
85.66647544799938
 21
188.8239948444617
 31
0.0
 11
86.04163917184351
 21
188.6337285118707
 31
0.0
 11
86.42936142167628
 21
188.470526444595
 31
0.0
 11
86.84719774613751
 21
188.326741174013
 31
0.0
 11
87.27341656795198
 21
188.2100865254059
 31
0.0
 11
87.72080653404196
 21
188.1168231237064
 31
0.0
 11
88.17299469831968
 21
188.0505884220502
 31
0.0
 11
88.63609791153206
 21
188.0102634332835
 31
0.0
 11
89.10076258649636
 21
187.9968784036886
 31
0.0
 11
89.56542726146063
 21
188.0102634332835
 31
0.0
 11
90.02853047467298
 21
188.0505884220502
 31
0.0
 11
90.48071863895063
 21
188.1168231237064
 31
0.0
 11
90.92810860504056
 21
188.2100865254059
 31
0.0
 11
91.35432742685509
 21
188.326741174013
 31
0.0
 11
91.77216375131638
 21
188.470526444595
 31
0.0
 11
92.15988600114926
 21
188.6337285118706
 31
0.0
 11
92.53504972499349
 21
188.8239948444617
 31
0.0
 11
92.87309469417535
 21
189.0286338342149
 31
0.0
 11
93.19358662180028
 21
189.2597517665402
 31
0.0
 11
93.47240862108953
 21
189.4997686134875
 31
0.0
 11
93.72776513136338
 21
189.7645569572565
 31
0.0
 11
93.93956246561953
 21
190.0332790356429
 31
0.0
 11
94.12135450997678
 21
190.3230721663343
 31
0.0
 11
94.25992885490568
 21
190.6134278565049
 31
0.0
 11
94.36239574353758
 21
190.9183271917683
 31
0.0
 11
94.42294782293561
 21
191.2226597126875
 31
0.0
 11
94.44356491613638
 21
191.5322355108242
 31
0.0
  0
SPLINE
  5
170
330
3F
100
AcDbEntity
  8
1
  6
Continuous
 62
     7
100
AcDbSpline
210
0.0
220
0.0
230
1.0
 70
    11
 71
     3
 72
    79
 73
    75
 74
    73
 42
0.0000000001
 43
0.0000000001
 44
0.00000001
 40
0.0
 40
0.0
 40
0.0
 40
0.0
 40
0.3102615659794604
 40
0.6205595479395792
 40
0.9422163027418973
 40
1.263944877610389
 40
1.606039025452142
 40
1.948193473341371
 40
2.316051889495075
 40
2.683951052454269
 40
3.079084668228872
 40
3.474244784278586
 40
3.894897963282731
 40
4.31556821155141
 40
4.757452130783309
 40
5.199346678283808
 40
5.656354166028217
 40
6.113367482701009
 40
6.578223041780129
 40
7.043080459895675
 40
7.507937878011037
 40
7.972793437089942
 40
8.429806753762726
 40
8.886814241507203
 40
9.328708789007537
 40
9.770592708239317
 40
10.19126295650813
 40
10.61191613551235
 40
11.00707625156209
 40
11.40220986733672
 40
11.77010903029587
 40
12.13796744644954
 40
12.48012189433873
 40
12.82221604218043
 40
13.14394461704894
 40
13.46560137185122
 40
13.77589935381137
 40
14.08616091979083
 40
14.39642248577027
 40
14.70672046773033
 40
15.02837722253264
 40
15.35010579740113
 40
15.69219994524271
 40
16.03435439313191
 40
16.40221280928563
 40
16.77011197224487
 40
17.16524558801947
 40
17.56040570406925
 40
17.98105888307342
 40
18.4017291313422
 40
18.84361305057397
 40
19.28550759807432
 40
19.7425150858188
 40
20.19952840249161
 40
20.66438396157055
 40
21.12924137968587
 40
21.59409879780143
 40
22.05895435688053
 40
22.51596767355333
 40
22.97297516129776
 40
23.41486970879828
 40
23.85675362803017
 40
24.27742387629882
 40
24.69807705530291
 40
25.09323717135261
 40
25.48837078712723
 40
25.85626995008652
 40
26.22412836624027
 40
26.56628281412949
 40
26.90837696197115
 40
27.23010553683967
 40
27.55176229164196
 40
27.86206027360204
 40
28.17232183958142
 40
28.17232183958142
 40
28.17232183958142
 40
28.17232183958142
 10
96.31926718549298
 20
191.5322355108242
 30
0.0
 10
96.32330037730978
 20
191.6357256953329
 30
0.0
 10
96.33136723432664
 20
191.8427182111869
 30
0.0
 10
96.39535121228231
 20
192.151567080479
 30
0.0
 10
96.49677200923149
 20
192.4535339931304
 30
0.0
 10
96.63919450939545
 20
192.7504436486819
 30
0.0
 10
96.81829708231551
 20
193.0347617566535
 30
0.0
 10
97.03626735026219
 20
193.3102628026367
 30
0.0
 10
97.28654950436948
 20
193.5688688230534
 30
0.0
 10
97.57301166619428
 20
193.8146267124552
 30
0.0
 10
97.8868424185217
 20
194.0402719724784
 30
0.0
 10
98.23275658358406
 20
194.2490436402231
 30
0.0
 10
98.60087537575802
 20
194.4352644083795
 30
0.0
 10
98.99556931069327
 20
194.6009489386309
 30
0.0
 10
99.40712251067944
 20
194.7422567114042
 30
0.0
 10
99.83854821028545
 20
194.860036199915
 30
0.0
 10
100.2813222390054
 20
194.9521545015011
 30
0.0
 10
100.7363802376074
 20
195.0186404288483
 30
0.0
 10
101.1971473396959
 20
195.0586979857177
 30
0.0
 10
101.6620695151338
 20
195.0720399429737
 30
0.0
 10
102.1269916905679
 20
195.0586979857177
 30
0.0
 10
102.5877587926678
 20
195.0186404288483
 30
0.0
 10
103.042816791228
 20
194.9521545015011
 30
0.0
 10
103.4855908201015
 20
194.8600361999149
 30
0.0
 10
103.9170165191526
 20
194.7422567114042
 30
0.0
 10
104.3285697211614
 20
194.6009489386309
 30
0.0
 10
104.7232636488947
 20
194.4352644083795
 30
0.0
 10
105.0913824671279
 20
194.2490436402233
 30
0.0
 10
105.4372965405626
 20
194.0402719724783
 30
0.0
 10
105.7511276225121
 20
193.8146267124552
 30
0.0
 10
106.0375886349962
 20
193.5688688230534
 30
0.0
 10
106.2878749140794
 20
193.3102628026368
 30
0.0
 10
106.5058308120956
 20
193.0347617566534
 30
0.0
 10
106.6849851258424
 20
192.7504436486819
 30
0.0
 10
106.8272254772358
 20
192.4535339931304
 30
0.0
 10
106.92930912928
 20
192.151567080479
 30
0.0
 10
106.9909023692104
 20
191.8427182111869
 30
0.0
 10
107.0118561726728
 20
191.5322355108242
 30
0.0
 10
106.9909023692105
 20
191.2217528104617
 30
0.0
 10
106.92930912928
 20
190.9129039411695
 30
0.0
 10
106.8272254772358
 20
190.610937028518
 30
0.0
 10
106.6849851258424
 20
190.3140273729667
 30
0.0
 10
106.5058308120956
 20
190.0297092649951
 30
0.0
 10
106.2878749140794
 20
189.754208219012
 30
0.0
 10
106.0375886349962
 20
189.4956021985952
 30
0.0
 10
105.7511276225121
 20
189.2498443091932
 30
0.0
 10
105.4372965405628
 20
189.02419904917
 30
0.0
 10
105.0913824671279
 20
188.8154273814252
 30
0.0
 10
104.7232636488946
 20
188.6292066132692
 30
0.0
 10
104.3285697211614
 20
188.4635220830177
 30
0.0
 10
103.9170165191526
 20
188.3222143102445
 30
0.0
 10
103.4855908201014
 20
188.2044348217336
 30
0.0
 10
103.042816791228
 20
188.1123165201474
 30
0.0
 10
102.5877587926678
 20
188.0458305928
 30
0.0
 10
102.1269916905679
 20
188.0057730359308
 30
0.0
 10
101.6620695151338
 20
187.9924310786747
 30
0.0
 10
101.1971473396959
 20
188.0057730359308
 30
0.0
 10
100.7363802376074
 20
188.0458305928
 30
0.0
 10
100.2813222390054
 20
188.1123165201475
 30
0.0
 10
99.83854821028547
 20
188.2044348217336
 30
0.0
 10
99.40712251067949
 20
188.3222143102445
 30
0.0
 10
98.99556931069324
 20
188.4635220830176
 30
0.0
 10
98.60087537575805
 20
188.6292066132691
 30
0.0
 10
98.23275658358406
 20
188.8154273814252
 30
0.0
 10
97.88684241852165
 20
189.02419904917
 30
0.0
 10
97.57301166619425
 20
189.2498443091932
 30
0.0
 10
97.28654950436948
 20
189.4956021985952
 30
0.0
 10
97.03626735026219
 20
189.7542082190118
 30
0.0
 10
96.81829708231557
 20
190.0297092649951
 30
0.0
 10
96.63919450939541
 20
190.3140273729666
 30
0.0
 10
96.49677200923151
 20
190.6109370285181
 30
0.0
 10
96.39535121228231
 20
190.9129039411695
 30
0.0
 10
96.33136723432664
 20
191.2217528104617
 30
0.0
 10
96.32330037730979
 20
191.4287453263156
 30
0.0
 10
96.31926718549298
 20
191.5322355108242
 30
0.0
 11
96.31926718549298
 21
191.5322355108242
 31
0.0
 11
96.33988427869373
 21
191.8418113089609
 31
0.0
 11
96.40043635809175
 21
192.1461438298802
 31
0.0
 11
96.50290324672362
 21
192.4510431651436
 31
0.0
 11
96.64147759165249
 21
192.7413988553142
 31
0.0
 11
96.82326963600981
 21
193.0311919860057
 31
0.0
 11
97.03506697026606
 21
193.2999140643921
 31
0.0
 11
97.29042348053989
 21
193.564702408161
 31
0.0
 11
97.56924547982905
 21
193.8047192551082
 31
0.0
 11
97.88973740745405
 21
194.0358371874335
 31
0.0
 11
98.22778237663599
 21
194.2404761771867
 31
0.0
 11
98.60294610048011
 21
194.4307425097779
 31
0.0
 11
98.99066835031286
 21
194.5939445770536
 31
0.0
 11
99.40850467477424
 21
194.7377298476357
 31
0.0
 11
99.83472349658885
 21
194.8543844962427
 31
0.0
 11
100.2821134626788
 21
194.947647897942
 31
0.0
 11
100.7343016269564
 21
195.0138825995982
 31
0.0
 11
101.1974048401689
 21
195.054207588365
 31
0.0
 11
101.6620695151333
 21
195.0675926179599
 31
0.0
 11
102.1267341900975
 21
195.0542075883649
 31
0.0
 11
102.5898374033098
 21
195.0138825995982
 31
0.0
 11
103.0420255675874
 21
194.9476478979421
 31
0.0
 11
103.4894155336774
 21
194.8543844962427
 31
0.0
 11
103.9156343554919
 21
194.7377298476357
 31
0.0
 11
104.3334706799531
 21
194.5939445770536
 31
0.0
 11
104.721192929786
 21
194.4307425097779
 31
0.0
 11
105.0963566536302
 21
194.2404761771867
 31
0.0
 11
105.4344016228122
 21
194.0358371874335
 31
0.0
 11
105.7548935504372
 21
193.8047192551082
 31
0.0
 11
106.0337155497263
 21
193.564702408161
 31
0.0
 11
106.2890720600001
 21
193.2999140643921
 31
0.0
 11
106.5008693942563
 21
193.0311919860057
 31
0.0
 11
106.6826614386135
 21
192.7413988553142
 31
0.0
 11
106.8212357835423
 21
192.4510431651436
 31
0.0
 11
106.9237026721742
 21
192.1461438298802
 31
0.0
 11
106.9842547515724
 21
191.8418113089609
 31
0.0
 11
107.0048718447732
 21
191.5322355108242
 31
0.0
 11
106.9842547515724
 21
191.2226597126875
 31
0.0
 11
106.9237026721742
 21
190.9183271917683
 31
0.0
 11
106.8212357835423
 21
190.6134278565049
 31
0.0
 11
106.6826614386135
 21
190.3230721663343
 31
0.0
 11
106.5008693942563
 21
190.033279035643
 31
0.0
 11
106.2890720600001
 21
189.7645569572565
 31
0.0
 11
106.0337155497263
 21
189.4997686134875
 31
0.0
 11
105.7548935504372
 21
189.2597517665402
 31
0.0
 11
105.4344016228122
 21
189.0286338342149
 31
0.0
 11
105.0963566536302
 21
188.8239948444617
 31
0.0
 11
104.721192929786
 21
188.6337285118707
 31
0.0
 11
104.3334706799531
 21
188.470526444595
 31
0.0
 11
103.9156343554919
 21
188.326741174013
 31
0.0
 11
103.4894155336774
 21
188.2100865254059
 31
0.0
 11
103.0420255675875
 21
188.1168231237064
 31
0.0
 11
102.5898374033098
 21
188.0505884220502
 31
0.0
 11
102.1267341900975
 21
188.0102634332835
 31
0.0
 11
101.6620695151333
 21
187.9968784036886
 31
0.0
 11
101.1974048401689
 21
188.0102634332835
 31
0.0
 11
100.7343016269564
 21
188.0505884220502
 31
0.0
 11
100.2821134626788
 21
188.1168231237064
 31
0.0
 11
99.83472349658885
 21
188.2100865254059
 31
0.0
 11
99.40850467477424
 21
188.326741174013
 31
0.0
 11
98.99066835031286
 21
188.470526444595
 31
0.0
 11
98.60294610048011
 21
188.6337285118706
 31
0.0
 11
98.22778237663599
 21
188.8239948444617
 31
0.0
 11
97.88973740745404
 21
189.0286338342148
 31
0.0
 11
97.56924547982905
 21
189.2597517665402
 31
0.0
 11
97.29042348053989
 21
189.4997686134875
 31
0.0
 11
97.03506697026606
 21
189.7645569572565
 31
0.0
 11
96.82326963600983
 21
190.033279035643
 31
0.0
 11
96.64147759165249
 21
190.3230721663343
 31
0.0
 11
96.50290324672362
 21
190.6134278565049
 31
0.0
 11
96.40043635809175
 21
190.9183271917683
 31
0.0
 11
96.33988427869375
 21
191.2226597126876
 31
0.0
 11
96.31926718549298
 21
191.5322355108242
 31
0.0
  0
SPLINE
  5
171
330
3F
100
AcDbEntity
  8
1
  6
Continuous
 62
     7
100
AcDbSpline
210
0.0
220
0.0
230
1.0
 70
    11
 71
     3
 72
    79
 73
    75
 74
    73
 42
0.0000000001
 43
0.0000000001
 44
0.00000001
 40
0.0
 40
0.0
 40
0.0
 40
0.0
 40
0.2803981145479015
 40
0.5607977859032033
 40
0.842745484146703
 40
1.124697473048475
 40
1.409536451637971
 40
1.694381500885701
 40
1.983071310125106
 40
2.271767843422836
 40
2.564776142200901
 40
2.857790854546495
 40
3.155055698552812
 40
3.452325978930864
 40
3.753284827389681
 40
4.054247742882678
 40
4.357919806975574
 40
4.6615943683288
 40
4.966700748943365
 40
5.271807969839368
 40
5.576915190735371
 40
5.882021571349935
 40
6.18569613270305
 40
6.489368196795946
 40
6.790331112289006
 40
7.091289960747862
 40
7.388560241125938
 40
7.685825085132231
 40
7.978839797477866
 40
8.271848096255891
 40
8.560544629553588
 40
8.849234438792905
 40
9.134079488040596
 40
9.41891846663013
 40
9.700870455531867
 40
9.982818153775421
 40
10.26321782513077
 40
10.54361593967864
 40
10.82401405422654
 40
11.10441372558186
 40
11.38636142382546
 40
11.66831341272726
 40
11.95315239131685
 40
12.23799744056459
 40
12.5266872498039
 40
12.81538378310151
 40
13.10839208187944
 40
13.40140679422503
 40
13.69867163823135
 40
13.99594191860946
 40
14.29690076706833
 40
14.59786368256137
 40
14.90153574665423
 40
15.20521030800738
 40
15.51031668862196
 40
15.81542390951797
 40
16.12053113041397
 40
16.42563751102856
 40
16.72931207238178
 40
17.03298413647467
 40
17.3339470519677
 40
17.63490590042648
 40
17.93217618080455
 40
18.2294410248109
 40
18.5224557371565
 40
18.81546403593443
 40
19.10416056923217
 40
19.39285037847147
 40
19.67769542771925
 40
19.9625344063088
 40
20.24448639521062
 40
20.52643409345418
 40
20.80683376480948
 40
21.08723187935738
 40
21.08723187935738
 40
21.08723187935738
 40
21.08723187935738
 10
209.6397463000122
 20
194.9968784036885
 30
0.0
 10
209.7332468430657
 20
194.9942970177993
 30
0.0
 10
209.9202484483001
 20
194.9891342316886
 30
0.0
 10
210.1987328615401
 20
194.9476618816398
 30
0.0
 10
210.4726750579425
 20
194.8817617212471
 30
0.0
 10
210.7406032232778
 20
194.789529612013
 30
0.0
 10
210.9996490108381
 20
194.6724474226541
 30
0.0
 10
211.2488083049909
 20
194.5309711410748
 30
0.0
 10
211.4851183251688
 20
194.3666887950817
 30
0.0
 10
211.7078933190868
 20
194.1802286468653
 30
0.0
 10
211.914349351385
 20
193.9738041719282
 30
0.0
 10
212.1039620950255
 20
193.7480864774916
 30
0.0
 10
212.2743612709511
 20
193.5057956791428
 30
0.0
 10
212.425074078559
 20
193.2477381863028
 30
0.0
 10
212.5542972150845
 20
192.976910982821
 30
0.0
 10
212.6615768882689
 20
192.6943941293243
 30
0.0
 10
212.7457313918241
 20
192.4032061587311
 30
0.0
 10
212.8063746656552
 20
192.1048273858164
 30
0.0
 10
212.8429084279265
 20
191.8020664139362
 30
0.0
 10
212.855127458663
 20
191.4968784036882
 30
0.0
 10
212.8429084279265
 20
191.1916903934419
 30
0.0
 10
212.8063746656553
 20
190.888929421557
 30
0.0
 10
212.7457313918241
 20
190.5905506486592
 30
0.0
 10
212.6615768882689
 20
190.2993626780034
 30
0.0
 10
212.5542972150845
 20
190.0168458247386
 30
0.0
 10
212.4250740785589
 20
189.7460186203967
 30
0.0
 10
212.274361270951
 20
189.4879611307276
 30
0.0
 10
212.1039620950256
 20
189.2456703206321
 30
0.0
 10
211.9143493513849
 20
189.0199526694341
 30
0.0
 10
211.7078933190869
 20
188.8135280344077
 30
0.0
 10
211.4851183251687
 20
188.6270684752306
 30
0.0
 10
211.2488083049909
 20
188.4627839475196
 30
0.0
 10
210.9996490108382
 20
188.3213157044497
 30
0.0
 10
210.7406032232778
 20
188.2042037008481
 30
0.0
 10
210.4726750579425
 20
188.1120817823752
 30
0.0
 10
210.1987328615401
 20
188.0457720168074
 30
0.0
 10
209.9202484483002
 20
188.0058203517116
 30
0.0
 10
209.6397463000122
 20
187.9924074420887
 30
0.0
 10
209.3592441517243
 20
188.0058203517115
 30
0.0
 10
209.0807597384842
 20
188.0457720168075
 30
0.0
 10
208.8068175420819
 20
188.1120817823751
 30
0.0
 10
208.5388893767464
 20
188.2042037008482
 30
0.0
 10
208.2798435891862
 20
188.3213157044497
 30
0.0
 10
208.0306842950332
 20
188.4627839475195
 30
0.0
 10
207.7943742748554
 20
188.6270684752305
 30
0.0
 10
207.5715992809375
 20
188.8135280344077
 30
0.0
 10
207.3651432486395
 20
189.0199526694342
 30
0.0
 10
207.1755305049989
 20
189.245670320632
 30
0.0
 10
207.0051313290734
 20
189.4879611307277
 30
0.0
 10
206.8544185214653
 20
189.7460186203967
 30
0.0
 10
206.72519538494
 20
190.0168458247385
 30
0.0
 10
206.6179157117555
 20
190.2993626780034
 30
0.0
 10
206.5337612082004
 20
190.5905506486592
 30
0.0
 10
206.4731179343691
 20
190.8889294215571
 30
0.0
 10
206.4365841720978
 20
191.1916903934418
 30
0.0
 10
206.4243651413612
 20
191.4968784036882
 30
0.0
 10
206.4365841720978
 20
191.8020664139362
 30
0.0
 10
206.4731179343692
 20
192.1048273858164
 30
0.0
 10
206.5337612082003
 20
192.4032061587312
 30
0.0
 10
206.6179157117555
 20
192.6943941293243
 30
0.0
 10
206.72519538494
 20
192.976910982821
 30
0.0
 10
206.8544185214655
 20
193.2477381863029
 30
0.0
 10
207.0051313290733
 20
193.5057956791427
 30
0.0
 10
207.175530504999
 20
193.7480864774917
 30
0.0
 10
207.3651432486394
 20
193.9738041719282
 30
0.0
 10
207.5715992809375
 20
194.1802286468653
 30
0.0
 10
207.7943742748554
 20
194.3666887950817
 30
0.0
 10
208.0306842950333
 20
194.5309711410749
 30
0.0
 10
208.279843589186
 20
194.6724474226541
 30
0.0
 10
208.5388893767464
 20
194.789529612013
 30
0.0
 10
208.8068175420819
 20
194.8817617212471
 30
0.0
 10
209.0807597384842
 20
194.9476618816398
 30
0.0
 10
209.3592441517243
 20
194.9891342316887
 30
0.0
 10
209.5462457569587
 20
194.9942970177993
 30
0.0
 10
209.6397463000122
 20
194.9968784036885
 30
0.0
 11
209.6397463000122
 21
194.9968784036885
 31
0.0
 11
209.9198262988818
 21
194.9835256183904
 31
0.0
 11
210.1973841072604
 21
194.9437055392313
 31
0.0
 11
210.4714355116393
 21
194.8774459565074
 31
0.0
 11
210.7380783719138
 21
194.7858025764392
 31
0.0
 11
210.9976667964497
 21
194.6685545761541
 31
0.0
 11
211.2454003723452
 21
194.5279673169341
 31
0.0
 11
211.4825008569542
 21
194.363270121582
 31
0.0
 11
211.7039353862891
 21
194.1780339546049
 31
0.0
 11
211.911218775599
 21
193.9709410776897
 31
0.0
 11
212.0997510593766
 21
193.7466350375914
 31
0.0
 11
212.2708396059502
 21
193.5035402068906
 31
0.0
 11
212.4208207326731
 21
193.2468784036885
 31
0.0
 11
212.5504975125475
 21
192.9752901837174
 31
0.0
 11
212.6573888666248
 21
192.6939489053284
 31
0.0
 11
212.7417549279551
 21
192.402231421783
 31
0.0
 11
212.8022674581908
 21
192.1046470255228
 31
0.0
 11
212.8388464067537
 21
191.8017412909885
 31
0.0
 11
212.8510544446784
 21
191.4968784036885
 31
0.0
 11
212.8388464067537
 21
191.1920155163885
 31
0.0
 11
212.8022674581908
 21
190.8891097818542
 31
0.0
 11
212.7417549279551
 21
190.5915253855941
 31
0.0
 11
212.6573888666248
 21
190.2998079020487
 31
0.0
 11
212.5504975125474
 21
190.0184666236597
 31
0.0
 11
212.4208207326731
 21
189.7468784036885
 31
0.0
 11
212.2708396059502
 21
189.4902166004864
 31
0.0
 11
212.0997510593766
 21
189.2471217697856
 31
0.0
 11
211.9112187755989
 21
189.0228157296873
 31
0.0
 11
211.7039353862891
 21
188.8157228527721
 31
0.0
 11
211.4825008569542
 21
188.6304866857951
 31
0.0
 11
211.2454003723452
 21
188.4657894904431
 31
0.0
 11
210.9976667964498
 21
188.3252022312231
 31
0.0
 11
210.7380783719138
 21
188.207954230938
 31
0.0
 11
210.4714355116394
 21
188.1163108508698
 31
0.0
 11
210.1973841072604
 21
188.0500512681458
 31
0.0
 11
209.9198262988818
 21
188.0102311889866
 31
0.0
 11
209.6397463000122
 21
187.9968784036885
 31
0.0
 11
209.3596663011426
 21
188.0102311889866
 31
0.0
 11
209.082108492764
 21
188.0500512681458
 31
0.0
 11
208.808057088385
 21
188.1163108508698
 31
0.0
 11
208.5414142281105
 21
188.207954230938
 31
0.0
 11
208.2818258035745
 21
188.3252022312231
 31
0.0
 11
208.034092227679
 21
188.4657894904431
 31
0.0
 11
207.79699174307
 21
188.6304866857951
 31
0.0
 11
207.5755572137352
 21
188.8157228527721
 31
0.0
 11
207.3682738244255
 21
189.0228157296873
 31
0.0
 11
207.1797415406479
 21
189.2471217697856
 31
0.0
 11
207.0086529940743
 21
189.4902166004864
 31
0.0
 11
206.8586718673513
 21
189.7468784036885
 31
0.0
 11
206.7289950874769
 21
190.0184666236597
 31
0.0
 11
206.6221037333996
 21
190.2998079020487
 31
0.0
 11
206.5377376720694
 21
190.5915253855941
 31
0.0
 11
206.4772251418336
 21
190.8891097818542
 31
0.0
 11
206.4406461932705
 21
191.1920155163885
 31
0.0
 11
206.4284381553458
 21
191.4968784036885
 31
0.0
 11
206.4406461932705
 21
191.8017412909885
 31
0.0
 11
206.4772251418336
 21
192.1046470255228
 31
0.0
 11
206.5377376720694
 21
192.402231421783
 31
0.0
 11
206.6221037333996
 21
192.6939489053284
 31
0.0
 11
206.728995087477
 21
192.9752901837174
 31
0.0
 11
206.8586718673513
 21
193.2468784036885
 31
0.0
 11
207.0086529940743
 21
193.5035402068906
 31
0.0
 11
207.1797415406479
 21
193.7466350375914
 31
0.0
 11
207.3682738244255
 21
193.9709410776897
 31
0.0
 11
207.5755572137352
 21
194.1780339546049
 31
0.0
 11
207.7969917430701
 21
194.3632701215821
 31
0.0
 11
208.034092227679
 21
194.5279673169341
 31
0.0
 11
208.2818258035745
 21
194.6685545761541
 31
0.0
 11
208.5414142281105
 21
194.7858025764392
 31
0.0
 11
208.808057088385
 21
194.8774459565074
 31
0.0
 11
209.082108492764
 21
194.9437055392313
 31
0.0
 11
209.3596663011426
 21
194.9835256183904
 31
0.0
 11
209.6397463000122
 21
194.9968784036885
 31
0.0
  0
SPLINE
  5
172
330
3F
100
AcDbEntity
  8
1
  6
Continuous
 62
     7
100
AcDbSpline
210
0.0
220
0.0
230
1.0
 70
     8
 71
     3
 72
    29
 73
    25
 74
    23
 42
0.0000000001
 43
0.0000000001
 44
0.00000001
 40
0.0
 40
0.0
 40
0.0
 40
0.0
 40
0.6069077131758489
 40
1.21222262582254
 40
1.842666707826621
 40
2.474631900595202
 40
3.102420172365175
 40
3.729333891456197
 40
4.271042939833031
 40
4.812985328221041
 40
5.340107980728147
 40
5.866248927279836
 40
6.263874837343103
 40
6.661485236222299
 40
7.280966497568869
 40
7.902596738528072
 40
8.549168915178708
 40
9.195896772489157
 40
9.722415974179135
 40
10.24911841725684
 40
11.07897537274004
 40
11.90732207846631
 40
12.67331709995016
 40
13.44191271185804
 40
13.44191271185804
 40
13.44191271185804
 40
13.44191271185804
 10
198.3814160508146
 20
194.9968784036885
 30
0.0
 10
198.5834758803721
 20
194.9870030302262
 30
0.0
 10
198.9870652430408
 20
194.9672782007511
 30
0.0
 10
199.5987707933792
 20
194.9034878466981
 30
0.0
 10
200.2081878552692
 20
194.7693045493808
 30
0.0
 10
200.8065940307746
 20
194.5688489286965
 30
0.0
 10
201.3811565626701
 20
194.3102878118784
 30
0.0
 10
201.8960543603417
 20
194.0013584221071
 30
0.0
 10
202.3450732343399
 20
193.6475414975322
 30
0.0
 10
202.719014836831
 20
193.2595168293692
 30
0.0
 10
203.0259807382912
 20
192.8225864256066
 30
0.0
 10
203.2332893958249
 20
192.3823724585064
 30
0.0
 10
203.3491919840958
 20
191.9556633378217
 30
0.0
 10
203.3998951889903
 20
191.4847478953195
 30
0.0
 10
203.3394388657125
 20
190.9357733022755
 30
0.0
 10
203.1264916339656
 20
190.3380272360554
 30
0.0
 10
202.7792546966195
 20
189.7964249900569
 30
0.0
 10
202.357896970787
 20
189.3558170219192
 30
0.0
 10
201.9104834805299
 20
189.0059430982823
 30
0.0
 10
201.3746470946073
 20
188.6770327152933
 30
0.0
 10
200.7097560446939
 20
188.3732940936662
 30
0.0
 10
199.9300949832199
 20
188.1485242283235
 30
0.0
 10
199.1476893649104
 20
188.044137422914
 30
0.0
 10
198.6371288955479
 20
188.0127149441649
 30
0.0
 10
198.3814160508146
 20
187.9969770797754
 30
0.0
 11
198.3814160508146
 21
194.9968784036885
 31
0.0
 11
198.9873020725728
 21
194.9616775379262
 31
0.0
 11
199.5887448920541
 21
194.893320545842
 31
0.0
 11
200.2046361037953
 21
194.7586440600176
 31
0.0
 11
200.8040975653439
 21
194.5585791680726
 31
0.0
 11
201.375796338664
 21
194.2991979298222
 31
0.0
 11
201.912361555677
 21
193.9749779750442
 31
0.0
 11
202.3367940944562
 21
193.6383688350631
 31
0.0
 11
202.7115430697367
 21
193.2468784036885
 31
0.0
 11
203.0130989556967
 21
192.8145332424701
 31
0.0
 11
203.2351192695304
 21
192.3375308568539
 31
0.0
 11
203.3388799866735
 21
191.9536818267241
 31
0.0
 11
203.3806380844943
 21
191.5582702809098
 31
0.0
 11
203.316044472873
 21
190.9421658266999
 31
0.0
 11
203.1084263027216
 21
190.3562316564231
 31
0.0
 11
202.7630537018667
 21
189.8096300225091
 31
0.0
 11
202.3187795752637
 21
189.3396540424287
 31
0.0
 11
201.9049091564891
 21
189.0141793948576
 31
0.0
 11
201.4568703092649
 21
188.737273896678
 31
0.0
 11
200.7021096026273
 21
188.3923118085006
 31
0.0
 11
199.9059532922391
 21
188.1636343187543
 31
0.0
 11
199.1479441616396
 21
188.0533141897396
 31
0.0
 11
198.3814160508146
 21
187.9969770797754
 31
0.0
  0
SPLINE
  5
173
330
3F
100
AcDbEntity
  8
1
  6
Continuous
 62
     7
100
AcDbSpline
210
0.0
220
0.0
230
1.0
 70
    11
 71
     3
 72
    79
 73
    75
 74
    73
 42
0.0000000001
 43
0.0000000001
 44
0.00000001
 40
0.0
 40
0.0
 40
0.0
 40
0.0
 40
0.2803981145478988
 40
0.5607977859032931
 40
0.8427454841468758
 40
1.124697473048702
 40
1.409536451638221
 40
1.694381500885923
 40
1.983071310125272
 40
2.271767843423039
 40
2.564776142200983
 40
2.857790854546577
 40
3.15505569855295
 40
3.452325978930991
 40
3.753284827389771
 40
4.054247742882764
 40
4.357919806975645
 40
4.661594368328882
 40
4.96670074894346
 40
5.271807969839466
 40
5.576915190735474
 40
5.882021571350048
 40
6.185696132703174
 40
6.489368196796055
 40
6.790331112289064
 40
7.091289960747933
 40
7.388560241126024
 40
7.68582508513235
 40
7.978839797477948
 40
8.271848096255893
 40
8.560544629553586
 40
8.849234438792887
 40
9.134079488040579
 40
9.418918466630112
 40
9.700870455531982
 40
9.982818153775536
 40
10.26321782513094
 40
10.54361593967884
 40
10.82401405422669
 40
11.10441372558198
 40
11.3863614238255
 40
11.66831341272727
 40
11.95315239131685
 40
12.2379974405646
 40
12.52668724980392
 40
12.81538378310161
 40
13.10839208187958
 40
13.40140679422514
 40
13.69867163823144
 40
13.9959419186095
 40
14.29690076706845
 40
14.59786368256145
 40
14.90153574665431
 40
15.20521030800746
 40
15.51031668862203
 40
15.81542390951804
 40
16.12053113041404
 40
16.42563751102861
 40
16.72931207238183
 40
17.03298413647474
 40
17.33394705196772
 40
17.63490590042657
 40
17.9321761808046
 40
18.22944102481094
 40
18.52245573715651
 40
18.81546403593446
 40
19.10416056923219
 40
19.39285037847159
 40
19.67769542771932
 40
19.96253440630892
 40
20.2444863952107
 40
20.52643409345419
 40
20.80683376480946
 40
21.0872318793573
 40
21.0872318793573
 40
21.0872318793573
 40
21.0872318793573
 10
187.1230858016169
 20
194.9968784036885
 30
0.0
 10
187.0295852585634
 20
194.9942970177993
 30
0.0
 10
186.8425836533289
 20
194.9891342316887
 30
0.0
 10
186.5640992400889
 20
194.9476618816398
 30
0.0
 10
186.2901570436865
 20
194.8817617212471
 30
0.0
 10
186.0222288783511
 20
194.7895296120131
 30
0.0
 10
185.7631830907907
 20
194.672447422654
 30
0.0
 10
185.514023796638
 20
194.5309711410749
 30
0.0
 10
185.2777137764601
 20
194.3666887950818
 30
0.0
 10
185.0549387825421
 20
194.1802286468653
 30
0.0
 10
184.848482750244
 20
193.9738041719281
 30
0.0
 10
184.6588700066036
 20
193.7480864774917
 30
0.0
 10
184.4884708306779
 20
193.5057956791428
 30
0.0
 10
184.33775802307
 20
193.2477381863029
 30
0.0
 10
184.2085348865446
 20
192.976910982821
 30
0.0
 10
184.1012552133602
 20
192.6943941293243
 30
0.0
 10
184.0171007098051
 20
192.4032061587311
 30
0.0
 10
183.9564574359739
 20
192.1048273858164
 30
0.0
 10
183.9199236737025
 20
191.8020664139361
 30
0.0
 10
183.9077046429658
 20
191.4968784036882
 30
0.0
 10
183.9199236737026
 20
191.1916903934419
 30
0.0
 10
183.9564574359738
 20
190.888929421557
 30
0.0
 10
184.0171007098052
 20
190.5905506486593
 30
0.0
 10
184.1012552133602
 20
190.2993626780034
 30
0.0
 10
184.2085348865445
 20
190.0168458247385
 30
0.0
 10
184.33775802307
 20
189.7460186203967
 30
0.0
 10
184.4884708306779
 20
189.4879611307277
 30
0.0
 10
184.6588700066035
 20
189.245670320632
 30
0.0
 10
184.848482750244
 20
189.0199526694342
 30
0.0
 10
185.0549387825421
 20
188.8135280344077
 30
0.0
 10
185.2777137764601
 20
188.6270684752306
 30
0.0
 10
185.514023796638
 20
188.4627839475196
 30
0.0
 10
185.7631830907907
 20
188.3213157044497
 30
0.0
 10
186.022228878351
 20
188.2042037008481
 30
0.0
 10
186.2901570436865
 20
188.1120817823752
 30
0.0
 10
186.5640992400889
 20
188.0457720168074
 30
0.0
 10
186.8425836533289
 20
188.0058203517115
 30
0.0
 10
187.123085801617
 20
187.9924074420887
 30
0.0
 10
187.4035879499047
 20
188.0058203517115
 30
0.0
 10
187.6820723631447
 20
188.0457720168075
 30
0.0
 10
187.9560145595471
 20
188.1120817823752
 30
0.0
 10
188.2239427248825
 20
188.2042037008482
 30
0.0
 10
188.4829885124428
 20
188.3213157044497
 30
0.0
 10
188.7321478065956
 20
188.4627839475196
 30
0.0
 10
188.9684578267735
 20
188.6270684752305
 30
0.0
 10
189.1912328206915
 20
188.8135280344076
 30
0.0
 10
189.3976888529897
 20
189.0199526694342
 30
0.0
 10
189.58730159663
 20
189.245670320632
 30
0.0
 10
189.7577007725556
 20
189.4879611307277
 30
0.0
 10
189.9084135801634
 20
189.7460186203968
 30
0.0
 10
190.037636716689
 20
190.0168458247385
 30
0.0
 10
190.1449163898735
 20
190.2993626780034
 30
0.0
 10
190.2290708934286
 20
190.5905506486591
 30
0.0
 10
190.2897141672598
 20
190.888929421557
 30
0.0
 10
190.3262479295311
 20
191.1916903934419
 30
0.0
 10
190.3384669602677
 20
191.4968784036882
 30
0.0
 10
190.3262479295311
 20
191.8020664139362
 30
0.0
 10
190.2897141672598
 20
192.1048273858164
 30
0.0
 10
190.2290708934287
 20
192.4032061587312
 30
0.0
 10
190.1449163898735
 20
192.6943941293243
 30
0.0
 10
190.0376367166889
 20
192.976910982821
 30
0.0
 10
189.9084135801635
 20
193.2477381863028
 30
0.0
 10
189.7577007725556
 20
193.5057956791428
 30
0.0
 10
189.58730159663
 20
193.7480864774916
 30
0.0
 10
189.3976888529897
 20
193.9738041719282
 30
0.0
 10
189.1912328206915
 20
194.1802286468653
 30
0.0
 10
188.9684578267735
 20
194.3666887950817
 30
0.0
 10
188.7321478065957
 20
194.5309711410748
 30
0.0
 10
188.4829885124428
 20
194.6724474226541
 30
0.0
 10
188.2239427248825
 20
194.7895296120131
 30
0.0
 10
187.956014559547
 20
194.881761721247
 30
0.0
 10
187.6820723631448
 20
194.9476618816399
 30
0.0
 10
187.4035879499047
 20
194.9891342316887
 30
0.0
 10
187.2165863446704
 20
194.9942970177993
 30
0.0
 10
187.1230858016169
 20
194.9968784036885
 30
0.0
 11
187.1230858016169
 21
194.9968784036885
 31
0.0
 11
186.8430058027473
 21
194.9835256183904
 31
0.0
 11
186.5654479943686
 21
194.9437055392313
 31
0.0
 11
186.2913965899896
 21
194.8774459565074
 31
0.0
 11
186.0247537297151
 21
194.7858025764392
 31
0.0
 11
185.7651653051792
 21
194.668554576154
 31
0.0
 11
185.5174317292837
 21
194.5279673169341
 31
0.0
 11
185.2803312446747
 21
194.3632701215821
 31
0.0
 11
185.0588967153398
 21
194.1780339546049
 31
0.0
 11
184.8516133260301
 21
193.9709410776897
 31
0.0
 11
184.6630810422525
 21
193.7466350375914
 31
0.0
 11
184.4919924956789
 21
193.5035402068906
 31
0.0
 11
184.3420113689559
 21
193.2468784036885
 31
0.0
 11
184.2123345890816
 21
192.9752901837174
 31
0.0
 11
184.1054432350043
 21
192.6939489053284
 31
0.0
 11
184.0210771736741
 21
192.402231421783
 31
0.0
 11
183.9605646434383
 21
192.1046470255228
 31
0.0
 11
183.9239856948753
 21
191.8017412909885
 31
0.0
 11
183.9117776569505
 21
191.4968784036885
 31
0.0
 11
183.9239856948753
 21
191.1920155163885
 31
0.0
 11
183.9605646434383
 21
190.8891097818542
 31
0.0
 11
184.0210771736741
 21
190.5915253855941
 31
0.0
 11
184.1054432350043
 21
190.2998079020487
 31
0.0
 11
184.2123345890815
 21
190.0184666236597
 31
0.0
 11
184.3420113689559
 21
189.7468784036885
 31
0.0
 11
184.4919924956789
 21
189.4902166004864
 31
0.0
 11
184.6630810422525
 21
189.2471217697856
 31
0.0
 11
184.8516133260301
 21
189.0228157296873
 31
0.0
 11
185.0588967153398
 21
188.8157228527721
 31
0.0
 11
185.2803312446747
 21
188.6304866857951
 31
0.0
 11
185.5174317292837
 21
188.4657894904431
 31
0.0
 11
185.7651653051791
 21
188.3252022312231
 31
0.0
 11
186.0247537297151
 21
188.207954230938
 31
0.0
 11
186.2913965899897
 21
188.1163108508698
 31
0.0
 11
186.5654479943686
 21
188.0500512681458
 31
0.0
 11
186.8430058027473
 21
188.0102311889866
 31
0.0
 11
187.1230858016169
 21
187.9968784036885
 31
0.0
 11
187.4031658004865
 21
188.0102311889866
 31
0.0
 11
187.680723608865
 21
188.0500512681458
 31
0.0
 11
187.9547750132439
 21
188.1163108508698
 31
0.0
 11
188.2214178735184
 21
188.207954230938
 31
0.0
 11
188.4810062980544
 21
188.3252022312231
 31
0.0
 11
188.7287398739499
 21
188.4657894904431
 31
0.0
 11
188.9658403585589
 21
188.6304866857951
 31
0.0
 11
189.1872748878938
 21
188.8157228527721
 31
0.0
 11
189.3945582772036
 21
189.0228157296873
 31
0.0
 11
189.5830905609811
 21
189.2471217697856
 31
0.0
 11
189.7541791075547
 21
189.4902166004864
 31
0.0
 11
189.9041602342776
 21
189.7468784036885
 31
0.0
 11
190.033837014152
 21
190.0184666236597
 31
0.0
 11
190.1407283682294
 21
190.2998079020487
 31
0.0
 11
190.2250944295597
 21
190.5915253855941
 31
0.0
 11
190.2856069597954
 21
190.8891097818542
 31
0.0
 11
190.3221859083584
 21
191.1920155163885
 31
0.0
 11
190.3343939462831
 21
191.4968784036885
 31
0.0
 11
190.3221859083584
 21
191.8017412909885
 31
0.0
 11
190.2856069597954
 21
192.1046470255228
 31
0.0
 11
190.2250944295597
 21
192.402231421783
 31
0.0
 11
190.1407283682294
 21
192.6939489053284
 31
0.0
 11
190.033837014152
 21
192.9752901837174
 31
0.0
 11
189.9041602342776
 21
193.2468784036885
 31
0.0
 11
189.7541791075547
 21
193.5035402068906
 31
0.0
 11
189.5830905609811
 21
193.7466350375914
 31
0.0
 11
189.3945582772035
 21
193.9709410776897
 31
0.0
 11
189.1872748878938
 21
194.1780339546049
 31
0.0
 11
188.9658403585589
 21
194.363270121582
 31
0.0
 11
188.7287398739499
 21
194.5279673169341
 31
0.0
 11
188.4810062980544
 21
194.668554576154
 31
0.0
 11
188.2214178735184
 21
194.7858025764392
 31
0.0
 11
187.9547750132439
 21
194.8774459565073
 31
0.0
 11
187.680723608865
 21
194.9437055392313
 31
0.0
 11
187.4031658004865
 21
194.9835256183904
 31
0.0
 11
187.1230858016169
 21
194.9968784036885
 31
0.0
  0
SPLINE
  5
174
330
3F
100
AcDbEntity
  8
1
  6
Continuous
 62
     7
100
AcDbSpline
210
0.0
220
0.0
230
1.0
 70
     8
 71
     3
 72
    29
 73
    25
 74
    23
 42
0.0000000001
 43
0.0000000001
 44
0.00000001
 40
0.0
 40
0.0
 40
0.0
 40
0.0
 40
0.6069077131759055
 40
1.212222625822737
 40
1.842666707826763
 40
2.474631900595397
 40
3.102420172365423
 40
3.729333891456494
 40
4.271042939833305
 40
4.812985328221335
 40
5.340107980728473
 40
5.866248927280186
 40
6.263874837343389
 40
6.661485236222595
 40
7.280966497569166
 40
7.902596738528331
 40
8.549168915178981
 40
9.19589677248943
 40
9.722415974179476
 40
10.24911841725718
 40
11.07897537274031
 40
11.90732207846657
 40
12.67331709995046
 40
13.44191271185849
 40
13.44191271185849
 40
13.44191271185849
 40
13.44191271185849
 10
198.3814160508146
 20
194.9968784036885
 30
0.0
 10
198.1793562212571
 20
194.9870030302262
 30
0.0
 10
197.7757668585883
 20
194.9672782007511
 30
0.0
 10
197.1640613082498
 20
194.9034878466981
 30
0.0
 10
196.5546442463598
 20
194.7693045493808
 30
0.0
 10
195.9562380708545
 20
194.5688489286965
 30
0.0
 10
195.3816755389589
 20
194.3102878118784
 30
0.0
 10
194.8667777412872
 20
194.0013584221071
 30
0.0
 10
194.4177588672891
 20
193.6475414975322
 30
0.0
 10
194.0438172647979
 20
193.2595168293693
 30
0.0
 10
193.7368513633377
 20
192.8225864256066
 30
0.0
 10
193.5295427058038
 20
192.3823724585064
 30
0.0
 10
193.413640117533
 20
191.9556633378217
 30
0.0
 10
193.3629369126389
 20
191.4847478953195
 30
0.0
 10
193.4233932359167
 20
190.9357733022754
 30
0.0
 10
193.6363404676633
 20
190.3380272360554
 30
0.0
 10
193.9835774050096
 20
189.7964249900569
 30
0.0
 10
194.4049351308421
 20
189.3558170219191
 30
0.0
 10
194.8523486210992
 20
189.0059430982824
 30
0.0
 10
195.3881850070218
 20
188.6770327152933
 30
0.0
 10
196.0530760569352
 20
188.3732940936663
 30
0.0
 10
196.8327371184092
 20
188.1485242283235
 30
0.0
 10
197.6151427367187
 20
188.0441374229139
 30
0.0
 10
198.1257032060813
 20
188.012714944165
 30
0.0
 10
198.3814160508146
 20
187.9969770797754
 30
0.0
 11
198.3814160508146
 21
194.9968784036885
 31
0.0
 11
197.7755300290564
 21
194.9616775379262
 31
0.0
 11
197.1740872095749
 21
194.893320545842
 31
0.0
 11
196.5581959978338
 21
194.7586440600176
 31
0.0
 11
195.9587345362851
 21
194.5585791680726
 31
0.0
 11
195.387035762965
 21
194.2991979298222
 31
0.0
 11
194.8504705459519
 21
193.9749779750442
 31
0.0
 11
194.4260380071728
 21
193.6383688350631
 31
0.0
 11
194.0512890318922
 21
193.2468784036885
 31
0.0
 11
193.7497331459321
 21
192.8145332424701
 31
0.0
 11
193.5277128320984
 21
192.3375308568539
 31
0.0
 11
193.4239521149554
 21
191.9536818267241
 31
0.0
 11
193.3821940171348
 21
191.5582702809098
 31
0.0
 11
193.4467876287561
 21
190.9421658266999
 31
0.0
 11
193.6544057989074
 21
190.3562316564231
 31
0.0
 11
193.9997783997624
 21
189.8096300225091
 31
0.0
 11
194.4440525263653
 21
189.3396540424287
 31
0.0
 11
194.8579229451401
 21
189.0141793948576
 31
0.0
 11
195.3059617923642
 21
188.737273896678
 31
0.0
 11
196.0607224990018
 21
188.3923118085006
 31
0.0
 11
196.8568788093899
 21
188.1636343187543
 31
0.0
 11
197.6148879399895
 21
188.0533141897396
 31
0.0
 11
198.3814160508146
 21
187.9969770797754
 31
0.0
  0
ENDBLK
  5
41
330
3F
100
AcDbEntity
  8
0
100
AcDbBlockEnd
  0
BLOCK
  5
45
330
42
100
AcDbEntity
  8
0
100
AcDbBlockBegin
  2
R10A-13__1
 70
     0
 71
     0
 10
-225.1185839491854
 20
170.5671871155035
 30
0.0
  3
R10A-13__1
  1

  0
INSERT
  5
43
330
42
100
AcDbEntity
  8
0
100
AcDbBlockReference
  2
21-1A
 10
-95.1761630290502
 20
151.5070913905122
 30
0.0
  0
INSERT
  5
44
330
42
100
AcDbEntity
  8
1
100
AcDbBlockReference
  2
37-1-13
 10
-17.25007120374224
 20
160.6532280086533
 30
0.0
  0
ENDBLK
  5
46
330
42
100
AcDbEntity
  8
0
100
AcDbBlockEnd
  0
BLOCK
  5
48
330
47
100
AcDbEntity
  8
0
100
AcDbBlockBegin
  2
42-1
 70
     0
 71
     0
 10
308.6868548880827
 20
167.5446181365253
 30
0.0
  3
42-1
  1

  0
LINE
  5
175
330
47
100
AcDbEntity
  8
1
  6
Continuous
 62
     7
100
AcDbLine
 10
88.38141605081458
 20
219.0671871155035
 30
0.0
 11
102.3814160508144
 21
219.0671871155035
 31
0.0
  0
LINE
  5
176
330
47
100
AcDbEntity
  8
1
  6
Continuous
 62
     7
100
AcDbLine
 10
89.63141605081458
 20
219.3969528357073
 30
0.0
 11
101.1314160508144
 21
219.3969528357073
 31
0.0
  0
LINE
  5
177
330
47
100
AcDbEntity
  8
1
  6
Continuous
 62
     2
100
AcDbLine
 10
94.38141605081458
 20
218.3095252176748
 30
0.0
 11
94.38141605081458
 21
217.0442861270643
 31
0.0
  0
LINE
  5
178
330
47
100
AcDbEntity
  8
1
  6
Continuous
 62
     2
100
AcDbLine
 10
93.38141605081458
 20
218.5528404274075
 30
0.0
 11
93.38141605081458
 21
216.7847499033493
 31
0.0
  0
LINE
  5
179
330
47
100
AcDbEntity
  8
1
  6
Continuous
 62
     2
100
AcDbLine
 10
92.38141605081458
 20
218.7637136091759
 30
0.0
 11
92.38141605081458
 21
216.4278875957413
 31
0.0
  0
LINE
  5
17A
330
47
100
AcDbEntity
  8
1
  6
Continuous
 62
     2
100
AcDbLine
 10
91.38141605081458
 20
218.8772607070512
 30
0.0
 11
91.38141605081458
 21
216.233235427955
 31
0.0
  0
LINE
  5
17B
330
47
100
AcDbEntity
  8
1
  6
Continuous
 62
     2
100
AcDbLine
 10
90.38141605081458
 20
219.0671871155035
 30
0.0
 11
90.38141605081458
 21
216.0671871155035
 31
0.0
  0
LINE
  5
17C
330
47
100
AcDbEntity
  8
1
  6
Continuous
 62
     7
100
AcDbLine
 10
88.38141605081458
 20
216.0671871155035
 30
0.0
 11
102.3814160508144
 21
216.0671871155035
 31
0.0
  0
LINE
  5
17D
330
47
100
AcDbEntity
  8
1
  6
Continuous
 62
     2
100
AcDbLine
 10
89.38141605081458
 20
219.0671871155035
 30
0.0
 11
89.38141605081458
 21
216.0671871155035
 31
0.0
  0
LINE
  5
17E
330
47
100
AcDbEntity
  8
1
  6
Continuous
 62
     7
100
AcDbLine
 10
88.38141605081458
 20
219.0671871155035
 30
0.0
 11
89.38141605081438
 21
219.3365093145267
 31
0.0
  0
LINE
  5
17F
330
47
100
AcDbEntity
  8
1
  6
Continuous
 62
     7
100
AcDbLine
 10
88.38141605081458
 20
216.0671871155035
 30
0.0
 11
88.38141605081458
 21
219.0671871155035
 31
0.0
  0
LINE
  5
180
330
47
100
AcDbEntity
  8
1
  6
Continuous
 62
     7
100
AcDbLine
 10
102.3814160508144
 20
219.0671871155035
 30
0.0
 11
102.3814160508144
 21
216.0671871155035
 31
0.0
  0
LINE
  5
181
330
47
100
AcDbEntity
  8
1
  6
Continuous
 62
     7
100
AcDbLine
 10
101.3814160508147
 20
219.3365093145267
 30
0.0
 11
102.3814160508144
 21
219.0671871155035
 31
0.0
  0
LINE
  5
182
330
47
100
AcDbEntity
  8
1
  6
Continuous
 62
     2
100
AcDbLine
 10
101.3814160508144
 20
216.0671871155035
 30
0.0
 11
101.3814160508144
 21
219.0671871155035
 31
0.0
  0
LINE
  5
183
330
47
100
AcDbEntity
  8
1
  6
Continuous
 62
     2
100
AcDbLine
 10
100.3814160508144
 20
216.0671871155035
 30
0.0
 11
100.3814160508144
 21
219.0671871155035
 31
0.0
  0
LINE
  5
184
330
47
100
AcDbEntity
  8
1
  6
Continuous
 62
     2
100
AcDbLine
 10
99.38141605081435
 20
216.233235427955
 30
0.0
 11
99.38141605081435
 21
218.8772607070512
 31
0.0
  0
LINE
  5
185
330
47
100
AcDbEntity
  8
1
  6
Continuous
 62
     2
100
AcDbLine
 10
98.38141605081458
 20
216.4278875957413
 30
0.0
 11
98.38141605081458
 21
218.7637136091759
 31
0.0
  0
LINE
  5
186
330
47
100
AcDbEntity
  8
1
  6
Continuous
 62
     2
100
AcDbLine
 10
97.38141605081435
 20
216.7847499033493
 30
0.0
 11
97.38141605081435
 21
218.5528404274075
 31
0.0
  0
LINE
  5
187
330
47
100
AcDbEntity
  8
1
  6
Continuous
 62
     2
100
AcDbLine
 10
96.38141605081435
 20
217.0442861270643
 30
0.0
 11
96.38141605081435
 21
218.3095252176748
 31
0.0
  0
LINE
  5
188
330
47
100
AcDbEntity
  8
1
  6
Continuous
 62
     7
100
AcDbLine
 10
191.3814160508146
 20
216.0671871155035
 30
0.0
 11
191.3814160508146
 21
219.0671871155035
 31
0.0
  0
LINE
  5
189
330
47
100
AcDbEntity
  8
1
  6
Continuous
 62
     2
100
AcDbLine
 10
192.3814160508146
 20
219.0671871155035
 30
0.0
 11
192.3814160508146
 21
216.0671871155035
 31
0.0
  0
LINE
  5
18A
330
47
100
AcDbEntity
  8
1
  6
Continuous
 62
     2
100
AcDbLine
 10
193.3814160508146
 20
219.0671871155035
 30
0.0
 11
193.3814160508146
 21
216.0671871155035
 31
0.0
  0
LINE
  5
18B
330
47
100
AcDbEntity
  8
1
  6
Continuous
 62
     2
100
AcDbLine
 10
194.3814160508146
 20
218.8772607070512
 30
0.0
 11
194.3814160508146
 21
216.233235427955
 31
0.0
  0
LINE
  5
18C
330
47
100
AcDbEntity
  8
1
  6
Continuous
 62
     2
100
AcDbLine
 10
195.3814160508146
 20
218.7637136091759
 30
0.0
 11
195.3814160508146
 21
216.4278875957413
 31
0.0
  0
LINE
  5
18D
330
47
100
AcDbEntity
  8
1
  6
Continuous
 62
     7
100
AcDbLine
 10
205.3814160508145
 20
216.0671871155035
 30
0.0
 11
191.3814160508146
 21
216.0671871155035
 31
0.0
  0
LINE
  5
18E
330
47
100
AcDbEntity
  8
1
  6
Continuous
 62
     2
100
AcDbLine
 10
203.3814160508145
 20
216.0671871155035
 30
0.0
 11
203.3814160508145
 21
219.0671871155035
 31
0.0
  0
LINE
  5
18F
330
47
100
AcDbEntity
  8
1
  6
Continuous
 62
     2
100
AcDbLine
 10
202.3814160508145
 20
216.233235427955
 30
0.0
 11
202.3814160508145
 21
218.8772607070512
 31
0.0
  0
LINE
  5
190
330
47
100
AcDbEntity
  8
1
  6
Continuous
 62
     2
100
AcDbLine
 10
201.3814160508145
 20
216.4278875957413
 30
0.0
 11
201.3814160508145
 21
218.7637136091759
 31
0.0
  0
LINE
  5
191
330
47
100
AcDbEntity
  8
1
  6
Continuous
 62
     2
100
AcDbLine
 10
200.3814160508145
 20
216.7847499033493
 30
0.0
 11
200.3814160508145
 21
218.5528404274075
 31
0.0
  0
LINE
  5
192
330
47
100
AcDbEntity
  8
1
  6
Continuous
 62
     2
100
AcDbLine
 10
199.3814160508145
 20
217.0442861270643
 30
0.0
 11
199.3814160508145
 21
218.3095252176748
 31
0.0
  0
LINE
  5
193
330
47
100
AcDbEntity
  8
1
  6
Continuous
 62
     7
100
AcDbLine
 10
193.3814160508146
 20
219.0671871155035
 30
0.0
 11
203.3814160508145
 21
219.0671871155035
 31
0.0
  0
LINE
  5
194
330
47
100
AcDbEntity
  8
1
  6
Continuous
 62
     7
100
AcDbLine
 10
192.8814160508146
 20
219.0671871155035
 30
0.0
 11
193.3814160508146
 21
219.0671871155035
 31
0.0
  0
LINE
  5
195
330
47
100
AcDbEntity
  8
1
  6
Continuous
 62
     7
100
AcDbLine
 10
191.8814160508146
 20
219.0671871155035
 30
0.0
 11
192.3814160508146
 21
219.0671871155035
 31
0.0
  0
LINE
  5
196
330
47
100
AcDbEntity
  8
1
  6
Continuous
 62
     7
100
AcDbLine
 10
191.3814160508146
 20
219.0671871155035
 30
0.0
 11
192.3814160508144
 21
219.3365093145267
 31
0.0
  0
LINE
  5
197
330
47
100
AcDbEntity
  8
1
  6
Continuous
 62
     7
100
AcDbLine
 10
191.3814160508146
 20
219.0671871155035
 30
0.0
 11
191.8814160508146
 21
219.0671871155035
 31
0.0
  0
LINE
  5
198
330
47
100
AcDbEntity
  8
1
  6
Continuous
 62
     7
100
AcDbLine
 10
192.3814160508146
 20
219.0671871155035
 30
0.0
 11
192.8814160508146
 21
219.0671871155035
 31
0.0
  0
LINE
  5
199
330
47
100
AcDbEntity
  8
1
  6
Continuous
 62
     2
100
AcDbLine
 10
196.3814160508146
 20
218.5528404274075
 30
0.0
 11
196.3814160508146
 21
216.7847499033493
 31
0.0
  0
LINE
  5
19A
330
47
100
AcDbEntity
  8
1
  6
Continuous
 62
     2
100
AcDbLine
 10
197.3814160508146
 20
218.3095252176748
 30
0.0
 11
197.3814160508146
 21
217.0442861270643
 31
0.0
  0
LINE
  5
19B
330
47
100
AcDbEntity
  8
1
  6
Continuous
 62
     7
100
AcDbLine
 10
192.6314160508146
 20
219.3969528357073
 30
0.0
 11
198.3814160508146
 21
219.3969528357073
 31
0.0
  0
LINE
  5
19C
330
47
100
AcDbEntity
  8
1
  6
Continuous
 62
     7
100
AcDbLine
 10
203.3814160508145
 20
219.0671871155035
 30
0.0
 11
203.8814160508145
 21
219.0671871155035
 31
0.0
  0
LINE
  5
19D
330
47
100
AcDbEntity
  8
1
  6
Continuous
 62
     7
100
AcDbLine
 10
204.3814160508145
 20
219.0671871155035
 30
0.0
 11
204.8814160508145
 21
219.0671871155035
 31
0.0
  0
LINE
  5
19E
330
47
100
AcDbEntity
  8
1
  6
Continuous
 62
     7
100
AcDbLine
 10
205.3814160508145
 20
219.0671871155035
 30
0.0
 11
205.3814160508145
 21
216.0671871155035
 31
0.0
  0
LINE
  5
19F
330
47
100
AcDbEntity
  8
1
  6
Continuous
 62
     7
100
AcDbLine
 10
204.3814160508146
 20
219.3365093145267
 30
0.0
 11
205.3814160508145
 21
219.0671871155035
 31
0.0
  0
LINE
  5
1A0
330
47
100
AcDbEntity
  8
1
  6
Continuous
 62
     7
100
AcDbLine
 10
204.8814160508145
 20
219.0671871155035
 30
0.0
 11
205.3814160508145
 21
219.0671871155035
 31
0.0
  0
LINE
  5
1A1
330
47
100
AcDbEntity
  8
1
  6
Continuous
 62
     2
100
AcDbLine
 10
204.3814160508145
 20
216.0671871155035
 30
0.0
 11
204.3814160508145
 21
219.0671871155035
 31
0.0
  0
LINE
  5
1A2
330
47
100
AcDbEntity
  8
1
  6
Continuous
 62
     7
100
AcDbLine
 10
203.8814160508145
 20
219.0671871155035
 30
0.0
 11
204.3814160508145
 21
219.0671871155035
 31
0.0
  0
LINE
  5
1A3
330
47
100
AcDbEntity
  8
1
  6
Continuous
 62
     7
100
AcDbLine
 10
198.3814160508146
 20
219.3969528357073
 30
0.0
 11
204.1314160508145
 21
219.3969528357073
 31
0.0
  0
ARC
  5
1A4
330
47
100
AcDbEntity
  8
1
  6
Continuous
 62
     7
100
AcDbCircle
 10
95.38141605081458
 20
195.0671871155035
 30
0.0
 40
25.0
100
AcDbArc
 50
90.0
 51
103.8865403626294
  0
ARC
  5
1A5
330
47
100
AcDbEntity
  8
1
  6
Continuous
 62
     7
100
AcDbCircle
 10
95.38141605081458
 20
195.0671871155035
 30
0.0
 40
25.00000000000005
100
AcDbArc
 50
76.11345963737074
 51
90.0
  0
ARC
  5
1A6
330
47
100
AcDbEntity
  8
1
  6
Continuous
 62
     7
100
AcDbCircle
 10
198.3814160508146
 20
195.0671871155035
 30
0.0
 40
25.0000000000001
100
AcDbArc
 50
103.297071747209
 51
103.8865403626294
  0
ARC
  5
1A7
330
47
100
AcDbEntity
  8
1
  6
Continuous
 62
     7
100
AcDbCircle
 10
198.3814160508146
 20
195.0671871155035
 30
0.0
 40
25.00000000000001
100
AcDbArc
 50
76.11345963737102
 51
76.70292825279125
  0
ARC
  5
1A8
330
47
100
AcDbEntity
  8
1
  6
Continuous
 62
     7
100
AcDbCircle
 10
198.3814160508146
 20
195.0671871155035
 30
0.0
 40
25.0
100
AcDbArc
 50
90.0
 51
103.297071747209
  0
ARC
  5
1A9
330
47
100
AcDbEntity
  8
1
  6
Continuous
 62
     7
100
AcDbCircle
 10
198.3814160508146
 20
195.0671871155035
 30
0.0
 40
25.00000000000008
100
AcDbArc
 50
76.70292825279125
 51
90.0
  0
CIRCLE
  5
1AA
330
47
100
AcDbEntity
  8
1
  6
Continuous
 62
     7
100
AcDbCircle
 10
95.38141605081458
 20
324.1012996033784
 30
0.0
 40
6.999999999999915
  0
CIRCLE
  5
1AB
330
47
100
AcDbEntity
  8
1
  6
Continuous
 62
     7
100
AcDbCircle
 10
95.38141605081458
 20
324.1012996033784
 30
0.0
 40
5.749999999999915
  0
ENDBLK
  5
49
330
47
100
AcDbEntity
  8
0
100
AcDbBlockEnd
  0
BLOCK
  5
4B
330
4A
100
AcDbEntity
  8
0
100
AcDbBlockBegin
  2
R20F
 70
     0
 71
     0
 10
191.3814160508146
 20
204.0671871155035
 30
0.0
  3
R20F
  1

  0
LINE
  5
1AC
330
4A
100
AcDbEntity
  8
1
  6
PHANTOM
 62
     4
100
AcDbLine
 10
198.3814160508146
 20
217.0671871155035
 30
0.0
 11
198.3814160508146
 21
223.0671531339653
 31
0.0
  0
ENDBLK
  5
4C
330
4A
100
AcDbEntity
  8
0
100
AcDbBlockEnd
  0
BLOCK
  5
4E
330
4D
100
AcDbEntity
  8
0
100
AcDbBlockBegin
  2
36-1A-13-M4
 70
     0
 71
     0
 10
135.5029987846265
 20
112.1475468277337
 30
0.0
  3
36-1A-13-M4
  1

  0
LINE
  5
1AD
330
4D
100
AcDbEntity
  8
1
  6
Continuous
 62
     7
100
AcDbLine
 10
100.1314160508146
 20
205.0671871155035
 30
0.0
 11
100.1314160508146
 21
201.9968784036885
 31
0.0
  0
LINE
  5
1AE
330
4D
100
AcDbEntity
  8
1
  6
Continuous
 62
     7
100
AcDbLine
 10
90.63141605081438
 20
201.9968784036885
 30
0.0
 11
90.63141605081438
 21
205.0671871155035
 31
0.0
  0
LINE
  5
1AF
330
4D
100
AcDbEntity
  8
1
  6
Continuous
 62
     7
100
AcDbLine
 10
203.1314160508146
 20
205.0671871155035
 30
0.0
 11
203.1314160508146
 21
201.9968784036885
 31
0.0
  0
LINE
  5
1B0
330
4D
100
AcDbEntity
  8
1
  6
Continuous
 62
     7
100
AcDbLine
 10
193.6314160508145
 20
201.9968784036885
 30
0.0
 11
193.6314160508145
 21
205.0671871155035
 31
0.0
  0
ENDBLK
  5
4F
330
4D
100
AcDbEntity
  8
0
100
AcDbBlockEnd
  0
BLOCK
  5
54
330
50
100
AcDbEntity
  8
0
100
AcDbBlockBegin
  2
R10A-13__2
 70
     0
 71
     0
 10
183.8814160508146
 20
170.5671871155035
 30
0.0
  3
R10A-13__2
  1

  0
INSERT
  5
51
330
50
100
AcDbEntity
  8
1
100
AcDbBlockReference
  2
42-1
 10
308.6868548880827
 20
167.5446181365253
 30
0.0
  0
INSERT
  5
52
330
50
100
AcDbEntity
  8
1
100
AcDbBlockReference
  2
R20F
 10
191.3814160508146
 20
204.0671871155035
 30
0.0
  0
INSERT
  5
53
330
50
100
AcDbEntity
  8
1
100
AcDbBlockReference
  2
36-1A-13-M4
 10
135.5029987846265
 20
112.1475468277337
 30
0.0
  0
LINE
  5
1B1
330
50
100
AcDbEntity
  8
1
  6
PHANTOM
 62
     4
100
AcDbLine
 10
198.3814160508146
 20
201.7415175630352
 30
0.0
 11
198.3814160508146
 21
217.0671871155035
 31
0.0
  0
ENDBLK
  5
55
330
50
100
AcDbEntity
  8
0
100
AcDbBlockEnd
  0
BLOCK
  5
1CD
330
1C6
100
AcDbEntity
  8
0
100
AcDbBlockBegin
  2
*D010
 70
     1
 71
     0
 10
0.0
 20
0.0
 30
0.0
  3
*D010
  1

  0
LINE
  5
1C7
330
1C6
100
AcDbEntity
  8
1
  6
Continuous
 62
     2
100
AcDbLine
 10
198.3814160508144
 20
122.5671871155035
 30
0.0
 11
163.3814160508144
 21
122.5671871155035
 31
0.0
  0
LINE
  5
1C8
330
1C6
100
AcDbEntity
  8
1
  6
Continuous
 62
     2
100
AcDbLine
 10
163.3814160508144
 20
137.5671871155036
 30
0.0
 11
163.3814160508144
 21
121.0671871155035
 31
0.0
  0
LINE
  5
1C9
330
1C6
100
AcDbEntity
  8
1
  6
Continuous
 62
     2
100
AcDbLine
 10
198.3814160508144
 20
147.5671871155036
 30
0.0
 11
198.3814160508144
 21
121.0671871155035
 31
0.0
  0
SOLID
  5
1CA
330
1C6
100
AcDbEntity
  8
1
 62
     2
100
AcDbTrace
 10
193.1314160508144
 20
121.8760115031697
 30
0.0
 11
193.1314160508144
 21
123.2583627278373
 31
0.0
 12
198.3814160508144
 22
122.5671871155035
 32
0.0
 13
198.3814160508144
 23
122.5671871155035
 33
0.0
  0
SOLID
  5
1CB
330
1C6
100
AcDbEntity
  8
1
 62
     2
100
AcDbTrace
 10
168.6314160508144
 20
123.2583627278373
 30
0.0
 11
168.6314160508144
 21
121.8760115031697
 31
0.0
 12
163.3814160508144
 22
122.5671871155035
 32
0.0
 13
163.3814160508144
 23
122.5671871155035
 33
0.0
  0
MTEXT
  5
1CC
330
1C6
100
AcDbEntity
  8
1
 62
     7
100
AcDbMText
 10
176.9439160508146
 20
124.0671871155035
 30
0.0
 40
5.25
 41
0.0
 71
     7
 72
     1
  1
35
  7
CONVERTER_2
 11
0.9999999999970621
 21
2.424068405545307E-6
 31
0.0
 73
     1
 44
0.60024009603842
  0
ENDBLK
  5
1CE
330
1C6
100
AcDbEntity
  8
0
100
AcDbBlockEnd
  0
BLOCK
  5
1D8
330
1D1
100
AcDbEntity
  8
0
100
AcDbBlockBegin
  2
*D111
 70
     1
 71
     0
 10
0.0
 20
0.0
 30
0.0
  3
*D111
  1

  0
LINE
  5
1D2
330
1D1
100
AcDbEntity
  8
1
  6
Continuous
 62
     2
100
AcDbLine
 10
243.3814160508144
 20
122.5671871155035
 30
0.0
 11
198.3814160508145
 21
122.5671871155035
 31
0.0
  0
LINE
  5
1D3
330
1D1
100
AcDbEntity
  8
1
  6
Continuous
 62
     2
100
AcDbLine
 10
198.3814160508145
 20
147.5671871155036
 30
0.0
 11
198.3814160508145
 21
121.0671871155035
 31
0.0
  0
LINE
  5
1D4
330
1D1
100
AcDbEntity
  8
1
  6
Continuous
 62
     2
100
AcDbLine
 10
243.3814160508144
 20
139.5671871155036
 30
0.0
 11
243.3814160508144
 21
121.0671871155035
 31
0.0
  0
SOLID
  5
1D5
330
1D1
100
AcDbEntity
  8
1
 62
     2
100
AcDbTrace
 10
238.1314160508144
 20
121.8760115031697
 30
0.0
 11
238.1314160508144
 21
123.2583627278373
 31
0.0
 12
243.3814160508144
 22
122.5671871155035
 32
0.0
 13
243.3814160508144
 23
122.5671871155035
 33
0.0
  0
SOLID
  5
1D6
330
1D1
100
AcDbEntity
  8
1
 62
     2
100
AcDbTrace
 10
203.6314160508145
 20
123.2583627278373
 30
0.0
 11
203.6314160508145
 21
121.8760115031697
 31
0.0
 12
198.3814160508145
 22
122.5671871155035
 32
0.0
 13
198.3814160508145
 23
122.5671871155035
 33
0.0
  0
MTEXT
  5
1D7
330
1D1
100
AcDbEntity
  8
1
 62
     7
100
AcDbMText
 10
216.9439160508145
 20
124.0671871155035
 30
0.0
 40
5.25
 41
0.0
 71
     7
 72
     1
  1
45
  7
CONVERTER_2
 11
0.9999999999970621
 21
2.424068405545307E-6
 31
0.0
 73
     1
 44
0.60024009603842
  0
ENDBLK
  5
1D9
330
1D1
100
AcDbEntity
  8
0
100
AcDbBlockEnd
  0
BLOCK
  5
1E3
330
1DC
100
AcDbEntity
  8
0
100
AcDbBlockBegin
  2
*D212
 70
     1
 71
     0
 10
0.0
 20
0.0
 30
0.0
  3
*D212
  1

  0
LINE
  5
1DD
330
1DC
100
AcDbEntity
  8
1
  6
Continuous
 62
     2
100
AcDbLine
 10
267.8814160508144
 20
122.5671871155035
 30
0.0
 11
257.3814160508144
 21
122.5671871155035
 31
0.0
  0
LINE
  5
1DE
330
1DC
100
AcDbEntity
  8
1
  6
Continuous
 62
     2
100
AcDbLine
 10
257.3814160508144
 20
122.5671871155035
 30
0.0
 11
243.3814160508145
 21
122.5671871155035
 31
0.0
  0
LINE
  5
1DF
330
1DC
100
AcDbEntity
  8
1
  6
Continuous
 62
     2
100
AcDbLine
 10
243.3814160508145
 20
139.5671871155036
 30
0.0
 11
243.3814160508145
 21
121.0671871155035
 31
0.0
  0
LINE
  5
1E0
330
1DC
100
AcDbEntity
  8
1
  6
Continuous
 62
     2
100
AcDbLine
 10
257.3814160508144
 20
153.0671871155036
 30
0.0
 11
257.3814160508144
 21
121.0671871155035
 31
0.0
  0
SOLID
  5
1E1
330
1DC
100
AcDbEntity
  8
1
 62
     2
100
AcDbTrace
 10
262.6314160508144
 20
123.2583627278373
 30
0.0
 11
262.6314160508144
 21
121.8760115031697
 31
0.0
 12
257.3814160508144
 22
122.5671871155035
 32
0.0
 13
257.3814160508144
 23
122.5671871155035
 33
0.0
  0
MTEXT
  5
1E2
330
1DC
100
AcDbEntity
  8
1
 62
     7
100
AcDbMText
 10
247.2314160508144
 20
124.0671871155035
 30
0.0
 40
5.25
 41
0.0
 71
     7
 72
     1
  1
14
  7
CONVERTER_2
 11
0.9999999999970621
 21
2.424068405545307E-6
 31
0.0
 73
     1
 44
0.60024009603842
  0
ENDBLK
  5
1E4
330
1DC
100
AcDbEntity
  8
0
100
AcDbBlockEnd
  0
BLOCK
  5
1E6
330
1E5
100
AcDbEntity
  8
0
100
AcDbBlockBegin
  2
_None
 70
     0
 71
     0
 10
0.0
 20
0.0
 30
0.0
  3
_None
  1

  0
ENDBLK
  5
1E7
330
1E5
100
AcDbEntity
  8
0
100
AcDbBlockEnd
  0
BLOCK
  5
1F1
330
1EA
100
AcDbEntity
  8
0
100
AcDbBlockBegin
  2
*D314
 70
     1
 71
     0
 10
0.0
 20
0.0
 30
0.0
  3
*D314
  1

  0
LINE
  5
1EB
330
1EA
100
AcDbEntity
  8
1
  6
Continuous
 62
     2
100
AcDbLine
 10
140.1929102997736
 20
162.5671871155035
 30
0.0
 11
140.1929102997736
 21
137.5671871155035
 31
0.0
  0
LINE
  5
1EC
330
1EA
100
AcDbEntity
  8
1
  6
Continuous
 62
     2
100
AcDbLine
 10
163.3814160508146
 20
137.5671871155035
 30
0.0
 11
138.6929102997736
 21
137.5671871155035
 31
0.0
  0
LINE
  5
1ED
330
1EA
100
AcDbEntity
  8
1
  6
Continuous
 62
     2
100
AcDbLine
 10
155.1929102997736
 20
162.5671871155035
 30
0.0
 11
138.6929102997736
 21
162.5671871155035
 31
0.0
  0
SOLID
  5
1EE
330
1EA
100
AcDbEntity
  8
1
 62
     2
100
AcDbTrace
 10
140.8840859121074
 20
157.3171871155035
 30
0.0
 11
139.5017346874398
 21
157.3171871155035
 31
0.0
 12
140.1929102997736
 22
162.5671871155035
 32
0.0
 13
140.1929102997736
 23
162.5671871155035
 33
0.0
  0
SOLID
  5
1EF
330
1EA
100
AcDbEntity
  8
1
 62
     2
100
AcDbTrace
 10
139.5017346874398
 20
142.8171871155035
 30
0.0
 11
140.8840859121074
 21
142.8171871155035
 31
0.0
 12
140.1929102997736
 22
137.5671871155035
 32
0.0
 13
140.1929102997736
 23
137.5671871155035
 33
0.0
  0
MTEXT
  5
1F0
330
1EA
100
AcDbEntity
  8
1
 62
     7
100
AcDbMText
 10
138.6929102997736
 20
146.1296871155035
 30
0.0
 40
5.25
 41
0.0
 71
     7
 72
     1
  1
25
  7
CONVERTER_2
 11
0.0
 21
1.0
 31
0.0
 73
     1
 44
0.60024009603842
  0
ENDBLK
  5
1F2
330
1EA
100
AcDbEntity
  8
0
100
AcDbBlockEnd
  0
BLOCK
  5
1FC
330
1F5
100
AcDbEntity
  8
0
100
AcDbBlockBegin
  2
*D415
 70
     1
 71
     0
 10
0.0
 20
0.0
 30
0.0
  3
*D415
  1

  0
LINE
  5
1F6
330
1F5
100
AcDbEntity
  8
1
  6
Continuous
 62
     2
100
AcDbLine
 10
272.3814160508144
 20
139.5671871155035
 30
0.0
 11
272.3814160508144
 21
185.5671871155035
 31
0.0
  0
LINE
  5
1F7
330
1F5
100
AcDbEntity
  8
1
  6
Continuous
 62
     2
100
AcDbLine
 10
243.3814160508144
 20
185.5671871155035
 30
0.0
 11
273.8814160508144
 21
185.5671871155035
 31
0.0
  0
LINE
  5
1F8
330
1F5
100
AcDbEntity
  8
1
  6
Continuous
 62
     2
100
AcDbLine
 10
243.3814160508144
 20
139.5671871155035
 30
0.0
 11
273.8814160508144
 21
139.5671871155035
 31
0.0
  0
SOLID
  5
1F9
330
1F5
100
AcDbEntity
  8
1
 62
     2
100
AcDbTrace
 10
271.6902404384805
 20
144.8171871155035
 30
0.0
 11
273.0725916631482
 21
144.8171871155035
 31
0.0
 12
272.3814160508144
 22
139.5671871155035
 32
0.0
 13
272.3814160508144
 23
139.5671871155035
 33
0.0
  0
SOLID
  5
1FA
330
1F5
100
AcDbEntity
  8
1
 62
     2
100
AcDbTrace
 10
273.0725916631482
 20
180.3171871155035
 30
0.0
 11
271.6902404384805
 21
180.3171871155035
 31
0.0
 12
272.3814160508144
 22
185.5671871155035
 32
0.0
 13
272.3814160508144
 23
185.5671871155035
 33
0.0
  0
MTEXT
  5
1FB
330
1F5
100
AcDbEntity
  8
1
 62
     7
100
AcDbMText
 10
270.8814160508144
 20
153.1696871155035
 30
0.0
 40
5.25
 41
0.0
 71
     7
 72
     1
  1
\C7;{\Fgdt;n}\C7;46
  7
CONVERTER_2
 11
0.0
 21
1.0
 31
0.0
 73
     1
 44
0.60024009603842
  0
ENDBLK
  5
1FD
330
1F5
100
AcDbEntity
  8
0
100
AcDbBlockEnd
  0
BLOCK
  5
207
330
200
100
AcDbEntity
  8
0
100
AcDbBlockBegin
  2
*D516
 70
     1
 71
     0
 10
0.0
 20
0.0
 30
0.0
  3
*D516
  1

  0
LINE
  5
201
330
200
100
AcDbEntity
  8
1
  6
Continuous
 62
     2
100
AcDbLine
 10
140.1929102997736
 20
220.0671871155035
 30
0.0
 11
140.1929102997736
 21
162.5671871155035
 31
0.0
  0
LINE
  5
202
330
200
100
AcDbEntity
  8
1
  6
Continuous
 62
     2
100
AcDbLine
 10
198.3814160508146
 20
220.0671871155035
 30
0.0
 11
138.6929102997736
 21
220.0671871155035
 31
0.0
  0
LINE
  5
203
330
200
100
AcDbEntity
  8
1
  6
Continuous
 62
     2
100
AcDbLine
 10
155.1929102997736
 20
162.5671871155035
 30
0.0
 11
138.6929102997736
 21
162.5671871155035
 31
0.0
  0
SOLID
  5
204
330
200
100
AcDbEntity
  8
1
 62
     2
100
AcDbTrace
 10
140.8840859121074
 20
214.8171871155035
 30
0.0
 11
139.5017346874398
 21
214.8171871155035
 31
0.0
 12
140.1929102997736
 22
220.0671871155035
 32
0.0
 13
140.1929102997736
 23
220.0671871155035
 33
0.0
  0
SOLID
  5
205
330
200
100
AcDbEntity
  8
1
 62
     2
100
AcDbTrace
 10
139.5017346874398
 20
167.8171871155035
 30
0.0
 11
140.8840859121074
 21
167.8171871155035
 31
0.0
 12
140.1929102997736
 22
162.5671871155035
 32
0.0
 13
140.1929102997736
 23
162.5671871155035
 33
0.0
  0
MTEXT
  5
206
330
200
100
AcDbEntity
  8
1
 62
     7
100
AcDbMText
 10
138.6929102997736
 20
177.1421871155035
 30
0.0
 40
5.25
 41
0.0
 71
     7
 72
     1
  1
58リフト5
  7
CONVERTER_1
 11
0.0
 21
1.0
 31
0.0
 73
     1
 44
0.60024009603842
  0
ENDBLK
  5
208
330
200
100
AcDbEntity
  8
0
100
AcDbBlockEnd
  0
ENDSEC
  0
SECTION
  2
ENTITIES
  0
INSERT
  5
56
330
1F
100
AcDbEntity
  8
1
100
AcDbBlockReference
  2
_J__A4
 10
0.0
 20
0.0
 30
0.0
 41
1.5
 42
1.5
 43
1.5
  0
INSERT
  5
57
330
1F
100
AcDbEntity
  8
0
100
AcDbBlockReference
  2
Y10-0-13
 10
-165.6185839491855
 20
162.5671871155035
 30
0.0
  0
INSERT
  5
58
330
1F
100
AcDbEntity
  8
1
100
AcDbBlockReference
  2
R10A-13__1
 10
-225.1185839491854
 20
170.5671871155035
 30
0.0
  0
INSERT
  5
59
330
1F
100
AcDbEntity
  8
1
100
AcDbBlockReference
  2
R10A-13__2
 10
183.8814160508146
 20
170.5671871155035
 30
0.0
  0
LINE
  5
1B2
330
1F
100
AcDbEntity
  8
1
  6
DASH_CENTER
 62
     2
100
AcDbLine
 10
82.63143705237698
 20
137.5650942467531
 30
0.0
 11
108.1313950492516
 21
137.5650942467198
 31
0.0
  0
LINE
  5
1B3
330
1F
100
AcDbEntity
  8
1
  6
DASH_CENTER
 62
     2
100
AcDbLine
 10
84.13141605081458
 20
289.1012996033785
 30
0.0
 11
106.6314160508146
 21
289.1012996033785
 31
0.0
  0
LINE
  5
1B4
330
1F
100
AcDbEntity
  8
1
  6
DASH_CENTER
 62
     2
100
AcDbLine
 10
162.8620784685465
 20
133.337521932446
 30
0.0
 11
167.8240181476065
 21
173.7492776334238
 31
0.0
  0
LINE
  5
1B5
330
1F
100
AcDbEntity
  8
1
  6
DASH_CENTER
 62
     2
100
AcDbLine
 10
73.39452854217586
 20
324.1012996033785
 30
0.0
 11
116.7827595055455
 21
324.1012996033785
 31
0.0
  0
LINE
  5
1B6
330
1F
100
AcDbEntity
  8
1
  6
DASH_CENTER
 62
     2
100
AcDbLine
 10
260.4192225825676
 20
162.5671871155035
 30
0.0
 11
155.1929102997736
 21
162.5671871155035
 31
0.0
  0
LINE
  5
1B7
330
1F
100
AcDbEntity
  8
1
  6
DASH_CENTER
 62
     2
100
AcDbLine
 10
95.38141605081458
 20
277.9095959822737
 30
0.0
 11
95.38141605081458
 21
386.1012996033785
 31
0.0
  0
LINE
  5
1B8
330
1F
100
AcDbEntity
  8
1
  6
DASH_CENTER
 62
     2
100
AcDbLine
 10
104.041670088659
 20
319.1012996033785
 30
0.0
 11
65.93655232214357
 21
341.1012996033785
 31
0.0
  0
LINE
  5
1B9
330
1F
100
AcDbEntity
  8
1
  6
DASH_CENTER
 62
     2
100
AcDbLine
 10
86.72116201297018
 20
319.1012996033785
 30
0.0
 11
124.8262797794855
 21
341.1012996033785
 31
0.0
  0
LINE
  5
1BA
330
1F
100
AcDbEntity
  8
1
  6
DASH_CENTER
 62
     2
100
AcDbLine
 10
198.3814160508146
 20
223.0671531339653
 30
0.0
 11
198.3814160508146
 21
147.5671871155035
 31
0.0
  0
LINE
  5
1BB
330
1F
100
AcDbEntity
  8
1
  6
DASH_CENTER
 62
     2
100
AcDbLine
 10
95.38141605081458
 20
226.9124619070766
 30
0.0
 11
95.38141605081458
 21
134.9124619070766
 31
0.0
  0
LINE
  5
1BC
330
1F
100
AcDbEntity
  8
1
  6
DASH_CENTER
 62
     2
100
AcDbLine
 10
121.0836085319675
 20
162.5671871155035
 30
0.0
 11
67.72669084238768
 21
162.5671871155035
 31
0.0
  0
SOLID
  5
1BD
330
1F
100
AcDbEntity
  8
1
 62
     2
100
AcDbTrace
 10
107.9078404120572
 20
380.4935207794134
 30
0.0
 11
109.1049916895719
 21
379.8023451670796
 31
0.0
 12
105.8814160508145
 22
375.6012996033782
 32
0.0
 13
105.8814160508145
 23
375.6012996033782
 33
0.0
  0
LEADER
  5
1BE
330
1F
100
AcDbEntity
  8
1
  6
Continuous
 62
     2
100
AcDbLeader
  3
Standard
 71
     0
 76
     3
 10
105.8814160508145
 20
375.6012996033782
 30
0.0
 10
116.8263555009872
 20
394.5584908168423
 30
0.0
 10
143.158340297716
 20
394.5584908168423
 30
0.0
  0
MTEXT
  5
1C0
330
1F
100
AcDbEntity
  8
1
 62
     7
100
AcDbMText
 10
51.0
 20
51.00000000000001
 30
0.0
 40
5.25
 41
0.0
 71
     4
 72
     1
  1
JIS
  7
CONVERTER_2
 73
     1
 44
0.7202881152461
  0
MTEXT
  5
1C1
330
1F
100
AcDbEntity
  8
1
 62
     7
100
AcDbMText
 10
85.5
 20
34.12500000000001
 30
0.0
 40
5.25
 41
0.0
 71
     5
 72
     1
  1
横水栓
  7
CONVERTER_1
 73
     1
 44
1.32052821128451
  0
MTEXT
  5
1C2
330
1F
100
AcDbEntity
  8
1
 62
     7
100
AcDbMText
 10
85.5
 20
21.375
 30
0.0
 40
5.25
 41
0.0
 71
     5
 72
     1
  1
Y10J-13
  7
CONVERTER_2
 73
     1
 44
0.90036014405762
  0
MTEXT
  5
1C3
330
1F
100
AcDbEntity
  8
1
 62
     7
100
AcDbMText
 10
127.875
 20
25.5
 30
0.0
 40
5.25
 41
0.0
 71
     5
 72
     1
  1
1
  7
CONVERTER_2
 73
     1
 44
1.32052821128451
  0
MTEXT
  5
1C4
330
1F
100
AcDbEntity
  8
1
 62
     7
100
AcDbMText
 10
140.625
 20
25.5
 30
0.0
 40
5.25
 41
0.0
 71
     5
 72
     1
  1
1,5
  7
CONVERTER_2
 73
     1
 44
1.32052821128451
  0
MTEXT
  5
1C5
330
1F
100
AcDbEntity
  8
1
 62
     7
100
AcDbMText
 10
129.9923478993516
 20
399.0584908168424
 30
0.0
 40
5.25
 41
0.0
 71
     5
 72
     1
  1
PJ1/2
  7
CONVERTER_2
 73
     1
 44
1.32052821128451
  0
DIMENSION
  5
1D0
330
1F
100
AcDbEntity
  8
1
100
AcDbDimension
  2
*D010
 10
198.3814160508144
 20
122.5671871155035
 30
0.0
 11
180.8814160508146
 21
126.6921871155035
 31
0.0
  1
<>
 71
     5
 42
0.0
 53
0.00013888888889
  3
ME10_DIM_0
100
AcDbAlignedDimension
 13
163.3814160508146
 23
137.5671871155035
 33
0.0
 14
198.3814160508146
 24
147.5671871155035
 34
0.0
100
AcDbRotatedDimension
  0
DIMENSION
  5
1DB
330
1F
100
AcDbEntity
  8
1
100
AcDbDimension
  2
*D111
 10
243.3814160508144
 20
122.5671871155035
 30
0.0
 11
220.8814160508145
 21
126.6921871155035
 31
0.0
  1
<>
 71
     5
 42
0.0
 53
0.00013888888889
  3
ME10_DIM_1
100
AcDbAlignedDimension
 13
198.3814160508146
 23
147.5671871155035
 33
0.0
 14
243.3814160508145
 24
139.5671871155035
 34
0.0
100
AcDbRotatedDimension
  0
DIMENSION
  5
1E9
330
1F
100
AcDbEntity
  8
1
100
AcDbDimension
  2
*D212
 10
257.3814160508144
 20
122.5671871155035
 30
0.0
 11
250.3814160508144
 21
126.6921871155035
 31
0.0
  1
<>
 71
     5
 42
0.0
 53
0.00013888888889
  3
ME10_DIM_2
100
AcDbAlignedDimension
 13
243.3814160508145
 23
139.5671871155035
 33
0.0
 14
257.3814160508144
 24
153.0671871155035
 34
0.0
100
AcDbRotatedDimension
  0
DIMENSION
  5
1F4
330
1F
100
AcDbEntity
  8
1
100
AcDbDimension
  2
*D314
 10
140.1929102997736
 20
162.5671871155035
 30
0.0
 11
136.0679102997736
 21
150.0671871155035
 31
0.0
  1
<>
 71
     5
 42
0.0
 53
90.0
  3
ME10_DIM_3
100
AcDbAlignedDimension
 13
163.3814160508146
 23
137.5671871155035
 33
0.0
 14
155.1929102997736
 24
162.5671871155035
 34
0.0
 50
90.0
100
AcDbRotatedDimension
  0
DIMENSION
  5
1FF
330
1F
100
AcDbEntity
  8
1
100
AcDbDimension
  2
*D415
 10
272.3814160508144
 20
139.5671871155035
 30
0.0
 11
268.2564160508144
 21
162.5671871155035
 31
0.0
  1
<>
 71
     5
 42
0.0
 53
90.0
  3
ME10_DIM_4
100
AcDbAlignedDimension
 13
243.3814160508145
 23
185.5671871155035
 33
0.0
 14
243.3814160508145
 24
139.5671871155035
 34
0.0
 50
90.0
100
AcDbRotatedDimension
  0
DIMENSION
  5
20A
330
1F
100
AcDbEntity
  8
1
100
AcDbDimension
  2
*D516
 10
140.1929102997736
 20
220.0671871155035
 30
0.0
 11
136.0679102997736
 21
191.3171871155035
 31
0.0
  1
58リフト5
 71
     5
 42
0.0
 53
90.0
  3
ME10_DIM_5
100
AcDbAlignedDimension
 13
155.1929102997736
 23
162.5671871155035
 33
0.0
 14
198.3814160508146
 24
220.0671871155035
 34
0.0
 50
90.0
100
AcDbRotatedDimension
  0
ENDSEC
  0
SECTION
  2
OBJECTS
  0
DICTIONARY
  5
C
330
0
100
AcDbDictionary
281
     1
  3
ACAD_GROUP
350
D
  3
ACAD_LAYOUT
350
1A
  3
ACAD_MLINESTYLE
350
17
  3
ACAD_PLOTSETTINGS
350
19
  3
ACAD_PLOTSTYLENAME
350
E
  3
ACAD_TABLESTYLE
350
2A
  3
AcDbVariableDictionary
350
2C
  0
DICTIONARY
  5
D
102
{ACAD_REACTORS
330
C
102
}
330
C
100
AcDbDictionary
281
     1
  0
DICTIONARY
  5
1A
102
{ACAD_REACTORS
330
C
102
}
330
C
100
AcDbDictionary
281
     1
  3
Layout1
350
1E
  3
Layout2
350
26
  3
Model
350
22
  0
DICTIONARY
  5
17
102
{ACAD_REACTORS
330
C
102
}
330
C
100
AcDbDictionary
281
     1
  3
Standard
350
18
  0
DICTIONARY
  5
19
102
{ACAD_REACTORS
330
C
102
}
330
C
100
AcDbDictionary
281
     1
  0
ACDBDICTIONARYWDFLT
  5
E
102
{ACAD_REACTORS
330
C
102
}
330
C
100
AcDbDictionary
281
     1
  3
Normal
350
F
100
AcDbDictionaryWithDefault
340
F
  0
DICTIONARY
  5
2A
102
{ACAD_REACTORS
330
C
102
}
330
C
100
AcDbDictionary
281
     1
  3
Standard
350
2B
  0
DICTIONARY
  5
2C
102
{ACAD_REACTORS
330
C
102
}
330
C
100
AcDbDictionary
281
     1
  3
CTABLESTYLE
350
2D
  0
LAYOUT
  5
1E
102
{ACAD_REACTORS
330
1A
102
}
330
1A
100
AcDbPlotSettings
  1

  2

  4

  6

 40
0.0
 41
0.0
 42
0.0
 43
0.0
 44
0.0
 45
0.0
 46
0.0
 47
0.0
 48
0.0
 49
0.0
140
0.0
141
0.0
142
1.0
143
1.0
 70
   688
 72
     0
 73
     0
 74
     5
  7

 75
    16
147
1.0
148
0.0
149
0.0
100
AcDbLayout
  1
Layout1
 70
     1
 71
     1
 10
0.0
 20
0.0
 11
12.0
 21
9.0
 12
0.0
 22
0.0
 32
0.0
 14
1.00000000000000E+20
 24
1.00000000000000E+20
 34
1.00000000000000E+20
 15
-1.00000000000000E+20
 25
-1.00000000000000E+20
 35
-1.00000000000000E+20
146
0.0
 13
0.0
 23
0.0
 33
0.0
 16
1.0
 26
0.0
 36
0.0
 17
0.0
 27
1.0
 37
0.0
 76
     0
330
1B
  0
LAYOUT
  5
26
102
{ACAD_REACTORS
330
1A
102
}
330
1A
100
AcDbPlotSettings
  1

  2

  4

  6

 40
0.0
 41
0.0
 42
0.0
 43
0.0
 44
0.0
 45
0.0
 46
0.0
 47
0.0
 48
0.0
 49
0.0
140
0.0
141
0.0
142
1.0
143
1.0
 70
   688
 72
     0
 73
     0
 74
     5
  7

 75
    16
147
1.0
148
0.0
149
0.0
100
AcDbLayout
  1
Layout2
 70
     1
 71
     2
 10
0.0
 20
0.0
 11
0.0
 21
0.0
 12
0.0
 22
0.0
 32
0.0
 14
0.0
 24
0.0
 34
0.0
 15
0.0
 25
0.0
 35
0.0
146
0.0
 13
0.0
 23
0.0
 33
0.0
 16
1.0
 26
0.0
 36
0.0
 17
0.0
 27
1.0
 37
0.0
 76
     0
330
23
  0
LAYOUT
  5
22
102
{ACAD_REACTORS
330
1A
102
}
330
1A
100
AcDbPlotSettings
  1

  2

  4

  6

 40
0.0
 41
0.0
 42
0.0
 43
0.0
 44
0.0
 45
0.0
 46
0.0
 47
0.0
 48
0.0
 49
0.0
140
0.0
141
0.0
142
1.0
143
1.0
 70
  1712
 72
     0
 73
     0
 74
     0
  7

 75
     0
147
1.0
148
0.0
149
0.0
100
AcDbLayout
  1
Model
 70
     1
 71
     0
 10
0.0
 20
0.0
 11
0.0
 21
0.0
 12
0.0
 22
0.0
 32
0.0
 14
0.0
 24
0.0
 34
0.0
 15
315.0
 25
445.5
 35
0.0
146
0.0
 13
0.0
 23
0.0
 33
0.0
 16
1.0
 26
0.0
 36
0.0
 17
0.0
 27
1.0
 37
0.0
 76
     0
330
1F
  0
MLINESTYLE
  5
18
102
{ACAD_REACTORS
330
17
102
}
330
17
100
AcDbMlineStyle
  2
Standard
 70
     0
  3

 62
   256
 51
90.0
 52
90.0
 71
     2
 49
0.5
 62
   256
  6
BYLAYER
 49
-0.5
 62
   256
  6
BYLAYER
  0
ACDBPLACEHOLDER
  5
F
102
{ACAD_REACTORS
330
E
102
}
330
E
  0
TABLESTYLE
  5
2B
102
{ACAD_REACTORS
330
2A
102
}
330
2A
100
AcDbTableStyle
  3
Standard
 70
     0
 71
     0
 40
0.06
 41
0.06
280
     0
281
     0
  7
Standard
140
0.18
170
     2
 62
     0
 63
     7
283
     0
274
    -2
284
     1
 64
     0
275
    -2
285
     1
 65
     0
276
    -2
286
     1
 66
     0
277
    -2
287
     1
 67
     0
278
    -2
288
     1
 68
     0
279
    -2
289
     1
 69
     0
  7
Standard
140
0.25
170
     5
 62
     0
 63
     7
283
     0
274
    -2
284
     1
 64
     0
275
    -2
285
     1
 65
     0
276
    -2
286
     1
 66
     0
277
    -2
287
     1
 67
     0
278
    -2
288
     1
 68
     0
279
    -2
289
     1
 69
     0
  7
Standard
140
0.18
170
     5
 62
     0
 63
     7
283
     0
274
    -2
284
     1
 64
     0
275
    -2
285
     1
 65
     0
276
    -2
286
     1
 66
     0
277
    -2
287
     1
 67
     0
278
    -2
288
     1
 68
     0
279
    -2
289
     1
 69
     0
  0
DICTIONARYVAR
  5
2D
102
{ACAD_REACTORS
330
2C
102
}
330
2C
100
DictionaryVariables
280
     0
  1
Standard
  0
ENDSEC
  0
EOF
