  0
SECTION
  2
HEADER
  9
$ACADVER
  1
AC1015
  9
$ACADMAINTVER
 70
     6
  9
$DWGCODEPAGE
  3
DOS932
  9
$INSBASE
 10
0.0
 20
0.0
 30
0.0
  9
$EXTMIN
 10
0.0
 20
0.0
 30
0.0
  9
$EXTMAX
 10
315.0
 20
445.5
 30
0.0
  9
$LIMMIN
 10
0.0
 20
0.0
  9
$LIMMAX
 10
12.0
 20
9.0
  9
$ORTHOMODE
 70
     0
  9
$REGENMODE
 70
     1
  9
$FILLMODE
 70
     1
  9
$QTEXTMODE
 70
     0
  9
$MIRRTEXT
 70
     1
  9
$LTSCALE
 40
1.0
  9
$ATTMODE
 70
     1
  9
$TEXTSIZE
 40
0.2
  9
$TRACEWID
 40
0.05
  9
$TEXTSTYLE
  7
Standard
  9
$CLAYER
  8
0
  9
$CELTYPE
  6
ByLayer
  9
$CECOLOR
 62
   256
  9
$CELTSCALE
 40
1.0
  9
$DISPSILH
 70
     0
  9
$DIMSCALE
 40
1.0
  9
$DIMASZ
 40
0.18
  9
$DIMEXO
 40
0.0625
  9
$DIMDLI
 40
0.38
  9
$DIMRND
 40
0.0
  9
$DIMDLE
 40
0.0
  9
$DIMEXE
 40
0.18
  9
$DIMTP
 40
0.0
  9
$DIMTM
 40
0.0
  9
$DIMTXT
 40
0.18
  9
$DIMCEN
 40
0.09
  9
$DIMTSZ
 40
0.0
  9
$DIMTOL
 70
     0
  9
$DIMLIM
 70
     0
  9
$DIMTIH
 70
     1
  9
$DIMTOH
 70
     1
  9
$DIMSE1
 70
     0
  9
$DIMSE2
 70
     0
  9
$DIMTAD
 70
     0
  9
$DIMZIN
 70
     0
  9
$DIMBLK
  1

  9
$DIMASO
 70
     1
  9
$DIMSHO
 70
     1
  9
$DIMPOST
  1

  9
$DIMAPOST
  1

  9
$DIMALT
 70
     0
  9
$DIMALTD
 70
     2
  9
$DIMALTF
 40
25.4
  9
$DIMLFAC
 40
1.0
  9
$DIMTOFL
 70
     0
  9
$DIMTVP
 40
0.0
  9
$DIMTIX
 70
     0
  9
$DIMSOXD
 70
     0
  9
$DIMSAH
 70
     0
  9
$DIMBLK1
  1

  9
$DIMBLK2
  1

  9
$DIMSTYLE
  2
Standard
  9
$DIMCLRD
 70
     0
  9
$DIMCLRE
 70
     0
  9
$DIMCLRT
 70
     0
  9
$DIMTFAC
 40
1.0
  9
$DIMGAP
 40
0.09
  9
$DIMJUST
 70
     0
  9
$DIMSD1
 70
     0
  9
$DIMSD2
 70
     0
  9
$DIMTOLJ
 70
     1
  9
$DIMTZIN
 70
     0
  9
$DIMALTZ
 70
     0
  9
$DIMALTTZ
 70
     0
  9
$DIMUPT
 70
     0
  9
$DIMDEC
 70
     4
  9
$DIMTDEC
 70
     4
  9
$DIMALTU
 70
     2
  9
$DIMALTTD
 70
     2
  9
$DIMTXSTY
  7
Standard
  9
$DIMAUNIT
 70
     0
  9
$DIMADEC
 70
     0
  9
$DIMALTRND
 40
0.0
  9
$DIMAZIN
 70
     0
  9
$DIMDSEP
 70
    46
  9
$DIMATFIT
 70
     3
  9
$DIMFRAC
 70
     0
  9
$DIMLDRBLK
  1

  9
$DIMLUNIT
 70
     2
  9
$DIMLWD
 70
    -2
  9
$DIMLWE
 70
    -2
  9
$DIMTMOVE
 70
     0
  9
$LUNITS
 70
     2
  9
$LUPREC
 70
     4
  9
$SKETCHINC
 40
0.1
  9
$FILLETRAD
 40
0.5
  9
$AUNITS
 70
     0
  9
$AUPREC
 70
     0
  9
$MENU
  1
.
  9
$ELEVATION
 40
0.0
  9
$PELEVATION
 40
0.0
  9
$THICKNESS
 40
0.0
  9
$LIMCHECK
 70
     0
  9
$CHAMFERA
 40
0.5
  9
$CHAMFERB
 40
0.5
  9
$CHAMFERC
 40
1.0
  9
$CHAMFERD
 40
0.0
  9
$SKPOLY
 70
     0
  9
$TDCREATE
 40
2456136.361637732
  9
$TDUCREATE
 40
2456135.986637732
  9
$TDUPDATE
 40
2456136.361637743
  9
$TDUUPDATE
 40
2456135.986637743
  9
$TDINDWG
 40
0.0000000116
  9
$TDUSRTIMER
 40
0.0000000116
  9
$USRTIMER
 70
     1
  9
$ANGBASE
 50
0.0
  9
$ANGDIR
 70
     0
  9
$PDMODE
 70
     0
  9
$PDSIZE
 40
0.0
  9
$PLINEWID
 40
0.0
  9
$SPLFRAME
 70
     0
  9
$SPLINETYPE
 70
     6
  9
$SPLINESEGS
 70
     8
  9
$HANDSEED
  5
1F3
  9
$SURFTAB1
 70
     6
  9
$SURFTAB2
 70
     6
  9
$SURFTYPE
 70
     6
  9
$SURFU
 70
     6
  9
$SURFV
 70
     6
  9
$UCSBASE
  2

  9
$UCSNAME
  2

  9
$UCSORG
 10
0.0
 20
0.0
 30
0.0
  9
$UCSXDIR
 10
1.0
 20
0.0
 30
0.0
  9
$UCSYDIR
 10
0.0
 20
1.0
 30
0.0
  9
$UCSORTHOREF
  2

  9
$UCSORTHOVIEW
 70
     0
  9
$UCSORGTOP
 10
0.0
 20
0.0
 30
0.0
  9
$UCSORGBOTTOM
 10
0.0
 20
0.0
 30
0.0
  9
$UCSORGLEFT
 10
0.0
 20
0.0
 30
0.0
  9
$UCSORGRIGHT
 10
0.0
 20
0.0
 30
0.0
  9
$UCSORGFRONT
 10
0.0
 20
0.0
 30
0.0
  9
$UCSORGBACK
 10
0.0
 20
0.0
 30
0.0
  9
$PUCSBASE
  2

  9
$PUCSNAME
  2

  9
$PUCSORG
 10
0.0
 20
0.0
 30
0.0
  9
$PUCSXDIR
 10
1.0
 20
0.0
 30
0.0
  9
$PUCSYDIR
 10
0.0
 20
1.0
 30
0.0
  9
$PUCSORTHOREF
  2

  9
$PUCSORTHOVIEW
 70
     0
  9
$PUCSORGTOP
 10
0.0
 20
0.0
 30
0.0
  9
$PUCSORGBOTTOM
 10
0.0
 20
0.0
 30
0.0
  9
$PUCSORGLEFT
 10
0.0
 20
0.0
 30
0.0
  9
$PUCSORGRIGHT
 10
0.0
 20
0.0
 30
0.0
  9
$PUCSORGFRONT
 10
0.0
 20
0.0
 30
0.0
  9
$PUCSORGBACK
 10
0.0
 20
0.0
 30
0.0
  9
$USERI1
 70
     0
  9
$USERI2
 70
     0
  9
$USERI3
 70
     0
  9
$USERI4
 70
     0
  9
$USERI5
 70
     0
  9
$USERR1
 40
13.2
  9
$USERR2
 40
0.0
  9
$USERR3
 40
0.0
  9
$USERR4
 40
0.0
  9
$USERR5
 40
0.0
  9
$WORLDVIEW
 70
     1
  9
$SHADEDGE
 70
     3
  9
$SHADEDIF
 70
    70
  9
$TILEMODE
 70
     1
  9
$MAXACTVP
 70
    64
  9
$PINSBASE
 10
0.0
 20
0.0
 30
0.0
  9
$PLIMCHECK
 70
     0
  9
$PEXTMIN
 10
1.00000000000000E+20
 20
1.00000000000000E+20
 30
1.00000000000000E+20
  9
$PEXTMAX
 10
-1.00000000000000E+20
 20
-1.00000000000000E+20
 30
-1.00000000000000E+20
  9
$PLIMMIN
 10
0.0
 20
0.0
  9
$PLIMMAX
 10
12.0
 20
9.0
  9
$UNITMODE
 70
     0
  9
$VISRETAIN
 70
     1
  9
$PLINEGEN
 70
     0
  9
$PSLTSCALE
 70
     1
  9
$TREEDEPTH
 70
  3020
  9
$CMLSTYLE
  2
Standard
  9
$CMLJUST
 70
     0
  9
$CMLSCALE
 40
1.0
  9
$PROXYGRAPHICS
 70
     1
  9
$MEASUREMENT
 70
     1
  9
$CELWEIGHT
370
    -1
  9
$ENDCAPS
280
     0
  9
$JOINSTYLE
280
     0
  9
$LWDISPLAY
290
     0
  9
$INSUNITS
 70
     1
  9
$HYPERLINKBASE
  1

  9
$STYLESHEET
  1

  9
$XEDIT
290
     1
  9
$CEPSNTYPE
380
     0
  9
$PSTYLEMODE
290
     0
  9
$FINGERPRINTGUID
  2
{FAEB1C30-E019-11D5-929B-00C0DF256EC4}
  9
$VERSIONGUID
  2
{FAEB1C32-E019-11D5-929B-00C0DF256EC4}
  9
$EXTNAMES
290
     1
  9
$PSVPSCALE
 40
0.0
  9
$OLESTARTUP
290
     0
  0
ENDSEC
  0
SECTION
  2
CLASSES
  0
CLASS
  1
ACDBDICTIONARYWDFLT
  2
AcDbDictionaryWithDefault
  3
ObjectDBX Classes
 90
        0
280
     0
281
     0
  0
CLASS
  1
TABLESTYLE
  2
AcDbTableStyle
  3
ObjectDBX Classes
 90
     2047
280
     0
281
     0
  0
CLASS
  1
DICTIONARYVAR
  2
AcDbDictionaryVar
  3
ObjectDBX Classes
 90
        0
280
     0
281
     0
  0
CLASS
  1

  2
exOdDbSpline
  3

 90
        0
280
     0
281
     1
  0
CLASS
  1

  2
exOdDbCircle
  3

 90
        0
280
     0
281
     1
  0
CLASS
  1
ACDBPLACEHOLDER
  2
AcDbPlaceHolder
  3
ObjectDBX Classes
 90
        0
280
     0
281
     0
  0
CLASS
  1
LAYOUT
  2
AcDbLayout
  3
ObjectDBX Classes
 90
        0
280
     0
281
     0
  0
ENDSEC
  0
SECTION
  2
TABLES
  0
TABLE
  2
VPORT
  5
8
330
0
100
AcDbSymbolTable
 70
     2
  0
VPORT
  5
29
330
8
100
AcDbSymbolTableRecord
100
AcDbViewportTableRecord
  2
*Active
 70
     0
 10
0.0
 20
0.0
 11
1.0
 21
1.0
 12
157.5
 22
222.75
 13
0.0
 23
0.0
 14
0.5
 24
0.5
 15
0.5
 25
0.5
 16
0.0
 26
0.0
 36
1.0
 17
0.0
 27
0.0
 37
0.0
 40
490.05
 41
1.60267857142857
 42
50.0
 43
0.0
 44
0.0
 50
0.0
 51
0.0
 71
     0
 72
   100
 73
     1
 74
     3
 75
     0
 76
     0
 77
     0
 78
     0
281
     0
 65
     1
110
0.0
120
0.0
130
0.0
111
1.0
121
0.0
131
0.0
112
0.0
122
1.0
132
0.0
 79
     0
146
0.0
  0
ENDTAB
  0
TABLE
  2
LTYPE
  5
5
330
0
100
AcDbSymbolTable
 70
     8
  0
LTYPE
  5
14
330
5
100
AcDbSymbolTableRecord
100
AcDbLinetypeTableRecord
  2
ByBlock
 70
     0
  3

 72
    65
 73
     0
 40
0.0
  0
LTYPE
  5
15
330
5
100
AcDbSymbolTableRecord
100
AcDbLinetypeTableRecord
  2
ByLayer
 70
     0
  3

 72
    65
 73
     0
 40
0.0
  0
LTYPE
  5
16
330
5
100
AcDbSymbolTableRecord
100
AcDbLinetypeTableRecord
  2
Continuous
 70
     0
  3
Solid line
 72
    65
 73
     0
 40
0.0
  0
LTYPE
  5
2E
330
5
100
AcDbSymbolTableRecord
100
AcDbLinetypeTableRecord
  2
DASHED
 70
     0
  3
Dashed
 72
    65
 73
     2
 40
15.0
 49
7.0
 74
     0
 49
-8.0
 74
     0
  0
LTYPE
  5
2F
330
5
100
AcDbSymbolTableRecord
100
AcDbLinetypeTableRecord
  2
DOTTED
 70
     0
  3
Dotted
 72
    65
 73
     2
 40
1.0
 49
0.0
 74
     0
 49
-1.0
 74
     0
  0
LTYPE
  5
30
330
5
100
AcDbSymbolTableRecord
100
AcDbLinetypeTableRecord
  2
DOT_CENTER
 70
     0
  3
Dot_Center
 72
    65
 73
     4
 40
14.0
 49
12.0
 74
     0
 49
-1.0
 74
     0
 49
0.0
 74
     0
 49
-1.0
 74
     0
  0
LTYPE
  5
31
330
5
100
AcDbSymbolTableRecord
100
AcDbLinetypeTableRecord
  2
LONG_DASHED
 70
     0
  3
Long_Dashed
 72
    65
 73
     2
 40
15.0
 49
10.0
 74
     0
 49
-5.0
 74
     0
  0
LTYPE
  5
32
330
5
100
AcDbSymbolTableRecord
100
AcDbLinetypeTableRecord
  2
DASH_CENTER
 70
     0
  3
Dash_Center
 72
    65
 73
     4
 40
14.0
 49
11.0
 74
     0
 49
-1.0
 74
     0
 49
1.0
 74
     0
 49
-1.0
 74
     0
  0
LTYPE
  5
33
330
5
100
AcDbSymbolTableRecord
100
AcDbLinetypeTableRecord
  2
PHANTOM
 70
     0
  3
Phantom
 72
    65
 73
     6
 40
13.0
 49
10.0
 74
     0
 49
-1.0
 74
     0
 49
0.0
 74
     0
 49
-1.0
 74
     0
 49
0.0
 74
     0
 49
-1.0
 74
     0
  0
LTYPE
  5
34
330
5
100
AcDbSymbolTableRecord
100
AcDbLinetypeTableRecord
  2
CENTER_DASH_DASH
 70
     0
  3
Center_Dash_Dash
 72
    65
 73
     6
 40
14.0
 49
9.0
 74
     0
 49
-1.0
 74
     0
 49
1.0
 74
     0
 49
-1.0
 74
     0
 49
1.0
 74
     0
 49
-1.0
 74
     0
  0
ENDTAB
  0
TABLE
  2
LAYER
  5
2
330
0
100
AcDbSymbolTable
 70
     2
  0
LAYER
  5
10
330
2
100
AcDbSymbolTableRecord
100
AcDbLayerTableRecord
  2
0
 70
     0
 62
     7
  6
Continuous
370
    -3
390
F
  0
LAYER
  5
35
330
2
100
AcDbSymbolTableRecord
100
AcDbLayerTableRecord
  2
1
 70
     0
 62
     7
  6
Continuous
370
    -3
390
F
  0
ENDTAB
  0
TABLE
  2
STYLE
  5
3
330
0
100
AcDbSymbolTable
 70
     3
  0
STYLE
  5
11
330
3
100
AcDbSymbolTableRecord
100
AcDbTextStyleTableRecord
  2
Standard
 70
     0
 40
0.0
 41
1.0
 50
0.0
 71
     0
 42
0.2
  3
txt
  4

  0
STYLE
  5
127
330
3
100
AcDbSymbolTableRecord
100
AcDbTextStyleTableRecord
  2
CONVERTER_1
 70
     0
 40
0.0
 41
0.89
 50
0.0
 71
     0
 42
0.2
  3
msmincho.ttc
  4

1001
ACAD
1000
MS Mincho
1071
    32785
  0
STYLE
  5
1AA
330
3
100
AcDbSymbolTableRecord
100
AcDbTextStyleTableRecord
  2
CONVERTER_2
 70
     0
 40
0.0
 41
0.9
 50
0.0
 71
     0
 42
0.2
  3
txt.shx
  4

  0
ENDTAB
  0
TABLE
  2
VIEW
  5
6
330
0
100
AcDbSymbolTable
 70
     0
  0
ENDTAB
  0
TABLE
  2
UCS
  5
7
330
0
100
AcDbSymbolTable
 70
     0
  0
ENDTAB
  0
TABLE
  2
APPID
  5
9
330
0
100
AcDbSymbolTable
 70
     1
  0
APPID
  5
12
330
9
100
AcDbSymbolTableRecord
100
AcDbRegAppTableRecord
  2
ACAD
 70
     0
  0
ENDTAB
  0
TABLE
  2
DIMSTYLE
  5
A
330
0
100
AcDbSymbolTable
 70
     7
100
AcDbDimStyleTable
  0
DIMSTYLE
105
27
330
A
100
AcDbSymbolTableRecord
100
AcDbDimStyleTableRecord
  2
Standard
 70
     0
340
11
  0
DIMSTYLE
105
1BA
102
{ACAD_REACTORS
330
1BB
102
}
330
A
100
AcDbSymbolTableRecord
100
AcDbDimStyleTableRecord
  2
ME10_DIM_0
 70
     0
 41
5.25
 42
0.0
 44
1.5
 73
     0
 74
     0
 77
     1
 78
     8
140
5.25
147
0.625
172
     1
173
     1
176
     2
177
     2
178
     7
271
     2
340
1AA
  0
DIMSTYLE
105
1C5
102
{ACAD_REACTORS
330
1C6
102
}
330
A
100
AcDbSymbolTableRecord
100
AcDbDimStyleTableRecord
  2
ME10_DIM_1
 70
     0
 41
5.25
 42
0.0
 44
1.5
 73
     0
 74
     0
 77
     1
 78
     8
140
5.25
147
0.625
172
     1
173
     1
176
     2
177
     2
178
     7
271
     2
340
1AA
  0
DIMSTYLE
105
1D0
102
{ACAD_REACTORS
330
1D1
102
}
330
A
100
AcDbSymbolTableRecord
100
AcDbDimStyleTableRecord
  2
ME10_DIM_2
 70
     0
 41
5.25
 42
0.0
 44
1.5
 73
     0
 74
     0
 77
     1
 78
     8
140
5.25
147
0.625
172
     1
173
     1
176
     2
177
     2
178
     7
271
     2
340
127
  0
DIMSTYLE
105
1DB
102
{ACAD_REACTORS
330
1DC
102
}
330
A
100
AcDbSymbolTableRecord
100
AcDbDimStyleTableRecord
  2
ME10_DIM_3
 70
     0
  3
{\Fgdt;n}<>
 41
5.25
 42
0.0
 44
1.5
 73
     0
 74
     0
 77
     1
 78
     8
140
5.25
147
0.625
172
     1
173
     1
176
     2
177
     2
178
     7
271
     2
340
1AA
  0
DIMSTYLE
105
1E6
102
{ACAD_REACTORS
330
1E7
102
}
330
A
100
AcDbSymbolTableRecord
100
AcDbDimStyleTableRecord
  2
ME10_DIM_4
 70
     0
 41
5.25
 42
0.0
 44
1.5
 73
     0
 74
     0
 77
     1
 78
     8
140
5.25
147
0.625
172
     1
173
     1
176
     2
177
     2
178
     7
271
     2
340
1AA
  0
DIMSTYLE
105
1F1
102
{ACAD_REACTORS
330
1F2
102
}
330
A
100
AcDbSymbolTableRecord
100
AcDbDimStyleTableRecord
  2
ME10_DIM_5
 70
     0
 41
5.25
 42
0.0
 44
1.5
 73
     0
 74
     0
 77
     1
 78
     8
140
5.25
147
0.625
172
     1
173
     1
176
     2
177
     2
178
     7
271
     2
340
1AA
  0
ENDTAB
  0
TABLE
  2
BLOCK_RECORD
  5
1
330
0
100
AcDbSymbolTable
 70
    13
  0
BLOCK_RECORD
  5
1F
330
1
100
AcDbSymbolTableRecord
100
AcDbBlockTableRecord
  2
*Model_Space
340
22
  0
BLOCK_RECORD
  5
1B
330
1
100
AcDbSymbolTableRecord
100
AcDbBlockTableRecord
  2
*Paper_Space
340
1E
  0
BLOCK_RECORD
  5
23
330
1
100
AcDbSymbolTableRecord
100
AcDbBlockTableRecord
  2
*Paper_Space0
340
26
  0
BLOCK_RECORD
  5
36
330
1
100
AcDbSymbolTableRecord
100
AcDbBlockTableRecord
  2
21-1C
340
0
102
{BLKREFS
331
48
102
}
  0
BLOCK_RECORD
  5
39
330
1
100
AcDbSymbolTableRecord
100
AcDbBlockTableRecord
  2
37-1-25
340
0
102
{BLKREFS
331
49
102
}
  0
BLOCK_RECORD
  5
3C
330
1
100
AcDbSymbolTableRecord
100
AcDbBlockTableRecord
  2
42-1
340
0
102
{BLKREFS
331
4A
102
}
  0
BLOCK_RECORD
  5
3F
330
1
100
AcDbSymbolTableRecord
100
AcDbBlockTableRecord
  2
36-1-25
340
0
102
{BLKREFS
331
4B
102
}
  0
BLOCK_RECORD
  5
42
330
1
100
AcDbSymbolTableRecord
100
AcDbBlockTableRecord
  2
_J__A4
340
0
102
{BLKREFS
331
4C
102
}
  0
BLOCK_RECORD
  5
45
330
1
100
AcDbSymbolTableRecord
100
AcDbBlockTableRecord
  2
Y10-0-25
340
0
102
{BLKREFS
331
4D
102
}
  0
BLOCK_RECORD
  5
1B1
330
1
100
AcDbSymbolTableRecord
100
AcDbBlockTableRecord
  2
*D07
340
0
  0
BLOCK_RECORD
  5
1BC
330
1
100
AcDbSymbolTableRecord
100
AcDbBlockTableRecord
  2
*D18
340
0
  0
BLOCK_RECORD
  5
1C7
330
1
100
AcDbSymbolTableRecord
100
AcDbBlockTableRecord
  2
*D29
340
0
  0
BLOCK_RECORD
  5
1D2
330
1
100
AcDbSymbolTableRecord
100
AcDbBlockTableRecord
  2
*D310
340
0
  0
BLOCK_RECORD
  5
1DD
330
1
100
AcDbSymbolTableRecord
100
AcDbBlockTableRecord
  2
*D411
340
0
  0
BLOCK_RECORD
  5
1E8
330
1
100
AcDbSymbolTableRecord
100
AcDbBlockTableRecord
  2
*D512
340
0
  0
ENDTAB
  0
ENDSEC
  0
SECTION
  2
BLOCKS
  0
BLOCK
  5
20
330
1F
100
AcDbEntity
  8
0
100
AcDbBlockBegin
  2
*Model_Space
 70
     0
 71
     0
 10
0.0
 20
0.0
 30
0.0
  3
*Model_Space
  1

  0
ENDBLK
  5
21
330
1F
100
AcDbEntity
  8
0
100
AcDbBlockEnd
  0
BLOCK
  5
1C
330
1B
100
AcDbEntity
 67
     1
  8
0
100
AcDbBlockBegin
  2
*Paper_Space
 70
     0
 71
     0
 10
0.0
 20
0.0
 30
0.0
  3
*Paper_Space
  1

  0
ENDBLK
  5
1D
330
1B
100
AcDbEntity
 67
     1
  8
0
100
AcDbBlockEnd
  0
BLOCK
  5
24
330
23
100
AcDbEntity
  8
0
100
AcDbBlockBegin
  2
*Paper_Space0
 70
     0
 71
     0
 10
0.0
 20
0.0
 30
0.0
  3
*Paper_Space0
  1

  0
ENDBLK
  5
25
330
23
100
AcDbEntity
  8
0
100
AcDbBlockEnd
  0
BLOCK
  5
37
330
36
100
AcDbEntity
  8
0
100
AcDbBlockBegin
  2
21-1C
 70
     0
 71
     0
 10
-317.4008109874356
 20
237.458163924338
 30
0.0
  3
21-1C
  1

  0
LINE
  5
4E
330
36
100
AcDbEntity
  8
1
  6
PHANTOM
 62
     4
100
AcDbLine
 10
52.41609059077473
 20
332.6303086096783
 30
0.0
 11
103.6039040132717
 21
303.0770107509714
 31
0.0
  0
LINE
  5
4F
330
36
100
AcDbEntity
  8
1
  6
PHANTOM
 62
     4
100
AcDbLine
 10
116.4996551769569
 20
332.6303086096783
 30
0.0
 11
65.94651627194611
 21
303.4434402544899
 31
0.0
  0
LINE
  5
50
330
36
100
AcDbEntity
  8
1
  6
Continuous
 62
     7
100
AcDbLine
 10
167.1123892307752
 20
197.5260553639925
 30
0.0
 11
197.537205027165
 21
197.5260553639925
 31
0.0
  0
LINE
  5
51
330
36
100
AcDbEntity
  8
1
  6
Continuous
 62
     7
100
AcDbLine
 10
215.339890881516
 20
202.4851319697361
 30
0.0
 11
215.9571083755235
 21
198.0956772967053
 31
0.0
  0
LINE
  5
52
330
36
100
AcDbEntity
  8
1
  6
Continuous
 62
     7
100
AcDbLine
 10
167.0691632953966
 20
201.3111351193431
 30
0.0
 11
166.617255196404
 21
198.0956419144726
 31
0.0
  0
LINE
  5
53
330
36
100
AcDbEntity
  8
1
  6
Continuous
 62
     7
100
AcDbLine
 10
215.4619793150904
 20
197.5260553639925
 30
0.0
 11
197.537205027165
 21
197.5260553639925
 31
0.0
  0
LINE
  5
54
330
36
100
AcDbEntity
  8
1
  6
Continuous
 62
     7
100
AcDbLine
 10
112.103642012848
 20
198.0956419144727
 30
0.0
 11
111.6517339138554
 21
201.3111351193432
 31
0.0
  0
LINE
  5
55
330
36
100
AcDbEntity
  8
1
  6
Continuous
 62
     7
100
AcDbLine
 10
57.26401185387675
 20
201.3111351193432
 30
0.0
 11
56.81210375488433
 21
198.0956419144727
 31
0.0
  0
LINE
  5
56
330
36
100
AcDbEntity
  8
1
  6
Continuous
 62
     7
100
AcDbLine
 10
57.30723778925506
 20
197.5260553639925
 30
0.0
 11
111.608507978477
 21
197.5260553639925
 31
0.0
  0
LINE
  5
57
330
36
100
AcDbEntity
  8
1
  6
Continuous
 62
     7
100
AcDbLine
 10
78.66231792613144
 20
287.5780627068316
 30
0.0
 11
75.01090871466101
 21
301.2053074032645
 31
0.0
  0
LINE
  5
58
330
36
100
AcDbEntity
  8
1
  6
Continuous
 62
     7
100
AcDbLine
 10
58.56459710213574
 20
322.3883362903276
 30
0.0
 11
68.54043258709794
 21
312.4125008053653
 31
0.0
  0
LINE
  5
59
330
36
100
AcDbEntity
  8
1
  6
Continuous
 62
     7
100
AcDbLine
 10
64.3601520598699
 20
332.4265319351812
 30
0.0
 11
77.98739675630282
 21
328.7751227237107
 31
0.0
  0
LINE
  5
5A
330
36
100
AcDbEntity
  8
1
  6
Continuous
 62
     7
100
AcDbLine
 10
105.3160986104824
 20
332.6303086096783
 30
0.0
 11
90.92834901142885
 21
328.7751227237107
 31
0.0
  0
LINE
  5
5B
330
36
100
AcDbEntity
  8
1
  6
Continuous
 62
     7
100
AcDbLine
 10
110.351148665596
 20
322.3883362903276
 30
0.0
 11
100.3753131806338
 21
312.4125008053653
 31
0.0
  0
LINE
  5
5C
330
36
100
AcDbEntity
  8
1
  6
Continuous
 62
     7
100
AcDbLine
 10
90.25342784160023
 20
287.5780627068316
 30
0.0
 11
93.90483705307065
 21
301.2053074032645
 31
0.0
  0
ARC
  5
5D
330
36
100
AcDbEntity
  8
1
  6
Continuous
 62
     7
100
AcDbCircle
 10
197.9014006924116
 20
133.6142343552933
 30
0.0
 40
75.0
100
AcDbArc
 50
80.4085075173349
 51
87.22136103403784
  0
ARC
  5
5E
330
36
100
AcDbEntity
  8
1
  6
Continuous
 62
     7
100
AcDbCircle
 10
197.537205027165
 20
58.52605536399258
 30
0.0
 40
150.0533238552215
100
AcDbArc
 50
91.52752544221293
 51
99.80290179376779
  0
ARC
  5
5F
330
36
100
AcDbEntity
  8
1
  6
Continuous
 62
     7
100
AcDbCircle
 10
86.09496323475526
 20
81.15590282366813
 30
0.0
 40
127.4948334081408
100
AcDbArc
 50
92.53411689479732
 51
100.8094932463522
  0
ARC
  5
60
330
36
100
AcDbEntity
  8
1
  6
Continuous
 62
     7
100
AcDbCircle
 10
82.82078253297681
 20
81.15590282366813
 30
0.0
 40
127.494833408141
100
AcDbArc
 50
79.19050675364771
 51
87.46588310520261
  0
ARC
  5
61
330
36
100
AcDbEntity
  8
1
  6
Continuous
 62
     7
100
AcDbCircle
 10
84.45787288386595
 20
289.1309769774469
 30
0.0
 40
6.000000000000143
100
AcDbArc
 50
-164.9999999999986
 51
-90.0
  0
ARC
  5
62
330
36
100
AcDbEntity
  8
1
  6
Continuous
 62
     7
100
AcDbCircle
 10
62.80723778925483
 20
326.6309769774469
 30
0.0
 40
5.999999999999864
100
AcDbArc
 50
75.00000000000013
 51
-134.9999999999984
  0
ARC
  5
63
330
36
100
AcDbEntity
  8
1
  6
Continuous
 62
     7
100
AcDbCircle
 10
106.1085079784768
 20
326.6309769774469
 30
0.0
 40
5.999999999999968
100
AcDbArc
 50
-45.00000000000077
 51
97.52424107894046
  0
ARC
  5
64
330
36
100
AcDbEntity
  8
1
  6
Continuous
 62
     7
100
AcDbCircle
 10
84.45787288386595
 20
289.1309769774469
 30
0.0
 40
6.0
100
AcDbArc
 50
-90.0
 51
-15.00000000000197
  0
ARC
  5
65
330
36
100
AcDbEntity
  8
1
  6
Continuous
 62
     7
100
AcDbCircle
 10
215.4619793150904
 20
198.0260553639925
 30
0.0
 40
0.5
100
AcDbArc
 50
-90.0
 51
8.00409437172242
  0
ARC
  5
66
330
36
100
AcDbEntity
  8
1
  6
Continuous
 62
     7
100
AcDbCircle
 10
167.1123892307752
 20
198.0260553639925
 30
0.0
 40
0.5000000000004243
100
AcDbArc
 50
171.9999999999995
 51
-90.0
  0
ARC
  5
67
330
36
100
AcDbEntity
  8
1
  6
Continuous
 62
     7
100
AcDbCircle
 10
209.3983421563188
 20
201.6496687771847
 30
0.0
 40
6.000000000000063
100
AcDbArc
 50
8.00409437170091
 51
80.40850751733353
  0
ARC
  5
68
330
36
100
AcDbEntity
  8
1
  6
Continuous
 62
     7
100
AcDbCircle
 10
173.0107717078464
 20
200.4760965135829
 30
0.0
 40
5.99999999999992
100
AcDbArc
 50
99.80290179376713
 51
172.0000000000022
  0
ARC
  5
69
330
36
100
AcDbEntity
  8
1
  6
Continuous
 62
     7
100
AcDbCircle
 10
111.608507978477
 20
198.0260553639925
 30
0.0
 40
0.5
100
AcDbArc
 50
-90.0
 51
8.0000000000166
  0
ARC
  5
6A
330
36
100
AcDbEntity
  8
1
  6
Continuous
 62
     7
100
AcDbCircle
 10
105.7101255014059
 20
200.4760965135829
 30
0.0
 40
6.000000000000062
100
AcDbArc
 50
7.99999999999905
 51
80.19709820622913
  0
ARC
  5
6B
330
36
100
AcDbEntity
  8
1
  6
Continuous
 62
     7
100
AcDbCircle
 10
63.20562026632621
 20
200.4760965135829
 30
0.0
 40
5.999999999999967
100
AcDbArc
 50
99.80290179376975
 51
172.0000000000009
  0
ARC
  5
6C
330
36
100
AcDbEntity
  8
1
  6
Continuous
 62
     7
100
AcDbCircle
 10
57.30723778925506
 20
198.0260553639925
 30
0.0
 40
0.4999999999999688
100
AcDbArc
 50
171.999999999979
 51
-90.0
  0
ARC
  5
6D
330
36
100
AcDbEntity
  8
1
  6
Continuous
 62
     7
100
AcDbCircle
 10
50.86276305743422
 20
294.7348312757015
 30
0.0
 40
25.00000000000008
100
AcDbArc
 50
14.99999999999995
 51
45.00000000000019
  0
ARC
  5
6E
330
36
100
AcDbEntity
  8
1
  6
Continuous
 62
     7
100
AcDbCircle
 10
84.45787288386595
 20
352.9232683809374
 30
0.0
 40
25.0
100
AcDbArc
 50
-105.0000000000003
 51
-75.00000000000024
  0
ARC
  5
6F
330
36
100
AcDbEntity
  8
1
  6
Continuous
 62
     7
100
AcDbCircle
 10
118.0529827102973
 20
294.7348312757015
 30
0.0
 40
24.99999999999997
100
AcDbArc
 50
134.9999999999995
 51
165.0
  0
ENDBLK
  5
38
330
36
100
AcDbEntity
  8
0
100
AcDbBlockEnd
  0
BLOCK
  5
3A
330
39
100
AcDbEntity
  8
0
100
AcDbBlockBegin
  2
37-1-25
 70
     0
 71
     0
 10
-249.2955252022524
 20
104.2930372277942
 30
0.0
  3
37-1-25
  1

  0
LINE
  5
70
330
39
100
AcDbEntity
  8
1
  6
Continuous
 62
     7
100
AcDbLine
 10
103.4578728838661
 20
181.4703272739917
 30
0.0
 11
103.4578728838661
 21
172.5260553639926
 31
0.0
  0
LINE
  5
71
330
39
100
AcDbEntity
  8
1
  6
Continuous
 62
     7
100
AcDbLine
 10
91.20787288386612
 20
190.5260553639926
 30
0.0
 11
103.4578728838661
 21
181.4703272739917
 31
0.0
  0
LINE
  5
72
330
39
100
AcDbEntity
  8
1
  6
Continuous
 62
     7
100
AcDbLine
 10
97.57241270440335
 20
181.4703272739917
 30
0.0
 11
84.45787288386612
 21
181.4703272739917
 31
0.0
  0
LINE
  5
73
330
39
100
AcDbEntity
  8
1
  6
Continuous
 62
     7
100
AcDbLine
 10
91.20787288386612
 20
190.5260553639926
 30
0.0
 11
90.20787288386612
 21
190.5260553639926
 31
0.0
  0
LINE
  5
74
330
39
100
AcDbEntity
  8
1
  6
Continuous
 62
     7
100
AcDbLine
 10
65.45787288386612
 20
172.5260553639926
 30
0.0
 11
65.45787288386612
 21
181.4703272739917
 31
0.0
  0
LINE
  5
75
330
39
100
AcDbEntity
  8
1
  6
Continuous
 62
     7
100
AcDbLine
 10
204.2872050271648
 20
190.5260553639926
 30
0.0
 11
216.5372050271648
 21
181.4703272739917
 31
0.0
  0
LINE
  5
76
330
39
100
AcDbEntity
  8
1
  6
Continuous
 62
     7
100
AcDbLine
 10
210.6517448477019
 20
181.4703272739917
 30
0.0
 11
197.5372050271648
 21
181.4703272739917
 31
0.0
  0
LINE
  5
77
330
39
100
AcDbEntity
  8
1
  6
Continuous
 62
     7
100
AcDbLine
 10
204.2872050271648
 20
190.5260553639926
 30
0.0
 11
203.2872050271648
 21
190.5260553639926
 31
0.0
  0
LINE
  5
78
330
39
100
AcDbEntity
  8
1
  6
Continuous
 62
     7
100
AcDbLine
 10
65.45787288386612
 20
181.4703272739917
 30
0.0
 11
77.70787288386612
 21
190.5260553639926
 31
0.0
  0
LINE
  5
79
330
39
100
AcDbEntity
  8
1
  6
Continuous
 62
     7
100
AcDbLine
 10
84.45787288386612
 20
181.4703272739917
 30
0.0
 11
71.34333306332894
 21
181.4703272739917
 31
0.0
  0
LINE
  5
7A
330
39
100
AcDbEntity
  8
1
  6
Continuous
 62
     7
100
AcDbLine
 10
78.70787288386612
 20
190.5260553639926
 30
0.0
 11
77.70787288386612
 21
190.5260553639926
 31
0.0
  0
LINE
  5
7B
330
39
100
AcDbEntity
  8
1
  6
Continuous
 62
     7
100
AcDbLine
 10
78.70787288386612
 20
190.5260553639926
 30
0.0
 11
91.20787288386612
 21
190.5260553639926
 31
0.0
  0
LINE
  5
7C
330
39
100
AcDbEntity
  8
1
  6
Continuous
 62
     7
100
AcDbLine
 10
103.4578728838661
 20
172.5260553639926
 30
0.0
 11
65.45787288386612
 21
172.5260553639926
 31
0.0
  0
LINE
  5
7D
330
39
100
AcDbEntity
  8
1
  6
Continuous
 62
     7
100
AcDbLine
 10
65.45787288386561
 20
305.1867050674476
 30
0.0
 11
65.45787288386572
 21
315.4950605085973
 31
0.0
  0
LINE
  5
7E
330
39
100
AcDbEntity
  8
1
  6
Continuous
 62
     7
100
AcDbLine
 10
86.21190619145091
 20
335.0575956043506
 30
0.0
 11
95.13920387472581
 21
329.9034178837759
 31
0.0
  0
LINE
  5
7F
330
39
100
AcDbEntity
  8
1
  6
Continuous
 62
     7
100
AcDbLine
 10
101.7038395762804
 20
302.148630260542
 30
0.0
 11
92.77654189300512
 21
296.9944525399671
 31
0.0
  0
LINE
  5
80
330
39
100
AcDbEntity
  8
1
  6
Continuous
 62
     7
100
AcDbLine
 10
178.5372050271648
 20
181.4703272739917
 30
0.0
 11
190.7872050271648
 21
190.5260553639926
 31
0.0
  0
LINE
  5
81
330
39
100
AcDbEntity
  8
1
  6
Continuous
 62
     7
100
AcDbLine
 10
197.5372050271648
 20
181.4703272739917
 30
0.0
 11
184.4226652066276
 21
181.4703272739917
 31
0.0
  0
LINE
  5
82
330
39
100
AcDbEntity
  8
1
  6
Continuous
 62
     7
100
AcDbLine
 10
191.7872050271648
 20
190.5260553639926
 30
0.0
 11
190.7872050271648
 21
190.5260553639926
 31
0.0
  0
LINE
  5
83
330
39
100
AcDbEntity
  8
1
  6
Continuous
 62
     7
100
AcDbLine
 10
191.7872050271648
 20
190.5260553639926
 30
0.0
 11
204.2872050271648
 21
190.5260553639926
 31
0.0
  0
LINE
  5
84
330
39
100
AcDbEntity
  8
1
  6
Continuous
 62
     7
100
AcDbLine
 10
216.5372050271648
 20
172.5260553639926
 30
0.0
 11
178.5372050271648
 21
172.5260553639926
 31
0.0
  0
LINE
  5
85
330
39
100
AcDbEntity
  8
1
  6
Continuous
 62
     7
100
AcDbLine
 10
73.77654189300552
 20
329.9034178837759
 30
0.0
 11
82.70383957628042
 21
335.0575956043506
 31
0.0
  0
LINE
  5
86
330
39
100
AcDbEntity
  8
1
  6
Continuous
 62
     7
100
AcDbLine
 10
76.13920387472581
 20
296.9944525399673
 30
0.0
 11
67.21190619145091
 21
302.148630260542
 31
0.0
  0
LINE
  5
87
330
39
100
AcDbEntity
  8
1
  6
Continuous
 62
     7
100
AcDbLine
 10
103.4578728838656
 20
315.4950605085975
 30
0.0
 11
103.4578728838656
 21
305.1867050674476
 31
0.0
  0
ARC
  5
88
330
39
100
AcDbEntity
  8
1
  6
Continuous
 62
     7
100
AcDbCircle
 10
212.5372050271648
 20
176.9981913189922
 30
0.0
 40
6.000000000000016
100
AcDbArc
 50
-48.18968510422154
 51
48.18968510422081
  0
ARC
  5
89
330
39
100
AcDbEntity
  8
1
  6
Continuous
 62
     7
100
AcDbCircle
 10
84.45787288386606
 20
314.1309769774473
 30
0.0
 40
21.00000000000065
100
AcDbArc
 50
-154.7912347032408
 51
-145.2087652967577
  0
ARC
  5
8A
330
39
100
AcDbEntity
  8
1
  6
Continuous
 62
     7
100
AcDbCircle
 10
84.45787288386606
 20
314.1309769774473
 30
0.0
 40
20.9999999999999
100
AcDbArc
 50
-34.79123470324358
 51
-25.20876529676026
  0
ARC
  5
8B
330
39
100
AcDbEntity
  8
1
  6
Continuous
 62
     7
100
AcDbCircle
 10
84.45787288386606
 20
314.1309769774473
 30
0.0
 40
20.99999999999935
100
AcDbArc
 50
85.2087652967591
 51
94.79123470324308
  0
ARC
  5
8C
330
39
100
AcDbEntity
  8
1
  6
Continuous
 62
     7
100
AcDbCircle
 10
182.5372050271648
 20
176.9981913189922
 30
0.0
 40
5.999999999999932
100
AcDbArc
 50
131.8103148957792
 51
-131.8103148957785
  0
ARC
  5
8D
330
39
100
AcDbEntity
  8
1
  6
Continuous
 62
     7
100
AcDbCircle
 10
84.45787288386606
 20
314.1309769774473
 30
0.0
 40
18.99999999999931
100
AcDbArc
 50
56.02139857386405
 51
120.000000000002
  0
ARC
  5
8E
330
39
100
AcDbEntity
  8
1
  6
Continuous
 62
     7
100
AcDbCircle
 10
84.45787288386606
 20
314.1309769774473
 30
0.0
 40
19.00000000000025
100
AcDbArc
 50
176.0213985738651
 51
-116.0213985738642
  0
ARC
  5
8F
330
39
100
AcDbEntity
  8
1
  6
Continuous
 62
     7
100
AcDbCircle
 10
84.45787288386606
 20
314.1309769774473
 30
0.0
 40
19.00000000000044
100
AcDbArc
 50
-63.97860142613843
 51
3.97860142613559
  0
SPLINE
  5
90
330
39
100
AcDbEntity
  8
1
  6
Continuous
 62
     7
100
AcDbSpline
210
0.0
220
0.0
230
1.0
 70
    11
 71
     3
 72
    79
 73
    75
 74
    73
 42
0.0000000001
 43
0.0000000001
 44
0.00000001
 40
0.0
 40
0.0
 40
0.0
 40
0.0
 40
0.3901431863141493
 40
0.7802863726282807
 40
1.170429558942453
 40
1.560572745256625
 40
1.950715931570727
 40
2.340859117884874
 40
2.731002304199047
 40
3.121145490513248
 40
3.511288676827442
 40
3.901431863141653
 40
4.291575049455796
 40
4.681718235769963
 40
5.071861422084123
 40
5.462004608398304
 40
5.852147794712448
 40
6.242290981026559
 40
6.632434167340779
 40
7.022577353654956
 40
7.412720539969105
 40
7.80286372628324
 40
8.193006912597435
 40
8.583150098911579
 40
8.973293285225759
 40
9.363436471539945
 40
9.753579657854063
 40
10.14372284416816
 40
10.53386603048235
 40
10.92400921679655
 40
11.31415240311075
 40
11.70429558942492
 40
12.09443877573907
 40
12.48458196205318
 40
12.87472514836735
 40
13.26486833468152
 40
13.65501152099565
 40
14.0451547073098
 40
14.43529789362401
 40
14.8254410799382
 40
15.21558426625239
 40
15.60572745256654
 40
15.99587063888068
 40
16.3860138251948
 40
16.77615701150897
 40
17.16630019782317
 40
17.55644338413733
 40
17.9465865704515
 40
18.33672975676565
 40
18.72687294307978
 40
19.11701612939397
 40
19.50715931570814
 40
19.89730250202232
 40
20.28744568833648
 40
20.67758887465064
 40
21.06773206096476
 40
21.45787524727897
 40
21.84801843359315
 40
22.23816161990732
 40
22.62830480622142
 40
23.01844799253559
 40
23.40859117884975
 40
23.79873436516391
 40
24.18887755147813
 40
24.57902073779228
 40
24.96916392410648
 40
25.35930711042072
 40
25.74945029673485
 40
26.13959348304893
 40
26.5297366693631
 40
26.91987985567727
 40
27.31002304199145
 40
27.70016622830563
 40
28.09030941461984
 40
28.09030941461984
 40
28.09030941461984
 40
28.09030941461984
 10
185.55485831026
 20
176.9981913189922
 30
0.0
 10
185.5515728211853
 20
177.1282798076194
 30
0.0
 10
185.545001843036
 20
177.3884567848739
 30
0.0
 10
185.4921121276172
 20
177.7757577460813
 30
0.0
 10
185.4080487441074
 20
178.1571296979403
 30
0.0
 10
185.2904736241626
 20
178.529698210751
 30
0.0
 10
185.1409898271914
 20
178.8905888548135
 30
0.0
 10
184.9606318289975
 20
179.2371046134944
 30
0.0
 10
184.7507170656261
 20
179.5665484701602
 30
0.0
 10
184.5129363798079
 20
179.8764827687292
 30
0.0
 10
184.2490009299049
 20
180.16446985312
 30
0.0
 10
183.9610137941411
 20
180.4284054947496
 30
0.0
 10
183.6510795093375
 20
180.6661854650347
 30
0.0
 10
183.3216356489833
 20
180.8761028988116
 30
0.0
 10
182.9751198912907
 20
181.0564509309164
 30
0.0
 10
182.6142292469633
 20
181.2059719218387
 30
0.0
 10
182.2416607342236
 20
181.3234082320683
 30
0.0
 10
181.8602887823457
 20
181.4079896604882
 30
0.0
 10
181.4729878211431
 20
181.4589460059816
 30
0.0
 10
181.0827223552601
 20
181.4760179079967
 30
0.0
 10
180.6924568893788
 20
181.4589460059816
 30
0.0
 10
180.3051559281712
 20
181.4079896604881
 30
0.0
 10
179.9237839763122
 20
181.3234082320683
 30
0.0
 10
179.5512154635016
 20
181.2059719218387
 30
0.0
 10
179.1903248194389
 20
181.0564509309164
 30
0.0
 10
178.8438090607581
 20
180.8761028988116
 30
0.0
 10
178.5143652040923
 20
180.6661854650347
 30
0.0
 10
178.2044309055234
 20
180.4284054947496
 30
0.0
 10
177.9164438211326
 20
180.16446985312
 30
0.0
 10
177.6525081795031
 20
179.8764827687292
 30
0.0
 10
177.414728209218
 20
179.5665484701602
 30
0.0
 10
177.204810775441
 20
179.2371046134944
 30
0.0
 10
177.0244627433362
 20
178.8905888548135
 30
0.0
 10
176.8749417524138
 20
178.5296982107511
 30
0.0
 10
176.7575054421844
 20
178.1571296979403
 30
0.0
 10
176.6729240137645
 20
177.7757577460814
 30
0.0
 10
176.621967668271
 20
177.3884567848739
 30
0.0
 10
176.6048957662559
 20
176.9981913189922
 30
0.0
 10
176.621967668271
 20
176.6079258531104
 30
0.0
 10
176.6729240137645
 20
176.2206248919029
 30
0.0
 10
176.7575054421843
 20
175.839252940044
 30
0.0
 10
176.8749417524139
 20
175.4666844272333
 30
0.0
 10
177.0244627433362
 20
175.1057937831708
 30
0.0
 10
177.204810775441
 20
174.7592780244899
 30
0.0
 10
177.4147282092179
 20
174.4298341678241
 30
0.0
 10
177.6525081795031
 20
174.1198998692551
 30
0.0
 10
177.9164438211326
 20
173.8319127848643
 30
0.0
 10
178.2044309055234
 20
173.5679771432348
 30
0.0
 10
178.5143652040924
 20
173.3301971729496
 30
0.0
 10
178.843809060758
 20
173.1202797391726
 30
0.0
 10
179.190324819439
 20
172.9399317070679
 30
0.0
 10
179.5512154635015
 20
172.7904107161456
 30
0.0
 10
179.9237839763122
 20
172.672974405916
 30
0.0
 10
180.3051559281713
 20
172.5883929774962
 30
0.0
 10
180.6924568893788
 20
172.5374366320027
 30
0.0
 10
181.0827223552602
 20
172.5203647299876
 30
0.0
 10
181.4729878211432
 20
172.5374366320027
 30
0.0
 10
181.8602887823456
 20
172.5883929774962
 30
0.0
 10
182.2416607342236
 20
172.672974405916
 30
0.0
 10
182.6142292469633
 20
172.7904107161457
 30
0.0
 10
182.9751198912906
 20
172.9399317070678
 30
0.0
 10
183.3216356489833
 20
173.1202797391727
 30
0.0
 10
183.6510795093373
 20
173.3301971729495
 30
0.0
 10
183.9610137941411
 20
173.5679771432348
 30
0.0
 10
184.2490009299049
 20
173.8319127848642
 30
0.0
 10
184.5129363798079
 20
174.1198998692552
 30
0.0
 10
184.7507170656261
 20
174.4298341678241
 30
0.0
 10
184.9606318289975
 20
174.7592780244899
 30
0.0
 10
185.1409898271915
 20
175.1057937831708
 30
0.0
 10
185.2904736241626
 20
175.4666844272333
 30
0.0
 10
185.4080487441075
 20
175.839252940044
 30
0.0
 10
185.4921121276172
 20
176.220624891903
 30
0.0
 10
185.545001843036
 20
176.6079258531105
 30
0.0
 10
185.5515728211854
 20
176.868102830365
 30
0.0
 10
185.55485831026
 20
176.9981913189922
 30
0.0
 11
185.55485831026
 21
176.9981913189922
 31
0.0
 11
185.5378296350035
 21
177.3879627007615
 31
0.0
 11
185.4869165162687
 21
177.7747695778566
 31
0.0
 11
185.4024634547016
 21
178.155662458099
 31
0.0
 11
185.2851555113249
 21
178.527751899293
 31
0.0
 11
185.1358441269876
 21
178.8881930405833
 31
0.0
 11
184.9557057014679
 21
179.2342592964919
 31
0.0
 11
184.7460727452183
 21
179.563296877144
 31
0.0
 11
184.5085772524604
 21
179.8728248996995
 31
0.0
 11
184.2449923155947
 21
180.1604612793265
 31
0.0
 11
183.9573559359678
 21
180.4240462161922
 31
0.0
 11
183.6478279134124
 21
180.66154170895
 31
0.0
 11
183.3187903327602
 21
180.8711746651996
 31
0.0
 11
182.9727240768515
 21
181.0513130907193
 31
0.0
 11
182.6122829355612
 21
181.2006244750566
 31
0.0
 11
182.2401934943672
 21
181.3179324184333
 31
0.0
 11
181.8593006141249
 21
181.4023854800004
 31
0.0
 11
181.4724937370297
 21
181.4532985987352
 31
0.0
 11
181.0827223552604
 21
181.4703272739917
 31
0.0
 11
180.6929509734911
 21
181.4532985987352
 31
0.0
 11
180.306144096396
 21
181.4023854800004
 31
0.0
 11
179.9252512161536
 21
181.3179324184333
 31
0.0
 11
179.5531617749596
 21
181.2006244750566
 31
0.0
 11
179.1927206336693
 21
181.0513130907193
 31
0.0
 11
178.8466543777606
 21
180.8711746651996
 31
0.0
 11
178.5176167971085
 21
180.66154170895
 31
0.0
 11
178.2080887745531
 21
180.4240462161922
 31
0.0
 11
177.9204523949261
 21
180.1604612793265
 31
0.0
 11
177.6568674580605
 21
179.8728248996995
 31
0.0
 11
177.4193719653026
 21
179.563296877144
 31
0.0
 11
177.209739009053
 21
179.2342592964919
 31
0.0
 11
177.0296005835333
 21
178.8881930405833
 31
0.0
 11
176.880289199196
 21
178.527751899293
 31
0.0
 11
176.7629812558193
 21
178.155662458099
 31
0.0
 11
176.6785281942522
 21
177.7747695778566
 31
0.0
 11
176.6276150755174
 21
177.3879627007615
 31
0.0
 11
176.6105864002609
 21
176.9981913189922
 31
0.0
 11
176.6276150755174
 21
176.6084199372228
 31
0.0
 11
176.6785281942522
 21
176.2216130601277
 31
0.0
 11
176.7629812558193
 21
175.8407201798853
 31
0.0
 11
176.880289199196
 21
175.4686307386913
 31
0.0
 11
177.0296005835333
 21
175.108189597401
 31
0.0
 11
177.209739009053
 21
174.7621233414924
 31
0.0
 11
177.4193719653026
 21
174.4330857608403
 31
0.0
 11
177.6568674580605
 21
174.1235577382848
 31
0.0
 11
177.9204523949261
 21
173.8359213586579
 31
0.0
 11
178.2080887745531
 21
173.5723364217922
 31
0.0
 11
178.5176167971085
 21
173.3348409290343
 31
0.0
 11
178.8466543777606
 21
173.1252079727847
 31
0.0
 11
179.1927206336693
 21
172.945069547265
 31
0.0
 11
179.5531617749596
 21
172.7957581629277
 31
0.0
 11
179.9252512161536
 21
172.678450219551
 31
0.0
 11
180.306144096396
 21
172.5939971579839
 31
0.0
 11
180.6929509734911
 21
172.5430840392491
 31
0.0
 11
181.0827223552604
 21
172.5260553639926
 31
0.0
 11
181.4724937370298
 21
172.5430840392491
 31
0.0
 11
181.8593006141249
 21
172.5939971579839
 31
0.0
 11
182.2401934943673
 21
172.678450219551
 31
0.0
 11
182.6122829355612
 21
172.7957581629277
 31
0.0
 11
182.9727240768515
 21
172.945069547265
 31
0.0
 11
183.3187903327602
 21
173.1252079727847
 31
0.0
 11
183.6478279134123
 21
173.3348409290343
 31
0.0
 11
183.9573559359678
 21
173.5723364217922
 31
0.0
 11
184.2449923155947
 21
173.8359213586578
 31
0.0
 11
184.5085772524604
 21
174.1235577382848
 31
0.0
 11
184.7460727452183
 21
174.4330857608403
 31
0.0
 11
184.9557057014679
 21
174.7621233414924
 31
0.0
 11
185.1358441269876
 21
175.108189597401
 31
0.0
 11
185.2851555113249
 21
175.4686307386913
 31
0.0
 11
185.4024634547016
 21
175.8407201798854
 31
0.0
 11
185.4869165162687
 21
176.2216130601277
 31
0.0
 11
185.5378296350035
 21
176.6084199372228
 31
0.0
 11
185.55485831026
 21
176.9981913189922
 31
0.0
  0
SPLINE
  5
91
330
39
100
AcDbEntity
  8
1
  6
Continuous
 62
     7
100
AcDbSpline
210
0.0
220
0.0
230
1.0
 70
    11
 71
     3
 72
    79
 73
    75
 74
    73
 42
0.0000000001
 43
0.0000000001
 44
0.00000001
 40
0.0
 40
0.0
 40
0.0
 40
0.0
 40
0.390143186314148
 40
0.7802863726282869
 40
1.170429558942447
 40
1.560572745256627
 40
1.95071593157073
 40
2.340859117884889
 40
2.731002304199078
 40
3.121145490513261
 40
3.511288676827435
 40
3.901431863141584
 40
4.291575049455794
 40
4.681718235770033
 40
5.071861422084193
 40
5.462004608398321
 40
5.852147794712439
 40
6.242290981026549
 40
6.632434167340769
 40
7.022577353654946
 40
7.412720539969095
 40
7.80286372628323
 40
8.193006912597452
 40
8.583150098911679
 40
8.973293285225754
 40
9.363436471539838
 40
9.7535796578541
 40
10.14372284416831
 40
10.5338660304825
 40
10.92400921679664
 40
11.31415240311083
 40
11.70429558942497
 40
12.09443877573911
 40
12.48458196205322
 40
12.8747251483674
 40
13.26486833468156
 40
13.6550115209957
 40
14.04515470730985
 40
14.43529789362405
 40
14.82544107993824
 40
15.21558426625244
 40
15.60572745256659
 40
15.99587063888071
 40
16.38601382519484
 40
16.77615701150897
 40
17.16630019782317
 40
17.55644338413729
 40
17.94658657045144
 40
18.33672975676568
 40
18.72687294307998
 40
19.11701612939405
 40
19.50715931570813
 40
19.89730250202236
 40
20.28744568833658
 40
20.67758887465068
 40
21.06773206096486
 40
21.45787524727907
 40
21.84801843359325
 40
22.23816161990734
 40
22.62830480622149
 40
23.01844799253561
 40
23.40859117884977
 40
23.79873436516402
 40
24.18887755147828
 40
24.57902073779237
 40
24.96916392410655
 40
25.35930711042077
 40
25.74945029673492
 40
26.13959348304903
 40
26.52973666936318
 40
26.91987985567736
 40
27.31002304199152
 40
27.70016622830571
 40
28.09030941461992
 40
28.09030941461992
 40
28.09030941461992
 40
28.09030941461992
 10
209.5195517440695
 20
176.9981913189922
 30
0.0
 10
209.5228372331441
 20
177.1282798076194
 30
0.0
 10
209.5294082112935
 20
177.3884567848739
 30
0.0
 10
209.5822979267124
 20
177.7757577460814
 30
0.0
 10
209.666361310222
 20
178.1571296979404
 30
0.0
 10
209.7839364301668
 20
178.529698210751
 30
0.0
 10
209.9334202271381
 20
178.8905888548136
 30
0.0
 10
210.113778225332
 20
179.2371046134945
 30
0.0
 10
210.3236929887035
 20
179.5665484701601
 30
0.0
 10
210.5614736745216
 20
179.8764827687293
 30
0.0
 10
210.8254091244246
 20
180.16446985312
 30
0.0
 10
211.1133962601883
 20
180.4284054947497
 30
0.0
 10
211.423330544992
 20
180.6661854650347
 30
0.0
 10
211.7527744053463
 20
180.8761028988116
 30
0.0
 10
212.0992901630389
 20
181.0564509309164
 30
0.0
 10
212.4601808073662
 20
181.2059719218387
 30
0.0
 10
212.832749320106
 20
181.3234082320683
 30
0.0
 10
213.2141212719839
 20
181.4079896604881
 30
0.0
 10
213.6014222331863
 20
181.4589460059816
 30
0.0
 10
213.9916876990694
 20
181.4760179079967
 30
0.0
 10
214.3819531649507
 20
181.4589460059816
 30
0.0
 10
214.7692541261583
 20
181.4079896604882
 30
0.0
 10
215.1506260780173
 20
181.3234082320683
 30
0.0
 10
215.523194590828
 20
181.2059719218388
 30
0.0
 10
215.8840852348906
 20
181.0564509309164
 30
0.0
 10
216.2306009935713
 20
180.8761028988116
 30
0.0
 10
216.5600448502372
 20
180.6661854650348
 30
0.0
 10
216.8699791488063
 20
180.4284054947496
 30
0.0
 10
217.1579662331971
 20
180.1644698531201
 30
0.0
 10
217.4219018748265
 20
179.8764827687292
 30
0.0
 10
217.6596818451117
 20
179.5665484701602
 30
0.0
 10
217.8695992788885
 20
179.2371046134944
 30
0.0
 10
218.0499473109933
 20
178.8905888548136
 30
0.0
 10
218.1994683019157
 20
178.529698210751
 30
0.0
 10
218.3169046121452
 20
178.1571296979403
 30
0.0
 10
218.4014860405651
 20
177.7757577460814
 30
0.0
 10
218.4524423860584
 20
177.3884567848738
 30
0.0
 10
218.4695142880737
 20
176.9981913189922
 30
0.0
 10
218.4524423860585
 20
176.6079258531104
 30
0.0
 10
218.401486040565
 20
176.220624891903
 30
0.0
 10
218.3169046121452
 20
175.8392529400439
 30
0.0
 10
218.1994683019156
 20
175.4666844272333
 30
0.0
 10
218.0499473109933
 20
175.1057937831707
 30
0.0
 10
217.8695992788886
 20
174.75927802449
 30
0.0
 10
217.6596818451116
 20
174.4298341678241
 30
0.0
 10
217.4219018748265
 20
174.1198998692552
 30
0.0
 10
217.1579662331971
 20
173.8319127848643
 30
0.0
 10
216.8699791488062
 20
173.5679771432347
 30
0.0
 10
216.5600448502372
 20
173.3301971729495
 30
0.0
 10
216.2306009935714
 20
173.1202797391728
 30
0.0
 10
215.8840852348905
 20
172.9399317070678
 30
0.0
 10
215.523194590828
 20
172.7904107161456
 30
0.0
 10
215.1506260780172
 20
172.672974405916
 30
0.0
 10
214.7692541261583
 20
172.5883929774962
 30
0.0
 10
214.3819531649507
 20
172.5374366320027
 30
0.0
 10
213.9916876990694
 20
172.5203647299875
 30
0.0
 10
213.6014222331863
 20
172.5374366320027
 30
0.0
 10
213.2141212719838
 20
172.5883929774961
 30
0.0
 10
212.832749320106
 20
172.6729744059161
 30
0.0
 10
212.4601808073663
 20
172.7904107161456
 30
0.0
 10
212.0992901630389
 20
172.9399317070678
 30
0.0
 10
211.7527744053463
 20
173.1202797391728
 30
0.0
 10
211.423330544992
 20
173.3301971729496
 30
0.0
 10
211.1133962601883
 20
173.5679771432348
 30
0.0
 10
210.8254091244246
 20
173.8319127848643
 30
0.0
 10
210.5614736745217
 20
174.1198998692552
 30
0.0
 10
210.3236929887035
 20
174.4298341678241
 30
0.0
 10
210.113778225332
 20
174.7592780244899
 30
0.0
 10
209.9334202271381
 20
175.1057937831708
 30
0.0
 10
209.7839364301668
 20
175.4666844272333
 30
0.0
 10
209.666361310222
 20
175.839252940044
 30
0.0
 10
209.5822979267123
 20
176.2206248919029
 30
0.0
 10
209.5294082112935
 20
176.6079258531105
 30
0.0
 10
209.5228372331442
 20
176.868102830365
 30
0.0
 10
209.5195517440695
 20
176.9981913189922
 30
0.0
 11
209.5195517440695
 21
176.9981913189922
 31
0.0
 11
209.536580419326
 21
177.3879627007615
 31
0.0
 11
209.5874935380608
 21
177.7747695778566
 31
0.0
 11
209.6719465996279
 21
178.155662458099
 31
0.0
 11
209.7892545430046
 21
178.527751899293
 31
0.0
 11
209.9385659273419
 21
178.8881930405833
 31
0.0
 11
210.1187043528616
 21
179.2342592964919
 31
0.0
 11
210.3283373091113
 21
179.563296877144
 31
0.0
 11
210.5658328018691
 21
179.8728248996995
 31
0.0
 11
210.8294177387348
 21
180.1604612793265
 31
0.0
 11
211.1170541183616
 21
180.4240462161922
 31
0.0
 11
211.4265821409171
 21
180.66154170895
 31
0.0
 11
211.7556197215694
 21
180.8711746651996
 31
0.0
 11
212.101685977478
 21
181.0513130907193
 31
0.0
 11
212.4621271187683
 21
181.2006244750566
 31
0.0
 11
212.8342165599623
 21
181.3179324184333
 31
0.0
 11
213.2151094402046
 21
181.4023854800004
 31
0.0
 11
213.6019163172998
 21
181.4532985987352
 31
0.0
 11
213.9916876990691
 21
181.4703272739917
 31
0.0
 11
214.3814590808384
 21
181.4532985987352
 31
0.0
 11
214.7682659579335
 21
181.4023854800004
 31
0.0
 11
215.1491588381759
 21
181.3179324184333
 31
0.0
 11
215.52124827937
 21
181.2006244750566
 31
0.0
 11
215.8816894206602
 21
181.0513130907193
 31
0.0
 11
216.2277556765688
 21
180.8711746651996
 31
0.0
 11
216.5567932572211
 21
180.66154170895
 31
0.0
 11
216.8663212797766
 21
180.4240462161922
 31
0.0
 11
217.1539576594036
 21
180.1604612793265
 31
0.0
 11
217.4175425962691
 21
179.8728248996995
 31
0.0
 11
217.6550380890269
 21
179.563296877144
 31
0.0
 11
217.8646710452765
 21
179.2342592964919
 31
0.0
 11
218.0448094707962
 21
178.8881930405833
 31
0.0
 11
218.1941208551335
 21
178.527751899293
 31
0.0
 11
218.3114287985102
 21
178.155662458099
 31
0.0
 11
218.3958818600773
 21
177.7747695778566
 31
0.0
 11
218.4467949788121
 21
177.3879627007615
 31
0.0
 11
218.4638236540686
 21
176.9981913189922
 31
0.0
 11
218.4467949788121
 21
176.6084199372228
 31
0.0
 11
218.3958818600773
 21
176.2216130601277
 31
0.0
 11
218.3114287985102
 21
175.8407201798853
 31
0.0
 11
218.1941208551335
 21
175.4686307386913
 31
0.0
 11
218.0448094707963
 21
175.108189597401
 31
0.0
 11
217.8646710452765
 21
174.7621233414924
 31
0.0
 11
217.655038089027
 21
174.4330857608403
 31
0.0
 11
217.4175425962691
 21
174.1235577382848
 31
0.0
 11
217.1539576594035
 21
173.8359213586579
 31
0.0
 11
216.8663212797766
 21
173.5723364217922
 31
0.0
 11
216.5567932572211
 21
173.3348409290343
 31
0.0
 11
216.2277556765688
 21
173.1252079727847
 31
0.0
 11
215.8816894206602
 21
172.945069547265
 31
0.0
 11
215.52124827937
 21
172.7957581629277
 31
0.0
 11
215.1491588381759
 21
172.678450219551
 31
0.0
 11
214.7682659579335
 21
172.5939971579839
 31
0.0
 11
214.3814590808385
 21
172.5430840392491
 31
0.0
 11
213.9916876990691
 21
172.5260553639926
 31
0.0
 11
213.6019163172997
 21
172.5430840392491
 31
0.0
 11
213.2151094402046
 21
172.5939971579839
 31
0.0
 11
212.8342165599623
 21
172.678450219551
 31
0.0
 11
212.4621271187683
 21
172.7957581629277
 31
0.0
 11
212.101685977478
 21
172.945069547265
 31
0.0
 11
211.7556197215694
 21
173.1252079727847
 31
0.0
 11
211.4265821409171
 21
173.3348409290343
 31
0.0
 11
211.1170541183616
 21
173.5723364217922
 31
0.0
 11
210.8294177387348
 21
173.8359213586578
 31
0.0
 11
210.5658328018691
 21
174.1235577382848
 31
0.0
 11
210.3283373091113
 21
174.4330857608403
 31
0.0
 11
210.1187043528616
 21
174.7621233414924
 31
0.0
 11
209.9385659273419
 21
175.108189597401
 31
0.0
 11
209.7892545430046
 21
175.4686307386913
 31
0.0
 11
209.6719465996279
 21
175.8407201798854
 31
0.0
 11
209.5874935380608
 21
176.2216130601277
 31
0.0
 11
209.536580419326
 21
176.6084199372228
 31
0.0
 11
209.5195517440695
 21
176.9981913189922
 31
0.0
  0
SPLINE
  5
92
330
39
100
AcDbEntity
  8
1
  6
Continuous
 62
     7
100
AcDbSpline
210
0.0
220
0.0
230
1.0
 70
    11
 71
     3
 72
    79
 73
    75
 74
    73
 42
0.0000000001
 43
0.0000000001
 44
0.00000001
 40
0.0
 40
0.0
 40
0.0
 40
0.0
 40
0.4050401806701806
 40
0.8096131937555374
 40
1.245318300552997
 40
1.68041186034881
 40
2.159294928466552
 40
2.637680385852292
 40
3.164891306744839
 40
3.691762346127838
 40
4.266103749100432
 40
4.840226907517224
 40
5.45566114127643
 40
6.070960513643831
 40
6.718003444304697
 40
7.364968702094747
 40
8.031843939394953
 40
8.698683687455599
 40
9.372301253427642
 40
10.04591881939966
 40
10.7127585674603
 40
11.37963380476052
 40
12.02659906255056
 40
12.67364199321145
 40
13.28894136557888
 40
13.90437559933813
 40
14.47849875775489
 40
15.05284016072745
 40
15.5797112001104
 40
16.10692212100297
 40
16.58530757838873
 40
17.06419064650639
 40
17.49928420630209
 40
17.93498931309956
 40
18.33956232618494
 40
18.74460250685512
 40
19.1382429082799
 40
19.53188330970468
 40
19.93692349037491
 40
20.34149650346024
 40
20.77720161025766
 40
21.21229517005343
 40
21.69117823817109
 40
22.16956369555683
 40
22.69677461644934
 40
23.22364565583234
 40
23.79798705880488
 40
24.37211021722161
 40
24.98754445098082
 40
25.60284382334832
 40
26.24988675400928
 40
26.89685201179929
 40
27.56372724909948
 40
28.23056699716011
 40
28.90418456313214
 40
29.5778021291042
 40
30.24464187716481
 40
30.91151711446502
 40
31.55848237225507
 40
32.20552530291595
 40
32.82082467528337
 40
33.43625890904261
 40
34.0103820674594
 40
34.58472347043192
 40
35.11159450981491
 40
35.63880543070748
 40
36.11719088809325
 40
36.5960739562109
 40
37.03116751600671
 40
37.4668726228042
 40
37.87144563588961
 40
38.27648581655983
 40
38.6701262179845
 40
39.06376661940919
 40
39.06376661940919
 40
39.06376661940919
 40
39.06376661940919
 10
86.24231821627777
 20
177.3906551700406
 30
0.0
 10
86.26840000185199
 20
177.5233940369116
 30
0.0
 10
86.32053349063982
 20
177.7887186715322
 30
0.0
 10
86.4761711813247
 20
178.1758054794057
 30
0.0
 10
86.68151699143981
 20
178.5490221184844
 30
0.0
 10
86.94728917119069
 20
178.9134037684945
 30
0.0
 10
87.26084191343082
 20
179.2567533090896
 30
0.0
 10
87.62992504938097
 20
179.5874200117339
 30
0.0
 10
88.04034752656182
 20
179.8926674105653
 30
0.0
 10
88.50120331170965
 20
180.1804437228283
 30
0.0
 10
88.99635944109313
 20
180.4397750895147
 30
0.0
 10
89.53495224634263
 20
180.6766255905184
 30
0.0
 10
90.10056543376868
 20
180.8828179250413
 30
0.0
 10
90.70063621256111
 20
181.06203967389
 30
0.0
 10
91.32022269569809
 20
181.2089922337951
 30
0.0
 10
91.96368699844425
 20
181.3255027919175
 30
0.0
 10
92.61895725664093
 20
181.4086731777492
 30
0.0
 10
93.2864388291696
 20
181.4592280903165
 30
0.0
 10
93.95787288386217
 20
181.4759049264933
 30
0.0
 10
94.62930693857842
 20
181.4592280903186
 30
0.0
 10
95.29678851103674
 20
181.4086731777408
 30
0.0
 10
95.95205876948842
 20
181.3255027919488
 30
0.0
 10
96.59552307131136
 20
181.2089922336827
 30
0.0
 10
97.21510955781591
 20
181.0620396743016
 30
0.0
 10
97.81518032462935
 20
180.8828179235888
 30
0.0
 10
98.38079355530287
 20
180.676625595795
 30
0.0
 10
98.91938620946139
 20
180.4397750712826
 30
0.0
 10
99.41454287922815
 20
180.1804437886762
 30
0.0
 10
99.87539680574524
 20
179.8926671872227
 30
0.0
 10
100.2858258844641
 20
179.5874208155467
 30
0.0
 10
100.6548865400912
 20
179.2567506151131
 30
0.0
 10
100.968518993078
 20
178.9134134769823
 30
0.0
 10
101.2340193198858
 20
178.5489895284545
 30
0.0
 10
101.4403363266498
 20
178.1759240011442
 30
0.0
 10
101.5925928535844
 20
177.7883111065769
 30
0.0
 10
101.6823895770337
 20
177.3958997281301
 30
0.0
 10
101.7144114951475
 20
176.9981913189922
 30
0.0
 10
101.6823895770337
 20
176.6004829098541
 30
0.0
 10
101.5925928535845
 20
176.2080715314074
 30
0.0
 10
101.4403363266497
 20
175.8204586368401
 30
0.0
 10
101.2340193198858
 20
175.4473931095301
 30
0.0
 10
100.9685189930781
 20
175.0829691610019
 30
0.0
 10
100.6548865400911
 20
174.7396320228713
 30
0.0
 10
100.2858258844641
 20
174.4089618224376
 30
0.0
 10
99.87539680574521
 20
174.1037154507618
 30
0.0
 10
99.41454287922817
 20
173.8159388493082
 30
0.0
 10
98.91938620946138
 20
173.5566075667018
 30
0.0
 10
98.38079355530294
 20
173.3197570421894
 30
0.0
 10
97.81518032462941
 20
173.1135647143955
 30
0.0
 10
97.21510955781592
 20
172.9343429636829
 30
0.0
 10
96.59552307131136
 20
172.7873904043015
 30
0.0
 10
95.95205876948825
 20
172.6708798460356
 30
0.0
 10
95.29678851103698
 20
172.5877094602438
 30
0.0
 10
94.6293069385775
 20
172.5371545476656
 30
0.0
 10
93.95787288386583
 20
172.5204777114917
 30
0.0
 10
93.28643882915588
 20
172.5371545476652
 30
0.0
 10
92.6189572566914
 20
172.5877094602443
 30
0.0
 10
91.96368699825813
 20
172.6708798460334
 30
0.0
 10
91.32022269636977
 20
172.7873904043096
 30
0.0
 10
90.70063621010354
 20
172.9343429636537
 30
0.0
 10
90.10056544244237
 20
173.1135647144983
 30
0.0
 10
89.53495221482935
 20
173.3197570418159
 30
0.0
 10
88.99635954997862
 20
173.5566075679921
 30
0.0
 10
88.50120291845282
 20
173.8159388446481
 30
0.0
 10
88.04034886040714
 20
174.1037154665669
 30
0.0
 10
87.62992024885557
 20
174.4089617655546
 30
0.0
 10
87.2608580023759
 20
174.7396322135144
 30
0.0
 10
86.94723119023544
 20
175.0829684739666
 30
0.0
 10
86.68171162536049
 20
175.4473954158107
 30
0.0
 10
86.47546334673423
 20
175.8204502494777
 30
0.0
 10
86.32296754684865
 20
176.2081003733321
 30
0.0
 10
86.23404234873051
 20
176.6003761482074
 30
0.0
 10
86.19885325663981
 20
176.9985773486471
 30
0.0
 10
86.22782989639848
 20
177.2599625629095
 30
0.0
 10
86.24231821627777
 20
177.3906551700406
 30
0.0
 11
86.24231821627777
 21
177.3906551700406
 31
0.0
 11
86.33284036480856
 21
177.785450418977
 31
0.0
 11
86.47929876724624
 21
178.1625833653929
 31
0.0
 11
86.68944318544941
 21
178.5442615853471
 31
0.0
 11
86.9445238629614
 21
178.8967388948804
 31
0.0
 11
87.26656776057632
 21
179.251163387458
 31
0.0
 11
87.62215293484461
 21
179.5711818707972
 31
0.0
 11
88.04444381999541
 21
179.8868110257036
 31
0.0
 11
88.4909322030074
 21
180.1665273390925
 31
0.0
 11
88.99923468964958
 21
180.4339158752003
 31
0.0
 11
89.52456653506806
 21
180.6655273024221
 31
0.0
 11
90.10250976848143
 21
180.8770477861452
 31
0.0
 11
90.69197485172555
 21
181.0534684007902
 31
0.0
 11
91.32142615080193
 21
181.203320381789
 31
0.0
 11
91.95800755605904
 21
181.3187680290938
 31
0.0
 11
92.61953277377909
 21
181.4030708667961
 31
0.0
 11
93.28446679259167
 21
181.4534494358442
 31
0.0
 11
93.95787288386615
 21
181.4703272739917
 31
0.0
 11
94.63127897514059
 21
181.4534494358442
 31
0.0
 11
95.29621299395318
 21
181.4030708667962
 31
0.0
 11
95.95773821167325
 21
181.318768029094
 31
0.0
 11
96.59431961693035
 21
181.2033203817891
 31
0.0
 11
97.22377091600674
 21
181.0534684007903
 31
0.0
 11
97.81323599925085
 21
180.8770477861451
 31
0.0
 11
98.39117923266423
 21
180.6655273024219
 31
0.0
 11
98.91651107808269
 21
180.4339158752002
 31
0.0
 11
99.42481356472487
 21
180.1665273390924
 31
0.0
 11
99.87130194773684
 21
179.8868110257036
 31
0.0
 11
100.2935928328876
 21
179.5711818707972
 31
0.0
 11
100.6491780071559
 21
179.2511633874578
 31
0.0
 11
100.9712219047708
 21
178.8967388948803
 31
0.0
 11
101.2263025822827
 21
178.5442615853472
 31
0.0
 11
101.4364470004859
 21
178.162583365393
 31
0.0
 11
101.5829054029236
 21
177.785450418977
 31
0.0
 11
101.6734275514544
 21
177.3906551700407
 31
0.0
 11
101.7038395762809
 21
176.9981913189922
 31
0.0
 11
101.6734275514544
 21
176.6057274679437
 31
0.0
 11
101.5829054029236
 21
176.2109322190073
 31
0.0
 11
101.4364470004859
 21
175.8337992725914
 31
0.0
 11
101.2263025822827
 21
175.4521210526372
 31
0.0
 11
100.9712219047708
 21
175.0996437431039
 31
0.0
 11
100.6491780071559
 21
174.7452192505265
 31
0.0
 11
100.2935928328876
 21
174.4252007671872
 31
0.0
 11
99.87130194773684
 21
174.1095716122808
 31
0.0
 11
99.42481356472484
 21
173.829855298892
 31
0.0
 11
98.91651107808271
 21
173.5624667627841
 31
0.0
 11
98.39117923266429
 21
173.3308553355624
 31
0.0
 11
97.81323599925094
 21
173.1193348518392
 31
0.0
 11
97.22377091600674
 21
172.9429142371941
 31
0.0
 11
96.59431961693029
 21
172.7930622561952
 31
0.0
 11
95.95773821167319
 21
172.6776146088905
 31
0.0
 11
95.29621299395316
 21
172.5933117711883
 31
0.0
 11
94.63127897514059
 21
172.5429332021402
 31
0.0
 11
93.95787288386613
 21
172.5260553639926
 31
0.0
 11
93.28446679259164
 21
172.5429332021401
 31
0.0
 11
92.6195327737791
 21
172.5933117711882
 31
0.0
 11
91.95800755605904
 21
172.6776146088905
 31
0.0
 11
91.32142615080193
 21
172.7930622561953
 31
0.0
 11
90.69197485172555
 21
172.9429142371941
 31
0.0
 11
90.10250976848143
 21
173.1193348518392
 31
0.0
 11
89.52456653506806
 21
173.3308553355624
 31
0.0
 11
88.99923468964957
 21
173.5624667627841
 31
0.0
 11
88.4909322030074
 21
173.8298552988919
 31
0.0
 11
88.04444381999542
 21
174.1095716122807
 31
0.0
 11
87.62215293484459
 21
174.4252007671871
 31
0.0
 11
87.26656776057632
 21
174.7452192505264
 31
0.0
 11
86.94452386296148
 21
175.0996437431039
 31
0.0
 11
86.68944318544952
 21
175.4521210526372
 31
0.0
 11
86.47929876724635
 21
175.8337992725915
 31
0.0
 11
86.33284036480868
 21
176.2109322190075
 31
0.0
 11
86.24231821627782
 21
176.6057274679438
 31
0.0
 11
86.21190619145126
 21
176.9981913189922
 31
0.0
 11
86.24231821627777
 21
177.3906551700406
 31
0.0
  0
SPLINE
  5
93
330
39
100
AcDbEntity
  8
1
  6
Continuous
 62
     7
100
AcDbSpline
210
0.0
220
0.0
230
1.0
 70
    11
 71
     3
 72
    79
 73
    75
 74
    73
 42
0.0000000001
 43
0.0000000001
 44
0.00000001
 40
0.0
 40
0.0
 40
0.0
 40
0.0
 40
0.4050401806701869
 40
0.8096131937555335
 40
1.245318300553014
 40
1.680411860348835
 40
2.159294928466587
 40
2.637680385852294
 40
3.164891306744797
 40
3.691762346127796
 40
4.266103749100402
 40
4.840226907517154
 40
5.455661141276321
 40
6.070960513643708
 40
6.718003444304602
 40
7.364968702094693
 40
8.031843939394955
 40
8.698683687455615
 40
9.372301253427615
 40
10.04591881939963
 40
10.71275856746023
 40
11.37963380476045
 40
12.02659906255056
 40
12.67364199321144
 40
13.28894136557888
 40
13.90437559933812
 40
14.47849875775487
 40
15.05284016072745
 40
15.57971120011042
 40
16.10692212100301
 40
16.58530757838877
 40
17.06419064650643
 40
17.49928420630213
 40
17.93498931309959
 40
18.33956232618497
 40
18.74460250685516
 40
19.13824290827994
 40
19.53188330970471
 40
19.93692349037495
 40
20.34149650346028
 40
20.7772016102577
 40
21.21229517005343
 40
21.69117823817108
 40
22.16956369555682
 40
22.69677461644938
 40
23.22364565583239
 40
23.79798705880496
 40
24.37211021722175
 40
24.98754445098097
 40
25.60284382334841
 40
26.2498867540093
 40
26.89685201179933
 40
27.56372724909954
 40
28.23056699716017
 40
28.90418456313221
 40
29.57780212910423
 40
30.24464187716488
 40
30.91151711446511
 40
31.55848237225518
 40
32.20552530291609
 40
32.82082467528353
 40
33.43625890904276
 40
34.01038206745949
 40
34.58472347043198
 40
35.11159450981497
 40
35.63880543070751
 40
36.11719088809328
 40
36.59607395621094
 40
37.03116751600679
 40
37.4668726228043
 40
37.87144563588971
 40
38.27648581655993
 40
38.67012621798459
 40
39.06376661940928
 40
39.06376661940928
 40
39.06376661940928
 40
39.06376661940928
 10
82.67342755145452
 20
177.3906551700406
 30
0.0
 10
82.64734576588029
 20
177.5233940369116
 30
0.0
 10
82.5952122770924
 20
177.7887186715321
 30
0.0
 10
82.43957458640762
 20
178.1758054794058
 30
0.0
 10
82.23422877629241
 20
178.5490221184844
 30
0.0
 10
81.96845659654154
 20
178.9134037684945
 30
0.0
 10
81.65490385430138
 20
179.2567533090896
 30
0.0
 10
81.2858207183513
 20
179.5874200117338
 30
0.0
 10
80.8753982411705
 20
179.8926674105653
 30
0.0
 10
80.41454245602267
 20
180.1804437228283
 30
0.0
 10
79.91938632663917
 20
180.4397750895147
 30
0.0
 10
79.38079352138971
 20
180.6766255905185
 30
0.0
 10
78.81518033396372
 20
180.8828179250413
 30
0.0
 10
78.21510955517127
 20
181.06203967389
 30
0.0
 10
77.5955230720343
 20
181.2089922337951
 30
0.0
 10
76.95205876928804
 20
181.3255027919175
 30
0.0
 10
76.29678851109139
 20
181.4086731777491
 30
0.0
 10
75.62930693856271
 20
181.4592280903165
 30
0.0
 10
74.95787288387012
 20
181.4759049264933
 30
0.0
 10
74.28643882915387
 20
181.4592280903187
 30
0.0
 10
73.6189572566956
 20
181.4086731777407
 30
0.0
 10
72.96368699824393
 20
181.3255027919488
 30
0.0
 10
72.32022269642094
 20
181.2089922336828
 30
0.0
 10
71.70063620991637
 20
181.0620396743016
 30
0.0
 10
71.10056544310292
 20
180.8828179235888
 30
0.0
 10
70.53495221242943
 20
180.676625595795
 30
0.0
 10
69.99635955827088
 20
180.4397750712826
 30
0.0
 10
69.50120288850414
 20
180.1804437886762
 30
0.0
 10
69.04034896198699
 20
179.8926671872227
 30
0.0
 10
68.62991988326813
 20
179.5874208155467
 30
0.0
 10
68.26085922764111
 20
179.256750615113
 30
0.0
 10
67.94722677465418
 20
178.9134134769825
 30
0.0
 10
67.68172644784649
 20
178.5489895284544
 30
0.0
 10
67.47540944108251
 20
178.1759240011442
 30
0.0
 10
67.32315291414778
 20
177.7883111065769
 30
0.0
 10
67.23335619069857
 20
177.3958997281302
 30
0.0
 10
67.20133427258472
 20
176.9981913189921
 30
0.0
 10
67.23335619069859
 20
176.6004829098542
 30
0.0
 10
67.32315291414777
 20
176.2080715314074
 30
0.0
 10
67.47540944108251
 20
175.8204586368401
 30
0.0
 10
67.68172644784656
 20
175.4473931095301
 30
0.0
 10
67.9472267746541
 20
175.0829691610018
 30
0.0
 10
68.26085922764105
 20
174.7396320228713
 30
0.0
 10
68.62991988326807
 20
174.4089618224376
 30
0.0
 10
69.04034896198704
 20
174.1037154507618
 30
0.0
 10
69.5012028885041
 20
173.8159388493081
 30
0.0
 10
69.99635955827088
 20
173.5566075667018
 30
0.0
 10
70.53495221242937
 20
173.3197570421893
 30
0.0
 10
71.10056544310294
 20
173.1135647143955
 30
0.0
 10
71.70063620991635
 20
172.9343429636828
 30
0.0
 10
72.32022269642089
 20
172.7873904043016
 30
0.0
 10
72.96368699824393
 20
172.6708798460356
 30
0.0
 10
73.6189572566953
 20
172.5877094602438
 30
0.0
 10
74.28643882915476
 20
172.5371545476655
 30
0.0
 10
74.95787288386642
 20
172.5204777114918
 30
0.0
 10
75.62930693857636
 20
172.5371545476652
 30
0.0
 10
76.29678851104086
 20
172.5877094602443
 30
0.0
 10
76.95205876947415
 20
172.6708798460334
 30
0.0
 10
77.59552307136256
 20
172.7873904043096
 30
0.0
 10
78.21510955762881
 20
172.9343429636537
 30
0.0
 10
78.81518032528997
 20
173.1135647144982
 30
0.0
 10
79.38079355290302
 20
173.3197570418159
 30
0.0
 10
79.91938621775367
 20
173.5566075679921
 30
0.0
 10
80.41454284927939
 20
173.8159388446481
 30
0.0
 10
80.87539690732517
 20
174.1037154665669
 30
0.0
 10
81.28582551887669
 20
174.4089617655546
 30
0.0
 10
81.65488776535631
 20
174.7396322135144
 30
0.0
 10
81.96851457749682
 20
175.0829684739666
 30
0.0
 10
82.23403414237183
 20
175.4473954158107
 30
0.0
 10
82.4402824209981
 20
175.8204502494777
 30
0.0
 10
82.59277822088376
 20
176.208100373332
 30
0.0
 10
82.68170341900185
 20
176.6003761482074
 30
0.0
 10
82.71689251109245
 20
176.998577348647
 30
0.0
 10
82.68791587133384
 20
177.2599625629095
 30
0.0
 10
82.67342755145452
 20
177.3906551700406
 30
0.0
 11
82.67342755145452
 21
177.3906551700406
 31
0.0
 11
82.5829054029237
 21
177.785450418977
 31
0.0
 11
82.43644700048606
 21
178.1625833653929
 31
0.0
 11
82.22630258228284
 21
178.5442615853471
 31
0.0
 11
81.97122190477083
 21
178.8967388948804
 31
0.0
 11
81.6491780071559
 21
179.251163387458
 31
0.0
 11
81.29359283288765
 21
179.5711818707972
 31
0.0
 11
80.87130194773691
 21
179.8868110257036
 31
0.0
 11
80.42481356472491
 21
180.1665273390925
 31
0.0
 11
79.91651107808272
 21
180.4339158752003
 31
0.0
 11
79.39117923266429
 21
180.6655273024221
 31
0.0
 11
78.81323599925096
 21
180.8770477861452
 31
0.0
 11
78.22377091600686
 21
181.0534684007902
 31
0.0
 11
77.59431961693045
 21
181.203320381789
 31
0.0
 11
76.95773821167329
 21
181.3187680290938
 31
0.0
 11
76.29621299395319
 21
181.4030708667961
 31
0.0
 11
75.63127897514059
 21
181.4534494358442
 31
0.0
 11
74.95787288386616
 21
181.4703272739917
 31
0.0
 11
74.28446679259172
 21
181.4534494358442
 31
0.0
 11
73.61953277377917
 21
181.4030708667962
 31
0.0
 11
72.9580075560591
 21
181.318768029094
 31
0.0
 11
72.32142615080193
 21
181.2033203817891
 31
0.0
 11
71.69197485172555
 21
181.0534684007903
 31
0.0
 11
71.10250976848143
 21
180.8770477861451
 31
0.0
 11
70.52456653506806
 21
180.6655273024219
 31
0.0
 11
69.9992346896496
 21
180.4339158752002
 31
0.0
 11
69.4909322030074
 21
180.1665273390924
 31
0.0
 11
69.04444381999541
 21
179.8868110257036
 31
0.0
 11
68.62215293484461
 21
179.5711818707972
 31
0.0
 11
68.26656776057634
 21
179.2511633874578
 31
0.0
 11
67.94452386296148
 21
178.8967388948803
 31
0.0
 11
67.68944318544952
 21
178.5442615853472
 31
0.0
 11
67.47929876724635
 21
178.162583365393
 31
0.0
 11
67.33284036480868
 21
177.785450418977
 31
0.0
 11
67.24231821627785
 21
177.3906551700407
 31
0.0
 11
67.21190619145133
 21
176.9981913189922
 31
0.0
 11
67.24231821627785
 21
176.6057274679437
 31
0.0
 11
67.33284036480868
 21
176.2109322190073
 31
0.0
 11
67.47929876724635
 21
175.8337992725914
 31
0.0
 11
67.68944318544953
 21
175.4521210526372
 31
0.0
 11
67.94452386296143
 21
175.0996437431039
 31
0.0
 11
68.26656776057628
 21
174.7452192505265
 31
0.0
 11
68.62215293484456
 21
174.4252007671872
 31
0.0
 11
69.04444381999539
 21
174.1095716122808
 31
0.0
 11
69.4909322030074
 21
173.829855298892
 31
0.0
 11
69.99923468964958
 21
173.5624667627841
 31
0.0
 11
70.52456653506806
 21
173.3308553355624
 31
0.0
 11
71.10250976848143
 21
173.1193348518392
 31
0.0
 11
71.69197485172555
 21
172.9429142371941
 31
0.0
 11
72.32142615080193
 21
172.7930622561952
 31
0.0
 11
72.95800755605904
 21
172.6776146088905
 31
0.0
 11
73.6195327737791
 21
172.5933117711883
 31
0.0
 11
74.28446679259167
 21
172.5429332021402
 31
0.0
 11
74.95787288386613
 21
172.5260553639926
 31
0.0
 11
75.63127897514059
 21
172.5429332021401
 31
0.0
 11
76.29621299395318
 21
172.5933117711882
 31
0.0
 11
76.95773821167325
 21
172.6776146088905
 31
0.0
 11
77.59431961693038
 21
172.7930622561953
 31
0.0
 11
78.2237709160068
 21
172.9429142371941
 31
0.0
 11
78.81323599925094
 21
173.1193348518392
 31
0.0
 11
79.39117923266429
 21
173.3308553355624
 31
0.0
 11
79.91651107808271
 21
173.5624667627841
 31
0.0
 11
80.42481356472484
 21
173.8298552988919
 31
0.0
 11
80.87130194773684
 21
174.1095716122807
 31
0.0
 11
81.29359283288763
 21
174.4252007671871
 31
0.0
 11
81.64917800715591
 21
174.7452192505264
 31
0.0
 11
81.97122190477077
 21
175.0996437431039
 31
0.0
 11
82.22630258228278
 21
175.4521210526372
 31
0.0
 11
82.436447000486
 21
175.8337992725915
 31
0.0
 11
82.5829054029237
 21
176.2109322190075
 31
0.0
 11
82.67342755145452
 21
176.6057274679438
 31
0.0
 11
82.70383957628103
 21
176.9981913189922
 31
0.0
 11
82.67342755145452
 21
177.3906551700406
 31
0.0
  0
SPLINE
  5
94
330
39
100
AcDbEntity
  8
1
  6
Continuous
 62
     7
100
AcDbSpline
210
0.0
220
0.0
230
1.0
 70
     8
 71
     3
 72
    19
 73
    15
 74
    13
 42
0.0000000001
 43
0.0000000001
 44
0.00000001
 40
0.0
 40
0.0
 40
0.0
 40
0.0
 40
3.180571338409921
 40
6.360503631043474
 40
7.816062442420814
 40
9.252391917055833
 40
10.19524377372743
 40
11.11447915354898
 40
12.14288754820926
 40
13.21069613943752
 40
14.54762866922175
 40
15.87152617579541
 40
18.73974953742676
 40
21.607771874981
 40
21.607771874981
 40
21.607771874981
 40
21.607771874981
 10
197.5372050271648
 20
181.4703755072183
 30
0.0
 10
198.5991473668859
 20
181.4190684178609
 30
0.0
 10
200.7228186790758
 20
181.3164645478533
 30
0.0
 10
203.2416001250465
 20
180.5222788745735
 30
0.0
 10
205.0292334979515
 20
179.5570453908142
 30
0.0
 10
205.9602221320445
 20
178.6339002793195
 30
0.0
 10
206.4248014100748
 20
177.6219536153511
 30
0.0
 10
206.5362149735122
 20
176.6360527929986
 30
0.0
 10
206.143914840929
 20
175.6719158358993
 30
0.0
 10
205.3934105434634
 20
174.796372524059
 30
0.0
 10
204.3806430484351
 20
174.054792429323
 30
0.0
 10
202.7007749439088
 20
173.2848824922166
 30
0.0
 10
200.4087068807946
 20
172.6536787654873
 30
0.0
 10
198.4943499491236
 20
172.5685743251304
 30
0.0
 10
197.5372050271648
 20
172.5260235961748
 30
0.0
 11
197.5372050271648
 21
181.4703755072183
 31
0.0
 11
200.7045398320357
 21
181.1805061011606
 31
0.0
 11
203.7365557156432
 21
180.2219399494083
 31
0.0
 11
204.9970645041576
 21
179.4940875966223
 31
0.0
 11
205.9916430211866
 21
178.4578173938423
 31
0.0
 11
206.3792871557168
 21
177.5983398498696
 31
0.0
 11
206.4588411177062
 21
176.6825533842306
 31
0.0
 11
206.1043846180594
 21
175.7171599845919
 31
0.0
 11
205.4271059792677
 21
174.891624502049
 31
0.0
 11
204.3554676957203
 21
174.092262269747
 31
0.0
 11
203.1612745857829
 21
173.5207664919062
 31
0.0
 11
200.395618005507
 21
172.7606027383735
 31
0.0
 11
197.5372050271648
 21
172.5260235961748
 31
0.0
  0
SPLINE
  5
95
330
39
100
AcDbEntity
  8
1
  6
Continuous
 62
     7
100
AcDbSpline
210
0.0
220
0.0
230
1.0
 70
     8
 71
     3
 72
    19
 73
    15
 74
    13
 42
0.0000000001
 43
0.0000000001
 44
0.00000001
 40
0.0
 40
0.0
 40
0.0
 40
0.0
 40
3.180571338409978
 40
6.36050363104345
 40
7.816062442420815
 40
9.252391917055835
 40
10.19524377372745
 40
11.114479153549
 40
12.14288754820925
 40
13.21069613943753
 40
14.54762866922178
 40
15.87152617579542
 40
18.73974953742685
 40
21.60777187498109
 40
21.60777187498109
 40
21.60777187498109
 40
21.60777187498109
 10
197.5372050271648
 20
181.4703755072183
 30
0.0
 10
196.4752626874437
 20
181.419068417861
 30
0.0
 10
194.3515913752538
 20
181.3164645478534
 30
0.0
 10
191.832809929283
 20
180.5222788745735
 30
0.0
 10
190.0451765563781
 20
179.5570453908142
 30
0.0
 10
189.1141879222851
 20
178.6339002793196
 30
0.0
 10
188.6496086442548
 20
177.6219536153511
 30
0.0
 10
188.5381950808173
 20
176.6360527929987
 30
0.0
 10
188.9304952134004
 20
175.6719158358992
 30
0.0
 10
189.6809995108662
 20
174.7963725240591
 30
0.0
 10
190.6937670058945
 20
174.054792429323
 30
0.0
 10
192.3736351104208
 20
173.2848824922165
 30
0.0
 10
194.665703173535
 20
172.6536787654873
 30
0.0
 10
196.5800601052059
 20
172.5685743251304
 30
0.0
 10
197.5372050271648
 20
172.5260235961748
 30
0.0
 11
197.5372050271648
 21
181.4703755072183
 31
0.0
 11
194.3698702222939
 21
181.1805061011606
 31
0.0
 11
191.3378543386864
 21
180.2219399494083
 31
0.0
 11
190.0773455501719
 21
179.4940875966223
 31
0.0
 11
189.082767033143
 21
178.4578173938423
 31
0.0
 11
188.6951228986127
 21
177.5983398498696
 31
0.0
 11
188.6155689366234
 21
176.6825533842306
 31
0.0
 11
188.97002543627
 21
175.7171599845919
 31
0.0
 11
189.6473040750618
 21
174.891624502049
 31
0.0
 11
190.7189423586092
 21
174.092262269747
 31
0.0
 11
191.9131354685466
 21
173.5207664919062
 31
0.0
 11
194.6787920488225
 21
172.7606027383735
 31
0.0
 11
197.5372050271648
 21
172.5260235961748
 31
0.0
  0
ENDBLK
  5
3B
330
39
100
AcDbEntity
  8
0
100
AcDbBlockEnd
  0
BLOCK
  5
3D
330
3C
100
AcDbEntity
  8
0
100
AcDbBlockBegin
  2
42-1
 70
     0
 71
     0
 10
195.6803068724039
 20
620.6367781674549
 30
0.0
  3
42-1
  1

  0
LINE
  5
96
330
3C
100
AcDbEntity
  8
1
  6
Continuous
 62
     2
100
AcDbLine
 10
78.45787288386612
 20
211.5260553639925
 30
0.0
 11
78.45787288386612
 21
208.5260553639925
 31
0.0
  0
LINE
  5
97
330
3C
100
AcDbEntity
  8
1
  6
Continuous
 62
     2
100
AcDbLine
 10
79.45787288386612
 20
211.5260553639925
 30
0.0
 11
79.45787288386612
 21
208.5260553639925
 31
0.0
  0
LINE
  5
98
330
3C
100
AcDbEntity
  8
1
  6
Continuous
 62
     7
100
AcDbLine
 10
84.45787288386612
 20
211.8558210841962
 30
0.0
 11
90.20787288386612
 21
211.8558210841962
 31
0.0
  0
LINE
  5
99
330
3C
100
AcDbEntity
  8
1
  6
Continuous
 62
     7
100
AcDbLine
 10
89.95787288386612
 20
211.5260553639925
 30
0.0
 11
90.45787288386612
 21
211.5260553639925
 31
0.0
  0
LINE
  5
9A
330
3C
100
AcDbEntity
  8
1
  6
Continuous
 62
     2
100
AcDbLine
 10
90.45787288386612
 20
208.5260553639925
 30
0.0
 11
90.45787288386612
 21
211.5260553639925
 31
0.0
  0
LINE
  5
9B
330
3C
100
AcDbEntity
  8
1
  6
Continuous
 62
     7
100
AcDbLine
 10
90.95787288386612
 20
211.5260553639925
 30
0.0
 11
91.45787288386612
 21
211.5260553639925
 31
0.0
  0
LINE
  5
9C
330
3C
100
AcDbEntity
  8
1
  6
Continuous
 62
     7
100
AcDbLine
 10
90.45787288386623
 20
211.7953775630157
 30
0.0
 11
91.45787288386612
 21
211.5260553639925
 31
0.0
  0
LINE
  5
9D
330
3C
100
AcDbEntity
  8
1
  6
Continuous
 62
     7
100
AcDbLine
 10
91.45787288386612
 20
211.5260553639925
 30
0.0
 11
91.45787288386612
 21
208.5260553639925
 31
0.0
  0
LINE
  5
9E
330
3C
100
AcDbEntity
  8
1
  6
Continuous
 62
     7
100
AcDbLine
 10
90.45787288386612
 20
211.5260553639925
 30
0.0
 11
90.95787288386612
 21
211.5260553639925
 31
0.0
  0
LINE
  5
9F
330
3C
100
AcDbEntity
  8
1
  6
Continuous
 62
     7
100
AcDbLine
 10
89.45787288386612
 20
211.5260553639925
 30
0.0
 11
89.95787288386612
 21
211.5260553639925
 31
0.0
  0
LINE
  5
A0
330
3C
100
AcDbEntity
  8
1
  6
Continuous
 62
     7
100
AcDbLine
 10
78.70787288386612
 20
211.8558210841962
 30
0.0
 11
84.45787288386612
 21
211.8558210841962
 31
0.0
  0
LINE
  5
A1
330
3C
100
AcDbEntity
  8
1
  6
Continuous
 62
     2
100
AcDbLine
 10
83.45787288386612
 20
210.7683934661637
 30
0.0
 11
83.45787288386612
 21
209.5031543755533
 31
0.0
  0
LINE
  5
A2
330
3C
100
AcDbEntity
  8
1
  6
Continuous
 62
     2
100
AcDbLine
 10
82.45787288386612
 20
211.0117086758965
 30
0.0
 11
82.45787288386612
 21
209.2436181518383
 31
0.0
  0
LINE
  5
A3
330
3C
100
AcDbEntity
  8
1
  6
Continuous
 62
     7
100
AcDbLine
 10
78.45787288386612
 20
211.5260553639925
 30
0.0
 11
78.95787288386612
 21
211.5260553639925
 31
0.0
  0
LINE
  5
A4
330
3C
100
AcDbEntity
  8
1
  6
Continuous
 62
     7
100
AcDbLine
 10
77.45787288386612
 20
211.5260553639925
 30
0.0
 11
77.95787288386612
 21
211.5260553639925
 31
0.0
  0
LINE
  5
A5
330
3C
100
AcDbEntity
  8
1
  6
Continuous
 62
     7
100
AcDbLine
 10
77.45787288386612
 20
211.5260553639925
 30
0.0
 11
78.45787288386606
 21
211.7953775630157
 31
0.0
  0
LINE
  5
A6
330
3C
100
AcDbEntity
  8
1
  6
Continuous
 62
     7
100
AcDbLine
 10
77.95787288386612
 20
211.5260553639925
 30
0.0
 11
78.45787288386612
 21
211.5260553639925
 31
0.0
  0
LINE
  5
A7
330
3C
100
AcDbEntity
  8
1
  6
Continuous
 62
     7
100
AcDbLine
 10
78.95787288386612
 20
211.5260553639925
 30
0.0
 11
79.45787288386612
 21
211.5260553639925
 31
0.0
  0
LINE
  5
A8
330
3C
100
AcDbEntity
  8
1
  6
Continuous
 62
     7
100
AcDbLine
 10
79.45787288386612
 20
211.5260553639925
 30
0.0
 11
89.45787288386612
 21
211.5260553639925
 31
0.0
  0
LINE
  5
A9
330
3C
100
AcDbEntity
  8
1
  6
Continuous
 62
     2
100
AcDbLine
 10
85.45787288386612
 20
209.5031543755533
 30
0.0
 11
85.45787288386612
 21
210.7683934661637
 31
0.0
  0
LINE
  5
AA
330
3C
100
AcDbEntity
  8
1
  6
Continuous
 62
     2
100
AcDbLine
 10
86.45787288386612
 20
209.2436181518383
 30
0.0
 11
86.45787288386612
 21
211.0117086758965
 31
0.0
  0
LINE
  5
AB
330
3C
100
AcDbEntity
  8
1
  6
Continuous
 62
     2
100
AcDbLine
 10
87.45787288386612
 20
208.8867558442302
 30
0.0
 11
87.45787288386612
 21
211.2225818576649
 31
0.0
  0
LINE
  5
AC
330
3C
100
AcDbEntity
  8
1
  6
Continuous
 62
     2
100
AcDbLine
 10
88.45787288386612
 20
208.692103676444
 30
0.0
 11
88.45787288386612
 21
211.3361289555402
 31
0.0
  0
LINE
  5
AD
330
3C
100
AcDbEntity
  8
1
  6
Continuous
 62
     2
100
AcDbLine
 10
89.45787288386612
 20
208.5260553639925
 30
0.0
 11
89.45787288386612
 21
211.5260553639925
 31
0.0
  0
LINE
  5
AE
330
3C
100
AcDbEntity
  8
1
  6
Continuous
 62
     7
100
AcDbLine
 10
91.45787288386612
 20
208.5260553639925
 30
0.0
 11
77.45787288386612
 21
208.5260553639925
 31
0.0
  0
LINE
  5
AF
330
3C
100
AcDbEntity
  8
1
  6
Continuous
 62
     2
100
AcDbLine
 10
81.45787288386612
 20
211.2225818576649
 30
0.0
 11
81.45787288386612
 21
208.8867558442302
 31
0.0
  0
LINE
  5
B0
330
3C
100
AcDbEntity
  8
1
  6
Continuous
 62
     2
100
AcDbLine
 10
80.45787288386612
 20
211.3361289555402
 30
0.0
 11
80.45787288386612
 21
208.692103676444
 31
0.0
  0
LINE
  5
B1
330
3C
100
AcDbEntity
  8
1
  6
Continuous
 62
     7
100
AcDbLine
 10
77.45787288386612
 20
208.5260553639925
 30
0.0
 11
77.45787288386612
 21
211.5260553639925
 31
0.0
  0
LINE
  5
B2
330
3C
100
AcDbEntity
  8
1
  6
Continuous
 62
     7
100
AcDbLine
 10
197.5372050271648
 20
211.8558210841962
 30
0.0
 11
203.2872050271648
 21
211.8558210841962
 31
0.0
  0
LINE
  5
B3
330
3C
100
AcDbEntity
  8
1
  6
Continuous
 62
     7
100
AcDbLine
 10
203.0372050271648
 20
211.5260553639925
 30
0.0
 11
203.5372050271648
 21
211.5260553639925
 31
0.0
  0
LINE
  5
B4
330
3C
100
AcDbEntity
  8
1
  6
Continuous
 62
     2
100
AcDbLine
 10
203.5372050271648
 20
208.5260553639925
 30
0.0
 11
203.5372050271648
 21
211.5260553639925
 31
0.0
  0
LINE
  5
B5
330
3C
100
AcDbEntity
  8
1
  6
Continuous
 62
     7
100
AcDbLine
 10
204.0372050271648
 20
211.5260553639925
 30
0.0
 11
204.5372050271648
 21
211.5260553639925
 31
0.0
  0
LINE
  5
B6
330
3C
100
AcDbEntity
  8
1
  6
Continuous
 62
     7
100
AcDbLine
 10
203.5372050271648
 20
211.7953775630157
 30
0.0
 11
204.5372050271648
 21
211.5260553639925
 31
0.0
  0
LINE
  5
B7
330
3C
100
AcDbEntity
  8
1
  6
Continuous
 62
     7
100
AcDbLine
 10
204.5372050271648
 20
211.5260553639925
 30
0.0
 11
204.5372050271648
 21
208.5260553639925
 31
0.0
  0
LINE
  5
B8
330
3C
100
AcDbEntity
  8
1
  6
Continuous
 62
     7
100
AcDbLine
 10
203.5372050271648
 20
211.5260553639925
 30
0.0
 11
204.0372050271648
 21
211.5260553639925
 31
0.0
  0
LINE
  5
B9
330
3C
100
AcDbEntity
  8
1
  6
Continuous
 62
     7
100
AcDbLine
 10
202.5372050271648
 20
211.5260553639925
 30
0.0
 11
203.0372050271648
 21
211.5260553639925
 31
0.0
  0
LINE
  5
BA
330
3C
100
AcDbEntity
  8
1
  6
Continuous
 62
     7
100
AcDbLine
 10
191.7872050271648
 20
211.8558210841962
 30
0.0
 11
197.5372050271648
 21
211.8558210841962
 31
0.0
  0
LINE
  5
BB
330
3C
100
AcDbEntity
  8
1
  6
Continuous
 62
     2
100
AcDbLine
 10
196.5372050271648
 20
210.7683934661637
 30
0.0
 11
196.5372050271648
 21
209.5031543755533
 31
0.0
  0
LINE
  5
BC
330
3C
100
AcDbEntity
  8
1
  6
Continuous
 62
     2
100
AcDbLine
 10
195.5372050271648
 20
211.0117086758965
 30
0.0
 11
195.5372050271648
 21
209.2436181518383
 31
0.0
  0
LINE
  5
BD
330
3C
100
AcDbEntity
  8
1
  6
Continuous
 62
     7
100
AcDbLine
 10
191.5372050271648
 20
211.5260553639925
 30
0.0
 11
192.0372050271648
 21
211.5260553639925
 31
0.0
  0
LINE
  5
BE
330
3C
100
AcDbEntity
  8
1
  6
Continuous
 62
     7
100
AcDbLine
 10
190.5372050271648
 20
211.5260553639925
 30
0.0
 11
191.0372050271648
 21
211.5260553639925
 31
0.0
  0
LINE
  5
BF
330
3C
100
AcDbEntity
  8
1
  6
Continuous
 62
     7
100
AcDbLine
 10
190.5372050271648
 20
211.5260553639925
 30
0.0
 11
191.5372050271647
 21
211.7953775630157
 31
0.0
  0
LINE
  5
C0
330
3C
100
AcDbEntity
  8
1
  6
Continuous
 62
     7
100
AcDbLine
 10
191.0372050271648
 20
211.5260553639925
 30
0.0
 11
191.5372050271648
 21
211.5260553639925
 31
0.0
  0
LINE
  5
C1
330
3C
100
AcDbEntity
  8
1
  6
Continuous
 62
     7
100
AcDbLine
 10
192.0372050271648
 20
211.5260553639925
 30
0.0
 11
192.5372050271648
 21
211.5260553639925
 31
0.0
  0
LINE
  5
C2
330
3C
100
AcDbEntity
  8
1
  6
Continuous
 62
     7
100
AcDbLine
 10
192.5372050271648
 20
211.5260553639925
 30
0.0
 11
202.5372050271648
 21
211.5260553639925
 31
0.0
  0
LINE
  5
C3
330
3C
100
AcDbEntity
  8
1
  6
Continuous
 62
     2
100
AcDbLine
 10
198.5372050271648
 20
209.5031543755533
 30
0.0
 11
198.5372050271648
 21
210.7683934661637
 31
0.0
  0
LINE
  5
C4
330
3C
100
AcDbEntity
  8
1
  6
Continuous
 62
     2
100
AcDbLine
 10
199.5372050271648
 20
209.2436181518383
 30
0.0
 11
199.5372050271648
 21
211.0117086758965
 31
0.0
  0
LINE
  5
C5
330
3C
100
AcDbEntity
  8
1
  6
Continuous
 62
     2
100
AcDbLine
 10
200.5372050271648
 20
208.8867558442302
 30
0.0
 11
200.5372050271648
 21
211.2225818576649
 31
0.0
  0
LINE
  5
C6
330
3C
100
AcDbEntity
  8
1
  6
Continuous
 62
     2
100
AcDbLine
 10
201.5372050271648
 20
208.692103676444
 30
0.0
 11
201.5372050271648
 21
211.3361289555402
 31
0.0
  0
LINE
  5
C7
330
3C
100
AcDbEntity
  8
1
  6
Continuous
 62
     2
100
AcDbLine
 10
202.5372050271648
 20
208.5260553639925
 30
0.0
 11
202.5372050271648
 21
211.5260553639925
 31
0.0
  0
LINE
  5
C8
330
3C
100
AcDbEntity
  8
1
  6
Continuous
 62
     7
100
AcDbLine
 10
204.5372050271648
 20
208.5260553639925
 30
0.0
 11
190.5372050271648
 21
208.5260553639925
 31
0.0
  0
LINE
  5
C9
330
3C
100
AcDbEntity
  8
1
  6
Continuous
 62
     2
100
AcDbLine
 10
194.5372050271648
 20
211.2225818576649
 30
0.0
 11
194.5372050271648
 21
208.8867558442302
 31
0.0
  0
LINE
  5
CA
330
3C
100
AcDbEntity
  8
1
  6
Continuous
 62
     2
100
AcDbLine
 10
193.5372050271648
 20
211.3361289555402
 30
0.0
 11
193.5372050271648
 21
208.692103676444
 31
0.0
  0
LINE
  5
CB
330
3C
100
AcDbEntity
  8
1
  6
Continuous
 62
     2
100
AcDbLine
 10
192.5372050271648
 20
211.5260553639925
 30
0.0
 11
192.5372050271648
 21
208.5260553639925
 31
0.0
  0
LINE
  5
CC
330
3C
100
AcDbEntity
  8
1
  6
Continuous
 62
     2
100
AcDbLine
 10
191.5372050271648
 20
211.5260553639925
 30
0.0
 11
191.5372050271648
 21
208.5260553639925
 31
0.0
  0
LINE
  5
CD
330
3C
100
AcDbEntity
  8
1
  6
Continuous
 62
     7
100
AcDbLine
 10
190.5372050271648
 20
208.5260553639925
 30
0.0
 11
190.5372050271648
 21
211.5260553639925
 31
0.0
  0
ARC
  5
CE
330
3C
100
AcDbEntity
  8
1
  6
Continuous
 62
     7
100
AcDbCircle
 10
84.45787288386612
 20
187.5260553639925
 30
0.0
 40
24.99999999999999
100
AcDbArc
 50
76.70292825279094
 51
90.0
  0
ARC
  5
CF
330
3C
100
AcDbEntity
  8
1
  6
Continuous
 62
     7
100
AcDbCircle
 10
84.45787288386612
 20
187.5260553639925
 30
0.0
 40
25.0
100
AcDbArc
 50
90.0
 51
103.2970717472091
  0
ARC
  5
D0
330
3C
100
AcDbEntity
  8
1
  6
Continuous
 62
     7
100
AcDbCircle
 10
84.45787288386612
 20
187.5260553639925
 30
0.0
 40
25.00000000000004
100
AcDbArc
 50
76.11345963737077
 51
76.70292825279094
  0
ARC
  5
D1
330
3C
100
AcDbEntity
  8
1
  6
Continuous
 62
     7
100
AcDbCircle
 10
84.45787288386612
 20
187.5260553639925
 30
0.0
 40
24.99999999999999
100
AcDbArc
 50
103.2970717472091
 51
103.8865403626291
  0
ARC
  5
D2
330
3C
100
AcDbEntity
  8
1
  6
Continuous
 62
     7
100
AcDbCircle
 10
197.5372050271648
 20
187.5260553639925
 30
0.0
 40
24.99999999999999
100
AcDbArc
 50
76.70292825279094
 51
90.0
  0
ARC
  5
D3
330
3C
100
AcDbEntity
  8
1
  6
Continuous
 62
     7
100
AcDbCircle
 10
197.5372050271648
 20
187.5260553639925
 30
0.0
 40
25.0
100
AcDbArc
 50
90.0
 51
103.2970717472091
  0
ARC
  5
D4
330
3C
100
AcDbEntity
  8
1
  6
Continuous
 62
     7
100
AcDbCircle
 10
197.5372050271648
 20
187.5260553639925
 30
0.0
 40
25.00000000000001
100
AcDbArc
 50
76.11345963737102
 51
76.70292825279094
  0
ARC
  5
D5
330
3C
100
AcDbEntity
  8
1
  6
Continuous
 62
     7
100
AcDbCircle
 10
197.5372050271648
 20
187.5260553639925
 30
0.0
 40
24.99999999999999
100
AcDbArc
 50
103.2970717472091
 51
103.8865403626292
  0
CIRCLE
  5
D6
330
3C
100
AcDbEntity
  8
1
  6
Continuous
 62
     7
100
AcDbCircle
 10
84.45787288386606
 20
314.130976977447
 30
0.0
 40
7.0
  0
CIRCLE
  5
D7
330
3C
100
AcDbEntity
  8
1
  6
Continuous
 62
     7
100
AcDbCircle
 10
84.45787288386606
 20
314.130976977447
 30
0.0
 40
5.75
  0
ENDBLK
  5
3E
330
3C
100
AcDbEntity
  8
0
100
AcDbBlockEnd
  0
BLOCK
  5
40
330
3F
100
AcDbEntity
  8
0
100
AcDbBlockBegin
  2
36-1-25
 70
     0
 71
     0
 10
138.5084397110198
 20
83.74694590992681
 30
0.0
  3
36-1-25
  1

  0
LINE
  5
D8
330
3F
100
AcDbEntity
  8
1
  6
Continuous
 62
     7
100
AcDbLine
 10
89.95787288386612
 20
197.5260553639925
 30
0.0
 11
89.95787288386612
 21
190.5260553639926
 31
0.0
  0
LINE
  5
D9
330
3F
100
AcDbEntity
  8
1
  6
Continuous
 62
     7
100
AcDbLine
 10
78.95787288386612
 20
190.5260553639926
 30
0.0
 11
78.95787288386612
 21
197.5260553639925
 31
0.0
  0
LINE
  5
DA
330
3F
100
AcDbEntity
  8
1
  6
Continuous
 62
     7
100
AcDbLine
 10
203.0372050271648
 20
197.5260553639925
 30
0.0
 11
203.0372050271648
 21
190.5260553639926
 31
0.0
  0
LINE
  5
DB
330
3F
100
AcDbEntity
  8
1
  6
Continuous
 62
     7
100
AcDbLine
 10
192.0372050271648
 20
190.5260553639926
 30
0.0
 11
192.0372050271648
 21
197.5260553639926
 31
0.0
  0
ENDBLK
  5
41
330
3F
100
AcDbEntity
  8
0
100
AcDbBlockEnd
  0
BLOCK
  5
43
330
42
100
AcDbEntity
  8
0
100
AcDbBlockBegin
  2
_J__A4
 70
     0
 71
     0
 10
0.0
 20
0.0
 30
0.0
  3
_J__A4
  1

  0
POINT
  5
DC
330
42
100
AcDbEntity
  8
1
 62
     4
100
AcDbPoint
 10
93.75
 20
17.0
 30
0.0
  0
POINT
  5
DD
330
42
100
AcDbEntity
  8
1
 62
     4
100
AcDbPoint
 10
85.25
 20
17.0
 30
0.0
  0
POINT
  5
DE
330
42
100
AcDbEntity
  8
1
 62
     4
100
AcDbPoint
 10
106.5
 20
19.00000000000001
 30
0.0
  0
POINT
  5
DF
330
42
100
AcDbEntity
  8
1
 62
     4
100
AcDbPoint
 10
106.5
 20
12.5
 30
0.0
  0
POINT
  5
E0
330
42
100
AcDbEntity
  8
1
 62
     4
100
AcDbPoint
 10
112.25
 20
12.5
 30
0.0
  0
POINT
  5
E1
330
42
100
AcDbEntity
  8
1
 62
     4
100
AcDbPoint
 10
100.75
 20
12.5
 30
0.0
  0
POINT
  5
E2
330
42
100
AcDbEntity
  8
1
 62
     4
100
AcDbPoint
 10
123.5
 20
19.00000000000001
 30
0.0
  0
POINT
  5
E3
330
42
100
AcDbEntity
  8
1
 62
     4
100
AcDbPoint
 10
123.5
 20
12.5
 30
0.0
  0
POINT
  5
E4
330
42
100
AcDbEntity
  8
1
 62
     4
100
AcDbPoint
 10
129.25
 20
12.5
 30
0.0
  0
POINT
  5
E5
330
42
100
AcDbEntity
  8
1
 62
     4
100
AcDbPoint
 10
117.75
 20
12.5
 30
0.0
  0
POINT
  5
E6
330
42
100
AcDbEntity
  8
1
 62
     4
100
AcDbPoint
 10
140.5
 20
19.00000000000001
 30
0.0
  0
POINT
  5
E7
330
42
100
AcDbEntity
  8
1
 62
     4
100
AcDbPoint
 10
140.5
 20
12.5
 30
0.0
  0
POINT
  5
E8
330
42
100
AcDbEntity
  8
1
 62
     4
100
AcDbPoint
 10
146.25
 20
12.5
 30
0.0
  0
POINT
  5
E9
330
42
100
AcDbEntity
  8
1
 62
     4
100
AcDbPoint
 10
134.75
 20
12.5
 30
0.0
  0
POINT
  5
EA
330
42
100
AcDbEntity
  8
1
 62
     4
100
AcDbPoint
 10
151.75
 20
12.5
 30
0.0
  0
POINT
  5
EB
330
42
100
AcDbEntity
  8
1
 62
     4
100
AcDbPoint
 10
163.25
 20
12.5
 30
0.0
  0
POINT
  5
EC
330
42
100
AcDbEntity
  8
1
 62
     4
100
AcDbPoint
 10
157.5
 20
12.5
 30
0.0
  0
POINT
  5
ED
330
42
100
AcDbEntity
  8
1
 62
     4
100
AcDbPoint
 10
57.0
 20
14.25
 30
0.0
  0
POINT
  5
EE
330
42
100
AcDbEntity
  8
1
 62
     4
100
AcDbPoint
 10
57.0
 20
22.75000000000001
 30
0.0
  0
POINT
  5
EF
330
42
100
AcDbEntity
  8
1
 62
     4
100
AcDbPoint
 10
47.5
 20
282.0000000000003
 30
0.0
  0
POINT
  5
F0
330
42
100
AcDbEntity
  8
1
 62
     4
100
AcDbPoint
 10
157.5
 20
19.00000000000001
 30
0.0
  0
POINT
  5
F1
330
42
100
AcDbEntity
  8
1
 62
     4
100
AcDbPoint
 10
57.0
 20
16.25
 30
0.0
  0
POINT
  5
F2
330
42
100
AcDbEntity
  8
1
 62
     4
100
AcDbPoint
 10
57.0
 20
24.75000000000001
 30
0.0
  0
POINT
  5
F3
330
42
100
AcDbEntity
  8
1
 62
     4
100
AcDbPoint
 10
57.0
 20
20.75000000000001
 30
0.0
  0
POINT
  5
F4
330
42
100
AcDbEntity
  8
1
 62
     4
100
AcDbPoint
 10
57.0
 20
12.25
 30
0.0
  0
POINT
  5
F5
330
42
100
AcDbEntity
  8
1
 62
     4
100
AcDbPoint
 10
34.0
 20
34.00000000000001
 30
0.0
  0
LINE
  5
F6
330
42
100
AcDbEntity
  8
1
  6
Continuous
 62
     7
100
AcDbLine
 10
105.0
 20
10.0
 30
0.0
 11
200.0
 21
10.0
 31
0.0
  0
LINE
  5
F7
330
42
100
AcDbEntity
  8
1
  6
Continuous
 62
     2
100
AcDbLine
 10
105.0
 20
10.0
 30
0.0
 11
105.0
 21
5.0
 31
0.0
  0
LINE
  5
F8
330
42
100
AcDbEntity
  8
1
  6
Continuous
 62
     7
100
AcDbLine
 10
200.0
 20
148.5
 30
0.0
 11
200.0
 21
287.0000000000003
 31
0.0
  0
LINE
  5
F9
330
42
100
AcDbEntity
  8
1
  6
Continuous
 62
     2
100
AcDbLine
 10
200.0
 20
148.5
 30
0.0
 11
205.0
 21
148.5
 31
0.0
  0
LINE
  5
FA
330
42
100
AcDbEntity
  8
1
  6
Continuous
 62
     7
100
AcDbLine
 10
25.0
 20
148.5
 30
0.0
 11
25.0
 21
287.0000000000003
 31
0.0
  0
LINE
  5
FB
330
42
100
AcDbEntity
  8
1
  6
Continuous
 62
     2
100
AcDbLine
 10
25.0
 20
148.5
 30
0.0
 11
20.0
 21
148.5
 31
0.0
  0
LINE
  5
FC
330
42
100
AcDbEntity
  8
1
  6
Continuous
 62
     7
100
AcDbLine
 10
105.0
 20
287.0000000000003
 30
0.0
 11
25.0
 21
287.0000000000003
 31
0.0
  0
LINE
  5
FD
330
42
100
AcDbEntity
  8
1
  6
Continuous
 62
     2
100
AcDbLine
 10
105.0
 20
287.0000000000003
 30
0.0
 11
105.0
 21
292.0000000000003
 31
0.0
  0
LINE
  5
FE
330
42
100
AcDbEntity
  8
1
  6
Continuous
 62
     2
100
AcDbLine
 10
166.0
 20
20.00000000000001
 30
0.0
 11
200.0
 21
20.00000000000001
 31
0.0
  0
LINE
  5
FF
330
42
100
AcDbEntity
  8
1
  6
Continuous
 62
     2
100
AcDbLine
 10
98.0
 20
27.00000000000001
 30
0.0
 11
98.0
 21
9.99999999999999
 31
0.0
  0
LINE
  5
100
330
42
100
AcDbEntity
  8
1
  6
Continuous
 62
     2
100
AcDbLine
 10
115.0
 20
27.00000000000001
 30
0.0
 11
115.0
 21
9.99999999999999
 31
0.0
  0
LINE
  5
101
330
42
100
AcDbEntity
  8
1
  6
Continuous
 62
     2
100
AcDbLine
 10
149.0
 20
27.00000000000001
 30
0.0
 11
149.0
 21
10.0
 31
0.0
  0
LINE
  5
102
330
42
100
AcDbEntity
  8
1
  6
Continuous
 62
     2
100
AcDbLine
 10
132.0
 20
27.00000000000001
 30
0.0
 11
132.0
 21
9.99999999999999
 31
0.0
  0
LINE
  5
103
330
42
100
AcDbEntity
  8
1
  6
Continuous
 62
     2
100
AcDbLine
 10
166.0
 20
27.00000000000001
 30
0.0
 11
166.0
 21
10.0
 31
0.0
  0
LINE
  5
104
330
42
100
AcDbEntity
  8
1
  6
Continuous
 62
     2
100
AcDbLine
 10
55.0
 20
277.0000000000003
 30
0.0
 11
25.0
 21
277.0000000000003
 31
0.0
  0
LINE
  5
105
330
42
100
AcDbEntity
  8
1
  6
Continuous
 62
     7
100
AcDbLine
 10
25.0
 20
10.0
 30
0.0
 11
25.0
 21
148.5
 31
0.0
  0
LINE
  5
106
330
42
100
AcDbEntity
  8
1
  6
Continuous
 62
     2
100
AcDbLine
 10
40.0
 20
287.0000000000003
 30
0.0
 11
40.0
 21
277.0000000000003
 31
0.0
  0
LINE
  5
107
330
42
100
AcDbEntity
  8
1
  6
Continuous
 62
     2
100
AcDbLine
 10
55.0
 20
287.0000000000003
 30
0.0
 11
55.0
 21
277.0000000000003
 31
0.0
  0
LINE
  5
108
330
42
100
AcDbEntity
  8
1
  6
Continuous
 62
     2
100
AcDbLine
 10
33.0
 20
41.00000000000001
 30
0.0
 11
33.0
 21
27.0
 31
0.0
  0
LINE
  5
109
330
42
100
AcDbEntity
  8
1
  6
Continuous
 62
     7
100
AcDbLine
 10
200.0
 20
27.00000000000001
 30
0.0
 11
25.0
 21
27.00000000000001
 31
0.0
  0
LINE
  5
10A
330
42
100
AcDbEntity
  8
1
  6
Continuous
 62
     7
100
AcDbLine
 10
25.0
 20
41.0
 30
0.0
 11
200.0
 21
41.0
 31
0.0
  0
LINE
  5
10B
330
42
100
AcDbEntity
  8
1
  6
PHANTOM
 62
     4
100
AcDbLine
 10
0.0
 20
0.0
 30
0.0
 11
210.0
 21
0.0
 31
0.0
  0
LINE
  5
10C
330
42
100
AcDbEntity
  8
1
  6
PHANTOM
 62
     4
100
AcDbLine
 10
210.0
 20
0.0
 30
0.0
 11
210.0
 21
297.0
 31
0.0
  0
LINE
  5
10D
330
42
100
AcDbEntity
  8
1
  6
PHANTOM
 62
     4
100
AcDbLine
 10
210.0
 20
297.0
 30
0.0
 11
0.0
 21
297.0
 31
0.0
  0
LINE
  5
10E
330
42
100
AcDbEntity
  8
1
  6
PHANTOM
 62
     4
100
AcDbLine
 10
0.0
 20
297.0
 30
0.0
 11
0.0
 21
0.0
 31
0.0
  0
LINE
  5
10F
330
42
100
AcDbEntity
  8
1
  6
Continuous
 62
     7
100
AcDbLine
 10
25.0
 20
10.0
 30
0.0
 11
105.0
 21
10.0
 31
0.0
  0
LINE
  5
110
330
42
100
AcDbEntity
  8
1
  6
Continuous
 62
     7
100
AcDbLine
 10
200.0
 20
10.0
 30
0.0
 11
200.0
 21
148.5
 31
0.0
  0
LINE
  5
111
330
42
100
AcDbEntity
  8
1
  6
Continuous
 62
     7
100
AcDbLine
 10
200.0
 20
287.0000000000003
 30
0.0
 11
105.0
 21
287.0000000000003
 31
0.0
  0
LINE
  5
112
330
42
100
AcDbEntity
  8
1
  6
Continuous
 62
     2
100
AcDbLine
 10
25.0
 20
18.50000000000001
 30
0.0
 11
81.0
 21
18.50000000000001
 31
0.0
  0
LINE
  5
113
330
42
100
AcDbEntity
  8
1
  6
Continuous
 62
     2
100
AcDbLine
 10
33.0
 20
27.0
 30
0.0
 11
33.0
 21
10.0
 31
0.0
  0
LINE
  5
114
330
42
100
AcDbEntity
  8
1
  6
Continuous
 62
     7
100
AcDbLine
 10
191.0
 20
24.70000000000001
 30
0.0
 11
191.0
 21
22.30000000000001
 31
0.0
  0
LINE
  5
115
330
42
100
AcDbEntity
  8
1
  6
Continuous
 62
     7
100
AcDbLine
 10
191.0
 20
24.70000000000001
 30
0.0
 11
196.0
 21
25.50000000000001
 31
0.0
  0
LINE
  5
116
330
42
100
AcDbEntity
  8
1
  6
Continuous
 62
     7
100
AcDbLine
 10
196.0
 20
25.50000000000001
 30
0.0
 11
196.0
 21
21.50000000000001
 31
0.0
  0
LINE
  5
117
330
42
100
AcDbEntity
  8
1
  6
Continuous
 62
     7
100
AcDbLine
 10
196.0
 20
21.50000000000001
 30
0.0
 11
191.0
 21
22.30000000000001
 31
0.0
  0
LINE
  5
118
330
42
100
AcDbEntity
  8
1
  6
DOT_CENTER
 62
     2
100
AcDbLine
 10
184.0
 20
23.50000000000001
 30
0.0
 11
197.0
 21
23.50000000000001
 31
0.0
  0
LINE
  5
119
330
42
100
AcDbEntity
  8
1
  6
DOT_CENTER
 62
     2
100
AcDbLine
 10
187.0
 20
26.50000000000001
 30
0.0
 11
187.0
 21
20.50000000000001
 31
0.0
  0
LINE
  5
11A
330
42
100
AcDbEntity
  8
1
  6
Continuous
 62
     2
100
AcDbLine
 10
81.0
 20
27.00000000000001
 30
0.0
 11
81.0
 21
10.0
 31
0.0
  0
CIRCLE
  5
11B
330
42
100
AcDbEntity
  8
1
  6
Continuous
 62
     7
100
AcDbCircle
 10
103.5
 20
12.5
 30
0.0
 40
0.2999999999999972
  0
CIRCLE
  5
11C
330
42
100
AcDbEntity
  8
1
  6
Continuous
 62
     7
100
AcDbCircle
 10
109.5
 20
12.5
 30
0.0
 40
0.2999999999999972
  0
CIRCLE
  5
11D
330
42
100
AcDbEntity
  8
1
  6
Continuous
 62
     7
100
AcDbCircle
 10
120.5
 20
12.5
 30
0.0
 40
0.2999999999999972
  0
CIRCLE
  5
11E
330
42
100
AcDbEntity
  8
1
  6
Continuous
 62
     7
100
AcDbCircle
 10
126.5
 20
12.5
 30
0.0
 40
0.2999999999999972
  0
CIRCLE
  5
11F
330
42
100
AcDbEntity
  8
1
  6
Continuous
 62
     7
100
AcDbCircle
 10
137.5
 20
12.5
 30
0.0
 40
0.3000000000000114
  0
CIRCLE
  5
120
330
42
100
AcDbEntity
  8
1
  6
Continuous
 62
     7
100
AcDbCircle
 10
143.5
 20
12.5
 30
0.0
 40
0.3000000000000114
  0
CIRCLE
  5
121
330
42
100
AcDbEntity
  8
1
  6
Continuous
 62
     7
100
AcDbCircle
 10
160.5
 20
12.5
 30
0.0
 40
0.3000000000000114
  0
CIRCLE
  5
122
330
42
100
AcDbEntity
  8
1
  6
Continuous
 62
     7
100
AcDbCircle
 10
154.5
 20
12.5
 30
0.0
 40
0.3000000000000114
  0
CIRCLE
  5
123
330
42
100
AcDbEntity
  8
1
  6
Continuous
 62
     7
100
AcDbCircle
 10
187.0
 20
23.50000000000001
 30
0.0
 40
1.200000000000102
  0
CIRCLE
  5
124
330
42
100
AcDbEntity
  8
1
  6
Continuous
 62
     7
100
AcDbCircle
 10
187.0
 20
23.50000000000001
 30
0.0
 40
2.0
  0
CIRCLE
  5
125
330
42
100
AcDbEntity
  8
1
  6
DOT_CENTER
 62
     7
100
AcDbCircle
 10
89.5
 20
16.0
 30
0.0
 40
0.1000000000000227
  0
CIRCLE
  5
126
330
42
100
AcDbEntity
  8
1
  6
DOT_CENTER
 62
     7
100
AcDbCircle
 10
89.5
 20
18.0
 30
0.0
 40
0.1000000000000227
  0
MTEXT
  5
128
330
42
100
AcDbEntity
  8
1
 62
     7
100
AcDbMText
 10
188.5
 20
15.0
 30
0.0
 40
3.0
 41
0.0
 71
     5
 72
     1
  1
三栄水栓製作所
  7
CONVERTER_1
 73
     1
 44
1.32052821128451
  0
MTEXT
  5
129
330
42
100
AcDbEntity
  8
1
 62
     7
100
AcDbMText
 10
171.5
 20
15.0
 30
0.0
 40
2.5
 41
0.0
 71
     5
 72
     1
  1
株式会社
  7
CONVERTER_1
 73
     1
 44
1.32052821128451
  0
MTEXT
  5
12A
330
42
100
AcDbEntity
  8
1
 62
     2
100
AcDbMText
 10
32.5
 20
282.0000000000003
 30
0.0
 40
5.0
 41
0.0
 71
     5
 72
     1
  1
図番
  7
CONVERTER_1
 73
     1
 44
0.60024009603842
  0
MTEXT
  5
12B
330
42
100
AcDbEntity
  8
1
 62
     2
100
AcDbMText
 10
29.0
 20
34.00000000000001
 30
0.0
 40
3.5
 41
0.0
 71
     5
 72
     1
  1
備考
  7
CONVERTER_1
 73
     1
 44
0.60024009603842
  0
MTEXT
  5
12C
330
42
100
AcDbEntity
  8
1
 62
     2
100
AcDbMText
 10
29.0
 20
22.75
 30
0.0
 40
3.5
 41
0.0
 71
     5
 72
     1
  1
品名
  7
CONVERTER_1
 73
     1
 44
0.96038415366146
  0
MTEXT
  5
12D
330
42
100
AcDbEntity
  8
1
 62
     2
100
AcDbMText
 10
29.0
 20
14.25
 30
0.0
 40
3.5
 41
0.0
 71
     5
 72
     1
  1
品番
  7
CONVERTER_1
 73
     1
 44
0.96038415366146
  0
MTEXT
  5
12E
330
42
100
AcDbEntity
  8
1
 62
     2
100
AcDbMText
 10
101.5
 20
25.00000000000001
 30
0.0
 40
3.0
 41
0.0
 71
     5
 72
     1
  1
承認
  7
CONVERTER_1
 73
     1
 44
0.78031212484994
  0
MTEXT
  5
12F
330
42
100
AcDbEntity
  8
1
 62
     2
100
AcDbMText
 10
175.0
 20
23.50000000000001
 30
0.0
 40
3.5
 41
0.0
 71
     5
 72
     1
  1
第三角法
  7
CONVERTER_1
 73
     1
 44
0.7202881152461
  0
MTEXT
  5
130
330
42
100
AcDbEntity
  8
1
 62
     2
100
AcDbMText
 10
118.5
 20
25.00000000000001
 30
0.0
 40
3.0
 41
0.0
 71
     5
 72
     1
  1
検図
  7
CONVERTER_1
 73
     1
 44
0.78031212484994
  0
MTEXT
  5
131
330
42
100
AcDbEntity
  8
1
 62
     2
100
AcDbMText
 10
152.5
 20
25.00000000000001
 30
0.0
 40
3.0
 41
0.0
 71
     5
 72
     1
  1
設計
  7
CONVERTER_1
 73
     1
 44
0.78031212484994
  0
MTEXT
  5
132
330
42
100
AcDbEntity
  8
1
 62
     2
100
AcDbMText
 10
135.5
 20
25.00000000000001
 30
0.0
 40
3.0
 41
0.0
 71
     5
 72
     1
  1
製図
  7
CONVERTER_1
 73
     1
 44
0.78031212484994
  0
MTEXT
  5
133
330
42
100
AcDbEntity
  8
1
 62
     2
100
AcDbMText
 10
89.5
 20
24.00000000000001
 30
0.0
 40
3.5
 41
0.0
 71
     5
 72
     1
  1
尺度
  7
CONVERTER_1
 73
     1
 44
0.7202881152461
  0
MTEXT
  5
134
330
42
100
AcDbEntity
  8
1
 62
   250
100
AcDbMText
 10
25.0
 20
5.0
 30
0.0
 40
3.5
 41
0.0
 71
     4
 72
     1
  1
備考欄の文字列 原点位置=4
  7
CONVERTER_1
 73
     1
 44
0.7202881152461
  0
ENDBLK
  5
44
330
42
100
AcDbEntity
  8
0
100
AcDbBlockEnd
  0
BLOCK
  5
46
330
45
100
AcDbEntity
  8
0
100
AcDbBlockBegin
  2
Y10-0-25
 70
     0
 71
     0
 10
-263.280761811134
 20
136.5260553639925
 30
0.0
  3
Y10-0-25
  1

  0
LINE
  5
135
330
45
100
AcDbEntity
  8
1
  6
Continuous
 62
     7
100
AcDbLine
 10
275.5372050271647
 20
151.6715553639926
 30
0.0
 11
275.5372050271647
 21
121.3805553639926
 31
0.0
  0
LINE
  5
136
330
45
100
AcDbEntity
  8
1
  6
Continuous
 62
     2
100
AcDbLine
 10
275.5372050271647
 20
121.3805553639926
 30
0.0
 11
260.0989081715591
 21
121.3805553639926
 31
0.0
  0
LINE
  5
137
330
45
100
AcDbEntity
  8
1
  6
Continuous
 62
     2
100
AcDbLine
 10
260.0989081715591
 20
121.3805553639926
 30
0.0
 11
257.5372050271647
 21
119.9015553639925
 31
0.0
  0
LINE
  5
138
330
45
100
AcDbEntity
  8
1
  6
Continuous
 62
     7
100
AcDbLine
 10
257.5372050271647
 20
119.9015553639925
 30
0.0
 11
274.0582050271646
 21
119.9015553639926
 31
0.0
  0
LINE
  5
139
330
45
100
AcDbEntity
  8
1
  6
Continuous
 62
     7
100
AcDbLine
 10
274.0582050271646
 20
119.9015553639926
 30
0.0
 11
275.5372050271647
 21
121.3805553639926
 31
0.0
  0
LINE
  5
13A
330
45
100
AcDbEntity
  8
1
  6
Continuous
 62
     7
100
AcDbLine
 10
274.0582050271646
 20
119.9015553639926
 30
0.0
 11
274.0582050271646
 21
136.5260553639926
 31
0.0
  0
LINE
  5
13B
330
45
100
AcDbEntity
  8
1
  6
Continuous
 62
     7
100
AcDbLine
 10
260.0989081715591
 20
136.5260553639926
 30
0.0
 11
260.0989081715591
 21
119.9015553639925
 31
0.0
  0
LINE
  5
13C
330
45
100
AcDbEntity
  8
1
  6
Continuous
 62
     7
100
AcDbLine
 10
257.5372050271647
 20
136.5260553639926
 30
0.0
 11
257.5372050271647
 21
106.5260553639926
 31
0.0
  0
LINE
  5
13D
330
45
100
AcDbEntity
  8
1
  6
Continuous
 62
     7
100
AcDbLine
 10
257.5372050271647
 20
106.5260553639926
 30
0.0
 11
256.5372050271647
 21
106.5260553639926
 31
0.0
  0
LINE
  5
13E
330
45
100
AcDbEntity
  8
1
  6
Continuous
 62
     7
100
AcDbLine
 10
254.5372050271647
 20
136.5260553639926
 30
0.0
 11
254.5372050271647
 21
108.5260553639926
 31
0.0
  0
LINE
  5
13F
330
45
100
AcDbEntity
  8
1
  6
Continuous
 62
     2
100
AcDbLine
 10
215.0372050271648
 20
170.1178980574391
 30
0.0
 11
214.2242050271648
 21
171.5260553639926
 31
0.0
  0
LINE
  5
140
330
45
100
AcDbEntity
  8
1
  6
Continuous
 62
     2
100
AcDbLine
 10
214.2242050271648
 20
171.5260553639926
 30
0.0
 11
214.2242050271648
 21
172.5260553639926
 31
0.0
  0
LINE
  5
141
330
45
100
AcDbEntity
  8
1
  6
Continuous
 62
     7
100
AcDbLine
 10
215.0372050271648
 20
163.2925860336324
 30
0.0
 11
215.0372050271648
 21
172.5260553639926
 31
0.0
  0
LINE
  5
142
330
45
100
AcDbEntity
  8
1
  6
Continuous
 62
     7
100
AcDbLine
 10
197.5372050271648
 20
171.5260553639926
 30
0.0
 11
215.0372050271648
 21
171.5260553639926
 31
0.0
  0
LINE
  5
143
330
45
100
AcDbEntity
  8
1
  6
Continuous
 62
     7
100
AcDbLine
 10
254.5372050271647
 20
136.5260553639926
 30
0.0
 11
254.5372050271647
 21
164.5260553639926
 31
0.0
  0
LINE
  5
144
330
45
100
AcDbEntity
  8
1
  6
Continuous
 62
     7
100
AcDbLine
 10
257.5372050271647
 20
166.5260553639926
 30
0.0
 11
256.5372050271647
 21
166.5260553639926
 31
0.0
  0
LINE
  5
145
330
45
100
AcDbEntity
  8
1
  6
Continuous
 62
     7
100
AcDbLine
 10
257.5372050271647
 20
166.5260553639926
 30
0.0
 11
257.5372050271647
 21
136.5260553639926
 31
0.0
  0
LINE
  5
146
330
45
100
AcDbEntity
  8
1
  6
Continuous
 62
     7
100
AcDbLine
 10
260.0989081715591
 20
153.1505553639926
 30
0.0
 11
260.0989081715591
 21
136.5260553639926
 31
0.0
  0
LINE
  5
147
330
45
100
AcDbEntity
  8
1
  6
Continuous
 62
     7
100
AcDbLine
 10
274.0582050271646
 20
136.5260553639926
 30
0.0
 11
274.0582050271646
 21
153.1505553639926
 31
0.0
  0
LINE
  5
148
330
45
100
AcDbEntity
  8
1
  6
Continuous
 62
     7
100
AcDbLine
 10
275.5372050271647
 20
151.6715553639926
 30
0.0
 11
274.0582050271646
 21
153.1505553639926
 31
0.0
  0
LINE
  5
149
330
45
100
AcDbEntity
  8
1
  6
Continuous
 62
     7
100
AcDbLine
 10
274.0582050271646
 20
153.1505553639926
 30
0.0
 11
257.5372050271647
 21
153.1505553639926
 31
0.0
  0
LINE
  5
14A
330
45
100
AcDbEntity
  8
1
  6
Continuous
 62
     2
100
AcDbLine
 10
257.5372050271647
 20
153.1505553639926
 30
0.0
 11
260.0989081715591
 21
151.6715553639926
 31
0.0
  0
LINE
  5
14B
330
45
100
AcDbEntity
  8
1
  6
Continuous
 62
     2
100
AcDbLine
 10
260.0989081715591
 20
151.6715553639926
 30
0.0
 11
275.5372050271647
 21
151.6715553639926
 31
0.0
  0
LINE
  5
14C
330
45
100
AcDbEntity
  8
1
  6
Continuous
 62
     7
100
AcDbLine
 10
155.5055376805426
 20
100.6192212053189
 30
0.0
 11
156.2354863494786
 21
113.8296420478186
 31
0.0
  0
LINE
  5
14D
330
45
100
AcDbEntity
  8
1
  6
Continuous
 62
     7
100
AcDbLine
 10
180.0372050271648
 20
172.5260553639926
 30
0.0
 11
180.0372050271648
 21
162.7298530867537
 31
0.0
  0
LINE
  5
14E
330
45
100
AcDbEntity
  8
1
  6
Continuous
 62
     7
100
AcDbLine
 10
180.0372050271648
 20
171.5260553639926
 30
0.0
 11
197.5372050271648
 21
171.5260553639926
 31
0.0
  0
LINE
  5
14F
330
45
100
AcDbEntity
  8
1
  6
Continuous
 62
     2
100
AcDbLine
 10
180.8502050271648
 20
172.5260553639926
 30
0.0
 11
180.8502050271648
 21
171.5260553639926
 31
0.0
  0
LINE
  5
150
330
45
100
AcDbEntity
  8
1
  6
Continuous
 62
     2
100
AcDbLine
 10
180.8502050271648
 20
171.5260553639926
 30
0.0
 11
180.0372050271648
 21
170.1178980574391
 31
0.0
  0
LINE
  5
151
330
45
100
AcDbEntity
  8
1
  6
Continuous
 62
     7
100
AcDbLine
 10
237.8980771683856
 20
150.0260553639925
 30
0.0
 11
249.5372050271647
 21
150.0260553639925
 31
0.0
  0
LINE
  5
152
330
45
100
AcDbEntity
  8
1
  6
Continuous
 62
     7
100
AcDbLine
 10
129.568872373787
 20
102.4328895226662
 30
0.0
 11
130.4998468529365
 21
115.7464448424999
 31
0.0
  0
LINE
  5
153
330
45
100
AcDbEntity
  8
1
  6
Continuous
 62
     7
100
AcDbLine
 10
129.568872373787
 20
102.4328895226662
 30
0.0
 11
155.5055376805426
 21
100.6192212053189
 31
0.0
  0
LINE
  5
154
330
45
100
AcDbEntity
  8
1
  6
Continuous
 62
     7
100
AcDbLine
 10
173.6909814058793
 20
153.4212593060396
 30
0.0
 11
151.8714167640916
 21
144.8567207989267
 31
0.0
  0
LINE
  5
155
330
45
100
AcDbEntity
  8
1
  6
Continuous
 62
     7
100
AcDbLine
 10
237.898077168386
 20
123.0260553639926
 30
0.0
 11
249.5372050271647
 21
123.0260553639926
 31
0.0
  0
LINE
  5
156
330
45
100
AcDbEntity
  8
1
  6
Continuous
 62
     2
100
AcDbLine
 10
101.9578728838661
 20
170.1178980574391
 30
0.0
 11
101.1448728838661
 21
171.5260553639926
 31
0.0
  0
LINE
  5
157
330
45
100
AcDbEntity
  8
1
  6
Continuous
 62
     2
100
AcDbLine
 10
101.1448728838661
 20
171.5260553639926
 30
0.0
 11
101.1448728838661
 21
172.5260553639926
 31
0.0
  0
LINE
  5
158
330
45
100
AcDbEntity
  8
1
  6
Continuous
 62
     7
100
AcDbLine
 10
101.9578728838661
 20
148.5156341722744
 30
0.0
 11
101.9578728838661
 21
172.5260553639926
 31
0.0
  0
LINE
  5
159
330
45
100
AcDbEntity
  8
1
  6
Continuous
 62
     7
100
AcDbLine
 10
84.45787288386612
 20
171.5260553639926
 30
0.0
 11
101.9578728838661
 21
171.5260553639926
 31
0.0
  0
LINE
  5
15A
330
45
100
AcDbEntity
  8
1
  6
Continuous
 62
     7
100
AcDbLine
 10
66.95787288386612
 20
172.5260553639926
 30
0.0
 11
66.95787288386612
 21
148.5156341722744
 31
0.0
  0
LINE
  5
15B
330
45
100
AcDbEntity
  8
1
  6
Continuous
 62
     7
100
AcDbLine
 10
66.95787288386612
 20
171.5260553639926
 30
0.0
 11
84.45787288386612
 21
171.5260553639926
 31
0.0
  0
LINE
  5
15C
330
45
100
AcDbEntity
  8
1
  6
Continuous
 62
     2
100
AcDbLine
 10
67.77087288386611
 20
172.5260553639926
 30
0.0
 11
67.77087288386611
 21
171.5260553639926
 31
0.0
  0
LINE
  5
15D
330
45
100
AcDbEntity
  8
1
  6
Continuous
 62
     2
100
AcDbLine
 10
67.77087288386611
 20
171.5260553639926
 30
0.0
 11
66.95787288386612
 21
170.1178980574391
 31
0.0
  0
LINE
  5
15E
330
45
100
AcDbEntity
  8
1
  6
PHANTOM
 62
     4
100
AcDbLine
 10
84.45787288386612
 20
217.3099506371859
 30
0.0
 11
84.45787288386612
 21
96.51477266640961
 31
0.0
  0
LINE
  5
15F
330
45
100
AcDbEntity
  8
1
  6
PHANTOM
 62
     4
100
AcDbLine
 10
50.29839249968416
 20
136.5260553639926
 30
0.0
 11
118.2983924996842
 21
136.5260553639926
 31
0.0
  0
LINE
  5
160
330
45
100
AcDbEntity
  8
1
  6
Continuous
 62
     7
100
AcDbLine
 10
97.45787288386612
 20
101.5260553639926
 30
0.0
 11
97.45787288386612
 21
143.5260553639926
 31
0.0
  0
LINE
  5
161
330
45
100
AcDbEntity
  8
1
  6
Continuous
 62
     7
100
AcDbLine
 10
71.45787288386612
 20
143.5260553639926
 30
0.0
 11
71.45787288386612
 21
101.5260553639926
 31
0.0
  0
LINE
  5
162
330
45
100
AcDbEntity
  8
1
  6
Continuous
 62
     7
100
AcDbLine
 10
69.31237288386575
 20
392.1309769774471
 30
0.0
 11
99.60337288386575
 21
392.1309769774471
 31
0.0
  0
LINE
  5
163
330
45
100
AcDbEntity
  8
1
  6
Continuous
 62
     2
100
AcDbLine
 10
99.60337288386575
 20
392.1309769774471
 30
0.0
 11
99.60337288386575
 21
376.6926801218415
 31
0.0
  0
LINE
  5
164
330
45
100
AcDbEntity
  8
1
  6
Continuous
 62
     2
100
AcDbLine
 10
99.60337288386575
 20
376.6926801218415
 30
0.0
 11
101.0823728838657
 21
374.1309769774471
 31
0.0
  0
LINE
  5
165
330
45
100
AcDbEntity
  8
1
  6
Continuous
 62
     7
100
AcDbLine
 10
101.0823728838657
 20
374.1309769774471
 30
0.0
 11
101.0823728838657
 21
390.6519769774471
 31
0.0
  0
LINE
  5
166
330
45
100
AcDbEntity
  8
1
  6
Continuous
 62
     7
100
AcDbLine
 10
101.0823728838657
 20
390.6519769774471
 30
0.0
 11
99.60337288386575
 21
392.1309769774471
 31
0.0
  0
LINE
  5
167
330
45
100
AcDbEntity
  8
1
  6
Continuous
 62
     7
100
AcDbLine
 10
101.0823728838657
 20
390.6519769774471
 30
0.0
 11
84.45787288386572
 21
390.6519769774471
 31
0.0
  0
LINE
  5
168
330
45
100
AcDbEntity
  8
1
  6
Continuous
 62
     7
100
AcDbLine
 10
84.45787288386572
 20
376.6926801218415
 30
0.0
 11
101.0823728838657
 21
376.6926801218415
 31
0.0
  0
LINE
  5
169
330
45
100
AcDbEntity
  8
1
  6
Continuous
 62
     7
100
AcDbLine
 10
84.45787288386572
 20
374.1309769774471
 30
0.0
 11
114.4578728838657
 21
374.1309769774471
 31
0.0
  0
LINE
  5
16A
330
45
100
AcDbEntity
  8
1
  6
Continuous
 62
     7
100
AcDbLine
 10
114.4578728838657
 20
374.1309769774471
 30
0.0
 11
114.4578728838657
 21
373.1309769774471
 31
0.0
  0
LINE
  5
16B
330
45
100
AcDbEntity
  8
1
  6
Continuous
 62
     7
100
AcDbLine
 10
84.45787288386572
 20
371.1309769774471
 30
0.0
 11
112.4578728838657
 21
371.1309769774471
 31
0.0
  0
LINE
  5
16C
330
45
100
AcDbEntity
  8
1
  6
Continuous
 62
     7
100
AcDbLine
 10
84.45787288386572
 20
371.1309769774471
 30
0.0
 11
56.45787288386572
 21
371.1309769774471
 31
0.0
  0
LINE
  5
16D
330
45
100
AcDbEntity
  8
1
  6
Continuous
 62
     7
100
AcDbLine
 10
54.45787288386572
 20
374.1309769774471
 30
0.0
 11
54.45787288386572
 21
373.1309769774471
 31
0.0
  0
LINE
  5
16E
330
45
100
AcDbEntity
  8
1
  6
Continuous
 62
     7
100
AcDbLine
 10
54.45787288386572
 20
374.1309769774471
 30
0.0
 11
84.45787288386572
 21
374.1309769774471
 31
0.0
  0
LINE
  5
16F
330
45
100
AcDbEntity
  8
1
  6
Continuous
 62
     7
100
AcDbLine
 10
67.83337288386571
 20
376.6926801218415
 30
0.0
 11
84.45787288386572
 21
376.6926801218415
 31
0.0
  0
LINE
  5
170
330
45
100
AcDbEntity
  8
1
  6
Continuous
 62
     7
100
AcDbLine
 10
84.45787288386572
 20
390.6519769774471
 30
0.0
 11
67.83337288386571
 21
390.6519769774471
 31
0.0
  0
LINE
  5
171
330
45
100
AcDbEntity
  8
1
  6
Continuous
 62
     7
100
AcDbLine
 10
69.31237288386575
 20
392.1309769774471
 30
0.0
 11
67.83337288386571
 21
390.6519769774471
 31
0.0
  0
LINE
  5
172
330
45
100
AcDbEntity
  8
1
  6
Continuous
 62
     7
100
AcDbLine
 10
67.83337288386571
 20
390.6519769774471
 30
0.0
 11
67.83337288386571
 21
374.1309769774471
 31
0.0
  0
LINE
  5
173
330
45
100
AcDbEntity
  8
1
  6
Continuous
 62
     2
100
AcDbLine
 10
67.83337288386571
 20
374.1309769774471
 30
0.0
 11
69.31237288386575
 21
376.6926801218415
 31
0.0
  0
LINE
  5
174
330
45
100
AcDbEntity
  8
1
  6
Continuous
 62
     2
100
AcDbLine
 10
69.31237288386575
 20
376.6926801218415
 30
0.0
 11
69.31237288386575
 21
392.1309769774471
 31
0.0
  0
LINE
  5
175
330
45
100
AcDbEntity
  8
1
  6
Continuous
 62
     7
100
AcDbLine
 10
70.95787288386572
 20
354.4918491186681
 30
0.0
 11
70.95787288386572
 21
366.1309769774471
 31
0.0
  0
LINE
  5
176
330
45
100
AcDbEntity
  8
1
  6
Continuous
 62
     7
100
AcDbLine
 10
97.95787288386583
 20
354.4918491186684
 30
0.0
 11
97.95787288386572
 21
366.1309769774471
 31
0.0
  0
LINE
  5
177
330
45
100
AcDbEntity
  8
1
  6
Continuous
 62
     7
100
AcDbLine
 10
97.45787288386583
 20
272.2883229948461
 30
0.0
 11
97.45787288386583
 21
259.1309769774472
 31
0.0
  0
LINE
  5
178
330
45
100
AcDbEntity
  8
1
  6
PHANTOM
 62
     4
100
AcDbLine
 10
64.29839249968381
 20
259.1309769774472
 30
0.0
 11
104.2983924996838
 21
259.1309769774472
 31
0.0
  0
LINE
  5
179
330
45
100
AcDbEntity
  8
1
  6
Continuous
 62
     7
100
AcDbLine
 10
71.45787288386572
 20
259.1309769774472
 30
0.0
 11
71.45787288386572
 21
272.2883229948461
 31
0.0
  0
LINE
  5
17A
330
45
100
AcDbEntity
  8
1
  6
PHANTOM
 62
     4
100
AcDbLine
 10
68.29839249968416
 20
101.5260553639926
 30
0.0
 11
100.2983924996842
 21
101.5260553639926
 31
0.0
  0
ARC
  5
17B
330
45
100
AcDbEntity
  8
1
  6
Continuous
 62
     7
100
AcDbCircle
 10
197.5372050271648
 20
225.0837476716849
 30
0.0
 40
108.5576923076923
100
AcDbArc
 50
-106.6075540950618
 51
-71.7024754336644
  0
ARC
  5
17C
330
45
100
AcDbEntity
  8
1
  6
Continuous
 62
     7
100
AcDbCircle
 10
197.5372050271648
 20
47.96836305630027
 30
0.0
 40
108.5576923076922
100
AcDbArc
 50
71.70247543366449
 51
76.58782646191098
  0
ARC
  5
17D
330
45
100
AcDbEntity
  8
1
  6
Continuous
 62
     7
100
AcDbCircle
 10
164.2233015542777
 20
113.3882711675138
 30
0.0
 40
33.80580394066676
100
AcDbArc
 50
111.4308250268797
 51
176.0000000000001
  0
ARC
  5
17E
330
45
100
AcDbEntity
  8
1
  6
Continuous
 62
     7
100
AcDbCircle
 10
84.45787288386612
 20
136.5260553639926
 30
0.0
 40
20.00000000000004
100
AcDbArc
 50
-49.45839812649557
 51
23.55646430910086
  0
ARC
  5
17F
330
45
100
AcDbEntity
  8
1
  6
Continuous
 62
     7
100
AcDbCircle
 10
84.45787288386612
 20
143.5260553639926
 30
0.0
 40
13.0
100
AcDbArc
 50
0.0
 51
180.0
  0
ARC
  5
180
330
45
100
AcDbEntity
  8
1
  6
Continuous
 62
     7
100
AcDbCircle
 10
84.45787288386612
 20
136.5260553639926
 30
0.0
 40
20.00000000000002
100
AcDbArc
 50
156.4435356908989
 51
-130.5416018735045
  0
ARC
  5
181
330
45
100
AcDbEntity
  8
1
  6
Continuous
 62
     7
100
AcDbCircle
 10
-4.09981942382649
 20
314.1309769774472
 30
0.0
 40
108.5576923076922
100
AcDbArc
 50
9.47606085095616
 51
18.29752456633568
  0
ARC
  5
182
330
45
100
AcDbEntity
  8
1
  6
Continuous
 62
     7
100
AcDbCircle
 10
173.015565191558
 20
314.1309769774472
 30
0.0
 40
108.5576923076921
100
AcDbArc
 50
178.7654619530359
 51
-161.0054849801911
  0
ARC
  5
183
330
45
100
AcDbEntity
  8
1
  6
Continuous
 62
     7
100
AcDbCircle
 10
84.45787288386612
 20
136.5260553639926
 30
0.0
 40
29.99999999999997
100
AcDbArc
 50
125.6853347126521
 51
-115.6792886194568
  0
ARC
  5
184
330
45
100
AcDbEntity
  8
1
  6
Continuous
 62
     7
100
AcDbCircle
 10
84.45787288386612
 20
136.5260553639926
 30
0.0
 40
30.00000000000006
100
AcDbArc
 50
-64.32071138054322
 51
54.31466528734793
  0
ARC
  5
185
330
45
100
AcDbEntity
  8
1
  6
Continuous
 62
     7
100
AcDbCircle
 10
173.015565191558
 20
314.1309769774472
 30
0.0
 40
108.5576923076921
100
AcDbArc
 50
161.7024754336644
 51
170.5239391490437
  0
ARC
  5
186
330
45
100
AcDbEntity
  8
1
  6
Continuous
 62
     7
100
AcDbCircle
 10
-4.09981942382649
 20
314.1309769774472
 30
0.0
 40
108.5576923076923
100
AcDbArc
 50
-18.99451501980889
 51
1.23453804696428
  0
SPLINE
  5
187
330
45
100
AcDbEntity
  8
1
  6
Continuous
 62
     7
100
AcDbSpline
210
0.0
220
0.0
230
1.0
 70
    11
 71
     3
 72
    79
 73
    75
 74
    73
 42
0.0000000001
 43
0.0000000001
 44
0.00000001
 40
0.0
 40
0.0
 40
0.0
 40
0.0
 40
0.2484706961953861
 40
0.4658921825010544
 40
0.8478489281115093
 40
1.23999858088371
 40
1.812216202419085
 40
2.381352153097966
 40
3.108657766458513
 40
3.836647715473633
 40
4.703022696541411
 40
5.569230058392503
 40
6.547524072830673
 40
7.525843200276212
 40
8.586869365262968
 40
9.647886463143729
 40
10.75956325411745
 40
11.87123978760981
 40
12.99997981730637
 40
14.12871984700293
 40
15.24039638049528
 40
16.35207317146893
 40
17.41309026934964
 40
18.47411643433643
 40
19.45243556178209
 40
20.4307295762203
 40
21.29693693807142
 40
22.16331191913918
 40
22.89130186815424
 40
23.61860748151482
 40
24.18774343219367
 40
24.75996105372895
 40
25.15211070650111
 40
25.53406745211164
 40
25.75148893841734
 40
25.99995963461264
 40
26.10657304452953
 40
26.21318645444641
 40
26.46165715064176
 40
26.67907863694745
 40
27.06103538255796
 40
27.45318503533012
 40
28.02540265686539
 40
28.59453860754426
 40
29.32184422090484
 40
30.04983416991991
 40
30.91620915098765
 40
31.78241651283878
 40
32.76071052727701
 40
33.73902965472264
 40
34.80005581970944
 40
35.86107291759014
 40
36.9727497085638
 40
38.08442624205613
 40
39.21316627175268
 40
40.34190630144926
 40
41.45358283494162
 40
42.56525962591534
 40
43.6262767237961
 40
44.68730288878284
 40
45.66562201622839
 40
46.64391603066655
 40
47.51012339251765
 40
48.37649837358544
 40
49.10448832260053
 40
49.8317939359611
 40
50.40092988663997
 40
50.97314750817539
 40
51.3652971609476
 40
51.74725390655802
 40
51.96467539286367
 40
52.21314608905909
 40
52.31975949897599
 40
52.42637290889289
 40
52.42637290889289
 40
52.42637290889289
 40
52.42637290889289
 10
97.39135654106769
 20
101.6093740012524
 30
0.0
 10
97.31950489253072
 20
101.6513276043036
 30
0.0
 10
97.184780267592
 20
101.7299922355403
 30
0.0
 10
96.90996140885602
 20
101.8044948029482
 30
0.0
 10
96.58267126046141
 20
101.8493001756192
 30
0.0
 10
96.13995198476414
 20
101.9233950070193
 30
0.0
 10
95.63342246486394
 20
101.9926829432072
 30
0.0
 10
95.01399922198365
 20
102.0588914344475
 30
0.0
 10
94.3416105935776
 20
102.1163384024819
 30
0.0
 10
93.56988620986084
 20
102.174334063419
 30
0.0
 10
92.75129433603776
 20
102.2258639541782
 30
0.0
 10
91.84891960139619
 20
102.2736090900269
 30
0.0
 10
90.90886070957116
 20
102.314611491761
 30
0.0
 10
89.9036231622585
 20
102.3507854189708
 30
0.0
 10
88.87057935388333
 20
102.3802327191586
 30
0.0
 10
87.79292202683752
 20
102.4037580514531
 30
0.0
 10
86.69825159961283
 20
102.4204537624082
 30
0.0
 10
85.58092702835054
 20
102.430671183182
 30
0.0
 10
84.45787288385395
 20
102.4340071400455
 30
0.0
 10
83.33481873943008
 20
102.4306711833369
 30
0.0
 10
82.21749416795277
 20
102.4204537617996
 30
0.0
 10
81.12282374150227
 20
102.4037580536926
 30
0.0
 10
80.04516641169721
 20
102.3802327112202
 30
0.0
 10
79.01212261325193
 20
102.3507854476672
 30
0.0
 10
78.00688503163735
 20
102.3146113939047
 30
0.0
 10
77.06682626078661
 20
102.273609438492
 30
0.0
 10
76.16445112376222
 20
102.2258628180964
 30
0.0
 10
75.34586063417885
 20
102.1743380343364
 30
0.0
 10
74.57413186486028
 20
102.1163261932073
 30
0.0
 10
73.90175781617617
 20
102.0589330154414
 30
0.0
 10
73.2822911975716
 20
101.9925644942722
 30
0.0
 10
72.77589917518939
 20
101.9237838399424
 30
0.0
 10
72.33281868842707
 20
101.8483563603385
 30
0.0
 10
72.00655300212077
 20
101.8073306270367
 30
0.0
 10
71.72934057527664
 20
101.7239972552893
 30
0.0
 10
71.57084353270763
 20
101.6533693729704
 30
0.0
 10
71.42395363519754
 20
101.5260553639926
 30
0.0
 10
71.57084353270767
 20
101.3987413550148
 30
0.0
 10
71.72934057527662
 20
101.3281134726958
 30
0.0
 10
72.00655300212075
 20
101.2447801009485
 30
0.0
 10
72.33281868842711
 20
101.2037543676467
 30
0.0
 10
72.77589917518937
 20
101.1283268880428
 30
0.0
 10
73.2822911975716
 20
101.0595462337129
 30
0.0
 10
73.90175781617619
 20
100.9931777125437
 30
0.0
 10
74.57413186486026
 20
100.9357845347778
 30
0.0
 10
75.34586063417885
 20
100.8777726936487
 30
0.0
 10
76.16445112376219
 20
100.8262479098888
 30
0.0
 10
77.06682626078663
 20
100.7785012894931
 30
0.0
 10
78.00688503163732
 20
100.7374993340804
 30
0.0
 10
79.01212261325196
 20
100.7013252803179
 30
0.0
 10
80.04516641169725
 20
100.6718780167651
 30
0.0
 10
81.12282374150206
 20
100.6483526742916
 30
0.0
 10
82.21749416795355
 20
100.6316569661888
 30
0.0
 10
83.33481873942702
 20
100.6214395446358
 30
0.0
 10
84.45787288386561
 20
100.6181035879866
 30
0.0
 10
85.58092702830732
 20
100.6214395446291
 30
0.0
 10
86.6982515997715
 20
100.6316569662153
 30
0.0
 10
87.79292202625661
 20
100.6483526741944
 30
0.0
 10
88.87057935594169
 20
100.6718780171097
 30
0.0
 10
89.90362315481798
 20
100.7013252790723
 30
0.0
 10
90.90886073494363
 20
100.737499338328
 30
0.0
 10
91.84891951104524
 20
100.7785012743676
 30
0.0
 10
92.75129463060397
 20
100.8262479592014
 30
0.0
 10
93.56988518027131
 20
100.8777725212879
 30
0.0
 10
94.34161375922938
 20
100.9357850647311
 30
0.0
 10
95.01398844075787
 20
100.9931759076875
 30
0.0
 10
95.63345317660472
 20
101.0595513750832
 30
0.0
 10
96.13985116717612
 20
101.1283100104404
 30
0.0
 10
96.58291597528483
 20
101.2037953346998
 30
0.0
 10
96.90922612918311
 20
101.2446570097477
 30
0.0
 10
97.18633466129921
 20
101.3283736895832
 30
0.0
 10
97.34513804344323
 20
101.3978713659808
 30
0.0
 10
97.49144724660775
 20
101.5273277824092
 30
0.0
 10
97.42472010958106
 20
101.582025261638
 30
0.0
 10
97.39135654106769
 20
101.6093740012523
 30
0.0
 11
97.39135654106769
 21
101.6093740012524
 31
0.0
 11
97.17116873377452
 21
101.7245044333164
 31
0.0
 11
96.96282403112517
 21
101.7866702405203
 31
0.0
 11
96.58627158543963
 21
101.8506953228363
 31
0.0
 11
96.19892983332787
 21
101.911913924914
 31
0.0
 11
95.63206853504536
 21
101.9900245829901
 31
0.0
 11
95.06626516905008
 21
102.0515248381405
 31
0.0
 11
94.34174212301872
 21
102.1150843456527
 31
0.0
 11
93.61579137104452
 21
102.1695349799478
 31
0.0
 11
92.75115693678512
 21
102.2244248962632
 31
0.0
 11
91.88616942404036
 21
102.2703791835568
 31
0.0
 11
90.90882046463578
 21
102.3133697666691
 31
0.0
 11
89.931136803671
 21
102.3486256060194
 31
0.0
 11
88.87054702985722
 21
102.3790534627982
 31
0.0
 11
87.80978361607652
 21
102.402253936492
 31
0.0
 11
86.69823786663348
 21
102.419322459707
 31
0.0
 11
85.58660777617996
 21
102.4294840105678
 31
0.0
 11
84.45787288386612
 21
102.4328895226662
 31
0.0
 11
83.32913799155227
 21
102.4294840105678
 31
0.0
 11
82.21750790109877
 21
102.419322459707
 31
0.0
 11
81.1059621516558
 21
102.4022539364919
 31
0.0
 11
80.04519873787515
 21
102.3790534627982
 31
0.0
 11
78.98460896406134
 21
102.3486256060194
 31
0.0
 11
78.00692530309644
 21
102.3133697666691
 31
0.0
 11
77.02957634369182
 21
102.2703791835568
 31
0.0
 11
76.16458883094703
 21
102.2244248962632
 31
0.0
 11
75.29995439668764
 21
102.1695349799478
 31
0.0
 11
74.5740036447135
 21
102.1150843456527
 31
0.0
 11
73.84948059868211
 21
102.0515248381405
 31
0.0
 11
73.28367723268686
 21
101.9900245829901
 31
0.0
 11
72.71681593440445
 21
101.911913924914
 31
0.0
 11
72.32947418229273
 21
101.8506953228363
 31
0.0
 11
71.95292173660712
 21
101.7866702405203
 31
0.0
 11
71.74457703395774
 21
101.7245044333163
 31
0.0
 11
71.52438922666464
 21
101.6093740012524
 31
0.0
 11
71.45787288386619
 21
101.5260553639926
 31
0.0
 11
71.52438922666464
 21
101.4427367267328
 31
0.0
 11
71.74457703395775
 21
101.3276062946688
 31
0.0
 11
71.95292173660714
 21
101.2654404874649
 31
0.0
 11
72.32947418229273
 21
101.2014154051489
 31
0.0
 11
72.71681593440445
 21
101.1401968030712
 31
0.0
 11
73.28367723268684
 21
101.0620861449951
 31
0.0
 11
73.84948059868211
 21
101.0005858898446
 31
0.0
 11
74.57400364471351
 21
100.9370263823325
 31
0.0
 11
75.29995439668765
 21
100.8825757480373
 31
0.0
 11
76.16458883094701
 21
100.8276858317219
 31
0.0
 11
77.02957634369182
 21
100.7817315444283
 31
0.0
 11
78.00692530309645
 21
100.738740961316
 31
0.0
 11
78.98460896406134
 21
100.7034851219657
 31
0.0
 11
80.04519873787515
 21
100.6730572651869
 31
0.0
 11
81.1059621516558
 21
100.6498567914932
 31
0.0
 11
82.21750790109878
 21
100.6327882682781
 31
0.0
 11
83.32913799155227
 21
100.6226267174173
 31
0.0
 11
84.4578728838661
 21
100.6192212053189
 31
0.0
 11
85.58660777617996
 21
100.6226267174173
 31
0.0
 11
86.69823786663348
 21
100.6327882682781
 31
0.0
 11
87.80978361607652
 21
100.6498567914932
 31
0.0
 11
88.87054702985722
 21
100.6730572651869
 31
0.0
 11
89.93113680367098
 21
100.7034851219657
 31
0.0
 11
90.90882046463578
 21
100.738740961316
 31
0.0
 11
91.88616942404035
 21
100.7817315444283
 31
0.0
 11
92.75115693678512
 21
100.8276858317219
 31
0.0
 11
93.61579137104454
 21
100.8825757480374
 31
0.0
 11
94.34174212301871
 21
100.9370263823325
 31
0.0
 11
95.06626516905008
 21
101.0005858898446
 31
0.0
 11
95.63206853504536
 21
101.0620861449951
 31
0.0
 11
96.1989298333279
 21
101.1401968030712
 31
0.0
 11
96.58627158543968
 21
101.2014154051489
 31
0.0
 11
96.96282403112518
 21
101.2654404874649
 31
0.0
 11
97.17116873377452
 21
101.3276062946688
 31
0.0
 11
97.39135654106771
 21
101.4427367267328
 31
0.0
 11
97.45787288386619
 21
101.5260553639926
 31
0.0
 11
97.39135654106769
 21
101.6093740012523
 31
0.0
  0
SPLINE
  5
188
330
45
100
AcDbEntity
  8
1
  6
Continuous
 62
     7
100
AcDbSpline
210
0.0
220
0.0
230
1.0
 70
     8
 71
     3
 72
    45
 73
    41
 74
    39
 42
0.0000000001
 43
0.0000000001
 44
0.00000001
 40
0.0
 40
0.0
 40
0.0
 40
0.0
 40
0.5652742716648594
 40
1.131634079615504
 40
2.263079738862021
 40
3.394524123368623
 40
4.526205953264046
 40
5.657885390020084
 40
6.789928518589604
 40
7.921968428223609
 40
9.05445431401259
 40
10.18693654678228
 40
11.31989318659792
 40
12.45284618126669
 40
13.58624479359579
 40
14.7196402069229
 40
15.85339876281719
 40
16.98715494823988
 40
18.12114809605181
 40
19.25513998391914
 40
20.38921415649406
 40
21.52328832906896
 40
22.65728021693629
 40
23.79127336474824
 40
24.92502955017096
 40
26.05878810606523
 40
27.1921835193923
 40
28.32558213172144
 40
29.45853512639018
 40
30.59149176620583
 40
31.72397399897549
 40
32.85645988476448
 40
33.98849979439849
 40
35.12054292296797
 40
36.25222235972401
 40
37.38390418961938
 40
38.51534857412597
 40
39.64679423337248
 40
40.77815741715985
 40
41.90952060094735
 40
41.90952060094735
 40
41.90952060094735
 40
41.90952060094735
 10
71.45787288386572
 20
259.1309769774379
 30
0.0
 10
71.46026995125806
 20
258.9425349179627
 30
0.0
 10
71.46506868930131
 20
258.5652889203571
 30
0.0
 10
71.51634565145665
 20
257.8123644613913
 30
0.0
 10
71.63881988463818
 20
256.8760494695024
 30
0.0
 10
71.88517155317061
 20
255.7701661904889
 30
0.0
 10
72.22630992966931
 20
254.6897090083135
 30
0.0
 10
72.66118720273713
 20
253.6432222582532
 30
0.0
 10
73.18528171959501
 20
252.6383181889254
 30
0.0
 10
73.79569833868351
 20
251.6830640071935
 30
0.0
 10
74.48675210880313
 20
250.7842353022259
 30
0.0
 10
75.25416799175595
 20
249.9492434935011
 30
0.0
 10
76.09117212468405
 20
249.1837928051143
 30
0.0
 10
76.99226124513127
 20
248.4944317322215
 30
0.0
 10
77.94978095931481
 20
247.8856071094924
 30
0.0
 10
78.95715718548517
 20
247.3628155850512
 30
0.0
 10
80.00610139495439
 20
246.9291061831817
 30
0.0
 10
81.08915351954381
 20
246.5887593014567
 30
0.0
 10
82.19765773044652
 20
246.3433361406035
 30
0.0
 10
83.32348032764651
 20
246.1957655064262
 30
0.0
 10
84.45787288386589
 20
246.1460831320782
 30
0.0
 10
85.5922654400848
 20
246.195765506426
 30
0.0
 10
86.71808803728604
 20
246.3433361406041
 30
0.0
 10
87.82659224818409
 20
246.5887593014548
 30
0.0
 10
88.90964437279109
 20
246.9291061831895
 30
0.0
 10
89.95858858219482
 20
247.3628155850221
 30
0.0
 10
90.96596480860922
 20
247.8856071096011
 30
0.0
 10
91.92348452188237
 20
248.4944317318164
 30
0.0
 10
92.82457364572578
 20
249.1837928066256
 30
0.0
 10
93.66157776598226
 20
249.9492434878618
 30
0.0
 10
94.428993696207
 20
250.7842353232626
 30
0.0
 10
95.12004728994349
 20
251.6830639286953
 30
0.0
 10
95.73046456705554
 20
252.6383184817571
 30
0.0
 10
96.25455662859397
 20
253.6432211655209
 30
0.0
 10
96.68944306223501
 20
254.6897130849943
 30
0.0
 10
97.03054725561762
 20
255.7701509772579
 30
0.0
 10
97.2770264718574
 20
256.8761062328587
 30
0.0
 10
97.42348292110283
 20
257.9991354479117
 30
0.0
 10
97.47886171809125
 20
259.1313612652914
 30
0.0
 10
97.43182468207684
 20
259.8846229840924
 30
0.0
 10
97.40830616406964
 20
260.261253843493
 30
0.0
 11
71.45787288386572
 21
259.1309769774379
 31
0.0
 11
71.47026456381497
 21
258.5658385444197
 31
0.0
 11
71.50743960366187
 21
258.0007001114015
 31
0.0
 11
71.65538637652661
 21
256.8789688458006
 31
0.0
 11
71.9009454229173
 21
255.7744928841032
 31
0.0
 11
72.24192165792857
 21
254.6954011496928
 31
0.0
 11
72.67599696207878
 21
253.6502805930567
 31
0.0
 11
73.19964665050759
 21
252.6466309287067
 31
0.0
 11
73.80903840821532
 21
251.6926099422278
 31
0.0
 11
74.49944706419375
 21
250.794912794376
 31
0.0
 11
75.26563566152964
 21
249.9609637306728
 31
0.0
 11
76.10181488194284
 21
249.1965063681917
 31
0.0
 11
77.00152453809051
 21
248.5079535214446
 31
0.0
 11
77.95805260924139
 21
247.8999679430548
 31
0.0
 11
78.96395737364202
 21
247.3777220546966
 31
0.0
 11
80.01175567193104
 21
246.9446779585977
 31
0.0
 11
81.09330667237921
 21
246.6046036705168
 31
0.0
 11
82.20052720297531
 21
246.359648254347
 31
0.0
 11
83.324876834808
 21
246.2120829903225
 31
0.0
 11
84.4578728838658
 21
246.1626443240694
 31
0.0
 11
85.5908689329236
 21
246.2120829903225
 31
0.0
 11
86.71521856475627
 21
246.359648254347
 31
0.0
 11
87.82243909535239
 21
246.6046036705168
 31
0.0
 11
88.90399009580061
 21
246.9446779585977
 31
0.0
 11
89.95178839408959
 21
247.3777220546967
 31
0.0
 11
90.95769315849017
 21
247.8999679430549
 31
0.0
 11
91.9142212296411
 21
248.5079535214446
 31
0.0
 11
92.81393088578879
 21
249.1965063681917
 31
0.0
 11
93.65011010620196
 21
249.9609637306728
 31
0.0
 11
94.41629870353785
 21
250.794912794376
 31
0.0
 11
95.10670735951629
 21
251.6926099422278
 31
0.0
 11
95.71609911722403
 21
252.6466309287067
 31
0.0
 11
96.23974880565275
 21
253.6502805930567
 31
0.0
 11
96.67382410980289
 21
254.6954011496928
 31
0.0
 11
97.01480034481418
 21
255.7744928841032
 31
0.0
 11
97.26035939120492
 21
256.8789688458005
 31
0.0
 11
97.40830616406963
 21
258.0007001114014
 31
0.0
 11
97.45787288386578
 21
259.1309769774472
 31
0.0
 11
97.40830616406964
 21
260.261253843493
 31
0.0
  0
ARC
  5
189
330
45
100
AcDbEntity
  8
1
  6
Continuous
 62
     7
100
AcDbCircle
 10
237.8980771683856
 20
170.0260553639926
 30
0.0
 40
20.0000000000001
100
AcDbArc
 50
-108.2975245663355
 51
-90.0
  0
ARC
  5
18A
330
45
100
AcDbEntity
  8
1
  6
Continuous
 62
     7
100
AcDbCircle
 10
237.898077168386
 20
103.0260553639926
 30
0.0
 40
20.0
100
AcDbArc
 50
90.0
 51
108.2975245663361
  0
ARC
  5
18B
330
45
100
AcDbEntity
  8
1
  6
Continuous
 62
     7
100
AcDbCircle
 10
249.5372050271647
 20
155.0260553639925
 30
0.0
 40
5.0
100
AcDbArc
 50
-90.0
 51
0.0
  0
ARC
  5
18C
330
45
100
AcDbEntity
  8
1
  6
Continuous
 62
     7
100
AcDbCircle
 10
249.5372050271647
 20
118.0260553639926
 30
0.0
 40
5.0
100
AcDbArc
 50
0.0
 51
90.0
  0
ARC
  5
18D
330
45
100
AcDbEntity
  8
1
  6
Continuous
 62
     7
100
AcDbCircle
 10
256.5372050271647
 20
108.5260553639926
 30
0.0
 40
2.0
100
AcDbArc
 50
180.0
 51
-90.0
  0
ARC
  5
18E
330
45
100
AcDbEntity
  8
1
  6
Continuous
 62
     7
100
AcDbCircle
 10
256.5372050271647
 20
164.5260553639926
 30
0.0
 40
2.0
100
AcDbArc
 50
90.0
 51
180.0
  0
ARC
  5
18F
330
45
100
AcDbEntity
  8
1
  6
Continuous
 62
     7
100
AcDbCircle
 10
170.0372050271648
 20
162.7298530867537
 30
0.0
 40
10.00000000000009
100
AcDbArc
 50
-68.56917497312018
 51
0.0
  0
ARC
  5
190
330
45
100
AcDbEntity
  8
1
  6
Continuous
 62
     7
100
AcDbCircle
 10
225.0372050271648
 20
163.2925860336324
 30
0.0
 40
10.0
100
AcDbArc
 50
180.0
 51
-103.41217353809
  0
ARC
  5
191
330
45
100
AcDbEntity
  8
1
  6
Continuous
 62
     7
100
AcDbCircle
 10
164.2233015542777
 20
113.3882711675138
 30
0.0
 40
8.000000000000039
100
AcDbArc
 50
73.39244590493813
 51
176.8373080586524
  0
ARC
  5
192
330
45
100
AcDbEntity
  8
1
  6
Continuous
 62
     7
100
AcDbCircle
 10
111.9578728838661
 20
148.5156341722744
 30
0.0
 40
10.0
100
AcDbArc
 50
180.0
 51
-156.4435356908981
  0
ARC
  5
193
330
45
100
AcDbEntity
  8
1
  6
Continuous
 62
     7
100
AcDbCircle
 10
56.95787288386612
 20
148.5156341722744
 30
0.0
 40
9.999999999999963
100
AcDbArc
 50
-23.5564643091014
 51
0.0
  0
ARC
  5
194
330
45
100
AcDbEntity
  8
1
  6
Continuous
 62
     7
100
AcDbCircle
 10
117.9578728838657
 20
354.4918491186684
 30
0.0
 40
19.99999999999987
100
AcDbArc
 50
180.0
 51
-161.7024754336642
  0
ARC
  5
195
330
45
100
AcDbEntity
  8
1
  6
Continuous
 62
     7
100
AcDbCircle
 10
65.95787288386572
 20
366.1309769774471
 30
0.0
 40
5.0
100
AcDbArc
 50
0.0
 51
90.0
  0
ARC
  5
196
330
45
100
AcDbEntity
  8
1
  6
Continuous
 62
     7
100
AcDbCircle
 10
102.9578728838657
 20
366.1309769774471
 30
0.0
 40
5.0
100
AcDbArc
 50
90.0
 51
180.0
  0
ARC
  5
197
330
45
100
AcDbEntity
  8
1
  6
Continuous
 62
     7
100
AcDbCircle
 10
112.4578728838657
 20
373.1309769774471
 30
0.0
 40
2.0
100
AcDbArc
 50
-90.0
 51
0.0
  0
ARC
  5
198
330
45
100
AcDbEntity
  8
1
  6
Continuous
 62
     7
100
AcDbCircle
 10
56.45787288386572
 20
373.1309769774471
 30
0.0
 40
2.0
100
AcDbArc
 50
180.0
 51
-90.0
  0
ARC
  5
199
330
45
100
AcDbEntity
  8
1
  6
Continuous
 62
     7
100
AcDbCircle
 10
117.4578728838658
 20
272.2883229948461
 30
0.0
 40
19.99999999999996
100
AcDbArc
 50
161.0054849801912
 51
180.0
  0
ARC
  5
19A
330
45
100
AcDbEntity
  8
1
  6
Continuous
 62
     7
100
AcDbCircle
 10
50.95787288386572
 20
354.4918491186681
 30
0.0
 40
20.00000000000012
100
AcDbArc
 50
-18.29752456633538
 51
0.0
  0
ARC
  5
19B
330
45
100
AcDbEntity
  8
1
  6
Continuous
 62
     7
100
AcDbCircle
 10
51.45787288386572
 20
272.2883229948461
 30
0.0
 40
20.0
100
AcDbArc
 50
0.0
 51
18.99451501980876
  0
ENDBLK
  5
47
330
45
100
AcDbEntity
  8
0
100
AcDbBlockEnd
  0
BLOCK
  5
1B8
330
1B1
100
AcDbEntity
  8
0
100
AcDbBlockBegin
  2
*D07
 70
     1
 71
     0
 10
0.0
 20
0.0
 30
0.0
  3
*D07
  1

  0
LINE
  5
1B2
330
1B1
100
AcDbEntity
  8
1
  6
Continuous
 62
     2
100
AcDbLine
 10
121.5372050271648
 20
101.5260553639926
 30
0.0
 11
121.5372050271648
 21
136.5260553639926
 31
0.0
  0
LINE
  5
1B3
330
1B1
100
AcDbEntity
  8
1
  6
Continuous
 62
     2
100
AcDbLine
 10
130.7650998951527
 20
136.5260553639926
 30
0.0
 11
120.0372050271648
 21
136.5260553639926
 31
0.0
  0
LINE
  5
1B4
330
1B1
100
AcDbEntity
  8
1
  6
Continuous
 62
     2
100
AcDbLine
 10
142.5372050271648
 20
101.5260553639926
 30
0.0
 11
120.0372050271648
 21
101.5260553639926
 31
0.0
  0
SOLID
  5
1B5
330
1B1
100
AcDbEntity
  8
1
 62
     2
100
AcDbTrace
 10
120.846029414831
 20
106.7760553639926
 30
0.0
 11
122.2283806394986
 21
106.7760553639926
 31
0.0
 12
121.5372050271648
 22
101.5260553639926
 32
0.0
 13
121.5372050271648
 23
101.5260553639926
 33
0.0
  0
SOLID
  5
1B6
330
1B1
100
AcDbEntity
  8
1
 62
     2
100
AcDbTrace
 10
122.2283806394986
 20
131.2760553639926
 30
0.0
 11
120.846029414831
 21
131.2760553639926
 31
0.0
 12
121.5372050271648
 22
136.5260553639926
 32
0.0
 13
121.5372050271648
 23
136.5260553639926
 33
0.0
  0
MTEXT
  5
1B7
330
1B1
100
AcDbEntity
  8
1
 62
     7
100
AcDbMText
 10
120.0372050271648
 20
115.224697361122
 30
0.0
 40
5.25
 41
0.0
 71
     7
 72
     1
  1
35
  7
CONVERTER_2
 11
0.0
 21
1.0
 31
0.0
 73
     1
 44
0.60024009603842
  0
ENDBLK
  5
1B9
330
1B1
100
AcDbEntity
  8
0
100
AcDbBlockEnd
  0
BLOCK
  5
1C3
330
1BC
100
AcDbEntity
  8
0
100
AcDbBlockBegin
  2
*D18
 70
     1
 71
     0
 10
0.0
 20
0.0
 30
0.0
  3
*D18
  1

  0
LINE
  5
1BD
330
1BC
100
AcDbEntity
  8
1
  6
Continuous
 62
     2
100
AcDbLine
 10
142.5372050271648
 20
85.61922120531888
 30
0.0
 11
197.5372050271648
 21
85.61922120531888
 31
0.0
  0
LINE
  5
1BE
330
1BC
100
AcDbEntity
  8
1
  6
Continuous
 62
     2
100
AcDbLine
 10
197.5372050271648
 20
112.5147726664096
 30
0.0
 11
197.5372050271648
 21
84.11922120531888
 31
0.0
  0
LINE
  5
1BF
330
1BC
100
AcDbEntity
  8
1
  6
Continuous
 62
     2
100
AcDbLine
 10
142.5372050271648
 20
101.5260553639926
 30
0.0
 11
142.5372050271648
 21
84.11922120531888
 31
0.0
  0
SOLID
  5
1C0
330
1BC
100
AcDbEntity
  8
1
 62
     2
100
AcDbTrace
 10
147.7872050271648
 20
86.3103968176527
 30
0.0
 11
147.7872050271648
 21
84.92804559298506
 31
0.0
 12
142.5372050271648
 22
85.61922120531888
 32
0.0
 13
142.5372050271648
 23
85.61922120531888
 33
0.0
  0
SOLID
  5
1C1
330
1BC
100
AcDbEntity
  8
1
 62
     2
100
AcDbTrace
 10
192.2872050271648
 20
84.92804559298506
 30
0.0
 11
192.2872050271648
 21
86.3103968176527
 31
0.0
 12
197.5372050271648
 22
85.61922120531888
 32
0.0
 13
197.5372050271648
 23
85.61922120531888
 33
0.0
  0
MTEXT
  5
1C2
330
1BC
100
AcDbEntity
  8
1
 62
     7
100
AcDbMText
 10
166.0997050271648
 20
87.11922120531888
 30
0.0
 40
5.25
 41
0.0
 71
     7
 72
     1
  1
55
  7
CONVERTER_2
 11
0.9999999999970621
 21
2.424068405545307E-6
 31
0.0
 73
     1
 44
0.60024009603842
  0
ENDBLK
  5
1C4
330
1BC
100
AcDbEntity
  8
0
100
AcDbBlockEnd
  0
BLOCK
  5
1CE
330
1C7
100
AcDbEntity
  8
0
100
AcDbBlockBegin
  2
*D29
 70
     1
 71
     0
 10
0.0
 20
0.0
 30
0.0
  3
*D29
  1

  0
LINE
  5
1C8
330
1C7
100
AcDbEntity
  8
1
  6
Continuous
 62
     2
100
AcDbLine
 10
121.2911933627323
 20
212.5260553639925
 30
0.0
 11
121.2911933627323
 21
136.5260553639926
 31
0.0
  0
LINE
  5
1C9
330
1C7
100
AcDbEntity
  8
1
  6
Continuous
 62
     2
100
AcDbLine
 10
197.5372050271648
 20
212.5260553639925
 30
0.0
 11
119.7911933627323
 21
212.5260553639925
 31
0.0
  0
LINE
  5
1CA
330
1C7
100
AcDbEntity
  8
1
  6
Continuous
 62
     2
100
AcDbLine
 10
130.7650998951527
 20
136.5260553639926
 30
0.0
 11
119.7911933627323
 21
136.5260553639926
 31
0.0
  0
SOLID
  5
1CB
330
1C7
100
AcDbEntity
  8
1
 62
     2
100
AcDbTrace
 10
121.9823689750661
 20
207.2760553639925
 30
0.0
 11
120.6000177503985
 21
207.2760553639925
 31
0.0
 12
121.2911933627323
 22
212.5260553639925
 32
0.0
 13
121.2911933627323
 23
212.5260553639925
 33
0.0
  0
SOLID
  5
1CC
330
1C7
100
AcDbEntity
  8
1
 62
     2
100
AcDbTrace
 10
120.6000177503985
 20
141.7760553639926
 30
0.0
 11
121.9823689750661
 21
141.7760553639926
 31
0.0
 12
121.2911933627323
 22
136.5260553639926
 32
0.0
 13
121.2911933627323
 23
136.5260553639926
 33
0.0
  0
MTEXT
  5
1CD
330
1C7
100
AcDbEntity
  8
1
 62
     7
100
AcDbMText
 10
119.7911933627323
 20
164.8501840508731
 30
0.0
 40
5.25
 41
0.0
 71
     7
 72
     1
  1
76リフト8
  7
CONVERTER_1
 11
0.0
 21
1.0
 31
0.0
 73
     1
 44
0.60024009603842
  0
ENDBLK
  5
1CF
330
1C7
100
AcDbEntity
  8
0
100
AcDbBlockEnd
  0
BLOCK
  5
1D9
330
1D2
100
AcDbEntity
  8
0
100
AcDbBlockBegin
  2
*D310
 70
     1
 71
     0
 10
0.0
 20
0.0
 30
0.0
  3
*D310
  1

  0
LINE
  5
1D3
330
1D2
100
AcDbEntity
  8
1
  6
Continuous
 62
     2
100
AcDbLine
 10
290.5372050271647
 20
166.5260553639926
 30
0.0
 11
290.5372050271647
 21
106.5260553639926
 31
0.0
  0
LINE
  5
1D4
330
1D2
100
AcDbEntity
  8
1
  6
Continuous
 62
     2
100
AcDbLine
 10
257.5372050271648
 20
106.5260553639926
 30
0.0
 11
292.0372050271647
 21
106.5260553639926
 31
0.0
  0
LINE
  5
1D5
330
1D2
100
AcDbEntity
  8
1
  6
Continuous
 62
     2
100
AcDbLine
 10
257.5372050271648
 20
166.5260553639926
 30
0.0
 11
292.0372050271647
 21
166.5260553639926
 31
0.0
  0
SOLID
  5
1D6
330
1D2
100
AcDbEntity
  8
1
 62
     2
100
AcDbTrace
 10
291.2283806394985
 20
161.2760553639926
 30
0.0
 11
289.8460294148309
 21
161.2760553639926
 31
0.0
 12
290.5372050271647
 22
166.5260553639926
 32
0.0
 13
290.5372050271647
 23
166.5260553639926
 33
0.0
  0
SOLID
  5
1D7
330
1D2
100
AcDbEntity
  8
1
 62
     2
100
AcDbTrace
 10
289.8460294148309
 20
111.7760553639926
 30
0.0
 11
291.2283806394985
 21
111.7760553639926
 31
0.0
 12
290.5372050271647
 22
106.5260553639926
 32
0.0
 13
290.5372050271647
 23
106.5260553639926
 33
0.0
  0
MTEXT
  5
1D8
330
1D2
100
AcDbEntity
  8
1
 62
     7
100
AcDbMText
 10
289.0372050271647
 20
127.1285553639926
 30
0.0
 40
5.25
 41
0.0
 71
     7
 72
     1
  1
\C7;{\Fgdt;n}\C7;60
  7
CONVERTER_2
 11
0.0
 21
1.0
 31
0.0
 73
     1
 44
0.60024009603842
  0
ENDBLK
  5
1DA
330
1D2
100
AcDbEntity
  8
0
100
AcDbBlockEnd
  0
BLOCK
  5
1E4
330
1DD
100
AcDbEntity
  8
0
100
AcDbBlockBegin
  2
*D411
 70
     1
 71
     0
 10
0.0
 20
0.0
 30
0.0
  3
*D411
  1

  0
LINE
  5
1DE
330
1DD
100
AcDbEntity
  8
1
  6
Continuous
 62
     2
100
AcDbLine
 10
257.5372050271648
 20
85.61922120531888
 30
0.0
 11
275.5372050271648
 21
85.61922120531888
 31
0.0
  0
LINE
  5
1DF
330
1DD
100
AcDbEntity
  8
1
  6
Continuous
 62
     2
100
AcDbLine
 10
275.5372050271648
 20
121.3805553639926
 30
0.0
 11
275.5372050271648
 21
84.11922120531888
 31
0.0
  0
LINE
  5
1E0
330
1DD
100
AcDbEntity
  8
1
  6
Continuous
 62
     2
100
AcDbLine
 10
257.5372050271648
 20
106.5260553639926
 30
0.0
 11
257.5372050271648
 21
84.11922120531888
 31
0.0
  0
SOLID
  5
1E1
330
1DD
100
AcDbEntity
  8
1
 62
     2
100
AcDbTrace
 10
262.7872050271648
 20
86.3103968176527
 30
0.0
 11
262.7872050271648
 21
84.92804559298506
 31
0.0
 12
257.5372050271648
 22
85.61922120531888
 32
0.0
 13
257.5372050271648
 23
85.61922120531888
 33
0.0
  0
SOLID
  5
1E2
330
1DD
100
AcDbEntity
  8
1
 62
     2
100
AcDbTrace
 10
270.2872050271648
 20
84.92804559298506
 30
0.0
 11
270.2872050271648
 21
86.3103968176527
 31
0.0
 12
275.5372050271648
 22
85.61922120531888
 32
0.0
 13
275.5372050271648
 23
85.61922120531888
 33
0.0
  0
MTEXT
  5
1E3
330
1DD
100
AcDbEntity
  8
1
 62
     7
100
AcDbMText
 10
263.3872050271647
 20
87.11922120531888
 30
0.0
 40
5.25
 41
0.0
 71
     7
 72
     1
  1
18
  7
CONVERTER_2
 11
0.9999999999970621
 21
2.424068405545307E-6
 31
0.0
 73
     1
 44
0.60024009603842
  0
ENDBLK
  5
1E5
330
1DD
100
AcDbEntity
  8
0
100
AcDbBlockEnd
  0
BLOCK
  5
1EF
330
1E8
100
AcDbEntity
  8
0
100
AcDbBlockBegin
  2
*D512
 70
     1
 71
     0
 10
0.0
 20
0.0
 30
0.0
  3
*D512
  1

  0
LINE
  5
1E9
330
1E8
100
AcDbEntity
  8
1
  6
Continuous
 62
     2
100
AcDbLine
 10
197.5372050271648
 20
85.61922120531888
 30
0.0
 11
257.5372050271648
 21
85.61922120531888
 31
0.0
  0
LINE
  5
1EA
330
1E8
100
AcDbEntity
  8
1
  6
Continuous
 62
     2
100
AcDbLine
 10
257.5372050271648
 20
106.5260553639926
 30
0.0
 11
257.5372050271648
 21
84.11922120531888
 31
0.0
  0
LINE
  5
1EB
330
1E8
100
AcDbEntity
  8
1
  6
Continuous
 62
     2
100
AcDbLine
 10
197.5372050271648
 20
112.5147726664096
 30
0.0
 11
197.5372050271648
 21
84.11922120531888
 31
0.0
  0
SOLID
  5
1EC
330
1E8
100
AcDbEntity
  8
1
 62
     2
100
AcDbTrace
 10
202.7872050271648
 20
86.3103968176527
 30
0.0
 11
202.7872050271648
 21
84.92804559298506
 31
0.0
 12
197.5372050271648
 22
85.61922120531888
 32
0.0
 13
197.5372050271648
 23
85.61922120531888
 33
0.0
  0
SOLID
  5
1ED
330
1E8
100
AcDbEntity
  8
1
 62
     2
100
AcDbTrace
 10
252.2872050271648
 20
84.92804559298506
 30
0.0
 11
252.2872050271648
 21
86.3103968176527
 31
0.0
 12
257.5372050271648
 22
85.61922120531888
 32
0.0
 13
257.5372050271648
 23
85.61922120531888
 33
0.0
  0
MTEXT
  5
1EE
330
1E8
100
AcDbEntity
  8
1
 62
     7
100
AcDbMText
 10
223.5997050271647
 20
87.11922120531888
 30
0.0
 40
5.25
 41
0.0
 71
     7
 72
     1
  1
60
  7
CONVERTER_2
 11
0.9999999999970621
 21
2.424068405545307E-6
 31
0.0
 73
     1
 44
0.60024009603842
  0
ENDBLK
  5
1F0
330
1E8
100
AcDbEntity
  8
0
100
AcDbBlockEnd
  0
ENDSEC
  0
SECTION
  2
ENTITIES
  0
INSERT
  5
48
330
1F
100
AcDbEntity
  8
0
100
AcDbBlockReference
  2
21-1C
 10
-317.4008109874356
 20
237.458163924338
 30
0.0
  0
INSERT
  5
49
330
1F
100
AcDbEntity
  8
1
100
AcDbBlockReference
  2
37-1-25
 10
-249.2955252022524
 20
104.2930372277942
 30
0.0
  0
INSERT
  5
4A
330
1F
100
AcDbEntity
  8
1
100
AcDbBlockReference
  2
42-1
 10
195.6803068724039
 20
620.6367781674549
 30
0.0
  0
INSERT
  5
4B
330
1F
100
AcDbEntity
  8
1
100
AcDbBlockReference
  2
36-1-25
 10
138.5084397110198
 20
83.74694590992681
 30
0.0
  0
INSERT
  5
4C
330
1F
100
AcDbEntity
  8
1
100
AcDbBlockReference
  2
_J__A4
 10
0.0
 20
0.0
 30
0.0
 41
1.5
 42
1.5
 43
1.5
  0
INSERT
  5
4D
330
1F
100
AcDbEntity
  8
0
100
AcDbBlockReference
  2
Y10-0-25
 10
-263.280761811134
 20
136.5260553639925
 30
0.0
  0
LINE
  5
19C
330
1F
100
AcDbEntity
  8
1
  6
DASH_CENTER
 62
     2
100
AcDbLine
 10
50.29839249968416
 20
136.5260553639926
 30
0.0
 11
118.2983924996842
 21
136.5260553639926
 31
0.0
  0
LINE
  5
19D
330
1F
100
AcDbEntity
  8
1
  6
DASH_CENTER
 62
     2
100
AcDbLine
 10
68.29839249968416
 20
101.5260553639926
 30
0.0
 11
100.2983924996842
 21
101.5260553639926
 31
0.0
  0
LINE
  5
19E
330
1F
100
AcDbEntity
  8
1
  6
DASH_CENTER
 62
     2
100
AcDbLine
 10
84.45787288386612
 20
217.0260553639925
 30
0.0
 11
84.45787288386612
 21
96.51477266640961
 31
0.0
  0
LINE
  5
19F
330
1F
100
AcDbEntity
  8
1
  6
DASH_CENTER
 62
     2
100
AcDbLine
 10
64.29839249968381
 20
259.1309769774472
 30
0.0
 11
104.2983924996838
 21
259.1309769774472
 31
0.0
  0
LINE
  5
1A0
330
1F
100
AcDbEntity
  8
1
  6
DASH_CENTER
 62
     2
100
AcDbLine
 10
116.4996551769569
 20
332.6303086096783
 30
0.0
 11
65.94651627194611
 21
303.4434402544898
 31
0.0
  0
LINE
  5
1A1
330
1F
100
AcDbEntity
  8
1
  6
DASH_CENTER
 62
     2
100
AcDbLine
 10
52.41609059077473
 20
332.6303086096783
 30
0.0
 11
103.6039040132717
 21
303.0770107509714
 31
0.0
  0
LINE
  5
1A2
330
1F
100
AcDbEntity
  8
1
  6
DASH_CENTER
 62
     2
100
AcDbLine
 10
145.6415046975649
 20
145.9196089112068
 30
0.0
 11
142.5372050271648
 21
101.5260553639926
 31
0.0
  0
LINE
  5
1A3
330
1F
100
AcDbEntity
  8
1
  6
DASH_CENTER
 62
     2
100
AcDbLine
 10
197.5372050271648
 20
217.3099506371859
 30
0.0
 11
197.5372050271648
 21
112.5147726664096
 31
0.0
  0
LINE
  5
1A4
330
1F
100
AcDbEntity
  8
1
  6
DASH_CENTER
 62
     2
100
AcDbLine
 10
278.0109460343589
 20
136.5260553639926
 30
0.0
 11
130.7650998951526
 21
136.5260553639926
 31
0.0
  0
LINE
  5
1A5
330
1F
100
AcDbEntity
  8
1
  6
DASH_CENTER
 62
     2
100
AcDbLine
 10
142.5372050271648
 20
101.5260553639926
 30
0.0
 11
142.150145143281
 21
95.9908411432092
 31
0.0
  0
LINE
  5
1A6
330
1F
100
AcDbEntity
  8
1
  6
DASH_CENTER
 62
     2
100
AcDbLine
 10
84.45787288386612
 20
238.3504182613317
 30
0.0
 11
84.45787288386606
 21
398.3504182613316
 31
0.0
  0
LINE
  5
1A7
330
1F
100
AcDbEntity
  8
1
  6
DASH_CENTER
 62
     2
100
AcDbLine
 10
59.95787288386575
 20
314.1309769774472
 30
0.0
 11
108.9578728838658
 21
314.1309769774472
 31
0.0
  0
SOLID
  5
1A8
330
1F
100
AcDbEntity
  8
1
 62
     2
100
AcDbTrace
 10
103.1087972451084
 20
387.2836981534823
 30
0.0
 11
104.3059485226231
 21
386.5925225411485
 31
0.0
 12
101.0823728838657
 22
382.3914769774471
 32
0.0
 13
101.0823728838657
 23
382.3914769774471
 33
0.0
  0
LEADER
  5
1A9
330
1F
100
AcDbEntity
  8
1
  6
Continuous
 62
     2
100
AcDbLeader
  3
Standard
 71
     0
 76
     3
 10
101.0823728838657
 20
382.3914769774471
 30
0.0
 10
110.9763197858093
 20
399.5282956990021
 30
0.0
 10
126.708158612644
 20
399.5282956990021
 30
0.0
  0
MTEXT
  5
1AB
330
1F
100
AcDbEntity
  8
1
 62
     7
100
AcDbMText
 10
118.3422391992267
 20
404.0282956990021
 30
0.0
 40
5.25
 41
0.0
 71
     5
 72
     1
  1
PJ1
  7
CONVERTER_2
 73
     1
 44
1.32052821128451
  0
MTEXT
  5
1AC
330
1F
100
AcDbEntity
  8
1
 62
     7
100
AcDbMText
 10
127.875
 20
25.5
 30
0.0
 40
5.25
 41
0.0
 71
     5
 72
     1
  1
1
  7
CONVERTER_2
 73
     1
 44
1.32052821128451
  0
MTEXT
  5
1AD
330
1F
100
AcDbEntity
  8
1
 62
     7
100
AcDbMText
 10
85.5
 20
21.375
 30
0.0
 40
5.25
 41
0.0
 71
     5
 72
     1
  1
Y10J-25
  7
CONVERTER_2
 73
     1
 44
0.90036014405762
  0
MTEXT
  5
1AE
330
1F
100
AcDbEntity
  8
1
 62
     7
100
AcDbMText
 10
85.5
 20
34.12500000000001
 30
0.0
 40
5.25
 41
0.0
 71
     5
 72
     1
  1
横水栓
  7
CONVERTER_1
 73
     1
 44
1.32052821128451
  0
MTEXT
  5
1AF
330
1F
100
AcDbEntity
  8
1
 62
     7
100
AcDbMText
 10
51.0
 20
51.00000000000001
 30
0.0
 40
5.25
 41
0.0
 71
     4
 72
     1
  1
JIS
  7
CONVERTER_2
 73
     1
 44
0.7202881152461
  0
MTEXT
  5
1B0
330
1F
100
AcDbEntity
  8
1
 62
     7
100
AcDbMText
 10
140.625
 20
25.5
 30
0.0
 40
5.25
 41
0.0
 71
     5
 72
     1
  1
1,5
  7
CONVERTER_2
 73
     1
 44
1.32052821128451
  0
DIMENSION
  5
1BB
330
1F
100
AcDbEntity
  8
1
100
AcDbDimension
  2
*D07
 10
121.5372050271648
 20
101.5260553639926
 30
0.0
 11
117.4122050271648
 21
119.162197361122
 31
0.0
  1
<>
 71
     5
 42
0.0
 53
90.0
  3
ME10_DIM_0
100
AcDbAlignedDimension
 13
130.7650998951526
 23
136.5260553639926
 33
0.0
 14
142.5372050271648
 24
101.5260553639926
 34
0.0
 50
90.0
100
AcDbRotatedDimension
  0
DIMENSION
  5
1C6
330
1F
100
AcDbEntity
  8
1
100
AcDbDimension
  2
*D18
 10
142.5372050271648
 20
85.61922120531888
 30
0.0
 11
170.0372050271648
 21
89.74422120531888
 31
0.0
  1
<>
 71
     5
 42
0.0
 53
0.00013888888889
  3
ME10_DIM_1
100
AcDbAlignedDimension
 13
197.5372050271648
 23
112.5147726664096
 33
0.0
 14
142.5372050271648
 24
101.5260553639926
 34
0.0
100
AcDbRotatedDimension
  0
DIMENSION
  5
1D1
330
1F
100
AcDbEntity
  8
1
100
AcDbDimension
  2
*D29
 10
121.2911933627323
 20
212.5260553639925
 30
0.0
 11
117.1661933627323
 21
179.0251840508731
 31
0.0
  1
76リフト8
 71
     5
 42
0.0
 53
90.0
  3
ME10_DIM_2
100
AcDbAlignedDimension
 13
130.7650998951526
 23
136.5260553639926
 33
0.0
 14
197.5372050271648
 24
212.5260553639925
 34
0.0
 50
90.0
100
AcDbRotatedDimension
  0
DIMENSION
  5
1DC
330
1F
100
AcDbEntity
  8
1
100
AcDbDimension
  2
*D310
 10
290.5372050271647
 20
166.5260553639926
 30
0.0
 11
286.4122050271647
 21
136.5260553639926
 31
0.0
  1
<>
 71
     5
 42
0.0
 53
90.0
  3
ME10_DIM_3
100
AcDbAlignedDimension
 13
257.5372050271647
 23
106.5260553639926
 33
0.0
 14
257.5372050271647
 24
166.5260553639926
 34
0.0
 50
90.0
100
AcDbRotatedDimension
  0
DIMENSION
  5
1E7
330
1F
100
AcDbEntity
  8
1
100
AcDbDimension
  2
*D411
 10
257.5372050271648
 20
85.61922120531888
 30
0.0
 11
266.5372050271647
 21
89.74422120531888
 31
0.0
  1
<>
 71
     5
 42
0.0
 53
0.00013888888889
  3
ME10_DIM_4
100
AcDbAlignedDimension
 13
275.5372050271647
 23
121.3805553639926
 33
0.0
 14
257.5372050271647
 24
106.5260553639926
 34
0.0
100
AcDbRotatedDimension
  0
DIMENSION
  5
1F2
330
1F
100
AcDbEntity
  8
1
100
AcDbDimension
  2
*D512
 10
197.5372050271648
 20
85.61922120531888
 30
0.0
 11
227.5372050271647
 21
89.74422120531888
 31
0.0
  1
<>
 71
     5
 42
0.0
 53
0.00013888888889
  3
ME10_DIM_5
100
AcDbAlignedDimension
 13
257.5372050271647
 23
106.5260553639926
 33
0.0
 14
197.5372050271648
 24
112.5147726664096
 34
0.0
100
AcDbRotatedDimension
  0
ENDSEC
  0
SECTION
  2
OBJECTS
  0
DICTIONARY
  5
C
330
0
100
AcDbDictionary
281
     1
  3
ACAD_GROUP
350
D
  3
ACAD_LAYOUT
350
1A
  3
ACAD_MLINESTYLE
350
17
  3
ACAD_PLOTSETTINGS
350
19
  3
ACAD_PLOTSTYLENAME
350
E
  3
ACAD_TABLESTYLE
350
2A
  3
AcDbVariableDictionary
350
2C
  0
DICTIONARY
  5
D
102
{ACAD_REACTORS
330
C
102
}
330
C
100
AcDbDictionary
281
     1
  0
DICTIONARY
  5
1A
102
{ACAD_REACTORS
330
C
102
}
330
C
100
AcDbDictionary
281
     1
  3
Layout1
350
1E
  3
Layout2
350
26
  3
Model
350
22
  0
DICTIONARY
  5
17
102
{ACAD_REACTORS
330
C
102
}
330
C
100
AcDbDictionary
281
     1
  3
Standard
350
18
  0
DICTIONARY
  5
19
102
{ACAD_REACTORS
330
C
102
}
330
C
100
AcDbDictionary
281
     1
  0
ACDBDICTIONARYWDFLT
  5
E
102
{ACAD_REACTORS
330
C
102
}
330
C
100
AcDbDictionary
281
     1
  3
Normal
350
F
100
AcDbDictionaryWithDefault
340
F
  0
DICTIONARY
  5
2A
102
{ACAD_REACTORS
330
C
102
}
330
C
100
AcDbDictionary
281
     1
  3
Standard
350
2B
  0
DICTIONARY
  5
2C
102
{ACAD_REACTORS
330
C
102
}
330
C
100
AcDbDictionary
281
     1
  3
CTABLESTYLE
350
2D
  0
LAYOUT
  5
1E
102
{ACAD_REACTORS
330
1A
102
}
330
1A
100
AcDbPlotSettings
  1

  2

  4

  6

 40
0.0
 41
0.0
 42
0.0
 43
0.0
 44
0.0
 45
0.0
 46
0.0
 47
0.0
 48
0.0
 49
0.0
140
0.0
141
0.0
142
1.0
143
1.0
 70
   688
 72
     0
 73
     0
 74
     5
  7

 75
    16
147
1.0
148
0.0
149
0.0
100
AcDbLayout
  1
Layout1
 70
     1
 71
     1
 10
0.0
 20
0.0
 11
12.0
 21
9.0
 12
0.0
 22
0.0
 32
0.0
 14
1.00000000000000E+20
 24
1.00000000000000E+20
 34
1.00000000000000E+20
 15
-1.00000000000000E+20
 25
-1.00000000000000E+20
 35
-1.00000000000000E+20
146
0.0
 13
0.0
 23
0.0
 33
0.0
 16
1.0
 26
0.0
 36
0.0
 17
0.0
 27
1.0
 37
0.0
 76
     0
330
1B
  0
LAYOUT
  5
26
102
{ACAD_REACTORS
330
1A
102
}
330
1A
100
AcDbPlotSettings
  1

  2

  4

  6

 40
0.0
 41
0.0
 42
0.0
 43
0.0
 44
0.0
 45
0.0
 46
0.0
 47
0.0
 48
0.0
 49
0.0
140
0.0
141
0.0
142
1.0
143
1.0
 70
   688
 72
     0
 73
     0
 74
     5
  7

 75
    16
147
1.0
148
0.0
149
0.0
100
AcDbLayout
  1
Layout2
 70
     1
 71
     2
 10
0.0
 20
0.0
 11
0.0
 21
0.0
 12
0.0
 22
0.0
 32
0.0
 14
0.0
 24
0.0
 34
0.0
 15
0.0
 25
0.0
 35
0.0
146
0.0
 13
0.0
 23
0.0
 33
0.0
 16
1.0
 26
0.0
 36
0.0
 17
0.0
 27
1.0
 37
0.0
 76
     0
330
23
  0
LAYOUT
  5
22
102
{ACAD_REACTORS
330
1A
102
}
330
1A
100
AcDbPlotSettings
  1

  2

  4

  6

 40
0.0
 41
0.0
 42
0.0
 43
0.0
 44
0.0
 45
0.0
 46
0.0
 47
0.0
 48
0.0
 49
0.0
140
0.0
141
0.0
142
1.0
143
1.0
 70
  1712
 72
     0
 73
     0
 74
     0
  7

 75
     0
147
1.0
148
0.0
149
0.0
100
AcDbLayout
  1
Model
 70
     1
 71
     0
 10
0.0
 20
0.0
 11
0.0
 21
0.0
 12
0.0
 22
0.0
 32
0.0
 14
0.0
 24
0.0
 34
0.0
 15
315.0
 25
445.5
 35
0.0
146
0.0
 13
0.0
 23
0.0
 33
0.0
 16
1.0
 26
0.0
 36
0.0
 17
0.0
 27
1.0
 37
0.0
 76
     0
330
1F
  0
MLINESTYLE
  5
18
102
{ACAD_REACTORS
330
17
102
}
330
17
100
AcDbMlineStyle
  2
Standard
 70
     0
  3

 62
   256
 51
90.0
 52
90.0
 71
     2
 49
0.5
 62
   256
  6
BYLAYER
 49
-0.5
 62
   256
  6
BYLAYER
  0
ACDBPLACEHOLDER
  5
F
102
{ACAD_REACTORS
330
E
102
}
330
E
  0
TABLESTYLE
  5
2B
102
{ACAD_REACTORS
330
2A
102
}
330
2A
100
AcDbTableStyle
  3
Standard
 70
     0
 71
     0
 40
0.06
 41
0.06
280
     0
281
     0
  7
Standard
140
0.18
170
     2
 62
     0
 63
     7
283
     0
274
    -2
284
     1
 64
     0
275
    -2
285
     1
 65
     0
276
    -2
286
     1
 66
     0
277
    -2
287
     1
 67
     0
278
    -2
288
     1
 68
     0
279
    -2
289
     1
 69
     0
  7
Standard
140
0.25
170
     5
 62
     0
 63
     7
283
     0
274
    -2
284
     1
 64
     0
275
    -2
285
     1
 65
     0
276
    -2
286
     1
 66
     0
277
    -2
287
     1
 67
     0
278
    -2
288
     1
 68
     0
279
    -2
289
     1
 69
     0
  7
Standard
140
0.18
170
     5
 62
     0
 63
     7
283
     0
274
    -2
284
     1
 64
     0
275
    -2
285
     1
 65
     0
276
    -2
286
     1
 66
     0
277
    -2
287
     1
 67
     0
278
    -2
288
     1
 68
     0
279
    -2
289
     1
 69
     0
  0
DICTIONARYVAR
  5
2D
102
{ACAD_REACTORS
330
2C
102
}
330
2C
100
DictionaryVariables
280
     0
  1
Standard
  0
ENDSEC
  0
EOF
