  0
SECTION
  2
HEADER
  9
$ACADVER
  1
AC1015
  9
$ACADMAINTVER
 70
     6
  9
$DWGCODEPAGE
  3
ANSI_932
  9
$INSBASE
 10
0.0
 20
0.0
 30
0.0
  9
$EXTMIN
 10
0.0
 20
0.0
 30
0.0
  9
$EXTMAX
 10
315.0
 20
445.5
 30
0.0
  9
$LIMMIN
 10
0.0
 20
0.0
  9
$LIMMAX
 10
12.0
 20
9.0
  9
$ORTHOMODE
 70
     0
  9
$REGENMODE
 70
     1
  9
$FILLMODE
 70
     1
  9
$QTEXTMODE
 70
     0
  9
$MIRRTEXT
 70
     1
  9
$LTSCALE
 40
1.0
  9
$ATTMODE
 70
     1
  9
$TEXTSIZE
 40
0.2
  9
$TRACEWID
 40
0.05
  9
$TEXTSTYLE
  7
Standard
  9
$CLAYER
  8
0
  9
$CELTYPE
  6
ByLayer
  9
$CECOLOR
 62
   256
  9
$CELTSCALE
 40
1.0
  9
$DISPSILH
 70
     0
  9
$DIMSCALE
 40
1.0
  9
$DIMASZ
 40
0.18
  9
$DIMEXO
 40
0.0625
  9
$DIMDLI
 40
0.38
  9
$DIMRND
 40
0.0
  9
$DIMDLE
 40
0.0
  9
$DIMEXE
 40
0.18
  9
$DIMTP
 40
0.0
  9
$DIMTM
 40
0.0
  9
$DIMTXT
 40
0.18
  9
$DIMCEN
 40
0.09
  9
$DIMTSZ
 40
0.0
  9
$DIMTOL
 70
     0
  9
$DIMLIM
 70
     0
  9
$DIMTIH
 70
     1
  9
$DIMTOH
 70
     1
  9
$DIMSE1
 70
     0
  9
$DIMSE2
 70
     0
  9
$DIMTAD
 70
     0
  9
$DIMZIN
 70
     0
  9
$DIMBLK
  1

  9
$DIMASO
 70
     1
  9
$DIMSHO
 70
     1
  9
$DIMPOST
  1

  9
$DIMAPOST
  1

  9
$DIMALT
 70
     0
  9
$DIMALTD
 70
     2
  9
$DIMALTF
 40
25.4
  9
$DIMLFAC
 40
1.0
  9
$DIMTOFL
 70
     0
  9
$DIMTVP
 40
0.0
  9
$DIMTIX
 70
     0
  9
$DIMSOXD
 70
     0
  9
$DIMSAH
 70
     0
  9
$DIMBLK1
  1

  9
$DIMBLK2
  1

  9
$DIMSTYLE
  2
Standard
  9
$DIMCLRD
 70
     0
  9
$DIMCLRE
 70
     0
  9
$DIMCLRT
 70
     0
  9
$DIMTFAC
 40
1.0
  9
$DIMGAP
 40
0.09
  9
$DIMJUST
 70
     0
  9
$DIMSD1
 70
     0
  9
$DIMSD2
 70
     0
  9
$DIMTOLJ
 70
     1
  9
$DIMTZIN
 70
     0
  9
$DIMALTZ
 70
     0
  9
$DIMALTTZ
 70
     0
  9
$DIMUPT
 70
     0
  9
$DIMDEC
 70
     4
  9
$DIMTDEC
 70
     4
  9
$DIMALTU
 70
     2
  9
$DIMALTTD
 70
     2
  9
$DIMTXSTY
  7
Standard
  9
$DIMAUNIT
 70
     0
  9
$DIMADEC
 70
     0
  9
$DIMALTRND
 40
0.0
  9
$DIMAZIN
 70
     0
  9
$DIMDSEP
 70
    46
  9
$DIMATFIT
 70
     3
  9
$DIMFRAC
 70
     0
  9
$DIMLDRBLK
  1

  9
$DIMLUNIT
 70
     2
  9
$DIMLWD
 70
    -2
  9
$DIMLWE
 70
    -2
  9
$DIMTMOVE
 70
     0
  9
$LUNITS
 70
     2
  9
$LUPREC
 70
     4
  9
$SKETCHINC
 40
0.1
  9
$FILLETRAD
 40
0.5
  9
$AUNITS
 70
     0
  9
$AUPREC
 70
     0
  9
$MENU
  1
.
  9
$ELEVATION
 40
0.0
  9
$PELEVATION
 40
0.0
  9
$THICKNESS
 40
0.0
  9
$LIMCHECK
 70
     0
  9
$CHAMFERA
 40
0.5
  9
$CHAMFERB
 40
0.5
  9
$CHAMFERC
 40
1.0
  9
$CHAMFERD
 40
0.0
  9
$SKPOLY
 70
     0
  9
$TDCREATE
 40
2456898.411198055
  9
$TDUCREATE
 40
2456898.036198055
  9
$TDUPDATE
 40
2456898.411199861
  9
$TDUUPDATE
 40
2456898.036199861
  9
$TDINDWG
 40
0.0000000116
  9
$TDUSRTIMER
 40
0.0000000116
  9
$USRTIMER
 70
     1
  9
$ANGBASE
 50
0.0
  9
$ANGDIR
 70
     0
  9
$PDMODE
 70
     0
  9
$PDSIZE
 40
0.0
  9
$PLINEWID
 40
0.0
  9
$SPLFRAME
 70
     0
  9
$SPLINETYPE
 70
     6
  9
$SPLINESEGS
 70
     8
  9
$HANDSEED
  5
384
  9
$SURFTAB1
 70
     6
  9
$SURFTAB2
 70
     6
  9
$SURFTYPE
 70
     6
  9
$SURFU
 70
     6
  9
$SURFV
 70
     6
  9
$UCSBASE
  2

  9
$UCSNAME
  2

  9
$UCSORG
 10
0.0
 20
0.0
 30
0.0
  9
$UCSXDIR
 10
1.0
 20
0.0
 30
0.0
  9
$UCSYDIR
 10
0.0
 20
1.0
 30
0.0
  9
$UCSORTHOREF
  2

  9
$UCSORTHOVIEW
 70
     0
  9
$UCSORGTOP
 10
0.0
 20
0.0
 30
0.0
  9
$UCSORGBOTTOM
 10
0.0
 20
0.0
 30
0.0
  9
$UCSORGLEFT
 10
0.0
 20
0.0
 30
0.0
  9
$UCSORGRIGHT
 10
0.0
 20
0.0
 30
0.0
  9
$UCSORGFRONT
 10
0.0
 20
0.0
 30
0.0
  9
$UCSORGBACK
 10
0.0
 20
0.0
 30
0.0
  9
$PUCSBASE
  2

  9
$PUCSNAME
  2

  9
$PUCSORG
 10
0.0
 20
0.0
 30
0.0
  9
$PUCSXDIR
 10
1.0
 20
0.0
 30
0.0
  9
$PUCSYDIR
 10
0.0
 20
1.0
 30
0.0
  9
$PUCSORTHOREF
  2

  9
$PUCSORTHOVIEW
 70
     0
  9
$PUCSORGTOP
 10
0.0
 20
0.0
 30
0.0
  9
$PUCSORGBOTTOM
 10
0.0
 20
0.0
 30
0.0
  9
$PUCSORGLEFT
 10
0.0
 20
0.0
 30
0.0
  9
$PUCSORGRIGHT
 10
0.0
 20
0.0
 30
0.0
  9
$PUCSORGFRONT
 10
0.0
 20
0.0
 30
0.0
  9
$PUCSORGBACK
 10
0.0
 20
0.0
 30
0.0
  9
$USERI1
 70
     0
  9
$USERI2
 70
     0
  9
$USERI3
 70
     0
  9
$USERI4
 70
     0
  9
$USERI5
 70
     0
  9
$USERR1
 40
18.1
  9
$USERR2
 40
0.0
  9
$USERR3
 40
0.0
  9
$USERR4
 40
0.0
  9
$USERR5
 40
0.0
  9
$WORLDVIEW
 70
     1
  9
$SHADEDGE
 70
     3
  9
$SHADEDIF
 70
    70
  9
$TILEMODE
 70
     1
  9
$MAXACTVP
 70
    64
  9
$PINSBASE
 10
0.0
 20
0.0
 30
0.0
  9
$PLIMCHECK
 70
     0
  9
$PEXTMIN
 10
1.00000000000000E+20
 20
1.00000000000000E+20
 30
1.00000000000000E+20
  9
$PEXTMAX
 10
-1.00000000000000E+20
 20
-1.00000000000000E+20
 30
-1.00000000000000E+20
  9
$PLIMMIN
 10
0.0
 20
0.0
  9
$PLIMMAX
 10
12.0
 20
9.0
  9
$UNITMODE
 70
     0
  9
$VISRETAIN
 70
     1
  9
$PLINEGEN
 70
     0
  9
$PSLTSCALE
 70
     1
  9
$TREEDEPTH
 70
  3020
  9
$CMLSTYLE
  2
Standard
  9
$CMLJUST
 70
     0
  9
$CMLSCALE
 40
1.0
  9
$PROXYGRAPHICS
 70
     1
  9
$MEASUREMENT
 70
     1
  9
$CELWEIGHT
370
    -1
  9
$ENDCAPS
280
     0
  9
$JOINSTYLE
280
     0
  9
$LWDISPLAY
290
     0
  9
$INSUNITS
 70
     4
  9
$HYPERLINKBASE
  1

  9
$STYLESHEET
  1

  9
$XEDIT
290
     1
  9
$CEPSNTYPE
380
     0
  9
$PSTYLEMODE
290
     1
  9
$FINGERPRINTGUID
  2
{DBAE9695-92F9-4147-9E83-CA6B68D2F864}
  9
$VERSIONGUID
  2
{FAEB1C32-E019-11D5-929B-00C0DF256EC4}
  9
$EXTNAMES
290
     1
  9
$PSVPSCALE
 40
0.0
  9
$OLESTARTUP
290
     0
  0
ENDSEC
  0
SECTION
  2
CLASSES
  0
CLASS
  1
ACDBDICTIONARYWDFLT
  2
AcDbDictionaryWithDefault
  3
ObjectDBX Classes
 90
        0
280
     0
281
     0
  0
CLASS
  1
VISUALSTYLE
  2
AcDbVisualStyle
  3
ObjectDBX Classes
 90
     4095
280
     0
281
     0
  0
CLASS
  1
MATERIAL
  2
AcDbMaterial
  3
ObjectDBX Classes
 90
     1153
280
     0
281
     0
  0
CLASS
  1
DICTIONARYVAR
  2
AcDbDictionaryVar
  3
ObjectDBX Classes
 90
        0
280
     0
281
     0
  0
CLASS
  1
ACDBPLACEHOLDER
  2
AcDbPlaceHolder
  3
ObjectDBX Classes
 90
        0
280
     0
281
     0
  0
CLASS
  1
LAYOUT
  2
AcDbLayout
  3
ObjectDBX Classes
 90
        0
280
     0
281
     0
  0
ENDSEC
  0
SECTION
  2
TABLES
  0
TABLE
  2
VPORT
  5
8
330
0
100
AcDbSymbolTable
 70
     1
  0
VPORT
  5
29
330
8
100
AcDbSymbolTableRecord
100
AcDbViewportTableRecord
  2
*Active
 70
     0
 10
0.0
 20
0.0
 11
1.0
 21
1.0
 12
157.5
 22
222.75
 13
0.0
 23
0.0
 14
0.5
 24
0.5
 15
0.5
 25
0.5
 16
0.0
 26
0.0
 36
1.0
 17
0.0
 27
0.0
 37
0.0
 40
490.05
 41
1.60267857142857
 42
50.0
 43
0.0
 44
0.0
 50
0.0
 51
0.0
 71
     0
 72
   100
 73
     1
 74
     3
 75
     0
 76
     0
 77
     0
 78
     0
281
     0
 65
     1
110
0.0
120
0.0
130
0.0
111
1.0
121
0.0
131
0.0
112
0.0
122
1.0
132
0.0
 79
     0
146
0.0
  0
ENDTAB
  0
TABLE
  2
LTYPE
  5
5
330
0
100
AcDbSymbolTable
 70
     8
  0
LTYPE
  5
14
330
5
100
AcDbSymbolTableRecord
100
AcDbLinetypeTableRecord
  2
ByBlock
 70
     0
  3

 72
    65
 73
     0
 40
0.0
  0
LTYPE
  5
15
330
5
100
AcDbSymbolTableRecord
100
AcDbLinetypeTableRecord
  2
ByLayer
 70
     0
  3

 72
    65
 73
     0
 40
0.0
  0
LTYPE
  5
16
330
5
100
AcDbSymbolTableRecord
100
AcDbLinetypeTableRecord
  2
Continuous
 70
     0
  3
Solid line
 72
    65
 73
     0
 40
0.0
  0
LTYPE
  5
3F
330
5
100
AcDbSymbolTableRecord
100
AcDbLinetypeTableRecord
  2
DASHED
 70
     0
  3
Dashed
 72
    65
 73
     2
 40
15.0
 49
7.0
 74
     0
 49
-8.0
 74
     0
  0
LTYPE
  5
40
330
5
100
AcDbSymbolTableRecord
100
AcDbLinetypeTableRecord
  2
DOTTED
 70
     0
  3
Dotted
 72
    65
 73
     2
 40
1.0
 49
0.0
 74
     0
 49
-1.0
 74
     0
  0
LTYPE
  5
41
330
5
100
AcDbSymbolTableRecord
100
AcDbLinetypeTableRecord
  2
DOT_CENTER
 70
     0
  3
Dot_Center
 72
    65
 73
     4
 40
14.0
 49
12.0
 74
     0
 49
-1.0
 74
     0
 49
0.0
 74
     0
 49
-1.0
 74
     0
  0
LTYPE
  5
42
330
5
100
AcDbSymbolTableRecord
100
AcDbLinetypeTableRecord
  2
LONG_DASHED
 70
     0
  3
Long_Dashed
 72
    65
 73
     2
 40
15.0
 49
10.0
 74
     0
 49
-5.0
 74
     0
  0
LTYPE
  5
43
330
5
100
AcDbSymbolTableRecord
100
AcDbLinetypeTableRecord
  2
DASH_CENTER
 70
     0
  3
Dash_Center
 72
    65
 73
     4
 40
14.0
 49
11.0
 74
     0
 49
-1.0
 74
     0
 49
1.0
 74
     0
 49
-1.0
 74
     0
  0
LTYPE
  5
44
330
5
100
AcDbSymbolTableRecord
100
AcDbLinetypeTableRecord
  2
PHANTOM
 70
     0
  3
Phantom
 72
    65
 73
     6
 40
13.0
 49
10.0
 74
     0
 49
-1.0
 74
     0
 49
0.0
 74
     0
 49
-1.0
 74
     0
 49
0.0
 74
     0
 49
-1.0
 74
     0
  0
LTYPE
  5
45
330
5
100
AcDbSymbolTableRecord
100
AcDbLinetypeTableRecord
  2
CENTER_DASH_DASH
 70
     0
  3
Center_Dash_Dash
 72
    65
 73
     6
 40
14.0
 49
9.0
 74
     0
 49
-1.0
 74
     0
 49
1.0
 74
     0
 49
-1.0
 74
     0
 49
1.0
 74
     0
 49
-1.0
 74
     0
  0
ENDTAB
  0
TABLE
  2
LAYER
  5
2
330
0
100
AcDbSymbolTable
 70
     2
  0
LAYER
  5
10
330
2
100
AcDbSymbolTableRecord
100
AcDbLayerTableRecord
  2
0
 70
     0
 62
     7
  6
Continuous
370
    -3
390
F
  0
LAYER
  5
46
330
2
100
AcDbSymbolTableRecord
100
AcDbLayerTableRecord
  2
1
 70
     0
 62
     7
  6
Continuous
370
    -3
390
F
  0
ENDTAB
  0
TABLE
  2
STYLE
  5
3
330
0
100
AcDbSymbolTable
 70
     3
  0
STYLE
  5
11
330
3
100
AcDbSymbolTableRecord
100
AcDbTextStyleTableRecord
  2
Standard
 70
     0
 40
0.0
 41
1.0
 50
0.0
 71
     0
 42
0.2
  3
txt
  4

  0
STYLE
  5
202
330
3
100
AcDbSymbolTableRecord
100
AcDbTextStyleTableRecord
  2
CONVERTER_11
 70
     0
 40
0.0
 41
0.89
 50
0.0
 71
     0
 42
0.2
  3
MS Mincho.ttf
  4

1001
ACAD
1000
MS Mincho
1071
    32785
  0
STYLE
  5
2E8
330
3
100
AcDbSymbolTableRecord
100
AcDbTextStyleTableRecord
  2
CONVERTER_12
 70
     0
 40
0.0
 41
0.9
 50
0.0
 71
     0
 42
0.2
  3
txt.shx
  4

  0
ENDTAB
  0
TABLE
  2
VIEW
  5
6
330
0
100
AcDbSymbolTable
 70
     0
  0
ENDTAB
  0
TABLE
  2
UCS
  5
7
330
0
100
AcDbSymbolTable
 70
     0
  0
ENDTAB
  0
TABLE
  2
APPID
  5
9
330
0
100
AcDbSymbolTable
 70
     1
  0
APPID
  5
12
330
9
100
AcDbSymbolTableRecord
100
AcDbRegAppTableRecord
  2
ACAD
 70
     0
  0
ENDTAB
  0
TABLE
  2
DIMSTYLE
  5
A
330
0
100
AcDbSymbolTable
 70
    10
100
AcDbDimStyleTable
  0
DIMSTYLE
105
27
330
A
100
AcDbSymbolTableRecord
100
AcDbDimStyleTableRecord
  2
Standard
 70
     0
178
     0
340
11
  0
DIMSTYLE
105
2F8
102
{ACAD_REACTORS
330
2F9
102
}
330
A
100
AcDbSymbolTableRecord
100
AcDbDimStyleTableRecord
  2
ME10_DIM_10
 70
     0
 41
5.25
 42
0.0
 44
1.5
 73
     0
 74
     0
 77
     1
 78
     8
140
5.25
147
1.5
172
     1
173
     1
174
     1
175
     1
176
     2
177
     2
271
     2
178
     7
271
     2
340
2E8
  0
DIMSTYLE
105
304
102
{ACAD_REACTORS
330
305
102
}
330
A
100
AcDbSymbolTableRecord
100
AcDbDimStyleTableRecord
  2
ME10_DIM_11
 70
     0
 41
5.25
 42
0.0
 44
1.5
 73
     0
 74
     0
 77
     1
 78
     8
140
5.25
147
1.5
172
     1
173
     1
174
     1
175
     1
176
     2
177
     2
271
     2
178
     7
271
     2
340
2E8
  0
DIMSTYLE
105
30F
102
{ACAD_REACTORS
330
310
102
}
330
A
100
AcDbSymbolTableRecord
100
AcDbDimStyleTableRecord
  2
ME10_DIM_12
 70
     0
  3
{\Fgdt;n}<>
 41
5.25
 42
0.0
 44
1.5
 73
     0
 74
     0
 77
     1
 78
     8
140
5.25
147
1.5
172
     1
173
     1
174
     1
175
     1
176
     2
177
     2
271
     2
178
     7
271
     2
340
2E8
  0
DIMSTYLE
105
31D
102
{ACAD_REACTORS
330
31E
102
}
330
A
100
AcDbSymbolTableRecord
100
AcDbDimStyleTableRecord
  2
ME10_DIM_13
 70
     0
 41
5.25
 42
0.0
 44
1.5
 73
     0
 74
     0
 77
     1
 78
     8
140
5.25
147
1.5
172
     1
173
     1
174
     1
175
     1
176
     2
177
     2
271
     2
178
     7
271
     2
340
2E8
344
31A
  0
DIMSTYLE
105
328
102
{ACAD_REACTORS
330
329
102
}
330
A
100
AcDbSymbolTableRecord
100
AcDbDimStyleTableRecord
  2
ME10_DIM_14
 70
     0
 41
5.25
 42
0.0
 44
1.5
 73
     0
 74
     0
 77
     1
 78
     8
140
5.25
147
1.5
172
     1
173
     1
174
     1
175
     1
176
     2
177
     2
271
     2
178
     7
271
     2
340
2E8
  0
DIMSTYLE
105
333
102
{ACAD_REACTORS
330
334
102
}
330
A
100
AcDbSymbolTableRecord
100
AcDbDimStyleTableRecord
  2
ME10_DIM_15
 70
     0
 41
5.25
 42
0.0
 44
1.5
 73
     0
 74
     0
 77
     1
 78
     8
140
5.25
147
1.5
172
     1
173
     1
174
     1
175
     1
176
     2
177
     2
271
     2
178
     7
271
     2
340
2E8
  0
DIMSTYLE
105
33E
102
{ACAD_REACTORS
330
33F
102
}
330
A
100
AcDbSymbolTableRecord
100
AcDbDimStyleTableRecord
  2
ME10_DIM_16
 70
     0
 41
5.25
 42
0.0
 44
1.5
 73
     0
 74
     0
 77
     1
 78
     8
140
5.25
147
1.5
172
     1
173
     1
174
     1
175
     1
176
     2
177
     2
271
     2
178
     7
271
     2
340
202
  0
DIMSTYLE
105
34A
102
{ACAD_REACTORS
330
34B
102
}
330
A
100
AcDbSymbolTableRecord
100
AcDbDimStyleTableRecord
  2
ME10_DIM_17
 70
     0
  3
{\Fgdt;n}<>
 41
5.25
 42
0.0
 44
1.5
 73
     0
 74
     0
 77
     1
 78
     8
140
5.25
147
1.5
172
     1
173
     1
174
     1
175
     1
176
     2
177
     2
271
     2
178
     7
271
     2
340
2E8
  0
DIMSTYLE
105
357
102
{ACAD_REACTORS
330
358
102
}
330
A
100
AcDbSymbolTableRecord
100
AcDbDimStyleTableRecord
  2
ME10_DIM_18
 70
     0
 41
5.25
 42
0.0
 44
1.5
 73
     0
 74
     0
 77
     1
 78
     8
140
5.25
147
1.5
172
     1
173
     1
174
     1
175
     1
176
     2
177
     2
271
     2
178
     7
271
     2
340
2E8
  0
ENDTAB
  0
TABLE
  2
BLOCK_RECORD
  5
1
330
0
100
AcDbSymbolTable
 70
    21
  0
BLOCK_RECORD
  5
1F
330
1
100
AcDbSymbolTableRecord
100
AcDbBlockTableRecord
  2
*Model_Space
340
22
  0
BLOCK_RECORD
  5
1B
330
1
100
AcDbSymbolTableRecord
100
AcDbBlockTableRecord
  2
*Paper_Space
340
1E
  0
BLOCK_RECORD
  5
23
330
1
100
AcDbSymbolTableRecord
100
AcDbBlockTableRecord
  2
*Paper_Space0
340
26
  0
BLOCK_RECORD
  5
47
330
1
100
AcDbSymbolTableRecord
100
AcDbBlockTableRecord
  2
62-1B-M2
340
0
102
{BLKREFS
331
69
102
}
  0
BLOCK_RECORD
  5
4A
330
1
100
AcDbSymbolTableRecord
100
AcDbBlockTableRecord
  2
Y12-0-13
340
0
102
{BLKREFS
331
6A
102
}
  0
BLOCK_RECORD
  5
4D
330
1
100
AcDbSymbolTableRecord
100
AcDbBlockTableRecord
  2
42-1
340
0
102
{BLKREFS
331
5A
102
}
  0
BLOCK_RECORD
  5
50
330
1
100
AcDbSymbolTableRecord
100
AcDbBlockTableRecord
  2
21-1C
340
0
102
{BLKREFS
331
5B
102
}
  0
BLOCK_RECORD
  5
53
330
1
100
AcDbSymbolTableRecord
100
AcDbBlockTableRecord
  2
37-1-13
340
0
102
{BLKREFS
331
5C
102
}
  0
BLOCK_RECORD
  5
56
330
1
100
AcDbSymbolTableRecord
100
AcDbBlockTableRecord
  2
36-54-M11
340
0
102
{BLKREFS
331
5D
102
}
  0
BLOCK_RECORD
  5
59
330
1
100
AcDbSymbolTableRecord
100
AcDbBlockTableRecord
  2
R10AK-13-B
340
0
102
{BLKREFS
331
6B
102
}
  0
BLOCK_RECORD
  5
60
330
1
100
AcDbSymbolTableRecord
100
AcDbBlockTableRecord
  2
開示A4
340
0
102
{BLKREFS
331
6C
102
}
  0
BLOCK_RECORD
  5
63
330
1
100
AcDbSymbolTableRecord
100
AcDbBlockTableRecord
  2
32-1-16
340
0
102
{BLKREFS
331
6D
102
}
  0
BLOCK_RECORD
  5
66
330
1
100
AcDbSymbolTableRecord
100
AcDbBlockTableRecord
  2
75-2
340
0
102
{BLKREFS
331
6E
102
}
  0
BLOCK_RECORD
  5
2EF
330
1
100
AcDbSymbolTableRecord
100
AcDbBlockTableRecord
  2
*D11
340
0
  0
BLOCK_RECORD
  5
2FA
330
1
100
AcDbSymbolTableRecord
100
AcDbBlockTableRecord
  2
*D12
340
0
  0
BLOCK_RECORD
  5
306
330
1
100
AcDbSymbolTableRecord
100
AcDbBlockTableRecord
  2
*D13
340
0
  0
BLOCK_RECORD
  5
311
330
1
100
AcDbSymbolTableRecord
100
AcDbBlockTableRecord
  2
*D14
340
0
  0
BLOCK_RECORD
  5
31A
330
1
100
AcDbSymbolTableRecord
100
AcDbBlockTableRecord
  2
_NONE
340
0
  0
BLOCK_RECORD
  5
31F
330
1
100
AcDbSymbolTableRecord
100
AcDbBlockTableRecord
  2
*D16
340
0
  0
BLOCK_RECORD
  5
32A
330
1
100
AcDbSymbolTableRecord
100
AcDbBlockTableRecord
  2
*D17
340
0
  0
BLOCK_RECORD
  5
335
330
1
100
AcDbSymbolTableRecord
100
AcDbBlockTableRecord
  2
*D18
340
0
  0
BLOCK_RECORD
  5
340
330
1
100
AcDbSymbolTableRecord
100
AcDbBlockTableRecord
  2
*D19
340
0
  0
BLOCK_RECORD
  5
34C
330
1
100
AcDbSymbolTableRecord
100
AcDbBlockTableRecord
  2
*D20
340
0
  0
ENDTAB
  0
ENDSEC
  0
SECTION
  2
BLOCKS
  0
BLOCK
  5
20
330
1F
100
AcDbEntity
  8
0
100
AcDbBlockBegin
  2
*Model_Space
 70
     0
 10
0.0
 20
0.0
 30
0.0
  3
*Model_Space
  1

  0
ENDBLK
  5
21
330
1F
100
AcDbEntity
  8
0
100
AcDbBlockEnd
  0
BLOCK
  5
1C
330
1B
100
AcDbEntity
 67
     1
  8
0
100
AcDbBlockBegin
  2
*Paper_Space
 70
     0
 10
0.0
 20
0.0
 30
0.0
  3
*Paper_Space
  1

  0
ENDBLK
  5
1D
330
1B
100
AcDbEntity
 67
     1
  8
0
100
AcDbBlockEnd
  0
BLOCK
  5
24
330
23
100
AcDbEntity
  8
0
100
AcDbBlockBegin
  2
*Paper_Space0
 70
     0
 10
0.0
 20
0.0
 30
0.0
  3
*Paper_Space0
  1

  0
ENDBLK
  5
25
330
23
100
AcDbEntity
  8
0
100
AcDbBlockEnd
  0
BLOCK
  5
48
330
47
100
AcDbEntity
  8
0
100
AcDbBlockBegin
  2
62-1B-M2
 70
     0
 10
0.99999999999989
 20
1634.25
 30
0.0
  3
62-1B-M2
  1

  0
LINE
  5
6F
330
47
100
AcDbEntity
  8
1
  6
Continuous
 62
     7
100
AcDbLine
 10
123.9013726769736
 20
113.2878269577643
 30
0.0
 11
138.4022972695599
 21
106.525934769913
 31
0.0
  0
LINE
  5
70
330
47
100
AcDbEntity
  8
0
  6
Continuous
 62
     7
100
AcDbLine
 10
68.13583102122863
 20
145.3753419286555
 30
0.0
 11
68.13583102122863
 21
109.9068808638389
 31
0.0
  0
LINE
  5
71
330
47
100
AcDbEntity
  8
0
  6
Continuous
 62
     7
100
AcDbLine
 10
84.13583102122863
 20
145.3753419286555
 30
0.0
 11
84.13583102122863
 21
109.9068808638424
 31
0.0
  0
LINE
  5
72
330
47
100
AcDbEntity
  8
0
  6
Continuous
 62
     7
100
AcDbLine
 10
84.13583102122863
 20
109.9068808638424
 30
0.0
 11
84.13583102122863
 21
109.9068808638389
 31
0.0
  0
LINE
  5
73
330
47
100
AcDbEntity
  8
0
  6
Continuous
 62
     7
100
AcDbLine
 10
84.13583102122863
 20
256.3356097340708
 30
0.0
 11
84.13583102122863
 21
296.2515055386111
 31
0.0
  0
LINE
  5
74
330
47
100
AcDbEntity
  8
0
  6
Continuous
 62
     7
100
AcDbLine
 10
68.13583102122863
 20
296.2515055386111
 30
0.0
 11
68.13583102122863
 21
256.3356097340708
 31
0.0
  0
LINE
  5
75
330
47
100
AcDbEntity
  8
0
  6
PHANTOM
 62
     4
100
AcDbLine
 10
166.803157814988
 20
145.3753419286554
 30
0.0
 11
189.5387436645632
 21
145.3753419286554
 31
0.0
  0
LINE
  5
76
330
47
100
AcDbEntity
  8
1
  6
Continuous
 62
     7
100
AcDbLine
 10
122.8775621805122
 20
108.2483480379512
 30
0.0
 11
129.0387436645633
 21
105.3753419286555
 31
0.0
  0
LINE
  5
77
330
47
100
AcDbEntity
  8
1
  6
Continuous
 62
     7
100
AcDbLine
 10
135.1999251486143
 20
102.5023358193596
 30
0.0
 11
136.2892059608565
 21
101.9943958347299
 31
0.0
  0
LINE
  5
78
330
47
100
AcDbEntity
  8
1
  6
Continuous
 62
     7
100
AcDbLine
 10
129.0387436645633
 20
105.3753419286555
 30
0.0
 11
135.1999251486143
 21
102.5023358193596
 31
0.0
  0
LINE
  5
79
330
47
100
AcDbEntity
  8
0
  6
Continuous
 62
     7
100
AcDbLine
 10
146.8643865001817
 20
124.6729436869509
 30
0.0
 11
138.4022972695599
 21
106.525934769913
 31
0.0
  0
LINE
  5
7A
330
47
100
AcDbEntity
  8
1
  6
Continuous
 62
     7
100
AcDbLine
 10
166.803157814988
 20
137.3753419286554
 30
0.0
 11
171.0677307778072
 21
137.3753419286554
 31
0.0
  0
LINE
  5
7B
330
47
100
AcDbEntity
  8
0
  6
Continuous
 62
     7
100
AcDbLine
 10
132.3634619075953
 20
131.434835874802
 30
0.0
 11
123.9013726769736
 21
113.2878269577643
 31
0.0
  0
LINE
  5
7C
330
47
100
AcDbEntity
  8
0
  6
PHANTOM
 62
     4
100
AcDbLine
 10
127.7708888793412
 20
102.6564185675455
 30
0.0
 11
139.6139242038885
 21
128.0538897808764
 31
0.0
  0
LINE
  5
7D
330
47
100
AcDbEntity
  8
1
  6
Continuous
 62
     7
100
AcDbLine
 10
166.803157814988
 20
153.3753419286554
 30
0.0
 11
171.0677307778072
 21
153.3753419286554
 31
0.0
  0
LINE
  5
7E
330
47
100
AcDbEntity
  8
1
  6
Continuous
 62
     7
100
AcDbLine
 10
121.78828136827
 20
108.7562880225814
 30
0.0
 11
122.8775621805122
 21
108.2483480379512
 31
0.0
  0
ARC
  5
7F
330
47
100
AcDbEntity
  8
0
  6
Continuous
 62
     7
100
AcDbCircle
 10
76.13583102122863
 20
145.3753419286555
 30
0.0
 40
8.0
100
AcDbArc
 50
0.0
 51
180.0
  0
ARC
  5
80
330
47
100
AcDbEntity
  8
0
  6
Continuous
 62
     7
100
AcDbCircle
 10
76.13583102122863
 20
102.1325475781919
 30
0.0
 40
11.15527937957265
100
AcDbArc
 50
44.18038574971189
 51
135.8196142502881
  0
ARC
  5
81
330
47
100
AcDbEntity
  8
0
  6
Continuous
 62
     7
100
AcDbCircle
 10
80.8701092219053
 20
107.6411113962472
 30
0.0
 40
12.93427820067667
100
AcDbArc
 50
169.9111250439065
 51
190.0888749560935
  0
ARC
  5
82
330
47
100
AcDbEntity
  8
0
  6
Continuous
 62
     7
100
AcDbCircle
 10
71.4015528205336
 20
107.6411113962491
 30
0.0
 40
12.93427820069508
100
AcDbArc
 50
349.9111250439124
 51
10.08887495608629
  0
ARC
  5
83
330
47
100
AcDbEntity
  8
0
  6
Continuous
 62
     7
100
AcDbCircle
 10
136.9152554163676
 20
104.4609089766474
 30
0.0
 40
15.72500000000196
100
AcDbArc
 50
145.8521574801991
 51
155.0000000000001
  0
ARC
  5
84
330
47
100
AcDbEntity
  8
0
  6
Continuous
 62
     7
100
AcDbCircle
 10
123.2753232214623
 20
110.8213138158469
 30
0.0
 40
15.72500000000219
100
AcDbArc
 50
325.8521574801991
 51
334.9999999999997
  0
ARC
  5
85
330
47
100
AcDbEntity
  8
0
  6
Continuous
 62
     7
100
AcDbCircle
 10
136.9152554163676
 20
104.4609089766474
 30
0.0
 40
15.72500000000193
100
AcDbArc
 50
155.0000000000001
 51
164.1478425197991
  0
ARC
  5
86
330
47
100
AcDbEntity
  8
0
  6
Continuous
 62
     7
100
AcDbCircle
 10
123.2753232214623
 20
110.8213138158469
 30
0.0
 40
15.72500000000221
100
AcDbArc
 50
334.9999999999997
 51
344.1478425197994
  0
ARC
  5
87
330
47
100
AcDbEntity
  8
0
  6
Continuous
 62
     7
100
AcDbCircle
 10
166.803157814988
 20
115.3753419286554
 30
0.0
 40
21.99999999999999
100
AcDbArc
 50
90.0
 51
154.9999999999997
  0
ARC
  5
88
330
47
100
AcDbEntity
  8
0
  6
Continuous
 62
     7
100
AcDbCircle
 10
166.803157814988
 20
115.3753419286554
 30
0.0
 40
37.99999999999999
100
AcDbArc
 50
90.0
 51
155.0
  0
SPLINE
  5
89
330
47
100
AcDbEntity
  8
0
  6
Continuous
 62
     7
100
AcDbSpline
210
0.0
220
0.0
230
1.0
 70
     8
 71
     3
 72
    45
 73
    41
 74
    39
 42
0.000000001
 43
0.0000000001
 44
0.00000001
 40
0.0
 40
0.0
 40
0.0
 40
0.0
 40
0.1496759111545201
 40
0.3011042834885929
 40
0.6212686760011108
 40
0.9401911722227503
 40
1.309172157771567
 40
1.676945089648834
 40
2.110264699561577
 40
2.542950026961261
 40
3.044677579401174
 40
3.546065731435676
 40
4.111847668919491
 40
4.67744558355777
 40
5.297533362687153
 40
5.917518809622621
 40
6.578627120070411
 40
7.239680249889519
 40
7.926252532362532
 40
8.612800488580334
 40
9.307992794094224
 40
10.00318509960817
 40
10.68973305582602
 40
11.37630533829911
 40
12.03735846811824
 40
12.69846677856596
 40
13.31845222550144
 40
13.93854000463095
 40
14.50413791926932
 40
15.069919856753
 40
15.57130800878732
 40
16.07303556122719
 40
16.50572088862695
 40
16.93904049853985
 40
17.30681343041722
 40
17.67579441596601
 40
17.99471691218764
 40
18.3148813047002
 40
18.46630967702944
 40
18.61598558818846
 40
18.61598558818846
 40
18.61598558818846
 40
18.61598558818846
 10
84.1358310212288
 20
105.3753419286654
 30
0.0
 10
84.13427620903701
 20
105.4252684366556
 30
0.0
 10
84.13114838438949
 20
105.5257060107334
 30
0.0
 10
84.09582792505032
 20
105.7302325437355
 30
0.0
 10
84.01713626985692
 20
105.9834765118928
 30
0.0
 10
83.85494256743542
 20
106.2797466582349
 30
0.0
 10
83.63991918397974
 20
106.5598368155704
 30
0.0
 10
83.36300606483101
 20
106.8357770530399
 30
0.0
 10
83.03998721426338
 20
107.0915940369864
 30
0.0
 10
82.65783984535437
 20
107.3411377042943
 30
0.0
 10
82.23635062413203
 20
107.568935345465
 30
0.0
 10
81.76020253575335
 20
107.7859960792075
 30
0.0
 10
81.25138719439605
 20
107.9801458348635
 30
0.0
 10
80.69532541877373
 20
108.1588140603464
 30
0.0
 10
80.11341627562243
 20
108.3135830031349
 30
0.0
 10
79.49408613218695
 20
108.4487987379639
 30
0.0
 10
78.85600299396738
 20
108.5592912355086
 30
0.0
 10
78.19205332944064
 20
108.6472027197308
 30
0.0
 10
77.51672118501328
 20
108.7097943808589
 30
0.0
 10
76.8281847452412
 20
108.7479543089429
 30
0.0
 10
76.13583102122608
 20
108.7604809628379
 30
0.0
 10
75.44347729721099
 20
108.7479543089421
 30
0.0
 10
74.75494085743887
 20
108.7097943808572
 30
0.0
 10
74.07960871301157
 20
108.6472027197281
 30
0.0
 10
73.41565904848495
 20
108.559291235505
 30
0.0
 10
72.7775759102655
 20
108.4487987379595
 30
0.0
 10
72.15824576683018
 20
108.3135830031299
 30
0.0
 10
71.57633662367891
 20
108.1588140603407
 30
0.0
 10
71.0202748480568
 20
107.9801458348572
 30
0.0
 10
70.51145950669984
 20
107.7859960792005
 30
0.0
 10
70.03531141832151
 20
107.5689353454575
 30
0.0
 10
69.6138221970995
 20
107.3411377042862
 30
0.0
 10
69.2316748281907
 20
107.091594036978
 30
0.0
 10
68.90865597762334
 20
106.8357770530309
 30
0.0
 10
68.63174285847498
 20
106.559836815561
 30
0.0
 10
68.41671947501953
 20
106.2797466582251
 30
0.0
 10
68.25452577259874
 20
105.9834765118828
 30
0.0
 10
68.1758341174052
 20
105.7302325437271
 30
0.0
 10
68.1405136580677
 20
105.5257060107249
 30
0.0
 10
68.13738583342035
 20
105.4252684366472
 30
0.0
 10
68.13583102122863
 20
105.3753419286555
 30
0.0
 11
84.1358310212288
 21
105.3753419286654
 31
0.0
 11
84.12770952860667
 21
105.5247973482276
 31
0.0
 11
84.10334505074312
 21
105.6742527677836
 31
0.0
 11
84.00717237149426
 21
105.9796313083905
 31
0.0
 11
83.85667031534209
 21
106.260808635085
 31
0.0
 11
83.63357864740325
 21
106.5547084050144
 31
0.0
 11
83.37427222170095
 21
106.8155092993971
 31
0.0
 11
83.03600745192323
 21
107.0863281120326
 31
0.0
 11
82.67429437766336
 21
107.323773356138
 31
0.0
 11
82.2337577353481
 21
107.5638941653717
 31
0.0
 11
81.77782911975773
 21
107.7725066671265
 31
0.0
 11
81.24967299681724
 21
107.9753867051378
 31
0.0
 11
80.7113342507842
 21
108.1488583016011
 31
0.0
 11
80.11230017272237
 21
108.3090676213771
 31
0.0
 11
79.50664684106809
 21
108.4416043905248
 31
0.0
 11
78.85532828687275
 21
108.5549548988284
 31
0.0
 11
78.20001414201866
 21
108.6418721610907
 31
0.0
 11
77.51640267693844
 21
108.7055656621195
 31
0.0
 11
76.83090677251623
 21
108.7435585466749
 31
0.0
 11
76.13583102122611
 21
108.7562880225814
 31
0.0
 11
75.44075526993595
 21
108.7435585466741
 31
0.0
 11
74.75525936551374
 21
108.7055656621177
 31
0.0
 11
74.07164790043353
 21
108.641872161088
 31
0.0
 11
73.41633375557954
 21
108.5549548988248
 31
0.0
 11
72.7650152013844
 21
108.4416043905205
 31
0.0
 11
72.15936186973026
 21
108.3090676213721
 31
0.0
 11
71.56032779166847
 21
108.1488583015953
 31
0.0
 11
71.02198904563555
 21
107.9753867051315
 31
0.0
 11
70.49383292269545
 21
107.7725066671195
 31
0.0
 11
70.03790430710549
 21
107.5638941653642
 31
0.0
 11
69.59736766479057
 21
107.3237733561301
 31
0.0
 11
69.2356545905309
 21
107.0863281120242
 31
0.0
 11
68.89738982075343
 21
106.8155092993881
 31
0.0
 11
68.63808339505141
 21
106.554708405005
 31
0.0
 11
68.41499172711298
 21
106.2608086350753
 31
0.0
 11
68.26448967096117
 21
105.9796313083806
 31
0.0
 11
68.16831699171263
 21
105.6742527677736
 31
0.0
 11
68.14395251385068
 21
105.5247973482222
 31
0.0
 11
68.13583102122863
 21
105.3753419286555
 31
0.0
  0
SPLINE
  5
8A
330
47
100
AcDbEntity
  8
0
  6
Continuous
 62
     7
100
AcDbSpline
210
0.0
220
0.0
230
1.0
 70
     8
 71
     3
 72
    45
 73
    41
 74
    39
 42
0.000000001
 43
0.0000000001
 44
0.00000001
 40
0.0
 40
0.0
 40
0.0
 40
0.0
 40
0.1496759111572676
 40
0.3011042835005278
 40
0.6212686760130753
 40
0.9401911722347719
 40
1.309172157783668
 40
1.676945089661047
 40
2.110264699573931
 40
2.542950026973606
 40
3.044677579413412
 40
3.546065731447825
 40
4.111847668931609
 40
4.677445583569953
 40
5.297533362699442
 40
5.91751880963494
 40
6.578627120082696
 40
7.239680249901799
 40
7.926252532374822
 40
8.612800488592605
 40
9.307992794106482
 40
10.00318509962037
 40
10.68973305583823
 40
11.37630533831131
 40
12.03735846813043
 40
12.69846677857816
 40
13.31845222551359
 40
13.93854000464301
 40
14.50413791928129
 40
15.06991985676495
 40
15.57130800879932
 40
16.07303556123923
 40
16.505720888639
 40
16.93904049855189
 40
17.30681343042924
 40
17.67579441597806
 40
17.99471691219969
 40
18.31488130471228
 40
18.46630967706468
 40
18.61598558823092
 40
18.61598558823092
 40
18.61598558823092
 40
18.61598558823092
 10
84.13583102122891
 20
105.3753419286777
 30
0.0
 10
84.13427620903771
 20
105.3254154206865
 30
0.0
 10
84.13114838439122
 20
105.2249778466047
 30
0.0
 10
84.0958279250514
 20
105.0204513135986
 30
0.0
 10
84.0171362698578
 20
104.7672073454382
 30
0.0
 10
83.85494256743658
 20
104.4709371990959
 30
0.0
 10
83.63991918398125
 20
104.19084704176
 30
0.0
 10
83.36300606483286
 20
103.91490680429
 30
0.0
 10
83.03998721426545
 20
103.6590898203431
 30
0.0
 10
82.65783984535676
 20
103.4095461530347
 30
0.0
 10
82.23635062413473
 20
103.1817485118635
 30
0.0
 10
81.76020253575633
 20
102.9646877781206
 30
0.0
 10
81.25138719439926
 20
102.7705380224641
 30
0.0
 10
80.69532541877713
 20
102.5918697969805
 30
0.0
 10
80.11341627562595
 20
102.4371008541912
 30
0.0
 10
79.49408613219059
 20
102.3018851193614
 30
0.0
 10
78.85600299397116
 20
102.1913926218159
 30
0.0
 10
78.19205332944452
 20
102.103481137593
 30
0.0
 10
77.51672118501726
 20
102.040889476464
 30
0.0
 10
76.82818474524527
 20
102.002729548379
 30
0.0
 10
76.13583102123016
 20
101.9902028944831
 30
0.0
 10
75.44347729721508
 20
102.0027295483782
 30
0.0
 10
74.75494085744293
 20
102.0408894764624
 30
0.0
 10
74.07960871301557
 20
102.1034811375904
 30
0.0
 10
73.41565904848878
 20
102.1913926218125
 30
0.0
 10
72.77757591026926
 20
102.3018851193573
 30
0.0
 10
72.15824576683377
 20
102.4371008541862
 30
0.0
 10
71.57633662368247
 20
102.5918697969747
 30
0.0
 10
71.02027484806018
 20
102.7705380224576
 30
0.0
 10
70.51145950670299
 20
102.9646877781136
 30
0.0
 10
70.03531141832433
 20
103.1817485118559
 30
0.0
 10
69.61382219710202
 20
103.4095461530267
 30
0.0
 10
69.23167482819292
 20
103.6590898203345
 30
0.0
 10
68.90865597762527
 20
103.9149068042812
 30
0.0
 10
68.63174285847649
 20
104.1908470417507
 30
0.0
 10
68.41671947502086
 20
104.4709371990863
 30
0.0
 10
68.2545257725992
 20
104.7672073454284
 30
0.0
 10
68.1758341174044
 20
105.0204513135916
 30
0.0
 10
68.14051365806387
 20
105.2249778466038
 30
0.0
 10
68.13738583341835
 20
105.3254154206917
 30
0.0
 10
68.1358310212276
 20
105.3753419286859
 30
0.0
 11
84.13583102122891
 21
105.3753419286777
 31
0.0
 11
84.1277095286082
 21
105.2258865091127
 31
0.0
 11
84.1033450507435
 21
105.0764310895475
 31
0.0
 11
84.00717237149505
 21
104.7710525489405
 31
0.0
 11
83.85667031534325
 21
104.4898752222457
 31
0.0
 11
83.63357864740478
 21
104.1959754523159
 31
0.0
 11
83.37427222170274
 21
103.9351745579329
 31
0.0
 11
83.03600745192526
 21
103.6643557452968
 31
0.0
 11
82.67429437766569
 21
103.4269105011909
 31
0.0
 11
82.2337577353508
 21
103.1867896919568
 31
0.0
 11
81.77782911976072
 21
102.9781771902016
 31
0.0
 11
81.24967299682048
 21
102.7752971521897
 31
0.0
 11
80.71133425078759
 21
102.6018255557258
 31
0.0
 11
80.11230017272585
 21
102.441616235949
 31
0.0
 11
79.5066468410717
 21
102.3090794668005
 31
0.0
 11
78.85532828687653
 21
102.1957289584962
 31
0.0
 11
78.20001414202255
 21
102.1088116962331
 31
0.0
 11
77.5164026769424
 21
102.0451181952034
 31
0.0
 11
76.83090677252027
 21
102.0071253106471
 31
0.0
 11
76.13583102123017
 21
101.9943958347396
 31
0.0
 11
75.44075526994006
 21
102.0071253106462
 31
0.0
 11
74.7552593655178
 21
102.0451181952017
 31
0.0
 11
74.07164790043751
 21
102.1088116962305
 31
0.0
 11
73.41633375558341
 21
102.1957289584928
 31
0.0
 11
72.76501520138812
 21
102.3090794667963
 31
0.0
 11
72.15936186973387
 21
102.441616235944
 31
0.0
 11
71.560327791672
 21
102.60182555572
 31
0.0
 11
71.02198904563895
 21
102.7752971521832
 31
0.0
 11
70.4938329226986
 21
102.9781771901945
 31
0.0
 11
70.03790430710832
 21
103.1867896919492
 31
0.0
 11
69.59736766479307
 21
103.4269105011828
 31
0.0
 11
69.23565459053312
 21
103.6643557452883
 31
0.0
 11
68.89738982075532
 21
103.935174557924
 31
0.0
 11
68.63808339505297
 21
104.1959754523067
 31
0.0
 11
68.41499172711414
 21
104.4898752222361
 31
0.0
 11
68.26448967096198
 21
104.7710525489307
 31
0.0
 11
68.16831699171317
 21
105.0764310895376
 31
0.0
 11
68.14395251384735
 21
105.2258865091118
 31
0.0
 11
68.1358310212276
 21
105.3753419286859
 31
0.0
  0
SPLINE
  5
8B
330
47
100
AcDbEntity
  8
0
  6
Continuous
 62
     7
100
AcDbSpline
210
0.0
220
0.0
230
1.0
 70
    11
 71
     3
 72
    79
 73
    75
 74
    73
 42
0.000000001
 43
0.0000000001
 44
0.00000001
 40
0.0
 40
0.0
 40
0.0
 40
0.0
 40
0.2880792242046789
 40
0.5747423010471997
 40
0.9128589881785969
 40
1.249698475288275
 40
1.652730795403874
 40
2.055171067775666
 40
2.526521292899249
 40
2.997562946081125
 40
3.532369598397544
 40
4.067014772304821
 40
4.655357060650567
 40
5.243610803985213
 40
5.872269835225556
 40
6.500881647768356
 40
7.154525175569991
 40
7.808147992924781
 40
8.470243540847784
 40
9.132339088780205
 40
9.78596190616275
 40
10.43960543400946
 40
11.06821724661069
 40
11.69687627792177
 40
12.28513002133044
 40
12.87347230975216
 40
13.40811748372379
 40
13.94292413608895
 40
14.41396578928832
 40
14.88531601438275
 40
15.28775628666808
 40
15.69078860658981
 40
16.02762809339456
 40
16.36574477990849
 40
16.65240785482123
 40
16.9404870835647
 40
17.20815220686499
 40
17.47581733016456
 40
17.76389655890623
 40
18.05055963381642
 40
18.38867632032708
 40
18.72551580712867
 40
19.12854812704705
 40
19.53098839932938
 40
20.00233862442084
 40
20.47338027761769
 40
21.00818692998044
 40
21.54283210395016
 40
22.13117439237031
 40
22.71942813577789
 40
23.34808716708872
 40
23.9766989796911
 40
24.63034250754091
 40
25.283965324929
 40
25.94606087287043
 40
26.60815642080672
 40
27.26177923817989
 40
27.91542276600627
 40
28.54403457857995
 40
29.1726936098591
 40
29.76094735323814
 40
30.34928964163652
 40
30.88393481559923
 40
31.41874146797752
 40
31.88978312121894
 40
32.36113334640323
 40
32.76357361882474
 40
33.16660593897331
 40
33.50344542607511
 40
33.84156211304515
 40
34.12822518853579
 40
34.41630441808002
 40
34.68396954321017
 40
34.95163466300128
 40
34.95163466300128
 40
34.95163466300128
 40
34.95163466300128
 10
68.5470774415576
 20
105.1095068679793
 30
0.0
 10
68.57399643410864
 20
105.0169418740443
 30
0.0
 10
68.62770207839235
 20
104.8322669157111
 30
0.0
 10
68.78630872689942
 20
104.5694220381568
 30
0.0
 10
68.99051666708166
 20
104.3214606040173
 30
0.0
 10
69.25490339375648
 20
104.0766821147487
 30
0.0
 10
69.5620809307782
 20
103.8505707738864
 30
0.0
 10
69.9261339462464
 20
103.6292479318336
 30
0.0
 10
70.3270204540768
 20
103.4276631694231
 30
0.0
 10
70.78051148091382
 20
103.2351214369896
 30
0.0
 10
71.26466172256843
 20
103.0631374643992
 30
0.0
 10
71.7942469150078
 20
102.9046333724755
 30
0.0
 10
72.34813366131888
 20
102.7674467841091
 30
0.0
 10
72.9379685717198
 20
102.6474833074305
 30
0.0
 10
73.54545746693898
 20
102.5495080886198
 30
0.0
 10
74.17777421461189
 20
102.471510276205
 30
0.0
 10
74.82081524518426
 20
102.4159995698109
 30
0.0
 10
75.47652413639571
 20
102.3821407024096
 30
0.0
 10
76.13583101124603
 20
102.3710342638456
 30
0.0
 10
76.79513788613747
 20
102.3821407027468
 30
0.0
 10
77.45084677724735
 20
102.4159995705108
 30
0.0
 10
78.09388780823829
 20
102.4715102771303
 30
0.0
 10
78.72620455448637
 20
102.5495080901996
 30
0.0
 10
79.33369345496469
 20
102.647483308021
 30
0.0
 10
79.92352834705042
 20
102.7674467893785
 30
0.0
 10
80.47741515881344
 20
102.9046333621338
 30
0.0
 10
81.00700012827075
 20
103.0631375081107
 30
0.0
 10
81.49115115279446
 20
103.2351212915943
 30
0.0
 10
81.94463958761703
 20
103.4276636505069
 30
0.0
 10
82.34553504763636
 20
103.6292462492754
 30
0.0
 10
82.70955925153756
 20
103.8505760544392
 30
0.0
 10
83.01683501322404
 20
104.0766636558124
 30
0.0
 10
83.28091143065828
 20
104.3215171410206
 30
0.0
 10
83.48617861859405
 20
104.5692225721264
 30
0.0
 10
83.64139066603956
 20
104.8328878668146
 30
0.0
 10
83.73208191045289
 20
105.1006744554317
 30
0.0
 10
83.76726937486691
 20
105.3753419284883
 30
0.0
 10
83.73208191045661
 20
105.6500094015447
 30
0.0
 10
83.64139066604676
 20
105.9177959901612
 30
0.0
 10
83.48617861860427
 20
106.1814612848483
 30
0.0
 10
83.28091143067104
 20
106.4291667159524
 30
0.0
 10
83.01683501323902
 20
106.6740202011583
 30
0.0
 10
82.70955925155423
 20
106.9001078025285
 30
0.0
 10
82.34553504765421
 20
107.1214376076884
 30
0.0
 10
81.9446395876356
 20
107.3230202064519
 30
0.0
 10
81.49115115281313
 20
107.5155625653581
 30
0.0
 10
81.00700012828884
 20
107.6875463488335
 30
0.0
 10
80.47741515883025
 20
107.8460504947994
 30
0.0
 10
79.92352834706527
 20
107.9832370675406
 30
0.0
 10
79.33369345497677
 20
108.1032005488797
 30
0.0
 10
78.72620455449469
 20
108.2011757666779
 30
0.0
 10
78.09388780824149
 20
108.2791735797179
 30
0.0
 10
77.45084677724454
 20
108.3346842863009
 30
0.0
 10
76.79513788612445
 20
108.3685431540213
 30
0.0
 10
76.13583101123014
 20
108.3796495928675
 30
0.0
 10
75.47652413633956
 20
108.368543154249
 30
0.0
 10
74.82081524521477
 20
108.3346842867472
 30
0.0
 10
74.17777421425029
 20
108.2791735803753
 30
0.0
 10
73.5454574679023
 20
108.2011757674949
 30
0.0
 10
72.93796856778735
 20
108.1032005499367
 30
0.0
 10
72.34813367443402
 20
107.9832370684088
 30
0.0
 10
71.79424686719493
 20
107.8460504968329
 30
0.0
 10
71.26466188231215
 20
107.6875463471617
 30
0.0
 10
70.78051091192012
 20
107.5155625767316
 30
0.0
 10
70.32702229783615
 20
107.3230201743967
 30
0.0
 10
69.92612745689267
 20
107.1214377250712
 30
0.0
 10
69.56210126052218
 20
106.9001074380927
 30
0.0
 10
69.25483229154264
 20
106.6740214780272
 30
0.0
 10
68.9907344147525
 20
106.4291628059635
 30
0.0
 10
68.78554047895271
 20
106.1814750779949
 30
0.0
 10
68.63009367859475
 20
105.9177530467841
 30
0.0
 10
68.54023050534214
 20
105.6501665873719
 30
0.0
 10
68.50215552050588
 20
105.3748012508714
 30
0.0
 10
68.53210347232894
 20
105.1979383288962
 30
0.0
 10
68.5470774415576
 20
105.1095068679793
 30
0.0
 11
68.5470774415576
 21
105.1095068679793
 31
0.0
 11
68.6394298969166
 21
104.8366320503946
 31
0.0
 11
68.78244726167473
 21
104.5881934222909
 31
0.0
 11
68.99636059901852
 21
104.326346180863
 31
0.0
 11
69.2422956583853
 21
104.0961793142857
 31
0.0
 11
69.56551024463977
 21
103.8554151513478
 31
0.0
 11
69.90889005897442
 21
103.645537863688
 31
0.0
 11
70.32921061348152
 21
103.4322266681081
 31
0.0
 11
70.76254381555849
 21
103.2475578428465
 31
0.0
 11
71.26609494204344
 21
103.0674067439895
 31
0.0
 11
71.77816839319401
 21
102.9136984401682
 31
0.0
 11
72.34906160213791
 21
102.7714746998597
 31
0.0
 11
72.92545972181625
 21
102.6539686393966
 31
0.0
 11
73.54601645214039
 21
102.5533628638291
 31
0.0
 11
74.16988350708579
 21
102.4762738978285
 31
0.0
 11
74.8210786293776
 21
102.419751564295
 31
0.0
 11
75.47383179519719
 21
102.3860456017196
 31
0.0
 11
76.13583102122823
 21
102.3747522702966
 31
0.0
 11
76.79783024725924
 21
102.3860456017196
 31
0.0
 11
77.4505834130788
 21
102.419751564295
 31
0.0
 11
78.10177853537056
 21
102.4762738978285
 31
0.0
 11
78.72564559031592
 21
102.5533628638291
 31
0.0
 11
79.34620232064016
 21
102.6539686393966
 31
0.0
 11
79.92260044031856
 21
102.7714746998598
 31
0.0
 11
80.4934936492624
 21
102.9136984401682
 31
0.0
 11
81.00556710041292
 21
103.0674067439894
 31
0.0
 11
81.50911822689785
 21
103.2475578428464
 31
0.0
 11
81.94245142897482
 21
103.4322266681081
 31
0.0
 11
82.36277198348196
 21
103.645537863688
 31
0.0
 11
82.70615179781664
 21
103.8554151513478
 31
0.0
 11
83.02936638407114
 21
104.0961793142857
 31
0.0
 11
83.27530144343795
 21
104.326346180863
 31
0.0
 11
83.48921478078168
 21
104.5881934222909
 31
0.0
 11
83.63223214553977
 21
104.8366320503945
 31
0.0
 11
83.72458460089877
 21
105.1095068679793
 31
0.0
 11
83.75583102122889
 21
105.3753419286777
 31
0.0
 11
83.72458460089877
 21
105.6411769893761
 31
0.0
 11
83.63223214553977
 21
105.914051806961
 31
0.0
 11
83.48921478078168
 21
106.1624904350647
 31
0.0
 11
83.27530144343794
 21
106.4243376764925
 31
0.0
 11
83.02936638407115
 21
106.6545045430697
 31
0.0
 11
82.70615179781662
 21
106.8952687060076
 31
0.0
 11
82.36277198348196
 21
107.1051459936674
 31
0.0
 11
81.9424514289748
 21
107.3184571892473
 31
0.0
 11
81.50911822689784
 21
107.503126014509
 31
0.0
 11
81.00556710041289
 21
107.683277113366
 31
0.0
 11
80.4934936492623
 21
107.8369854171873
 31
0.0
 11
79.92260044031839
 21
107.9792091574958
 31
0.0
 11
79.34620232064009
 21
108.0967152179589
 31
0.0
 11
78.72564559031598
 21
108.1973209935264
 31
0.0
 11
78.10177853537061
 21
108.2744099595269
 31
0.0
 11
77.4505834130788
 21
108.3309322930604
 31
0.0
 11
76.79783024725924
 21
108.3646382556358
 31
0.0
 11
76.13583102122821
 21
108.3759315870588
 31
0.0
 11
75.47383179519717
 21
108.3646382556358
 31
0.0
 11
74.82107862937761
 21
108.3309322930604
 31
0.0
 11
74.16988350708579
 21
108.2744099595269
 31
0.0
 11
73.5460164521404
 21
108.1973209935264
 31
0.0
 11
72.92545972181625
 21
108.0967152179589
 31
0.0
 11
72.34906160213792
 21
107.9792091574958
 31
0.0
 11
71.77816839319401
 21
107.8369854171873
 31
0.0
 11
71.26609494204345
 21
107.683277113366
 31
0.0
 11
70.76254381555854
 21
107.503126014509
 31
0.0
 11
70.32921061348159
 21
107.3184571892473
 31
0.0
 11
69.90889005897438
 21
107.1051459936674
 31
0.0
 11
69.56551024463968
 21
106.8952687060076
 31
0.0
 11
69.24229565838523
 21
106.6545045430697
 31
0.0
 11
68.9963605990185
 21
106.4243376764925
 31
0.0
 11
68.78244726167472
 21
106.1624904350645
 31
0.0
 11
68.6394298969166
 21
105.9140518069608
 31
0.0
 11
68.5470774415576
 21
105.641176989376
 31
0.0
 11
68.5158310212275
 21
105.3753419286777
 31
0.0
 11
68.5470774415576
 21
105.1095068679793
 31
0.0
  0
SPLINE
  5
8C
330
47
100
AcDbEntity
  8
0
  6
Continuous
 62
     7
100
AcDbSpline
210
0.0
220
0.0
230
1.0
 70
     8
 71
     3
 72
    27
 73
    23
 74
    21
 42
0.000000001
 43
0.0000000001
 44
0.00000001
 40
0.0
 40
0.0
 40
0.0
 40
0.0
 40
0.7157231949453412
 40
1.431441972946431
 40
2.147966649822807
 40
2.864483072980313
 40
3.582232466784403
 40
4.299970838200173
 40
5.019218814406356
 40
5.738454391282872
 40
6.459293018734818
 40
7.180119388215739
 40
7.902448923007159
 40
8.624767793343054
 40
9.348309768099693
 40
10.07184389605061
 40
10.79617524599637
 40
11.52050244427782
 40
12.24510631157178
 40
12.96971017853072
 40
13.52652675935634
 40
14.08260751976732
 40
14.08260751976732
 40
14.08260751976732
 40
14.08260751976732
 10
75.42108981540213
 20
247.0037395565639
 30
0.0
 10
75.18390189755817
 20
247.0308454081489
 30
0.0
 10
74.70952752754455
 20
247.085056958365
 30
0.0
 10
74.01039805952016
 20
247.2459347248321
 30
0.0
 10
73.32709097201982
 20
247.4630623331729
 30
0.0
 10
72.66527105949349
 20
247.7413160199194
 30
0.0
 10
72.02988240740464
 20
248.0761910542312
 30
0.0
 10
71.425776881991
 20
248.4664080873055
 30
0.0
 10
70.85752993330996
 20
248.9079996681487
 30
0.0
 10
70.32952186610491
 20
249.398510903056
 30
0.0
 10
69.84565219678143
 20
249.9333186619477
 30
0.0
 10
69.40977678105678
 20
250.5092036369122
 30
0.0
 10
69.02495284865803
 20
251.1209656786398
 30
0.0
 10
68.6944301709173
 20
251.7647043639236
 30
0.0
 10
68.42031132908915
 20
252.4348422311911
 30
0.0
 10
68.20515559981108
 20
253.1268662895147
 30
0.0
 10
68.05003424620878
 20
253.8350448101105
 30
0.0
 10
67.9568017648383
 20
254.5543274697805
 30
0.0
 10
67.92519371232068
 20
255.2790938341408
 30
0.0
 10
67.95491925334886
 20
255.9478389608033
 30
0.0
 10
68.02554089498939
 20
256.556904988318
 30
0.0
 10
68.09908384935244
 20
256.9206508844516
 30
0.0
 10
68.1358310212309
 20
257.1024035812584
 30
0.0
 11
75.42108981540213
 21
247.0037395565639
 31
0.0
 11
74.71164168621105
 21
247.098307239048
 31
0.0
 11
74.01333694931725
 21
247.2552271733663
 31
0.0
 11
73.33077509533082
 21
247.4732109561426
 31
0.0
 11
72.67010897280062
 21
247.7505484046262
 31
0.0
 11
72.03522376663999
 21
248.0853393367362
 31
0.0
 11
71.43223121120036
 21
248.4746314490015
 31
0.0
 11
70.86436436869738
 21
248.9160438425294
 31
0.0
 11
70.33731535359513
 21
249.4054507809403
 31
0.0
 11
69.85375847725906
 21
249.9400357365639
 31
0.0
 11
69.41861707448868
 21
250.5147031317732
 31
0.0
 11
69.03407659176251
 21
251.1261674189998
 31
0.0
 11
68.70402928893884
 21
251.7686729278671
 31
0.0
 11
68.43017639730436
 21
252.4383874816783
 31
0.0
 11
68.21524043357019
 21
253.1292595150218
 31
0.0
 11
68.06036023887417
 21
253.8368385074612
 31
0.0
 11
67.96708173475423
 21
254.5551344156437
 31
0.0
 11
67.93583102122854
 21
255.279064079719
 31
0.0
 11
67.96708173475426
 21
256.0029937437944
 31
0.0
 11
68.033271938537
 21
256.5558622300139
 31
0.0
 11
68.1358310212309
 21
257.1024035812584
 31
0.0
  0
SPLINE
  5
8D
330
47
100
AcDbEntity
  8
0
  6
Continuous
 62
     7
100
AcDbSpline
210
0.0
220
0.0
230
1.0
 70
     8
 71
     3
 72
    29
 73
    25
 74
    23
 42
0.000000001
 43
0.0000000001
 44
0.00000001
 40
0.0
 40
0.0
 40
0.0
 40
0.0
 40
0.5560807599852161
 40
1.112897340664972
 40
1.837501207589083
 40
2.562105074891715
 40
3.28643227319539
 40
4.010763623168046
 40
4.734297751148603
 40
5.457839725937344
 40
6.180158596308912
 40
6.902488131140684
 40
7.623314500669117
 40
8.344153128178686
 40
9.063388705127522
 40
9.782636681427324
 40
10.50037505296994
 40
11.21812444695235
 40
11.93464087037662
 40
12.65116554767533
 40
13.36688432640423
 40
14.08260752222857
 40
14.79805062165031
 40
15.51349372031722
 40
15.51349372031722
 40
15.51349372031722
 40
15.51349372031722
 10
84.13583102123272
 20
257.1024035812299
 30
0.0
 10
84.17257819308249
 20
256.9206508845622
 30
0.0
 10
84.24612114749175
 20
256.5569049886331
 30
0.0
 10
84.31674278921106
 20
255.9478389613292
 30
0.0
 10
84.34646833030662
 20
255.2790938347287
 30
0.0
 10
84.31486027783664
 20
254.5543274703579
 30
0.0
 10
84.22162779649209
 20
253.8350448106976
 30
0.0
 10
84.06650644292105
 20
253.1268662899475
 30
0.0
 10
83.85135071360651
 20
252.4348422320484
 30
0.0
 10
83.57723187195803
 20
251.7647043630324
 30
0.0
 10
83.24670919356294
 20
251.120965684086
 30
0.0
 10
82.86188526359001
 20
250.5092036185392
 30
0.0
 10
82.42600983878442
 20
249.9333187320811
 30
0.0
 10
81.94214020322634
 20
249.3985106430243
 30
0.0
 10
81.41413201013555
 20
248.9080006374203
 30
0.0
 10
80.84588553051249
 20
248.4664044736946
 30
0.0
 10
80.24177825772519
 20
248.0762045095543
 30
0.0
 10
79.60639611992225
 20
247.7412658360575
 30
0.0
 10
78.94455193469955
 20
247.4632492649326
 30
0.0
 10
78.26133536737694
 20
247.2452373671473
 30
0.0
 10
77.5618684319673
 20
247.0876562884087
 30
0.0
 10
76.85165795831165
 20
246.9940504938751
 30
0.0
 10
76.13558294489533
 20
246.9586378526809
 30
0.0
 10
75.65925419160754
 20
246.9887056504975
 30
0.0
 10
75.42108981540213
 20
247.0037395565639
 30
0.0
 11
84.13583102123272
 21
257.1024035812299
 31
0.0
 11
84.23839010392244
 21
256.5558622299994
 31
0.0
 11
84.30458030770288
 21
256.0029937437944
 31
0.0
 11
84.33583102122854
 21
255.279064079719
 31
0.0
 11
84.3045803077029
 21
254.5551344156437
 31
0.0
 11
84.21130180358304
 21
253.8368385074612
 31
0.0
 11
84.056421608887
 21
253.1292595150218
 31
0.0
 11
83.8414856451528
 21
252.4383874816783
 31
0.0
 11
83.5676327535183
 21
251.7686729278672
 31
0.0
 11
83.23758545069464
 21
251.1261674189998
 31
0.0
 11
82.8530449679685
 21
250.5147031317732
 31
0.0
 11
82.41790356519816
 21
249.940035736564
 31
0.0
 11
81.93434668886205
 21
249.4054507809404
 31
0.0
 11
81.40729767375979
 21
248.9160438425295
 31
0.0
 11
80.83943083125683
 21
248.4746314490016
 31
0.0
 11
80.23643827581728
 21
248.0853393367362
 31
0.0
 11
79.60155306965675
 21
247.7505484046262
 31
0.0
 11
78.94088694712654
 21
247.4732109561426
 31
0.0
 11
78.25832509313989
 21
247.2552271733663
 31
0.0
 11
77.5600203562459
 21
247.098307239048
 31
0.0
 11
76.85057222705495
 21
247.0037395565639
 31
0.0
 11
76.13583102122858
 21
246.9720561290741
 31
0.0
 11
75.42108981540213
 21
247.0037395565639
 31
0.0
  0
SPLINE
  5
8E
330
47
100
AcDbEntity
  8
0
  6
Continuous
 62
     7
100
AcDbSpline
210
0.0
220
0.0
230
1.0
 70
     8
 71
     3
 72
    43
 73
    39
 74
    37
 42
0.000000001
 43
0.0000000001
 44
0.00000001
 40
0.0
 40
0.0
 40
0.0
 40
0.0
 40
0.635204222710891
 40
1.270370506174626
 40
1.911389447579931
 40
2.552340371688569
 40
3.202156823994524
 40
3.851887900974401
 40
4.51233324740745
 40
5.172689359422639
 40
5.84426152768558
 40
6.515751879406466
 40
7.197615459148033
 40
7.879412550273208
 40
8.569551789603869
 40
9.259644670793886
 40
9.95512907708281
 40
10.6505897834414
 40
11.34791329175564
 40
12.04523680007115
 40
12.74069750643358
 40
13.4361819127293
 40
14.12627479392979
 40
14.81641403327603
 40
15.49821112442291
 40
16.18007470419452
 40
16.85156505595582
 40
17.52313722427398
 40
18.18349333636391
 40
18.84393868290142
 40
19.49366976003029
 40
20.143486212563
 40
20.78443713704758
 40
21.42545607917977
 40
22.06062236442595
 40
22.69582659140837
 40
23.01286796528382
 40
23.3291700768277
 40
23.3291700768277
 40
23.3291700768277
 40
23.3291700768277
 10
84.10523021885564
 20
255.7031905566383
 30
0.0
 10
84.0790434636063
 20
255.4929136579503
 30
0.0
 10
84.02667150459209
 20
255.0723724217967
 30
0.0
 10
83.87105367091982
 20
254.4530242784731
 30
0.0
 10
83.6615750530968
 20
253.848505825873
 30
0.0
 10
83.39260253023349
 20
253.2623285247832
 30
0.0
 10
83.06977078418765
 20
252.7007862753903
 30
0.0
 10
82.69288029026295
 20
252.1660274113065
 30
0.0
 10
82.26755909502918
 20
251.6643334079539
 30
0.0
 10
81.79423244696912
 20
251.197276233746
 30
0.0
 10
81.27955116986004
 20
250.7704490476804
 30
0.0
 10
80.72435628054478
 20
250.3851840834664
 30
0.0
 10
80.13597017301024
 20
250.0459469708703
 30
0.0
 10
79.5158944353505
 20
249.7540060381792
 30
0.0
 10
78.87157876365195
 20
249.5124642578518
 30
0.0
 10
78.20548762012208
 20
249.3225184076561
 30
0.0
 10
77.52464474215893
 20
249.185891914975
 30
0.0
 10
76.83271357440933
 20
249.1035281465174
 30
0.0
 10
76.13583102104491
 20
249.0759448066223
 30
0.0
 10
75.43894846766682
 20
249.1035281465184
 30
0.0
 10
74.74701729995083
 20
249.1858919149816
 30
0.0
 10
74.06617442184452
 20
249.3225184076522
 30
0.0
 10
73.40008327880889
 20
249.5124642578983
 30
0.0
 10
72.75576760522219
 20
249.7540060380543
 30
0.0
 10
72.13569187444884
 20
250.0459469713992
 30
0.0
 10
71.54730574129465
 20
250.3851840816035
 30
0.0
 10
70.9921109460486
 20
250.7704490546544
 30
0.0
 10
70.47742932068665
 20
251.1972762080844
 30
0.0
 10
70.00410395132857
 20
251.66433350224
 30
0.0
 10
69.5787780254463
 20
252.1660270620147
 30
0.0
 10
69.2019049132305
 20
252.7007875562074
 30
0.0
 10
68.87900880516023
 20
253.2623237700197
 30
0.0
 10
68.6102733674984
 20
253.8485233047998
 30
0.0
 10
68.39991507327909
 20
254.4529592639584
 30
0.0
 10
68.2475518041341
 20
255.0726126157954
 30
0.0
 10
68.17201015533948
 20
255.5971595737214
 30
0.0
 10
68.14027087610957
 20
256.019025241703
 30
0.0
 10
68.1373098166787
 20
256.2301637194301
 30
0.0
 10
68.13583102122863
 20
256.3356097340708
 30
0.0
 11
84.10523021885564
 21
255.7031905566383
 31
0.0
 11
84.0139050289557
 21
255.0745856557674
 31
0.0
 11
83.86272593798193
 21
254.4576731068005
 31
0.0
 11
83.65196186156331
 21
253.8522940613234
 31
0.0
 11
83.38520206801078
 21
253.2694928083409
 31
0.0
 11
83.06133233026901
 21
252.7061369570006
 31
0.0
 11
82.6873528707314
 21
252.1748274081718
 31
0.0
 11
82.26036411369854
 21
251.6709736026373
 31
0.0
 11
81.79056769053118
 21
251.2069030091394
 31
0.0
 11
81.2737278149759
 21
250.7780840258002
 31
0.0
 11
80.72222568070531
 21
250.3950113322322
 31
0.0
 11
80.13158525441179
 21
250.0543034978892
 31
0.0
 11
79.51483829701056
 21
249.7636654684633
 31
0.0
 11
78.86865518592128
 21
249.5213030193739
 31
0.0
 11
78.2050633850352
 21
249.3318984086441
 31
0.0
 11
77.52318444749623
 21
249.1950054796236
 31
0.0
 11
76.83260938635064
 21
249.112715267055
 31
0.0
 11
76.1358310212286
 21
249.0851474377776
 31
0.0
 11
75.43905265610654
 21
249.112715267055
 31
0.0
 11
74.74847759496096
 21
249.1950054796236
 31
0.0
 11
74.06659865742209
 21
249.3318984086441
 31
0.0
 11
73.40300685653614
 21
249.5213030193738
 31
0.0
 11
72.75682374544681
 21
249.7636654684633
 31
0.0
 11
72.14007678804543
 21
250.0543034978892
 31
0.0
 11
71.54943636175176
 21
250.3950113322322
 31
0.0
 11
70.99793422748108
 21
250.7780840258002
 31
0.0
 11
70.48109435192585
 21
251.2069030091395
 31
0.0
 11
70.01129792875857
 21
251.6709736026373
 31
0.0
 11
69.58430917172574
 21
252.1748274081718
 31
0.0
 11
69.21032971218814
 21
252.7061369570006
 31
0.0
 11
68.88645997444641
 21
253.2694928083409
 31
0.0
 11
68.61970018089393
 21
253.8522940613234
 31
0.0
 11
68.40893610447543
 21
254.4576731068005
 31
0.0
 11
68.25775701350163
 21
255.0745856557674
 31
0.0
 11
68.16643182360136
 21
255.7031905566383
 31
0.0
 11
68.14348122182182
 21
256.0194001453544
 31
0.0
 11
68.13583102122863
 21
256.3356097340708
 31
0.0
  0
SPLINE
  5
8F
330
47
100
AcDbEntity
  8
0
  6
Continuous
 62
     7
100
AcDbSpline
210
0.0
220
0.0
230
1.0
 70
     8
 71
     3
 72
     9
 73
     5
 74
     3
 42
0.000000001
 43
0.0000000001
 44
0.00000001
 40
0.0
 40
0.0
 40
0.0
 40
0.0
 40
0.3163021173071069
 40
0.6333434931012722
 40
0.6333434931012722
 40
0.6333434931012722
 40
0.6333434931012722
 10
84.13583102122851
 20
256.3356097340719
 30
0.0
 10
84.13455004517122
 20
256.230145166384
 30
0.0
 10
84.13198507919411
 20
256.0189695408856
 30
0.0
 10
84.11415544939595
 20
255.8085320940584
 30
0.0
 10
84.10523021885564
 20
255.7031905566383
 30
0.0
 11
84.13583102122851
 21
256.3356097340719
 31
0.0
 11
84.12818082063541
 21
256.0194001453551
 31
0.0
 11
84.10523021885564
 21
255.7031905566383
 31
0.0
  0
ARC
  5
90
330
47
100
AcDbEntity
  8
0
  6
PHANTOM
 62
     4
100
AcDbCircle
 10
166.803157814988
 20
115.3753419286554
 30
0.0
 40
29.99999999999999
100
AcDbArc
 50
90.0
 51
155.0
  0
ENDBLK
  5
49
330
47
100
AcDbEntity
  8
0
100
AcDbBlockEnd
  0
BLOCK
  5
4B
330
4A
100
AcDbEntity
  8
0
100
AcDbBlockBegin
  2
Y12-0-13
 70
     0
 10
251.0677307778072
 20
165.8753419286554
 30
0.0
  3
Y12-0-13
  1

  0
LINE
  5
91
330
4A
100
AcDbEntity
  8
1
  6
Continuous
 62
     7
100
AcDbLine
 10
88.13583102122865
 20
170.8071623402669
 30
0.0
 11
88.13583102122865
 21
162.080029788975
 31
0.0
  0
LINE
  5
92
330
4A
100
AcDbEntity
  8
1
  6
Continuous
 62
     2
100
AcDbLine
 10
87.13583102122865
 20
169.3796001755082
 30
0.0
 11
88.13583102122865
 21
167.6475493679393
 31
0.0
  0
LINE
  5
93
330
4A
100
AcDbEntity
  8
1
  6
Continuous
 62
     2
100
AcDbLine
 10
64.13583102122865
 20
167.6475493679393
 30
0.0
 11
65.13583102122865
 21
169.3796001755082
 31
0.0
  0
LINE
  5
94
330
4A
100
AcDbEntity
  8
1
  6
Continuous
 62
     7
100
AcDbLine
 10
69.79019934255254
 20
306.7515055386112
 30
0.0
 11
63.13583102122865
 21
306.7515055386112
 31
0.0
  0
LINE
  5
95
330
4A
100
AcDbEntity
  8
1
  6
Continuous
 62
     7
100
AcDbLine
 10
84.88583102122865
 20
369.7152421175738
 30
0.0
 11
84.88583102122865
 21
355.2710288477862
 31
0.0
  0
LINE
  5
96
330
4A
100
AcDbEntity
  8
1
  6
Continuous
 62
     7
100
AcDbLine
 10
98.67506056909255
 20
373.7152421175738
 30
0.0
 11
53.59660147336476
 21
373.7152421175738
 31
0.0
  0
LINE
  5
97
330
4A
100
AcDbEntity
  8
1
  6
Continuous
 62
     7
100
AcDbLine
 10
67.38583102122865
 20
369.7152421175738
 30
0.0
 11
67.38583102122865
 21
355.2710288477862
 31
0.0
  0
LINE
  5
98
330
4A
100
AcDbEntity
  8
1
  6
Continuous
 62
     7
100
AcDbLine
 10
66.63583102122865
 20
389.2515055386112
 30
0.0
 11
85.63583102122865
 21
389.2515055386112
 31
0.0
  0
LINE
  5
99
330
4A
100
AcDbEntity
  8
1
  6
Continuous
 62
     7
100
AcDbLine
 10
66.63583102122865
 20
377.9835563461801
 30
0.0
 11
85.63583102122865
 21
377.9835563461801
 31
0.0
  0
LINE
  5
9A
330
4A
100
AcDbEntity
  8
1
  6
Continuous
 62
     7
100
AcDbLine
 10
65.63583102122865
 20
376.2515055386112
 30
0.0
 11
86.63583102122865
 21
376.2515055386112
 31
0.0
  0
LINE
  5
9B
330
4A
100
AcDbEntity
  8
1
  6
Continuous
 62
     7
100
AcDbLine
 10
86.63583102122865
 20
377.9835563461801
 30
0.0
 11
86.63583102122865
 21
376.2515055386112
 31
0.0
  0
LINE
  5
9C
330
4A
100
AcDbEntity
  8
1
  6
Continuous
 62
     7
100
AcDbLine
 10
85.63583102122865
 20
390.2515055386112
 30
0.0
 11
66.63583102122865
 21
390.2515055386112
 31
0.0
  0
LINE
  5
9D
330
4A
100
AcDbEntity
  8
1
  6
Continuous
 62
     7
100
AcDbLine
 10
86.63583102122865
 20
389.2515055386112
 30
0.0
 11
85.63583102122865
 21
390.2515055386112
 31
0.0
  0
LINE
  5
9E
330
4A
100
AcDbEntity
  8
1
  6
Continuous
 62
     7
100
AcDbLine
 10
86.63583102122865
 20
377.9835563461801
 30
0.0
 11
85.63583102122865
 21
377.9835563461801
 31
0.0
  0
LINE
  5
9F
330
4A
100
AcDbEntity
  8
1
  6
Continuous
 62
     7
100
AcDbLine
 10
86.63583102122865
 20
389.2515055386112
 30
0.0
 11
86.63583102122865
 21
377.9835563461801
 31
0.0
  0
LINE
  5
A0
330
4A
100
AcDbEntity
  8
1
  6
Continuous
 62
     7
100
AcDbLine
 10
85.63583102122865
 20
389.2515055386112
 30
0.0
 11
86.63583102122865
 21
389.2515055386112
 31
0.0
  0
LINE
  5
A1
330
4A
100
AcDbEntity
  8
1
  6
Continuous
 62
     7
100
AcDbLine
 10
65.63583102122865
 20
389.2515055386112
 30
0.0
 11
66.63583102122865
 21
389.2515055386112
 31
0.0
  0
LINE
  5
A2
330
4A
100
AcDbEntity
  8
1
  6
Continuous
 62
     7
100
AcDbLine
 10
65.63583102122865
 20
377.9835563461801
 30
0.0
 11
65.63583102122865
 21
389.2515055386112
 31
0.0
  0
LINE
  5
A3
330
4A
100
AcDbEntity
  8
1
  6
Continuous
 62
     7
100
AcDbLine
 10
66.63583102122865
 20
377.9835563461801
 30
0.0
 11
65.63583102122865
 21
377.9835563461801
 31
0.0
  0
LINE
  5
A4
330
4A
100
AcDbEntity
  8
1
  6
Continuous
 62
     7
100
AcDbLine
 10
66.63583102122865
 20
390.2515055386112
 30
0.0
 11
65.63583102122865
 21
389.2515055386112
 31
0.0
  0
LINE
  5
A5
330
4A
100
AcDbEntity
  8
1
  6
Continuous
 62
     7
100
AcDbLine
 10
65.63583102122865
 20
376.2515055386112
 30
0.0
 11
65.63583102122865
 21
377.9835563461801
 31
0.0
  0
LINE
  5
A6
330
4A
100
AcDbEntity
  8
1
  6
Continuous
 62
     2
100
AcDbLine
 10
66.63583102122865
 20
389.2515055386112
 30
0.0
 11
66.63583102122865
 21
390.2515055386112
 31
0.0
  0
LINE
  5
A7
330
4A
100
AcDbEntity
  8
1
  6
Continuous
 62
     2
100
AcDbLine
 10
66.63583102122865
 20
377.9835563461801
 30
0.0
 11
66.63583102122865
 21
389.2515055386112
 31
0.0
  0
LINE
  5
A8
330
4A
100
AcDbEntity
  8
1
  6
Continuous
 62
     2
100
AcDbLine
 10
65.63583102122865
 20
376.2515055386112
 30
0.0
 11
66.63583102122865
 21
377.9835563461801
 31
0.0
  0
LINE
  5
A9
330
4A
100
AcDbEntity
  8
1
  6
Continuous
 62
     7
100
AcDbLine
 10
53.13583102122865
 20
376.2515055386112
 30
0.0
 11
65.63583102122865
 21
376.2515055386112
 31
0.0
  0
LINE
  5
AA
330
4A
100
AcDbEntity
  8
1
  6
Continuous
 62
     7
100
AcDbLine
 10
53.13583102122865
 20
376.2515055386112
 30
0.0
 11
53.13583102122865
 21
374.2137007844403
 31
0.0
  0
LINE
  5
AB
330
4A
100
AcDbEntity
  8
1
  6
Continuous
 62
     7
100
AcDbLine
 10
99.13583102122865
 20
374.2137007844403
 30
0.0
 11
99.13583102122865
 21
376.2515055386112
 31
0.0
  0
LINE
  5
AC
330
4A
100
AcDbEntity
  8
1
  6
Continuous
 62
     7
100
AcDbLine
 10
86.63583102122865
 20
376.2515055386112
 30
0.0
 11
99.13583102122865
 21
376.2515055386112
 31
0.0
  0
LINE
  5
AD
330
4A
100
AcDbEntity
  8
1
  6
Continuous
 62
     2
100
AcDbLine
 10
85.63583102122865
 20
377.9835563461801
 30
0.0
 11
86.63583102122865
 21
376.2515055386112
 31
0.0
  0
LINE
  5
AE
330
4A
100
AcDbEntity
  8
1
  6
Continuous
 62
     2
100
AcDbLine
 10
85.63583102122865
 20
389.2515055386112
 30
0.0
 11
85.63583102122865
 21
377.9835563461801
 31
0.0
  0
LINE
  5
AF
330
4A
100
AcDbEntity
  8
1
  6
Continuous
 62
     2
100
AcDbLine
 10
85.63583102122865
 20
390.2515055386112
 30
0.0
 11
85.63583102122865
 21
389.2515055386112
 31
0.0
  0
LINE
  5
B0
330
4A
100
AcDbEntity
  8
1
  6
Continuous
 62
     7
100
AcDbLine
 10
248.5677307778072
 20
167.9167005999458
 30
0.0
 11
248.5677307778072
 21
157.8136346691705
 31
0.0
  0
LINE
  5
B1
330
4A
100
AcDbEntity
  8
1
  6
Continuous
 62
     7
100
AcDbLine
 10
251.0677307778072
 20
168.3774710520818
 30
0.0
 11
249.0661894446738
 21
168.3774710520818
 31
0.0
  0
LINE
  5
B2
330
4A
100
AcDbEntity
  8
1
  6
Continuous
 62
     7
100
AcDbLine
 10
251.0677307778072
 20
168.3774710520818
 30
0.0
 11
251.0677307778072
 21
134.8774710520818
 31
0.0
  0
LINE
  5
B3
330
4A
100
AcDbEntity
  8
1
  6
Continuous
 62
     7
100
AcDbLine
 10
251.0677307778072
 20
155.8774710520818
 30
0.0
 11
252.7997815853761
 21
155.8774710520818
 31
0.0
  0
LINE
  5
B4
330
4A
100
AcDbEntity
  8
1
  6
Continuous
 62
     2
100
AcDbLine
 10
251.0677307778072
 20
155.8774710520818
 30
0.0
 11
252.7997815853761
 21
154.8774710520818
 31
0.0
  0
LINE
  5
B5
330
4A
100
AcDbEntity
  8
1
  6
Continuous
 62
     2
100
AcDbLine
 10
252.7997815853761
 20
154.8774710520818
 30
0.0
 11
264.0677307778072
 21
154.8774710520818
 31
0.0
  0
LINE
  5
B6
330
4A
100
AcDbEntity
  8
1
  6
Continuous
 62
     7
100
AcDbLine
 10
265.0677307778072
 20
154.8774710520818
 30
0.0
 11
264.0677307778072
 21
155.8774710520818
 31
0.0
  0
LINE
  5
B7
330
4A
100
AcDbEntity
  8
1
  6
Continuous
 62
     7
100
AcDbLine
 10
252.7997815853761
 20
154.8774710520818
 30
0.0
 11
252.7997815853761
 21
155.8774710520818
 31
0.0
  0
LINE
  5
B8
330
4A
100
AcDbEntity
  8
1
  6
Continuous
 62
     7
100
AcDbLine
 10
252.7997815853761
 20
155.8774710520818
 30
0.0
 11
264.0677307778072
 21
155.8774710520818
 31
0.0
  0
LINE
  5
B9
330
4A
100
AcDbEntity
  8
1
  6
Continuous
 62
     2
100
AcDbLine
 10
265.0677307778072
 20
135.8774710520818
 30
0.0
 11
264.0677307778072
 21
135.8774710520818
 31
0.0
  0
LINE
  5
BA
330
4A
100
AcDbEntity
  8
1
  6
Continuous
 62
     7
100
AcDbLine
 10
264.0677307778072
 20
134.8774710520818
 30
0.0
 11
252.7997815853761
 21
134.8774710520818
 31
0.0
  0
LINE
  5
BB
330
4A
100
AcDbEntity
  8
1
  6
Continuous
 62
     7
100
AcDbLine
 10
252.7997815853761
 20
134.8774710520818
 30
0.0
 11
252.7997815853761
 21
135.8774710520818
 31
0.0
  0
LINE
  5
BC
330
4A
100
AcDbEntity
  8
1
  6
Continuous
 62
     7
100
AcDbLine
 10
264.0677307778072
 20
134.8774710520818
 30
0.0
 11
265.0677307778072
 21
135.8774710520818
 31
0.0
  0
LINE
  5
BD
330
4A
100
AcDbEntity
  8
1
  6
Continuous
 62
     7
100
AcDbLine
 10
265.0677307778072
 20
139.3774710520818
 30
0.0
 11
265.0677307778072
 21
154.8774710520818
 31
0.0
  0
LINE
  5
BE
330
4A
100
AcDbEntity
  8
1
  6
Continuous
 62
     2
100
AcDbLine
 10
252.7997815853761
 20
135.8774710520818
 30
0.0
 11
251.0677307778072
 21
134.8774710520818
 31
0.0
  0
LINE
  5
BF
330
4A
100
AcDbEntity
  8
1
  6
Continuous
 62
     7
100
AcDbLine
 10
252.7997815853761
 20
134.8774710520818
 30
0.0
 11
251.0677307778072
 21
134.8774710520818
 31
0.0
  0
LINE
  5
C0
330
4A
100
AcDbEntity
  8
1
  6
Continuous
 62
     7
100
AcDbLine
 10
251.0677307778072
 20
134.8774710520818
 30
0.0
 11
251.0677307778072
 21
122.3774710520819
 31
0.0
  0
LINE
  5
C1
330
4A
100
AcDbEntity
  8
1
  6
Continuous
 62
     7
100
AcDbLine
 10
249.0661894446738
 20
122.3774710520819
 30
0.0
 11
251.0677307778072
 21
122.3774710520819
 31
0.0
  0
LINE
  5
C2
330
4A
100
AcDbEntity
  8
1
  6
Continuous
 62
     7
100
AcDbLine
 10
248.5677307778072
 20
157.8136346691705
 30
0.0
 11
248.5677307778072
 21
122.8382415042179
 31
0.0
  0
LINE
  5
C3
330
4A
100
AcDbEntity
  8
1
  6
Continuous
 62
     7
100
AcDbLine
 10
265.0677307778072
 20
139.3774710520818
 30
0.0
 11
265.0677307778072
 21
135.8774710520818
 31
0.0
  0
LINE
  5
C4
330
4A
100
AcDbEntity
  8
1
  6
Continuous
 62
     7
100
AcDbLine
 10
244.5800614428748
 20
154.1274710520818
 30
0.0
 11
230.0872540869822
 21
154.1274710520819
 31
0.0
  0
LINE
  5
C5
330
4A
100
AcDbEntity
  8
1
  6
Continuous
 62
     7
100
AcDbLine
 10
218.0677307778072
 20
169.3774710520818
 30
0.0
 11
218.0677307778072
 21
160.7094920291153
 31
0.0
  0
LINE
  5
C6
330
4A
100
AcDbEntity
  8
1
  6
Continuous
 62
     7
100
AcDbLine
 10
217.0677307778072
 20
169.3774710520818
 30
0.0
 11
218.0677307778072
 21
169.3774710520818
 31
0.0
  0
LINE
  5
C7
330
4A
100
AcDbEntity
  8
1
  6
Continuous
 62
     7
100
AcDbLine
 10
218.0677307778072
 20
169.3774710520818
 30
0.0
 11
218.0677307778072
 21
170.8071623402668
 31
0.0
  0
LINE
  5
C8
330
4A
100
AcDbEntity
  8
1
  6
Continuous
 62
     7
100
AcDbLine
 10
194.0677307778072
 20
169.3774710520818
 30
0.0
 11
195.0677307778072
 21
169.3774710520818
 31
0.0
  0
LINE
  5
C9
330
4A
100
AcDbEntity
  8
1
  6
Continuous
 62
     2
100
AcDbLine
 10
195.0677307778072
 20
169.3774710520818
 30
0.0
 11
195.0677307778072
 21
170.8071623402668
 31
0.0
  0
LINE
  5
CA
330
4A
100
AcDbEntity
  8
1
  6
Continuous
 62
     2
100
AcDbLine
 10
194.0677307778072
 20
167.645420244513
 30
0.0
 11
195.0677307778072
 21
169.3774710520818
 31
0.0
  0
LINE
  5
CB
330
4A
100
AcDbEntity
  8
1
  6
Continuous
 62
     7
100
AcDbLine
 10
194.0677307778072
 20
169.3774710520818
 30
0.0
 11
194.0677307778072
 21
167.645420244513
 31
0.0
  0
LINE
  5
CC
330
4A
100
AcDbEntity
  8
1
  6
Continuous
 62
     7
100
AcDbLine
 10
230.0872540869822
 20
136.6274710520818
 30
0.0
 11
244.5800614428748
 21
136.6274710520818
 31
0.0
  0
LINE
  5
CD
330
4A
100
AcDbEntity
  8
1
  6
Continuous
 62
     7
100
AcDbLine
 10
181.5677307778072
 20
132.3774710520818
 30
0.0
 11
181.0677307778073
 21
132.3774710520818
 31
0.0
  0
LINE
  5
CE
330
4A
100
AcDbEntity
  8
1
  6
Continuous
 62
     7
100
AcDbLine
 10
181.5677307778072
 20
132.3774710520818
 30
0.0
 11
181.5677307778072
 21
133.1904710520818
 31
0.0
  0
LINE
  5
CF
330
4A
100
AcDbEntity
  8
1
  6
Continuous
 62
     7
100
AcDbLine
 10
181.5677307778072
 20
157.5644710520819
 30
0.0
 11
181.5677307778072
 21
158.3774710520818
 31
0.0
  0
LINE
  5
D0
330
4A
100
AcDbEntity
  8
1
  6
Continuous
 62
     2
100
AcDbLine
 10
182.9761123110336
 20
157.5644710520819
 30
0.0
 11
181.5677307778072
 21
157.5644710520819
 31
0.0
  0
LINE
  5
D1
330
4A
100
AcDbEntity
  8
1
  6
Continuous
 62
     7
100
AcDbLine
 10
181.0677307778073
 20
158.3774710520818
 30
0.0
 11
181.5677307778072
 21
158.3774710520818
 31
0.0
  0
LINE
  5
D2
330
4A
100
AcDbEntity
  8
1
  6
Continuous
 62
     7
100
AcDbLine
 10
194.0677307778072
 20
160.9553137693504
 30
0.0
 11
194.0677307778072
 21
167.645420244513
 31
0.0
  0
LINE
  5
D3
330
4A
100
AcDbEntity
  8
1
  6
Continuous
 62
     7
100
AcDbLine
 10
89.13583102122865
 20
306.7515055386112
 30
0.0
 11
89.13583102122865
 21
306.2515055386112
 31
0.0
  0
LINE
  5
D4
330
4A
100
AcDbEntity
  8
1
  6
Continuous
 62
     7
100
AcDbLine
 10
63.13583102122865
 20
306.2515055386112
 30
0.0
 11
63.13583102122865
 21
306.7515055386112
 31
0.0
  0
LINE
  5
D5
330
4A
100
AcDbEntity
  8
1
  6
Continuous
 62
     7
100
AcDbLine
 10
89.13583102122865
 20
306.7515055386112
 30
0.0
 11
82.48146269990465
 21
306.7515055386112
 31
0.0
  0
LINE
  5
D6
330
4A
100
AcDbEntity
  8
1
  6
Continuous
 62
     2
100
AcDbLine
 10
88.32283102122867
 20
308.1598870718376
 30
0.0
 11
88.32283102122867
 21
306.2515055386112
 31
0.0
  0
LINE
  5
D7
330
4A
100
AcDbEntity
  8
1
  6
Continuous
 62
     2
100
AcDbLine
 10
63.94883102122864
 20
306.2515055386112
 30
0.0
 11
63.94883102122864
 21
308.1598870718376
 31
0.0
  0
LINE
  5
D8
330
4A
100
AcDbEntity
  8
1
  6
Continuous
 62
     7
100
AcDbLine
 10
264.0677307778072
 20
155.8774710520818
 30
0.0
 11
264.0677307778072
 21
154.8774710520818
 31
0.0
  0
LINE
  5
D9
330
4A
100
AcDbEntity
  8
1
  6
Continuous
 62
     2
100
AcDbLine
 10
264.0677307778072
 20
154.8774710520818
 30
0.0
 11
265.0677307778072
 21
154.8774710520818
 31
0.0
  0
LINE
  5
DA
330
4A
100
AcDbEntity
  8
1
  6
Continuous
 62
     7
100
AcDbLine
 10
264.0677307778072
 20
134.8774710520818
 30
0.0
 11
264.0677307778072
 21
135.8774710520818
 31
0.0
  0
LINE
  5
DB
330
4A
100
AcDbEntity
  8
1
  6
Continuous
 62
     2
100
AcDbLine
 10
264.0677307778072
 20
135.8774710520818
 30
0.0
 11
252.7997815853761
 21
135.8774710520818
 31
0.0
  0
LINE
  5
DC
330
4A
100
AcDbEntity
  8
1
  6
Continuous
 62
     2
100
AcDbLine
 10
181.0677307778073
 20
133.1904710520818
 30
0.0
 11
181.5677307778072
 21
133.1904710520818
 31
0.0
  0
LINE
  5
DD
330
4A
100
AcDbEntity
  8
1
  6
Continuous
 62
     2
100
AcDbLine
 10
87.13583102122865
 20
169.3796001755082
 30
0.0
 11
87.13583102122865
 21
170.8071623402669
 31
0.0
  0
LINE
  5
DE
330
4A
100
AcDbEntity
  8
1
  6
Continuous
 62
     2
100
AcDbLine
 10
65.13583102122865
 20
169.3796001755082
 30
0.0
 11
65.13583102122865
 21
170.8071623402669
 31
0.0
  0
LINE
  5
DF
330
4A
100
AcDbEntity
  8
1
  6
Continuous
 62
     7
100
AcDbLine
 10
64.13583102122865
 20
169.3796001755082
 30
0.0
 11
88.13583102122865
 21
169.3796001755082
 31
0.0
  0
LINE
  5
E0
330
4A
100
AcDbEntity
  8
1
  6
Continuous
 62
     7
100
AcDbLine
 10
64.13583102122865
 20
162.080029788975
 30
0.0
 11
64.13583102122865
 21
170.8071623402669
 31
0.0
  0
LINE
  5
E1
330
4A
100
AcDbEntity
  8
0
  6
Continuous
 62
     7
100
AcDbLine
 10
252.7997815853761
 20
154.8774710520818
 30
0.0
 11
252.7997815853761
 21
135.8774710520818
 31
0.0
  0
LINE
  5
E2
330
4A
100
AcDbEntity
  8
0
  6
Continuous
 62
     7
100
AcDbLine
 10
264.0677307778072
 20
135.8774710520818
 30
0.0
 11
264.0677307778072
 21
154.8774710520818
 31
0.0
  0
LINE
  5
E3
330
4A
100
AcDbEntity
  8
0
  6
Continuous
 62
     7
100
AcDbLine
 10
217.0677307778072
 20
169.3774710520818
 30
0.0
 11
195.0677307778072
 21
169.3774710520818
 31
0.0
  0
LINE
  5
E4
330
4A
100
AcDbEntity
  8
1
  6
Continuous
 62
     2
100
AcDbLine
 10
217.0677307778072
 20
169.3774710520818
 30
0.0
 11
218.0677307778072
 21
167.645420244513
 31
0.0
  0
LINE
  5
E5
330
4A
100
AcDbEntity
  8
1
  6
Continuous
 62
     2
100
AcDbLine
 10
217.0677307778072
 20
170.8185206562105
 30
0.0
 11
217.0677307778072
 21
169.3774710520818
 31
0.0
  0
LINE
  5
E6
330
4A
100
AcDbEntity
  8
1
  6
Continuous
 62
     7
100
AcDbLine
 10
194.0677307778072
 20
170.8071623402668
 30
0.0
 11
194.0677307778072
 21
169.3774710520818
 31
0.0
  0
LINE
  5
E7
330
4A
100
AcDbEntity
  8
0
  6
Continuous
 62
     7
100
AcDbLine
 10
181.5677307778072
 20
157.5644710520819
 30
0.0
 11
181.5677307778072
 21
133.1904710520818
 31
0.0
  0
LINE
  5
E8
330
4A
100
AcDbEntity
  8
1
  6
Continuous
 62
     2
100
AcDbLine
 10
181.5677307778072
 20
157.5644710520819
 30
0.0
 11
181.0677307778073
 21
157.5644710520819
 31
0.0
  0
LINE
  5
E9
330
4A
100
AcDbEntity
  8
1
  6
Continuous
 62
     2
100
AcDbLine
 10
181.5677307778072
 20
133.1904710520818
 30
0.0
 11
182.9761123110336
 21
133.1904710520818
 31
0.0
  0
ARC
  5
EA
330
4A
100
AcDbEntity
  8
1
  6
Continuous
 62
     7
100
AcDbCircle
 10
76.13583102122865
 20
145.3774710520818
 30
0.0
 40
23.0000000000001
100
AcDbArc
 50
121.4489813893794
 51
249.6455936017627
  0
ARC
  5
EB
330
4A
100
AcDbEntity
  8
1
  6
Continuous
 62
     7
100
AcDbCircle
 10
76.13583102122865
 20
145.3774710520818
 30
0.0
 40
23.0
100
AcDbArc
 50
0.0
 51
58.55101861062059
  0
ARC
  5
EC
330
4A
100
AcDbEntity
  8
1
  6
Continuous
 62
     7
100
AcDbCircle
 10
76.13583102122865
 20
145.3774710520818
 30
0.0
 40
22.99999999999996
100
AcDbArc
 50
290.3544063982372
 51
0.0
  0
ARC
  5
ED
330
4A
100
AcDbEntity
  8
0
  6
Continuous
 62
     7
100
AcDbCircle
 10
17.13991962800074
 20
159.2962699994927
 30
0.0
 40
47.07828593147446
100
AcDbArc
 50
353.1263573403659
 51
3.38990206119939
  0
ARC
  5
EE
330
4A
100
AcDbEntity
  8
0
  6
Continuous
 62
     7
100
AcDbCircle
 10
109.6317424144568
 20
145.3774710520818
 30
0.0
 40
46.49591139322815
100
AcDbArc
 50
169.7364552791665
 51
172.3329676727367
  0
ARC
  5
EF
330
4A
100
AcDbEntity
  8
0
  6
Continuous
 62
     7
100
AcDbCircle
 10
42.63991962800054
 20
145.3774710520818
 30
0.0
 40
46.49591139322808
100
AcDbArc
 50
7.66703232726326
 51
10.26354472083352
  0
ARC
  5
F0
330
4A
100
AcDbEntity
  8
0
  6
Continuous
 62
     7
100
AcDbCircle
 10
135.1317424144564
 20
159.2962699994927
 30
0.0
 40
47.0782859314743
100
AcDbArc
 50
176.6100979388006
 51
186.873642659634
  0
ARC
  5
F1
330
4A
100
AcDbEntity
  8
1
  6
Continuous
 62
     7
100
AcDbCircle
 10
88.88583102122865
 20
369.7152421175738
 30
0.0
 40
4.0
100
AcDbArc
 50
90.0
 51
180.0
  0
ARC
  5
F2
330
4A
100
AcDbEntity
  8
1
  6
Continuous
 62
     7
100
AcDbCircle
 10
63.38583102122865
 20
369.7152421175738
 30
0.0
 40
4.000000000000007
100
AcDbArc
 50
0.0
 51
90.0
  0
ARC
  5
F3
330
4A
100
AcDbEntity
  8
1
  6
Continuous
 62
     7
100
AcDbCircle
 10
206.0677307778072
 20
172.3774710520818
 30
0.0
 40
39.99999999999993
100
AcDbArc
 50
252.85227084313
 51
290.0680546208193
  0
ARC
  5
F4
330
4A
100
AcDbEntity
  8
1
  6
Continuous
 62
     7
100
AcDbCircle
 10
189.8177307778072
 20
119.7121649296329
 30
0.0
 40
15.11530612244889
100
AcDbArc
 50
116.9124518081921
 51
123.079648002458
  0
ARC
  5
F5
330
4A
100
AcDbEntity
  8
1
  6
Continuous
 62
     7
100
AcDbCircle
 10
189.8177307778072
 20
119.7121649296329
 30
0.0
 40
15.11530612244897
100
AcDbArc
 50
72.85227084312977
 51
116.9124518081921
  0
ARC
  5
F6
330
4A
100
AcDbEntity
  8
1
  6
Continuous
 62
     7
100
AcDbCircle
 10
189.8177307778072
 20
171.0427771745308
 30
0.0
 40
15.115306122449
100
AcDbArc
 50
236.9203519975422
 51
243.087548191808
  0
ARC
  5
F7
330
4A
100
AcDbEntity
  8
1
  6
Continuous
 62
     7
100
AcDbCircle
 10
189.0677307778072
 20
160.9553137693504
 30
0.0
 40
4.999999999999965
100
AcDbArc
 50
265.7478988069224
 51
0.0
  0
ARC
  5
F8
330
4A
100
AcDbEntity
  8
1
  6
Continuous
 62
     7
100
AcDbCircle
 10
189.8177307778072
 20
171.0427771745308
 30
0.0
 40
15.11530612244891
100
AcDbArc
 50
243.087548191808
 51
265.7478988069223
  0
ARC
  5
F9
330
4A
100
AcDbEntity
  8
1
  6
Continuous
 62
     7
100
AcDbCircle
 10
101.8011371436776
 20
315.0015055386112
 30
0.0
 40
15.11530612244891
100
AcDbArc
 50
162.8522708431296
 51
206.9124518081919
  0
ARC
  5
FA
330
4A
100
AcDbEntity
  8
1
  6
Continuous
 62
     7
100
AcDbCircle
 10
101.8011371436776
 20
315.0015055386112
 30
0.0
 40
15.11530612244891
100
AcDbArc
 50
206.9124518081919
 51
213.0796480024579
  0
ARC
  5
FB
330
4A
100
AcDbEntity
  8
1
  6
Continuous
 62
     7
100
AcDbCircle
 10
50.47052489877976
 20
315.0015055386112
 30
0.0
 40
15.1153061224489
100
AcDbArc
 50
326.920351997542
 51
333.087548191808
  0
ARC
  5
FC
330
4A
100
AcDbEntity
  8
1
  6
Continuous
 62
     7
100
AcDbCircle
 10
50.47052489877976
 20
315.0015055386112
 30
0.0
 40
15.11530612244887
100
AcDbArc
 50
333.087548191808
 51
17.14772915687034
  0
ARC
  5
FD
330
4A
100
AcDbEntity
  8
1
  6
Continuous
 62
     7
100
AcDbCircle
 10
103.1358310212287
 20
331.2515055386112
 30
0.0
 40
39.99999999999992
100
AcDbArc
 50
191.2154399726499
 51
197.1477291568699
  0
ARC
  5
FE
330
4A
100
AcDbEntity
  8
1
  6
Continuous
 62
     7
100
AcDbCircle
 10
49.13583102122865
 20
331.2515055386112
 30
0.0
 40
40.00000000000004
100
AcDbArc
 50
342.8522708431301
 51
348.78456002735
  0
ARC
  5
FF
330
4A
100
AcDbEntity
  8
1
  6
Continuous
 62
     7
100
AcDbCircle
 10
114.8858310212287
 20
355.2710288477862
 30
0.0
 40
30.00000000000004
100
AcDbArc
 50
180.0
 51
196.3396281907045
  0
ARC
  5
100
330
4A
100
AcDbEntity
  8
1
  6
Continuous
 62
     7
100
AcDbCircle
 10
224.0677307778072
 20
160.7094920291153
 30
0.0
 40
6.0
100
AcDbArc
 50
180.0
 51
239.9118061840573
  0
ARC
  5
101
330
4A
100
AcDbEntity
  8
1
  6
Continuous
 62
     7
100
AcDbCircle
 10
230.0872540869822
 20
184.1274710520818
 30
0.0
 40
29.9999999999999
100
AcDbArc
 50
252.4872952996483
 51
270.0
  0
ARC
  5
102
330
4A
100
AcDbEntity
  8
1
  6
Continuous
 62
     7
100
AcDbCircle
 10
230.0872540869822
 20
106.6274710520818
 30
0.0
 40
30.0
100
AcDbArc
 50
90.0
 51
110.068054620819
  0
ARC
  5
103
330
4A
100
AcDbEntity
  8
1
  6
Continuous
 62
     7
100
AcDbCircle
 10
37.38583102122865
 20
355.2710288477863
 30
0.0
 40
30.00000000000002
100
AcDbArc
 50
343.6603718092953
 51
359.9999999999999
  0
ARC
  5
104
330
4A
100
AcDbEntity
  8
1
  6
Continuous
 62
     7
100
AcDbCircle
 10
53.63583102122865
 20
374.2137007844403
 30
0.0
 40
0.5
100
AcDbArc
 50
180.0
 51
265.5000000000031
  0
ARC
  5
105
330
4A
100
AcDbEntity
  8
1
  6
Continuous
 62
     7
100
AcDbCircle
 10
98.63583102122865
 20
374.2137007844403
 30
0.0
 40
0.4999999999999316
100
AcDbArc
 50
274.4999999999977
 51
0.0
  0
ARC
  5
106
330
4A
100
AcDbEntity
  8
1
  6
Continuous
 62
     7
100
AcDbCircle
 10
249.0661894446738
 20
167.8774710520818
 30
0.0
 40
0.5
100
AcDbArc
 50
90.0
 51
175.4999999999901
  0
ARC
  5
107
330
4A
100
AcDbEntity
  8
1
  6
Continuous
 62
     7
100
AcDbCircle
 10
244.5800614428748
 20
158.1274710520818
 30
0.0
 40
4.0
100
AcDbArc
 50
270.0
 51
355.5000000000011
  0
ARC
  5
108
330
4A
100
AcDbEntity
  8
1
  6
Continuous
 62
     7
100
AcDbCircle
 10
244.5800614428748
 20
132.6274710520818
 30
0.0
 40
3.999999999999896
100
AcDbArc
 50
4.50000000000047
 51
90.0
  0
ARC
  5
109
330
4A
100
AcDbEntity
  8
1
  6
Continuous
 62
     7
100
AcDbCircle
 10
249.0661894446738
 20
122.8774710520818
 30
0.0
 40
0.5000000000000167
100
AcDbArc
 50
184.4999999999969
 51
270.0
  0
ENDBLK
  5
4C
330
4A
100
AcDbEntity
  8
0
100
AcDbBlockEnd
  0
BLOCK
  5
4E
330
4D
100
AcDbEntity
  8
0
100
AcDbBlockBegin
  2
42-1
 70
     0
 10
316.3731696150755
 20
150.8527729496773
 30
0.0
  3
42-1
  1

  0
LINE
  5
10A
330
4D
100
AcDbEntity
  8
1
  6
Continuous
 62
     7
100
AcDbLine
 10
199.0677307778072
 20
199.3753419286554
 30
0.0
 11
199.0677307778072
 21
202.3753419286554
 31
0.0
  0
LINE
  5
10B
330
4D
100
AcDbEntity
  8
1
  6
Continuous
 62
     2
100
AcDbLine
 10
199.5677307778072
 20
202.3753419286554
 30
0.0
 11
199.5677307778072
 21
199.3753419286554
 31
0.0
  0
LINE
  5
10C
330
4D
100
AcDbEntity
  8
1
  6
Continuous
 62
     2
100
AcDbLine
 10
200.0677307778072
 20
202.3753419286554
 30
0.0
 11
200.0677307778072
 21
199.3753419286554
 31
0.0
  0
LINE
  5
10D
330
4D
100
AcDbEntity
  8
1
  6
Continuous
 62
     2
100
AcDbLine
 10
200.5677307778072
 20
202.3753419286554
 30
0.0
 11
200.5677307778072
 21
199.3753419286554
 31
0.0
  0
LINE
  5
10E
330
4D
100
AcDbEntity
  8
1
  6
Continuous
 62
     2
100
AcDbLine
 10
201.0677307778072
 20
202.3753419286554
 30
0.0
 11
201.0677307778072
 21
199.3753419286554
 31
0.0
  0
LINE
  5
10F
330
4D
100
AcDbEntity
  8
1
  6
Continuous
 62
     2
100
AcDbLine
 10
201.5677307778072
 20
202.2309296936331
 30
0.0
 11
201.5677307778072
 21
199.4809292548428
 31
0.0
  0
LINE
  5
110
330
4D
100
AcDbEntity
  8
1
  6
Continuous
 62
     2
100
AcDbLine
 10
202.0677307778072
 20
202.1854155202031
 30
0.0
 11
202.0677307778072
 21
199.5413902411069
 31
0.0
  0
LINE
  5
111
330
4D
100
AcDbEntity
  8
1
  6
Continuous
 62
     2
100
AcDbLine
 10
202.5677307778072
 20
202.0995602459202
 30
0.0
 11
202.5677307778072
 21
199.6298146289174
 31
0.0
  0
LINE
  5
112
330
4D
100
AcDbEntity
  8
1
  6
Continuous
 62
     2
100
AcDbLine
 10
203.0677307778072
 20
202.0718684223277
 30
0.0
 11
203.0677307778072
 21
199.7360424088931
 31
0.0
  0
LINE
  5
113
330
4D
100
AcDbEntity
  8
1
  6
Continuous
 62
     7
100
AcDbLine
 10
208.3677307778072
 20
199.3753419286554
 30
0.0
 11
199.0677307778072
 21
199.3753419286554
 31
0.0
  0
LINE
  5
114
330
4D
100
AcDbEntity
  8
1
  6
Continuous
 62
     7
100
AcDbLine
 10
213.0677307778072
 20
199.3753419286554
 30
0.0
 11
208.3677307778072
 21
199.3753419286554
 31
0.0
  0
LINE
  5
115
330
4D
100
AcDbEntity
  8
1
  6
Continuous
 62
     2
100
AcDbLine
 10
211.0677307778072
 20
199.3753419286554
 30
0.0
 11
211.0677307778072
 21
202.3753419286554
 31
0.0
  0
LINE
  5
116
330
4D
100
AcDbEntity
  8
1
  6
Continuous
 62
     2
100
AcDbLine
 10
210.5677307778072
 20
199.4809292548428
 30
0.0
 11
210.5677307778072
 21
202.2309296936331
 31
0.0
  0
LINE
  5
117
330
4D
100
AcDbEntity
  8
1
  6
Continuous
 62
     2
100
AcDbLine
 10
210.0677307778072
 20
199.5413902411069
 30
0.0
 11
210.0677307778072
 21
202.1854155202031
 31
0.0
  0
LINE
  5
118
330
4D
100
AcDbEntity
  8
1
  6
Continuous
 62
     2
100
AcDbLine
 10
209.5677307778072
 20
199.6298146289174
 30
0.0
 11
209.5677307778072
 21
202.0995602459202
 31
0.0
  0
LINE
  5
119
330
4D
100
AcDbEntity
  8
1
  6
Continuous
 62
     2
100
AcDbLine
 10
209.0677307778072
 20
199.7360424088931
 30
0.0
 11
209.0677307778072
 21
202.0718684223277
 31
0.0
  0
LINE
  5
11A
330
4D
100
AcDbEntity
  8
1
  6
Continuous
 62
     2
100
AcDbLine
 10
207.5677307778072
 20
200.3129357570246
 30
0.0
 11
207.5677307778072
 21
201.6616620868771
 31
0.0
  0
LINE
  5
11B
330
4D
100
AcDbEntity
  8
1
  6
Continuous
 62
     2
100
AcDbLine
 10
208.5677307778072
 20
199.9888911193327
 30
0.0
 11
208.5677307778072
 21
201.9068850559413
 31
0.0
  0
LINE
  5
11C
330
4D
100
AcDbEntity
  8
1
  6
Continuous
 62
     2
100
AcDbLine
 10
208.0677307778072
 20
200.0929047165012
 30
0.0
 11
208.0677307778072
 21
201.8609952405593
 31
0.0
  0
LINE
  5
11D
330
4D
100
AcDbEntity
  8
1
  6
Continuous
 62
     2
100
AcDbLine
 10
207.0677307778072
 20
200.3524409402161
 30
0.0
 11
207.0677307778072
 21
201.6176800308266
 31
0.0
  0
LINE
  5
11E
330
4D
100
AcDbEntity
  8
1
  6
Continuous
 62
     7
100
AcDbLine
 10
201.0677307778072
 20
202.3753419286554
 30
0.0
 11
211.0677307778072
 21
202.3753419286554
 31
0.0
  0
LINE
  5
11F
330
4D
100
AcDbEntity
  8
1
  6
Continuous
 62
     2
100
AcDbLine
 10
204.5677307778072
 20
201.6616620868771
 30
0.0
 11
204.5677307778072
 21
200.3129357570246
 31
0.0
  0
LINE
  5
120
330
4D
100
AcDbEntity
  8
1
  6
Continuous
 62
     2
100
AcDbLine
 10
203.5677307778072
 20
201.9068850559413
 30
0.0
 11
203.5677307778072
 21
199.9888911193327
 31
0.0
  0
LINE
  5
121
330
4D
100
AcDbEntity
  8
1
  6
Continuous
 62
     7
100
AcDbLine
 10
200.5677307778072
 20
202.3753419286554
 30
0.0
 11
201.0677307778072
 21
202.3753419286554
 31
0.0
  0
LINE
  5
122
330
4D
100
AcDbEntity
  8
1
  6
Continuous
 62
     7
100
AcDbLine
 10
199.5677307778072
 20
202.3753419286554
 30
0.0
 11
200.0677307778072
 21
202.3753419286554
 31
0.0
  0
LINE
  5
123
330
4D
100
AcDbEntity
  8
1
  6
Continuous
 62
     7
100
AcDbLine
 10
199.0677307778072
 20
202.3753419286554
 30
0.0
 11
200.0677307778071
 21
202.6446641276786
 31
0.0
  0
LINE
  5
124
330
4D
100
AcDbEntity
  8
1
  6
Continuous
 62
     7
100
AcDbLine
 10
199.0677307778072
 20
202.3753419286554
 30
0.0
 11
199.5677307778072
 21
202.3753419286554
 31
0.0
  0
LINE
  5
125
330
4D
100
AcDbEntity
  8
1
  6
Continuous
 62
     7
100
AcDbLine
 10
200.0677307778072
 20
202.3753419286554
 30
0.0
 11
200.5677307778072
 21
202.3753419286554
 31
0.0
  0
LINE
  5
126
330
4D
100
AcDbEntity
  8
1
  6
Continuous
 62
     2
100
AcDbLine
 10
204.0677307778072
 20
201.8609952405593
 30
0.0
 11
204.0677307778072
 21
200.0929047165012
 31
0.0
  0
LINE
  5
127
330
4D
100
AcDbEntity
  8
1
  6
Continuous
 62
     2
100
AcDbLine
 10
205.0677307778072
 20
201.6176800308266
 30
0.0
 11
205.0677307778072
 21
200.3524409402161
 31
0.0
  0
LINE
  5
128
330
4D
100
AcDbEntity
  8
1
  6
Continuous
 62
     7
100
AcDbLine
 10
200.3177307778072
 20
202.7051076488591
 30
0.0
 11
206.0677307778072
 21
202.7051076488591
 31
0.0
  0
LINE
  5
129
330
4D
100
AcDbEntity
  8
1
  6
Continuous
 62
     7
100
AcDbLine
 10
211.0677307778072
 20
202.3753419286554
 30
0.0
 11
211.5677307778072
 21
202.3753419286554
 31
0.0
  0
LINE
  5
12A
330
4D
100
AcDbEntity
  8
1
  6
Continuous
 62
     2
100
AcDbLine
 10
211.5677307778072
 20
199.3753419286554
 30
0.0
 11
211.5677307778072
 21
202.3753419286554
 31
0.0
  0
LINE
  5
12B
330
4D
100
AcDbEntity
  8
1
  6
Continuous
 62
     7
100
AcDbLine
 10
212.0677307778072
 20
202.3753419286554
 30
0.0
 11
212.5677307778072
 21
202.3753419286554
 31
0.0
  0
LINE
  5
12C
330
4D
100
AcDbEntity
  8
1
  6
Continuous
 62
     2
100
AcDbLine
 10
212.5677307778072
 20
199.3753419286554
 30
0.0
 11
212.5677307778072
 21
202.3753419286554
 31
0.0
  0
LINE
  5
12D
330
4D
100
AcDbEntity
  8
1
  6
Continuous
 62
     7
100
AcDbLine
 10
213.0677307778072
 20
202.3753419286554
 30
0.0
 11
213.0677307778072
 21
199.3753419286554
 31
0.0
  0
LINE
  5
12E
330
4D
100
AcDbEntity
  8
1
  6
Continuous
 62
     7
100
AcDbLine
 10
212.0677307778073
 20
202.6446641276786
 30
0.0
 11
213.0677307778072
 21
202.3753419286554
 31
0.0
  0
LINE
  5
12F
330
4D
100
AcDbEntity
  8
1
  6
Continuous
 62
     7
100
AcDbLine
 10
212.5677307778072
 20
202.3753419286554
 30
0.0
 11
213.0677307778072
 21
202.3753419286554
 31
0.0
  0
LINE
  5
130
330
4D
100
AcDbEntity
  8
1
  6
Continuous
 62
     2
100
AcDbLine
 10
212.0677307778072
 20
199.3753419286554
 30
0.0
 11
212.0677307778072
 21
202.3753419286554
 31
0.0
  0
LINE
  5
131
330
4D
100
AcDbEntity
  8
1
  6
Continuous
 62
     7
100
AcDbLine
 10
211.5677307778072
 20
202.3753419286554
 30
0.0
 11
212.0677307778072
 21
202.3753419286554
 31
0.0
  0
LINE
  5
132
330
4D
100
AcDbEntity
  8
1
  6
Continuous
 62
     7
100
AcDbLine
 10
206.0677307778072
 20
202.7051076488591
 30
0.0
 11
211.8177307778072
 21
202.7051076488591
 31
0.0
  0
LINE
  5
133
330
4D
100
AcDbEntity
  8
1
  6
Continuous
 62
     7
100
AcDbLine
 10
72.13583102122865
 20
199.3753419286556
 30
0.0
 11
80.13583102122865
 21
199.3753419286556
 31
0.0
  0
LINE
  5
134
330
4D
100
AcDbEntity
  8
1
  6
Continuous
 62
     7
100
AcDbLine
 10
82.63583102122865
 20
199.3753419286556
 30
0.0
 11
83.13583102122865
 21
199.3753419286556
 31
0.0
  0
LINE
  5
135
330
4D
100
AcDbEntity
  8
1
  6
Continuous
 62
     7
100
AcDbLine
 10
82.13583102122865
 20
199.3753419286556
 30
0.0
 11
82.63583102122865
 21
199.3753419286556
 31
0.0
  0
LINE
  5
136
330
4D
100
AcDbEntity
  8
1
  6
Continuous
 62
     7
100
AcDbLine
 10
81.63583102122865
 20
199.3753419286556
 30
0.0
 11
82.13583102122865
 21
199.3753419286556
 31
0.0
  0
LINE
  5
137
330
4D
100
AcDbEntity
  8
1
  6
Continuous
 62
     7
100
AcDbLine
 10
81.13583102122865
 20
199.3753419286556
 30
0.0
 11
81.63583102122865
 21
199.3753419286556
 31
0.0
  0
LINE
  5
138
330
4D
100
AcDbEntity
  8
1
  6
Continuous
 62
     7
100
AcDbLine
 10
81.13583102122865
 20
199.3753419286556
 30
0.0
 11
71.13583102122865
 21
199.3753419286556
 31
0.0
  0
LINE
  5
139
330
4D
100
AcDbEntity
  8
1
  6
Continuous
 62
     7
100
AcDbLine
 10
69.13583102122865
 20
199.3753419286556
 30
0.0
 11
69.63583102122865
 21
199.3753419286556
 31
0.0
  0
LINE
  5
13A
330
4D
100
AcDbEntity
  8
1
  6
Continuous
 62
     7
100
AcDbLine
 10
69.63583102122865
 20
199.3753419286556
 30
0.0
 11
70.13583102122865
 21
199.3753419286556
 31
0.0
  0
LINE
  5
13B
330
4D
100
AcDbEntity
  8
1
  6
Continuous
 62
     7
100
AcDbLine
 10
70.13583102122865
 20
199.3753419286556
 30
0.0
 11
70.63583102122865
 21
199.3753419286556
 31
0.0
  0
LINE
  5
13C
330
4D
100
AcDbEntity
  8
1
  6
Continuous
 62
     7
100
AcDbLine
 10
70.63583102122865
 20
199.3753419286556
 30
0.0
 11
71.13583102122865
 21
199.3753419286556
 31
0.0
  0
LINE
  5
13D
330
4D
100
AcDbEntity
  8
1
  6
Continuous
 62
     7
100
AcDbLine
 10
69.13583102122865
 20
202.3753419286554
 30
0.0
 11
70.13583102122865
 21
202.6446641276789
 31
0.0
  0
LINE
  5
13E
330
4D
100
AcDbEntity
  8
1
  6
Continuous
 62
     7
100
AcDbLine
 10
69.13583102122865
 20
199.3753419286556
 30
0.0
 11
69.13583102122865
 21
202.3753419286554
 31
0.0
  0
LINE
  5
13F
330
4D
100
AcDbEntity
  8
1
  6
Continuous
 62
     2
100
AcDbLine
 10
70.13583102122865
 20
202.3753419286554
 30
0.0
 11
70.13583102122865
 21
199.3753419286556
 31
0.0
  0
LINE
  5
140
330
4D
100
AcDbEntity
  8
1
  6
Continuous
 62
     2
100
AcDbLine
 10
69.63583102122865
 20
202.3753419286554
 30
0.0
 11
69.63583102122865
 21
199.3753419286556
 31
0.0
  0
LINE
  5
141
330
4D
100
AcDbEntity
  8
1
  6
Continuous
 62
     2
100
AcDbLine
 10
70.63583102122865
 20
202.3753419286554
 30
0.0
 11
70.63583102122865
 21
199.3753419286556
 31
0.0
  0
LINE
  5
142
330
4D
100
AcDbEntity
  8
1
  6
Continuous
 62
     2
100
AcDbLine
 10
71.63583102122865
 20
202.2309296936336
 30
0.0
 11
71.63583102122865
 21
199.4809292548431
 31
0.0
  0
LINE
  5
143
330
4D
100
AcDbEntity
  8
1
  6
Continuous
 62
     2
100
AcDbLine
 10
71.13583102122865
 20
202.3753419286554
 30
0.0
 11
71.13583102122865
 21
199.3753419286556
 31
0.0
  0
LINE
  5
144
330
4D
100
AcDbEntity
  8
1
  6
Continuous
 62
     2
100
AcDbLine
 10
72.13583102122865
 20
202.1854155202034
 30
0.0
 11
72.13583102122865
 21
199.5413902411072
 31
0.0
  0
LINE
  5
145
330
4D
100
AcDbEntity
  8
1
  6
Continuous
 62
     2
100
AcDbLine
 10
72.63583102122865
 20
202.0995602459203
 30
0.0
 11
72.63583102122865
 21
199.6298146289176
 31
0.0
  0
LINE
  5
146
330
4D
100
AcDbEntity
  8
1
  6
Continuous
 62
     2
100
AcDbLine
 10
73.13583102122865
 20
202.0718684223282
 30
0.0
 11
73.13583102122865
 21
199.7360424088935
 31
0.0
  0
LINE
  5
147
330
4D
100
AcDbEntity
  8
1
  6
Continuous
 62
     2
100
AcDbLine
 10
73.63583102122865
 20
201.9068850559414
 30
0.0
 11
73.63583102122865
 21
199.9888911193331
 31
0.0
  0
LINE
  5
148
330
4D
100
AcDbEntity
  8
1
  6
Continuous
 62
     2
100
AcDbLine
 10
74.13583102122865
 20
201.8609952405595
 30
0.0
 11
74.13583102122865
 21
200.0929047165015
 31
0.0
  0
LINE
  5
149
330
4D
100
AcDbEntity
  8
1
  6
Continuous
 62
     2
100
AcDbLine
 10
74.63583102122865
 20
201.6616620868775
 30
0.0
 11
74.63583102122865
 21
200.3129357570249
 31
0.0
  0
LINE
  5
14A
330
4D
100
AcDbEntity
  8
1
  6
Continuous
 62
     2
100
AcDbLine
 10
75.13583102122865
 20
201.6176800308269
 30
0.0
 11
75.13583102122865
 21
200.3524409402165
 31
0.0
  0
LINE
  5
14B
330
4D
100
AcDbEntity
  8
1
  6
Continuous
 62
     2
100
AcDbLine
 10
77.13583102122865
 20
200.3524409402165
 30
0.0
 11
77.13583102122865
 21
201.6176800308269
 31
0.0
  0
LINE
  5
14C
330
4D
100
AcDbEntity
  8
1
  6
Continuous
 62
     2
100
AcDbLine
 10
77.63583102122865
 20
200.3129357570249
 30
0.0
 11
77.63583102122865
 21
201.6616620868775
 31
0.0
  0
LINE
  5
14D
330
4D
100
AcDbEntity
  8
1
  6
Continuous
 62
     2
100
AcDbLine
 10
78.13583102122865
 20
200.0929047165015
 30
0.0
 11
78.13583102122865
 21
201.8609952405595
 31
0.0
  0
LINE
  5
14E
330
4D
100
AcDbEntity
  8
1
  6
Continuous
 62
     7
100
AcDbLine
 10
70.63583102122865
 20
202.3753419286554
 30
0.0
 11
71.13583102122865
 21
202.3753419286554
 31
0.0
  0
LINE
  5
14F
330
4D
100
AcDbEntity
  8
1
  6
Continuous
 62
     7
100
AcDbLine
 10
69.63583102122865
 20
202.3753419286554
 30
0.0
 11
70.13583102122865
 21
202.3753419286554
 31
0.0
  0
LINE
  5
150
330
4D
100
AcDbEntity
  8
1
  6
Continuous
 62
     7
100
AcDbLine
 10
69.13583102122865
 20
202.3753419286554
 30
0.0
 11
69.63583102122865
 21
202.3753419286554
 31
0.0
  0
LINE
  5
151
330
4D
100
AcDbEntity
  8
1
  6
Continuous
 62
     7
100
AcDbLine
 10
70.13583102122865
 20
202.3753419286554
 30
0.0
 11
70.63583102122865
 21
202.3753419286554
 31
0.0
  0
LINE
  5
152
330
4D
100
AcDbEntity
  8
1
  6
Continuous
 62
     7
100
AcDbLine
 10
70.38583102122865
 20
202.7051076488594
 30
0.0
 11
76.13583102122865
 21
202.7051076488594
 31
0.0
  0
LINE
  5
153
330
4D
100
AcDbEntity
  8
1
  6
Continuous
 62
     2
100
AcDbLine
 10
78.63583102122865
 20
199.9888911193331
 30
0.0
 11
78.63583102122865
 21
201.9068850559414
 31
0.0
  0
LINE
  5
154
330
4D
100
AcDbEntity
  8
1
  6
Continuous
 62
     7
100
AcDbLine
 10
81.13583102122865
 20
202.3753419286554
 30
0.0
 11
81.63583102122865
 21
202.3753419286554
 31
0.0
  0
LINE
  5
155
330
4D
100
AcDbEntity
  8
1
  6
Continuous
 62
     7
100
AcDbLine
 10
82.13583102122865
 20
202.3753419286554
 30
0.0
 11
82.63583102122865
 21
202.3753419286554
 31
0.0
  0
LINE
  5
156
330
4D
100
AcDbEntity
  8
1
  6
Continuous
 62
     7
100
AcDbLine
 10
82.13583102122885
 20
202.6446641276789
 30
0.0
 11
83.13583102122865
 21
202.3753419286554
 31
0.0
  0
LINE
  5
157
330
4D
100
AcDbEntity
  8
1
  6
Continuous
 62
     7
100
AcDbLine
 10
82.63583102122865
 20
202.3753419286554
 30
0.0
 11
83.13583102122865
 21
202.3753419286554
 31
0.0
  0
LINE
  5
158
330
4D
100
AcDbEntity
  8
1
  6
Continuous
 62
     7
100
AcDbLine
 10
81.63583102122865
 20
202.3753419286554
 30
0.0
 11
82.13583102122865
 21
202.3753419286554
 31
0.0
  0
LINE
  5
159
330
4D
100
AcDbEntity
  8
1
  6
Continuous
 62
     7
100
AcDbLine
 10
76.13583102122865
 20
202.7051076488594
 30
0.0
 11
81.88583102122865
 21
202.7051076488594
 31
0.0
  0
LINE
  5
15A
330
4D
100
AcDbEntity
  8
1
  6
Continuous
 62
     7
100
AcDbLine
 10
81.13583102122865
 20
202.3753419286554
 30
0.0
 11
71.13583102122865
 21
202.3753419286554
 31
0.0
  0
LINE
  5
15B
330
4D
100
AcDbEntity
  8
1
  6
Continuous
 62
     2
100
AcDbLine
 10
79.13583102122865
 20
199.7360424088935
 30
0.0
 11
79.13583102122865
 21
202.0718684223282
 31
0.0
  0
LINE
  5
15C
330
4D
100
AcDbEntity
  8
1
  6
Continuous
 62
     2
100
AcDbLine
 10
79.63583102122865
 20
199.6298146289176
 30
0.0
 11
79.63583102122865
 21
202.0995602459203
 31
0.0
  0
LINE
  5
15D
330
4D
100
AcDbEntity
  8
1
  6
Continuous
 62
     2
100
AcDbLine
 10
80.63583102122865
 20
199.4809292548431
 30
0.0
 11
80.63583102122865
 21
202.2309296936336
 31
0.0
  0
LINE
  5
15E
330
4D
100
AcDbEntity
  8
1
  6
Continuous
 62
     2
100
AcDbLine
 10
80.13583102122865
 20
199.5413902411072
 30
0.0
 11
80.13583102122865
 21
202.1854155202034
 31
0.0
  0
LINE
  5
15F
330
4D
100
AcDbEntity
  8
1
  6
Continuous
 62
     2
100
AcDbLine
 10
81.13583102122865
 20
199.3753419286556
 30
0.0
 11
81.13583102122865
 21
202.3753419286554
 31
0.0
  0
LINE
  5
160
330
4D
100
AcDbEntity
  8
1
  6
Continuous
 62
     2
100
AcDbLine
 10
81.63583102122865
 20
199.3753419286556
 30
0.0
 11
81.63583102122865
 21
202.3753419286554
 31
0.0
  0
LINE
  5
161
330
4D
100
AcDbEntity
  8
1
  6
Continuous
 62
     2
100
AcDbLine
 10
82.13583102122865
 20
199.3753419286556
 30
0.0
 11
82.13583102122865
 21
202.3753419286554
 31
0.0
  0
LINE
  5
162
330
4D
100
AcDbEntity
  8
1
  6
Continuous
 62
     2
100
AcDbLine
 10
82.63583102122865
 20
199.3753419286556
 30
0.0
 11
82.63583102122865
 21
202.3753419286554
 31
0.0
  0
LINE
  5
163
330
4D
100
AcDbEntity
  8
1
  6
Continuous
 62
     7
100
AcDbLine
 10
83.13583102122865
 20
202.3753419286554
 30
0.0
 11
83.13583102122865
 21
199.3753419286556
 31
0.0
  0
ARC
  5
164
330
4D
100
AcDbEntity
  8
1
  6
Continuous
 62
     7
100
AcDbCircle
 10
206.0677307778072
 20
178.3753419286554
 30
0.0
 40
24.99999999999999
100
AcDbArc
 50
103.2970717472091
 51
103.8865403626292
  0
ARC
  5
165
330
4D
100
AcDbEntity
  8
1
  6
Continuous
 62
     7
100
AcDbCircle
 10
206.0677307778072
 20
178.3753419286554
 30
0.0
 40
25.00000000000004
100
AcDbArc
 50
76.11345963737082
 51
76.70292825279094
  0
ARC
  5
166
330
4D
100
AcDbEntity
  8
1
  6
Continuous
 62
     7
100
AcDbCircle
 10
206.0677307778072
 20
178.3753419286554
 30
0.0
 40
25.0
100
AcDbArc
 50
90.0
 51
103.2970717472091
  0
ARC
  5
167
330
4D
100
AcDbEntity
  8
1
  6
Continuous
 62
     7
100
AcDbCircle
 10
206.0677307778072
 20
178.3753419286554
 30
0.0
 40
24.99999999999999
100
AcDbArc
 50
76.70292825279094
 51
90.0
  0
ARC
  5
168
330
4D
100
AcDbEntity
  8
1
  6
Continuous
 62
     7
100
AcDbCircle
 10
76.13583102122865
 20
178.3753419286556
 30
0.0
 40
25.0000000000001
100
AcDbArc
 50
103.297071747209
 51
103.8865403626289
  0
ARC
  5
169
330
4D
100
AcDbEntity
  8
1
  6
Continuous
 62
     7
100
AcDbCircle
 10
76.13583102122865
 20
178.3753419286556
 30
0.0
 40
25.00000000000017
100
AcDbArc
 50
76.11345963737064
 51
76.702928252791
  0
ARC
  5
16A
330
4D
100
AcDbEntity
  8
1
  6
Continuous
 62
     7
100
AcDbCircle
 10
76.13583102122865
 20
178.3753419286556
 30
0.0
 40
24.9999999999998
100
AcDbArc
 50
90.0
 51
103.297071747209
  0
ARC
  5
16B
330
4D
100
AcDbEntity
  8
1
  6
Continuous
 62
     7
100
AcDbCircle
 10
76.13583102122865
 20
178.3753419286556
 30
0.0
 40
25.0000000000001
100
AcDbArc
 50
76.702928252791
 51
90.0
  0
CIRCLE
  5
16C
330
4D
100
AcDbEntity
  8
1
  6
Continuous
 62
     7
100
AcDbCircle
 10
76.13583102122865
 20
331.2515055386111
 30
0.0
 40
6.999999999999886
  0
CIRCLE
  5
16D
330
4D
100
AcDbEntity
  8
1
  6
Continuous
 62
     7
100
AcDbCircle
 10
76.13583102122865
 20
331.2515055386111
 30
0.0
 40
5.749999999999886
  0
ENDBLK
  5
4F
330
4D
100
AcDbEntity
  8
0
100
AcDbBlockEnd
  0
BLOCK
  5
51
330
50
100
AcDbEntity
  8
0
100
AcDbBlockBegin
  2
21-1C
 70
     0
 10
321.5101516979425
 20
134.8152462036642
 30
0.0
  3
21-1C
  1

  0
LINE
  5
16E
330
50
100
AcDbEntity
  8
1
  6
Continuous
 62
     7
100
AcDbLine
 10
48.98519592661796
 20
187.8774710520817
 30
0.0
 11
103.2864661158399
 21
187.8774710520817
 31
0.0
  0
LINE
  5
16F
330
50
100
AcDbEntity
  8
1
  6
Continuous
 62
     7
100
AcDbLine
 10
48.94196999123949
 20
192.4513761550574
 30
0.0
 11
48.49006189224724
 21
188.4470576025617
 31
0.0
  0
LINE
  5
170
330
50
100
AcDbEntity
  8
1
  6
Continuous
 62
     7
100
AcDbLine
 10
103.7816001502106
 20
188.4470576025617
 30
0.0
 11
103.3296920512183
 21
192.0569634812448
 31
0.0
  0
LINE
  5
171
330
50
100
AcDbEntity
  8
1
  6
Continuous
 62
     7
100
AcDbLine
 10
224.5677307778073
 20
190.850291351065
 30
0.0
 11
224.5677307778073
 21
188.3753419286554
 31
0.0
  0
LINE
  5
172
330
50
100
AcDbEntity
  8
1
  6
Continuous
 62
     7
100
AcDbLine
 10
175.5677307778073
 20
187.8753419286554
 30
0.0
 11
224.0677307778073
 21
187.8753419286554
 31
0.0
  0
LINE
  5
173
330
50
100
AcDbEntity
  8
1
  6
Continuous
 62
     7
100
AcDbLine
 10
175.0677307778073
 20
191.2622508340227
 30
0.0
 11
175.0677307778073
 21
188.3753419286554
 31
0.0
  0
LINE
  5
174
330
50
100
AcDbEntity
  8
1
  6
Continuous
 62
     7
100
AcDbLine
 10
81.93138597896296
 20
304.6985912679961
 30
0.0
 11
85.58279519043344
 21
318.325835964429
 31
0.0
  0
LINE
  5
175
330
50
100
AcDbEntity
  8
1
  6
Continuous
 62
     7
100
AcDbLine
 10
102.0291068029588
 20
339.5088648514919
 30
0.0
 11
92.05327131799646
 21
329.5330293665296
 31
0.0
  0
LINE
  5
176
330
50
100
AcDbEntity
  8
1
  6
Continuous
 62
     7
100
AcDbLine
 10
96.99405674784487
 20
349.7508371708427
 30
0.0
 11
82.60630714879156
 21
345.8956512848752
 31
0.0
  0
LINE
  5
177
330
50
100
AcDbEntity
  8
1
  6
Continuous
 62
     7
100
AcDbLine
 10
56.03811019723264
 20
349.5470604963456
 30
0.0
 11
69.66535489366547
 21
345.8956512848752
 31
0.0
  0
LINE
  5
178
330
50
100
AcDbEntity
  8
1
  6
Continuous
 62
     7
100
AcDbLine
 10
50.24255523949825
 20
339.5088648514919
 30
0.0
 11
60.21839072446065
 21
329.5330293665296
 31
0.0
  0
LINE
  5
179
330
50
100
AcDbEntity
  8
1
  6
Continuous
 62
     7
100
AcDbLine
 10
70.34027606349414
 20
304.6985912679961
 30
0.0
 11
66.68886685202366
 21
318.325835964429
 31
0.0
  0
ARC
  5
17A
330
50
100
AcDbEntity
  8
1
  6
Continuous
 62
     7
100
AcDbCircle
 10
77.77292137211816
 20
71.90173118556982
 30
0.0
 40
127.4948334081409
100
AcDbArc
 50
92.53411689479748
 51
100.8094932463522
  0
ARC
  5
17B
330
50
100
AcDbEntity
  8
1
  6
Continuous
 62
     7
100
AcDbCircle
 10
74.49874067033966
 20
71.90173118556982
 30
0.0
 40
127.4948334081409
100
AcDbArc
 50
79.19050675364784
 51
87.46588310520274
  0
ARC
  5
17C
330
50
100
AcDbEntity
  8
1
  6
Continuous
 62
     7
100
AcDbCircle
 10
193.0636859192716
 20
120.7020086732738
 30
0.0
 40
80.64072525632038
100
AcDbArc
 50
70.02008322088787
 51
73.19210648524883
  0
ARC
  5
17D
330
50
100
AcDbEntity
  8
1
  6
Continuous
 62
     7
100
AcDbCircle
 10
208.0166125904175
 20
177.8151771636652
 30
0.0
 40
21.76119949013524
100
AcDbArc
 50
68.44320528903191
 51
82.20588758494796
  0
ARC
  5
17E
330
50
100
AcDbEntity
  8
1
  6
Continuous
 62
     7
100
AcDbCircle
 10
205.9677307778073
 20
50.84367585123494
 30
0.0
 40
148.6092050572048
100
AcDbArc
 50
91.85094579686891
 51
100.0532276375031
  0
ARC
  5
17F
330
50
100
AcDbEntity
  8
1
  6
Continuous
 62
     7
100
AcDbCircle
 10
76.13583102122854
 20
306.2515055386112
 30
0.0
 40
6.0
100
AcDbArc
 50
270.0
 51
345.0000000000005
  0
ARC
  5
180
330
50
100
AcDbEntity
  8
1
  6
Continuous
 62
     7
100
AcDbCircle
 10
97.78646611583954
 20
343.7515055386112
 30
0.0
 40
5.999999999999958
100
AcDbArc
 50
314.9999999999999
 51
97.52424107894092
  0
ARC
  5
181
330
50
100
AcDbEntity
  8
1
  6
Continuous
 62
     7
100
AcDbCircle
 10
54.48519592661756
 20
343.7515055386112
 30
0.0
 40
5.999999999999976
100
AcDbArc
 50
75.00000000000034
 51
224.9999999999997
  0
ARC
  5
182
330
50
100
AcDbEntity
  8
1
  6
Continuous
 62
     7
100
AcDbCircle
 10
76.13583102122854
 20
306.2515055386112
 30
0.0
 40
5.999999999999974
100
AcDbArc
 50
194.9999999999996
 51
270.0
  0
ARC
  5
183
330
50
100
AcDbEntity
  8
1
  6
Continuous
 62
     7
100
AcDbCircle
 10
54.88357840368894
 20
191.2219248754845
 30
0.0
 40
6.000000000000022
100
AcDbArc
 50
99.802901793768
 51
172.0000000000009
  0
ARC
  5
184
330
50
100
AcDbEntity
  8
1
  6
Continuous
 62
     7
100
AcDbCircle
 10
48.98519592661796
 20
188.3774710520818
 30
0.0
 40
0.4999999999999182
100
AcDbArc
 50
172.0000000000143
 51
270.0
  0
ARC
  5
185
330
50
100
AcDbEntity
  8
1
  6
Continuous
 62
     7
100
AcDbCircle
 10
103.2864661158399
 20
188.3774710520818
 30
0.0
 40
0.5000000000001137
100
AcDbArc
 50
270.0
 51
7.99999999998611
  0
ARC
  5
186
330
50
100
AcDbEntity
  8
1
  6
Continuous
 62
     7
100
AcDbCircle
 10
97.38808363876888
 20
191.2219248754845
 30
0.0
 40
5.999999999999992
100
AcDbArc
 50
7.99999999999915
 51
80.19709820623301
  0
ARC
  5
187
330
50
100
AcDbEntity
  8
1
  6
Continuous
 62
     7
100
AcDbCircle
 10
218.5677307778073
 20
190.850291351065
 30
0.0
 40
6.0
100
AcDbArc
 50
0.0
 51
70.02008322088795
  0
ARC
  5
188
330
50
100
AcDbEntity
  8
1
  6
Continuous
 62
     7
100
AcDbCircle
 10
224.0677307778073
 20
188.3753419286555
 30
0.0
 40
0.5000000000001137
100
AcDbArc
 50
270.0
 51
359.999999999987
  0
ARC
  5
189
330
50
100
AcDbEntity
  8
1
  6
Continuous
 62
     7
100
AcDbCircle
 10
213.8600221812979
 20
192.4535320655974
 30
0.0
 40
5.999999999999761
100
AcDbArc
 50
65.14402107788145
 51
68.98000123350869
  0
ARC
  5
18A
330
50
100
AcDbEntity
  8
1
  6
Continuous
 62
     7
100
AcDbCircle
 10
181.0677307778073
 20
191.2622508340227
 30
0.0
 40
5.999999999999985
100
AcDbArc
 50
99.99784348756796
 51
180.0
  0
ARC
  5
18B
330
50
100
AcDbEntity
  8
1
  6
Continuous
 62
     7
100
AcDbCircle
 10
175.5677307778073
 20
188.3753419286555
 30
0.0
 40
0.5
100
AcDbArc
 50
180.000000000013
 51
270.0
  0
ARC
  5
18C
330
50
100
AcDbEntity
  8
1
  6
Continuous
 62
     7
100
AcDbCircle
 10
109.7309408476602
 20
311.8553598368659
 30
0.0
 40
25.00000000000005
100
AcDbArc
 50
135.0
 51
164.9999999999998
  0
ARC
  5
18D
330
50
100
AcDbEntity
  8
1
  6
Continuous
 62
     7
100
AcDbCircle
 10
76.13583102122854
 20
370.043796942102
 30
0.0
 40
25.0000000000001
100
AcDbArc
 50
254.9999999999999
 51
284.9999999999999
  0
ARC
  5
18E
330
50
100
AcDbEntity
  8
1
  6
Continuous
 62
     7
100
AcDbCircle
 10
42.54072119479704
 20
311.8553598368659
 30
0.0
 40
24.99999999999995
100
AcDbArc
 50
15.00000000000029
 51
45.00000000000017
  0
ENDBLK
  5
52
330
50
100
AcDbEntity
  8
0
100
AcDbBlockEnd
  0
BLOCK
  5
54
330
53
100
AcDbEntity
  8
0
100
AcDbBlockBegin
  2
37-1-13
 70
     0
 10
399.4362435232505
 20
143.9613828218052
 30
0.0
  3
37-1-13
  1

  0
LINE
  5
18F
330
53
100
AcDbEntity
  8
1
  6
Continuous
 62
     7
100
AcDbLine
 10
63.13583102122877
 20
324.8288892492785
 30
0.0
 11
63.13583102122877
 21
326.0272140287922
 31
0.0
  0
LINE
  5
190
330
53
100
AcDbEntity
  8
1
  6
Continuous
 62
     7
100
AcDbLine
 10
77.07368215590697
 20
345.7211439324751
 30
0.0
 11
78.11146185695014
 21
345.1219815427183
 31
0.0
  0
LINE
  5
191
330
53
100
AcDbEntity
  8
1
  6
Continuous
 62
     7
100
AcDbLine
 10
88.19797988655046
 20
323.2044834340798
 30
0.0
 11
87.16020018550736
 21
322.605321044323
 31
0.0
  0
LINE
  5
192
330
53
100
AcDbEntity
  8
1
  6
Continuous
 62
     7
100
AcDbLine
 10
74.16020018550736
 20
345.1219815427183
 30
0.0
 11
75.19797988655046
 21
345.7211439324751
 31
0.0
  0
LINE
  5
193
330
53
100
AcDbEntity
  8
1
  6
Continuous
 62
     7
100
AcDbLine
 10
89.13583102122877
 20
326.0272140287922
 30
0.0
 11
89.13583102122877
 21
324.8288892492785
 31
0.0
  0
LINE
  5
194
330
53
100
AcDbEntity
  8
1
  6
Continuous
 62
     7
100
AcDbLine
 10
65.11146185695014
 20
322.605321044323
 30
0.0
 11
64.07368215590705
 21
323.2044834340798
 31
0.0
  0
LINE
  5
195
330
53
100
AcDbEntity
  8
1
  6
Continuous
 62
     7
100
AcDbLine
 10
76.13583102122865
 20
184.8071623402668
 30
0.0
 11
71.13583102122865
 21
184.8071623402668
 31
0.0
  0
LINE
  5
196
330
53
100
AcDbEntity
  8
1
  6
Continuous
 62
     7
100
AcDbLine
 10
76.13583102122865
 20
184.8071623402668
 30
0.0
 11
82.13583102122865
 21
184.8071623402668
 31
0.0
  0
LINE
  5
197
330
53
100
AcDbEntity
  8
1
  6
Continuous
 62
     7
100
AcDbLine
 10
71.13583102122865
 20
184.8071623402668
 30
0.0
 11
70.13583102122865
 21
184.8071623402668
 31
0.0
  0
LINE
  5
198
330
53
100
AcDbEntity
  8
1
  6
Continuous
 62
     7
100
AcDbLine
 10
76.13583102122865
 20
170.8071623402668
 30
0.0
 11
89.13583102122865
 21
170.8071623402668
 31
0.0
  0
LINE
  5
199
330
53
100
AcDbEntity
  8
1
  6
Continuous
 62
     7
100
AcDbLine
 10
76.13583102122865
 20
170.8071623402668
 30
0.0
 11
63.13583102122865
 21
170.8071623402668
 31
0.0
  0
LINE
  5
19A
330
53
100
AcDbEntity
  8
1
  6
Continuous
 62
     7
100
AcDbLine
 10
89.13583102122865
 20
177.8778765545383
 30
0.0
 11
89.13583102122865
 21
170.8071623402668
 31
0.0
  0
LINE
  5
19B
330
53
100
AcDbEntity
  8
1
  6
Continuous
 62
     7
100
AcDbLine
 10
63.13583102122865
 20
170.8071623402668
 30
0.0
 11
63.13583102122865
 21
177.8778765545383
 31
0.0
  0
LINE
  5
19C
330
53
100
AcDbEntity
  8
1
  6
Continuous
 62
     7
100
AcDbLine
 10
193.5677307778074
 20
178.3071623402669
 30
0.0
 11
206.0677307778072
 21
178.3071623402668
 31
0.0
  0
LINE
  5
19D
330
53
100
AcDbEntity
  8
1
  6
Continuous
 62
     7
100
AcDbLine
 10
219.1384449920787
 20
170.8071623402668
 30
0.0
 11
192.9970165635359
 21
170.8071623402668
 31
0.0
  0
LINE
  5
19E
330
53
100
AcDbEntity
  8
1
  6
Continuous
 62
     7
100
AcDbLine
 10
212.0677307778072
 20
184.8071623402668
 30
0.0
 11
200.0677307778073
 21
184.8071623402668
 31
0.0
  0
LINE
  5
19F
330
53
100
AcDbEntity
  8
1
  6
Continuous
 62
     7
100
AcDbLine
 10
206.0677307778072
 20
178.3071623402668
 30
0.0
 11
218.5677307778071
 21
178.3071623402669
 31
0.0
  0
LINE
  5
1A0
330
53
100
AcDbEntity
  8
0
  6
Continuous
 62
     7
100
AcDbLine
 10
63.13583102122865
 20
177.8778765545383
 30
0.0
 11
89.13583102122865
 21
177.8778765545383
 31
0.0
  0
ARC
  5
1A1
330
53
100
AcDbEntity
  8
1
  6
Continuous
 62
     7
100
AcDbCircle
 10
76.13583102122877
 20
331.2515055386111
 30
0.0
 40
14.50000000000002
100
AcDbArc
 50
206.2915552747295
 51
213.7084447252704
  0
ARC
  5
1A2
330
53
100
AcDbEntity
  8
1
  6
Continuous
 62
     7
100
AcDbCircle
 10
76.13583102122877
 20
331.2515055386111
 30
0.0
 40
14.5
100
AcDbArc
 50
90.0
 51
93.70844472527087
  0
ARC
  5
1A3
330
53
100
AcDbEntity
  8
1
  6
Continuous
 62
     7
100
AcDbCircle
 10
76.13583102122877
 20
331.2515055386111
 30
0.0
 40
14.4999999999999
100
AcDbArc
 50
326.2915552747296
 51
333.7084447252705
  0
ARC
  5
1A4
330
53
100
AcDbEntity
  8
1
  6
Continuous
 62
     7
100
AcDbCircle
 10
76.13583102122877
 20
331.2515055386111
 30
0.0
 40
14.5
100
AcDbArc
 50
86.29155527472959
 51
90.0
  0
ARC
  5
1A5
330
53
100
AcDbEntity
  8
1
  6
Continuous
 62
     7
100
AcDbCircle
 10
102.0422862263437
 20
198.2136175453816
 30
0.0
 40
24.00000000000003
100
AcDbArc
 50
213.959192500097
 51
236.0408074999019
  0
ARC
  5
1A6
330
53
100
AcDbEntity
  8
1
  6
Continuous
 62
     7
100
AcDbCircle
 10
85.63583102122865
 20
174.3071623402668
 30
0.0
 40
5.000000000000036
100
AcDbArc
 50
45.57299599919471
 51
53.13010235415658
  0
ARC
  5
1A7
330
53
100
AcDbEntity
  8
1
  6
Continuous
 62
     7
100
AcDbCircle
 10
50.22937581611396
 20
198.2136175453816
 30
0.0
 40
23.9999999999998
100
AcDbArc
 50
303.9591925000977
 51
326.0408074999025
  0
ARC
  5
1A8
330
53
100
AcDbEntity
  8
1
  6
Continuous
 62
     7
100
AcDbCircle
 10
66.63583102122865
 20
174.3071623402668
 30
0.0
 40
4.999999999999948
100
AcDbArc
 50
126.8698976458416
 51
134.4270040008054
  0
ARC
  5
1A9
330
53
100
AcDbEntity
  8
1
  6
Continuous
 62
     7
100
AcDbCircle
 10
180.1612755726924
 20
198.2136175453817
 30
0.0
 40
23.99999999999995
100
AcDbArc
 50
303.9591925000979
 51
326.0408074999025
  0
ARC
  5
1AA
330
53
100
AcDbEntity
  8
1
  6
Continuous
 62
     7
100
AcDbCircle
 10
196.5677307778072
 20
174.3071623402668
 30
0.0
 40
4.999999999999948
100
AcDbArc
 50
126.8698976458416
 51
224.4270040008066
  0
ARC
  5
1AB
330
53
100
AcDbEntity
  8
1
  6
Continuous
 62
     7
100
AcDbCircle
 10
231.9741859829221
 20
198.2136175453817
 30
0.0
 40
23.99999999999996
100
AcDbArc
 50
213.9591925000975
 51
236.0408074999022
  0
ARC
  5
1AC
330
53
100
AcDbEntity
  8
1
  6
Continuous
 62
     7
100
AcDbCircle
 10
215.5677307778072
 20
174.3071623402668
 30
0.0
 40
5.000000000000036
100
AcDbArc
 50
315.5729959991947
 51
53.1301023541576
  0
SPLINE
  5
1AD
330
53
100
AcDbEntity
  8
1
  6
Continuous
 62
     7
100
AcDbSpline
210
0.0
220
0.0
230
1.0
 70
     8
 71
     3
 72
    29
 73
    25
 74
    23
 42
0.000000001
 43
0.0000000001
 44
0.00000001
 40
0.0
 40
0.0
 40
0.0
 40
0.0
 40
0.6069077071335225
 40
1.212222618922161
 40
1.842666699981077
 40
2.474631891987838
 40
3.102420163135065
 40
3.729333881624626
 40
4.271042929453335
 40
4.812985317241528
 40
5.340107969104253
 40
5.866248914948879
 40
6.263874824440481
 40
6.661485222726843
 40
7.280966483141249
 40
7.902596723210301
 40
8.549168899022828
 40
9.195896755584988
 40
9.722415956712036
 40
10.24911839923928
 40
11.07897535377089
 40
11.90732205839663
 40
12.67331707894458
 40
13.44191268485679
 40
13.44191268485679
 40
13.44191268485679
 40
13.44191268485679
 10
206.0677307778072
 20
177.8071623402668
 30
0.0
 10
206.2697906053529
 20
177.7972869669028
 30
0.0
 10
206.6733799650302
 20
177.7775621256901
 30
0.0
 10
207.2850855131141
 20
177.7137717774688
 30
0.0
 10
207.8945025742561
 20
177.5795884797284
 30
0.0
 10
208.4929087492343
 20
177.3791328602018
 30
0.0
 10
209.0674712807081
 20
177.1205717439717
 30
0.0
 10
209.5823690780769
 20
176.8116423548673
 30
0.0
 10
210.0313879518327
 20
176.4578254309227
 30
0.0
 10
210.4053295541306
 20
176.0698007634058
 30
0.0
 10
210.7122954554375
 20
175.6328703603307
 30
0.0
 10
210.9196041128768
 20
175.1926563938944
 30
0.0
 10
211.0355067010971
 20
174.7659472738419
 30
0.0
 10
211.0862099059746
 20
174.2950318320397
 30
0.0
 10
211.0257535827336
 20
173.7460572397989
 30
0.0
 10
210.8128063511043
 20
173.1483111744771
 30
0.0
 10
210.4655694139519
 20
172.6067089293367
 30
0.0
 10
210.0442116883717
 20
172.1661009619466
 30
0.0
 10
209.5967981983915
 20
171.816227038977
 30
0.0
 10
209.0609618128462
 20
171.4873166566356
 30
0.0
 10
208.3960707634605
 20
171.1835780362336
 30
0.0
 10
207.6164097028238
 20
170.9588081705172
 30
0.0
 10
206.8340040867195
 20
170.8544213711265
 30
0.0
 10
206.3234436205458
 20
170.8229988806205
 30
0.0
 10
206.0677307778072
 20
170.8072610163538
 30
0.0
 11
206.0677307778072
 21
177.8071623402668
 31
0.0
 11
206.6736167995655
 21
177.7719614745045
 31
0.0
 11
207.2750596190469
 21
177.7036044824203
 31
0.0
 11
207.8909508307881
 21
177.568927996596
 31
0.0
 11
208.4904122923367
 21
177.3688631046509
 31
0.0
 11
209.0621110656568
 21
177.1094818664006
 31
0.0
 11
209.5986762826699
 21
176.7852619116226
 31
0.0
 11
210.023108821449
 21
176.4486527716415
 31
0.0
 11
210.3978577967295
 21
176.0571623402668
 31
0.0
 11
210.6994136826895
 21
175.6248171790483
 31
0.0
 11
210.9214339965232
 21
175.1478147934321
 31
0.0
 11
211.0251947136663
 21
174.7639657633024
 31
0.0
 11
211.066952811487
 21
174.3685542174881
 31
0.0
 11
211.0023591998656
 21
173.7524497632782
 31
0.0
 11
210.7947410297143
 21
173.1665155930015
 31
0.0
 11
210.4493684288593
 21
172.6199139590875
 31
0.0
 11
210.0050943022564
 21
172.1499379790071
 31
0.0
 11
209.5912238834817
 21
171.8244633314359
 31
0.0
 11
209.1431850362575
 21
171.5475578332563
 31
0.0
 11
208.38842432962
 21
171.2025957450788
 31
0.0
 11
207.5922680192319
 21
170.9739182553325
 31
0.0
 11
206.8342588886323
 21
170.8635981263179
 31
0.0
 11
206.0677307778072
 21
170.8072610163538
 31
0.0
  0
SPLINE
  5
1AE
330
53
100
AcDbEntity
  8
1
  6
Continuous
 62
     7
100
AcDbSpline
210
0.0
220
0.0
230
1.0
 70
    11
 71
     3
 72
    79
 73
    75
 74
    73
 42
0.000000001
 43
0.0000000001
 44
0.00000001
 40
0.0
 40
0.0
 40
0.0
 40
0.0
 40
0.2803981055170401
 40
0.5607977780793508
 40
0.842745476781477
 40
1.124697465942865
 40
1.409536444711937
 40
1.694381494092144
 40
1.983071303433797
 40
2.271767836809136
 40
2.564776135645451
 40
2.857790848031745
 40
3.15505569206347
 40
3.452325972452634
 40
3.753284820909447
 40
4.054247736388232
 40
4.357919800455177
 40
4.661594361771419
 40
4.966700742338073
 40
5.271807963175664
 40
5.576915184002905
 40
5.882021564538407
 40
6.185696125802643
 40
6.489368189796012
 40
6.790331105179825
 40
7.091289953518711
 40
7.38856023376746
 40
7.685825077633718
 40
7.978839789830499
 40
8.271848088449163
 40
8.560544621579725
 40
8.849234430642513
 40
9.134079479707298
 40
9.418918458106301
 40
9.700870446812864
 40
9.982818144856104
 40
10.26321781600884
 40
10.54361593035235
 40
10.82401404469592
 40
11.10441371584871
 40
11.38636141389197
 40
11.66831340259854
 40
11.95315238099753
 40
12.2379974300623
 40
12.52668723912506
 40
12.81538377225566
 40
13.10839207087432
 40
13.40140678307104
 40
13.6986716269373
 40
13.99594190718609
 40
14.29690075552495
 40
14.59786367090879
 40
14.9015357349022
 40
15.20521029616637
 40
15.51031667670191
 40
15.81542389752912
 40
16.12053111836674
 40
16.42563749893338
 40
16.72931206024962
 40
17.03298412431654
 40
17.33394703979529
 40
17.63490588825214
 40
17.93217616864132
 40
18.22944101267307
 40
18.52245572505936
 40
18.81546402389562
 40
19.104160557271
 40
19.39285036661261
 40
19.67769541599284
 40
19.96253439476186
 40
20.2444863839233
 40
20.5264340826254
 40
20.8068337551878
 40
21.08723186070487
 40
21.08723186070487
 40
21.08723186070487
 40
21.08723186070487
 10
217.326061027005
 20
177.8071623402668
 30
0.0
 10
217.4195615670471
 20
177.8045809544608
 30
0.0
 10
217.6065631698492
 20
177.7994181737562
 30
0.0
 10
217.8850475810423
 20
177.7579458251928
 30
0.0
 10
218.1589897781948
 20
177.6920456653511
 30
0.0
 10
218.4269179439638
 20
177.5998135563938
 30
0.0
 10
218.6859637318343
 20
177.4827313672649
 30
0.0
 10
218.9351230262512
 20
177.3412550858658
 30
0.0
 10
219.1714330466653
 20
177.1769727400295
 30
0.0
 10
219.394208040803
 20
176.9905125919507
 30
0.0
 10
219.6006640733091
 20
176.7840881171378
 30
0.0
 10
219.7902768171491
 20
176.5583704228142
 30
0.0
 10
219.9606759932676
 20
176.3160796245693
 30
0.0
 10
220.1113888010633
 20
176.0580221318255
 30
0.0
 10
220.2406119377724
 20
175.7871949284328
 30
0.0
 10
220.3478916111376
 20
175.5046780750197
 30
0.0
 10
220.432046114871
 20
175.2134901045047
 30
0.0
 10
220.4926893888787
 20
174.9151113316633
 30
0.0
 10
220.5292231513252
 20
174.6123503598524
 30
0.0
 10
220.5414421822368
 20
174.3071623496697
 30
0.0
 10
220.5292231516753
 20
174.0019743394851
 30
0.0
 10
220.4926893895797
 20
173.6992133676584
 30
0.0
 10
220.4320461159253
 20
173.4008345948156
 30
0.0
 10
220.3478916125481
 20
173.1096466242117
 30
0.0
 10
220.2406119395438
 20
172.8271297709956
 30
0.0
 10
220.1113888032001
 20
172.5563025666995
 30
0.0
 10
219.9606759957769
 20
172.298245077073
 30
0.0
 10
219.7902768200376
 20
172.0559542670165
 30
0.0
 10
219.6006640765866
 20
171.8302366158547
 30
0.0
 10
219.3942080444798
 20
171.6238119808607
 30
0.0
 10
219.171433050756
 20
171.4373524217127
 30
0.0
 10
218.9351230307742
 20
171.2730678940268
 30
0.0
 10
218.6859637368199
 20
171.1315996509788
 30
0.0
 10
218.4269179494594
 20
171.0144876473948
 30
0.0
 10
218.1589897843256
 20
170.9223657289361
 30
0.0
 10
217.8850475881257
 20
170.8560559633782
 30
0.0
 10
217.6065631750892
 20
170.8161042982886
 30
0.0
 10
217.3260610270051
 20
170.8026913886677
 30
0.0
 10
217.0455588789207
 20
170.8161042982886
 30
0.0
 10
216.7670744658843
 20
170.8560559633784
 30
0.0
 10
216.4931322696844
 20
170.922365728936
 30
0.0
 10
216.2252041045505
 20
171.014487647395
 30
0.0
 10
215.96615831719
 20
171.1315996509787
 30
0.0
 10
215.7169990232358
 20
171.273067894027
 30
0.0
 10
215.4806890032538
 20
171.4373524217125
 30
0.0
 10
215.2579140095301
 20
171.6238119808607
 30
0.0
 10
215.0514579774234
 20
171.8302366158547
 30
0.0
 10
214.8618452339723
 20
172.0559542670165
 30
0.0
 10
214.6914460582332
 20
172.2982450770729
 30
0.0
 10
214.5407332508098
 20
172.5563025666995
 30
0.0
 10
214.4115101144662
 20
172.8271297709956
 30
0.0
 10
214.3042304414618
 20
173.1096466242117
 30
0.0
 10
214.2200759380848
 20
173.4008345948157
 30
0.0
 10
214.1594326644301
 20
173.6992133676585
 30
0.0
 10
214.1228989023347
 20
174.0019743394851
 30
0.0
 10
214.110679871773
 20
174.3071623496697
 30
0.0
 10
214.1228989026847
 20
174.6123503598523
 30
0.0
 10
214.1594326651314
 20
174.9151113316634
 30
0.0
 10
214.2200759391391
 20
175.2134901045046
 30
0.0
 10
214.3042304428724
 20
175.5046780750197
 30
0.0
 10
214.4115101162376
 20
175.7871949284328
 30
0.0
 10
214.5407332529466
 20
176.0580221318255
 30
0.0
 10
214.6914460607424
 20
176.3160796245693
 30
0.0
 10
214.8618452368608
 20
176.5583704228143
 30
0.0
 10
215.0514579807009
 20
176.7840881171377
 30
0.0
 10
215.2579140132068
 20
176.9905125919507
 30
0.0
 10
215.4806890073448
 20
177.1769727400296
 30
0.0
 10
215.7169990277586
 20
177.3412550858658
 30
0.0
 10
215.9661583221757
 20
177.4827313672649
 30
0.0
 10
216.2252041100462
 20
177.5998135563938
 30
0.0
 10
216.4931322758151
 20
177.692045665351
 30
0.0
 10
216.7670744729677
 20
177.7579458251928
 30
0.0
 10
217.0455588841608
 20
177.7994181737562
 30
0.0
 10
217.2325604869629
 20
177.8045809544608
 30
0.0
 10
217.326061027005
 20
177.8071623402668
 30
0.0
 11
217.326061027005
 21
177.8071623402668
 31
0.0
 11
217.6061410258746
 21
177.7938095549687
 31
0.0
 11
217.8836988342532
 21
177.7539894758096
 31
0.0
 11
218.1577502386321
 21
177.6877298930856
 31
0.0
 11
218.4243930989066
 21
177.5960865130175
 31
0.0
 11
218.6839815234426
 21
177.4788385127324
 31
0.0
 11
218.9317150993381
 21
177.3382512535124
 31
0.0
 11
219.1688155839471
 21
177.1735540581603
 31
0.0
 11
219.3902501132819
 21
176.9883178911832
 31
0.0
 11
219.5975335025917
 21
176.781225014268
 31
0.0
 11
219.7860657863693
 21
176.5569189741697
 31
0.0
 11
219.9571543329429
 21
176.3138241434689
 31
0.0
 11
220.1071354596658
 21
176.0571623402668
 31
0.0
 11
220.2368122395401
 21
175.7855741202957
 31
0.0
 11
220.3437035936175
 21
175.5042328419067
 31
0.0
 11
220.4280696549478
 21
175.2125153583613
 31
0.0
 11
220.4885821851836
 21
174.9149309621011
 31
0.0
 11
220.5251611337465
 21
174.6120252275668
 31
0.0
 11
220.5373691716712
 21
174.3071623402668
 31
0.0
 11
220.5251611337465
 21
174.0022994529668
 31
0.0
 11
220.4885821851836
 21
173.6993937184326
 31
0.0
 11
220.4280696549478
 21
173.4018093221724
 31
0.0
 11
220.3437035936175
 21
173.110091838627
 31
0.0
 11
220.2368122395401
 21
172.828750560238
 31
0.0
 11
220.1071354596658
 21
172.5571623402668
 31
0.0
 11
219.9571543329429
 21
172.3005005370647
 31
0.0
 11
219.7860657863693
 21
172.0574057063639
 31
0.0
 11
219.5975335025917
 21
171.8330996662656
 31
0.0
 11
219.3902501132819
 21
171.6260067893504
 31
0.0
 11
219.1688155839471
 21
171.4407706223734
 31
0.0
 11
218.9317150993381
 21
171.2760734270213
 31
0.0
 11
218.6839815234426
 21
171.1354861678013
 31
0.0
 11
218.4243930989066
 21
171.0182381675161
 31
0.0
 11
218.1577502386321
 21
170.926594787448
 31
0.0
 11
217.8836988342532
 21
170.8603352047241
 31
0.0
 11
217.6061410258746
 21
170.820515125565
 31
0.0
 11
217.326061027005
 21
170.8071623402668
 31
0.0
 11
217.0459810281354
 21
170.820515125565
 31
0.0
 11
216.7684232197567
 21
170.8603352047241
 31
0.0
 11
216.4943718153778
 21
170.926594787448
 31
0.0
 11
216.2277289551033
 21
171.0182381675161
 31
0.0
 11
215.9681405305672
 21
171.1354861678013
 31
0.0
 11
215.7204069546718
 21
171.2760734270213
 31
0.0
 11
215.4833064700628
 21
171.4407706223733
 31
0.0
 11
215.261871940728
 21
171.6260067893504
 31
0.0
 11
215.0545885514183
 21
171.8330996662657
 31
0.0
 11
214.8660562676407
 21
172.0574057063639
 31
0.0
 11
214.6949677210671
 21
172.3005005370647
 31
0.0
 11
214.5449865943441
 21
172.5571623402668
 31
0.0
 11
214.4153098144698
 21
172.8287505602379
 31
0.0
 11
214.3084184603924
 21
173.110091838627
 31
0.0
 11
214.2240523990622
 21
173.4018093221724
 31
0.0
 11
214.1635398688264
 21
173.6993937184326
 31
0.0
 11
214.1269609202634
 21
174.0022994529669
 31
0.0
 11
214.1147528823387
 21
174.3071623402668
 31
0.0
 11
214.1269609202634
 21
174.6120252275668
 31
0.0
 11
214.1635398688264
 21
174.9149309621011
 31
0.0
 11
214.2240523990622
 21
175.2125153583613
 31
0.0
 11
214.3084184603924
 21
175.5042328419067
 31
0.0
 11
214.4153098144698
 21
175.7855741202957
 31
0.0
 11
214.5449865943441
 21
176.0571623402668
 31
0.0
 11
214.6949677210671
 21
176.3138241434689
 31
0.0
 11
214.8660562676407
 21
176.5569189741697
 31
0.0
 11
215.0545885514183
 21
176.781225014268
 31
0.0
 11
215.261871940728
 21
176.9883178911832
 31
0.0
 11
215.4833064700629
 21
177.1735540581603
 31
0.0
 11
215.7204069546718
 21
177.3382512535124
 31
0.0
 11
215.9681405305673
 21
177.4788385127324
 31
0.0
 11
216.2277289551033
 21
177.5960865130175
 31
0.0
 11
216.4943718153778
 21
177.6877298930856
 31
0.0
 11
216.7684232197567
 21
177.7539894758096
 31
0.0
 11
217.0459810281354
 21
177.7938095549688
 31
0.0
 11
217.326061027005
 21
177.8071623402668
 31
0.0
  0
SPLINE
  5
1AF
330
53
100
AcDbEntity
  8
1
  6
Continuous
 62
     7
100
AcDbSpline
210
0.0
220
0.0
230
1.0
 70
     8
 71
     3
 72
    29
 73
    25
 74
    23
 42
0.000000001
 43
0.0000000001
 44
0.00000001
 40
0.0
 40
0.0
 40
0.0
 40
0.0
 40
0.6069077071334658
 40
1.212222618922076
 40
1.842666699980965
 40
2.474631891987753
 40
3.102420163134979
 40
3.72933388162454
 40
4.27104292945317
 40
4.812985317241385
 40
5.340107969104126
 40
5.866248914948777
 40
6.263874824440351
 40
6.661485222726742
 40
7.280966483141148
 40
7.90259672321019
 40
8.549168899022716
 40
9.195896755584876
 40
9.722415956711968
 40
10.24911839923918
 40
11.07897535377085
 40
11.90732205839654
 40
12.67331707894445
 40
13.44191268485661
 40
13.44191268485661
 40
13.44191268485661
 40
13.44191268485661
 10
206.0677307778072
 20
177.8071623402668
 30
0.0
 10
205.8656709502615
 20
177.7972869669028
 30
0.0
 10
205.4620815905843
 20
177.7775621256901
 30
0.0
 10
204.8503760425005
 20
177.7137717774688
 30
0.0
 10
204.2409589813585
 20
177.5795884797284
 30
0.0
 10
203.6425528063802
 20
177.3791328602018
 30
0.0
 10
203.0679902749064
 20
177.1205717439717
 30
0.0
 10
202.5530924775378
 20
176.8116423548673
 30
0.0
 10
202.1040736037819
 20
176.4578254309227
 30
0.0
 10
201.7301320014839
 20
176.0698007634057
 30
0.0
 10
201.4231661001771
 20
175.6328703603308
 30
0.0
 10
201.2158574427377
 20
175.1926563938944
 30
0.0
 10
201.0999548545174
 20
174.7659472738419
 30
0.0
 10
201.0492516496398
 20
174.2950318320397
 30
0.0
 10
201.109707972881
 20
173.746057239799
 30
0.0
 10
201.3226552045101
 20
173.1483111744771
 30
0.0
 10
201.6698921416626
 20
172.6067089293367
 30
0.0
 10
202.0912498672427
 20
172.1661009619466
 30
0.0
 10
202.538663357223
 20
171.816227038977
 30
0.0
 10
203.0744997427683
 20
171.4873166566356
 30
0.0
 10
203.739390792154
 20
171.1835780362336
 30
0.0
 10
204.5190518527907
 20
170.9588081705172
 30
0.0
 10
205.3014574688949
 20
170.8544213711265
 30
0.0
 10
205.8120179350688
 20
170.8229988806206
 30
0.0
 10
206.0677307778072
 20
170.8072610163538
 30
0.0
 11
206.0677307778072
 21
177.8071623402668
 31
0.0
 11
205.461844756049
 21
177.7719614745045
 31
0.0
 11
204.8604019365676
 21
177.7036044824203
 31
0.0
 11
204.2445107248265
 21
177.568927996596
 31
0.0
 11
203.6450492632778
 21
177.3688631046509
 31
0.0
 11
203.0733504899577
 21
177.1094818664006
 31
0.0
 11
202.5367852729446
 21
176.7852619116226
 31
0.0
 11
202.1123527341656
 21
176.4486527716415
 31
0.0
 11
201.7376037588851
 21
176.0571623402668
 31
0.0
 11
201.4360478729251
 21
175.6248171790483
 31
0.0
 11
201.2140275590913
 21
175.1478147934321
 31
0.0
 11
201.1102668419483
 21
174.7639657633024
 31
0.0
 11
201.0685087441275
 21
174.3685542174881
 31
0.0
 11
201.1331023557489
 21
173.7524497632782
 31
0.0
 11
201.3407205259002
 21
173.1665155930015
 31
0.0
 11
201.6860931267552
 21
172.6199139590875
 31
0.0
 11
202.1303672533581
 21
172.1499379790071
 31
0.0
 11
202.5442376721328
 21
171.8244633314359
 31
0.0
 11
202.992276519357
 21
171.5475578332563
 31
0.0
 11
203.7470372259945
 21
171.2025957450788
 31
0.0
 11
204.5431935363826
 21
170.9739182553325
 31
0.0
 11
205.3012026669822
 21
170.8635981263179
 31
0.0
 11
206.0677307778072
 21
170.8072610163538
 31
0.0
  0
SPLINE
  5
1B0
330
53
100
AcDbEntity
  8
1
  6
Continuous
 62
     7
100
AcDbSpline
210
0.0
220
0.0
230
1.0
 70
    11
 71
     3
 72
    79
 73
    75
 74
    73
 42
0.000000001
 43
0.0000000001
 44
0.00000001
 40
0.0
 40
0.0
 40
0.0
 40
0.0
 40
0.2803981055170401
 40
0.5607977780793508
 40
0.8427454767814704
 40
1.124697465942895
 40
1.409536444711915
 40
1.694381494092147
 40
1.9830713034338
 40
2.27176783680916
 40
2.564776135645455
 40
2.857790848031749
 40
3.155055692063457
 40
3.452325972452636
 40
3.753284820909461
 40
4.054247736388236
 40
4.357919800455188
 40
4.66159436177143
 40
4.966700742338084
 40
5.271807963175673
 40
5.576915184002914
 40
5.882021564538416
 40
6.185696125802657
 40
6.489368189796026
 40
6.790331105179829
 40
7.091289953518727
 40
7.38856023376749
 40
7.685825077633732
 40
7.978839789830513
 40
8.271848088449156
 40
8.560544621579776
 40
8.849234430642532
 40
9.134079479707278
 40
9.418918458106292
 40
9.700870446812882
 40
9.982818144856122
 40
10.26321781600883
 40
10.54361593035237
 40
10.82401404469594
 40
11.10441371584872
 40
11.38636141389199
 40
11.66831340259853
 40
11.95315238099754
 40
12.23799743006232
 40
12.52668723912507
 40
12.81538377225567
 40
13.10839207087433
 40
13.40140678307112
 40
13.69867162693737
 40
13.99594190718611
 40
14.29690075552497
 40
14.59786367090882
 40
14.90153573490223
 40
15.2052102961664
 40
15.51031667670194
 40
15.81542389752915
 40
16.12053111836677
 40
16.42563749893341
 40
16.72931206024964
 40
17.03298412431657
 40
17.33394703979533
 40
17.63490588825218
 40
17.93217616864134
 40
18.22944101267306
 40
18.52245572505936
 40
18.81546402389567
 40
19.10416055727103
 40
19.39285036661267
 40
19.6776954159929
 40
19.96253439476195
 40
20.24448638392335
 40
20.52643408262546
 40
20.8068337551878
 40
21.08723186070493
 40
21.08723186070493
 40
21.08723186070493
 40
21.08723186070493
 10
194.8094005286095
 20
177.8071623402668
 30
0.0
 10
194.7158999885674
 20
177.8045809544608
 30
0.0
 10
194.5288983857652
 20
177.7994181737562
 30
0.0
 10
194.2504139745722
 20
177.7579458251928
 30
0.0
 10
193.9764717774196
 20
177.692045665351
 30
0.0
 10
193.7085436116508
 20
177.5998135563938
 30
0.0
 10
193.4494978237803
 20
177.4827313672649
 30
0.0
 10
193.2003385293633
 20
177.3412550858659
 30
0.0
 10
192.9640285089493
 20
177.1769727400294
 30
0.0
 10
192.7412535148115
 20
176.9905125919508
 30
0.0
 10
192.5347974823054
 20
176.7840881171378
 30
0.0
 10
192.3451847384653
 20
176.5583704228142
 30
0.0
 10
192.174785562347
 20
176.3160796245694
 30
0.0
 10
192.0240727545511
 20
176.0580221318255
 30
0.0
 10
191.8948496178421
 20
175.7871949284329
 30
0.0
 10
191.787569944477
 20
175.5046780750197
 30
0.0
 10
191.7034154407435
 20
175.2134901045046
 30
0.0
 10
191.6427721667358
 20
174.9151113316634
 30
0.0
 10
191.6062384042892
 20
174.6123503598523
 30
0.0
 10
191.5940193733778
 20
174.3071623496697
 30
0.0
 10
191.6062384039391
 20
174.0019743394851
 30
0.0
 10
191.6427721660347
 20
173.6992133676585
 30
0.0
 10
191.7034154396893
 20
173.4008345948156
 30
0.0
 10
191.7875699430664
 20
173.1096466242117
 30
0.0
 10
191.8948496160708
 20
172.8271297709956
 30
0.0
 10
192.0240727524143
 20
172.5563025666995
 30
0.0
 10
192.1747855598378
 20
172.2982450770729
 30
0.0
 10
192.3451847355769
 20
172.0559542670165
 30
0.0
 10
192.534797479028
 20
171.8302366158546
 30
0.0
 10
192.7412535111347
 20
171.6238119808607
 30
0.0
 10
192.9640285048584
 20
171.4373524217125
 30
0.0
 10
193.2003385248403
 20
171.2730678940269
 30
0.0
 10
193.4494978187946
 20
171.1315996509787
 30
0.0
 10
193.7085436061551
 20
171.0144876473949
 30
0.0
 10
193.9764717712889
 20
170.922365728936
 30
0.0
 10
194.2504139674888
 20
170.8560559633784
 30
0.0
 10
194.5288983805253
 20
170.8161042982885
 30
0.0
 10
194.8094005286095
 20
170.8026913886677
 30
0.0
 10
195.0899026766937
 20
170.8161042982885
 30
0.0
 10
195.3683870897304
 20
170.8560559633784
 30
0.0
 10
195.6423292859301
 20
170.9223657289359
 30
0.0
 10
195.910257451064
 20
171.014487647395
 30
0.0
 10
196.1693032384245
 20
171.1315996509786
 30
0.0
 10
196.4184625323788
 20
171.273067894027
 30
0.0
 10
196.6547725523606
 20
171.4373524217125
 30
0.0
 10
196.8775475460845
 20
171.6238119808607
 30
0.0
 10
197.0840035781911
 20
171.8302366158547
 30
0.0
 10
197.2736163216423
 20
172.0559542670165
 30
0.0
 10
197.4440154973814
 20
172.2982450770729
 30
0.0
 10
197.5947283048048
 20
172.5563025666995
 30
0.0
 10
197.7239514411483
 20
172.8271297709956
 30
0.0
 10
197.8312311141527
 20
173.1096466242116
 30
0.0
 10
197.9153856175298
 20
173.4008345948156
 30
0.0
 10
197.9760288911843
 20
173.6992133676585
 30
0.0
 10
198.0125626532799
 20
174.0019743394851
 30
0.0
 10
198.0247816838414
 20
174.3071623496697
 30
0.0
 10
198.0125626529299
 20
174.6123503598524
 30
0.0
 10
197.9760288904831
 20
174.9151113316634
 30
0.0
 10
197.9153856164755
 20
175.2134901045046
 30
0.0
 10
197.8312311127421
 20
175.5046780750197
 30
0.0
 10
197.723951439377
 20
175.7871949284329
 30
0.0
 10
197.5947283026678
 20
176.0580221318254
 30
0.0
 10
197.4440154948723
 20
176.3160796245694
 30
0.0
 10
197.2736163187537
 20
176.5583704228142
 30
0.0
 10
197.0840035749137
 20
176.7840881171378
 30
0.0
 10
196.8775475424076
 20
176.9905125919507
 30
0.0
 10
196.65477254827
 20
177.1769727400295
 30
0.0
 10
196.4184625278558
 20
177.3412550858659
 30
0.0
 10
196.1693032334389
 20
177.4827313672649
 30
0.0
 10
195.9102574455683
 20
177.5998135563938
 30
0.0
 10
195.6423292797994
 20
177.692045665351
 30
0.0
 10
195.3683870826469
 20
177.7579458251927
 30
0.0
 10
195.0899026714537
 20
177.7994181737562
 30
0.0
 10
194.9029010686517
 20
177.8045809544608
 30
0.0
 10
194.8094005286095
 20
177.8071623402668
 30
0.0
 11
194.8094005286095
 21
177.8071623402668
 31
0.0
 11
194.5293205297399
 21
177.7938095549687
 31
0.0
 11
194.2517627213613
 21
177.7539894758096
 31
0.0
 11
193.9777113169824
 21
177.6877298930856
 31
0.0
 11
193.7110684567079
 21
177.5960865130175
 31
0.0
 11
193.4514800321719
 21
177.4788385127324
 31
0.0
 11
193.2037464562764
 21
177.3382512535124
 31
0.0
 11
192.9666459716674
 21
177.1735540581603
 31
0.0
 11
192.7452114423326
 21
176.9883178911832
 31
0.0
 11
192.5379280530228
 21
176.781225014268
 31
0.0
 11
192.3493957692452
 21
176.5569189741697
 31
0.0
 11
192.1783072226716
 21
176.3138241434689
 31
0.0
 11
192.0283260959487
 21
176.0571623402668
 31
0.0
 11
191.8986493160744
 21
175.7855741202957
 31
0.0
 11
191.791757961997
 21
175.5042328419067
 31
0.0
 11
191.7073919006667
 21
175.2125153583613
 31
0.0
 11
191.6468793704309
 21
174.9149309621011
 31
0.0
 11
191.610300421868
 21
174.6120252275668
 31
0.0
 11
191.5980923839433
 21
174.3071623402668
 31
0.0
 11
191.610300421868
 21
174.0022994529668
 31
0.0
 11
191.6468793704309
 21
173.6993937184326
 31
0.0
 11
191.7073919006667
 21
173.4018093221724
 31
0.0
 11
191.791757961997
 21
173.110091838627
 31
0.0
 11
191.8986493160743
 21
172.828750560238
 31
0.0
 11
192.0283260959487
 21
172.5571623402668
 31
0.0
 11
192.1783072226716
 21
172.3005005370647
 31
0.0
 11
192.3493957692452
 21
172.0574057063639
 31
0.0
 11
192.5379280530228
 21
171.8330996662656
 31
0.0
 11
192.7452114423326
 21
171.6260067893504
 31
0.0
 11
192.9666459716674
 21
171.4407706223733
 31
0.0
 11
193.2037464562764
 21
171.2760734270213
 31
0.0
 11
193.4514800321718
 21
171.1354861678013
 31
0.0
 11
193.7110684567079
 21
171.0182381675161
 31
0.0
 11
193.9777113169824
 21
170.926594787448
 31
0.0
 11
194.2517627213613
 21
170.8603352047241
 31
0.0
 11
194.5293205297399
 21
170.820515125565
 31
0.0
 11
194.8094005286095
 21
170.8071623402668
 31
0.0
 11
195.0894805274791
 21
170.820515125565
 31
0.0
 11
195.3670383358578
 21
170.8603352047241
 31
0.0
 11
195.6410897402367
 21
170.926594787448
 31
0.0
 11
195.9077326005112
 21
171.0182381675161
 31
0.0
 11
196.1673210250473
 21
171.1354861678013
 31
0.0
 11
196.4150546009427
 21
171.2760734270213
 31
0.0
 11
196.6521550855517
 21
171.4407706223733
 31
0.0
 11
196.8735896148865
 21
171.6260067893504
 31
0.0
 11
197.0808730041963
 21
171.8330996662656
 31
0.0
 11
197.2694052879739
 21
172.0574057063639
 31
0.0
 11
197.4404938345475
 21
172.3005005370647
 31
0.0
 11
197.5904749612704
 21
172.5571623402668
 31
0.0
 11
197.7201517411447
 21
172.8287505602379
 31
0.0
 11
197.8270430952221
 21
173.110091838627
 31
0.0
 11
197.9114091565523
 21
173.4018093221724
 31
0.0
 11
197.9719216867881
 21
173.6993937184326
 31
0.0
 11
198.0085006353511
 21
174.0022994529669
 31
0.0
 11
198.0207086732758
 21
174.3071623402668
 31
0.0
 11
198.0085006353511
 21
174.6120252275668
 31
0.0
 11
197.9719216867881
 21
174.9149309621011
 31
0.0
 11
197.9114091565524
 21
175.2125153583613
 31
0.0
 11
197.8270430952221
 21
175.5042328419067
 31
0.0
 11
197.7201517411447
 21
175.7855741202957
 31
0.0
 11
197.5904749612704
 21
176.0571623402668
 31
0.0
 11
197.4404938345475
 21
176.313824143469
 31
0.0
 11
197.2694052879739
 21
176.5569189741697
 31
0.0
 11
197.0808730041963
 21
176.781225014268
 31
0.0
 11
196.8735896148865
 21
176.9883178911832
 31
0.0
 11
196.6521550855517
 21
177.1735540581603
 31
0.0
 11
196.4150546009427
 21
177.3382512535124
 31
0.0
 11
196.1673210250472
 21
177.4788385127324
 31
0.0
 11
195.9077326005112
 21
177.5960865130175
 31
0.0
 11
195.6410897402367
 21
177.6877298930856
 31
0.0
 11
195.3670383358578
 21
177.7539894758096
 31
0.0
 11
195.0894805274792
 21
177.7938095549688
 31
0.0
 11
194.8094005286095
 21
177.8071623402668
 31
0.0
  0
SPLINE
  5
1B1
330
53
100
AcDbEntity
  8
1
  6
Continuous
 62
     7
100
AcDbSpline
210
0.0
220
0.0
230
1.0
 70
    11
 71
     3
 72
    79
 73
    75
 74
    73
 42
0.000000001
 43
0.0000000001
 44
0.00000001
 40
0.0
 40
0.0
 40
0.0
 40
0.0
 40
0.3102615582253014
 40
0.620559542082314
 40
0.942216297529056
 40
1.263944872753908
 40
1.606039020845083
 40
1.948193468907059
 40
2.316051885190571
 40
2.683951048240005
 40
3.07908466408044
 40
3.474244780173856
 40
3.89489795920766
 40
4.315568207494267
 40
4.757452126736525
 40
5.199346674241769
 40
5.656354161987157
 40
6.113367478658205
 40
6.578223037733398
 40
7.043080455843035
 40
7.507937873950465
 40
7.972793433018748
 40
8.429806749677626
 40
8.886814237403545
 40
9.3287087848804
 40
9.770592704081546
 40
10.19126295231278
 40
10.61191613126936
 40
11.00707624726325
 40
11.40220986296885
 40
11.77010902584995
 40
12.13796744190992
 40
12.48012188969636
 40
12.82221603741927
 40
13.1439446121615
 40
13.4656013668248
 40
13.77589934864156
 40
14.08616091447275
 40
14.39642248030382
 40
14.70672046212049
 40
15.02837721678374
 40
15.35010579152594
 40
15.69219993924886
 40
16.03435438703536
 40
16.40221280309533
 40
16.77011196597649
 40
17.16524558168209
 40
17.56040569767598
 40
17.98105887663258
 40
18.4017291248638
 40
18.84361304406492
 40
19.28550759154175
 40
19.74251507926766
 40
20.19952839592654
 40
20.66438395499482
 40
21.12924137310225
 40
21.59409879121188
 40
22.05895435028707
 40
22.51596766695811
 40
22.97297515470351
 40
23.41486970220873
 40
23.85675362145096
 40
24.27742386973758
 40
24.69807704877137
 40
25.09323716486478
 40
25.48837078070522
 40
25.85626994375473
 40
26.22412836003822
 40
26.56628280810024
 40
26.90837695619144
 40
27.23010553141627
 40
27.55176228686296
 40
27.86206027071986
 40
28.17232182894508
 40
28.17232182894508
 40
28.17232182894508
 40
28.17232182894508
 10
75.19797988655054
 20
174.3425194474024
 30
0.0
 10
75.19394669483452
 20
174.4460096293245
 30
0.0
 10
75.1858798461637
 20
174.6530021436694
 30
0.0
 10
75.12189586835423
 20
174.961851011692
 30
0.0
 10
75.02047507205683
 20
175.2638179254261
 30
0.0
 10
74.87805257195926
 20
175.560727581541
 30
0.0
 10
74.69894999919913
 20
175.845045689901
 30
0.0
 10
74.48097973133868
 20
176.1205467361975
 30
0.0
 10
74.23069757730369
 20
176.3791527568661
 30
0.0
 10
73.94423541553203
 20
176.6249106464788
 30
0.0
 10
73.63040466324468
 20
176.8505559066734
 30
0.0
 10
73.28449049821353
 20
177.0593275745613
 30
0.0
 10
72.916371706063
 20
177.2455483428327
 30
0.0
 10
72.52167777114622
 20
177.4112328731792
 30
0.0
 10
72.1101245711742
 20
177.5525406460289
 30
0.0
 10
71.67869887157973
 20
177.6703201346032
 30
0.0
 10
71.23592484286917
 20
177.7624384362419
 30
0.0
 10
70.7808668442753
 20
177.8289243636351
 30
0.0
 10
70.32009974219416
 20
177.8689819205452
 30
0.0
 10
69.85517756676323
 20
177.8823238778405
 30
0.0
 10
69.39025539133624
 20
177.8689819206238
 30
0.0
 10
68.92948828924361
 20
177.8289243637962
 30
0.0
 10
68.47443029069137
 20
177.7624384364945
 30
0.0
 10
68.03165626182647
 20
177.6703201349596
 30
0.0
 10
67.60023056278473
 20
177.5525406465067
 30
0.0
 10
67.18867736078593
 20
177.4112328737989
 30
0.0
 10
66.79398343306366
 20
177.2455483436216
 30
0.0
 10
66.4258646148416
 20
177.0593275755478
 30
0.0
 10
66.07995054141857
 20
176.8505559078952
 30
0.0
 10
65.7661194594805
 20
176.6249106479725
 30
0.0
 10
65.4796584470075
 20
176.3791527586812
 30
0.0
 10
65.22937216793443
 20
176.1205467383824
 30
0.0
 10
65.01141626992744
 20
175.845045692526
 30
0.0
 10
64.83226195618826
 20
175.5607275846867
 30
0.0
 10
64.69002160480062
 20
175.2638179292742
 30
0.0
 10
64.58793795276046
 20
174.9618510167649
 30
0.0
 10
64.52634471283255
 20
174.6530021476185
 30
0.0
 10
64.50539090937096
 20
174.3425194474025
 30
0.0
 10
64.52634471283255
 20
174.0320367471864
 30
0.0
 10
64.58793795276047
 20
173.72318787804
 30
0.0
 10
64.6900216048006
 20
173.4212209655307
 30
0.0
 10
64.83226195618829
 20
173.1243113101184
 30
0.0
 10
65.01141626992745
 20
172.8399932022791
 30
0.0
 10
65.22937216793439
 20
172.5644921564226
 30
0.0
 10
65.47965844700754
 20
172.3058861361237
 30
0.0
 10
65.76611945948046
 20
172.0601282468324
 30
0.0
 10
66.07995054141858
 20
171.8344829869096
 30
0.0
 10
66.42586461484163
 20
171.6257113192571
 30
0.0
 10
66.79398343306366
 20
171.4394905511832
 30
0.0
 10
67.18867736078593
 20
171.2738060210061
 30
0.0
 10
67.60023056278472
 20
171.1324982482982
 30
0.0
 10
68.0316562618265
 20
171.0147187598456
 30
0.0
 10
68.47443029069137
 20
170.9226004583106
 30
0.0
 10
68.9294882892436
 20
170.856114531009
 30
0.0
 10
69.39025539133627
 20
170.8160569741814
 30
0.0
 10
69.85517756676322
 20
170.8027150169648
 30
0.0
 10
70.32009974219419
 20
170.8160569742599
 30
0.0
 10
70.7808668442753
 20
170.8561145311701
 30
0.0
 10
71.23592484286918
 20
170.9226004585631
 30
0.0
 10
71.67869887157971
 20
171.0147187602018
 30
0.0
 10
72.1101245711742
 20
171.1324982487761
 30
0.0
 10
72.52167777114623
 20
171.2738060216257
 30
0.0
 10
72.91637170606299
 20
171.4394905519723
 30
0.0
 10
73.2844904982135
 20
171.6257113202436
 30
0.0
 10
73.6304046632447
 20
171.8344829881315
 30
0.0
 10
73.94423541553206
 20
172.0601282483261
 30
0.0
 10
74.23069757730363
 20
172.305886137939
 30
0.0
 10
74.48097973133872
 20
172.5644921586075
 30
0.0
 10
74.69894999919913
 20
172.8399932049039
 30
0.0
 10
74.87805257195922
 20
173.1243113132641
 30
0.0
 10
75.02047507205681
 20
173.4212209693789
 30
0.0
 10
75.12189586835422
 20
173.7231878831129
 30
0.0
 10
75.18587984616372
 20
174.0320367511355
 30
0.0
 10
75.19394669483454
 20
174.2390292654802
 30
0.0
 10
75.19797988655054
 20
174.3425194474024
 30
0.0
 11
75.19797988655054
 21
174.3425194474024
 31
0.0
 11
75.17736279334973
 21
174.6520952455392
 31
0.0
 11
75.11681071395165
 21
174.9564277664585
 31
0.0
 11
75.01434382531977
 21
175.2613271017219
 31
0.0
 11
74.87576948039094
 21
175.5516827918925
 31
0.0
 11
74.69397743603366
 21
175.8414759225839
 31
0.0
 11
74.48218010177746
 21
176.1101980009704
 31
0.0
 11
74.22682359150359
 21
176.3749863447393
 31
0.0
 11
73.94800159221435
 21
176.6150031916865
 31
0.0
 11
73.62750966458935
 21
176.8461211240117
 31
0.0
 11
73.28946469540745
 21
177.050760113765
 31
0.0
 11
72.91430097156332
 21
177.2410264463562
 31
0.0
 11
72.52657872173054
 21
177.4042285136318
 31
0.0
 11
72.10874239726917
 21
177.5480137842138
 31
0.0
 11
71.68252357545455
 21
177.6646684328209
 31
0.0
 11
71.23513360936468
 21
177.7579318345204
 31
0.0
 11
70.78294544508705
 21
177.8241665361766
 31
0.0
 11
70.31984223187466
 21
177.8644915249433
 31
0.0
 11
69.85517755691035
 21
177.8778765545383
 31
0.0
 11
69.39051288194608
 21
177.8644915249433
 31
0.0
 11
68.92740966873376
 21
177.8241665361766
 31
0.0
 11
68.47522150445607
 21
177.7579318345203
 31
0.0
 11
68.02783153836614
 21
177.6646684328209
 31
0.0
 11
67.60161271655164
 21
177.5480137842138
 31
0.0
 11
67.18377639209035
 21
177.4042285136318
 31
0.0
 11
66.79605414225757
 21
177.2410264463561
 31
0.0
 11
66.42089041841345
 21
177.050760113765
 31
0.0
 11
66.08284544923148
 21
176.8461211240118
 31
0.0
 11
65.76235352160646
 21
176.6150031916865
 31
0.0
 11
65.48353152231722
 21
176.3749863447393
 31
0.0
 11
65.22817501204335
 21
176.1101980009704
 31
0.0
 11
65.01637767778719
 21
175.841475922584
 31
0.0
 11
64.83458563342995
 21
175.5516827918925
 31
0.0
 11
64.69601128850108
 21
175.2613271017219
 31
0.0
 11
64.59354439986916
 21
174.9564277664585
 31
0.0
 11
64.53299232047105
 21
174.6520952455392
 31
0.0
 11
64.51237522727024
 21
174.3425194474024
 31
0.0
 11
64.53299232047105
 21
174.0329436492657
 31
0.0
 11
64.59354439986916
 21
173.7286111283465
 31
0.0
 11
64.69601128850108
 21
173.4237117930832
 31
0.0
 11
64.83458563342995
 21
173.1333561029126
 31
0.0
 11
65.0163776777872
 21
172.8435629722211
 31
0.0
 11
65.22817501204335
 21
172.5748408938346
 31
0.0
 11
65.48353152231721
 21
172.3100525500657
 31
0.0
 11
65.76235352160646
 21
172.0700357031184
 31
0.0
 11
66.08284544923148
 21
171.8389177707931
 31
0.0
 11
66.42089041841345
 21
171.6342787810399
 31
0.0
 11
66.79605414225759
 21
171.4440124484487
 31
0.0
 11
67.18377639209035
 21
171.2808103811731
 31
0.0
 11
67.60161271655164
 21
171.1370251105912
 31
0.0
 11
68.02783153836614
 21
171.0203704619842
 31
0.0
 11
68.47522150445607
 21
170.9271070602848
 31
0.0
 11
68.92740966873376
 21
170.8608723586285
 31
0.0
 11
69.39051288194608
 21
170.8205473698618
 31
0.0
 11
69.85517755691035
 21
170.8071623402669
 31
0.0
 11
70.31984223187466
 21
170.8205473698618
 31
0.0
 11
70.78294544508705
 21
170.8608723586285
 31
0.0
 11
71.23513360936467
 21
170.9271070602847
 31
0.0
 11
71.68252357545455
 21
171.0203704619842
 31
0.0
 11
72.10874239726917
 21
171.1370251105912
 31
0.0
 11
72.52657872173054
 21
171.2808103811731
 31
0.0
 11
72.91430097156332
 21
171.4440124484487
 31
0.0
 11
73.28946469540745
 21
171.6342787810399
 31
0.0
 11
73.62750966458937
 21
171.8389177707931
 31
0.0
 11
73.94800159221435
 21
172.0700357031184
 31
0.0
 11
74.22682359150359
 21
172.3100525500657
 31
0.0
 11
74.48218010177746
 21
172.5748408938346
 31
0.0
 11
74.69397743603366
 21
172.8435629722211
 31
0.0
 11
74.87576948039094
 21
173.1333561029126
 31
0.0
 11
75.01434382531977
 21
173.4237117930832
 31
0.0
 11
75.11681071395165
 21
173.7286111283465
 31
0.0
 11
75.17736279334973
 21
174.0329436492657
 31
0.0
 11
75.19797988655054
 21
174.3425194474024
 31
0.0
  0
SPLINE
  5
1B2
330
53
100
AcDbEntity
  8
1
  6
Continuous
 62
     7
100
AcDbSpline
210
0.0
220
0.0
230
1.0
 70
    11
 71
     3
 72
    79
 73
    75
 74
    73
 42
0.000000001
 43
0.0000000001
 44
0.00000001
 40
0.0
 40
0.0
 40
0.0
 40
0.0
 40
0.3102615582253014
 40
0.620559542082314
 40
0.9422162975290378
 40
1.263944872753878
 40
1.606039020845075
 40
1.948193468907095
 40
2.316051885190537
 40
2.683951048239954
 40
3.079084664080382
 40
3.474244780173807
 40
3.894897959207649
 40
4.315568207494295
 40
4.757452126736474
 40
5.199346674241608
 40
5.656354161987093
 40
6.113367478658239
 40
6.578223037733446
 40
7.043080455843069
 40
7.507937873950442
 40
7.972793433018697
 40
8.429806749677594
 40
8.886814237403579
 40
9.328708784880392
 40
9.7705927040815
 40
10.19126295231283
 40
10.61191613126949
 40
11.00707624726332
 40
11.40220986296891
 40
11.77010902585001
 40
12.13796744190996
 40
12.48012188969637
 40
12.82221603741927
 40
13.1439446121615
 40
13.4656013668248
 40
13.77589934864154
 40
14.08616091447272
 40
14.3964224803038
 40
14.70672046212045
 40
15.0283772167837
 40
15.3501057915259
 40
15.6921999392488
 40
16.03435438703528
 40
16.40221280309523
 40
16.77011196597638
 40
17.16524558168197
 40
17.5604056976758
 40
17.98105887663247
 40
18.4017291248638
 40
18.84361304406487
 40
19.28550759154167
 40
19.74251507926763
 40
20.19952839592654
 40
20.66438395499479
 40
21.12924137310216
 40
21.59409879121181
 40
22.05895435028699
 40
22.51596766695807
 40
22.97297515470351
 40
23.41486970220866
 40
23.85675362145088
 40
24.27742386973754
 40
24.69807704877136
 40
25.09323716486479
 40
25.48837078070522
 40
25.85626994375467
 40
26.22412836003813
 40
26.56628280810019
 40
26.90837695619142
 40
27.23010553141622
 40
27.5517622868629
 40
27.86206027071986
 40
28.17232182894502
 40
28.17232182894502
 40
28.17232182894502
 40
28.17232182894502
 10
77.07368215590705
 20
174.3425194474024
 30
0.0
 10
77.07771534762304
 20
174.4460096293245
 30
0.0
 10
77.08578219629388
 20
174.6530021436694
 30
0.0
 10
77.1497661741034
 20
174.961851011692
 30
0.0
 10
77.25118697040067
 20
175.263817925426
 30
0.0
 10
77.39360947049829
 20
175.560727581541
 30
0.0
 10
77.57271204325839
 20
175.8450456899011
 30
0.0
 10
77.79068231111894
 20
176.1205467361975
 30
0.0
 10
78.04096446515392
 20
176.3791527568659
 30
0.0
 10
78.32742662692547
 20
176.6249106464788
 30
0.0
 10
78.64125737921277
 20
176.8505559066734
 30
0.0
 10
78.98717154424402
 20
177.0593275745613
 30
0.0
 10
79.3552903363945
 20
177.2455483428327
 30
0.0
 10
79.74998427131136
 20
177.4112328731792
 30
0.0
 10
80.16153747128328
 20
177.5525406460288
 30
0.0
 10
80.59296317087771
 20
177.6703201346033
 30
0.0
 10
81.03573719958831
 20
177.762438436242
 30
0.0
 10
81.49079519818227
 20
177.828924363635
 30
0.0
 10
81.95156230026342
 20
177.8689819205453
 30
0.0
 10
82.41648447569436
 20
177.8823238778404
 30
0.0
 10
82.88140665112132
 20
177.8689819206238
 30
0.0
 10
83.34217375321393
 20
177.8289243637961
 30
0.0
 10
83.79723175176618
 20
177.7624384364946
 30
0.0
 10
84.24000578063107
 20
177.6703201349595
 30
0.0
 10
84.67143147967282
 20
177.5525406465067
 30
0.0
 10
85.0829846816716
 20
177.4112328737988
 30
0.0
 10
85.47767860939393
 20
177.2455483436216
 30
0.0
 10
85.84579742761605
 20
177.0593275755479
 30
0.0
 10
86.1917115010391
 20
176.8505559078952
 30
0.0
 10
86.50554258297711
 20
176.6249106479725
 30
0.0
 10
86.7920035954501
 20
176.3791527586813
 30
0.0
 10
87.04228987452316
 20
176.1205467383824
 30
0.0
 10
87.26024577253013
 20
175.845045692526
 30
0.0
 10
87.43940008626922
 20
175.5607275846866
 30
0.0
 10
87.58164043765692
 20
175.2638179292743
 30
0.0
 10
87.68372408969704
 20
174.9618510167649
 30
0.0
 10
87.74531732962488
 20
174.6530021476185
 30
0.0
 10
87.7662711330864
 20
174.3425194474024
 30
0.0
 10
87.74531732962491
 20
174.0320367471865
 30
0.0
 10
87.68372408969704
 20
173.7231878780399
 30
0.0
 10
87.58164043765692
 20
173.4212209655308
 30
0.0
 10
87.4394000862692
 20
173.1243113101184
 30
0.0
 10
87.2602457725301
 20
172.8399932022791
 30
0.0
 10
87.04228987452322
 20
172.5644921564226
 30
0.0
 10
86.79200359545005
 20
172.3058861361237
 30
0.0
 10
86.50554258297716
 20
172.0601282468324
 30
0.0
 10
86.19171150103911
 20
171.8344829869096
 30
0.0
 10
85.84579742761605
 20
171.6257113192571
 30
0.0
 10
85.47767860939396
 20
171.4394905511833
 30
0.0
 10
85.08298468167163
 20
171.2738060210061
 30
0.0
 10
84.6714314796728
 20
171.1324982482984
 30
0.0
 10
84.24000578063108
 20
171.0147187598456
 30
0.0
 10
83.79723175176616
 20
170.9226004583106
 30
0.0
 10
83.34217375321391
 20
170.8561145310089
 30
0.0
 10
82.8814066511213
 20
170.8160569741813
 30
0.0
 10
82.41648447569438
 20
170.8027150169648
 30
0.0
 10
81.95156230026342
 20
170.8160569742599
 30
0.0
 10
81.4907951981823
 20
170.8561145311701
 30
0.0
 10
81.03573719958838
 20
170.9226004585631
 30
0.0
 10
80.59296317087784
 20
171.0147187602018
 30
0.0
 10
80.16153747128334
 20
171.1324982487761
 30
0.0
 10
79.74998427131135
 20
171.2738060216257
 30
0.0
 10
79.35529033639455
 20
171.4394905519722
 30
0.0
 10
78.987171544244
 20
171.6257113202436
 30
0.0
 10
78.64125737921282
 20
171.8344829881316
 30
0.0
 10
78.32742662692543
 20
172.060128248326
 30
0.0
 10
78.04096446515398
 20
172.3058861379391
 30
0.0
 10
77.7906823111189
 20
172.5644921586075
 30
0.0
 10
77.57271204325843
 20
172.8399932049039
 30
0.0
 10
77.39360947049826
 20
173.1243113132641
 30
0.0
 10
77.25118697040074
 20
173.421220969379
 30
0.0
 10
77.14976617410338
 20
173.7231878831129
 30
0.0
 10
77.08578219629388
 20
174.0320367511356
 30
0.0
 10
77.07771534762307
 20
174.2390292654802
 30
0.0
 10
77.07368215590705
 20
174.3425194474024
 30
0.0
 11
77.07368215590705
 21
174.3425194474024
 31
0.0
 11
77.09429924910786
 21
174.6520952455392
 31
0.0
 11
77.15485132850594
 21
174.9564277664585
 31
0.0
 11
77.25731821713777
 21
175.2613271017219
 31
0.0
 11
77.39589256206656
 21
175.5516827918925
 31
0.0
 11
77.57768460642389
 21
175.8414759225839
 31
0.0
 11
77.78948194068016
 21
176.1101980009704
 31
0.0
 11
78.04483845095399
 21
176.3749863447393
 31
0.0
 11
78.32366045024315
 21
176.6150031916865
 31
0.0
 11
78.64415237786812
 21
176.8461211240118
 31
0.0
 11
78.98219734705006
 21
177.050760113765
 31
0.0
 11
79.35736107089423
 21
177.2410264463562
 31
0.0
 11
79.74508332072705
 21
177.4042285136318
 31
0.0
 11
80.16291964518834
 21
177.5480137842138
 31
0.0
 11
80.58913846700284
 21
177.6646684328209
 31
0.0
 11
81.03652843309281
 21
177.7579318345204
 31
0.0
 11
81.48871659737054
 21
177.8241665361766
 31
0.0
 11
81.95181981058295
 21
177.8644915249433
 31
0.0
 11
82.41648448554724
 21
177.8778765545383
 31
0.0
 11
82.88114916051146
 21
177.8644915249433
 31
0.0
 11
83.34425237372375
 21
177.8241665361766
 31
0.0
 11
83.79644053800146
 21
177.7579318345204
 31
0.0
 11
84.24383050409145
 21
177.6646684328209
 31
0.0
 11
84.67004932590591
 21
177.5480137842138
 31
0.0
 11
85.08788565036716
 21
177.4042285136318
 31
0.0
 11
85.47560790020003
 21
177.2410264463561
 31
0.0
 11
85.85077162404426
 21
177.050760113765
 31
0.0
 11
86.18881659322616
 21
176.8461211240118
 31
0.0
 11
86.50930852085116
 21
176.6150031916865
 31
0.0
 11
86.7881305201404
 21
176.3749863447393
 31
0.0
 11
87.04348703041424
 21
176.1101980009704
 31
0.0
 11
87.25528436467035
 21
175.841475922584
 31
0.0
 11
87.43707640902755
 21
175.5516827918925
 31
0.0
 11
87.57565075395644
 21
175.2613271017219
 31
0.0
 11
87.67811764258835
 21
174.9564277664585
 31
0.0
 11
87.73866972198638
 21
174.6520952455392
 31
0.0
 11
87.75928681518715
 21
174.3425194474024
 31
0.0
 11
87.73866972198638
 21
174.0329436492657
 31
0.0
 11
87.67811764258835
 21
173.7286111283465
 31
0.0
 11
87.57565075395642
 21
173.4237117930832
 31
0.0
 11
87.43707640902755
 21
173.1333561029126
 31
0.0
 11
87.25528436467035
 21
172.8435629722211
 31
0.0
 11
87.04348703041424
 21
172.5748408938346
 31
0.0
 11
86.7881305201404
 21
172.3100525500657
 31
0.0
 11
86.50930852085116
 21
172.0700357031184
 31
0.0
 11
86.18881659322616
 21
171.8389177707931
 31
0.0
 11
85.85077162404426
 21
171.6342787810399
 31
0.0
 11
85.47560790020005
 21
171.4440124484487
 31
0.0
 11
85.08788565036716
 21
171.2808103811731
 31
0.0
 11
84.67004932590591
 21
171.1370251105912
 31
0.0
 11
84.24383050409145
 21
171.0203704619842
 31
0.0
 11
83.79644053800146
 21
170.9271070602848
 31
0.0
 11
83.34425237372375
 21
170.8608723586285
 31
0.0
 11
82.88114916051146
 21
170.8205473698618
 31
0.0
 11
82.41648448554724
 21
170.8071623402669
 31
0.0
 11
81.95181981058292
 21
170.8205473698618
 31
0.0
 11
81.48871659737054
 21
170.8608723586285
 31
0.0
 11
81.03652843309288
 21
170.9271070602847
 31
0.0
 11
80.58913846700295
 21
171.0203704619842
 31
0.0
 11
80.1629196451884
 21
171.1370251105911
 31
0.0
 11
79.74508332072705
 21
171.2808103811731
 31
0.0
 11
79.35736107089423
 21
171.4440124484487
 31
0.0
 11
78.98219734705006
 21
171.6342787810399
 31
0.0
 11
78.64415237786812
 21
171.8389177707931
 31
0.0
 11
78.32366045024315
 21
172.0700357031184
 31
0.0
 11
78.04483845095399
 21
172.3100525500657
 31
0.0
 11
77.78948194068016
 21
172.5748408938346
 31
0.0
 11
77.5776846064239
 21
172.8435629722211
 31
0.0
 11
77.39589256206656
 21
173.1333561029126
 31
0.0
 11
77.25731821713778
 21
173.4237117930832
 31
0.0
 11
77.15485132850594
 21
173.7286111283465
 31
0.0
 11
77.09429924910786
 21
174.0329436492658
 31
0.0
 11
77.07368215590705
 21
174.3425194474024
 31
0.0
  0
ENDBLK
  5
55
330
53
100
AcDbEntity
  8
0
100
AcDbBlockEnd
  0
BLOCK
  5
57
330
56
100
AcDbEntity
  8
0
100
AcDbBlockBegin
  2
36-54-M11
 70
     0
 10
143.1893135116192
 20
95.45570164088565
 30
0.0
  3
36-54-M11
  1

  0
LINE
  5
1B3
330
56
100
AcDbEntity
  8
1
  6
Continuous
 62
     7
100
AcDbLine
 10
210.8177307778073
 20
187.8753419286554
 30
0.0
 11
210.8177307778073
 21
184.8071623402668
 31
0.0
  0
LINE
  5
1B4
330
56
100
AcDbEntity
  8
1
  6
Continuous
 62
     7
100
AcDbLine
 10
201.3177307778072
 20
184.8071623402668
 30
0.0
 11
201.3177307778072
 21
187.8753419286554
 31
0.0
  0
LINE
  5
1B5
330
56
100
AcDbEntity
  8
1
  6
Continuous
 62
     7
100
AcDbLine
 10
80.88583102122865
 20
187.8774710520817
 30
0.0
 11
80.88583102122865
 21
184.8050332168404
 31
0.0
  0
LINE
  5
1B6
330
56
100
AcDbEntity
  8
1
  6
Continuous
 62
     7
100
AcDbLine
 10
71.38583102122865
 20
184.8050332168404
 30
0.0
 11
71.38583102122865
 21
187.8774710520817
 31
0.0
  0
ENDBLK
  5
58
330
56
100
AcDbEntity
  8
0
100
AcDbBlockEnd
  0
BLOCK
  5
5E
330
59
100
AcDbEntity
  8
0
100
AcDbBlockBegin
  2
R10AK-13-B
 70
     0
 10
191.5677307778073
 20
153.8753419286554
 30
0.0
  3
R10AK-13-B
  1

  0
INSERT
  5
5A
330
59
100
AcDbEntity
  8
1
100
AcDbBlockReference
  2
42-1
 10
316.3731696150755
 20
150.8527729496773
 30
0.0
  0
INSERT
  5
5B
330
59
100
AcDbEntity
  8
0
100
AcDbBlockReference
  2
21-1C
 10
321.5101516979425
 20
134.8152462036642
 30
0.0
  0
INSERT
  5
5C
330
59
100
AcDbEntity
  8
1
100
AcDbBlockReference
  2
37-1-13
 10
399.4362435232505
 20
143.9613828218052
 30
0.0
  0
INSERT
  5
5D
330
59
100
AcDbEntity
  8
1
100
AcDbBlockReference
  2
36-54-M11
 10
143.1893135116192
 20
95.45570164088565
 30
0.0
  0
ENDBLK
  5
5F
330
59
100
AcDbEntity
  8
0
100
AcDbBlockEnd
  0
BLOCK
  5
61
330
60
100
AcDbEntity
  8
0
100
AcDbBlockBegin
  2
開示A4
 70
     0
 10
0.0
 20
0.0
 30
0.0
  3
開示A4
  1

  0
POINT
  5
1B7
330
60
100
AcDbEntity
  8
1
 62
     4
100
AcDbPoint
 10
34.0
 20
34.00000000000001
 30
0.0
  0
POINT
  5
1B8
330
60
100
AcDbEntity
  8
1
 62
     4
100
AcDbPoint
 10
57.0
 20
12.25
 30
0.0
  0
POINT
  5
1B9
330
60
100
AcDbEntity
  8
1
 62
     4
100
AcDbPoint
 10
57.0
 20
20.75000000000001
 30
0.0
  0
POINT
  5
1BA
330
60
100
AcDbEntity
  8
1
 62
     4
100
AcDbPoint
 10
57.0
 20
24.75000000000001
 30
0.0
  0
POINT
  5
1BB
330
60
100
AcDbEntity
  8
1
 62
     4
100
AcDbPoint
 10
57.0
 20
16.25
 30
0.0
  0
POINT
  5
1BC
330
60
100
AcDbEntity
  8
1
 62
     4
100
AcDbPoint
 10
157.5
 20
19.00000000000001
 30
0.0
  0
POINT
  5
1BD
330
60
100
AcDbEntity
  8
1
 62
     4
100
AcDbPoint
 10
47.5
 20
282.0000000000003
 30
0.0
  0
POINT
  5
1BE
330
60
100
AcDbEntity
  8
1
 62
     4
100
AcDbPoint
 10
57.0
 20
22.75000000000001
 30
0.0
  0
POINT
  5
1BF
330
60
100
AcDbEntity
  8
1
 62
     4
100
AcDbPoint
 10
57.0
 20
14.25
 30
0.0
  0
POINT
  5
1C0
330
60
100
AcDbEntity
  8
1
 62
     4
100
AcDbPoint
 10
157.5
 20
12.5
 30
0.0
  0
POINT
  5
1C1
330
60
100
AcDbEntity
  8
1
 62
     4
100
AcDbPoint
 10
163.25
 20
12.5
 30
0.0
  0
POINT
  5
1C2
330
60
100
AcDbEntity
  8
1
 62
     4
100
AcDbPoint
 10
151.75
 20
12.5
 30
0.0
  0
POINT
  5
1C3
330
60
100
AcDbEntity
  8
1
 62
     4
100
AcDbPoint
 10
134.75
 20
12.5
 30
0.0
  0
POINT
  5
1C4
330
60
100
AcDbEntity
  8
1
 62
     4
100
AcDbPoint
 10
146.25
 20
12.5
 30
0.0
  0
POINT
  5
1C5
330
60
100
AcDbEntity
  8
1
 62
     4
100
AcDbPoint
 10
140.5
 20
12.5
 30
0.0
  0
POINT
  5
1C6
330
60
100
AcDbEntity
  8
1
 62
     4
100
AcDbPoint
 10
140.5
 20
19.00000000000001
 30
0.0
  0
POINT
  5
1C7
330
60
100
AcDbEntity
  8
1
 62
     4
100
AcDbPoint
 10
117.75
 20
12.5
 30
0.0
  0
POINT
  5
1C8
330
60
100
AcDbEntity
  8
1
 62
     4
100
AcDbPoint
 10
129.25
 20
12.5
 30
0.0
  0
POINT
  5
1C9
330
60
100
AcDbEntity
  8
1
 62
     4
100
AcDbPoint
 10
123.5
 20
12.5
 30
0.0
  0
POINT
  5
1CA
330
60
100
AcDbEntity
  8
1
 62
     4
100
AcDbPoint
 10
123.5
 20
19.00000000000001
 30
0.0
  0
POINT
  5
1CB
330
60
100
AcDbEntity
  8
1
 62
     4
100
AcDbPoint
 10
100.75
 20
12.5
 30
0.0
  0
POINT
  5
1CC
330
60
100
AcDbEntity
  8
1
 62
     4
100
AcDbPoint
 10
112.25
 20
12.5
 30
0.0
  0
POINT
  5
1CD
330
60
100
AcDbEntity
  8
1
 62
     4
100
AcDbPoint
 10
106.5
 20
12.5
 30
0.0
  0
POINT
  5
1CE
330
60
100
AcDbEntity
  8
1
 62
     4
100
AcDbPoint
 10
106.5
 20
19.00000000000001
 30
0.0
  0
POINT
  5
1CF
330
60
100
AcDbEntity
  8
1
 62
     4
100
AcDbPoint
 10
85.25
 20
17.0
 30
0.0
  0
POINT
  5
1D0
330
60
100
AcDbEntity
  8
1
 62
     4
100
AcDbPoint
 10
93.75
 20
17.0
 30
0.0
  0
LINE
  5
1D1
330
60
100
AcDbEntity
  8
1
  6
Continuous
 62
     2
100
AcDbLine
 10
81.0
 20
27.00000000000001
 30
0.0
 11
81.0
 21
10.0
 31
0.0
  0
LINE
  5
1D2
330
60
100
AcDbEntity
  8
1
  6
DOT_CENTER
 62
     2
100
AcDbLine
 10
187.0
 20
26.50000000000001
 30
0.0
 11
187.0
 21
20.50000000000001
 31
0.0
  0
LINE
  5
1D3
330
60
100
AcDbEntity
  8
1
  6
DOT_CENTER
 62
     2
100
AcDbLine
 10
184.0
 20
23.50000000000001
 30
0.0
 11
197.0
 21
23.50000000000001
 31
0.0
  0
LINE
  5
1D4
330
60
100
AcDbEntity
  8
1
  6
Continuous
 62
     7
100
AcDbLine
 10
196.0
 20
21.50000000000001
 30
0.0
 11
191.0
 21
22.30000000000001
 31
0.0
  0
LINE
  5
1D5
330
60
100
AcDbEntity
  8
1
  6
Continuous
 62
     7
100
AcDbLine
 10
196.0
 20
25.50000000000001
 30
0.0
 11
196.0
 21
21.50000000000001
 31
0.0
  0
LINE
  5
1D6
330
60
100
AcDbEntity
  8
1
  6
Continuous
 62
     7
100
AcDbLine
 10
191.0
 20
24.70000000000001
 30
0.0
 11
196.0
 21
25.50000000000001
 31
0.0
  0
LINE
  5
1D7
330
60
100
AcDbEntity
  8
1
  6
Continuous
 62
     7
100
AcDbLine
 10
191.0
 20
24.70000000000001
 30
0.0
 11
191.0
 21
22.30000000000001
 31
0.0
  0
LINE
  5
1D8
330
60
100
AcDbEntity
  8
1
  6
Continuous
 62
     2
100
AcDbLine
 10
33.0
 20
27.0
 30
0.0
 11
33.0
 21
10.0
 31
0.0
  0
LINE
  5
1D9
330
60
100
AcDbEntity
  8
1
  6
Continuous
 62
     2
100
AcDbLine
 10
25.0
 20
18.50000000000001
 30
0.0
 11
81.0
 21
18.50000000000001
 31
0.0
  0
LINE
  5
1DA
330
60
100
AcDbEntity
  8
1
  6
Continuous
 62
     7
100
AcDbLine
 10
200.0
 20
287.0000000000003
 30
0.0
 11
105.0
 21
287.0000000000003
 31
0.0
  0
LINE
  5
1DB
330
60
100
AcDbEntity
  8
1
  6
Continuous
 62
     7
100
AcDbLine
 10
200.0
 20
10.0
 30
0.0
 11
200.0
 21
148.5
 31
0.0
  0
LINE
  5
1DC
330
60
100
AcDbEntity
  8
1
  6
Continuous
 62
     7
100
AcDbLine
 10
25.0
 20
10.0
 30
0.0
 11
105.0
 21
10.0
 31
0.0
  0
LINE
  5
1DD
330
60
100
AcDbEntity
  8
1
  6
PHANTOM
 62
     4
100
AcDbLine
 10
0.0
 20
297.0
 30
0.0
 11
0.0
 21
0.0
 31
0.0
  0
LINE
  5
1DE
330
60
100
AcDbEntity
  8
1
  6
PHANTOM
 62
     4
100
AcDbLine
 10
210.0
 20
297.0
 30
0.0
 11
0.0
 21
297.0
 31
0.0
  0
LINE
  5
1DF
330
60
100
AcDbEntity
  8
1
  6
PHANTOM
 62
     4
100
AcDbLine
 10
210.0
 20
0.0
 30
0.0
 11
210.0
 21
297.0
 31
0.0
  0
LINE
  5
1E0
330
60
100
AcDbEntity
  8
1
  6
PHANTOM
 62
     4
100
AcDbLine
 10
0.0
 20
0.0
 30
0.0
 11
210.0
 21
0.0
 31
0.0
  0
LINE
  5
1E1
330
60
100
AcDbEntity
  8
1
  6
Continuous
 62
     7
100
AcDbLine
 10
25.0
 20
41.0
 30
0.0
 11
200.0
 21
41.0
 31
0.0
  0
LINE
  5
1E2
330
60
100
AcDbEntity
  8
1
  6
Continuous
 62
     7
100
AcDbLine
 10
200.0
 20
27.00000000000001
 30
0.0
 11
25.0
 21
27.00000000000001
 31
0.0
  0
LINE
  5
1E3
330
60
100
AcDbEntity
  8
1
  6
Continuous
 62
     2
100
AcDbLine
 10
33.0
 20
41.00000000000001
 30
0.0
 11
33.0
 21
27.0
 31
0.0
  0
LINE
  5
1E4
330
60
100
AcDbEntity
  8
1
  6
Continuous
 62
     2
100
AcDbLine
 10
55.0
 20
287.0000000000003
 30
0.0
 11
55.0
 21
277.0000000000003
 31
0.0
  0
LINE
  5
1E5
330
60
100
AcDbEntity
  8
1
  6
Continuous
 62
     2
100
AcDbLine
 10
40.0
 20
287.0000000000003
 30
0.0
 11
40.0
 21
277.0000000000003
 31
0.0
  0
LINE
  5
1E6
330
60
100
AcDbEntity
  8
1
  6
Continuous
 62
     7
100
AcDbLine
 10
25.0
 20
10.0
 30
0.0
 11
25.0
 21
148.5
 31
0.0
  0
LINE
  5
1E7
330
60
100
AcDbEntity
  8
1
  6
Continuous
 62
     2
100
AcDbLine
 10
55.0
 20
277.0000000000003
 30
0.0
 11
25.0
 21
277.0000000000003
 31
0.0
  0
LINE
  5
1E8
330
60
100
AcDbEntity
  8
1
  6
Continuous
 62
     2
100
AcDbLine
 10
166.0
 20
27.00000000000001
 30
0.0
 11
166.0
 21
10.0
 31
0.0
  0
LINE
  5
1E9
330
60
100
AcDbEntity
  8
1
  6
Continuous
 62
     2
100
AcDbLine
 10
132.0
 20
27.00000000000001
 30
0.0
 11
132.0
 21
9.99999999999999
 31
0.0
  0
LINE
  5
1EA
330
60
100
AcDbEntity
  8
1
  6
Continuous
 62
     2
100
AcDbLine
 10
149.0
 20
27.00000000000001
 30
0.0
 11
149.0
 21
10.0
 31
0.0
  0
LINE
  5
1EB
330
60
100
AcDbEntity
  8
1
  6
Continuous
 62
     2
100
AcDbLine
 10
115.0
 20
27.00000000000001
 30
0.0
 11
115.0
 21
9.99999999999999
 31
0.0
  0
LINE
  5
1EC
330
60
100
AcDbEntity
  8
1
  6
Continuous
 62
     2
100
AcDbLine
 10
98.0
 20
27.00000000000001
 30
0.0
 11
98.0
 21
9.99999999999999
 31
0.0
  0
LINE
  5
1ED
330
60
100
AcDbEntity
  8
1
  6
Continuous
 62
     2
100
AcDbLine
 10
166.0
 20
20.00000000000001
 30
0.0
 11
200.0
 21
20.00000000000001
 31
0.0
  0
LINE
  5
1EE
330
60
100
AcDbEntity
  8
1
  6
Continuous
 62
     2
100
AcDbLine
 10
105.0
 20
287.0000000000003
 30
0.0
 11
105.0
 21
292.0000000000003
 31
0.0
  0
LINE
  5
1EF
330
60
100
AcDbEntity
  8
1
  6
Continuous
 62
     7
100
AcDbLine
 10
105.0
 20
287.0000000000003
 30
0.0
 11
25.0
 21
287.0000000000003
 31
0.0
  0
LINE
  5
1F0
330
60
100
AcDbEntity
  8
1
  6
Continuous
 62
     2
100
AcDbLine
 10
25.0
 20
148.5
 30
0.0
 11
20.0
 21
148.5
 31
0.0
  0
LINE
  5
1F1
330
60
100
AcDbEntity
  8
1
  6
Continuous
 62
     7
100
AcDbLine
 10
25.0
 20
148.5
 30
0.0
 11
25.0
 21
287.0000000000003
 31
0.0
  0
LINE
  5
1F2
330
60
100
AcDbEntity
  8
1
  6
Continuous
 62
     2
100
AcDbLine
 10
200.0
 20
148.5
 30
0.0
 11
205.0
 21
148.5
 31
0.0
  0
LINE
  5
1F3
330
60
100
AcDbEntity
  8
1
  6
Continuous
 62
     7
100
AcDbLine
 10
200.0
 20
148.5
 30
0.0
 11
200.0
 21
287.0000000000003
 31
0.0
  0
LINE
  5
1F4
330
60
100
AcDbEntity
  8
1
  6
Continuous
 62
     2
100
AcDbLine
 10
105.0
 20
10.0
 30
0.0
 11
105.0
 21
5.0
 31
0.0
  0
LINE
  5
1F5
330
60
100
AcDbEntity
  8
1
  6
Continuous
 62
     7
100
AcDbLine
 10
105.0
 20
10.0
 30
0.0
 11
200.0
 21
10.0
 31
0.0
  0
CIRCLE
  5
1F6
330
60
100
AcDbEntity
  8
1
  6
DOT_CENTER
 62
     7
100
AcDbCircle
 10
89.5
 20
18.0
 30
0.0
 40
0.1000000000000227
  0
CIRCLE
  5
1F7
330
60
100
AcDbEntity
  8
1
  6
DOT_CENTER
 62
     7
100
AcDbCircle
 10
89.5
 20
16.0
 30
0.0
 40
0.1000000000000227
  0
CIRCLE
  5
1F8
330
60
100
AcDbEntity
  8
1
  6
Continuous
 62
     7
100
AcDbCircle
 10
187.0
 20
23.50000000000001
 30
0.0
 40
2.0
  0
CIRCLE
  5
1F9
330
60
100
AcDbEntity
  8
1
  6
Continuous
 62
     7
100
AcDbCircle
 10
187.0
 20
23.50000000000001
 30
0.0
 40
1.200000000000102
  0
CIRCLE
  5
1FA
330
60
100
AcDbEntity
  8
1
  6
Continuous
 62
     7
100
AcDbCircle
 10
154.5
 20
12.5
 30
0.0
 40
0.3000000000000114
  0
CIRCLE
  5
1FB
330
60
100
AcDbEntity
  8
1
  6
Continuous
 62
     7
100
AcDbCircle
 10
160.5
 20
12.5
 30
0.0
 40
0.3000000000000114
  0
CIRCLE
  5
1FC
330
60
100
AcDbEntity
  8
1
  6
Continuous
 62
     7
100
AcDbCircle
 10
143.5
 20
12.5
 30
0.0
 40
0.3000000000000114
  0
CIRCLE
  5
1FD
330
60
100
AcDbEntity
  8
1
  6
Continuous
 62
     7
100
AcDbCircle
 10
137.5
 20
12.5
 30
0.0
 40
0.3000000000000114
  0
CIRCLE
  5
1FE
330
60
100
AcDbEntity
  8
1
  6
Continuous
 62
     7
100
AcDbCircle
 10
126.5
 20
12.5
 30
0.0
 40
0.2999999999999972
  0
CIRCLE
  5
1FF
330
60
100
AcDbEntity
  8
1
  6
Continuous
 62
     7
100
AcDbCircle
 10
120.5
 20
12.5
 30
0.0
 40
0.2999999999999972
  0
CIRCLE
  5
200
330
60
100
AcDbEntity
  8
1
  6
Continuous
 62
     7
100
AcDbCircle
 10
109.5
 20
12.5
 30
0.0
 40
0.2999999999999972
  0
CIRCLE
  5
201
330
60
100
AcDbEntity
  8
1
  6
Continuous
 62
     7
100
AcDbCircle
 10
103.5
 20
12.5
 30
0.0
 40
0.2999999999999972
  0
MTEXT
  5
203
330
60
100
AcDbEntity
  8
1
 62
   250
100
AcDbMText
 10
25.0
 20
5.0
 30
0.0
 40
3.5
 41
0.0
 71
     4
 72
     1
  1
備考欄の文字列 原点位置=4
  7
CONVERTER_11
 73
     1
 44
0.54545454545455
  0
MTEXT
  5
204
330
60
100
AcDbEntity
  8
1
 62
     2
100
AcDbMText
 10
89.5
 20
24.00000000000001
 30
0.0
 40
3.5
 41
0.0
 71
     5
 72
     1
  1
尺度
  7
CONVERTER_11
 73
     1
 44
0.54545454545455
  0
MTEXT
  5
205
330
60
100
AcDbEntity
  8
1
 62
     2
100
AcDbMText
 10
135.5
 20
25.00000000000001
 30
0.0
 40
3.0
 41
0.0
 71
     5
 72
     1
  1
製図
  7
CONVERTER_11
 73
     1
 44
0.59090909090909
  0
MTEXT
  5
206
330
60
100
AcDbEntity
  8
1
 62
     2
100
AcDbMText
 10
152.5
 20
25.00000000000001
 30
0.0
 40
3.0
 41
0.0
 71
     5
 72
     1
  1
設計
  7
CONVERTER_11
 73
     1
 44
0.59090909090909
  0
MTEXT
  5
207
330
60
100
AcDbEntity
  8
1
 62
     2
100
AcDbMText
 10
118.5
 20
25.00000000000001
 30
0.0
 40
3.0
 41
0.0
 71
     5
 72
     1
  1
検図
  7
CONVERTER_11
 73
     1
 44
0.59090909090909
  0
MTEXT
  5
208
330
60
100
AcDbEntity
  8
1
 62
     2
100
AcDbMText
 10
175.0
 20
23.50000000000001
 30
0.0
 40
3.5
 41
0.0
 71
     5
 72
     1
  1
第三角法
  7
CONVERTER_11
 73
     1
 44
0.54545454545455
  0
MTEXT
  5
209
330
60
100
AcDbEntity
  8
1
 62
     2
100
AcDbMText
 10
101.5
 20
25.00000000000001
 30
0.0
 40
3.0
 41
0.0
 71
     5
 72
     1
  1
承認
  7
CONVERTER_11
 73
     1
 44
0.59090909090909
  0
MTEXT
  5
20A
330
60
100
AcDbEntity
  8
1
 62
     2
100
AcDbMText
 10
29.0
 20
14.25
 30
0.0
 40
3.5
 41
0.0
 71
     5
 72
     1
  1
品番
  7
CONVERTER_11
 73
     1
 44
0.72727272727273
  0
MTEXT
  5
20B
330
60
100
AcDbEntity
  8
1
 62
     2
100
AcDbMText
 10
29.0
 20
22.75
 30
0.0
 40
3.5
 41
0.0
 71
     5
 72
     1
  1
品名
  7
CONVERTER_11
 73
     1
 44
0.72727272727273
  0
MTEXT
  5
20C
330
60
100
AcDbEntity
  8
1
 62
     2
100
AcDbMText
 10
29.0
 20
34.00000000000001
 30
0.0
 40
3.5
 41
0.0
 71
     5
 72
     1
  1
備考
  7
CONVERTER_11
 73
     1
 44
0.45454545454545
  0
MTEXT
  5
20D
330
60
100
AcDbEntity
  8
1
 62
     2
100
AcDbMText
 10
32.5
 20
282.0000000000003
 30
0.0
 40
5.0
 41
0.0
 71
     5
 72
     1
  1
図番
  7
CONVERTER_11
 73
     1
 44
0.45454545454545
  0
MTEXT
  5
20E
330
60
100
AcDbEntity
  8
1
 62
     7
100
AcDbMText
 10
171.5
 20
15.0
 30
0.0
 40
2.5
 41
0.0
 71
     5
 72
     1
  1
株式会社
  7
CONVERTER_11
 73
     1
 44
1.0
  0
MTEXT
  5
20F
330
60
100
AcDbEntity
  8
1
 62
     7
100
AcDbMText
 10
188.5
 20
15.0
 30
0.0
 40
3.0
 41
0.0
 71
     5
 72
     1
  1
三栄水栓製作所
  7
CONVERTER_11
 73
     1
 44
1.0
  0
ENDBLK
  5
62
330
60
100
AcDbEntity
  8
0
100
AcDbBlockEnd
  0
BLOCK
  5
64
330
63
100
AcDbEntity
  8
0
100
AcDbBlockBegin
  2
32-1-16
 70
     0
 10
207.5838464598908
 20
-131.8890861160926
 30
0.0
  3
32-1-16
  1

  0
LINE
  5
210
330
63
100
AcDbEntity
  8
0
  6
Continuous
 62
     7
100
AcDbLine
 10
173.3545535280942
 20
131.3753419286554
 30
0.0
 11
180.4959819566372
 21
131.3753419286554
 31
0.0
  0
LINE
  5
211
330
63
100
AcDbEntity
  8
0
  6
Continuous
 62
     7
100
AcDbLine
 10
173.3545535280942
 20
159.3753419286554
 30
0.0
 11
180.4959819566371
 21
159.3753419286554
 31
0.0
  0
LINE
  5
212
330
63
100
AcDbEntity
  8
1
  6
Continuous
 62
     7
100
AcDbLine
 10
67.33750904215904
 20
158.136201239557
 30
0.0
 11
60.68544169433395
 21
146.6144826177541
 31
0.0
  0
LINE
  5
213
330
63
100
AcDbEntity
  8
1
  6
Continuous
 62
     7
100
AcDbLine
 10
60.68544169433395
 20
144.136201239557
 30
0.0
 11
67.33750904215904
 21
132.6144826177541
 31
0.0
  0
LINE
  5
214
330
63
100
AcDbEntity
  8
1
  6
Continuous
 62
     7
100
AcDbLine
 10
84.93415300029827
 20
132.6144826177541
 30
0.0
 11
91.58622034812325
 21
144.136201239557
 31
0.0
  0
LINE
  5
215
330
63
100
AcDbEntity
  8
1
  6
Continuous
 62
     7
100
AcDbLine
 10
84.93415300029827
 20
158.136201239557
 30
0.0
 11
91.58622034812325
 21
146.6144826177541
 31
0.0
  0
LINE
  5
216
330
63
100
AcDbEntity
  8
1
  6
Continuous
 62
     7
100
AcDbLine
 10
69.48376367340364
 20
159.3753419286554
 30
0.0
 11
82.78789836905366
 21
159.3753419286554
 31
0.0
  0
LINE
  5
217
330
63
100
AcDbEntity
  8
1
  6
Continuous
 62
     7
100
AcDbLine
 10
172.0677307778072
 20
156.8753419286554
 30
0.0
 11
172.0677307778072
 21
156.9333629903861
 31
0.0
  0
LINE
  5
218
330
63
100
AcDbEntity
  8
1
  6
Continuous
 62
     7
100
AcDbLine
 10
181.0677307778073
 20
158.6753419286555
 30
0.0
 11
181.0677307778073
 21
158.5623419286555
 31
0.0
  0
LINE
  5
219
330
63
100
AcDbEntity
  8
1
  6
Continuous
 62
     7
100
AcDbLine
 10
172.0677307778072
 20
133.8173208669248
 30
0.0
 11
172.0677307778072
 21
133.8753419286554
 31
0.0
  0
LINE
  5
21A
330
63
100
AcDbEntity
  8
1
  6
Continuous
 62
     7
100
AcDbLine
 10
181.0677307778073
 20
132.1883419286554
 30
0.0
 11
181.0677307778073
 21
132.0753419286554
 31
0.0
  0
LINE
  5
21B
330
63
100
AcDbEntity
  8
1
  6
Continuous
 62
     7
100
AcDbLine
 10
171.0677307778072
 20
135.6073927362243
 30
0.0
 11
171.0677307778072
 21
153.2753419286555
 31
0.0
  0
LINE
  5
21C
330
63
100
AcDbEntity
  8
1
  6
Continuous
 62
     7
100
AcDbLine
 10
171.0677307778072
 20
153.2753419286555
 30
0.0
 11
171.0677307778072
 21
155.1432911210866
 31
0.0
  0
LINE
  5
21D
330
63
100
AcDbEntity
  8
1
  6
Continuous
 62
     7
100
AcDbLine
 10
69.92417393876815
 20
306.2515055386111
 30
0.0
 11
62.83583102122864
 21
306.2515055386111
 31
0.0
  0
LINE
  5
21E
330
63
100
AcDbEntity
  8
1
  6
Continuous
 62
     7
100
AcDbLine
 10
76.13583102122877
 20
297.2515055386111
 30
0.0
 11
67.33750904215904
 21
297.2515055386111
 31
0.0
  0
LINE
  5
21F
330
63
100
AcDbEntity
  8
1
  6
Continuous
 62
     7
100
AcDbLine
 10
67.93583102122875
 20
296.2515055386111
 30
0.0
 11
76.13583102122877
 21
296.2515055386111
 31
0.0
  0
LINE
  5
220
330
63
100
AcDbEntity
  8
1
  6
Continuous
 62
     7
100
AcDbLine
 10
64.63583102122877
 20
297.2515055386111
 30
0.0
 11
64.57780995949815
 21
297.2515055386111
 31
0.0
  0
LINE
  5
221
330
63
100
AcDbEntity
  8
1
  6
Continuous
 62
     7
100
AcDbLine
 10
62.83583102122864
 20
306.2515055386111
 30
0.0
 11
62.94883102122864
 21
306.2515055386111
 31
0.0
  0
LINE
  5
222
330
63
100
AcDbEntity
  8
1
  6
Continuous
 62
     7
100
AcDbLine
 10
66.36788182879755
 20
296.2515055386111
 30
0.0
 11
67.93583102122875
 21
296.2515055386111
 31
0.0
  0
LINE
  5
223
330
63
100
AcDbEntity
  8
1
  6
Continuous
 62
     7
100
AcDbLine
 10
84.93415300029827
 20
297.2515055386111
 30
0.0
 11
76.13583102122877
 21
297.2515055386111
 31
0.0
  0
LINE
  5
224
330
63
100
AcDbEntity
  8
1
  6
Continuous
 62
     7
100
AcDbLine
 10
76.13583102122877
 20
296.2515055386111
 30
0.0
 11
84.33583102122864
 21
296.2515055386111
 31
0.0
  0
LINE
  5
225
330
63
100
AcDbEntity
  8
1
  6
Continuous
 62
     7
100
AcDbLine
 10
87.69385208295927
 20
297.2515055386111
 30
0.0
 11
87.63583102122877
 21
297.2515055386111
 31
0.0
  0
LINE
  5
226
330
63
100
AcDbEntity
  8
1
  6
Continuous
 62
     7
100
AcDbLine
 10
89.32283102122867
 20
306.2515055386111
 30
0.0
 11
89.43583102122867
 21
306.2515055386111
 31
0.0
  0
LINE
  5
227
330
63
100
AcDbEntity
  8
1
  6
Continuous
 62
     7
100
AcDbLine
 10
89.43583102122867
 20
306.2515055386111
 30
0.0
 11
82.34748810368916
 21
306.2515055386111
 31
0.0
  0
LINE
  5
228
330
63
100
AcDbEntity
  8
1
  6
Continuous
 62
     7
100
AcDbLine
 10
84.33583102122864
 20
296.2515055386111
 30
0.0
 11
85.90378021365984
 21
296.2515055386111
 31
0.0
  0
LINE
  5
229
330
63
100
AcDbEntity
  8
1
  6
Continuous
 62
     7
100
AcDbLine
 10
181.0677307778073
 20
158.5623419286555
 30
0.0
 11
181.0677307778073
 21
132.3753419286554
 31
0.0
  0
LINE
  5
22A
330
63
100
AcDbEntity
  8
1
  6
Continuous
 62
     7
100
AcDbLine
 10
181.0677307778073
 20
132.1883419286554
 30
0.0
 11
181.0677307778073
 21
132.3753419286554
 31
0.0
  0
LINE
  5
22B
330
63
100
AcDbEntity
  8
0
  6
Continuous
 62
     7
100
AcDbLine
 10
172.0677307778072
 20
145.3753419286554
 30
0.0
 11
172.0677307778072
 21
154.3753419286554
 31
0.0
  0
LINE
  5
22C
330
63
100
AcDbEntity
  8
0
  6
Continuous
 62
     7
100
AcDbLine
 10
172.0677307778072
 20
136.3753419286554
 30
0.0
 11
172.0677307778072
 21
145.3753419286554
 31
0.0
  0
ARC
  5
22D
330
63
100
AcDbEntity
  8
1
  6
Continuous
 62
     7
100
AcDbCircle
 10
76.13583102122865
 20
145.3753419286554
 30
0.0
 40
15.49999999999985
100
AcDbArc
 50
235.4146209151606
 51
238.9270490278465
  0
ARC
  5
22E
330
63
100
AcDbEntity
  8
1
  6
Continuous
 62
     7
100
AcDbCircle
 10
76.13583102122865
 20
145.3753419286554
 30
0.0
 40
10.5
100
AcDbArc
 50
0.0
 51
220.3675935441853
  0
ARC
  5
22F
330
63
100
AcDbEntity
  8
1
  6
Continuous
 62
     7
100
AcDbCircle
 10
76.13583102122865
 20
145.3753419286554
 30
0.0
 40
8.199999999999989
100
AcDbArc
 50
0.0
 51
192.6803834918177
  0
ARC
  5
230
330
63
100
AcDbEntity
  8
1
  6
Continuous
 62
     7
100
AcDbCircle
 10
176.9252677423657
 20
134.8753419286554
 30
0.0
 40
4.999999999999985
100
AcDbArc
 50
195.3375576695541
 51
224.4270040008051
  0
ARC
  5
231
330
63
100
AcDbEntity
  8
1
  6
Continuous
 62
     7
100
AcDbCircle
 10
176.9252677423657
 20
155.8753419286555
 30
0.0
 40
5.000000000000017
100
AcDbArc
 50
34.05579774256793
 51
44.42700400080482
  0
ARC
  5
232
330
63
100
AcDbEntity
  8
1
  6
Continuous
 62
     7
100
AcDbCircle
 10
76.13583102122865
 20
145.3753419286554
 30
0.0
 40
15.49999999999992
100
AcDbArc
 50
355.4146209151616
 51
0.0
  0
ARC
  5
233
330
63
100
AcDbEntity
  8
1
  6
Continuous
 62
     7
100
AcDbCircle
 10
76.13583102122865
 20
145.3753419286554
 30
0.0
 40
15.50000000000006
100
AcDbArc
 50
175.4146209151604
 51
180.0
  0
ARC
  5
234
330
63
100
AcDbEntity
  8
1
  6
Continuous
 62
     7
100
AcDbCircle
 10
76.13583102122865
 20
145.3753419286554
 30
0.0
 40
15.49999999999999
100
AcDbArc
 50
115.4146209151609
 51
124.5853790848386
  0
ARC
  5
235
330
63
100
AcDbEntity
  8
1
  6
Continuous
 62
     7
100
AcDbCircle
 10
76.13583102122865
 20
145.3753419286554
 30
0.0
 40
15.50000000000001
100
AcDbArc
 50
180.0
 51
184.5853790848384
  0
ARC
  5
236
330
63
100
AcDbEntity
  8
1
  6
Continuous
 62
     7
100
AcDbCircle
 10
76.13583102122865
 20
145.3753419286554
 30
0.0
 40
15.49999999999984
100
AcDbArc
 50
301.0729509721535
 51
304.5853790848394
  0
ARC
  5
237
330
63
100
AcDbEntity
  8
1
  6
Continuous
 62
     7
100
AcDbCircle
 10
76.13583102122865
 20
145.3753419286554
 30
0.0
 40
15.5
100
AcDbArc
 50
0.0
 51
4.58537908483969
  0
ARC
  5
238
330
63
100
AcDbEntity
  8
1
  6
Continuous
 62
     7
100
AcDbCircle
 10
76.13583102122865
 20
145.3753419286554
 30
0.0
 40
15.50000000000013
100
AcDbArc
 50
55.41462091516136
 51
64.5853790848391
  0
ARC
  5
239
330
63
100
AcDbEntity
  8
1
  6
Continuous
 62
     7
100
AcDbCircle
 10
76.13583102122865
 20
145.3753419286554
 30
0.0
 40
8.199999999999994
100
AcDbArc
 50
347.3196165081795
 51
0.0
  0
ARC
  5
23A
330
63
100
AcDbEntity
  8
1
  6
Continuous
 62
     7
100
AcDbCircle
 10
76.13583102122865
 20
145.3753419286554
 30
0.0
 40
10.50000000000002
100
AcDbArc
 50
319.6324064558141
 51
0.0
  0
ARC
  5
23B
330
63
100
AcDbEntity
  8
1
  6
Continuous
 62
     7
100
AcDbCircle
 10
176.9252677423657
 20
155.8753419286555
 30
0.0
 40
4.999999999999977
100
AcDbArc
 50
135.5729959991959
 51
164.6624423304459
  0
ARC
  5
23C
330
63
100
AcDbEntity
  8
1
  6
Continuous
 62
     7
100
AcDbCircle
 10
176.9252677423657
 20
134.8753419286554
 30
0.0
 40
5.000000000000057
100
AcDbArc
 50
315.572995999195
 51
325.9442022574323
  0
ARC
  5
23D
330
63
100
AcDbEntity
  8
1
  6
Continuous
 62
     7
100
AcDbCircle
 10
71.28377116263934
 20
302.1078586491298
 30
0.0
 40
1.800007878542475
100
AcDbArc
 50
179.9623169177553
 51
181.9693294790777
  0
ARC
  5
23E
330
63
100
AcDbEntity
  8
1
  6
Continuous
 62
     7
100
AcDbCircle
 10
71.43804802463595
 20
302.1131634320474
 30
0.0
 40
1.954375915614111
100
AcDbArc
 50
181.9693294790718
 51
185.6670781164214
  0
ARC
  5
23F
330
63
100
AcDbEntity
  8
1
  6
Continuous
 62
     7
100
AcDbCircle
 10
71.44304325411375
 20
302.1136591235688
 30
0.0
 40
1.959395679315609
100
AcDbArc
 50
185.6670781164229
 51
191.2023782474068
  0
ARC
  5
240
330
63
100
AcDbEntity
  8
1
  6
Continuous
 62
     7
100
AcDbCircle
 10
71.57046625641695
 20
302.1388950539613
 30
0.0
 40
2.089293615014119
100
AcDbArc
 50
191.2023782474058
 51
198.1232638699324
  0
ARC
  5
241
330
63
100
AcDbEntity
  8
1
  6
Continuous
 62
     7
100
AcDbCircle
 10
71.59232485745355
 20
302.1460493707847
 30
0.0
 40
2.11229323867388
100
AcDbArc
 50
198.123263869934
 51
201.7800318177271
  0
ARC
  5
242
330
63
100
AcDbEntity
  8
1
  6
Continuous
 62
     7
100
AcDbCircle
 10
71.79866115849265
 20
302.2284946004346
 30
0.0
 40
2.334491089740281
100
AcDbArc
 50
201.7800318177273
 51
205.0880404471919
  0
ARC
  5
243
330
63
100
AcDbEntity
  8
1
  6
Continuous
 62
     7
100
AcDbCircle
 10
71.83235044340304
 20
302.2442672403572
 30
0.0
 40
2.371689800576806
100
AcDbArc
 50
205.0880404471929
 51
208.3453131231116
  0
ARC
  5
244
330
63
100
AcDbEntity
  8
1
  6
Continuous
 62
     7
100
AcDbCircle
 10
72.06968670229764
 20
302.372301871494
 30
0.0
 40
2.641358795006076
100
AcDbArc
 50
208.3453131231097
 51
211.2708698046879
  0
ARC
  5
245
330
63
100
AcDbEntity
  8
1
  6
Continuous
 62
     7
100
AcDbCircle
 10
72.08991551459914
 20
302.3845870998229
 30
0.0
 40
2.665025896269657
100
AcDbArc
 50
211.2708698046897
 51
214.1696971019399
  0
ARC
  5
246
330
63
100
AcDbEntity
  8
1
  6
Continuous
 62
     7
100
AcDbCircle
 10
72.33968328224125
 20
302.5541360599005
 30
0.0
 40
2.966904659378789
100
AcDbArc
 50
214.1696971019359
 51
217.062496376787
  0
ARC
  5
247
330
63
100
AcDbEntity
  8
1
  6
Continuous
 62
     7
100
AcDbCircle
 10
72.38149508101864
 20
302.585715073636
 30
0.0
 40
3.019301802673949
100
AcDbArc
 50
217.0624963767897
 51
219.9039292768776
  0
ARC
  5
248
330
63
100
AcDbEntity
  8
1
  6
Continuous
 62
     7
100
AcDbCircle
 10
72.67775927527074
 20
302.8334649135749
 30
0.0
 40
3.405504412693198
100
AcDbArc
 50
219.9039292768786
 51
222.4233996524098
  0
ARC
  5
249
330
63
100
AcDbEntity
  8
1
  6
Continuous
 62
     7
100
AcDbCircle
 10
72.72352320876985
 20
302.8752874138712
 30
0.0
 40
3.46750005076838
100
AcDbArc
 50
222.4233996524084
 51
224.8983418682203
  0
ARC
  5
24A
330
63
100
AcDbEntity
  8
1
  6
Continuous
 62
     7
100
AcDbCircle
 10
73.07544002126156
 20
303.2259576465629
 30
0.0
 40
3.96430489676951
100
AcDbArc
 50
224.8983418682216
 51
227.0628329239733
  0
ARC
  5
24B
330
63
100
AcDbEntity
  8
1
  6
Continuous
 62
     7
100
AcDbCircle
 10
73.10035327381405
 20
303.252732647499
 30
0.0
 40
4.000877712191346
100
AcDbArc
 50
227.0628329239718
 51
229.4667248229732
  0
ARC
  5
24C
330
63
100
AcDbEntity
  8
1
  6
Continuous
 62
     7
100
AcDbCircle
 10
73.42590146432195
 20
303.6334526556291
 30
0.0
 40
4.50180619903703
100
AcDbArc
 50
229.466724822973
 51
231.6024949956652
  0
ARC
  5
24D
330
63
100
AcDbEntity
  8
1
  6
Continuous
 62
     7
100
AcDbCircle
 10
73.44214680098145
 20
303.6539510030543
 30
0.0
 40
4.527961374630956
100
AcDbArc
 50
231.6024949956658
 51
233.7260472034755
  0
ARC
  5
24E
330
63
100
AcDbEntity
  8
1
  6
Continuous
 62
     7
100
AcDbCircle
 10
73.82414570553016
 20
304.1744752958755
 30
0.0
 40
5.173615076311147
100
AcDbArc
 50
233.7260472034748
 51
235.5847901832742
  0
ARC
  5
24F
330
63
100
AcDbEntity
  8
1
  6
Continuous
 62
     7
100
AcDbCircle
 10
73.73728304025394
 20
304.0476877865413
 30
0.0
 40
5.01992644582063
100
AcDbArc
 50
235.5847901832749
 51
236.5426112949285
  0
ARC
  5
250
330
63
100
AcDbEntity
  8
1
  6
Continuous
 62
     7
100
AcDbCircle
 10
74.09639823743896
 20
304.5911293632473
 30
0.0
 40
5.671303811210175
100
AcDbArc
 50
236.5426112949281
 51
238.3314573295378
  0
ARC
  5
251
330
63
100
AcDbEntity
  8
1
  6
Continuous
 62
     7
100
AcDbCircle
 10
74.15320095018015
 20
304.6832138392124
 30
0.0
 40
5.779498537923284
100
AcDbArc
 50
238.3314573295382
 51
240.1781317899671
  0
ARC
  5
252
330
63
100
AcDbEntity
  8
1
  6
Continuous
 62
     7
100
AcDbCircle
 10
74.42262590179155
 20
305.153240249164
 30
0.0
 40
6.32126844351321
100
AcDbArc
 50
240.1781317899679
 51
241.8664410765376
  0
ARC
  5
253
330
63
100
AcDbEntity
  8
1
  6
Continuous
 62
     7
100
AcDbCircle
 10
74.48546691304165
 20
305.2707652797333
 30
0.0
 40
6.454539316194592
100
AcDbArc
 50
241.8664410765368
 51
243.5199978643752
  0
ARC
  5
254
330
63
100
AcDbEntity
  8
1
  6
Continuous
 62
     7
100
AcDbCircle
 10
74.78517638884594
 20
305.8724152788998
 30
0.0
 40
7.126706327720718
100
AcDbArc
 50
243.5199978643753
 51
245.0176393976297
  0
ARC
  5
255
330
63
100
AcDbEntity
  8
1
  6
Continuous
 62
     7
100
AcDbCircle
 10
74.84969385388285
 20
306.0108847121413
 30
0.0
 40
7.279468519499305
100
AcDbArc
 50
245.0176393976292
 51
246.5499418885873
  0
ARC
  5
256
330
63
100
AcDbEntity
  8
1
  6
Continuous
 62
     7
100
AcDbCircle
 10
75.10183565822484
 20
306.5921561924606
 30
0.0
 40
7.913070936894874
100
AcDbArc
 50
246.5499418885875
 51
248.0202792433311
  0
ARC
  5
257
330
63
100
AcDbEntity
  8
1
  6
Continuous
 62
     7
100
AcDbCircle
 10
75.10786811884816
 20
306.6071022848132
 30
0.0
 40
7.929188512946581
100
AcDbArc
 50
248.0202792433318
 51
249.4875880299734
  0
ARC
  5
258
330
63
100
AcDbEntity
  8
1
  6
Continuous
 62
     7
100
AcDbCircle
 10
75.36631787366025
 20
307.2979013154895
 30
0.0
 40
8.666751782467049
100
AcDbArc
 50
249.4875880299728
 51
250.8300687939464
  0
ARC
  5
259
330
63
100
AcDbEntity
  8
1
  6
Continuous
 62
     7
100
AcDbCircle
 10
75.36961207047327
 20
307.307376968963
 30
0.0
 40
8.676783718541069
100
AcDbArc
 50
250.8300687939464
 51
252.1710236241585
  0
ARC
  5
25A
330
63
100
AcDbEntity
  8
1
  6
Continuous
 62
     7
100
AcDbCircle
 10
75.61970280193074
 20
308.0849670740421
 30
0.0
 40
9.493601779970648
100
AcDbArc
 50
252.1710236241596
 51
254.0920608747225
  0
ARC
  5
25B
330
63
100
AcDbEntity
  8
1
  6
Continuous
 62
     7
100
AcDbCircle
 10
75.66524633496715
 20
308.2447648474995
 30
0.0
 40
9.659762972201095
100
AcDbArc
 50
254.0920608747224
 51
255.3777643555222
  0
ARC
  5
25C
330
63
100
AcDbEntity
  8
1
  6
Continuous
 62
     7
100
AcDbCircle
 10
75.79937047110124
 20
308.7588573476932
 30
0.0
 40
10.19106362404447
100
AcDbArc
 50
255.3777643555223
 51
256.5964465702917
  0
ARC
  5
25D
330
63
100
AcDbEntity
  8
1
  6
Continuous
 62
     7
100
AcDbCircle
 10
75.82433202699855
 20
308.8636061750315
 30
0.0
 40
10.29874554500395
100
AcDbArc
 50
256.5964465702912
 51
257.8024121134268
  0
ARC
  5
25E
330
63
100
AcDbEntity
  8
1
  6
Continuous
 62
     7
100
AcDbCircle
 10
75.95002354811254
 20
309.4450709971334
 30
0.0
 40
10.89364023973751
100
AcDbArc
 50
257.8024121134268
 51
258.9425083356329
  0
ARC
  5
25F
330
63
100
AcDbEntity
  8
1
  6
Continuous
 62
     7
100
AcDbCircle
 10
75.98106171979936
 20
309.6038975182426
 30
0.0
 40
11.05547111413819
100
AcDbArc
 50
258.942508335633
 51
261.2891985690297
  0
ARC
  5
260
330
63
100
AcDbEntity
  8
1
  6
Continuous
 62
     7
100
AcDbCircle
 10
76.08136956420364
 20
310.2585867379889
 30
0.0
 40
11.71780006420825
100
AcDbArc
 50
261.2891985690302
 51
263.5032268173087
  0
ARC
  5
261
330
63
100
AcDbEntity
  8
1
  6
Continuous
 62
     7
100
AcDbCircle
 10
76.12655867773407
 20
310.6554051902998
 30
0.0
 40
12.11718326374983
100
AcDbArc
 50
263.5032268173086
 51
270.0438440344366
  0
ARC
  5
262
330
63
100
AcDbEntity
  8
1
  6
Continuous
 62
     7
100
AcDbCircle
 10
73.28360025687175
 20
300.7567243496033
 30
0.0
 40
4.278524693823244
100
AcDbArc
 50
129.4590238339885
 51
131.7064476568604
  0
ARC
  5
263
330
63
100
AcDbEntity
  8
1
  6
Continuous
 62
     7
100
AcDbCircle
 10
73.06559333842006
 20
301.0013545201537
 30
0.0
 40
3.950849646197751
100
AcDbArc
 50
131.7064476568609
 51
134.0096025338461
  0
ARC
  5
264
330
63
100
AcDbEntity
  8
1
  6
Continuous
 62
     7
100
AcDbCircle
 10
72.91772420941595
 20
301.1544261377953
 30
0.0
 40
3.738020608141824
100
AcDbArc
 50
134.0096025338454
 51
136.3054237398484
  0
ARC
  5
265
330
63
100
AcDbEntity
  8
1
  6
Continuous
 62
     7
100
AcDbCircle
 10
72.67763940800376
 20
301.3838126799128
 30
0.0
 40
3.405968055714006
100
AcDbArc
 50
136.3054237398495
 51
138.824859465383
  0
ARC
  5
266
330
63
100
AcDbEntity
  8
1
  6
Continuous
 62
     7
100
AcDbCircle
 10
72.54435022015434
 20
301.5003964293977
 30
0.0
 40
3.228886779906845
100
AcDbArc
 50
138.8248594653824
 51
141.4818947159502
  0
ARC
  5
267
330
63
100
AcDbEntity
  8
1
  6
Continuous
 62
     7
100
AcDbCircle
 10
72.34089293007494
 20
301.6623386623201
 30
0.0
 40
2.968848021852658
100
AcDbArc
 50
141.4818947159502
 51
144.3719329968318
  0
ARC
  5
268
330
63
100
AcDbEntity
  8
1
  6
Continuous
 62
     7
100
AcDbCircle
 10
72.23198598957495
 20
301.7403890958444
 30
0.0
 40
2.834860739387379
100
AcDbArc
 50
144.3719329968303
 51
147.2483586702343
  0
ARC
  5
269
330
63
100
AcDbEntity
  8
1
  6
Continuous
 62
     7
100
AcDbCircle
 10
72.06444950430415
 20
301.8481589694392
 30
0.0
 40
2.635655268700652
100
AcDbArc
 50
147.2483586702368
 51
150.1801685742361
  0
ARC
  5
26A
330
63
100
AcDbEntity
  8
1
  6
Continuous
 62
     7
100
AcDbCircle
 10
71.96244785364576
 20
301.906622759858
 30
0.0
 40
2.518086771529219
100
AcDbArc
 50
150.1801685742335
 51
153.2486225522281
  0
ARC
  5
26B
330
63
100
AcDbEntity
  8
1
  6
Continuous
 62
     7
100
AcDbCircle
 10
71.80198838042554
 20
301.9875058302382
 30
0.0
 40
2.338394496736365
100
AcDbArc
 50
153.2486225522298
 51
156.5516000346969
  0
ARC
  5
26C
330
63
100
AcDbEntity
  8
1
  6
Continuous
 62
     7
100
AcDbCircle
 10
71.70405174269456
 20
302.0299850571008
 30
0.0
 40
2.231642121002147
100
AcDbArc
 50
156.5516000346956
 51
160.0120569265367
  0
ARC
  5
26D
330
63
100
AcDbEntity
  8
1
  6
Continuous
 62
     7
100
AcDbCircle
 10
71.56975896678185
 20
302.078831629343
 30
0.0
 40
2.088741675648935
100
AcDbArc
 50
160.0120569265356
 51
165.3219284287098
  0
ARC
  5
26E
330
63
100
AcDbEntity
  8
1
  6
Continuous
 62
     7
100
AcDbCircle
 10
71.52705285897585
 20
302.0900178992052
 30
0.0
 40
2.044594826640568
100
AcDbArc
 50
165.321928428709
 51
170.6273989135969
  0
ARC
  5
26F
330
63
100
AcDbEntity
  8
1
  6
Continuous
 62
     7
100
AcDbCircle
 10
71.44281942156235
 20
302.1039212731332
 30
0.0
 40
1.959221670525329
100
AcDbArc
 50
170.6273989135987
 51
176.1620820103294
  0
ARC
  5
270
330
63
100
AcDbEntity
  8
1
  6
Continuous
 62
     7
100
AcDbCircle
 10
71.36900244138246
 20
302.1088732608425
 30
0.0
 40
1.885238775575521
100
AcDbArc
 50
176.1620820103275
 51
179.9948564228592
  0
ARC
  5
271
330
63
100
AcDbEntity
  8
1
  6
Continuous
 62
     7
100
AcDbCircle
 10
65.63583102122877
 20
302.1090425031696
 30
0.0
 40
5.000000000000033
100
AcDbArc
 50
124.0557977425694
 51
254.6624423304434
  0
ARC
  5
272
330
63
100
AcDbEntity
  8
1
  6
Continuous
 62
     7
100
AcDbCircle
 10
80.98789087981797
 20
302.1078586491298
 30
0.0
 40
1.80000787854245
100
AcDbArc
 50
358.0306705209222
 51
0.03768308224469
  0
ARC
  5
273
330
63
100
AcDbEntity
  8
1
  6
Continuous
 62
     7
100
AcDbCircle
 10
80.83361401782125
 20
302.1131634320474
 30
0.0
 40
1.954375915614166
100
AcDbArc
 50
354.3329218835791
 51
358.0306705209282
  0
ARC
  5
274
330
63
100
AcDbEntity
  8
1
  6
Continuous
 62
     7
100
AcDbCircle
 10
80.82861878834345
 20
302.1136591235688
 30
0.0
 40
1.959395679315718
100
AcDbArc
 50
348.7976217525938
 51
354.3329218835777
  0
ARC
  5
275
330
63
100
AcDbEntity
  8
1
  6
Continuous
 62
     7
100
AcDbCircle
 10
80.70119578604044
 20
302.1388950539613
 30
0.0
 40
2.089293615014041
100
AcDbArc
 50
341.8767361300661
 51
348.7976217525938
  0
ARC
  5
276
330
63
100
AcDbEntity
  8
1
  6
Continuous
 62
     7
100
AcDbCircle
 10
80.67933718500365
 20
302.1460493707847
 30
0.0
 40
2.112293238673985
100
AcDbArc
 50
338.219968182274
 51
341.8767361300662
  0
ARC
  5
277
330
63
100
AcDbEntity
  8
1
  6
Continuous
 62
     7
100
AcDbCircle
 10
80.47300088396454
 20
302.2284946004346
 30
0.0
 40
2.334491089740249
100
AcDbArc
 50
334.9119595528081
 51
338.2199681822736
  0
ARC
  5
278
330
63
100
AcDbEntity
  8
1
  6
Continuous
 62
     7
100
AcDbCircle
 10
80.43931159905415
 20
302.2442672403572
 30
0.0
 40
2.371689800576933
100
AcDbArc
 50
331.6546868768884
 51
334.9119595528072
  0
ARC
  5
279
330
63
100
AcDbEntity
  8
1
  6
Continuous
 62
     7
100
AcDbCircle
 10
80.20197534015966
 20
302.372301871494
 30
0.0
 40
2.641358795006042
100
AcDbArc
 50
328.7291301953121
 51
331.6546868768891
  0
ARC
  5
27A
330
63
100
AcDbEntity
  8
1
  6
Continuous
 62
     7
100
AcDbCircle
 10
80.18174652785817
 20
302.3845870998229
 30
0.0
 40
2.665025896269637
100
AcDbArc
 50
325.8303028980602
 51
328.7291301953103
  0
ARC
  5
27B
330
63
100
AcDbEntity
  8
1
  6
Continuous
 62
     7
100
AcDbCircle
 10
79.93197876021614
 20
302.5541360599005
 30
0.0
 40
2.966904659378588
100
AcDbArc
 50
322.937503623212
 51
325.8303028980631
  0
ARC
  5
27C
330
63
100
AcDbEntity
  8
1
  6
Continuous
 62
     7
100
AcDbCircle
 10
79.89016696143867
 20
302.585715073636
 30
0.0
 40
3.019301802673946
100
AcDbArc
 50
320.096070723121
 51
322.9375036232103
  0
ARC
  5
27D
330
63
100
AcDbEntity
  8
1
  6
Continuous
 62
     7
100
AcDbCircle
 10
79.59390276718645
 20
302.8334649135749
 30
0.0
 40
3.405504412693325
100
AcDbArc
 50
317.5766003475915
 51
320.0960707231214
  0
ARC
  5
27E
330
63
100
AcDbEntity
  8
1
  6
Continuous
 62
     7
100
AcDbCircle
 10
79.54813883368746
 20
302.8752874138712
 30
0.0
 40
3.467500050768211
100
AcDbArc
 50
315.1016581317796
 51
317.5766003475916
  0
ARC
  5
27F
330
63
100
AcDbEntity
  8
1
  6
Continuous
 62
     7
100
AcDbCircle
 10
79.19622202119567
 20
303.2259576465629
 30
0.0
 40
3.964304896769601
100
AcDbArc
 50
312.9371670760265
 51
315.1016581317792
  0
ARC
  5
280
330
63
100
AcDbEntity
  8
1
  6
Continuous
 62
     7
100
AcDbCircle
 10
79.17130876864326
 20
303.252732647499
 30
0.0
 40
4.000877712191325
100
AcDbArc
 50
310.5332751770277
 51
312.937167076027
  0
ARC
  5
281
330
63
100
AcDbEntity
  8
1
  6
Continuous
 62
     7
100
AcDbCircle
 10
78.84576057813535
 20
303.6334526556291
 30
0.0
 40
4.501806199037073
100
AcDbArc
 50
308.397505004334
 51
310.5332751770279
  0
ARC
  5
282
330
63
100
AcDbEntity
  8
1
  6
Continuous
 62
     7
100
AcDbCircle
 10
78.82951524147586
 20
303.6539510030543
 30
0.0
 40
4.527961374630847
100
AcDbArc
 50
306.2739527965233
 51
308.3975050043334
  0
ARC
  5
283
330
63
100
AcDbEntity
  8
1
  6
Continuous
 62
     7
100
AcDbCircle
 10
78.44751633692727
 20
304.1744752958755
 30
0.0
 40
5.173615076311088
100
AcDbArc
 50
304.4152098167247
 51
306.2739527965231
  0
ARC
  5
284
330
63
100
AcDbEntity
  8
1
  6
Continuous
 62
     7
100
AcDbCircle
 10
78.53437900220337
 20
304.0476877865413
 30
0.0
 40
5.019926445820529
100
AcDbArc
 50
303.4573887050715
 51
304.4152098167251
  0
ARC
  5
285
330
63
100
AcDbEntity
  8
1
  6
Continuous
 62
     7
100
AcDbCircle
 10
78.17526380501835
 20
304.5911293632473
 30
0.0
 40
5.671303811210201
100
AcDbArc
 50
301.6685426704622
 51
303.4573887050719
  0
ARC
  5
286
330
63
100
AcDbEntity
  8
1
  6
Continuous
 62
     7
100
AcDbCircle
 10
78.11846109227724
 20
304.6832138392124
 30
0.0
 40
5.779498537923274
100
AcDbArc
 50
299.8218682100311
 51
301.668542670461
  0
ARC
  5
287
330
63
100
AcDbEntity
  8
1
  6
Continuous
 62
     7
100
AcDbCircle
 10
77.84903614066565
 20
305.153240249164
 30
0.0
 40
6.321268443513226
100
AcDbArc
 50
298.1335589234624
 51
299.8218682100322
  0
ARC
  5
288
330
63
100
AcDbEntity
  8
1
  6
Continuous
 62
     7
100
AcDbCircle
 10
77.78619512941574
 20
305.2707652797333
 30
0.0
 40
6.454539316194566
100
AcDbArc
 50
296.4800021356232
 51
298.1335589234616
  0
ARC
  5
289
330
63
100
AcDbEntity
  8
1
  6
Continuous
 62
     7
100
AcDbCircle
 10
77.48648565361145
 20
305.8724152788998
 30
0.0
 40
7.126706327720552
100
AcDbArc
 50
294.9823606023688
 51
296.4800021356232
  0
ARC
  5
28A
330
63
100
AcDbEntity
  8
1
  6
Continuous
 62
     7
100
AcDbCircle
 10
77.42196818857457
 20
306.0108847121413
 30
0.0
 40
7.279468519499338
100
AcDbArc
 50
293.4500581114119
 51
294.9823606023692
  0
ARC
  5
28B
330
63
100
AcDbEntity
  8
1
  6
Continuous
 62
     7
100
AcDbCircle
 10
77.16982638423246
 20
306.5921561924606
 30
0.0
 40
7.913070936894786
100
AcDbArc
 50
291.9797207566683
 51
293.4500581114125
  0
ARC
  5
28C
330
63
100
AcDbEntity
  8
1
  6
Continuous
 62
     7
100
AcDbCircle
 10
77.16379392360915
 20
306.6071022848132
 30
0.0
 40
7.929188512946511
100
AcDbArc
 50
290.5124119700259
 51
291.9797207566676
  0
ARC
  5
28D
330
63
100
AcDbEntity
  8
1
  6
Continuous
 62
     7
100
AcDbCircle
 10
76.90534416879714
 20
307.2979013154895
 30
0.0
 40
8.666751782467058
100
AcDbArc
 50
289.1699312060531
 51
290.512411970026
  0
ARC
  5
28E
330
63
100
AcDbEntity
  8
1
  6
Continuous
 62
     7
100
AcDbCircle
 10
76.90204997198404
 20
307.307376968963
 30
0.0
 40
8.67678371854095
100
AcDbArc
 50
287.828976375842
 51
289.1699312060536
  0
ARC
  5
28F
330
63
100
AcDbEntity
  8
1
  6
Continuous
 62
     7
100
AcDbCircle
 10
76.65195924052645
 20
308.0849670740421
 30
0.0
 40
9.493601779970868
100
AcDbArc
 50
285.9079391252782
 51
287.8289763758415
  0
ARC
  5
290
330
63
100
AcDbEntity
  8
1
  6
Continuous
 62
     7
100
AcDbCircle
 10
76.60641570749016
 20
308.2447648474995
 30
0.0
 40
9.65976297220111
100
AcDbArc
 50
284.6222356444771
 51
285.9079391252777
  0
ARC
  5
291
330
63
100
AcDbEntity
  8
1
  6
Continuous
 62
     7
100
AcDbCircle
 10
76.47229157135607
 20
308.7588573476932
 30
0.0
 40
10.19106362404428
100
AcDbArc
 50
283.4035534297083
 51
284.6222356444771
  0
ARC
  5
292
330
63
100
AcDbEntity
  8
1
  6
Continuous
 62
     7
100
AcDbCircle
 10
76.44733001545876
 20
308.8636061750315
 30
0.0
 40
10.29874554500408
100
AcDbArc
 50
282.1975878865725
 51
283.4035534297088
  0
ARC
  5
293
330
63
100
AcDbEntity
  8
1
  6
Continuous
 62
     7
100
AcDbCircle
 10
76.32163849434477
 20
309.4450709971334
 30
0.0
 40
10.89364023973748
100
AcDbArc
 50
281.0574916643675
 51
282.1975878865726
  0
ARC
  5
294
330
63
100
AcDbEntity
  8
1
  6
Continuous
 62
     7
100
AcDbCircle
 10
76.29060032265795
 20
309.6038975182426
 30
0.0
 40
11.05547111413808
100
AcDbArc
 50
278.7108014309696
 51
281.0574916643675
  0
ARC
  5
295
330
63
100
AcDbEntity
  8
1
  6
Continuous
 62
     7
100
AcDbCircle
 10
76.19029247825367
 20
310.2585867379889
 30
0.0
 40
11.71780006420821
100
AcDbArc
 50
276.4967731826917
 51
278.7108014309692
  0
ARC
  5
296
330
63
100
AcDbEntity
  8
1
  6
Continuous
 62
     7
100
AcDbCircle
 10
76.14510336472324
 20
310.6554051902998
 30
0.0
 40
12.1171832637499
100
AcDbArc
 50
269.9561559655645
 51
276.4967731826918
  0
ARC
  5
297
330
63
100
AcDbEntity
  8
1
  6
Continuous
 62
     7
100
AcDbCircle
 10
78.98806178558556
 20
300.7567243496033
 30
0.0
 40
4.2785246938231
100
AcDbArc
 50
48.2935523431407
 51
50.54097616601267
  0
ARC
  5
298
330
63
100
AcDbEntity
  8
1
  6
Continuous
 62
     7
100
AcDbCircle
 10
79.20606870403725
 20
301.0013545201537
 30
0.0
 40
3.950849646197772
100
AcDbArc
 50
45.99039746615508
 51
48.29355234314033
  0
ARC
  5
299
330
63
100
AcDbEntity
  8
1
  6
Continuous
 62
     7
100
AcDbCircle
 10
79.35393783304136
 20
301.1544261377953
 30
0.0
 40
3.738020608141702
100
AcDbArc
 50
43.69457626015163
 51
45.99039746615586
  0
ARC
  5
29A
330
63
100
AcDbEntity
  8
1
  6
Continuous
 62
     7
100
AcDbCircle
 10
79.59402263445367
 20
301.3838126799128
 30
0.0
 40
3.4059680557139
100
AcDbArc
 50
41.17514053461956
 51
43.69457626015178
  0
ARC
  5
29B
330
63
100
AcDbEntity
  8
1
  6
Continuous
 62
     7
100
AcDbCircle
 10
79.72731182230305
 20
301.5003964293977
 30
0.0
 40
3.228886779906743
100
AcDbArc
 50
38.51810528405071
 51
41.17514053461989
  0
ARC
  5
29C
330
63
100
AcDbEntity
  8
1
  6
Continuous
 62
     7
100
AcDbCircle
 10
79.93076911238225
 20
301.6623386623201
 30
0.0
 40
2.968848021852643
100
AcDbArc
 50
35.62806700316688
 51
38.51810528404838
  0
ARC
  5
29D
330
63
100
AcDbEntity
  8
1
  6
Continuous
 62
     7
100
AcDbCircle
 10
80.03967605288244
 20
301.7403890958444
 30
0.0
 40
2.83486073938734
100
AcDbArc
 50
32.75164132976659
 51
35.62806700317074
  0
ARC
  5
29E
330
63
100
AcDbEntity
  8
1
  6
Continuous
 62
     7
100
AcDbCircle
 10
80.20721253815304
 20
301.8481589694392
 30
0.0
 40
2.635655268700735
100
AcDbArc
 50
29.81983142576385
 51
32.75164132976182
  0
ARC
  5
29F
330
63
100
AcDbEntity
  8
1
  6
Continuous
 62
     7
100
AcDbCircle
 10
80.30921418881155
 20
301.906622759858
 30
0.0
 40
2.518086771529235
100
AcDbArc
 50
26.75137744777192
 51
29.81983142576776
  0
ARC
  5
2A0
330
63
100
AcDbEntity
  8
1
  6
Continuous
 62
     7
100
AcDbCircle
 10
80.46967366203185
 20
301.9875058302382
 30
0.0
 40
2.338394496736264
100
AcDbArc
 50
23.44839996530393
 51
26.75137744777113
  0
ARC
  5
2A1
330
63
100
AcDbEntity
  8
1
  6
Continuous
 62
     7
100
AcDbCircle
 10
80.56761029976275
 20
302.0299850571008
 30
0.0
 40
2.23164212100216
100
AcDbArc
 50
19.98794307346333
 51
23.44839996530436
  0
ARC
  5
2A2
330
63
100
AcDbEntity
  8
1
  6
Continuous
 62
     7
100
AcDbCircle
 10
80.70190307567555
 20
302.078831629343
 30
0.0
 40
2.088741675648854
100
AcDbArc
 50
14.67807157129077
 51
19.98794307346523
  0
ARC
  5
2A3
330
63
100
AcDbEntity
  8
1
  6
Continuous
 62
     7
100
AcDbCircle
 10
80.74460918348134
 20
302.0900178992052
 30
0.0
 40
2.044594826640681
100
AcDbArc
 50
9.37260108640259
 51
14.67807157129019
  0
ARC
  5
2A4
330
63
100
AcDbEntity
  8
1
  6
Continuous
 62
     7
100
AcDbCircle
 10
80.82884262089485
 20
302.1039212731332
 30
0.0
 40
1.959221670525301
100
AcDbArc
 50
3.83791798967063
 51
9.37260108640078
  0
ARC
  5
2A5
330
63
100
AcDbEntity
  8
1
  6
Continuous
 62
     7
100
AcDbCircle
 10
80.90265960107484
 20
302.1088732608425
 30
0.0
 40
1.885238775575461
100
AcDbArc
 50
0.00514357714082
 51
3.83791798967272
  0
ARC
  5
2A6
330
63
100
AcDbEntity
  8
1
  6
Continuous
 62
     7
100
AcDbCircle
 10
86.63583102122877
 20
302.1090425031696
 30
0.0
 40
4.999999999999955
100
AcDbArc
 50
285.3375576695528
 51
55.94420225743278
  0
SPLINE
  5
2A7
330
63
100
AcDbEntity
  8
1
  6
Continuous
 62
     7
100
AcDbSpline
210
0.0
220
0.0
230
1.0
 70
    11
 71
     3
 72
    79
 73
    75
 74
    73
 42
0.000000001
 43
0.0000000001
 44
0.00000001
 40
0.0
 40
0.0
 40
0.0
 40
0.0
 40
0.2903672471831696
 40
0.5807357518971628
 40
0.8724070977358384
 40
1.164081911023935
 40
1.458189924522202
 40
1.752302920472692
 40
2.04966320104635
 40
2.347029106415384
 40
2.64804578611587
 40
2.9490679363252
 40
3.25369774655229
 40
3.558332275329946
 40
3.86610485778007
 40
4.17388101953997
 40
4.483966061108318
 40
4.794053321447633
 40
5.105362217358594
 40
5.416671863434742
 40
5.727981509499976
 40
6.039290405378441
 40
6.349377665663435
 40
6.65946270715524
 40
6.967238868816571
 40
7.275011451144521
 40
7.579645979777244
 40
7.884275789834202
 40
8.18529793984954
 40
8.48631461932834
 40
8.783680524448782
 40
9.081040804740919
 40
9.375153800374175
 40
9.669261813502233
 40
9.960936626337231
 40
10.25260797152396
 40
10.54297647485862
 40
10.83334373090412
 40
11.1237109869496
 40
11.41407949028428
 40
11.70575083547104
 40
11.997425648306
 40
12.29153366143411
 40
12.58564665706738
 40
12.88300693735952
 40
13.18037284248003
 40
13.48138952195883
 40
13.78241167197409
 40
14.08704148203109
 40
14.39167601066385
 40
14.69944859299179
 40
15.00722475465309
 40
15.31730979614483
 40
15.62739705642989
 40
15.93870595230841
 40
16.25001559837359
 40
16.56132524444974
 40
16.87263414036071
 40
17.18272140070003
 40
17.49280644226837
 40
17.8005826040283
 40
18.10835518647835
 40
18.41298971525601
 40
18.71761952548311
 40
19.01864167569249
 40
19.31965835539293
 40
19.61702426076194
 40
19.9143845413356
 40
20.20849753728619
 40
20.50260555078454
 40
20.79428036407263
 40
21.08595170991131
 40
21.37632021462528
 40
21.66668746180847
 40
21.66668746180847
 40
21.66668746180847
 40
21.66668746180847
 10
88.26018667421084
 20
298.5383282888981
 30
0.0
 10
88.35701048092052
 20
298.5409598862186
 30
0.0
 10
88.5506585138362
 20
298.5462230870372
 30
0.0
 10
88.839019390143
 20
298.588518159219
 30
0.0
 10
89.12273153412221
 20
298.6557290517126
 30
0.0
 10
89.40015659690789
 20
298.7497842169819
 30
0.0
 10
89.66847750828893
 20
298.8692156746654
 30
0.0
 10
89.92647727165983
 20
299.0134911701517
 30
0.0
 10
90.17127927491617
 20
299.1810952453546
 30
0.0
 10
90.40197549997846
 20
299.3712577995145
 30
0.0
 10
90.61587120725514
 20
299.5818805198262
 30
0.0
 10
90.81224474983466
 20
299.8121021356578
 30
0.0
 10
90.98879409499797
 20
300.0593385590558
 30
0.0
 10
91.14489689166828
 20
300.3225727333028
 30
0.0
 10
91.2787859062777
 20
300.5989362878845
 30
0.0
 10
91.38991392328097
 20
300.8871497317458
 30
0.0
 10
91.47710468326305
 20
301.1842881748988
 30
0.0
 10
91.53993028990325
 20
301.4887113289304
 30
0.0
 10
91.57777883985828
 20
301.7976479412228
 30
0.0
 10
91.59044110199657
 20
302.1090424937973
 30
0.0
 10
91.57777884021988
 20
302.4204370463741
 30
0.0
 10
91.53993029062717
 20
302.7293736586826
 30
0.0
 10
91.47710468435122
 20
303.033796812717
 30
0.0
 10
91.38991392473575
 20
303.3309352559602
 30
0.0
 10
91.27878590810302
 20
303.6191486996264
 30
0.0
 10
91.14489689386801
 20
303.8955122551147
 30
0.0
 10
90.98879409757802
 20
304.1587464262364
 30
0.0
 10
90.81224475280081
 20
304.4059828615005
 30
0.0
 10
90.61587121061604
 20
304.6362044338771
 30
0.0
 10
90.40197550374309
 20
304.8468273156938
 30
0.0
 10
90.17127927909787
 20
305.0369892745709
 30
0.0
 10
89.9264772762756
 20
305.2045955581642
 30
0.0
 10
89.66847751336756
 20
305.348862898626
 30
0.0
 10
89.40015660249497
 20
305.4683246379641
 30
0.0
 10
89.12273154033987
 20
305.5622676850184
 30
0.0
 10
88.83901939729938
 20
305.6298956574555
 30
0.0
 10
88.55065851911769
 20
305.6706407822979
 30
0.0
 10
88.26018667421084
 20
305.6843146602229
 30
0.0
 10
87.969714829304
 20
305.6706407822979
 30
0.0
 10
87.68135395112232
 20
305.6298956574556
 30
0.0
 10
87.39764180808186
 20
305.5622676850182
 30
0.0
 10
87.12021674592668
 20
305.4683246379642
 30
0.0
 10
86.85189583505414
 20
305.3488628986257
 30
0.0
 10
86.59389607214598
 20
305.2045955581643
 30
0.0
 10
86.34909406932367
 20
305.0369892745709
 30
0.0
 10
86.11839784467841
 20
304.8468273156939
 30
0.0
 10
85.90450213780557
 20
304.636204433877
 30
0.0
 10
85.7081285956208
 20
304.4059828615006
 30
0.0
 10
85.53157925084352
 20
304.1587464262363
 30
0.0
 10
85.3754764545535
 20
303.8955122551147
 30
0.0
 10
85.24158744031844
 20
303.6191486996264
 30
0.0
 10
85.13045942368586
 20
303.3309352559604
 30
0.0
 10
85.04326866407041
 20
303.033796812717
 30
0.0
 10
84.98044305779443
 20
302.7293736586827
 30
0.0
 10
84.9425945082017
 20
302.420437046374
 30
0.0
 10
84.92993224642493
 20
302.1090424937973
 30
0.0
 10
84.94259450856327
 20
301.7976479412229
 30
0.0
 10
84.98044305851833
 20
301.4887113289304
 30
0.0
 10
85.04326866515862
 20
301.1842881748988
 30
0.0
 10
85.13045942514064
 20
300.8871497317458
 30
0.0
 10
85.2415874421438
 20
300.5989362878843
 30
0.0
 10
85.37547645675323
 20
300.3225727333027
 30
0.0
 10
85.53157925342352
 20
300.0593385590558
 30
0.0
 10
85.70812859858688
 20
299.8121021356578
 30
0.0
 10
85.90450214116632
 20
299.5818805198261
 30
0.0
 10
86.11839784844307
 20
299.3712577995145
 30
0.0
 10
86.34909407350531
 20
299.1810952453545
 30
0.0
 10
86.59389607676171
 20
299.0134911701517
 30
0.0
 10
86.85189584013267
 20
298.8692156746654
 30
0.0
 10
87.12021675151378
 20
298.7497842169819
 30
0.0
 10
87.39764181429953
 20
298.6557290517126
 30
0.0
 10
87.68135395827866
 20
298.588518159219
 30
0.0
 10
87.96971483458549
 20
298.5462230870371
 30
0.0
 10
88.16336286750116
 20
298.5409598862187
 30
0.0
 10
88.26018667421084
 20
298.5383282888981
 30
0.0
 11
88.26018667421084
 21
298.5383282888981
 31
0.0
 11
88.55023443600886
 21
298.5519459017505
 31
0.0
 11
88.83774636054454
 21
298.5925754611641
 31
0.0
 11
89.12148367041313
 21
298.6601425590026
 31
0.0
 11
89.39775718806834
 21
298.7536687050833
 31
0.0
 11
89.66647425016706
 21
298.8732122705211
 31
0.0
 11
89.92320351116695
 21
299.0167132839563
 31
0.0
 11
90.16862080094916
 21
299.1846224566631
 31
0.0
 11
90.39811990920197
 21
299.373716721361
 31
0.0
 11
90.6126744682388
 21
299.5848502871906
 31
0.0
 11
90.80807628773806
 21
299.8138316485042
 31
0.0
 11
90.98517969287826
 21
300.0616898845018
 31
0.0
 11
91.14061632966144
 21
300.3236853960339
 31
0.0
 11
91.27486955828459
 21
300.6006331043009
 31
0.0
 11
91.38563597407185
 21
300.8877863158294
 31
0.0
 11
91.47299372954488
 21
301.1853117022767
 31
0.0
 11
91.53569042305955
 21
301.488994486892
 31
0.0
 11
91.57357284302863
 21
301.7979898767644
 31
0.0
 11
91.58622034812325
 21
302.1090425031696
 31
0.0
 11
91.57357284302864
 21
302.4200951295747
 31
0.0
 11
91.53569042305955
 21
302.7290905194471
 31
0.0
 11
91.47299372954487
 21
303.0327733040623
 31
0.0
 11
91.38563597407185
 21
303.3302986905096
 31
0.0
 11
91.27486955828459
 21
303.6174519020382
 31
0.0
 11
91.14061632966144
 21
303.8943996103052
 31
0.0
 11
90.98517969287826
 21
304.1563951218374
 31
0.0
 11
90.80807628773806
 21
304.4042533578348
 31
0.0
 11
90.6126744682388
 21
304.6332347191486
 31
0.0
 11
90.39811990920197
 21
304.8443682849782
 31
0.0
 11
90.16862080094924
 21
305.0334625496761
 31
0.0
 11
89.92320351116706
 21
305.2013717223828
 31
0.0
 11
89.6664742501671
 21
305.3448727358181
 31
0.0
 11
89.39775718806834
 21
305.4644163012557
 31
0.0
 11
89.12148367041311
 21
305.5579424473366
 31
0.0
 11
88.83774636054454
 21
305.625509545175
 31
0.0
 11
88.55023443600888
 21
305.6661391045885
 31
0.0
 11
88.26018667421084
 21
305.6797567174409
 31
0.0
 11
87.97013891241282
 21
305.6661391045885
 31
0.0
 11
87.68262698787714
 21
305.625509545175
 31
0.0
 11
87.39888967800857
 21
305.5579424473365
 31
0.0
 11
87.12261616035335
 21
305.4644163012557
 31
0.0
 11
86.85389909825456
 21
305.344872735818
 31
0.0
 11
86.59716983725454
 21
305.2013717223828
 31
0.0
 11
86.35175254747232
 21
305.0334625496761
 31
0.0
 11
86.12225343921955
 21
304.8443682849782
 31
0.0
 11
85.90769888018278
 21
304.6332347191486
 31
0.0
 11
85.71229706068357
 21
304.4042533578348
 31
0.0
 11
85.5351936555433
 21
304.1563951218374
 31
0.0
 11
85.37975701876005
 21
303.8943996103052
 31
0.0
 11
85.24550379013692
 21
303.6174519020382
 31
0.0
 11
85.13473737434975
 21
303.3302986905096
 31
0.0
 11
85.04737961887676
 21
303.0327733040623
 31
0.0
 11
84.98468292536205
 21
302.7290905194471
 31
0.0
 11
84.94680050539291
 21
302.4200951295746
 31
0.0
 11
84.93415300029827
 21
302.1090425031696
 31
0.0
 11
84.94680050539293
 21
301.7979898767644
 31
0.0
 11
84.98468292536205
 21
301.488994486892
 31
0.0
 11
85.04737961887673
 21
301.1853117022767
 31
0.0
 11
85.13473737434975
 21
300.8877863158294
 31
0.0
 11
85.24550379013695
 21
300.6006331043008
 31
0.0
 11
85.37975701876005
 21
300.3236853960339
 31
0.0
 11
85.53519365554322
 21
300.0616898845018
 31
0.0
 11
85.71229706068345
 21
299.8138316485042
 31
0.0
 11
85.90769888018272
 21
299.5848502871905
 31
0.0
 11
86.12225343921955
 21
299.373716721361
 31
0.0
 11
86.35175254747233
 21
299.1846224566631
 31
0.0
 11
86.59716983725454
 21
299.0167132839563
 31
0.0
 11
86.85389909825454
 21
298.8732122705211
 31
0.0
 11
87.12261616035335
 21
298.7536687050833
 31
0.0
 11
87.39888967800857
 21
298.6601425590026
 31
0.0
 11
87.68262698787714
 21
298.5925754611641
 31
0.0
 11
87.9701389124128
 21
298.5519459017505
 31
0.0
 11
88.26018667421084
 21
298.5383282888981
 31
0.0
  0
SPLINE
  5
2A8
330
63
100
AcDbEntity
  8
1
  6
Continuous
 62
     7
100
AcDbSpline
210
0.0
220
0.0
230
1.0
 70
    11
 71
     3
 72
    79
 73
    75
 74
    73
 42
0.000000001
 43
0.0000000001
 44
0.00000001
 40
0.0
 40
0.0
 40
0.0
 40
0.0
 40
0.2903672471831696
 40
0.5807357518971556
 40
0.8724070977358243
 40
1.164081911023942
 40
1.458189924522253
 40
1.752302920472793
 40
2.049663201046358
 40
2.347029106415298
 40
2.64804578611582
 40
2.949067936325196
 40
3.253697746552332
 40
3.55833227533001
 40
3.86610485778009
 40
4.173881019539952
 40
4.483966061108287
 40
4.794053321447611
 40
5.105362217358586
 40
5.416671863434737
 40
5.727981509499974
 40
6.039290405378451
 40
6.3493776656634
 40
6.659462707155247
 40
6.967238868816534
 40
7.275011451144451
 40
7.579645979777192
 40
7.8842757898342
 40
8.185297939849542
 40
8.486314619328407
 40
8.78368052444882
 40
9.081040804740889
 40
9.375153800374111
 40
9.669261813502207
 40
9.96093662633718
 40
10.25260797152393
 40
10.54297647485859
 40
10.83334373090408
 40
11.12371098694961
 40
11.41407949028433
 40
11.7057508354711
 40
11.99742564830605
 40
12.29153366143417
 40
12.58564665706744
 40
12.8830069373595
 40
13.18037284247992
 40
13.48138952195876
 40
13.78241167197414
 40
14.08704148203107
 40
14.39167601066377
 40
14.69944859299172
 40
15.00722475465306
 40
15.31730979614481
 40
15.62739705642985
 40
15.93870595230837
 40
16.25001559837355
 40
16.5613252444497
 40
16.87263414036066
 40
17.18272140069993
 40
17.49280644226832
 40
17.80058260402824
 40
18.10835518647827
 40
18.41298971525598
 40
18.71761952548308
 40
19.01864167569241
 40
19.31965835539297
 40
19.61702426076192
 40
19.91438454133548
 40
20.20849753728606
 40
20.50260555078442
 40
20.7942803640725
 40
21.08595170991119
 40
21.37632021462522
 40
21.66668746180843
 40
21.66668746180843
 40
21.66668746180843
 40
21.66668746180843
 10
64.01147536824647
 20
298.5383282888981
 30
0.0
 10
63.91465156153679
 20
298.5409598862186
 30
0.0
 10
63.72100352862113
 20
298.5462230870371
 30
0.0
 10
63.4326426523143
 20
298.5885181592191
 30
0.0
 10
63.14893050833513
 20
298.6557290517124
 30
0.0
 10
62.8715054455494
 20
298.7497842169818
 30
0.0
 10
62.60318453416831
 20
298.8692156746655
 30
0.0
 10
62.3451847707974
 20
299.0134911701516
 30
0.0
 10
62.10038276754113
 20
299.1810952453546
 30
0.0
 10
61.86968654247895
 20
299.3712577995144
 30
0.0
 10
61.65579083520223
 20
299.5818805198263
 30
0.0
 10
61.45941729262267
 20
299.8121021356578
 30
0.0
 10
61.28286794745925
 20
300.0593385590559
 30
0.0
 10
61.1267651507889
 20
300.3225727333027
 30
0.0
 10
60.99287613617961
 20
300.5989362878845
 30
0.0
 10
60.88174811917642
 20
300.8871497317458
 30
0.0
 10
60.79455735919441
 20
301.1842881748988
 30
0.0
 10
60.73173175255417
 20
301.4887113289304
 30
0.0
 10
60.69388320259898
 20
301.7976479412229
 30
0.0
 10
60.68122094046059
 20
302.1090424937973
 30
0.0
 10
60.69388320223741
 20
302.4204370463741
 30
0.0
 10
60.73173175183023
 20
302.7293736586827
 30
0.0
 10
60.79455735810625
 20
303.0337968127169
 30
0.0
 10
60.88174811772164
 20
303.3309352559602
 30
0.0
 10
60.99287613435422
 20
303.6191486996264
 30
0.0
 10
61.1267651485892
 20
303.8955122551147
 30
0.0
 10
61.2828679448792
 20
304.1587464262363
 30
0.0
 10
61.45941728965649
 20
304.4059828615007
 30
0.0
 10
61.65579083184139
 20
304.6362044338769
 30
0.0
 10
61.86968653871428
 20
304.8468273156938
 30
0.0
 10
62.10038276335953
 20
305.0369892745708
 30
0.0
 10
62.34518476618165
 20
305.2045955581643
 30
0.0
 10
62.60318452908978
 20
305.3488628986257
 30
0.0
 10
62.87150543996232
 20
305.4683246379642
 30
0.0
 10
63.14893050211744
 20
305.5622676850184
 30
0.0
 10
63.43264264515795
 20
305.6298956574556
 30
0.0
 10
63.7210035233396
 20
305.6706407822978
 30
0.0
 10
64.0114753682465
 20
305.6843146602229
 30
0.0
 10
64.30194721315334
 20
305.670640782298
 30
0.0
 10
64.59030809133509
 20
305.6298956574555
 30
0.0
 10
64.87402023437555
 20
305.5622676850182
 30
0.0
 10
65.15144529653071
 20
305.4683246379642
 30
0.0
 10
65.41976620740327
 20
305.3488628986257
 30
0.0
 10
65.67776597031143
 20
305.2045955581643
 30
0.0
 10
65.92256797313357
 20
305.0369892745709
 30
0.0
 10
66.1532641977788
 20
304.8468273156939
 30
0.0
 10
66.36715990465176
 20
304.636204433877
 30
0.0
 10
66.5635334468366
 20
304.4059828615007
 30
0.0
 10
66.74008279161377
 20
304.1587464262364
 30
0.0
 10
66.89618558790369
 20
303.8955122551147
 30
0.0
 10
67.03007460213874
 20
303.6191486996264
 30
0.0
 10
67.14120261877146
 20
303.3309352559603
 30
0.0
 10
67.22839337838693
 20
303.033796812717
 30
0.0
 10
67.29121898466289
 20
302.7293736586827
 30
0.0
 10
67.32906753425554
 20
302.420437046374
 30
0.0
 10
67.3417297960323
 20
302.1090424937973
 30
0.0
 10
67.32906753389398
 20
301.7976479412229
 30
0.0
 10
67.29121898393899
 20
301.4887113289304
 30
0.0
 10
67.22839337729872
 20
301.1842881748989
 30
0.0
 10
67.14120261731665
 20
300.8871497317459
 30
0.0
 10
67.03007460031351
 20
300.5989362878843
 30
0.0
 10
66.89618558570416
 20
300.3225727333027
 30
0.0
 10
66.74008278903392
 20
300.0593385590558
 30
0.0
 10
66.56353344387044
 20
299.8121021356579
 30
0.0
 10
66.36715990129086
 20
299.5818805198262
 30
0.0
 10
66.15326419401416
 20
299.3712577995145
 30
0.0
 10
65.92256796895198
 20
299.1810952453546
 30
0.0
 10
65.67776596569571
 20
299.0134911701517
 30
0.0
 10
65.41976620232472
 20
298.8692156746654
 30
0.0
 10
65.15144529094364
 20
298.7497842169819
 30
0.0
 10
64.87402022815786
 20
298.6557290517125
 30
0.0
 10
64.59030808417873
 20
298.5885181592191
 30
0.0
 10
64.30194720787185
 20
298.546223087037
 30
0.0
 10
64.10829917495617
 20
298.5409598862187
 30
0.0
 10
64.01147536824647
 20
298.5383282888981
 30
0.0
 11
64.01147536824647
 21
298.5383282888981
 31
0.0
 11
63.72142760644844
 21
298.5519459017505
 31
0.0
 11
63.43391568191277
 21
298.5925754611641
 31
0.0
 11
63.15017837204419
 21
298.6601425590026
 31
0.0
 11
62.87390485438897
 21
298.7536687050833
 31
0.0
 11
62.6051877922902
 21
298.8732122705211
 31
0.0
 11
62.34845853129025
 21
299.0167132839563
 31
0.0
 11
62.10304124150815
 21
299.1846224566631
 31
0.0
 11
61.87354213325546
 21
299.373716721361
 31
0.0
 11
61.65898757421859
 21
299.5848502871906
 31
0.0
 11
61.46358575471925
 21
299.8138316485042
 31
0.0
 11
61.28648234957896
 21
300.0616898845018
 31
0.0
 11
61.13104571279575
 21
300.3236853960339
 31
0.0
 11
60.99679248417269
 21
300.6006331043009
 31
0.0
 11
60.88602606838555
 21
300.8877863158294
 31
0.0
 11
60.79866831291256
 21
301.1853117022767
 31
0.0
 11
60.73597161939784
 21
301.488994486892
 31
0.0
 11
60.69808919942865
 21
301.7979898767644
 31
0.0
 11
60.68544169433395
 21
302.1090425031696
 31
0.0
 11
60.69808919942864
 21
302.4200951295747
 31
0.0
 11
60.73597161939784
 21
302.7290905194471
 31
0.0
 11
60.79866831291257
 21
303.0327733040622
 31
0.0
 11
60.88602606838555
 21
303.3302986905096
 31
0.0
 11
60.99679248417269
 21
303.6174519020382
 31
0.0
 11
61.13104571279575
 21
303.8943996103052
 31
0.0
 11
61.28648234957897
 21
304.1563951218374
 31
0.0
 11
61.46358575471925
 21
304.4042533578348
 31
0.0
 11
61.65898757421859
 21
304.6332347191486
 31
0.0
 11
61.87354213325546
 21
304.8443682849782
 31
0.0
 11
62.10304124150814
 21
305.0334625496761
 31
0.0
 11
62.34845853129025
 21
305.2013717223828
 31
0.0
 11
62.6051877922902
 21
305.344872735818
 31
0.0
 11
62.87390485438897
 21
305.4644163012557
 31
0.0
 11
63.15017837204419
 21
305.5579424473365
 31
0.0
 11
63.43391568191277
 21
305.625509545175
 31
0.0
 11
63.72142760644844
 21
305.6661391045885
 31
0.0
 11
64.01147536824647
 21
305.6797567174409
 31
0.0
 11
64.30152313004453
 21
305.6661391045885
 31
0.0
 11
64.58903505458025
 21
305.625509545175
 31
0.0
 11
64.87277236444883
 21
305.5579424473365
 31
0.0
 11
65.14904588210405
 21
305.4644163012557
 31
0.0
 11
65.41776294420285
 21
305.344872735818
 31
0.0
 11
65.67449220520285
 21
305.2013717223828
 31
0.0
 11
65.91990949498495
 21
305.0334625496761
 31
0.0
 11
66.14940860323765
 21
304.8443682849782
 31
0.0
 11
66.36396316227453
 21
304.6332347191486
 31
0.0
 11
66.55936498177385
 21
304.4042533578348
 31
0.0
 11
66.73646838691401
 21
304.1563951218374
 31
0.0
 11
66.89190502369715
 21
303.8943996103052
 31
0.0
 11
67.0261582523203
 21
303.6174519020382
 31
0.0
 11
67.13692466810755
 21
303.3302986905096
 31
0.0
 11
67.22428242358058
 21
303.0327733040623
 31
0.0
 11
67.28697911709526
 21
302.7290905194471
 31
0.0
 11
67.32486153706434
 21
302.4200951295746
 31
0.0
 11
67.33750904215896
 21
302.1090425031696
 31
0.0
 11
67.32486153706434
 21
301.7979898767644
 31
0.0
 11
67.28697911709526
 21
301.488994486892
 31
0.0
 11
67.22428242358058
 21
301.1853117022767
 31
0.0
 11
67.13692466810755
 21
300.8877863158294
 31
0.0
 11
67.0261582523204
 21
300.6006331043008
 31
0.0
 11
66.89190502369735
 21
300.3236853960339
 31
0.0
 11
66.73646838691415
 21
300.0616898845017
 31
0.0
 11
66.55936498177385
 21
299.8138316485042
 31
0.0
 11
66.36396316227453
 21
299.5848502871906
 31
0.0
 11
66.14940860323765
 21
299.373716721361
 31
0.0
 11
65.91990949498495
 21
299.1846224566631
 31
0.0
 11
65.67449220520285
 21
299.0167132839563
 31
0.0
 11
65.41776294420286
 21
298.8732122705211
 31
0.0
 11
65.14904588210405
 21
298.7536687050833
 31
0.0
 11
64.87277236444883
 21
298.6601425590026
 31
0.0
 11
64.58903505458025
 21
298.5925754611641
 31
0.0
 11
64.30152313004453
 21
298.5519459017505
 31
0.0
 11
64.01147536824647
 21
298.5383282888981
 31
0.0
  0
SPLINE
  5
2A9
330
63
100
AcDbEntity
  8
0
  6
Continuous
 62
     7
100
AcDbSpline
210
0.0
220
0.0
230
1.0
 70
    11
 71
     3
 72
    79
 73
    75
 74
    73
 42
0.000000001
 43
0.0000000001
 44
0.00000001
 40
0.0
 40
0.0
 40
0.0
 40
0.0
 40
0.3210775470639959
 40
0.6418876090884982
 40
0.9828881272070134
 40
1.323517043608596
 40
1.692950500189906
 40
2.062056068345006
 40
2.463712899767412
 40
2.865130060311442
 40
3.298540763297996
 40
3.731789993374746
 40
4.193105329273865
 40
4.654317535684982
 40
5.137214007865762
 40
5.620049814545922
 40
6.116532140550142
 40
6.612986419268385
 40
7.114093722209562
 40
7.615201025150447
 40
8.111655303867451
 40
8.608137629868555
 40
9.09097343654207
 40
9.573869908710021
 40
10.03508211509961
 40
10.49639745096305
 40
10.92964668098712
 40
11.36305738389373
 40
11.76447454432879
 40
12.16613137559336
 40
12.5352369435413
 40
12.90467039982528
 40
13.24529931581412
 40
13.58629983322849
 40
13.90710989320164
 40
14.22818744758321
 40
14.54194546559208
 40
14.85570348359975
 40
15.17678103797798
 40
15.4975910979458
 40
15.83859161535305
 40
16.17922053133378
 40
16.54865398760831
 40
16.91775955554664
 40
17.31941638680086
 40
17.7208335472259
 40
18.15424425012216
 40
18.58749348013658
 40
19.04880881599041
 40
19.51002102237104
 40
19.99291749453043
 40
20.47575330119623
 40
20.97223562719014
 40
21.46868990590091
 40
21.96979720883634
 40
22.47090451177304
 40
22.96735879048786
 40
23.46384111648971
 40
23.94667692316866
 40
24.42957339534913
 40
24.89078560176087
 40
25.35210093766112
 40
25.78535016773893
 40
26.21876087072556
 40
26.62017803126727
 40
27.02183486268164
 40
27.39094043081849
 40
27.76037388735716
 40
28.10100280365924
 40
28.44200332148644
 40
28.76281338199421
 40
29.08389093717293
 40
29.39764895732431
 40
29.71140696825803
 40
29.71140696825803
 40
29.71140696825803
 40
29.71140696825803
 10
177.2380696118065
 20
146.636973621279
 30
0.0
 10
177.343529420124
 20
146.6562534921393
 30
0.0
 10
177.5543611814615
 20
146.6947971634242
 30
0.0
 10
177.8626969462334
 20
146.809850599251
 30
0.0
 10
178.1607811745964
 20
146.9622391249563
 30
0.0
 10
178.4514495515799
 20
147.1593158791007
 30
0.0
 10
178.7262114717544
 20
147.3925023954614
 30
0.0
 10
178.9902370032482
 20
147.6666709276801
 30
0.0
 10
179.234617700673
 20
147.9722140769575
 30
0.0
 10
179.4644862846272
 20
148.314831696573
 30
0.0
 10
179.6720507585691
 20
148.6835278344831
 30
0.0
 10
179.8612652509355
 20
149.0840825807217
 30
0.0
 10
180.0262276693842
 20
149.5051869947129
 30
0.0
 10
180.1694098223277
 20
149.9515452879661
 30
0.0
 10
180.286935491567
 20
150.4127410703097
 30
0.0
 10
180.380018082827
 20
150.8914361407005
 30
0.0
 10
180.4465200023911
 20
151.3791033862313
 30
0.0
 10
180.4869050384
 20
151.875721153776
 30
0.0
 10
180.5002483405096
 20
152.3753419186988
 30
0.0
 10
180.486905038403
 20
152.8749626836372
 30
0.0
 10
180.4465200023937
 20
153.3715804511331
 30
0.0
 10
180.3800180828695
 20
153.8592476968349
 30
0.0
 10
180.2869354915481
 20
154.3379427665962
 30
0.0
 10
180.1694098226859
 20
154.7991385512287
 30
0.0
 10
180.0262276686339
 20
155.2454968362946
 30
0.0
 10
179.8612652545541
 20
155.6666012799258
 30
0.0
 10
179.6720507473073
 20
156.0671559219487
 30
0.0
 10
179.464486327478
 20
156.4358524342793
 30
0.0
 10
179.2346175565434
 20
156.7784687544598
 30
0.0
 10
178.9902375283647
 20
157.0840165473336
 30
0.0
 10
178.7262096920591
 20
157.3581690785534
 30
0.0
 10
178.4514560063402
 20
157.591412750435
 30
0.0
 10
178.1607591613403
 20
157.7882918927965
 30
0.0
 10
177.8627773745617
 20
157.9413914968196
 30
0.0
 10
177.5540806082163
 20
158.0539390894506
 30
0.0
 10
177.2415138854738
 20
158.1204906397233
 30
0.0
 10
176.9251187395058
 20
158.1439659543889
 30
0.0
 10
176.6087235935379
 20
158.1204906397342
 30
0.0
 10
176.2961568707965
 20
158.0539390894724
 30
0.0
 10
175.9874601044527
 20
157.9413914968518
 30
0.0
 10
175.6894783176766
 20
157.7882918928388
 30
0.0
 10
175.39878147268
 20
157.5914127504869
 30
0.0
 10
175.1240277869653
 20
157.3581690786145
 30
0.0
 10
174.8599999506648
 20
157.0840165474032
 30
0.0
 10
174.6156199224922
 20
156.7784687545374
 30
0.0
 10
174.3857511515645
 20
156.4358524343645
 30
0.0
 10
174.1781867317435
 20
156.0671559220407
 30
0.0
 10
173.9889722245061
 20
155.6666012800243
 30
0.0
 10
173.824009810437
 20
155.2454968363989
 30
0.0
 10
173.6808276563974
 20
154.7991385513384
 30
0.0
 10
173.5633019875496
 20
154.337942766711
 30
0.0
 10
173.4702193962443
 20
153.8592476969543
 30
0.0
 10
173.4037174767389
 20
153.3715804512573
 30
0.0
 10
173.3633324407504
 20
152.8749626837651
 30
0.0
 10
173.3499891386683
 20
152.3753419188346
 30
0.0
 10
173.3633324408026
 20
151.8757211539051
 30
0.0
 10
173.4037174768485
 20
151.3791033864096
 30
0.0
 10
173.470219396419
 20
150.8914361407253
 30
0.0
 10
173.5633019878117
 20
150.4127410709253
 30
0.0
 10
173.6808276567361
 20
149.9515452864629
 30
0.0
 10
173.8240098109836
 20
149.5051870008264
 30
0.0
 10
173.9889722249017
 20
149.0840825593129
 30
0.0
 10
174.1781867333914
 20
148.6835279099143
 30
0.0
 10
174.3857511496078
 20
148.3148314241815
 30
0.0
 10
174.6156199340882
 20
147.972215011826
 30
0.0
 10
174.8599999151002
 20
147.666667548532
 30
0.0
 10
175.1240279153528
 20
147.3925138818876
 30
0.0
 10
175.3987810171676
 20
147.1592742660849
 30
0.0
 10
175.6894798829083
 20
146.962381100525
 30
0.0
 10
175.9874544006625
 20
146.8093319576565
 30
0.0
 10
176.2961767858049
 20
146.6966065404272
 30
0.0
 10
176.6086497871973
 20
146.6307055549833
 30
0.0
 10
176.9253872630039
 20
146.604853990717
 30
0.0
 10
177.1338421629691
 20
146.626267080928
 30
0.0
 10
177.2380696118065
 20
146.636973621279
 30
0.0
 11
177.2380696118065
 21
146.636973621279
 31
0.0
 11
177.5520797801736
 21
146.7039692194691
 31
0.0
 11
177.8538212919782
 21
146.8129240482436
 31
0.0
 11
178.1573413348316
 21
146.9683490672798
 31
0.0
 11
178.4398983417106
 21
147.1585847010052
 31
0.0
 11
178.7220364943853
 21
147.3970781841308
 31
0.0
 11
178.9786202272343
 21
147.6624151555109
 31
0.0
 11
179.2301317923355
 21
147.9755766837553
 31
0.0
 11
179.4542496032424
 21
148.3086036249557
 31
0.0
 11
179.6674819679864
 21
148.6859321238186
 31
0.0
 11
179.8528998310143
 21
149.0774996293807
 31
0.0
 11
180.0216737308843
 21
149.5068330777002
 31
0.0
 11
180.1628034158808
 21
149.9459220337779
 31
0.0
 11
180.2824243680415
 21
150.4137679813355
 31
0.0
 11
180.3747224711509
 21
150.8876999135516
 31
0.0
 11
180.4420449155905
 21
151.3795966390023
 31
0.0
 11
180.4823005770029
 21
151.8744161339516
 31
0.0
 11
180.4957867647979
 21
152.3753419286555
 31
0.0
 11
180.4823005770029
 21
152.8762677233594
 31
0.0
 11
180.4420449155905
 21
153.3710872183088
 31
0.0
 11
180.3747224711509
 21
153.8629839437594
 31
0.0
 11
180.2824243680415
 21
154.3369158759755
 31
0.0
 11
180.1628034158808
 21
154.8047618235331
 31
0.0
 11
180.0216737308843
 21
155.2438507796108
 31
0.0
 11
179.8528998310143
 21
155.6731842279303
 31
0.0
 11
179.6674819679865
 21
156.0647517334924
 31
0.0
 11
179.4542496032424
 21
156.4420802323554
 31
0.0
 11
179.2301317923356
 21
156.7751071735557
 31
0.0
 11
178.9786202272344
 21
157.0882687018001
 31
0.0
 11
178.7220364943854
 21
157.3536056731802
 31
0.0
 11
178.4398983417106
 21
157.5920991563058
 31
0.0
 11
178.1573413348317
 21
157.7823347900312
 31
0.0
 11
177.8538212919782
 21
157.9377598090674
 31
0.0
 11
177.5520797801736
 21
158.0467146378418
 31
0.0
 11
177.2380696118065
 21
158.1137102360319
 31
0.0
 11
176.9251187391241
 21
158.136201239557
 31
0.0
 11
176.6121678664416
 21
158.1137102360319
 31
0.0
 11
176.2981576980745
 21
158.0467146378418
 31
0.0
 11
175.9964161862699
 21
157.9377598090674
 31
0.0
 11
175.6928961434164
 21
157.7823347900312
 31
0.0
 11
175.4103391365375
 21
157.5920991563058
 31
0.0
 11
175.1282009838627
 21
157.3536056731802
 31
0.0
 11
174.8716172510137
 21
157.0882687018001
 31
0.0
 11
174.6201056859125
 21
156.7751071735557
 31
0.0
 11
174.3959878750056
 21
156.4420802323554
 31
0.0
 11
174.1827555102616
 21
156.0647517334924
 31
0.0
 11
173.9973376472338
 21
155.6731842279303
 31
0.0
 11
173.8285637473638
 21
155.2438507796108
 31
0.0
 11
173.6874340623673
 21
154.8047618235331
 31
0.0
 11
173.5678131102066
 21
154.3369158759756
 31
0.0
 11
173.4755150070972
 21
153.8629839437594
 31
0.0
 11
173.4081925626576
 21
153.3710872183088
 31
0.0
 11
173.3679369012452
 21
152.8762677233594
 31
0.0
 11
173.3544507134503
 21
152.3753419286555
 31
0.0
 11
173.3679369012452
 21
151.8744161339516
 31
0.0
 11
173.4081925626576
 21
151.3795966390023
 31
0.0
 11
173.4755150070973
 21
150.8876999135516
 31
0.0
 11
173.5678131102067
 21
150.4137679813355
 31
0.0
 11
173.6874340623674
 21
149.9459220337779
 31
0.0
 11
173.8285637473638
 21
149.5068330777002
 31
0.0
 11
173.9973376472338
 21
149.0774996293807
 31
0.0
 11
174.1827555102616
 21
148.6859321238187
 31
0.0
 11
174.3959878750056
 21
148.3086036249557
 31
0.0
 11
174.6201056859124
 21
147.9755766837553
 31
0.0
 11
174.8716172510137
 21
147.6624151555109
 31
0.0
 11
175.1282009838627
 21
147.3970781841308
 31
0.0
 11
175.4103391365375
 21
147.1585847010052
 31
0.0
 11
175.6928961434164
 21
146.9683490672798
 31
0.0
 11
175.9964161862698
 21
146.8129240482436
 31
0.0
 11
176.2981576980744
 21
146.7039692194691
 31
0.0
 11
176.6121678664416
 21
146.636973621279
 31
0.0
 11
176.925118739124
 21
146.614482617754
 31
0.0
 11
177.2380696118065
 21
146.636973621279
 31
0.0
  0
SPLINE
  5
2AA
330
63
100
AcDbEntity
  8
0
  6
Continuous
 62
     7
100
AcDbSpline
210
0.0
220
0.0
230
1.0
 70
    11
 71
     3
 72
    79
 73
    75
 74
    73
 42
0.000000001
 43
0.0000000001
 44
0.00000001
 40
0.0
 40
0.0
 40
0.0
 40
0.0
 40
0.3210775470639959
 40
0.6418876090884884
 40
0.9828881272070036
 40
1.323517043608617
 40
1.692950500189928
 40
2.062056068345007
 40
2.463712899767391
 40
2.865130060311421
 40
3.298540763297976
 40
3.731789993374725
 40
4.19310532927387
 40
4.654317535684934
 40
5.137214007865713
 40
5.620049814545901
 40
6.11653214055012
 40
6.612986419268335
 40
7.114093722209512
 40
7.615201025150426
 40
8.11165530386743
 40
8.608137629868505
 40
9.090973436542047
 40
9.573869908709998
 40
10.03508211509956
 40
10.49639745096303
 40
10.9296466809871
 40
11.36305738389373
 40
11.76447454432875
 40
12.16613137559334
 40
12.53523694354126
 40
12.90467039982526
 40
13.2452993158141
 40
13.58629983322848
 40
13.90710989320164
 40
14.22818744758321
 40
14.54194546559208
 40
14.85570348359975
 40
15.17678103797797
 40
15.49759109794581
 40
15.83859161535308
 40
16.17922053133381
 40
16.54865398760835
 40
16.91775955554666
 40
17.3194163868009
 40
17.72083354722594
 40
18.1542442501222
 40
18.58749348013659
 40
19.04880881599042
 40
19.51002102237106
 40
19.99291749453051
 40
20.47575330119625
 40
20.97223562719022
 40
21.46868990590092
 40
21.96979720883639
 40
22.47090451177306
 40
22.96735879048788
 40
23.46384111648976
 40
23.94667692316871
 40
24.42957339534915
 40
24.89078560176089
 40
25.35210093766113
 40
25.785350167739
 40
26.21876087072558
 40
26.62017803126727
 40
27.02183486268165
 40
27.39094043081845
 40
27.76037388735718
 40
28.10100280365925
 40
28.44200332148643
 40
28.76281338199418
 40
29.08389093717291
 40
29.39764895732429
 40
29.711406968258
 40
29.711406968258
 40
29.711406968258
 40
29.711406968258
 10
177.2380696118065
 20
144.1137102360318
 30
0.0
 10
177.343529420124
 20
144.0944303651716
 30
0.0
 10
177.5543611814614
 20
144.0558866938867
 30
0.0
 10
177.8626969462334
 20
143.9408332580599
 30
0.0
 10
178.1607811745964
 20
143.7884447323546
 30
0.0
 10
178.4514495515798
 20
143.5913679782101
 30
0.0
 10
178.7262114717545
 20
143.3581814618494
 30
0.0
 10
178.9902370032482
 20
143.0840129296307
 30
0.0
 10
179.2346177006729
 20
142.7784697803534
 30
0.0
 10
179.4644862846273
 20
142.4358521607379
 30
0.0
 10
179.672050758569
 20
142.0671560228279
 30
0.0
 10
179.8612652509355
 20
141.6666012765891
 30
0.0
 10
180.0262276693842
 20
141.245496862598
 30
0.0
 10
180.1694098223277
 20
140.7991385693448
 30
0.0
 10
180.2869354915671
 20
140.3379427870012
 30
0.0
 10
180.380018082827
 20
139.8592477166105
 30
0.0
 10
180.4465200023911
 20
139.3715804710796
 30
0.0
 10
180.4869050384
 20
138.8749627035349
 30
0.0
 10
180.5002483405096
 20
138.3753419386121
 30
0.0
 10
180.486905038403
 20
137.8757211736737
 30
0.0
 10
180.4465200023938
 20
137.3791034061779
 30
0.0
 10
180.3800180828694
 20
136.891436160476
 30
0.0
 10
180.2869354915481
 20
136.4127410907147
 30
0.0
 10
180.1694098226859
 20
135.9515453060821
 30
0.0
 10
180.0262276686339
 20
135.5051870210162
 30
0.0
 10
179.8612652545541
 20
135.0840825773851
 30
0.0
 10
179.6720507473073
 20
134.6835279353622
 30
0.0
 10
179.464486327478
 20
134.3148314230315
 30
0.0
 10
179.2346175565433
 20
133.9722151028511
 30
0.0
 10
178.9902375283647
 20
133.6666673099774
 30
0.0
 10
178.7262096920591
 20
133.3925147787574
 30
0.0
 10
178.4514560063403
 20
133.1592711068759
 30
0.0
 10
178.1607591613404
 20
132.9623919645144
 30
0.0
 10
177.8627773745618
 20
132.8092923604913
 30
0.0
 10
177.5540806082163
 20
132.6967447678602
 30
0.0
 10
177.2415138854738
 20
132.6301932175875
 30
0.0
 10
176.9251187395058
 20
132.606717902922
 30
0.0
 10
176.6087235935379
 20
132.6301932175766
 30
0.0
 10
176.2961568707964
 20
132.6967447678384
 30
0.0
 10
175.9874601044528
 20
132.8092923604591
 30
0.0
 10
175.6894783176766
 20
132.962391964472
 30
0.0
 10
175.39878147268
 20
133.159271106824
 30
0.0
 10
175.1240277869653
 20
133.3925147786965
 30
0.0
 10
174.8599999506648
 20
133.6666673099077
 30
0.0
 10
174.6156199224922
 20
133.9722151027735
 30
0.0
 10
174.3857511515645
 20
134.3148314229464
 30
0.0
 10
174.1781867317434
 20
134.6835279352702
 30
0.0
 10
173.9889722245061
 20
135.0840825772867
 30
0.0
 10
173.824009810437
 20
135.5051870209119
 30
0.0
 10
173.6808276563974
 20
135.9515453059724
 30
0.0
 10
173.5633019875495
 20
136.4127410906
 30
0.0
 10
173.4702193962443
 20
136.8914361603566
 30
0.0
 10
173.4037174767388
 20
137.3791034060536
 30
0.0
 10
173.3633324407504
 20
137.8757211735457
 30
0.0
 10
173.3499891386683
 20
138.3753419384764
 30
0.0
 10
173.3633324408026
 20
138.8749627034058
 30
0.0
 10
173.4037174768485
 20
139.3715804709012
 30
0.0
 10
173.4702193964191
 20
139.8592477165856
 30
0.0
 10
173.5633019878116
 20
140.3379427863856
 30
0.0
 10
173.6808276567361
 20
140.799138570848
 30
0.0
 10
173.8240098109837
 20
141.2454968564845
 30
0.0
 10
173.9889722249018
 20
141.666601297998
 30
0.0
 10
174.1781867333913
 20
142.0671559473966
 30
0.0
 10
174.3857511496078
 20
142.4358524331294
 30
0.0
 10
174.6156199340882
 20
142.7784688454849
 30
0.0
 10
174.8599999151001
 20
143.0840163087789
 30
0.0
 10
175.1240279153529
 20
143.3581699754232
 30
0.0
 10
175.3987810171676
 20
143.591409591226
 30
0.0
 10
175.6894798829083
 20
143.7883027567859
 30
0.0
 10
175.9874544006625
 20
143.9413518996544
 30
0.0
 10
176.2961767858049
 20
144.0540773168835
 30
0.0
 10
176.6086497871974
 20
144.1199783023275
 30
0.0
 10
176.9253872630038
 20
144.1458298665938
 30
0.0
 10
177.1338421629692
 20
144.1244167763828
 30
0.0
 10
177.2380696118065
 20
144.1137102360318
 30
0.0
 11
177.2380696118065
 21
144.1137102360318
 31
0.0
 11
177.5520797801736
 21
144.0467146378417
 31
0.0
 11
177.8538212919782
 21
143.9377598090673
 31
0.0
 11
178.1573413348316
 21
143.7823347900311
 31
0.0
 11
178.4398983417106
 21
143.5920991563056
 31
0.0
 11
178.7220364943853
 21
143.35360567318
 31
0.0
 11
178.9786202272343
 21
143.0882687017999
 31
0.0
 11
179.2301317923355
 21
142.7751071735555
 31
0.0
 11
179.4542496032424
 21
142.4420802323552
 31
0.0
 11
179.6674819679864
 21
142.0647517334922
 31
0.0
 11
179.8528998310143
 21
141.6731842279302
 31
0.0
 11
180.0216737308843
 21
141.2438507796107
 31
0.0
 11
180.1628034158808
 21
140.804761823533
 31
0.0
 11
180.2824243680415
 21
140.3369158759754
 31
0.0
 11
180.3747224711509
 21
139.8629839437593
 31
0.0
 11
180.4420449155905
 21
139.3710872183086
 31
0.0
 11
180.4823005770029
 21
138.8762677233593
 31
0.0
 11
180.4957867647979
 21
138.3753419286554
 31
0.0
 11
180.4823005770029
 21
137.8744161339515
 31
0.0
 11
180.4420449155905
 21
137.3795966390021
 31
0.0
 11
180.3747224711509
 21
136.8876999135515
 31
0.0
 11
180.2824243680415
 21
136.4137679813354
 31
0.0
 11
180.1628034158808
 21
135.9459220337778
 31
0.0
 11
180.0216737308843
 21
135.5068330777001
 31
0.0
 11
179.8528998310143
 21
135.0774996293806
 31
0.0
 11
179.6674819679865
 21
134.6859321238185
 31
0.0
 11
179.4542496032424
 21
134.3086036249555
 31
0.0
 11
179.2301317923356
 21
133.9755766837552
 31
0.0
 11
178.9786202272344
 21
133.6624151555108
 31
0.0
 11
178.7220364943854
 21
133.3970781841307
 31
0.0
 11
178.4398983417106
 21
133.1585847010051
 31
0.0
 11
178.1573413348317
 21
132.9683490672797
 31
0.0
 11
177.8538212919782
 21
132.8129240482435
 31
0.0
 11
177.5520797801736
 21
132.703969219469
 31
0.0
 11
177.2380696118065
 21
132.6369736212789
 31
0.0
 11
176.9251187391241
 21
132.6144826177539
 31
0.0
 11
176.6121678664416
 21
132.6369736212789
 31
0.0
 11
176.2981576980745
 21
132.703969219469
 31
0.0
 11
175.9964161862699
 21
132.8129240482435
 31
0.0
 11
175.6928961434164
 21
132.9683490672797
 31
0.0
 11
175.4103391365375
 21
133.1585847010051
 31
0.0
 11
175.1282009838627
 21
133.3970781841307
 31
0.0
 11
174.8716172510137
 21
133.6624151555108
 31
0.0
 11
174.6201056859125
 21
133.9755766837552
 31
0.0
 11
174.3959878750056
 21
134.3086036249555
 31
0.0
 11
174.1827555102616
 21
134.6859321238185
 31
0.0
 11
173.9973376472338
 21
135.0774996293806
 31
0.0
 11
173.8285637473638
 21
135.5068330777001
 31
0.0
 11
173.6874340623673
 21
135.9459220337778
 31
0.0
 11
173.5678131102066
 21
136.4137679813354
 31
0.0
 11
173.4755150070972
 21
136.8876999135514
 31
0.0
 11
173.4081925626576
 21
137.3795966390022
 31
0.0
 11
173.3679369012452
 21
137.8744161339515
 31
0.0
 11
173.3544507134503
 21
138.3753419286554
 31
0.0
 11
173.3679369012452
 21
138.8762677233593
 31
0.0
 11
173.4081925626576
 21
139.3710872183086
 31
0.0
 11
173.4755150070973
 21
139.8629839437593
 31
0.0
 11
173.5678131102067
 21
140.3369158759754
 31
0.0
 11
173.6874340623674
 21
140.804761823533
 31
0.0
 11
173.8285637473638
 21
141.2438507796107
 31
0.0
 11
173.9973376472338
 21
141.6731842279302
 31
0.0
 11
174.1827555102616
 21
142.0647517334923
 31
0.0
 11
174.3959878750056
 21
142.4420802323552
 31
0.0
 11
174.6201056859124
 21
142.7751071735555
 31
0.0
 11
174.8716172510137
 21
143.0882687018
 31
0.0
 11
175.1282009838627
 21
143.35360567318
 31
0.0
 11
175.4103391365375
 21
143.5920991563057
 31
0.0
 11
175.6928961434164
 21
143.7823347900311
 31
0.0
 11
175.9964161862698
 21
143.9377598090672
 31
0.0
 11
176.2981576980744
 21
144.0467146378416
 31
0.0
 11
176.6121678664416
 21
144.1137102360318
 31
0.0
 11
176.925118739124
 21
144.1362012395568
 31
0.0
 11
177.2380696118065
 21
144.1137102360318
 31
0.0
  0
ARC
  5
2AB
330
63
100
AcDbEntity
  8
1
  6
Continuous
 62
     7
100
AcDbCircle
 10
172.0677307778072
 20
155.1432911210866
 30
0.0
 40
0.9999999999999589
100
AcDbArc
 50
120.0000000000014
 51
132.9414028648834
  0
ARC
  5
2AC
330
63
100
AcDbEntity
  8
1
  6
Continuous
 62
     7
100
AcDbCircle
 10
171.0677307778072
 20
156.8753419286554
 30
0.0
 40
0.9999999999999589
100
AcDbArc
 50
300.0000000000013
 51
0.0
  0
ARC
  5
2AD
330
63
100
AcDbEntity
  8
1
  6
Continuous
 62
     7
100
AcDbCircle
 10
172.0677307778072
 20
155.1432911210866
 30
0.0
 40
0.9999999999999277
100
AcDbArc
 50
132.9414028648834
 51
180.0
  0
ARC
  5
2AE
330
63
100
AcDbEntity
  8
1
  6
Continuous
 62
     7
100
AcDbCircle
 10
173.0677307778072
 20
156.9333629903861
 30
0.0
 40
0.9999999999999166
100
AcDbArc
 50
164.6624423304467
 51
180.0
  0
ARC
  5
2AF
330
63
100
AcDbEntity
  8
1
  6
Continuous
 62
     7
100
AcDbCircle
 10
172.0677307778072
 20
135.6073927362243
 30
0.0
 40
1.000000000000032
100
AcDbArc
 50
227.0585971351221
 51
240.0000000000019
  0
ARC
  5
2B0
330
63
100
AcDbEntity
  8
1
  6
Continuous
 62
     7
100
AcDbCircle
 10
171.0677307778072
 20
133.8753419286554
 30
0.0
 40
1.0
100
AcDbArc
 50
0.0
 51
59.99999999999946
  0
ARC
  5
2B1
330
63
100
AcDbEntity
  8
1
  6
Continuous
 62
     7
100
AcDbCircle
 10
172.0677307778072
 20
135.6073927362243
 30
0.0
 40
1.0
100
AcDbArc
 50
180.0
 51
227.0585971351221
  0
ARC
  5
2B2
330
63
100
AcDbEntity
  8
1
  6
Continuous
 62
     7
100
AcDbCircle
 10
173.0677307778072
 20
133.8173208669248
 30
0.0
 40
1.0
100
AcDbArc
 50
180.0
 51
195.3375576695533
  0
ARC
  5
2B3
330
63
100
AcDbEntity
  8
1
  6
Continuous
 62
     7
100
AcDbCircle
 10
64.63583102122877
 20
296.2515055386111
 30
0.0
 40
0.9999999999998606
100
AcDbArc
 50
30.00000000000461
 51
90.0
  0
ARC
  5
2B4
330
63
100
AcDbEntity
  8
1
  6
Continuous
 62
     7
100
AcDbCircle
 10
66.36788182879755
 20
297.2515055386111
 30
0.0
 40
1.000000000000058
100
AcDbArc
 50
209.9999999999981
 51
222.941402864881
  0
ARC
  5
2B5
330
63
100
AcDbEntity
  8
1
  6
Continuous
 62
     7
100
AcDbCircle
 10
64.57780995949815
 20
298.2515055386111
 30
0.0
 40
0.9999999999999967
100
AcDbArc
 50
254.6624423304361
 51
270.0
  0
ARC
  5
2B6
330
63
100
AcDbEntity
  8
1
  6
Continuous
 62
     7
100
AcDbCircle
 10
66.36788182879755
 20
297.2515055386111
 30
0.0
 40
0.999999999999889
100
AcDbArc
 50
222.941402864881
 51
270.0
  0
ARC
  5
2B7
330
63
100
AcDbEntity
  8
1
  6
Continuous
 62
     7
100
AcDbCircle
 10
87.63583102122877
 20
296.2515055386111
 30
0.0
 40
1.0
100
AcDbArc
 50
90.0
 51
150.0000000000052
  0
ARC
  5
2B8
330
63
100
AcDbEntity
  8
1
  6
Continuous
 62
     7
100
AcDbCircle
 10
85.90378021365984
 20
297.2515055386111
 30
0.0
 40
0.9999999999999931
100
AcDbArc
 50
317.0585971351245
 51
329.9999999999962
  0
ARC
  5
2B9
330
63
100
AcDbEntity
  8
1
  6
Continuous
 62
     7
100
AcDbCircle
 10
87.69385208295927
 20
298.2515055386111
 30
0.0
 40
1.0
100
AcDbArc
 50
270.0
 51
285.3375576695514
  0
ARC
  5
2BA
330
63
100
AcDbEntity
  8
1
  6
Continuous
 62
     7
100
AcDbCircle
 10
85.90378021365984
 20
297.2515055386111
 30
0.0
 40
1.0
100
AcDbArc
 50
270.0
 51
317.0585971351245
  0
ENDBLK
  5
65
330
63
100
AcDbEntity
  8
0
100
AcDbBlockEnd
  0
BLOCK
  5
67
330
66
100
AcDbEntity
  8
0
100
AcDbBlockBegin
  2
75-2
 70
     0
 10
179.1249847831937
 20
56.63301065802246
 30
0.0
  3
75-2
  1

  0
LINE
  5
2BB
330
66
100
AcDbEntity
  8
1
  6
Continuous
 62
     7
100
AcDbLine
 10
72.82862544643115
 20
103.4732144713838
 30
0.0
 11
72.95876800945086
 21
103.6033570344034
 31
0.0
  0
LINE
  5
2BC
330
66
100
AcDbEntity
  8
1
  6
Continuous
 62
     7
100
AcDbLine
 10
74.52004663454906
 20
103.2128447992983
 30
0.0
 11
75.23598348231025
 21
103.9287816470595
 31
0.0
  0
LINE
  5
2BD
330
66
100
AcDbEntity
  8
1
  6
Continuous
 62
     7
100
AcDbLine
 10
75.23598348231025
 20
103.1803629782101
 30
0.0
 11
75.23598348231025
 21
107.4604400623012
 31
0.0
  0
LINE
  5
2BE
330
66
100
AcDbEntity
  8
1
  6
Continuous
 62
     7
100
AcDbLine
 10
77.03598351355194
 20
103.9284766936546
 30
0.0
 11
77.75161540790825
 21
103.2128447992983
 31
0.0
  0
LINE
  5
2BF
330
66
100
AcDbEntity
  8
1
  6
Continuous
 62
     7
100
AcDbLine
 10
69.92528721339696
 20
106.1849346203145
 30
0.0
 11
71.63829322958125
 21
106.1849346203145
 31
0.0
  0
LINE
  5
2C0
330
66
100
AcDbEntity
  8
1
  6
Continuous
 62
     7
100
AcDbLine
 10
75.23598348231025
 20
107.6802675850997
 30
0.0
 11
74.60347211465296
 21
108.312778952757
 31
0.0
  0
LINE
  5
2C1
330
66
100
AcDbEntity
  8
1
  6
Continuous
 62
     7
100
AcDbLine
 10
72.95876800945086
 20
108.0056921977558
 30
0.0
 11
72.89302224210417
 21
108.0714379651025
 31
0.0
  0
LINE
  5
2C2
330
66
100
AcDbEntity
  8
1
  6
Continuous
 62
     7
100
AcDbLine
 10
80.63336881287606
 20
106.1849346203145
 30
0.0
 11
82.34637482906035
 21
106.1849346203145
 31
0.0
  0
LINE
  5
2C3
330
66
100
AcDbEntity
  8
1
  6
Continuous
 62
     7
100
AcDbLine
 10
82.34637482906035
 20
105.4241146118448
 30
0.0
 11
80.63336881287606
 21
105.4241146118448
 31
0.0
  0
LINE
  5
2C4
330
66
100
AcDbEntity
  8
1
  6
Continuous
 62
     7
100
AcDbLine
 10
79.31289403300656
 20
103.6033570344034
 30
0.0
 11
79.44303659602616
 21
103.4732144713838
 31
0.0
  0
LINE
  5
2C5
330
66
100
AcDbEntity
  8
1
  6
Continuous
 62
     7
100
AcDbLine
 10
71.63829322958125
 20
105.4241146118448
 30
0.0
 11
69.92598290291346
 21
105.4241146118448
 31
0.0
  0
LINE
  5
2C6
330
66
100
AcDbEntity
  8
1
  6
Continuous
 62
     7
100
AcDbLine
 10
79.31289403300656
 20
108.0056921977558
 30
0.0
 11
79.37863980035604
 21
108.0714379651054
 31
0.0
  0
LINE
  5
2C7
330
66
100
AcDbEntity
  8
1
  6
Continuous
 62
     7
100
AcDbLine
 10
77.03598351355194
 20
103.1803629782101
 30
0.0
 11
77.03598351355194
 21
107.4604400623012
 31
0.0
  0
LINE
  5
2C8
330
66
100
AcDbEntity
  8
1
  6
Continuous
 62
     7
100
AcDbLine
 10
79.04441446206195
 20
106.6196746748009
 30
0.0
 11
79.04441446206195
 21
104.251524055798
 31
0.0
  0
LINE
  5
2C9
330
66
100
AcDbEntity
  8
1
  6
Continuous
 62
     7
100
AcDbLine
 10
73.22724758039536
 20
106.5765585010829
 30
0.0
 11
73.22724758039536
 21
104.251524055798
 31
0.0
  0
LINE
  5
2CA
330
66
100
AcDbEntity
  8
1
  6
Continuous
 62
     7
100
AcDbLine
 10
75.23598348231025
 20
108.3561995535271
 30
0.0
 11
75.23598348231025
 21
107.6802675850997
 31
0.0
  0
LINE
  5
2CB
330
66
100
AcDbEntity
  8
1
  6
Continuous
 62
     7
100
AcDbLine
 10
77.03598351355194
 20
108.3561841571641
 30
0.0
 11
77.03598351355194
 21
107.6805725385047
 31
0.0
  0
LINE
  5
2CC
330
66
100
AcDbEntity
  8
1
  6
Continuous
 62
     7
100
AcDbLine
 10
77.66818992780435
 20
108.312778952757
 30
0.0
 11
77.03598351355194
 21
107.6805725385047
 31
0.0
  0
ARC
  5
2CD
330
66
100
AcDbEntity
  8
1
  6
Continuous
 62
     7
100
AcDbCircle
 10
72.31060098805625
 20
107.3575251763613
 30
0.0
 40
0.9166465923391979
100
AcDbArc
 50
317.5005082888379
 51
44.99999999999498
  0
ARC
  5
2CE
330
66
100
AcDbEntity
  8
1
  6
Continuous
 62
     7
100
AcDbCircle
 10
71.63829322958125
 20
108.1039292450069
 30
0.0
 40
1.918994624692402
100
AcDbArc
 50
270.0
 51
314.629699151787
  0
ARC
  5
2CF
330
66
100
AcDbEntity
  8
1
  6
Continuous
 62
     7
100
AcDbCircle
 10
79.96106105440106
 20
107.3575251763613
 30
0.0
 40
0.9166465923390732
100
AcDbArc
 50
135.0
 51
222.4994917111621
  0
ARC
  5
2D0
330
66
100
AcDbEntity
  8
1
  6
Continuous
 62
     7
100
AcDbCircle
 10
80.63336881287606
 20
108.1039292450069
 30
0.0
 40
1.918994624692415
100
AcDbArc
 50
225.370300848213
 51
270.0
  0
ARC
  5
2D1
330
66
100
AcDbEntity
  8
1
  6
Continuous
 62
     7
100
AcDbCircle
 10
71.63829322958125
 20
103.5051199871523
 30
0.0
 40
1.918994624692486
100
AcDbArc
 50
45.37030084821506
 51
90.0
  0
ARC
  5
2D2
330
66
100
AcDbEntity
  8
1
  6
Continuous
 62
     7
100
AcDbCircle
 10
72.31060098805625
 20
104.251524055798
 30
0.0
 40
0.916646592339224
100
AcDbArc
 50
315.0000000000006
 51
42.49949171116143
  0
ARC
  5
2D3
330
66
100
AcDbEntity
  8
1
  6
Continuous
 62
     7
100
AcDbCircle
 10
79.96106105440106
 20
104.251524055798
 30
0.0
 40
0.9166465923391882
100
AcDbArc
 50
137.5005082888386
 51
225.0000000000044
  0
ARC
  5
2D4
330
66
100
AcDbEntity
  8
1
  6
Continuous
 62
     7
100
AcDbCircle
 10
80.63336881287606
 20
103.5051199871523
 30
0.0
 40
1.918994624692502
100
AcDbArc
 50
90.0
 51
134.629699151785
  0
SPLINE
  5
2D5
330
66
100
AcDbEntity
  8
1
  6
Continuous
 62
     7
100
AcDbSpline
210
0.0
220
0.0
230
1.0
 70
     8
 71
     3
 72
    43
 73
    39
 74
    37
 42
0.000000001
 43
0.0000000001
 44
0.00000001
 40
0.0
 40
0.0
 40
0.0
 40
0.0
 40
0.0448557901637735
 40
0.08952294445103
 40
0.1420251082514211
 40
0.1947532401612355
 40
0.2550487154287492
 40
0.3152379064367186
 40
0.3822477338288895
 40
0.4493013354605946
 40
0.5217835067269261
 40
0.5942519415059722
 40
0.6705157160778363
 40
0.7467846702036781
 40
0.8249938919557867
 40
0.9032018536925992
 40
0.9814103232138032
 40
1.059619074000485
 40
1.135885763744069
 40
1.212151681689416
 40
1.28462729418047
 40
1.357102770454501
 40
1.424135757138258
 40
1.491164191024463
 40
1.55140567623659
 40
1.611656884965176
 40
1.664277407453633
 40
1.71684952679972
 40
1.761592188488668
 40
1.806484764559255
 40
1.857965131830013
 40
1.908967480764565
 40
1.929576319566352
 40
1.950229041233091
 40
1.972260135517556
 40
1.994167368541257
 40
2.043389227994342
 40
2.093764128064834
 40
2.093764128064834
 40
2.093764128064834
 40
2.093764128064834
 10
74.52004663455605
 20
103.2128447993054
 30
0.0
 10
74.50937923684461
 20
103.2023685736065
 30
0.0
 10
74.4880892923072
 20
103.1814601887574
 30
0.0
 10
74.45232166032822
 20
103.1503243086946
 30
0.0
 10
74.41052261644631
 20
103.1226828264856
 30
0.0
 10
74.36173334642842
 20
103.0968377661643
 30
0.0
 10
74.30918676681978
 20
103.0728290934313
 30
0.0
 10
74.25087795136356
 20
103.0502383295264
 30
0.0
 10
74.18922045035185
 20
103.0303486331941
 30
0.0
 10
74.12266793613091
 20
103.012621503007
 30
0.0
 10
74.05361024750245
 20
102.9975101538639
 30
0.0
 10
73.98094449493853
 20
102.9848595012513
 30
0.0
 10
73.90657504979092
 20
102.9749948258828
 30
0.0
 10
73.8299731066229
 20
102.967873500576
 30
0.0
 10
73.75251166739949
 20
102.9635828604306
 30
0.0
 10
73.67429845542746
 20
102.9621613390485
 30
0.0
 10
73.59608565076977
 20
102.9635969275892
 30
0.0
 10
73.51862577987795
 20
102.9679033292041
 30
0.0
 10
73.44202585338667
 20
102.9750444297139
 30
0.0
 10
73.36765607127674
 20
102.9849228453921
 30
0.0
 10
73.29498902283537
 20
102.9975706093923
 30
0.0
 10
73.22594092833049
 20
103.0126982573353
 30
0.0
 10
73.1594102814984
 20
103.0304978752361
 30
0.0
 10
73.09773984897767
 20
103.0503899412808
 30
0.0
 10
73.0393524699993
 20
103.0727984572894
 30
0.0
 10
72.98685025502073
 20
103.0968538117418
 30
0.0
 10
72.93840243084438
 20
103.1232995845653
 30
0.0
 10
72.89657477196307
 20
103.1507747092105
 30
0.0
 10
72.8594260633299
 20
103.1803422855732
 30
0.0
 10
72.8262261859737
 20
103.213853699484
 30
0.0
 10
72.79735930020585
 20
103.2539376527293
 30
0.0
 10
72.78111128347729
 20
103.2922001281171
 30
0.0
 10
72.77527339200346
 20
103.3224688395987
 30
0.0
 10
72.77386414537159
 20
103.3435765233659
 30
0.0
 10
72.77527769654016
 20
103.3651249901338
 30
0.0
 10
72.78159393498781
 20
103.3956559867604
 30
0.0
 10
72.79956142032378
 20
103.4325619459374
 30
0.0
 10
72.81886295047207
 20
103.4595594467576
 30
0.0
 10
72.82862544643825
 20
103.4732144713909
 30
0.0
 11
74.52004663455605
 21
103.2128447993054
 31
0.0
 11
74.48772923352556
 21
103.1817380924759
 31
0.0
 11
74.45374023530465
 21
103.1527570205323
 31
0.0
 11
74.41016907938975
 21
103.1234648495145
 31
0.0
 11
74.36375203399155
 21
103.0984505788777
 31
0.0
 11
74.3089244474757
 21
103.0733611366864
 31
0.0
 11
74.25281627657745
 21
103.0515755480911
 31
0.0
 11
74.18907330745924
 21
103.0309079202394
 31
0.0
 11
74.12430368991517
 21
103.0135562022628
 31
0.0
 11
74.0535061707009
 21
102.9980199091829
 31
0.0
 11
73.98211906391995
 21
102.9855477399773
 31
0.0
 11
73.90652141168518
 21
102.9754899932614
 31
0.0
 11
73.83058260650375
 21
102.968401184188
 31
0.0
 11
73.75249357300575
 21
102.9640669946732
 31
0.0
 11
73.67429867624406
 21
102.9626375243161
 31
0.0
 11
73.59610353597265
 21
102.9640813837477
 31
0.0
 11
73.51801588127825
 21
102.9684318862502
 31
0.0
 11
73.44208100835249
 21
102.9755384344449
 31
0.0
 11
73.36648279524846
 21
102.985608211235
 31
0.0
 11
73.29508917106983
 21
102.9980847821751
 31
0.0
 11
73.22430367429425
 21
103.0136446053276
 31
0.0
 11
73.15956741331641
 21
103.0310410937128
 31
0.0
 11
73.09579855905986
 21
103.0516891968804
 31
0.0
 11
73.03959891551611
 21
103.0733833572724
 31
0.0
 11
72.98487201244487
 21
103.0985860202307
 31
0.0
 11
72.93875320107198
 21
103.1239232381505
 31
0.0
 11
72.89489448143655
 21
103.1529101391319
 31
0.0
 11
72.86004506545596
 21
103.1809712147672
 31
0.0
 11
72.82859988778375
 21
103.2130109427206
 31
0.0
 11
72.79891746946866
 21
103.255072590577
 31
0.0
 11
72.77959578359466
 21
103.3022733532929
 31
0.0
 11
72.77569828843443
 21
103.3225102937275
 31
0.0
 11
72.77433602487625
 21
103.3431180384129
 31
0.0
 11
72.77578761190615
 21
103.365101259414
 31
0.0
 11
72.78028229921304
 21
103.3865424499975
 31
0.0
 11
72.80050798207675
 21
103.4314168675614
 31
0.0
 11
72.82862544643825
 21
103.4732144713909
 31
0.0
  0
SPLINE
  5
2D6
330
66
100
AcDbEntity
  8
1
  6
Continuous
 62
     7
100
AcDbSpline
210
0.0
220
0.0
230
1.0
 70
     8
 71
     3
 72
    27
 73
    23
 74
    21
 42
0.000000001
 43
0.0000000001
 44
0.00000001
 40
0.0
 40
0.0
 40
0.0
 40
0.0
 40
0.0340794409749838
 40
0.0675402528098928
 40
0.1486179150034448
 40
0.2331829782177804
 40
0.3468645482932076
 40
0.4587323364806357
 40
0.5978897934231733
 40
0.737665840965649
 40
0.8922263830692775
 40
1.046563329381484
 40
1.200901780637788
 40
1.355460863749567
 40
1.495230670999085
 40
1.634394107566068
 40
1.74627773739559
 40
1.859945121254414
 40
1.944482087465474
 40
2.025576304278995
 40
2.058971125347583
 40
2.09297312198597
 40
2.09297312198597
 40
2.09297312198597
 40
2.09297312198597
 10
75.23583100560776
 20
103.1801861720807
 30
0.0
 10
75.23739135221007
 20
103.1689373454002
 30
0.0
 10
75.24048373505926
 20
103.1466438892449
 30
0.0
 10
75.25210640009051
 20
103.0982114254856
 30
0.0
 10
75.29065275274021
 20
103.0415562500242
 30
0.0
 10
75.36288419529279
 20
102.982330448371
 30
0.0
 10
75.45229338754827
 20
102.9294532571653
 30
0.0
 10
75.5652590115983
 20
102.8837996096648
 30
0.0
 10
75.69057612829391
 20
102.8474594053379
 30
0.0
 10
75.83263380384966
 20
102.8201434894016
 30
0.0
 10
75.98141739313034
 20
102.8034807716457
 30
0.0
 10
76.13586906196075
 20
102.7980771744915
 30
0.0
 10
76.29031919532703
 20
102.8035104514184
 30
0.0
 10
76.43909753143728
 20
102.820202125753
 30
0.0
 10
76.58114862123578
 20
102.8475497644075
 30
0.0
 10
76.70646310869148
 20
102.8839159452103
 30
0.0
 10
76.81942805374067
 20
102.9295769881924
 30
0.0
 10
76.90882160653211
 20
102.9824680336202
 30
0.0
 10
76.98099751657566
 20
103.0417543405155
 30
0.0
 10
77.01951389338309
 20
103.0983716764674
 30
0.0
 10
77.03123929030424
 20
103.1467307743296
 30
0.0
 10
77.034392641009
 20
103.1689675951689
 30
0.0
 10
77.03598351355194
 20
103.1801861720807
 30
0.0
 11
75.23583100560776
 21
103.1801861720807
 31
0.0
 11
75.24106952593344
 21
103.1465117526362
 31
0.0
 11
75.24951051636856
 21
103.1141331182423
 31
0.0
 11
75.29255691005831
 21
103.0454265337807
 31
0.0
 11
75.35642682642114
 21
102.9900019603296
 31
0.0
 11
75.45404441219839
 21
102.93174128766
 31
0.0
 11
75.55735078514834
 21
102.8888204878884
 31
0.0
 11
75.69086629648027
 21
102.8495979738327
 31
0.0
 11
75.82804799780587
 21
102.8227926797746
 31
0.0
 11
75.98163162332865
 21
102.8054424504587
 31
0.0
 11
76.13586838548176
 21
102.7998824641134
 31
0.0
 11
76.29010557603523
 21
102.8054722615203
 31
0.0
 11
76.44368426647736
 21
102.8228531510323
 31
0.0
 11
76.58085409014018
 21
102.8496866746862
 31
0.0
 11
76.71436850266596
 21
102.8889341366777
 31
0.0
 11
76.81768504532133
 21
102.9318717465991
 31
0.0
 11
76.91527258028935
 21
102.9901550789293
 31
0.0
 11
76.97908718566705
 21
103.0456004974716
 31
0.0
 11
77.02216450255764
 21
103.1143072382894
 31
0.0
 11
77.03065894035025
 21
103.146603661541
 31
0.0
 11
77.03598351355194
 21
103.1801861720807
 31
0.0
  0
SPLINE
  5
2D7
330
66
100
AcDbEntity
  8
1
  6
Continuous
 62
     7
100
AcDbSpline
210
0.0
220
0.0
230
1.0
 70
     8
 71
     3
 72
    43
 73
    39
 74
    37
 42
0.000000001
 43
0.0000000001
 44
0.00000001
 40
0.0
 40
0.0
 40
0.0
 40
0.0
 40
0.0448557901637633
 40
0.0895229444510306
 40
0.1420251082514729
 40
0.1947532401613364
 40
0.2550487154288502
 40
0.3152379064368195
 40
0.3822477338289499
 40
0.4493013354606137
 40
0.521783506726999
 40
0.5942519415060773
 40
0.6705157160779236
 40
0.7467846702037821
 40
0.8249938919558907
 40
0.9032018536927032
 40
0.9814103232139214
 40
1.059619074000589
 40
1.135885763744173
 40
1.21215168168952
 40
1.284627294180517
 40
1.357102770454494
 40
1.424135757138306
 40
1.491164191024564
 40
1.551405676236691
 40
1.611656884965277
 40
1.664277407453746
 40
1.716849526799825
 40
1.761592188488718
 40
1.806484764559275
 40
1.857965131830089
 40
1.908967480764648
 40
1.929576319566424
 40
1.950229041233159
 40
1.972260135517626
 40
1.994167368541322
 40
2.043389227994383
 40
2.093764128064844
 40
2.093764128064844
 40
2.093764128064844
 40
2.093764128064844
 10
77.75161540790114
 20
103.2128447993054
 30
0.0
 10
77.76228280561256
 20
103.2023685736065
 30
0.0
 10
77.78357275015
 20
103.1814601887574
 30
0.0
 10
77.819340382129
 20
103.1503243086947
 30
0.0
 10
77.8611394260109
 20
103.1226828264855
 30
0.0
 10
77.90992869602889
 20
103.0968377661644
 30
0.0
 10
77.96247527563756
 20
103.0728290934313
 30
0.0
 10
78.0207840910937
 20
103.0502383295264
 30
0.0
 10
78.08244159210541
 20
103.030348633194
 30
0.0
 10
78.14899410632634
 20
103.012621503007
 30
0.0
 10
78.21805179495479
 20
102.9975101538638
 30
0.0
 10
78.29071754751877
 20
102.9848595012514
 30
0.0
 10
78.3650869926664
 20
102.9749948258828
 30
0.0
 10
78.44168893583438
 20
102.967873500576
 30
0.0
 10
78.51915037505783
 20
102.9635828604307
 30
0.0
 10
78.59736358702985
 20
102.9621613390485
 30
0.0
 10
78.67557639168754
 20
102.9635969275892
 30
0.0
 10
78.75303626257936
 20
102.9679033292041
 30
0.0
 10
78.82963618907067
 20
102.9750444297139
 30
0.0
 10
78.90400597118052
 20
102.9849228453921
 30
0.0
 10
78.97667301962188
 20
102.9975706093923
 30
0.0
 10
79.04572111412676
 20
103.0126982573353
 30
0.0
 10
79.11225176095886
 20
103.0304978752361
 30
0.0
 10
79.17392219347964
 20
103.0503899412807
 30
0.0
 10
79.232309572458
 20
103.0727984572894
 30
0.0
 10
79.2848117874366
 20
103.0968538117418
 30
0.0
 10
79.33325961161295
 20
103.1232995845652
 30
0.0
 10
79.37508727049422
 20
103.1507747092104
 30
0.0
 10
79.4122359791273
 20
103.1803422855732
 30
0.0
 10
79.44543585648353
 20
103.2138536994841
 30
0.0
 10
79.47430274225142
 20
103.2539376527292
 30
0.0
 10
79.49055075898005
 20
103.2922001281171
 30
0.0
 10
79.49638865045381
 20
103.3224688395987
 30
0.0
 10
79.49779789708563
 20
103.3435765233659
 30
0.0
 10
79.496384345917
 20
103.3651249901338
 30
0.0
 10
79.49006810746938
 20
103.3956559867603
 30
0.0
 10
79.47210062213342
 20
103.4325619459374
 30
0.0
 10
79.45279909198524
 20
103.4595594467576
 30
0.0
 10
79.44303659601906
 20
103.4732144713909
 30
0.0
 11
77.75161540790114
 21
103.2128447993054
 31
0.0
 11
77.78393280893162
 21
103.1817380924759
 31
0.0
 11
77.81792180715254
 21
103.1527570205323
 31
0.0
 11
77.86149296306749
 21
103.1234648495144
 31
0.0
 11
77.90791000846576
 21
103.0984505788777
 31
0.0
 11
77.9627375949816
 21
103.0733611366864
 31
0.0
 11
78.01884576587986
 21
103.0515755480911
 31
0.0
 11
78.08258873499803
 21
103.0309079202394
 31
0.0
 11
78.14735835254206
 21
103.0135562022628
 31
0.0
 11
78.21815587175637
 21
102.9980199091829
 31
0.0
 11
78.28954297853736
 21
102.9855477399773
 31
0.0
 11
78.36514063077212
 21
102.9754899932614
 31
0.0
 11
78.44107943595355
 21
102.968401184188
 31
0.0
 11
78.51916846945156
 21
102.9640669946732
 31
0.0
 11
78.59736336621324
 21
102.9626375243161
 31
0.0
 11
78.67555850648468
 21
102.9640813837477
 31
0.0
 11
78.75364616117906
 21
102.9684318862502
 31
0.0
 11
78.82958103410482
 21
102.9755384344449
 31
0.0
 11
78.90517924720885
 21
102.985608211235
 31
0.0
 11
78.97657287138742
 21
102.9980847821751
 31
0.0
 11
79.04735836816295
 21
103.0136446053276
 31
0.0
 11
79.11209462914084
 21
103.0310410937128
 31
0.0
 11
79.17586348339745
 21
103.0516891968804
 31
0.0
 11
79.2320631269412
 21
103.0733833572724
 31
0.0
 11
79.28679003001244
 21
103.0985860202307
 31
0.0
 11
79.33290884138536
 21
103.1239232381505
 31
0.0
 11
79.37676756102076
 21
103.1529101391319
 31
0.0
 11
79.41161697700127
 21
103.1809712147672
 31
0.0
 11
79.44306215467344
 21
103.2130109427206
 31
0.0
 11
79.47274457298863
 21
103.255072590577
 31
0.0
 11
79.49206625886265
 21
103.3022733532929
 31
0.0
 11
79.49596375402282
 21
103.3225102937275
 31
0.0
 11
79.49732601758095
 21
103.3431180384129
 31
0.0
 11
79.49587443055101
 21
103.365101259414
 31
0.0
 11
79.49137974324415
 21
103.3865424499975
 31
0.0
 11
79.4711540603805
 21
103.4314168675614
 31
0.0
 11
79.44303659601906
 21
103.4732144713909
 31
0.0
  0
SPLINE
  5
2D8
330
66
100
AcDbEntity
  8
1
  6
Continuous
 62
     7
100
AcDbSpline
210
0.0
220
0.0
230
1.0
 70
     8
 71
     3
 72
    41
 73
    37
 74
    35
 42
0.000000001
 43
0.0000000001
 44
0.00000001
 40
0.0
 40
0.0
 40
0.0
 40
0.0
 40
0.0729288036756531
 40
0.1458278634705054
 40
0.2220831371645063
 40
0.2983654586368685
 40
0.3708466255314002
 40
0.4433152243474971
 40
0.5103449923835909
 40
0.5773771529836419
 40
0.6376245804700599
 40
0.6978691614447582
 40
0.7504693655677539
 40
0.8030639565728254
 40
0.8478791180745383
 40
0.8926919057563456
 40
0.9307529080024308
 40
0.9687649982676004
 40
1.002688508119361
 40
1.036543066964911
 40
1.070397470691141
 40
1.104321114879345
 40
1.142333938195907
 40
1.180394324779441
 40
1.222230617126831
 40
1.264055526364948
 40
1.310191711648156
 40
1.356333454697255
 40
1.426004524433052
 40
1.495712726976171
 40
1.625131683998884
 40
1.754651194938246
 40
1.840966285748861
 40
1.927202321083067
 40
2.000131704865386
 40
2.073101510382962
 40
2.073101510382962
 40
2.073101510382962
 40
2.073101510382962
 10
69.92528721339696
 20
105.4241146118448
 30
0.0
 10
69.90098544742904
 20
105.4247307596053
 30
0.0
 10
69.85239182722458
 20
105.425962814104
 30
0.0
 10
69.77843157861571
 20
105.4294604907187
 30
0.0
 10
69.70357709873124
 20
105.4363743677051
 30
0.0
 10
69.62922839191049
 20
105.4464273211889
 30
0.0
 10
69.55655826528135
 20
105.4590746241095
 30
0.0
 10
69.48749860510802
 20
105.4741429517069
 30
0.0
 10
69.42096394843092
 20
105.4919216143917
 30
0.0
 10
69.35929106077715
 20
105.5118137622373
 30
0.0
 10
69.30090420166832
 20
105.5342261700062
 30
0.0
 10
69.24840149728368
 20
105.5582614807492
 30
0.0
 10
69.19992915921625
 20
105.5846579829336
 30
0.0
 10
69.15807939062654
 20
105.6121536083361
 30
0.0
 10
69.12099526043224
 20
105.6418053816894
 30
0.0
 10
69.09090985054075
 20
105.6720819911859
 30
0.0
 10
69.06642540502156
 20
105.7042370643883
 30
0.0
 10
69.04899497917567
 20
105.7367291362397
 30
0.0
 10
69.03835876409204
 20
105.7705558149758
 30
0.0
 10
69.03457008986364
 20
105.8044790696166
 30
0.0
 10
69.03835219672538
 20
105.8384031035073
 30
0.0
 10
69.04898192222215
 20
105.8722320604572
 30
0.0
 10
69.06640481576193
 20
105.9047280293802
 30
0.0
 10
69.09028139193293
 20
105.9360964689975
 30
0.0
 10
69.1188111126136
 20
105.9650847446644
 30
0.0
 10
69.15235857673666
 20
105.992506047523
 30
0.0
 10
69.18934490561503
 20
106.0177027428637
 30
0.0
 10
69.23617492189582
 20
106.0446343384243
 30
0.0
 10
69.29204951725185
 20
106.0713166353756
 30
0.0
 10
69.37563018345172
 20
106.103761777601
 30
0.0
 10
69.48091729288656
 20
106.1347261782626
 30
0.0
 10
69.59385205397109
 20
106.1574163414756
 30
0.0
 10
69.69354480090765
 20
106.1717504230601
 30
0.0
 10
69.77504489112154
 20
106.1794893892396
 30
0.0
 10
69.85235355869479
 20
106.1831136557017
 30
0.0
 10
69.90097150515648
 20
106.1843275234278
 30
0.0
 10
69.92528721339696
 20
106.1849346203145
 30
0.0
 11
69.92528721339696
 21
105.4241146118448
 31
0.0
 11
69.85238906916965
 21
105.4262293290848
 31
0.0
 11
69.77958446847884
 21
105.4299391956127
 31
0.0
 11
69.70364824813434
 21
105.4369075010901
 31
0.0
 11
69.62804801106265
 21
105.447085751402
 31
0.0
 11
69.55665178966886
 21
105.4595797164908
 31
0.0
 11
69.48586338506746
 21
105.4750942136876
 31
0.0
 11
69.42112419595945
 21
105.4924673891683
 31
0.0
 11
69.35735079840515
 21
105.5131135595158
 31
0.0
 11
69.30114533416585
 21
105.5348091428239
 31
0.0
 11
69.24641504099105
 21
105.5599885903025
 31
0.0
 11
69.20029603126245
 21
105.5852832229492
 31
0.0
 11
69.15642683967795
 21
105.614295031957
 31
0.0
 11
69.12155780248163
 21
105.6424472782286
 31
0.0
 11
69.09012044042655
 21
105.6743828107302
 31
0.0
 11
69.06725486371903
 21
105.7048098598615
 31
0.0
 11
69.04951052962537
 21
105.7384261898697
 31
0.0
 11
69.03942595633893
 21
105.7708160946058
 31
0.0
 11
69.03583101886454
 21
105.8044792437081
 31
0.0
 11
69.0394194179531
 21
105.8381429344139
 31
0.0
 11
69.04949755315636
 21
105.8705349836289
 31
0.0
 11
69.06723502000011
 21
105.9041557664242
 31
0.0
 11
69.09009488177205
 21
105.9345863394004
 31
0.0
 11
69.1193174477371
 21
105.9645248934981
 31
0.0
 11
69.15158923097195
 21
105.9911304391879
 31
0.0
 11
69.18965152266172
 21
106.0172035971637
 31
0.0
 11
69.22959186324485
 21
106.0403083513479
 31
0.0
 11
69.29237841624902
 21
106.0705061453155
 31
0.0
 11
69.35729355304815
 21
106.0959080852406
 31
0.0
 11
69.48132111089046
 21
106.1328733587499
 31
0.0
 11
69.60821180357885
 21
106.1588359460288
 31
0.0
 11
69.69365598773314
 21
106.1710664964596
 31
0.0
 11
69.77951087526645
 21
106.1791653958708
 31
0.0
 11
69.85234726452317
 21
106.182847174149
 31
0.0
 11
69.92528721339696
 21
106.1849346203145
 31
0.0
  0
SPLINE
  5
2D9
330
66
100
AcDbEntity
  8
1
  6
Continuous
 62
     7
100
AcDbSpline
210
0.0
220
0.0
230
1.0
 70
     8
 71
     3
 72
    41
 73
    37
 74
    35
 42
0.000000001
 43
0.0000000001
 44
0.00000001
 40
0.0
 40
0.0
 40
0.0
 40
0.0
 40
0.0729288036756673
 40
0.1458278634705054
 40
0.2220831371645063
 40
0.2983654586368685
 40
0.3708466255314002
 40
0.4433152243474971
 40
0.5103449923836045
 40
0.577377152983642
 40
0.63762458047006
 40
0.6978691614447583
 40
0.750469365567754
 40
0.8030639565728255
 40
0.8478791180745274
 40
0.8926919057563447
 40
0.9307529080024385
 40
0.9687649982676015
 40
1.002688508119362
 40
1.036543066964912
 40
1.070397470691145
 40
1.104321114879366
 40
1.142333938195935
 40
1.180394324779477
 40
1.222230617126807
 40
1.264055526364898
 40
1.310191711648142
 40
1.356333454697302
 40
1.426004524433061
 40
1.495712726976113
 40
1.625131683998876
 40
1.754651194938302
 40
1.84096628574886
 40
1.92720232108301
 40
2.000131704865314
 40
2.073101510382904
 40
2.073101510382904
 40
2.073101510382904
 40
2.073101510382904
 10
82.34637482906035
 20
105.4241146118448
 30
0.0
 10
82.37067659502826
 20
105.4247307596053
 30
0.0
 10
82.41927021523276
 20
105.425962814104
 30
0.0
 10
82.49323046384156
 20
105.4294604907187
 30
0.0
 10
82.56808494372608
 20
105.4363743677051
 30
0.0
 10
82.64243365054676
 20
105.446427321189
 30
0.0
 10
82.71510377717598
 20
105.4590746241095
 30
0.0
 10
82.7841634373493
 20
105.4741429517069
 30
0.0
 10
82.85069809402637
 20
105.4919216143917
 30
0.0
 10
82.91237098168016
 20
105.5118137622373
 30
0.0
 10
82.97075784078899
 20
105.5342261700063
 30
0.0
 10
83.0232605451736
 20
105.5582614807492
 30
0.0
 10
83.07173288324105
 20
105.5846579829336
 30
0.0
 10
83.11358265183078
 20
105.6121536083361
 30
0.0
 10
83.15066678202507
 20
105.6418053816894
 30
0.0
 10
83.18075219191653
 20
105.6720819911859
 30
0.0
 10
83.2052366374358
 20
105.7042370643883
 30
0.0
 10
83.22266706328162
 20
105.7367291362397
 30
0.0
 10
83.23330327836527
 20
105.7705558149758
 30
0.0
 10
83.23709195259367
 20
105.8044790696166
 30
0.0
 10
83.23330984573195
 20
105.8384031035073
 30
0.0
 10
83.22268012023501
 20
105.8722320604572
 30
0.0
 10
83.20525722669531
 20
105.9047280293802
 30
0.0
 10
83.18138065052426
 20
105.9360964689976
 30
0.0
 10
83.15285092984362
 20
105.9650847446643
 30
0.0
 10
83.11930346572065
 20
105.9925060475231
 30
0.0
 10
83.08231713684224
 20
106.0177027428637
 30
0.0
 10
83.03548712056138
 20
106.0446343384243
 30
0.0
 10
82.9796125252054
 20
106.0713166353756
 30
0.0
 10
82.89603185900557
 20
106.103761777601
 30
0.0
 10
82.7907447495707
 20
106.1347261782626
 30
0.0
 10
82.67780998848615
 20
106.1574163414756
 30
0.0
 10
82.57811724154965
 20
106.1717504230601
 30
0.0
 10
82.49661715133574
 20
106.1794893892396
 30
0.0
 10
82.41930848376256
 20
106.1831136557016
 30
0.0
 10
82.37069053730083
 20
106.1843275234278
 30
0.0
 10
82.34637482906035
 20
106.1849346203145
 30
0.0
 11
82.34637482906035
 21
105.4241146118448
 31
0.0
 11
82.41927297328768
 21
105.4262293290848
 31
0.0
 11
82.49207757397846
 21
105.4299391956127
 31
0.0
 11
82.56801379432297
 21
105.4369075010901
 31
0.0
 11
82.64361403139466
 21
105.447085751402
 31
0.0
 11
82.71501025278845
 21
105.4595797164908
 31
0.0
 11
82.78579865738985
 21
105.4750942136876
 31
0.0
 11
82.85053784649787
 21
105.4924673891683
 31
0.0
 11
82.91431124405216
 21
105.5131135595158
 31
0.0
 11
82.97051670829146
 21
105.5348091428239
 31
0.0
 11
83.02524700146625
 21
105.5599885903025
 31
0.0
 11
83.07136601119485
 21
105.5852832229492
 31
0.0
 11
83.11523520277936
 21
105.614295031957
 31
0.0
 11
83.15010423997566
 21
105.6424472782286
 31
0.0
 11
83.18154160203076
 21
105.6743828107302
 31
0.0
 11
83.2044071787383
 21
105.7048098598615
 31
0.0
 11
83.22215151283194
 21
105.7384261898697
 31
0.0
 11
83.23223608611838
 21
105.7708160946058
 31
0.0
 11
83.23583102359277
 21
105.8044792437081
 31
0.0
 11
83.23224262450418
 21
105.8381429344139
 31
0.0
 11
83.22216448930087
 21
105.8705349836289
 31
0.0
 11
83.2044270224571
 21
105.9041557664242
 31
0.0
 11
83.18156716068515
 21
105.9345863394004
 31
0.0
 11
83.15234459472015
 21
105.9645248934981
 31
0.0
 11
83.12007281148536
 21
105.9911304391879
 31
0.0
 11
83.08201051979555
 21
106.0172035971637
 31
0.0
 11
83.04207017921235
 21
106.0403083513479
 31
0.0
 11
82.97928362620821
 21
106.0705061453155
 31
0.0
 11
82.91436848940916
 21
106.0959080852406
 31
0.0
 11
82.7903409315668
 21
106.13287335875
 31
0.0
 11
82.66345023887834
 21
106.1588359460288
 31
0.0
 11
82.57800605472411
 21
106.1710664964596
 31
0.0
 11
82.49215116719085
 21
106.1791653958708
 31
0.0
 11
82.41931477793415
 21
106.182847174149
 31
0.0
 11
82.34637482906035
 21
106.1849346203145
 31
0.0
  0
ENDBLK
  5
68
330
66
100
AcDbEntity
  8
0
100
AcDbBlockEnd
  0
BLOCK
  5
2F6
330
2EF
100
AcDbEntity
  8
0
100
AcDbBlockBegin
  2
*D11
 70
     1
 10
0.0
 20
0.0
 30
0.0
  3
*D11
  1

  0
LINE
  5
2F0
330
2EF
100
AcDbEntity
  8
1
  6
Continuous
 62
     2
100
AcDbLine
 10
113.9366650722591
 20
145.3753419286553
 30
0.0
 11
113.9366650722591
 21
105.4646450262339
 31
0.0
  0
LINE
  5
2F1
330
2EF
100
AcDbEntity
  8
1
  6
Continuous
 62
     2
100
AcDbLine
 10
166.803157814988
 20
145.3753419286553
 30
0.0
 11
112.4366650722591
 21
145.3753419286553
 31
0.0
  0
LINE
  5
2F2
330
2EF
100
AcDbEntity
  8
1
  6
Continuous
 62
     2
100
AcDbLine
 10
129.080386382861
 20
105.4646450262339
 30
0.0
 11
112.4366650722591
 21
105.4646450262339
 31
0.0
  0
SOLID
  5
2F3
330
2EF
100
AcDbEntity
  8
1
 62
     2
100
AcDbTrace
 10
114.6278406845929
 20
140.1253419286553
 30
0.0
 11
113.2454894599253
 21
140.1253419286553
 31
0.0
 12
113.9366650722591
 22
145.3753419286553
 32
0.0
 13
113.9366650722591
 23
145.3753419286553
 33
0.0
  0
SOLID
  5
2F4
330
2EF
100
AcDbEntity
  8
1
 62
     2
100
AcDbTrace
 10
113.2454894599253
 20
110.7146450262339
 30
0.0
 11
114.6278406845929
 21
110.7146450262339
 31
0.0
 12
113.9366650722591
 22
105.4646450262339
 32
0.0
 13
113.9366650722591
 23
105.4646450262339
 33
0.0
  0
MTEXT
  5
2F5
330
2EF
100
AcDbEntity
  8
1
 62
     7
100
AcDbMText
 10
112.4366650722591
 20
121.4824934774446
 30
0.0
 40
5.25
 41
0.0
 71
     7
 72
     1
  1
40
  7
CONVERTER_12
 11
0.0
 21
1.0
 31
0.0
 73
     1
 44
0.60024009603842
  0
ENDBLK
  5
2F7
330
2EF
100
AcDbEntity
  8
0
100
AcDbBlockEnd
  0
BLOCK
  5
302
330
2FA
100
AcDbEntity
  8
0
100
AcDbBlockBegin
  2
*D12
 70
     1
 10
0.0
 20
0.0
 30
0.0
  3
*D12
  1

  0
LINE
  5
2FB
330
2FA
100
AcDbEntity
  8
1
  6
Continuous
 62
     2
100
AcDbLine
 10
162.6461307753123
 20
159.3753419286554
 30
0.0
 11
162.6461307753123
 21
171.9268663140911
 31
0.0
  0
LINE
  5
2FC
330
2FA
100
AcDbEntity
  8
1
  6
Continuous
 62
     2
100
AcDbLine
 10
162.6461307753123
 20
131.3753419286554
 30
0.0
 11
162.6461307753123
 21
159.3753419286554
 31
0.0
  0
LINE
  5
2FD
330
2FA
100
AcDbEntity
  8
1
  6
Continuous
 62
     2
100
AcDbLine
 10
173.3545535280942
 20
131.3753419286554
 30
0.0
 11
161.1461307753123
 21
131.3753419286554
 31
0.0
  0
LINE
  5
2FE
330
2FA
100
AcDbEntity
  8
1
  6
Continuous
 62
     2
100
AcDbLine
 10
173.3545535280942
 20
159.3753419286554
 30
0.0
 11
161.1461307753123
 21
159.3753419286554
 31
0.0
  0
SOLID
  5
2FF
330
2FA
100
AcDbEntity
  8
1
 62
     2
100
AcDbTrace
 10
161.9549551629785
 20
136.6253419286554
 30
0.0
 11
163.3373063876461
 21
136.6253419286554
 31
0.0
 12
162.6461307753123
 22
131.3753419286554
 32
0.0
 13
162.6461307753123
 23
131.3753419286554
 33
0.0
  0
SOLID
  5
300
330
2FA
100
AcDbEntity
  8
1
 62
     2
100
AcDbTrace
 10
163.3373063876461
 20
154.1253419286554
 30
0.0
 11
161.9549551629785
 21
154.1253419286554
 31
0.0
 12
162.6461307753123
 22
159.3753419286554
 32
0.0
 13
162.6461307753123
 23
159.3753419286554
 33
0.0
  0
MTEXT
  5
301
330
2FA
100
AcDbEntity
  8
1
 62
     7
100
AcDbMText
 10
161.1461307753123
 20
164.0518663140911
 30
0.0
 40
5.25
 41
0.0
 71
     7
 72
     1
  1
28
  7
CONVERTER_12
 11
0.0
 21
1.0
 31
0.0
 73
     1
 44
0.60024009603842
  0
ENDBLK
  5
303
330
2FA
100
AcDbEntity
  8
0
100
AcDbBlockEnd
  0
BLOCK
  5
30D
330
306
100
AcDbEntity
  8
0
100
AcDbBlockBegin
  2
*D13
 70
     1
 10
0.0
 20
0.0
 30
0.0
  3
*D13
  1

  0
LINE
  5
307
330
306
100
AcDbEntity
  8
0
  6
Continuous
 62
     2
100
AcDbLine
 10
280.0677307778071
 20
168.3774710520819
 30
0.0
 11
280.0677307778071
 21
122.3774710520819
 31
0.0
  0
LINE
  5
308
330
306
100
AcDbEntity
  8
0
  6
Continuous
 62
     2
100
AcDbLine
 10
251.0677307778072
 20
122.3774710520819
 30
0.0
 11
281.5677307778071
 21
122.3774710520819
 31
0.0
  0
LINE
  5
309
330
306
100
AcDbEntity
  8
0
  6
Continuous
 62
     2
100
AcDbLine
 10
251.0677307778072
 20
168.3774710520818
 30
0.0
 11
281.5677307778071
 21
168.3774710520818
 31
0.0
  0
SOLID
  5
30A
330
306
100
AcDbEntity
  8
0
 62
     2
100
AcDbTrace
 10
280.758906390141
 20
163.1274710520819
 30
0.0
 11
279.3765551654733
 21
163.1274710520819
 31
0.0
 12
280.0677307778071
 22
168.3774710520819
 32
0.0
 13
280.0677307778071
 23
168.3774710520819
 33
0.0
  0
SOLID
  5
30B
330
306
100
AcDbEntity
  8
0
 62
     2
100
AcDbTrace
 10
279.3765551654733
 20
127.6274710520819
 30
0.0
 11
280.758906390141
 21
127.6274710520819
 31
0.0
 12
280.0677307778071
 22
122.3774710520819
 32
0.0
 13
280.0677307778071
 23
122.3774710520819
 33
0.0
  0
MTEXT
  5
30C
330
306
100
AcDbEntity
  8
0
 62
     7
100
AcDbMText
 10
278.5677307778071
 20
140.2849710520818
 30
0.0
 40
5.25
 41
0.0
 71
     7
 72
     1
  1
\C7;{\Fgdt;n}\C7;46
  7
CONVERTER_12
 11
0.0
 21
1.0
 31
0.0
 73
     1
 44
0.60024009603842
  0
ENDBLK
  5
30E
330
306
100
AcDbEntity
  8
0
100
AcDbBlockEnd
  0
BLOCK
  5
318
330
311
100
AcDbEntity
  8
0
100
AcDbBlockBegin
  2
*D14
 70
     1
 10
0.0
 20
0.0
 30
0.0
  3
*D14
  1

  0
LINE
  5
312
330
311
100
AcDbEntity
  8
0
  6
Continuous
 62
     2
100
AcDbLine
 10
251.0677307778072
 20
86.99439583472987
 30
0.0
 11
265.0677307778072
 21
86.99439583472987
 31
0.0
  0
LINE
  5
313
330
311
100
AcDbEntity
  8
0
  6
Continuous
 62
     2
100
AcDbLine
 10
265.0677307778072
 20
86.99439583472987
 30
0.0
 11
274.0677307778072
 21
86.99439583472987
 31
0.0
  0
LINE
  5
314
330
311
100
AcDbEntity
  8
0
  6
Continuous
 62
     2
100
AcDbLine
 10
251.0677307778072
 20
122.3774710520819
 30
0.0
 11
251.0677307778072
 21
85.49439583472987
 31
0.0
  0
LINE
  5
315
330
311
100
AcDbEntity
  8
0
  6
Continuous
 62
     2
100
AcDbLine
 10
265.0677307778072
 20
135.8774710520818
 30
0.0
 11
265.0677307778072
 21
85.49439583472987
 31
0.0
  0
SOLID
  5
316
330
311
100
AcDbEntity
  8
0
 62
     2
100
AcDbTrace
 10
269.5677307778072
 20
87.58683207387315
 30
0.0
 11
269.5677307778072
 21
86.40195959558659
 31
0.0
 12
265.0677307778072
 22
86.99439583472987
 32
0.0
 13
265.0677307778072
 23
86.99439583472987
 33
0.0
  0
MTEXT
  5
317
330
311
100
AcDbEntity
  8
0
 62
     7
100
AcDbMText
 10
254.9177307778071
 20
88.49439583472987
 30
0.0
 40
5.25
 41
0.0
 71
     7
 72
     1
  1
14
  7
CONVERTER_12
 11
0.9999999999970619
 21
2.424068405545306E-6
 31
0.0
 73
     1
 44
0.60024009603842
  0
ENDBLK
  5
319
330
311
100
AcDbEntity
  8
0
100
AcDbBlockEnd
  0
BLOCK
  5
31B
330
31A
100
AcDbEntity
  8
0
100
AcDbBlockBegin
  2
_NONE
 70
     0
 10
0.0
 20
0.0
 30
0.0
  3
_NONE
  1

  0
ENDBLK
  5
31C
330
31A
100
AcDbEntity
  8
0
100
AcDbBlockEnd
  0
BLOCK
  5
326
330
31F
100
AcDbEntity
  8
0
100
AcDbBlockBegin
  2
*D16
 70
     1
 10
0.0
 20
0.0
 30
0.0
  3
*D16
  1

  0
LINE
  5
320
330
31F
100
AcDbEntity
  8
0
  6
Continuous
 62
     2
100
AcDbLine
 10
206.0677307778073
 20
86.99439583472987
 30
0.0
 11
251.0677307778073
 21
86.99439583472987
 31
0.0
  0
LINE
  5
321
330
31F
100
AcDbEntity
  8
0
  6
Continuous
 62
     2
100
AcDbLine
 10
206.0677307778072
 20
129.9220056578701
 30
0.0
 11
206.0677307778072
 21
85.49439583472987
 31
0.0
  0
LINE
  5
322
330
31F
100
AcDbEntity
  8
0
  6
Continuous
 62
     2
100
AcDbLine
 10
251.0677307778072
 20
122.3774710520819
 30
0.0
 11
251.0677307778072
 21
85.49439583472987
 31
0.0
  0
SOLID
  5
323
330
31F
100
AcDbEntity
  8
0
 62
     2
100
AcDbTrace
 10
211.3177307778073
 20
87.6855714470637
 30
0.0
 11
211.3177307778073
 21
86.30322022239605
 31
0.0
 12
206.0677307778073
 22
86.99439583472987
 32
0.0
 13
206.0677307778073
 23
86.99439583472987
 33
0.0
  0
SOLID
  5
324
330
31F
100
AcDbEntity
  8
0
 62
     2
100
AcDbTrace
 10
245.8177307778073
 20
86.30322022239605
 30
0.0
 11
245.8177307778073
 21
87.6855714470637
 31
0.0
 12
251.0677307778073
 22
86.99439583472987
 32
0.0
 13
251.0677307778073
 23
86.99439583472987
 33
0.0
  0
MTEXT
  5
325
330
31F
100
AcDbEntity
  8
0
 62
     7
100
AcDbMText
 10
224.6302307778072
 20
88.49439583472987
 30
0.0
 40
5.25
 41
0.0
 71
     7
 72
     1
  1
45
  7
CONVERTER_12
 11
0.9999999999970619
 21
2.424068405545306E-6
 31
0.0
 73
     1
 44
0.60024009603842
  0
ENDBLK
  5
327
330
31F
100
AcDbEntity
  8
0
100
AcDbBlockEnd
  0
BLOCK
  5
331
330
32A
100
AcDbEntity
  8
0
100
AcDbBlockBegin
  2
*D17
 70
     1
 10
0.0
 20
0.0
 30
0.0
  3
*D17
  1

  0
LINE
  5
32B
330
32A
100
AcDbEntity
  8
0
  6
Continuous
 62
     2
100
AcDbLine
 10
129.0387436645634
 20
86.99439583472987
 30
0.0
 11
206.0677307778073
 21
86.99439583472987
 31
0.0
  0
LINE
  5
32C
330
32A
100
AcDbEntity
  8
0
  6
Continuous
 62
     2
100
AcDbLine
 10
129.0387436645634
 20
105.3753419286554
 30
0.0
 11
129.0387436645634
 21
85.49439583472987
 31
0.0
  0
LINE
  5
32D
330
32A
100
AcDbEntity
  8
0
  6
Continuous
 62
     2
100
AcDbLine
 10
206.0677307778073
 20
129.9220056578701
 30
0.0
 11
206.0677307778073
 21
85.49439583472987
 31
0.0
  0
SOLID
  5
32E
330
32A
100
AcDbEntity
  8
0
 62
     2
100
AcDbTrace
 10
134.2887436645634
 20
87.6855714470637
 30
0.0
 11
134.2887436645634
 21
86.30322022239605
 31
0.0
 12
129.0387436645634
 22
86.99439583472987
 32
0.0
 13
129.0387436645634
 23
86.99439583472987
 33
0.0
  0
SOLID
  5
32F
330
32A
100
AcDbEntity
  8
0
 62
     2
100
AcDbTrace
 10
200.8177307778073
 20
86.30322022239605
 30
0.0
 11
200.8177307778073
 21
87.6855714470637
 31
0.0
 12
206.0677307778073
 22
86.99439583472987
 32
0.0
 13
206.0677307778073
 23
86.99439583472987
 33
0.0
  0
MTEXT
  5
330
330
32A
100
AcDbEntity
  8
0
 62
     7
100
AcDbMText
 10
163.6365585803341
 20
88.49439583472987
 30
0.0
 40
5.25
 41
0.0
 71
     7
 72
     1
  1
77
  7
CONVERTER_12
 11
0.9999999999970619
 21
2.424068405545306E-6
 31
0.0
 73
     1
 44
0.60024009603842
  0
ENDBLK
  5
332
330
32A
100
AcDbEntity
  8
0
100
AcDbBlockEnd
  0
BLOCK
  5
33C
330
335
100
AcDbEntity
  8
0
100
AcDbBlockBegin
  2
*D18
 70
     1
 10
0.0
 20
0.0
 30
0.0
  3
*D18
  1

  0
LINE
  5
336
330
335
100
AcDbEntity
  8
1
  6
Continuous
 62
     2
100
AcDbLine
 10
113.9366650722591
 20
203.3753419286553
 30
0.0
 11
113.9366650722591
 21
145.3753419286554
 31
0.0
  0
LINE
  5
337
330
335
100
AcDbEntity
  8
1
  6
Continuous
 62
     2
100
AcDbLine
 10
166.803157814988
 20
145.3753419286554
 30
0.0
 11
112.4366650722591
 21
145.3753419286554
 31
0.0
  0
LINE
  5
338
330
335
100
AcDbEntity
  8
1
  6
Continuous
 62
     2
100
AcDbLine
 10
206.0677307778072
 20
203.3753419286553
 30
0.0
 11
112.4366650722591
 21
203.3753419286553
 31
0.0
  0
SOLID
  5
339
330
335
100
AcDbEntity
  8
1
 62
     2
100
AcDbTrace
 10
114.6278406845929
 20
198.1253419286553
 30
0.0
 11
113.2454894599253
 21
198.1253419286553
 31
0.0
 12
113.9366650722591
 22
203.3753419286553
 32
0.0
 13
113.9366650722591
 23
203.3753419286553
 33
0.0
  0
SOLID
  5
33A
330
335
100
AcDbEntity
  8
1
 62
     2
100
AcDbTrace
 10
113.2454894599253
 20
150.6253419286554
 30
0.0
 11
114.6278406845929
 21
150.6253419286554
 31
0.0
 12
113.9366650722591
 22
145.3753419286554
 32
0.0
 13
113.9366650722591
 23
145.3753419286554
 33
0.0
  0
MTEXT
  5
33B
330
335
100
AcDbEntity
  8
1
 62
     7
100
AcDbMText
 10
112.4366650722591
 20
160.2003419286554
 30
0.0
 40
5.25
 41
0.0
 71
     7
 72
     1
  1
58リフト5
  7
CONVERTER_11
 11
0.0
 21
1.0
 31
0.0
 73
     1
 44
0.45454545454545
  0
ENDBLK
  5
33D
330
335
100
AcDbEntity
  8
0
100
AcDbBlockEnd
  0
BLOCK
  5
348
330
340
100
AcDbEntity
  8
0
100
AcDbBlockBegin
  2
*D19
 70
     1
 10
0.0
 20
0.0
 30
0.0
  3
*D19
  1

  0
LINE
  5
341
330
340
100
AcDbEntity
  8
1
  6
Continuous
 62
     2
100
AcDbLine
 10
91.82308584754007
 20
96.9296691845574
 30
0.0
 11
111.725192430901
 21
87.64916447131945
 31
0.0
  0
LINE
  5
342
330
340
100
AcDbEntity
  8
1
  6
Continuous
 62
     2
100
AcDbLine
 10
111.725192430901
 20
87.64916447131945
 30
0.0
 11
126.5886401383021
 21
80.71822497877216
 31
0.0
  0
LINE
  5
343
330
340
100
AcDbEntity
  8
1
  6
Continuous
 62
     2
100
AcDbLine
 10
122.6635654652145
 20
111.1065811425207
 30
0.0
 11
111.0912650382899
 21
86.28970279076447
 31
0.0
  0
LINE
  5
344
330
340
100
AcDbEntity
  8
1
  6
Continuous
 62
     2
100
AcDbLine
 10
137.5270131726156
 20
104.1756416499734
 30
0.0
 11
125.954712745691
 21
79.35876329821717
 31
0.0
  0
SOLID
  5
345
330
340
100
AcDbEntity
  8
1
 62
     2
100
AcDbTrace
 10
116.7754117486855
 20
86.05683643684877
 30
0.0
 11
116.1912048770013
 21
84.80400075751282
 31
0.0
 12
111.725192430901
 22
87.64916447131945
 32
0.0
 13
111.725192430901
 23
87.64916447131945
 33
0.0
  0
SOLID
  5
346
330
340
100
AcDbEntity
  8
1
 62
     2
100
AcDbTrace
 10
121.5384208205176
 20
82.31055301324282
 30
0.0
 11
122.1226276922017
 21
83.56338869257878
 31
0.0
 12
126.5886401383021
 22
80.71822497877216
 32
0.0
 13
126.5886401383021
 23
80.71822497877216
 33
0.0
  0
MTEXT
  5
347
330
340
100
AcDbEntity
  8
1
 62
     7
100
AcDbMText
 10
94.4869718627031
 20
97.92181902113394
 30
0.0
 40
5.25
 41
0.0
 71
     7
 72
     1
  1
\C7;{\Fgdt;n}\C7;16,5
  7
CONVERTER_12
 11
0.9063077870366544
 21
-0.4226182617406899
 31
0.0
 73
     1
 44
0.60024009603842
  0
ENDBLK
  5
349
330
340
100
AcDbEntity
  8
0
100
AcDbBlockEnd
  0
BLOCK
  5
355
330
34C
100
AcDbEntity
  8
0
100
AcDbBlockBegin
  2
*D20
 70
     1
 10
0.0
 20
0.0
 30
0.0
  3
*D20
  1

  0
LINE
  5
34D
330
34C
100
AcDbEntity
  8
0
  6
Continuous
 62
     2
100
AcDbLine
 10
129.080386382861
 20
104.9646450262339
 30
0.0
 11
129.080386382861
 21
67.57742102893022
 31
0.0
  0
LINE
  5
34E
330
34C
100
AcDbEntity
  8
0
  6
Continuous
 62
     2
100
AcDbLine
 10
128.2351498593796
 20
103.6520294521606
 30
0.0
 11
113.0685536349402
 21
71.12715888827566
 31
0.0
  0
LINE
  5
34F
330
34C
100
AcDbEntity
  8
0
  6
Continuous
 62
     2
100
AcDbLine
 10
129.080386382861
 20
67.57742102893022
 30
0.0
 11
129.080386382861
 21
66.07742102893022
 31
0.0
  0
LINE
  5
350
330
34C
100
AcDbEntity
  8
0
  6
Continuous
 62
     2
100
AcDbLine
 10
113.0685536349402
 20
71.12715888827566
 30
0.0
 11
112.4346262423291
 21
69.76769720772067
 31
0.0
  0
ARC
  5
351
330
34C
100
AcDbEntity
  8
0
  6
Continuous
 62
     2
100
AcDbCircle
 10
129.080386382861
 20
105.4646450262339
 30
0.0
 40
37.88722399730366
100
AcDbArc
 50
245.0000000000003
 51
270.0
  0
SOLID
  5
352
330
34C
100
AcDbEntity
  8
0
 62
     2
100
AcDbTrace
 10
118.2168919046943
 20
69.88827358798741
 30
0.0
 11
117.7208194217559
 21
68.59799958607483
 31
0.0
 12
113.0685536349402
 22
71.12715888827566
 32
0.0
 13
113.0685536349402
 23
71.12715888827566
 33
0.0
  0
SOLID
  5
353
330
34C
100
AcDbEntity
  8
0
 62
     2
100
AcDbTrace
 10
123.7951327649443
 20
67.25135673866917
 30
0.0
 11
123.8908317665801
 21
68.63039140445031
 31
0.0
 12
129.080386382861
 22
67.57742102893022
 32
0.0
 13
129.080386382861
 23
67.57742102893022
 33
0.0
  0
MTEXT
  5
354
330
34C
100
AcDbEntity
  8
0
 62
     7
100
AcDbMText
 10
116.7927951123203
 20
70.73143619091199
 30
0.0
 40
5.25
 41
0.0
 71
     7
 72
     1
  1
25{\Fgdt;~}
  7
CONVERTER_12
 11
0.9833688473057517
 21
-0.1816196854654184
 31
0.0
 73
     1
 44
0.60024009603842
  0
ENDBLK
  5
356
330
34C
100
AcDbEntity
  8
0
100
AcDbBlockEnd
  0
ENDSEC
  0
SECTION
  2
ENTITIES
  0
INSERT
  5
69
330
1F
100
AcDbEntity
  8
1
100
AcDbBlockReference
  2
62-1B-M2
 10
0.99999999999989
 20
1634.25
 30
0.0
  0
INSERT
  5
6A
330
1F
100
AcDbEntity
  8
0
100
AcDbBlockReference
  2
Y12-0-13
 10
251.0677307778072
 20
165.8753419286554
 30
0.0
  0
INSERT
  5
6B
330
1F
100
AcDbEntity
  8
1
100
AcDbBlockReference
  2
R10AK-13-B
 10
191.5677307778073
 20
153.8753419286554
 30
0.0
  0
INSERT
  5
6C
330
1F
100
AcDbEntity
  8
1
100
AcDbBlockReference
  2
開示A4
 10
0.0
 20
0.0
 30
0.0
 41
1.5
 42
1.5
 43
1.5
  0
INSERT
  5
6D
330
1F
100
AcDbEntity
  8
0
100
AcDbBlockReference
  2
32-1-16
 10
207.5838464598908
 20
-131.8890861160926
 30
0.0
  0
INSERT
  5
6E
330
1F
100
AcDbEntity
  8
0
100
AcDbBlockReference
  2
75-2
 10
179.1249847831937
 20
56.63301065802246
 30
0.0
  0
LINE
  5
2DA
330
1F
100
AcDbEntity
  8
1
  6
DASH_CENTER
 62
     2
100
AcDbLine
 10
53.99991455237911
 20
331.2515055386111
 30
0.0
 11
98.27174749007798
 21
331.2515055386111
 31
0.0
  0
LINE
  5
2DB
330
1F
100
AcDbEntity
  8
1
  6
DASH_CENTER
 62
     2
100
AcDbLine
 10
76.13583102122865
 20
394.7515055386112
 30
0.0
 11
76.13583102122865
 21
244.620439833063
 31
0.0
  0
LINE
  5
2DC
330
1F
100
AcDbEntity
  8
1
  6
DASH_CENTER
 62
     2
100
AcDbLine
 10
268.3213093877714
 20
145.3753419286554
 30
0.0
 11
166.803157814988
 21
145.3753419286554
 31
0.0
  0
LINE
  5
2DD
330
1F
100
AcDbEntity
  8
1
  6
DASH_CENTER
 62
     2
100
AcDbLine
 10
129.080386382861
 20
105.4646450262339
 30
0.0
 11
128.2351498593796
 21
103.6520294521606
 31
0.0
  0
LINE
  5
2DE
330
1F
100
AcDbEntity
  8
1
  6
DASH_CENTER
 62
     2
100
AcDbLine
 10
139.6139242038885
 20
128.0538897808764
 30
0.0
 11
129.0387436645633
 21
105.3753419286554
 31
0.0
  0
LINE
  5
2DF
330
1F
100
AcDbEntity
  8
0
  6
DASH_CENTER
 62
     2
100
AcDbLine
 10
50.13583102122865
 20
145.3753419286554
 30
0.0
 11
102.1358310212287
 21
145.3753419286554
 31
0.0
  0
LINE
  5
2E0
330
1F
100
AcDbEntity
  8
0
  6
DASH_CENTER
 62
     2
100
AcDbLine
 10
76.13583102122865
 20
99.66664829389056
 30
0.0
 11
76.13583102122865
 21
206.3526139525196
 31
0.0
  0
LINE
  5
2E1
330
1F
100
AcDbEntity
  8
1
  6
DASH_CENTER
 62
     2
100
AcDbLine
 10
206.0677307778072
 20
129.9220056578701
 30
0.0
 11
206.0677307778072
 21
206.3753079471172
 31
0.0
  0
LINE
  5
2E2
330
1F
100
AcDbEntity
  8
0
  6
Continuous
 62
     2
100
AcDbLine
 10
129.080386382861
 20
105.4646450262339
 30
0.0
 11
129.080386382861
 21
104.9646450262339
 31
0.0
  0
LINE
  5
2E3
330
1F
100
AcDbEntity
  8
1
  6
DASH_CENTER
 62
     2
100
AcDbLine
 10
60.98038645500105
 20
322.5015055386111
 30
0.0
 11
105.5806947498996
 21
348.2515055386112
 31
0.0
  0
LINE
  5
2E4
330
1F
100
AcDbEntity
  8
1
  6
DASH_CENTER
 62
     2
100
AcDbLine
 10
91.29127558745625
 20
322.5015055386112
 30
0.0
 11
46.69096729255776
 21
348.2515055386112
 31
0.0
  0
ARC
  5
2E5
330
1F
100
AcDbEntity
  8
1
  6
DASH_CENTER
 62
     2
100
AcDbCircle
 10
166.803157814988
 20
115.3753419286554
 30
0.0
 40
29.99999999999999
100
AcDbArc
 50
90.0
 51
155.0
  0
SOLID
  5
2E6
330
1F
100
AcDbEntity
  8
1
 62
     2
100
AcDbTrace
 10
88.66225538247134
 20
387.6437267146463
 30
0.0
 11
89.85940665998605
 21
386.9525511023125
 31
0.0
 12
86.63583102122865
 22
382.7515055386111
 32
0.0
 13
86.63583102122865
 23
382.7515055386111
 33
0.0
  0
LEADER
  5
2E7
330
1F
100
AcDbEntity
  8
1
  6
Continuous
 62
     2
100
AcDbLeader
  3
Standard
 71
     0
 76
     3
 10
86.63583102122865
 20
382.7515055386111
 30
0.0
 10
98.55553785368824
 20
403.397043383757
 30
0.0
 10
120.277220240266
 20
403.397043383757
 30
0.0
  0
MTEXT
  5
2E9
330
1F
100
AcDbEntity
  8
1
 62
     7
100
AcDbMText
 10
108.9163790469771
 20
407.897043383757
 30
0.0
 40
5.25
 41
0.0
 71
     5
 72
     1
  1
PJ1/2
  7
CONVERTER_12
 73
     1
 44
1.32052821128451
  0
MTEXT
  5
2EA
330
1F
100
AcDbEntity
  8
1
 62
     7
100
AcDbMText
 10
51.0
 20
51.00000000000001
 30
0.0
 40
5.25
 41
0.0
 71
     4
 72
     1
  1
JIS
  7
CONVERTER_12
 73
     1
 44
0.7202881152461
  0
MTEXT
  5
2EB
330
1F
100
AcDbEntity
  8
1
 62
     7
100
AcDbMText
 10
85.5
 20
34.12500000000001
 30
0.0
 40
5.25
 41
0.0
 71
     5
 72
     1
  1
万能ホーム水栓
  7
CONVERTER_11
 73
     1
 44
1.0
  0
MTEXT
  5
2EC
330
1F
100
AcDbEntity
  8
1
 62
     7
100
AcDbMText
 10
85.5
 20
21.375
 30
0.0
 40
5.25
 41
0.0
 71
     5
 72
     1
  1
Y12JK-13
  7
CONVERTER_12
 73
     1
 44
0.90036014405762
  0
MTEXT
  5
2ED
330
1F
100
AcDbEntity
  8
1
 62
     7
100
AcDbMText
 10
127.875
 20
25.5
 30
0.0
 40
5.25
 41
0.0
 71
     5
 72
     1
  1
1
  7
CONVERTER_12
 73
     1
 44
1.32052821128451
  0
MTEXT
  5
2EE
330
1F
100
AcDbEntity
  8
1
 62
     7
100
AcDbMText
 10
140.625
 20
25.5
 30
0.0
 40
5.25
 41
0.0
 71
     5
 72
     1
  1
1,5
  7
CONVERTER_12
 73
     1
 44
1.32052821128451
  0
DIMENSION
  5
2F9
330
1F
100
AcDbEntity
  8
1
100
AcDbDimension
  2
*D11
 10
113.9366650722591
 20
145.3753419286553
 30
0.0
 11
109.8116650722591
 21
125.4199934774446
 31
0.0
 70
    32
  1
40
 71
     5
 42
-1.0
 53
90.0
  3
ME10_DIM_10
100
AcDbAlignedDimension
 13
129.080386382861
 23
105.4646450262339
 33
0.0
 14
166.803157814988
 24
145.3753419286554
 34
0.0
 50
90.0
100
AcDbRotatedDimension
  0
DIMENSION
  5
305
330
1F
100
AcDbEntity
  8
1
100
AcDbDimension
  2
*D12
 10
162.6461307753123
 20
131.3753419286554
 30
0.0
 11
158.5211307753123
 21
167.9893663140911
 31
0.0
 70
    32
  1
<>
 71
     5
 42
-1.0
 53
90.0
  3
ME10_DIM_11
100
AcDbAlignedDimension
 13
173.3545535280942
 23
159.3753419286554
 33
0.0
 14
173.3545535280942
 24
131.3753419286554
 34
0.0
 50
90.0
100
AcDbRotatedDimension
  0
DIMENSION
  5
310
330
1F
100
AcDbEntity
  8
0
100
AcDbDimension
  2
*D13
 10
280.0677307778071
 20
168.3774710520819
 30
0.0
 11
275.9427307778071
 21
145.3774710520818
 31
0.0
 70
    32
  1
<>
 71
     5
 42
-1.0
 53
90.0
  3
ME10_DIM_12
100
AcDbAlignedDimension
 13
251.0677307778072
 23
122.3774710520819
 33
0.0
 14
251.0677307778072
 24
168.3774710520818
 34
0.0
 50
90.0
100
AcDbRotatedDimension
  0
DIMENSION
  5
31E
330
1F
100
AcDbEntity
  8
0
100
AcDbDimension
  2
*D14
 10
251.0677307778072
 20
86.99439583472987
 30
0.0
 11
258.0677307778071
 21
91.11939583472987
 31
0.0
 70
    32
  1
<>
 71
     5
 42
-1.0
 53
0.00013888888889
  3
ME10_DIM_13
100
AcDbAlignedDimension
 13
265.0677307778071
 23
135.8774710520818
 33
0.0
 14
251.0677307778072
 24
122.3774710520819
 34
0.0
100
AcDbRotatedDimension
  0
DIMENSION
  5
329
330
1F
100
AcDbEntity
  8
0
100
AcDbDimension
  2
*D16
 10
206.0677307778073
 20
86.99439583472987
 30
0.0
 11
228.5677307778072
 21
91.11939583472987
 31
0.0
 70
    32
  1
<>
 71
     5
 42
-1.0
 53
0.00013888888889
  3
ME10_DIM_14
100
AcDbAlignedDimension
 13
251.0677307778072
 23
122.3774710520819
 33
0.0
 14
206.0677307778072
 24
129.9220056578701
 34
0.0
100
AcDbRotatedDimension
  0
DIMENSION
  5
334
330
1F
100
AcDbEntity
  8
0
100
AcDbDimension
  2
*D17
 10
129.0387436645634
 20
86.99439583472987
 30
0.0
 11
167.5740585803341
 21
91.11939583472987
 31
0.0
 70
    32
  1
77
 71
     5
 42
-1.0
 53
0.00013888888889
  3
ME10_DIM_15
100
AcDbAlignedDimension
 13
206.0677307778072
 23
129.9220056578701
 33
0.0
 14
129.0387436645633
 24
105.3753419286554
 34
0.0
100
AcDbRotatedDimension
  0
DIMENSION
  5
33F
330
1F
100
AcDbEntity
  8
1
100
AcDbDimension
  2
*D18
 10
113.9366650722591
 20
203.3753419286553
 30
0.0
 11
109.8116650722591
 21
174.3753419286554
 31
0.0
 70
    32
  1
58リフト5
 71
     5
 42
-1.0
 53
90.0
  3
ME10_DIM_16
100
AcDbAlignedDimension
 13
166.803157814988
 23
145.3753419286554
 33
0.0
 14
206.0677307778072
 24
203.3753419286554
 34
0.0
 50
90.0
100
AcDbRotatedDimension
  0
DIMENSION
  5
34B
330
1F
100
AcDbEntity
  8
1
100
AcDbDimension
  2
*D19
 10
111.725192430901
 20
87.64916447131945
 30
0.0
 11
102.3608849554723
 21
96.85688337987773
 31
0.0
 70
    33
  1
{\Fgdt;n}16,5
 71
     5
 42
-1.0
 53
-24.99999999999948
  3
ME10_DIM_17
100
AcDbAlignedDimension
 13
137.5270131726156
 23
104.1756416499734
 33
0.0
 14
122.6635654652145
 24
111.1065811425207
 34
0.0
  0
DIMENSION
  5
358
330
1F
100
AcDbEntity
  8
0
100
AcDbDimension
  2
*D20
 10
120.8800902476986
 20
68.4754995168077
 30
0.0
 11
122.9485018798577
 21
72.2639257315268
 31
0.0
 70
    37
  1
<>
 71
     5
 42
-1.0
  3
ME10_DIM_18
100
AcDb3PointAngularDimension
 13
128.2351498593796
 23
103.6520294521606
 33
0.0
 14
129.080386382861
 24
104.9646450262339
 34
0.0
 15
129.080386382861
 25
105.4646450262339
 35
0.0
  0
ENDSEC
  0
SECTION
  2
OBJECTS
  0
DICTIONARY
  5
C
330
0
100
AcDbDictionary
281
     1
  3
ACAD_GROUP
350
D
  3
ACAD_LAYOUT
350
1A
  3
ACAD_MATERIAL
350
3B
  3
ACAD_MLEADERSTYLE
350
35B
  3
ACAD_MLINESTYLE
350
17
  3
ACAD_PLOTSETTINGS
350
19
  3
ACAD_PLOTSTYLENAME
350
E
  3
ACAD_VISUALSTYLE
350
2A
  3
AcDbVariableDictionary
350
359
  0
DICTIONARY
  5
D
102
{ACAD_REACTORS
330
C
102
}
330
C
100
AcDbDictionary
281
     1
  0
DICTIONARY
  5
1A
102
{ACAD_REACTORS
330
C
102
}
330
C
100
AcDbDictionary
281
     1
  3
Layout1
350
1E
  3
Layout2
350
26
  3
Model
350
22
  0
DICTIONARY
  5
3B
102
{ACAD_REACTORS
330
C
102
}
330
C
100
AcDbDictionary
281
     1
  3
ByBlock
350
3D
  3
ByLayer
350
3C
  3
Global
350
3E
  0
DICTIONARY
  5
35B
102
{ACAD_REACTORS
330
C
102
}
330
C
100
AcDbDictionary
281
     1
  0
DICTIONARY
  5
17
102
{ACAD_REACTORS
330
C
102
}
330
C
100
AcDbDictionary
281
     1
  3
Standard
350
18
  0
DICTIONARY
  5
19
102
{ACAD_REACTORS
330
C
102
}
330
C
100
AcDbDictionary
281
     1
  0
ACDBDICTIONARYWDFLT
  5
E
102
{ACAD_REACTORS
330
C
102
}
330
C
100
AcDbDictionary
281
     1
  3
Normal
350
F
100
AcDbDictionaryWithDefault
340
F
  0
DICTIONARY
  5
2A
102
{ACAD_REACTORS
330
C
102
}
330
C
100
AcDbDictionary
281
     1
  3
2dWireframe
350
2F
  3
3D Hidden
350
31
  3
3dWireframe
350
30
  3
Basic
350
32
  3
Brighten
350
36
  3
ColorChange
350
3A
  3
Conceptual
350
34
  3
Dim
350
35
  3
Facepattern
350
39
  3
Flat
350
2B
  3
FlatWithEdges
350
2C
  3
Gouraud
350
2D
  3
GouraudWithEdges
350
2E
  3
Linepattern
350
38
  3
Realistic
350
33
  3
Thicken
350
37
  0
DICTIONARY
  5
359
102
{ACAD_REACTORS
330
C
102
}
330
C
100
AcDbDictionary
281
     1
  3
DIMASSOC
350
35C
  3
HIDETEXT
350
35D
  0
LAYOUT
  5
1E
102
{ACAD_REACTORS
330
1A
102
}
330
1A
100
AcDbPlotSettings
  1

  2
none_device
  4

  6

 40
0.0
 41
0.0
 42
0.0
 43
0.0
 44
0.0
 45
0.0
 46
0.0
 47
0.0
 48
0.0
 49
0.0
140
0.0
141
0.0
142
1.0
143
1.0
 70
   688
 72
     0
 73
     0
 74
     5
  7

 75
    16
147
1.0
148
0.0
149
0.0
100
AcDbLayout
  1
Layout1
 70
     1
 71
     1
 10
0.0
 20
0.0
 11
12.0
 21
9.0
 12
0.0
 22
0.0
 32
0.0
 14
1.00000000000000E+20
 24
1.00000000000000E+20
 34
1.00000000000000E+20
 15
-1.00000000000000E+20
 25
-1.00000000000000E+20
 35
-1.00000000000000E+20
146
0.0
 13
0.0
 23
0.0
 33
0.0
 16
1.0
 26
0.0
 36
0.0
 17
0.0
 27
1.0
 37
0.0
 76
     0
330
1B
  0
LAYOUT
  5
26
102
{ACAD_REACTORS
330
1A
102
}
330
1A
100
AcDbPlotSettings
  1

  2
none_device
  4

  6

 40
0.0
 41
0.0
 42
0.0
 43
0.0
 44
0.0
 45
0.0
 46
0.0
 47
0.0
 48
0.0
 49
0.0
140
0.0
141
0.0
142
1.0
143
1.0
 70
   688
 72
     0
 73
     0
 74
     5
  7

 75
    16
147
1.0
148
0.0
149
0.0
100
AcDbLayout
  1
Layout2
 70
     1
 71
     2
 10
0.0
 20
0.0
 11
0.0
 21
0.0
 12
0.0
 22
0.0
 32
0.0
 14
0.0
 24
0.0
 34
0.0
 15
0.0
 25
0.0
 35
0.0
146
0.0
 13
0.0
 23
0.0
 33
0.0
 16
1.0
 26
0.0
 36
0.0
 17
0.0
 27
1.0
 37
0.0
 76
     0
330
23
  0
LAYOUT
  5
22
102
{ACAD_REACTORS
330
1A
102
}
330
1A
100
AcDbPlotSettings
  1

  2
none_device
  4

  6

 40
0.0
 41
0.0
 42
0.0
 43
0.0
 44
0.0
 45
0.0
 46
0.0
 47
0.0
 48
0.0
 49
0.0
140
0.0
141
0.0
142
1.0
143
1.0
 70
  1712
 72
     0
 73
     0
 74
     0
  7

 75
     0
147
1.0
148
0.0
149
0.0
100
AcDbLayout
  1
Model
 70
     1
 71
     0
 10
0.0
 20
0.0
 11
12.0
 21
9.0
 12
0.0
 22
0.0
 32
0.0
 14
0.0
 24
0.0
 34
0.0
 15
315.0
 25
445.5
 35
0.0
146
0.0
 13
0.0
 23
0.0
 33
0.0
 16
1.0
 26
0.0
 36
0.0
 17
0.0
 27
1.0
 37
0.0
 76
     0
330
1F
331
29
  0
MATERIAL
  5
3D
102
{ACAD_REACTORS
330
3B
102
}
102
{ACAD_XDICTIONARY
360
380
102
}
330
3B
100
AcDbMaterial
  1
ByBlock
  0
MATERIAL
  5
3C
102
{ACAD_REACTORS
330
3B
102
}
102
{ACAD_XDICTIONARY
360
37E
102
}
330
3B
100
AcDbMaterial
  1
ByLayer
  0
MATERIAL
  5
3E
102
{ACAD_REACTORS
330
3B
102
}
102
{ACAD_XDICTIONARY
360
382
102
}
330
3B
100
AcDbMaterial
  1
Global
  0
MLINESTYLE
  5
18
102
{ACAD_REACTORS
330
17
102
}
330
17
100
AcDbMlineStyle
  2
Standard
 70
     0
  3

 62
   256
 51
90.0
 52
90.0
 71
     2
 49
0.5
 62
   256
  6
BYLAYER
 49
-0.5
 62
   256
  6
BYLAYER
  0
ACDBPLACEHOLDER
  5
F
102
{ACAD_REACTORS
330
E
102
}
330
E
  0
VISUALSTYLE
  5
2F
102
{ACAD_REACTORS
330
2A
102
}
102
{ACAD_XDICTIONARY
360
366
102
}
330
2A
100
AcDbVisualStyle
  2
2dWireframe
 70
     4
 71
     0
 72
     2
 73
     0
 90
        0
 40
-0.6
 41
-30.0
 62
     5
 63
     7
 74
     1
 91
        4
 64
     7
 65
   257
 75
     1
175
     1
 42
1.0
 92
        0
 66
   257
 43
1.0
 76
     1
 77
     6
 78
     2
 67
     7
 79
     5
170
     0
171
     0
290
     0
174
     0
 93
        1
 44
0.0
173
     0
291
     0
 45
0.0
1001
ACAD
1000
AcDbSavedByObjectVersion
1070
     0
  0
VISUALSTYLE
  5
31
102
{ACAD_REACTORS
330
2A
102
}
102
{ACAD_XDICTIONARY
360
36A
102
}
330
2A
100
AcDbVisualStyle
  2
3D Hidden
 70
     6
 71
     1
 72
     2
 73
     2
 90
        0
 40
-0.6
 41
-30.0
 62
     5
 63
     7
 74
     2
 91
        2
 64
     7
 65
   257
 75
     2
175
     1
 42
40.0
 92
        0
 66
   257
 43
1.0
 76
     1
 77
     6
 78
     2
 67
     7
 79
     3
170
     0
171
     0
290
     0
174
     0
 93
        1
 44
0.0
173
     0
291
     0
 45
0.0
1001
ACAD
1000
AcDbSavedByObjectVersion
1070
     0
  0
VISUALSTYLE
  5
30
102
{ACAD_REACTORS
330
2A
102
}
102
{ACAD_XDICTIONARY
360
368
102
}
330
2A
100
AcDbVisualStyle
  2
3dWireframe
 70
     5
 71
     0
 72
     2
 73
     0
 90
        0
 40
-0.6
 41
-30.0
 62
     5
 63
     7
 74
     1
 91
        4
 64
     7
 65
   257
 75
     1
175
     1
 42
1.0
 92
        0
 66
   257
 43
1.0
 76
     1
 77
     6
 78
     2
 67
     7
 79
     5
170
     0
171
     0
290
     0
174
     0
 93
        1
 44
0.0
173
     0
291
     0
 45
0.0
1001
ACAD
1000
AcDbSavedByObjectVersion
1070
     0
  0
VISUALSTYLE
  5
32
102
{ACAD_REACTORS
330
2A
102
}
102
{ACAD_XDICTIONARY
360
36C
102
}
330
2A
100
AcDbVisualStyle
  2
Basic
 70
     7
 71
     1
 72
     0
 73
     1
 90
        0
 40
-0.6
 41
-30.0
 62
     5
 63
     7
 74
     0
 91
        4
 64
     7
 65
   257
 75
     1
175
     1
 42
1.0
 92
        8
 66
     7
 43
1.0
 76
     1
 77
     6
 78
     2
 67
     7
 79
     5
170
     0
171
     0
290
     0
174
     0
 93
        1
 44
0.0
173
     0
291
     1
 45
0.0
1001
ACAD
1000
AcDbSavedByObjectVersion
1070
     0
  0
VISUALSTYLE
  5
36
102
{ACAD_REACTORS
330
2A
102
}
102
{ACAD_XDICTIONARY
360
374
102
}
330
2A
100
AcDbVisualStyle
  2
Brighten
 70
    12
 71
     2
 72
     2
 73
     0
 90
        0
 40
-0.6
 41
-30.0
 62
     5
 63
     7
 74
     1
 91
        4
 64
     7
 65
   257
 75
     1
175
     1
 42
1.0
 92
        8
 66
     7
 43
1.0
 76
     1
 77
     6
 78
     2
 67
     7
 79
     5
170
     0
171
     0
290
     0
174
     0
 93
        1
 44
50.0
173
     0
291
     1
 45
0.0
1001
ACAD
1000
AcDbSavedByObjectVersion
1070
     0
  0
VISUALSTYLE
  5
3A
102
{ACAD_REACTORS
330
2A
102
}
102
{ACAD_XDICTIONARY
360
37C
102
}
330
2A
100
AcDbVisualStyle
  2
ColorChange
 70
    16
 71
     2
 72
     2
 73
     3
 90
        0
 40
-0.6
 41
-30.0
 62
     5
 63
     8
 74
     1
 91
        4
 64
     7
 65
   257
 75
     1
175
     1
 42
1.0
 92
        8
 66
     8
 43
1.0
 76
     1
 77
     6
 78
     2
 67
     7
 79
     5
170
     0
171
     0
290
     0
174
     0
 93
        1
 44
0.0
173
     0
291
     1
 45
0.0
1001
ACAD
1000
AcDbSavedByObjectVersion
1070
     0
  0
VISUALSTYLE
  5
34
102
{ACAD_REACTORS
330
2A
102
}
102
{ACAD_XDICTIONARY
360
370
102
}
330
2A
100
AcDbVisualStyle
  2
Conceptual
 70
     9
 71
     3
 72
     2
 73
     0
 90
        0
 40
-0.6
 41
-30.0
 62
     5
 63
     7
 74
     2
 91
        2
 64
     7
 65
   257
 75
     1
175
     1
 42
40.0
 92
        8
 66
     7
 43
1.0
 76
     1
 77
     6
 78
     2
 67
     7
 79
     3
170
     0
171
     0
290
     0
174
     0
 93
        1
 44
0.0
173
     0
291
     0
 45
0.0
1001
ACAD
1000
AcDbSavedByObjectVersion
1070
     0
  0
VISUALSTYLE
  5
35
102
{ACAD_REACTORS
330
2A
102
}
102
{ACAD_XDICTIONARY
360
372
102
}
330
2A
100
AcDbVisualStyle
  2
Dim
 70
    11
 71
     2
 72
     2
 73
     0
 90
        0
 40
-0.6
 41
-30.0
 62
     5
 63
     7
 74
     1
 91
        4
 64
     7
 65
   257
 75
     1
175
     1
 42
1.0
 92
        8
 66
     7
 43
1.0
 76
     1
 77
     6
 78
     2
 67
     7
 79
     5
170
     0
171
     0
290
     0
174
     0
 93
        1
 44
-50.0
173
     0
291
     1
 45
0.0
1001
ACAD
1000
AcDbSavedByObjectVersion
1070
     0
  0
VISUALSTYLE
  5
39
102
{ACAD_REACTORS
330
2A
102
}
102
{ACAD_XDICTIONARY
360
37A
102
}
330
2A
100
AcDbVisualStyle
  2
Facepattern
 70
    15
 71
     2
 72
     2
 73
     0
 90
        0
 40
-0.6
 41
-30.0
 62
     5
 63
     7
 74
     1
 91
        4
 64
     7
 65
   257
 75
     1
175
     1
 42
1.0
 92
        8
 66
     7
 43
1.0
 76
     1
 77
     6
 78
     2
 67
     7
 79
     5
170
     0
171
     0
290
     0
174
     0
 93
        1
 44
0.0
173
     0
291
     1
 45
0.0
1001
ACAD
1000
AcDbSavedByObjectVersion
1070
     0
  0
VISUALSTYLE
  5
2B
102
{ACAD_REACTORS
330
2A
102
}
102
{ACAD_XDICTIONARY
360
35E
102
}
330
2A
100
AcDbVisualStyle
  2
Flat
 70
     0
 71
     2
 72
     1
 73
     1
 90
        2
 40
-0.6
 41
30.0
 62
     5
 63
     7
 74
     0
 91
        4
 64
     7
 65
   257
 75
     1
175
     1
 42
1.0
 92
        8
 66
     7
 43
1.0
 76
     1
 77
     6
 78
     2
 67
     7
 79
     5
170
     0
171
     0
290
     0
174
     0
 93
       13
 44
0.0
173
     0
291
     1
 45
0.0
1001
ACAD
1000
AcDbSavedByObjectVersion
1070
     0
  0
VISUALSTYLE
  5
2C
102
{ACAD_REACTORS
330
2A
102
}
102
{ACAD_XDICTIONARY
360
360
102
}
330
2A
100
AcDbVisualStyle
  2
FlatWithEdges
 70
     1
 71
     2
 72
     1
 73
     1
 90
        2
 40
-0.6
 41
30.0
 62
     5
 63
     7
 74
     1
 91
        4
 64
     7
 65
   257
 75
     1
175
     1
 42
1.0
 92
        0
 66
   257
 43
1.0
 76
     1
 77
     6
 78
     2
 67
     7
 79
     5
170
     0
171
     0
290
     0
174
     0
 93
       13
 44
0.0
173
     0
291
     1
 45
0.0
1001
ACAD
1000
AcDbSavedByObjectVersion
1070
     0
  0
VISUALSTYLE
  5
2D
102
{ACAD_REACTORS
330
2A
102
}
102
{ACAD_XDICTIONARY
360
362
102
}
330
2A
100
AcDbVisualStyle
  2
Gouraud
 70
     2
 71
     2
 72
     2
 73
     1
 90
        2
 40
-0.6
 41
30.0
 62
     5
 63
     7
 74
     0
 91
        4
 64
     7
 65
   257
 75
     1
175
     1
 42
1.0
 92
        0
 66
     7
 43
1.0
 76
     1
 77
     6
 78
     2
 67
     7
 79
     5
170
     0
171
     0
290
     0
174
     0
 93
       13
 44
0.0
173
     0
291
     1
 45
0.0
1001
ACAD
1000
AcDbSavedByObjectVersion
1070
     0
  0
VISUALSTYLE
  5
2E
102
{ACAD_REACTORS
330
2A
102
}
102
{ACAD_XDICTIONARY
360
364
102
}
330
2A
100
AcDbVisualStyle
  2
GouraudWithEdges
 70
     3
 71
     2
 72
     2
 73
     1
 90
        2
 40
-0.6
 41
30.0
 62
     5
 63
     7
 74
     1
 91
        4
 64
     7
 65
   257
 75
     1
175
     1
 42
1.0
 92
        0
 66
   257
 43
1.0
 76
     1
 77
     6
 78
     2
 67
     7
 79
     5
170
     0
171
     0
290
     0
174
     0
 93
       13
 44
0.0
173
     0
291
     1
 45
0.0
1001
ACAD
1000
AcDbSavedByObjectVersion
1070
     0
  0
VISUALSTYLE
  5
38
102
{ACAD_REACTORS
330
2A
102
}
102
{ACAD_XDICTIONARY
360
378
102
}
330
2A
100
AcDbVisualStyle
  2
Linepattern
 70
    14
 71
     2
 72
     2
 73
     0
 90
        0
 40
-0.6
 41
-30.0
 62
     5
 63
     7
 74
     1
 91
        4
 64
     7
 65
   257
 75
     7
175
     7
 42
1.0
 92
        8
 66
     7
 43
1.0
 76
     1
 77
     6
 78
     2
 67
     7
 79
     5
170
     0
171
     0
290
     0
174
     0
 93
        1
 44
0.0
173
     0
291
     1
 45
0.0
1001
ACAD
1000
AcDbSavedByObjectVersion
1070
     0
  0
VISUALSTYLE
  5
33
102
{ACAD_REACTORS
330
2A
102
}
102
{ACAD_XDICTIONARY
360
36E
102
}
330
2A
100
AcDbVisualStyle
  2
Realistic
 70
     8
 71
     2
 72
     2
 73
     0
 90
        0
 40
-0.6
 41
-30.0
 62
     5
 63
     7
 74
     1
 91
        0
 64
     7
 65
   257
 75
     1
175
     1
 42
1.0
 92
        8
 66
     8
 43
1.0
 76
     1
 77
     6
 78
     2
 67
     7
 79
     5
170
     0
171
     0
290
     0
174
     0
 93
       13
 44
0.0
173
     0
291
     0
 45
0.0
1001
ACAD
1000
AcDbSavedByObjectVersion
1070
     0
  0
VISUALSTYLE
  5
37
102
{ACAD_REACTORS
330
2A
102
}
102
{ACAD_XDICTIONARY
360
376
102
}
330
2A
100
AcDbVisualStyle
  2
Thicken
 70
    13
 71
     2
 72
     2
 73
     0
 90
        0
 40
-0.6
 41
-30.0
 62
     5
 63
     7
 74
     1
 91
        4
 64
     7
 65
   257
 75
     1
175
     1
 42
1.0
 92
       12
 66
     7
 43
1.0
 76
     1
 77
     6
 78
     2
 67
     7
 79
     5
170
     0
171
     0
290
     0
174
     0
 93
        1
 44
0.0
173
     0
291
     1
 45
0.0
1001
ACAD
1000
AcDbSavedByObjectVersion
1070
     0
  0
DICTIONARYVAR
  5
35C
102
{ACAD_REACTORS
330
359
102
}
330
359
100
DictionaryVariables
280
     0
  1
2
  0
DICTIONARYVAR
  5
35D
102
{ACAD_REACTORS
330
359
102
}
330
359
100
DictionaryVariables
280
     0
  1
1
  0
DICTIONARY
  5
380
330
3D
100
AcDbDictionary
280
     1
281
     1
  3
ACAD_XREC_ROUNDTRIP
360
381
  0
DICTIONARY
  5
37E
330
3C
100
AcDbDictionary
280
     1
281
     1
  3
ACAD_XREC_ROUNDTRIP
360
37F
  0
DICTIONARY
  5
382
330
3E
100
AcDbDictionary
280
     1
281
     1
  3
ACAD_XREC_ROUNDTRIP
360
383
  0
DICTIONARY
  5
366
330
2F
100
AcDbDictionary
280
     1
281
     1
  3
ACAD_XREC_ROUNDTRIP
360
367
  0
DICTIONARY
  5
36A
330
31
100
AcDbDictionary
280
     1
281
     1
  3
ACAD_XREC_ROUNDTRIP
360
36B
  0
DICTIONARY
  5
368
330
30
100
AcDbDictionary
280
     1
281
     1
  3
ACAD_XREC_ROUNDTRIP
360
369
  0
DICTIONARY
  5
36C
330
32
100
AcDbDictionary
280
     1
281
     1
  3
ACAD_XREC_ROUNDTRIP
360
36D
  0
DICTIONARY
  5
374
330
36
100
AcDbDictionary
280
     1
281
     1
  3
ACAD_XREC_ROUNDTRIP
360
375
  0
DICTIONARY
  5
37C
330
3A
100
AcDbDictionary
280
     1
281
     1
  3
ACAD_XREC_ROUNDTRIP
360
37D
  0
DICTIONARY
  5
370
330
34
100
AcDbDictionary
280
     1
281
     1
  3
ACAD_XREC_ROUNDTRIP
360
371
  0
DICTIONARY
  5
372
330
35
100
AcDbDictionary
280
     1
281
     1
  3
ACAD_XREC_ROUNDTRIP
360
373
  0
DICTIONARY
  5
37A
330
39
100
AcDbDictionary
280
     1
281
     1
  3
ACAD_XREC_ROUNDTRIP
360
37B
  0
DICTIONARY
  5
35E
330
2B
100
AcDbDictionary
280
     1
281
     1
  3
ACAD_XREC_ROUNDTRIP
360
35F
  0
DICTIONARY
  5
360
330
2C
100
AcDbDictionary
280
     1
281
     1
  3
ACAD_XREC_ROUNDTRIP
360
361
  0
DICTIONARY
  5
362
330
2D
100
AcDbDictionary
280
     1
281
     1
  3
ACAD_XREC_ROUNDTRIP
360
363
  0
DICTIONARY
  5
364
330
2E
100
AcDbDictionary
280
     1
281
     1
  3
ACAD_XREC_ROUNDTRIP
360
365
  0
DICTIONARY
  5
378
330
38
100
AcDbDictionary
280
     1
281
     1
  3
ACAD_XREC_ROUNDTRIP
360
379
  0
DICTIONARY
  5
36E
330
33
100
AcDbDictionary
280
     1
281
     1
  3
ACAD_XREC_ROUNDTRIP
360
36F
  0
DICTIONARY
  5
376
330
37
100
AcDbDictionary
280
     1
281
     1
  3
ACAD_XREC_ROUNDTRIP
360
377
  0
XRECORD
  5
381
102
{ACAD_REACTORS
330
380
102
}
330
380
100
AcDbXrecord
280
     1
102
MATERIAL
148
0.0
149
0.0
149
0.0
 93
        0
 94
      127
282
     0
 72
     1
 77
     1
171
     1
175
     1
179
     1
273
     0
  0
XRECORD
  5
37F
102
{ACAD_REACTORS
330
37E
102
}
330
37E
100
AcDbXrecord
280
     1
102
MATERIAL
148
0.0
149
0.0
149
0.0
 93
        0
 94
      127
282
     0
 72
     1
 77
     1
171
     1
175
     1
179
     1
273
     0
  0
XRECORD
  5
383
102
{ACAD_REACTORS
330
382
102
}
330
382
100
AcDbXrecord
280
     1
102
MATERIAL
148
0.0
149
0.0
149
0.0
 93
        0
 94
      127
282
     0
 72
     1
 77
     1
171
     1
175
     1
179
     1
273
     0
  0
XRECORD
  5
367
102
{ACAD_REACTORS
330
366
102
}
330
366
100
AcDbXrecord
280
     1
102
RTVSPropertyOp0
 70
     1
102
RTVSPropertyOp1
 70
     1
102
RTVSPropertyOp2
 70
     1
102
RTVSPropertyOp3
 70
     1
102
RTVSPropertyOp4
 70
     1
102
RTVSPropertyOp5
 70
     1
102
RTVSPropertyOp6
 70
     1
102
RTVSPropertyOp7
 70
     1
102
RTVSPropertyOp8
 70
     1
102
RTVSPropertyOp9
 70
     1
102
RTVSPropertyOp10
 70
     1
102
RTVSPropertyOp11
 70
     1
102
RTVSPropertyOp12
 70
     1
102
RTVSPropertyOp13
 70
     1
102
RTVSPropertyOp14
 70
     1
102
RTVSPropertyOp15
 70
     1
102
RTVSPropertyOp16
 70
     1
102
RTVSPropertyOp17
 70
     1
102
RTVSPropertyOp18
 70
     1
102
RTVSPropertyOp19
 70
     1
102
RTVSPropertyOp20
 70
     1
102
RTVSPropertyOp21
 70
     1
102
RTVSPropertyOp22
 70
     1
102
RTVSPropertyOp23
 70
     1
102
RTVSPropertyOp24
 70
     1
102
RTVSPropertyOp25
 70
     1
102
RTVSPropertyOp26
 70
     1
102
RTVSPropertyOp27
 70
     1
102
RTVSPropertyOp28
 70
     1
102
RTVSPropertyOp29
 70
     1
102
RTVSPropertyOp30
 70
     1
102
RTVSPropertyOp31
 70
     1
102
RTVSPropertyOp32
 70
     1
  0
XRECORD
  5
36B
102
{ACAD_REACTORS
330
36A
102
}
330
36A
100
AcDbXrecord
280
     1
102
RTVSPropertyOp0
 70
     1
102
RTVSPropertyOp1
 70
     1
102
RTVSPropertyOp2
 70
     1
102
RTVSPropertyOp3
 70
     1
102
RTVSPropertyOp4
 70
     1
102
RTVSPropertyOp5
 70
     1
102
RTVSPropertyOp6
 70
     1
102
RTVSPropertyOp7
 70
     1
102
RTVSPropertyOp8
 70
     1
102
RTVSPropertyOp9
 70
     1
102
RTVSPropertyOp10
 70
     1
102
RTVSPropertyOp11
 70
     1
102
RTVSPropertyOp12
 70
     1
102
RTVSPropertyOp13
 70
     1
102
RTVSPropertyOp14
 70
     1
102
RTVSPropertyOp15
 70
     1
102
RTVSPropertyOp16
 70
     1
102
RTVSPropertyOp17
 70
     1
102
RTVSPropertyOp18
 70
     1
102
RTVSPropertyOp19
 70
     1
102
RTVSPropertyOp20
 70
     1
102
RTVSPropertyOp21
 70
     1
102
RTVSPropertyOp22
 70
     1
102
RTVSPropertyOp23
 70
     1
102
RTVSPropertyOp24
 70
     1
102
RTVSPropertyOp25
 70
     1
102
RTVSPropertyOp26
 70
     1
102
RTVSPropertyOp27
 70
     1
102
RTVSPropertyOp28
 70
     1
102
RTVSPropertyOp29
 70
     1
102
RTVSPropertyOp30
 70
     1
102
RTVSPropertyOp31
 70
     1
102
RTVSPropertyOp32
 70
     1
  0
XRECORD
  5
369
102
{ACAD_REACTORS
330
368
102
}
330
368
100
AcDbXrecord
280
     1
102
RTVSPropertyOp0
 70
     1
102
RTVSPropertyOp1
 70
     1
102
RTVSPropertyOp2
 70
     1
102
RTVSPropertyOp3
 70
     1
102
RTVSPropertyOp4
 70
     1
102
RTVSPropertyOp5
 70
     1
102
RTVSPropertyOp6
 70
     1
102
RTVSPropertyOp7
 70
     1
102
RTVSPropertyOp8
 70
     1
102
RTVSPropertyOp9
 70
     1
102
RTVSPropertyOp10
 70
     1
102
RTVSPropertyOp11
 70
     1
102
RTVSPropertyOp12
 70
     1
102
RTVSPropertyOp13
 70
     1
102
RTVSPropertyOp14
 70
     1
102
RTVSPropertyOp15
 70
     1
102
RTVSPropertyOp16
 70
     1
102
RTVSPropertyOp17
 70
     1
102
RTVSPropertyOp18
 70
     1
102
RTVSPropertyOp19
 70
     1
102
RTVSPropertyOp20
 70
     1
102
RTVSPropertyOp21
 70
     1
102
RTVSPropertyOp22
 70
     1
102
RTVSPropertyOp23
 70
     1
102
RTVSPropertyOp24
 70
     1
102
RTVSPropertyOp25
 70
     1
102
RTVSPropertyOp26
 70
     1
102
RTVSPropertyOp27
 70
     1
102
RTVSPropertyOp28
 70
     1
102
RTVSPropertyOp29
 70
     1
102
RTVSPropertyOp30
 70
     1
102
RTVSPropertyOp31
 70
     1
102
RTVSPropertyOp32
 70
     1
  0
XRECORD
  5
36D
102
{ACAD_REACTORS
330
36C
102
}
330
36C
100
AcDbXrecord
280
     1
102
RTVSPropertyOp0
 70
     1
102
RTVSPropertyOp1
 70
     1
102
RTVSPropertyOp2
 70
     1
102
RTVSPropertyOp3
 70
     1
102
RTVSPropertyOp4
 70
     1
102
RTVSPropertyOp5
 70
     1
102
RTVSPropertyOp6
 70
     1
102
RTVSPropertyOp7
 70
     1
102
RTVSPropertyOp8
 70
     1
102
RTVSPropertyOp9
 70
     1
102
RTVSPropertyOp10
 70
     1
102
RTVSPropertyOp11
 70
     1
102
RTVSPropertyOp12
 70
     1
102
RTVSPropertyOp13
 70
     1
102
RTVSPropertyOp14
 70
     1
102
RTVSPropertyOp15
 70
     1
102
RTVSPropertyOp16
 70
     1
102
RTVSPropertyOp17
 70
     1
102
RTVSPropertyOp18
 70
     1
102
RTVSPropertyOp19
 70
     1
102
RTVSPropertyOp20
 70
     1
102
RTVSPropertyOp21
 70
     1
102
RTVSPropertyOp22
 70
     1
102
RTVSPropertyOp23
 70
     1
102
RTVSPropertyOp24
 70
     1
102
RTVSPropertyOp25
 70
     1
102
RTVSPropertyOp26
 70
     1
102
RTVSPropertyOp27
 70
     1
102
RTVSPropertyOp28
 70
     1
102
RTVSPropertyOp29
 70
     1
102
RTVSPropertyOp30
 70
     1
102
RTVSPropertyOp31
 70
     1
102
RTVSPropertyOp32
 70
     1
  0
XRECORD
  5
375
102
{ACAD_REACTORS
330
374
102
}
330
374
100
AcDbXrecord
280
     1
102
RTVSPropertyOp0
 70
     1
102
RTVSPropertyOp1
 70
     1
102
RTVSPropertyOp2
 70
     1
102
RTVSPropertyOp3
 70
     1
102
RTVSPropertyOp4
 70
     1
102
RTVSPropertyOp5
 70
     1
102
RTVSPropertyOp6
 70
     1
102
RTVSPropertyOp7
 70
     1
102
RTVSPropertyOp8
 70
     1
102
RTVSPropertyOp9
 70
     1
102
RTVSPropertyOp10
 70
     1
102
RTVSPropertyOp11
 70
     1
102
RTVSPropertyOp12
 70
     1
102
RTVSPropertyOp13
 70
     1
102
RTVSPropertyOp14
 70
     1
102
RTVSPropertyOp15
 70
     1
102
RTVSPropertyOp16
 70
     1
102
RTVSPropertyOp17
 70
     1
102
RTVSPropertyOp18
 70
     1
102
RTVSPropertyOp19
 70
     1
102
RTVSPropertyOp20
 70
     1
102
RTVSPropertyOp21
 70
     1
102
RTVSPropertyOp22
 70
     1
102
RTVSPropertyOp23
 70
     1
102
RTVSPropertyOp24
 70
     1
102
RTVSPropertyOp25
 70
     1
102
RTVSPropertyOp26
 70
     1
102
RTVSPropertyOp27
 70
     1
102
RTVSPropertyOp28
 70
     1
102
RTVSPropertyOp29
 70
     1
102
RTVSPropertyOp30
 70
     1
102
RTVSPropertyOp31
 70
     1
102
RTVSPropertyOp32
 70
     1
  0
XRECORD
  5
37D
102
{ACAD_REACTORS
330
37C
102
}
330
37C
100
AcDbXrecord
280
     1
102
RTVSPropertyOp0
 70
     1
102
RTVSPropertyOp1
 70
     1
102
RTVSPropertyOp2
 70
     1
102
RTVSPropertyOp3
 70
     1
102
RTVSPropertyOp4
 70
     1
102
RTVSPropertyOp5
 70
     1
102
RTVSPropertyOp6
 70
     1
102
RTVSPropertyOp7
 70
     1
102
RTVSPropertyOp8
 70
     1
102
RTVSPropertyOp9
 70
     1
102
RTVSPropertyOp10
 70
     1
102
RTVSPropertyOp11
 70
     1
102
RTVSPropertyOp12
 70
     1
102
RTVSPropertyOp13
 70
     1
102
RTVSPropertyOp14
 70
     1
102
RTVSPropertyOp15
 70
     1
102
RTVSPropertyOp16
 70
     1
102
RTVSPropertyOp17
 70
     1
102
RTVSPropertyOp18
 70
     1
102
RTVSPropertyOp19
 70
     1
102
RTVSPropertyOp20
 70
     1
102
RTVSPropertyOp21
 70
     1
102
RTVSPropertyOp22
 70
     1
102
RTVSPropertyOp23
 70
     1
102
RTVSPropertyOp24
 70
     1
102
RTVSPropertyOp25
 70
     1
102
RTVSPropertyOp26
 70
     1
102
RTVSPropertyOp27
 70
     1
102
RTVSPropertyOp28
 70
     1
102
RTVSPropertyOp29
 70
     1
102
RTVSPropertyOp30
 70
     1
102
RTVSPropertyOp31
 70
     1
102
RTVSPropertyOp32
 70
     1
  0
XRECORD
  5
371
102
{ACAD_REACTORS
330
370
102
}
330
370
100
AcDbXrecord
280
     1
102
RTVSPropertyOp0
 70
     1
102
RTVSPropertyOp1
 70
     1
102
RTVSPropertyOp2
 70
     1
102
RTVSPropertyOp3
 70
     1
102
RTVSPropertyOp4
 70
     1
102
RTVSPropertyOp5
 70
     1
102
RTVSPropertyOp6
 70
     1
102
RTVSPropertyOp7
 70
     1
102
RTVSPropertyOp8
 70
     1
102
RTVSPropertyOp9
 70
     1
102
RTVSPropertyOp10
 70
     1
102
RTVSPropertyOp11
 70
     1
102
RTVSPropertyOp12
 70
     1
102
RTVSPropertyOp13
 70
     1
102
RTVSPropertyOp14
 70
     1
102
RTVSPropertyOp15
 70
     1
102
RTVSPropertyOp16
 70
     1
102
RTVSPropertyOp17
 70
     1
102
RTVSPropertyOp18
 70
     1
102
RTVSPropertyOp19
 70
     1
102
RTVSPropertyOp20
 70
     1
102
RTVSPropertyOp21
 70
     1
102
RTVSPropertyOp22
 70
     1
102
RTVSPropertyOp23
 70
     1
102
RTVSPropertyOp24
 70
     1
102
RTVSPropertyOp25
 70
     1
102
RTVSPropertyOp26
 70
     1
102
RTVSPropertyOp27
 70
     1
102
RTVSPropertyOp28
 70
     1
102
RTVSPropertyOp29
 70
     1
102
RTVSPropertyOp30
 70
     1
102
RTVSPropertyOp31
 70
     1
102
RTVSPropertyOp32
 70
     1
  0
XRECORD
  5
373
102
{ACAD_REACTORS
330
372
102
}
330
372
100
AcDbXrecord
280
     1
102
RTVSPropertyOp0
 70
     1
102
RTVSPropertyOp1
 70
     1
102
RTVSPropertyOp2
 70
     1
102
RTVSPropertyOp3
 70
     1
102
RTVSPropertyOp4
 70
     1
102
RTVSPropertyOp5
 70
     1
102
RTVSPropertyOp6
 70
     1
102
RTVSPropertyOp7
 70
     1
102
RTVSPropertyOp8
 70
     1
102
RTVSPropertyOp9
 70
     1
102
RTVSPropertyOp10
 70
     1
102
RTVSPropertyOp11
 70
     1
102
RTVSPropertyOp12
 70
     1
102
RTVSPropertyOp13
 70
     1
102
RTVSPropertyOp14
 70
     1
102
RTVSPropertyOp15
 70
     1
102
RTVSPropertyOp16
 70
     1
102
RTVSPropertyOp17
 70
     1
102
RTVSPropertyOp18
 70
     1
102
RTVSPropertyOp19
 70
     1
102
RTVSPropertyOp20
 70
     1
102
RTVSPropertyOp21
 70
     1
102
RTVSPropertyOp22
 70
     1
102
RTVSPropertyOp23
 70
     1
102
RTVSPropertyOp24
 70
     1
102
RTVSPropertyOp25
 70
     1
102
RTVSPropertyOp26
 70
     1
102
RTVSPropertyOp27
 70
     1
102
RTVSPropertyOp28
 70
     1
102
RTVSPropertyOp29
 70
     1
102
RTVSPropertyOp30
 70
     1
102
RTVSPropertyOp31
 70
     1
102
RTVSPropertyOp32
 70
     1
  0
XRECORD
  5
37B
102
{ACAD_REACTORS
330
37A
102
}
330
37A
100
AcDbXrecord
280
     1
102
RTVSPropertyOp0
 70
     1
102
RTVSPropertyOp1
 70
     1
102
RTVSPropertyOp2
 70
     1
102
RTVSPropertyOp3
 70
     1
102
RTVSPropertyOp4
 70
     1
102
RTVSPropertyOp5
 70
     1
102
RTVSPropertyOp6
 70
     1
102
RTVSPropertyOp7
 70
     1
102
RTVSPropertyOp8
 70
     1
102
RTVSPropertyOp9
 70
     1
102
RTVSPropertyOp10
 70
     1
102
RTVSPropertyOp11
 70
     1
102
RTVSPropertyOp12
 70
     1
102
RTVSPropertyOp13
 70
     1
102
RTVSPropertyOp14
 70
     1
102
RTVSPropertyOp15
 70
     1
102
RTVSPropertyOp16
 70
     1
102
RTVSPropertyOp17
 70
     1
102
RTVSPropertyOp18
 70
     1
102
RTVSPropertyOp19
 70
     1
102
RTVSPropertyOp20
 70
     1
102
RTVSPropertyOp21
 70
     1
102
RTVSPropertyOp22
 70
     1
102
RTVSPropertyOp23
 70
     1
102
RTVSPropertyOp24
 70
     1
102
RTVSPropertyOp25
 70
     1
102
RTVSPropertyOp26
 70
     1
102
RTVSPropertyOp27
 70
     1
102
RTVSPropertyOp28
 70
     1
102
RTVSPropertyOp29
 70
     1
102
RTVSPropertyOp30
 70
     1
102
RTVSPropertyOp31
 70
     1
102
RTVSPropertyOp32
 70
     1
  0
XRECORD
  5
35F
102
{ACAD_REACTORS
330
35E
102
}
330
35E
100
AcDbXrecord
280
     1
102
RTVSPropertyOp0
 70
     1
102
RTVSPropertyOp1
 70
     1
102
RTVSPropertyOp2
 70
     1
102
RTVSPropertyOp3
 70
     1
102
RTVSPropertyOp4
 70
     1
102
RTVSPropertyOp5
 70
     1
102
RTVSPropertyOp6
 70
     1
102
RTVSPropertyOp7
 70
     1
102
RTVSPropertyOp8
 70
     1
102
RTVSPropertyOp9
 70
     1
102
RTVSPropertyOp10
 70
     1
102
RTVSPropertyOp11
 70
     1
102
RTVSPropertyOp12
 70
     1
102
RTVSPropertyOp13
 70
     1
102
RTVSPropertyOp14
 70
     1
102
RTVSPropertyOp15
 70
     1
102
RTVSPropertyOp16
 70
     1
102
RTVSPropertyOp17
 70
     1
102
RTVSPropertyOp18
 70
     1
102
RTVSPropertyOp19
 70
     1
102
RTVSPropertyOp20
 70
     1
102
RTVSPropertyOp21
 70
     1
102
RTVSPropertyOp22
 70
     1
102
RTVSPropertyOp23
 70
     1
102
RTVSPropertyOp24
 70
     1
102
RTVSPropertyOp25
 70
     1
102
RTVSPropertyOp26
 70
     1
102
RTVSPropertyOp27
 70
     1
102
RTVSPropertyOp28
 70
     1
102
RTVSPropertyOp29
 70
     1
102
RTVSPropertyOp30
 70
     1
102
RTVSPropertyOp31
 70
     1
102
RTVSPropertyOp32
 70
     1
  0
XRECORD
  5
361
102
{ACAD_REACTORS
330
360
102
}
330
360
100
AcDbXrecord
280
     1
102
RTVSPropertyOp0
 70
     1
102
RTVSPropertyOp1
 70
     1
102
RTVSPropertyOp2
 70
     1
102
RTVSPropertyOp3
 70
     1
102
RTVSPropertyOp4
 70
     1
102
RTVSPropertyOp5
 70
     1
102
RTVSPropertyOp6
 70
     1
102
RTVSPropertyOp7
 70
     1
102
RTVSPropertyOp8
 70
     1
102
RTVSPropertyOp9
 70
     1
102
RTVSPropertyOp10
 70
     1
102
RTVSPropertyOp11
 70
     1
102
RTVSPropertyOp12
 70
     1
102
RTVSPropertyOp13
 70
     1
102
RTVSPropertyOp14
 70
     1
102
RTVSPropertyOp15
 70
     1
102
RTVSPropertyOp16
 70
     1
102
RTVSPropertyOp17
 70
     1
102
RTVSPropertyOp18
 70
     1
102
RTVSPropertyOp19
 70
     1
102
RTVSPropertyOp20
 70
     1
102
RTVSPropertyOp21
 70
     1
102
RTVSPropertyOp22
 70
     1
102
RTVSPropertyOp23
 70
     1
102
RTVSPropertyOp24
 70
     1
102
RTVSPropertyOp25
 70
     1
102
RTVSPropertyOp26
 70
     1
102
RTVSPropertyOp27
 70
     1
102
RTVSPropertyOp28
 70
     1
102
RTVSPropertyOp29
 70
     1
102
RTVSPropertyOp30
 70
     1
102
RTVSPropertyOp31
 70
     1
102
RTVSPropertyOp32
 70
     1
  0
XRECORD
  5
363
102
{ACAD_REACTORS
330
362
102
}
330
362
100
AcDbXrecord
280
     1
102
RTVSPropertyOp0
 70
     1
102
RTVSPropertyOp1
 70
     1
102
RTVSPropertyOp2
 70
     1
102
RTVSPropertyOp3
 70
     1
102
RTVSPropertyOp4
 70
     1
102
RTVSPropertyOp5
 70
     1
102
RTVSPropertyOp6
 70
     1
102
RTVSPropertyOp7
 70
     1
102
RTVSPropertyOp8
 70
     1
102
RTVSPropertyOp9
 70
     1
102
RTVSPropertyOp10
 70
     1
102
RTVSPropertyOp11
 70
     1
102
RTVSPropertyOp12
 70
     1
102
RTVSPropertyOp13
 70
     1
102
RTVSPropertyOp14
 70
     1
102
RTVSPropertyOp15
 70
     1
102
RTVSPropertyOp16
 70
     1
102
RTVSPropertyOp17
 70
     1
102
RTVSPropertyOp18
 70
     1
102
RTVSPropertyOp19
 70
     1
102
RTVSPropertyOp20
 70
     1
102
RTVSPropertyOp21
 70
     1
102
RTVSPropertyOp22
 70
     1
102
RTVSPropertyOp23
 70
     1
102
RTVSPropertyOp24
 70
     1
102
RTVSPropertyOp25
 70
     1
102
RTVSPropertyOp26
 70
     1
102
RTVSPropertyOp27
 70
     1
102
RTVSPropertyOp28
 70
     1
102
RTVSPropertyOp29
 70
     1
102
RTVSPropertyOp30
 70
     1
102
RTVSPropertyOp31
 70
     1
102
RTVSPropertyOp32
 70
     1
  0
XRECORD
  5
365
102
{ACAD_REACTORS
330
364
102
}
330
364
100
AcDbXrecord
280
     1
102
RTVSPropertyOp0
 70
     1
102
RTVSPropertyOp1
 70
     1
102
RTVSPropertyOp2
 70
     1
102
RTVSPropertyOp3
 70
     1
102
RTVSPropertyOp4
 70
     1
102
RTVSPropertyOp5
 70
     1
102
RTVSPropertyOp6
 70
     1
102
RTVSPropertyOp7
 70
     1
102
RTVSPropertyOp8
 70
     1
102
RTVSPropertyOp9
 70
     1
102
RTVSPropertyOp10
 70
     1
102
RTVSPropertyOp11
 70
     1
102
RTVSPropertyOp12
 70
     1
102
RTVSPropertyOp13
 70
     1
102
RTVSPropertyOp14
 70
     1
102
RTVSPropertyOp15
 70
     1
102
RTVSPropertyOp16
 70
     1
102
RTVSPropertyOp17
 70
     1
102
RTVSPropertyOp18
 70
     1
102
RTVSPropertyOp19
 70
     1
102
RTVSPropertyOp20
 70
     1
102
RTVSPropertyOp21
 70
     1
102
RTVSPropertyOp22
 70
     1
102
RTVSPropertyOp23
 70
     1
102
RTVSPropertyOp24
 70
     1
102
RTVSPropertyOp25
 70
     1
102
RTVSPropertyOp26
 70
     1
102
RTVSPropertyOp27
 70
     1
102
RTVSPropertyOp28
 70
     1
102
RTVSPropertyOp29
 70
     1
102
RTVSPropertyOp30
 70
     1
102
RTVSPropertyOp31
 70
     1
102
RTVSPropertyOp32
 70
     1
  0
XRECORD
  5
379
102
{ACAD_REACTORS
330
378
102
}
330
378
100
AcDbXrecord
280
     1
102
RTVSPropertyOp0
 70
     1
102
RTVSPropertyOp1
 70
     1
102
RTVSPropertyOp2
 70
     1
102
RTVSPropertyOp3
 70
     1
102
RTVSPropertyOp4
 70
     1
102
RTVSPropertyOp5
 70
     1
102
RTVSPropertyOp6
 70
     1
102
RTVSPropertyOp7
 70
     1
102
RTVSPropertyOp8
 70
     1
102
RTVSPropertyOp9
 70
     1
102
RTVSPropertyOp10
 70
     1
102
RTVSPropertyOp11
 70
     1
102
RTVSPropertyOp12
 70
     1
102
RTVSPropertyOp13
 70
     1
102
RTVSPropertyOp14
 70
     1
102
RTVSPropertyOp15
 70
     1
102
RTVSPropertyOp16
 70
     1
102
RTVSPropertyOp17
 70
     1
102
RTVSPropertyOp18
 70
     1
102
RTVSPropertyOp19
 70
     1
102
RTVSPropertyOp20
 70
     1
102
RTVSPropertyOp21
 70
     1
102
RTVSPropertyOp22
 70
     1
102
RTVSPropertyOp23
 70
     1
102
RTVSPropertyOp24
 70
     1
102
RTVSPropertyOp25
 70
     1
102
RTVSPropertyOp26
 70
     1
102
RTVSPropertyOp27
 70
     1
102
RTVSPropertyOp28
 70
     1
102
RTVSPropertyOp29
 70
     1
102
RTVSPropertyOp30
 70
     1
102
RTVSPropertyOp31
 70
     1
102
RTVSPropertyOp32
 70
     1
  0
XRECORD
  5
36F
102
{ACAD_REACTORS
330
36E
102
}
330
36E
100
AcDbXrecord
280
     1
102
RTVSPropertyOp0
 70
     1
102
RTVSPropertyOp1
 70
     1
102
RTVSPropertyOp2
 70
     1
102
RTVSPropertyOp3
 70
     1
102
RTVSPropertyOp4
 70
     1
102
RTVSPropertyOp5
 70
     1
102
RTVSPropertyOp6
 70
     1
102
RTVSPropertyOp7
 70
     1
102
RTVSPropertyOp8
 70
     1
102
RTVSPropertyOp9
 70
     1
102
RTVSPropertyOp10
 70
     1
102
RTVSPropertyOp11
 70
     1
102
RTVSPropertyOp12
 70
     1
102
RTVSPropertyOp13
 70
     1
102
RTVSPropertyOp14
 70
     1
102
RTVSPropertyOp15
 70
     1
102
RTVSPropertyOp16
 70
     1
102
RTVSPropertyOp17
 70
     1
102
RTVSPropertyOp18
 70
     1
102
RTVSPropertyOp19
 70
     1
102
RTVSPropertyOp20
 70
     1
102
RTVSPropertyOp21
 70
     1
102
RTVSPropertyOp22
 70
     1
102
RTVSPropertyOp23
 70
     1
102
RTVSPropertyOp24
 70
     1
102
RTVSPropertyOp25
 70
     1
102
RTVSPropertyOp26
 70
     1
102
RTVSPropertyOp27
 70
     1
102
RTVSPropertyOp28
 70
     1
102
RTVSPropertyOp29
 70
     1
102
RTVSPropertyOp30
 70
     1
102
RTVSPropertyOp31
 70
     1
102
RTVSPropertyOp32
 70
     1
  0
XRECORD
  5
377
102
{ACAD_REACTORS
330
376
102
}
330
376
100
AcDbXrecord
280
     1
102
RTVSPropertyOp0
 70
     1
102
RTVSPropertyOp1
 70
     1
102
RTVSPropertyOp2
 70
     1
102
RTVSPropertyOp3
 70
     1
102
RTVSPropertyOp4
 70
     1
102
RTVSPropertyOp5
 70
     1
102
RTVSPropertyOp6
 70
     1
102
RTVSPropertyOp7
 70
     1
102
RTVSPropertyOp8
 70
     1
102
RTVSPropertyOp9
 70
     1
102
RTVSPropertyOp10
 70
     1
102
RTVSPropertyOp11
 70
     1
102
RTVSPropertyOp12
 70
     1
102
RTVSPropertyOp13
 70
     1
102
RTVSPropertyOp14
 70
     1
102
RTVSPropertyOp15
 70
     1
102
RTVSPropertyOp16
 70
     1
102
RTVSPropertyOp17
 70
     1
102
RTVSPropertyOp18
 70
     1
102
RTVSPropertyOp19
 70
     1
102
RTVSPropertyOp20
 70
     1
102
RTVSPropertyOp21
 70
     1
102
RTVSPropertyOp22
 70
     1
102
RTVSPropertyOp23
 70
     1
102
RTVSPropertyOp24
 70
     1
102
RTVSPropertyOp25
 70
     1
102
RTVSPropertyOp26
 70
     1
102
RTVSPropertyOp27
 70
     1
102
RTVSPropertyOp28
 70
     1
102
RTVSPropertyOp29
 70
     1
102
RTVSPropertyOp30
 70
     1
102
RTVSPropertyOp31
 70
     1
102
RTVSPropertyOp32
 70
     1
  0
ENDSEC
  0
EOF
