  0
SECTION
  2
HEADER
  9
$ACADVER
  1
AC1015
  9
$ACADMAINTVER
 70
     6
  9
$DWGCODEPAGE
  3
ANSI_932
  9
$INSBASE
 10
0.0
 20
0.0
 30
0.0
  9
$EXTMIN
 10
0.0
 20
0.0
 30
0.0
  9
$EXTMAX
 10
420.0
 20
594.0
 30
0.0
  9
$LIMMIN
 10
0.0
 20
0.0
  9
$LIMMAX
 10
12.0
 20
9.0
  9
$ORTHOMODE
 70
     0
  9
$REGENMODE
 70
     1
  9
$FILLMODE
 70
     1
  9
$QTEXTMODE
 70
     0
  9
$MIRRTEXT
 70
     1
  9
$LTSCALE
 40
1.0
  9
$ATTMODE
 70
     1
  9
$TEXTSIZE
 40
0.2
  9
$TRACEWID
 40
0.05
  9
$TEXTSTYLE
  7
Standard
  9
$CLAYER
  8
0
  9
$CELTYPE
  6
ByLayer
  9
$CECOLOR
 62
   256
  9
$CELTSCALE
 40
1.0
  9
$DISPSILH
 70
     0
  9
$DIMSCALE
 40
1.0
  9
$DIMASZ
 40
0.18
  9
$DIMEXO
 40
0.0625
  9
$DIMDLI
 40
0.38
  9
$DIMRND
 40
0.0
  9
$DIMDLE
 40
0.0
  9
$DIMEXE
 40
0.18
  9
$DIMTP
 40
0.0
  9
$DIMTM
 40
0.0
  9
$DIMTXT
 40
0.18
  9
$DIMCEN
 40
0.09
  9
$DIMTSZ
 40
0.0
  9
$DIMTOL
 70
     0
  9
$DIMLIM
 70
     0
  9
$DIMTIH
 70
     1
  9
$DIMTOH
 70
     1
  9
$DIMSE1
 70
     0
  9
$DIMSE2
 70
     0
  9
$DIMTAD
 70
     0
  9
$DIMZIN
 70
     0
  9
$DIMBLK
  1

  9
$DIMASO
 70
     1
  9
$DIMSHO
 70
     1
  9
$DIMPOST
  1

  9
$DIMAPOST
  1

  9
$DIMALT
 70
     0
  9
$DIMALTD
 70
     2
  9
$DIMALTF
 40
25.4
  9
$DIMLFAC
 40
1.0
  9
$DIMTOFL
 70
     0
  9
$DIMTVP
 40
0.0
  9
$DIMTIX
 70
     0
  9
$DIMSOXD
 70
     0
  9
$DIMSAH
 70
     0
  9
$DIMBLK1
  1

  9
$DIMBLK2
  1

  9
$DIMSTYLE
  2
Standard
  9
$DIMCLRD
 70
     0
  9
$DIMCLRE
 70
     0
  9
$DIMCLRT
 70
     0
  9
$DIMTFAC
 40
1.0
  9
$DIMGAP
 40
0.09
  9
$DIMJUST
 70
     0
  9
$DIMSD1
 70
     0
  9
$DIMSD2
 70
     0
  9
$DIMTOLJ
 70
     1
  9
$DIMTZIN
 70
     0
  9
$DIMALTZ
 70
     0
  9
$DIMALTTZ
 70
     0
  9
$DIMUPT
 70
     0
  9
$DIMDEC
 70
     4
  9
$DIMTDEC
 70
     4
  9
$DIMALTU
 70
     2
  9
$DIMALTTD
 70
     2
  9
$DIMTXSTY
  7
Standard
  9
$DIMAUNIT
 70
     0
  9
$DIMADEC
 70
     0
  9
$DIMALTRND
 40
0.0
  9
$DIMAZIN
 70
     0
  9
$DIMDSEP
 70
    46
  9
$DIMATFIT
 70
     3
  9
$DIMFRAC
 70
     0
  9
$DIMLDRBLK
  1

  9
$DIMLUNIT
 70
     2
  9
$DIMLWD
 70
    -2
  9
$DIMLWE
 70
    -2
  9
$DIMTMOVE
 70
     0
  9
$LUNITS
 70
     2
  9
$LUPREC
 70
     4
  9
$SKETCHINC
 40
0.1
  9
$FILLETRAD
 40
0.5
  9
$AUNITS
 70
     0
  9
$AUPREC
 70
     0
  9
$MENU
  1
.
  9
$ELEVATION
 40
0.0
  9
$PELEVATION
 40
0.0
  9
$THICKNESS
 40
0.0
  9
$LIMCHECK
 70
     0
  9
$CHAMFERA
 40
0.5
  9
$CHAMFERB
 40
0.5
  9
$CHAMFERC
 40
1.0
  9
$CHAMFERD
 40
0.0
  9
$SKPOLY
 70
     0
  9
$TDCREATE
 40
2456575.572235671
  9
$TDUCREATE
 40
2456575.197235671
  9
$TDUPDATE
 40
2456575.572236933
  9
$TDUUPDATE
 40
2456575.197236933
  9
$TDINDWG
 40
0.0000000116
  9
$TDUSRTIMER
 40
0.0000000116
  9
$USRTIMER
 70
     1
  9
$ANGBASE
 50
0.0
  9
$ANGDIR
 70
     0
  9
$PDMODE
 70
     0
  9
$PDSIZE
 40
0.0
  9
$PLINEWID
 40
0.0
  9
$SPLFRAME
 70
     0
  9
$SPLINETYPE
 70
     6
  9
$SPLINESEGS
 70
     8
  9
$HANDSEED
  5
2F5
  9
$SURFTAB1
 70
     6
  9
$SURFTAB2
 70
     6
  9
$SURFTYPE
 70
     6
  9
$SURFU
 70
     6
  9
$SURFV
 70
     6
  9
$UCSBASE
  2

  9
$UCSNAME
  2

  9
$UCSORG
 10
0.0
 20
0.0
 30
0.0
  9
$UCSXDIR
 10
1.0
 20
0.0
 30
0.0
  9
$UCSYDIR
 10
0.0
 20
1.0
 30
0.0
  9
$UCSORTHOREF
  2

  9
$UCSORTHOVIEW
 70
     0
  9
$UCSORGTOP
 10
0.0
 20
0.0
 30
0.0
  9
$UCSORGBOTTOM
 10
0.0
 20
0.0
 30
0.0
  9
$UCSORGLEFT
 10
0.0
 20
0.0
 30
0.0
  9
$UCSORGRIGHT
 10
0.0
 20
0.0
 30
0.0
  9
$UCSORGFRONT
 10
0.0
 20
0.0
 30
0.0
  9
$UCSORGBACK
 10
0.0
 20
0.0
 30
0.0
  9
$PUCSBASE
  2

  9
$PUCSNAME
  2

  9
$PUCSORG
 10
0.0
 20
0.0
 30
0.0
  9
$PUCSXDIR
 10
1.0
 20
0.0
 30
0.0
  9
$PUCSYDIR
 10
0.0
 20
1.0
 30
0.0
  9
$PUCSORTHOREF
  2

  9
$PUCSORTHOVIEW
 70
     0
  9
$PUCSORGTOP
 10
0.0
 20
0.0
 30
0.0
  9
$PUCSORGBOTTOM
 10
0.0
 20
0.0
 30
0.0
  9
$PUCSORGLEFT
 10
0.0
 20
0.0
 30
0.0
  9
$PUCSORGRIGHT
 10
0.0
 20
0.0
 30
0.0
  9
$PUCSORGFRONT
 10
0.0
 20
0.0
 30
0.0
  9
$PUCSORGBACK
 10
0.0
 20
0.0
 30
0.0
  9
$USERI1
 70
     0
  9
$USERI2
 70
     0
  9
$USERI3
 70
     0
  9
$USERI4
 70
     0
  9
$USERI5
 70
     0
  9
$USERR1
 40
18.1
  9
$USERR2
 40
0.0
  9
$USERR3
 40
0.0
  9
$USERR4
 40
0.0
  9
$USERR5
 40
0.0
  9
$WORLDVIEW
 70
     1
  9
$SHADEDGE
 70
     3
  9
$SHADEDIF
 70
    70
  9
$TILEMODE
 70
     1
  9
$MAXACTVP
 70
    64
  9
$PINSBASE
 10
0.0
 20
0.0
 30
0.0
  9
$PLIMCHECK
 70
     0
  9
$PEXTMIN
 10
1.00000000000000E+20
 20
1.00000000000000E+20
 30
1.00000000000000E+20
  9
$PEXTMAX
 10
-1.00000000000000E+20
 20
-1.00000000000000E+20
 30
-1.00000000000000E+20
  9
$PLIMMIN
 10
0.0
 20
0.0
  9
$PLIMMAX
 10
12.0
 20
9.0
  9
$UNITMODE
 70
     0
  9
$VISRETAIN
 70
     1
  9
$PLINEGEN
 70
     0
  9
$PSLTSCALE
 70
     1
  9
$TREEDEPTH
 70
  3020
  9
$CMLSTYLE
  2
Standard
  9
$CMLJUST
 70
     0
  9
$CMLSCALE
 40
1.0
  9
$PROXYGRAPHICS
 70
     1
  9
$MEASUREMENT
 70
     1
  9
$CELWEIGHT
370
    -1
  9
$ENDCAPS
280
     0
  9
$JOINSTYLE
280
     0
  9
$LWDISPLAY
290
     0
  9
$INSUNITS
 70
     4
  9
$HYPERLINKBASE
  1

  9
$STYLESHEET
  1

  9
$XEDIT
290
     1
  9
$CEPSNTYPE
380
     0
  9
$PSTYLEMODE
290
     1
  9
$FINGERPRINTGUID
  2
{0D6756F9-723F-496D-AAA4-E4793FDEECBB}
  9
$VERSIONGUID
  2
{FAEB1C32-E019-11D5-929B-00C0DF256EC4}
  9
$EXTNAMES
290
     1
  9
$PSVPSCALE
 40
0.0
  9
$OLESTARTUP
290
     0
  0
ENDSEC
  0
SECTION
  2
CLASSES
  0
CLASS
  1
ACDBDICTIONARYWDFLT
  2
AcDbDictionaryWithDefault
  3
ObjectDBX Classes
 90
        0
280
     0
281
     0
  0
CLASS
  1
VISUALSTYLE
  2
AcDbVisualStyle
  3
ObjectDBX Classes
 90
     4095
280
     0
281
     0
  0
CLASS
  1
MATERIAL
  2
AcDbMaterial
  3
ObjectDBX Classes
 90
     1153
280
     0
281
     0
  0
CLASS
  1
DICTIONARYVAR
  2
AcDbDictionaryVar
  3
ObjectDBX Classes
 90
        0
280
     0
281
     0
  0
CLASS
  1
ACDBPLACEHOLDER
  2
AcDbPlaceHolder
  3
ObjectDBX Classes
 90
        0
280
     0
281
     0
  0
CLASS
  1
LAYOUT
  2
AcDbLayout
  3
ObjectDBX Classes
 90
        0
280
     0
281
     0
  0
ENDSEC
  0
SECTION
  2
TABLES
  0
TABLE
  2
VPORT
  5
8
330
0
100
AcDbSymbolTable
 70
     1
  0
VPORT
  5
29
330
8
100
AcDbSymbolTableRecord
100
AcDbViewportTableRecord
  2
*Active
 70
     0
 10
0.0
 20
0.0
 11
1.0
 21
1.0
 12
210.0
 22
297.0
 13
0.0
 23
0.0
 14
0.5
 24
0.5
 15
0.5
 25
0.5
 16
0.0
 26
0.0
 36
1.0
 17
0.0
 27
0.0
 37
0.0
 40
653.4000000000001
 41
1.60267857142857
 42
50.0
 43
0.0
 44
0.0
 50
0.0
 51
0.0
 71
     0
 72
   100
 73
     1
 74
     3
 75
     0
 76
     0
 77
     0
 78
     0
281
     0
 65
     1
110
0.0
120
0.0
130
0.0
111
1.0
121
0.0
131
0.0
112
0.0
122
1.0
132
0.0
 79
     0
146
0.0
  0
ENDTAB
  0
TABLE
  2
LTYPE
  5
5
330
0
100
AcDbSymbolTable
 70
     8
  0
LTYPE
  5
14
330
5
100
AcDbSymbolTableRecord
100
AcDbLinetypeTableRecord
  2
ByBlock
 70
     0
  3

 72
    65
 73
     0
 40
0.0
  0
LTYPE
  5
15
330
5
100
AcDbSymbolTableRecord
100
AcDbLinetypeTableRecord
  2
ByLayer
 70
     0
  3

 72
    65
 73
     0
 40
0.0
  0
LTYPE
  5
16
330
5
100
AcDbSymbolTableRecord
100
AcDbLinetypeTableRecord
  2
Continuous
 70
     0
  3
Solid line
 72
    65
 73
     0
 40
0.0
  0
LTYPE
  5
3F
330
5
100
AcDbSymbolTableRecord
100
AcDbLinetypeTableRecord
  2
DASHED
 70
     0
  3
Dashed
 72
    65
 73
     2
 40
15.0
 49
7.0
 74
     0
 49
-8.0
 74
     0
  0
LTYPE
  5
40
330
5
100
AcDbSymbolTableRecord
100
AcDbLinetypeTableRecord
  2
DOTTED
 70
     0
  3
Dotted
 72
    65
 73
     2
 40
1.0
 49
0.0
 74
     0
 49
-1.0
 74
     0
  0
LTYPE
  5
41
330
5
100
AcDbSymbolTableRecord
100
AcDbLinetypeTableRecord
  2
DOT_CENTER
 70
     0
  3
Dot_Center
 72
    65
 73
     4
 40
14.0
 49
12.0
 74
     0
 49
-1.0
 74
     0
 49
0.0
 74
     0
 49
-1.0
 74
     0
  0
LTYPE
  5
42
330
5
100
AcDbSymbolTableRecord
100
AcDbLinetypeTableRecord
  2
LONG_DASHED
 70
     0
  3
Long_Dashed
 72
    65
 73
     2
 40
15.0
 49
10.0
 74
     0
 49
-5.0
 74
     0
  0
LTYPE
  5
43
330
5
100
AcDbSymbolTableRecord
100
AcDbLinetypeTableRecord
  2
DASH_CENTER
 70
     0
  3
Dash_Center
 72
    65
 73
     4
 40
14.0
 49
11.0
 74
     0
 49
-1.0
 74
     0
 49
1.0
 74
     0
 49
-1.0
 74
     0
  0
LTYPE
  5
44
330
5
100
AcDbSymbolTableRecord
100
AcDbLinetypeTableRecord
  2
PHANTOM
 70
     0
  3
Phantom
 72
    65
 73
     6
 40
13.0
 49
10.0
 74
     0
 49
-1.0
 74
     0
 49
0.0
 74
     0
 49
-1.0
 74
     0
 49
0.0
 74
     0
 49
-1.0
 74
     0
  0
LTYPE
  5
45
330
5
100
AcDbSymbolTableRecord
100
AcDbLinetypeTableRecord
  2
CENTER_DASH_DASH
 70
     0
  3
Center_Dash_Dash
 72
    65
 73
     6
 40
14.0
 49
9.0
 74
     0
 49
-1.0
 74
     0
 49
1.0
 74
     0
 49
-1.0
 74
     0
 49
1.0
 74
     0
 49
-1.0
 74
     0
  0
ENDTAB
  0
TABLE
  2
LAYER
  5
2
330
0
100
AcDbSymbolTable
 70
     2
  0
LAYER
  5
10
330
2
100
AcDbSymbolTableRecord
100
AcDbLayerTableRecord
  2
0
 70
     0
 62
     7
  6
Continuous
370
    -3
390
F
  0
LAYER
  5
46
330
2
100
AcDbSymbolTableRecord
100
AcDbLayerTableRecord
  2
1
 70
     0
 62
     7
  6
Continuous
370
    -3
390
F
  0
ENDTAB
  0
TABLE
  2
STYLE
  5
3
330
0
100
AcDbSymbolTable
 70
     3
  0
STYLE
  5
11
330
3
100
AcDbSymbolTableRecord
100
AcDbTextStyleTableRecord
  2
Standard
 70
     0
 40
0.0
 41
1.0
 50
0.0
 71
     0
 42
0.2
  3
txt
  4

  0
STYLE
  5
DC
330
3
100
AcDbSymbolTableRecord
100
AcDbTextStyleTableRecord
  2
CONVERTER_11
 70
     0
 40
0.0
 41
0.89
 50
0.0
 71
     0
 42
0.2
  3
MS Mincho.ttf
  4

1001
ACAD
1000
MS Mincho
1071
    32785
  0
STYLE
  5
259
330
3
100
AcDbSymbolTableRecord
100
AcDbTextStyleTableRecord
  2
CONVERTER_12
 70
     0
 40
0.0
 41
0.9
 50
0.0
 71
     0
 42
0.2
  3
txt.shx
  4

  0
ENDTAB
  0
TABLE
  2
VIEW
  5
6
330
0
100
AcDbSymbolTable
 70
     0
  0
ENDTAB
  0
TABLE
  2
UCS
  5
7
330
0
100
AcDbSymbolTable
 70
     0
  0
ENDTAB
  0
TABLE
  2
APPID
  5
9
330
0
100
AcDbSymbolTable
 70
     1
  0
APPID
  5
12
330
9
100
AcDbSymbolTableRecord
100
AcDbRegAppTableRecord
  2
ACAD
 70
     0
  0
ENDTAB
  0
TABLE
  2
DIMSTYLE
  5
A
330
0
100
AcDbSymbolTable
 70
    10
100
AcDbDimStyleTable
  0
DIMSTYLE
105
27
330
A
100
AcDbSymbolTableRecord
100
AcDbDimStyleTableRecord
  2
Standard
 70
     0
178
     0
340
11
  0
DIMSTYLE
105
26B
102
{ACAD_REACTORS
330
26C
102
}
330
A
100
AcDbSymbolTableRecord
100
AcDbDimStyleTableRecord
  2
ME10_DIM_10
 70
     0
  3
{\Fgdt;n}<>
 41
7.0
 42
0.0
 44
2.0
 73
     0
 74
     0
 77
     1
 78
     8
140
7.0
147
2.0
172
     1
173
     1
174
     1
175
     1
176
     2
177
     2
271
     2
178
     7
271
     2
340
259
  0
DIMSTYLE
105
276
102
{ACAD_REACTORS
330
277
102
}
330
A
100
AcDbSymbolTableRecord
100
AcDbDimStyleTableRecord
  2
ME10_DIM_11
 70
     0
 41
7.0
 42
0.0
 44
2.0
 73
     0
 74
     0
 77
     1
 78
     8
140
7.0
147
2.0
172
     1
173
     1
174
     1
175
     1
176
     2
177
     2
271
     2
178
     7
271
     2
340
259
  0
DIMSTYLE
105
281
102
{ACAD_REACTORS
330
282
102
}
330
A
100
AcDbSymbolTableRecord
100
AcDbDimStyleTableRecord
  2
ME10_DIM_12
 70
     0
 41
7.0
 42
0.0
 44
2.0
 73
     0
 74
     0
 77
     1
 78
     8
140
7.0
147
2.0
172
     1
173
     1
174
     1
175
     1
176
     2
177
     2
271
     2
178
     7
271
     2
340
259
  0
DIMSTYLE
105
28C
102
{ACAD_REACTORS
330
28D
102
}
330
A
100
AcDbSymbolTableRecord
100
AcDbDimStyleTableRecord
  2
ME10_DIM_13
 70
     0
 41
7.0
 42
0.0
 44
2.0
 73
     0
 74
     0
 77
     1
 78
     8
140
7.0
147
2.0
172
     1
173
     1
174
     1
175
     1
176
     2
177
     2
271
     2
178
     7
271
     2
340
259
  0
DIMSTYLE
105
297
102
{ACAD_REACTORS
330
298
102
}
330
A
100
AcDbSymbolTableRecord
100
AcDbDimStyleTableRecord
  2
ME10_DIM_14
 70
     0
  3
{\Fgdt;n}<>
 41
7.0
 42
0.0
 44
2.0
 73
     0
 74
     0
 77
     1
 78
     8
140
7.0
147
2.0
172
     1
173
     1
174
     1
175
     1
176
     2
177
     2
271
     2
178
     7
271
     2
340
259
  0
DIMSTYLE
105
2A3
102
{ACAD_REACTORS
330
2A4
102
}
330
A
100
AcDbSymbolTableRecord
100
AcDbDimStyleTableRecord
  2
ME10_DIM_15
 70
     0
 41
7.0
 42
0.0
 44
2.0
 73
     0
 74
     0
 77
     1
 78
     8
140
7.0
147
2.0
172
     1
173
     1
174
     1
175
     1
176
     2
177
     2
271
     2
178
     7
271
     2
340
259
  0
DIMSTYLE
105
2B0
102
{ACAD_REACTORS
330
2B1
102
}
330
A
100
AcDbSymbolTableRecord
100
AcDbDimStyleTableRecord
  2
ME10_DIM_16
 70
     0
 41
7.0
 42
0.0
 44
2.0
 73
     0
 74
     0
 77
     1
 78
     8
140
7.0
147
2.0
172
     1
173
     1
174
     1
175
     1
176
     2
177
     2
271
     2
178
     7
271
     2
340
259
  0
DIMSTYLE
105
2BB
102
{ACAD_REACTORS
330
2BC
102
}
330
A
100
AcDbSymbolTableRecord
100
AcDbDimStyleTableRecord
  2
ME10_DIM_17
 70
     0
  3
<>
 41
7.0
 42
0.0
 44
2.0
 73
     0
 74
     0
 77
     1
 78
     8
140
7.0
147
2.0
172
     1
173
     1
174
     1
175
     1
176
     2
177
     2
271
     2
178
     7
271
     2
340
DC
  0
DIMSTYLE
105
2C8
102
{ACAD_REACTORS
330
2C9
102
}
330
A
100
AcDbSymbolTableRecord
100
AcDbDimStyleTableRecord
  2
ME10_DIM_18
 70
     0
 41
7.0
 42
0.0
 44
2.0
 73
     0
 74
     0
 77
     1
 78
     8
140
7.0
147
2.0
172
     1
173
     1
174
     1
175
     1
176
     2
177
     2
271
     2
178
     7
271
     2
340
259
  0
ENDTAB
  0
TABLE
  2
BLOCK_RECORD
  5
1
330
0
100
AcDbSymbolTable
 70
    21
  0
BLOCK_RECORD
  5
1F
330
1
100
AcDbSymbolTableRecord
100
AcDbBlockTableRecord
  2
*Model_Space
340
22
  0
BLOCK_RECORD
  5
1B
330
1
100
AcDbSymbolTableRecord
100
AcDbBlockTableRecord
  2
*Paper_Space
340
1E
  0
BLOCK_RECORD
  5
23
330
1
100
AcDbSymbolTableRecord
100
AcDbBlockTableRecord
  2
*Paper_Space0
340
26
  0
BLOCK_RECORD
  5
47
330
1
100
AcDbSymbolTableRecord
100
AcDbBlockTableRecord
  2
38-134
340
0
102
{BLKREFS
331
6C
102
}
  0
BLOCK_RECORD
  5
4A
330
1
100
AcDbSymbolTableRecord
100
AcDbBlockTableRecord
  2
開示A4
340
0
102
{BLKREFS
331
6D
102
}
  0
BLOCK_RECORD
  5
4D
330
1
100
AcDbSymbolTableRecord
100
AcDbBlockTableRecord
  2
21-1C
340
0
102
{BLKREFS
331
5A
102
}
  0
BLOCK_RECORD
  5
50
330
1
100
AcDbSymbolTableRecord
100
AcDbBlockTableRecord
  2
42-1
340
0
102
{BLKREFS
331
5B
102
}
  0
BLOCK_RECORD
  5
53
330
1
100
AcDbSymbolTableRecord
100
AcDbBlockTableRecord
  2
36-1A-13-M4
340
0
102
{BLKREFS
331
5C
102
}
  0
BLOCK_RECORD
  5
56
330
1
100
AcDbSymbolTableRecord
100
AcDbBlockTableRecord
  2
37-1-13
340
0
102
{BLKREFS
331
5D
102
}
  0
BLOCK_RECORD
  5
59
330
1
100
AcDbSymbolTableRecord
100
AcDbBlockTableRecord
  2
R10AK-13-B
340
0
102
{BLKREFS
331
6E
102
}
  0
BLOCK_RECORD
  5
60
330
1
100
AcDbSymbolTableRecord
100
AcDbBlockTableRecord
  2
62-1B-M2
340
0
102
{BLKREFS
331
6F
102
}
  0
BLOCK_RECORD
  5
63
330
1
100
AcDbSymbolTableRecord
100
AcDbBlockTableRecord
  2
32-1-16
340
0
102
{BLKREFS
331
70
102
}
  0
BLOCK_RECORD
  5
66
330
1
100
AcDbSymbolTableRecord
100
AcDbBlockTableRecord
  2
75-2
340
0
102
{BLKREFS
331
71
102
}
  0
BLOCK_RECORD
  5
69
330
1
100
AcDbSymbolTableRecord
100
AcDbBlockTableRecord
  2
Y13-0A
340
0
102
{BLKREFS
331
72
102
}
  0
BLOCK_RECORD
  5
260
330
1
100
AcDbSymbolTableRecord
100
AcDbBlockTableRecord
  2
*D12
340
0
  0
BLOCK_RECORD
  5
26D
330
1
100
AcDbSymbolTableRecord
100
AcDbBlockTableRecord
  2
*D13
340
0
  0
BLOCK_RECORD
  5
278
330
1
100
AcDbSymbolTableRecord
100
AcDbBlockTableRecord
  2
*D14
340
0
  0
BLOCK_RECORD
  5
283
330
1
100
AcDbSymbolTableRecord
100
AcDbBlockTableRecord
  2
*D15
340
0
  0
BLOCK_RECORD
  5
28E
330
1
100
AcDbSymbolTableRecord
100
AcDbBlockTableRecord
  2
*D16
340
0
  0
BLOCK_RECORD
  5
299
330
1
100
AcDbSymbolTableRecord
100
AcDbBlockTableRecord
  2
*D17
340
0
  0
BLOCK_RECORD
  5
2A5
330
1
100
AcDbSymbolTableRecord
100
AcDbBlockTableRecord
  2
*D18
340
0
  0
BLOCK_RECORD
  5
2B2
330
1
100
AcDbSymbolTableRecord
100
AcDbBlockTableRecord
  2
*D19
340
0
  0
BLOCK_RECORD
  5
2BD
330
1
100
AcDbSymbolTableRecord
100
AcDbBlockTableRecord
  2
*D20
340
0
  0
ENDTAB
  0
ENDSEC
  0
SECTION
  2
BLOCKS
  0
BLOCK
  5
20
330
1F
100
AcDbEntity
  8
0
100
AcDbBlockBegin
  2
*Model_Space
 70
     0
 10
0.0
 20
0.0
 30
0.0
  3
*Model_Space
  1

  0
ENDBLK
  5
21
330
1F
100
AcDbEntity
  8
0
100
AcDbBlockEnd
  0
BLOCK
  5
1C
330
1B
100
AcDbEntity
 67
     1
  8
0
100
AcDbBlockBegin
  2
*Paper_Space
 70
     0
 10
0.0
 20
0.0
 30
0.0
  3
*Paper_Space
  1

  0
ENDBLK
  5
1D
330
1B
100
AcDbEntity
 67
     1
  8
0
100
AcDbBlockEnd
  0
BLOCK
  5
24
330
23
100
AcDbEntity
  8
0
100
AcDbBlockBegin
  2
*Paper_Space0
 70
     0
 10
0.0
 20
0.0
 30
0.0
  3
*Paper_Space0
  1

  0
ENDBLK
  5
25
330
23
100
AcDbEntity
  8
0
100
AcDbBlockEnd
  0
BLOCK
  5
48
330
47
100
AcDbEntity
  8
0
100
AcDbBlockBegin
  2
38-134
 70
     0
 10
378.3933942505003
 20
260.3211386873057
 30
0.0
  3
38-134
  1

  0
LINE
  5
73
330
47
100
AcDbEntity
  8
1
  6
Continuous
 62
     7
100
AcDbLine
 10
299.3534193263498
 20
195.4151220513302
 30
0.0
 11
299.3534193263498
 21
218.4151220513302
 31
0.0
  0
LINE
  5
74
330
47
100
AcDbEntity
  8
1
  6
Continuous
 62
     7
100
AcDbLine
 10
327.3534193263498
 20
183.9151220513302
 30
0.0
 11
327.3534193263498
 21
229.9151220513302
 31
0.0
  0
LINE
  5
75
330
47
100
AcDbEntity
  8
0
  6
Continuous
 62
     7
100
AcDbLine
 10
299.8534193263498
 20
218.9151220513302
 30
0.0
 11
315.3534193263498
 21
218.9151220513302
 31
0.0
  0
LINE
  5
76
330
47
100
AcDbEntity
  8
0
  6
Continuous
 62
     7
100
AcDbLine
 10
323.3534193263498
 20
229.9151220513302
 30
0.0
 11
327.3534193263498
 21
229.9151220513302
 31
0.0
  0
LINE
  5
77
330
47
100
AcDbEntity
  8
0
  6
Continuous
 62
     7
100
AcDbLine
 10
299.8534193263498
 20
218.9151220513302
 30
0.0
 11
299.3534193263498
 21
218.4151220513302
 31
0.0
  0
LINE
  5
78
330
47
100
AcDbEntity
  8
0
  6
Continuous
 62
     7
100
AcDbLine
 10
315.3534193263498
 20
194.9151220513302
 30
0.0
 11
299.8534193263498
 21
194.9151220513302
 31
0.0
  0
LINE
  5
79
330
47
100
AcDbEntity
  8
0
  6
Continuous
 62
     7
100
AcDbLine
 10
317.3534193263498
 20
189.9151220513302
 30
0.0
 11
317.3534193263498
 21
223.9151220513302
 31
0.0
  0
LINE
  5
7A
330
47
100
AcDbEntity
  8
0
  6
Continuous
 62
     7
100
AcDbLine
 10
327.3534193263498
 20
183.9151220513302
 30
0.0
 11
323.3534193263498
 21
183.9151220513302
 31
0.0
  0
LINE
  5
7B
330
47
100
AcDbEntity
  8
0
  6
Continuous
 62
     7
100
AcDbLine
 10
299.3534193263498
 20
195.4151220513302
 30
0.0
 11
299.8534193263498
 21
194.9151220513302
 31
0.0
  0
LINE
  5
7C
330
47
100
AcDbEntity
  8
0
  6
Continuous
 62
     7
100
AcDbLine
 10
299.8534193263498
 20
194.9151220513302
 30
0.0
 11
299.8534193263498
 21
218.9151220513302
 31
0.0
  0
LINE
  5
7D
330
47
100
AcDbEntity
  8
1
  6
Continuous
 62
     7
100
AcDbLine
 10
114.8534193263497
 20
433.988578856319
 30
0.0
 11
91.85341932634972
 21
433.9885788563191
 31
0.0
  0
LINE
  5
7E
330
47
100
AcDbEntity
  8
1
  6
Continuous
 62
     7
100
AcDbLine
 10
126.3534193263497
 20
461.9885788563191
 30
0.0
 11
80.35341932634972
 21
461.9885788563191
 31
0.0
  0
LINE
  5
7F
330
47
100
AcDbEntity
  8
0
  6
Continuous
 62
     7
100
AcDbLine
 10
91.35341932634972
 20
434.4885788563191
 30
0.0
 11
91.35341932634972
 21
449.988578856319
 31
0.0
  0
LINE
  5
80
330
47
100
AcDbEntity
  8
0
  6
Continuous
 62
     7
100
AcDbLine
 10
80.35341932634972
 20
457.9885788563191
 30
0.0
 11
80.35341932634972
 21
461.9885788563191
 31
0.0
  0
LINE
  5
81
330
47
100
AcDbEntity
  8
0
  6
Continuous
 62
     7
100
AcDbLine
 10
91.35341932634972
 20
434.4885788563191
 30
0.0
 11
91.85341932634972
 21
433.9885788563191
 31
0.0
  0
LINE
  5
82
330
47
100
AcDbEntity
  8
0
  6
Continuous
 62
     7
100
AcDbLine
 10
115.3534193263497
 20
449.988578856319
 30
0.0
 11
115.3534193263497
 21
434.488578856319
 31
0.0
  0
LINE
  5
83
330
47
100
AcDbEntity
  8
0
  6
Continuous
 62
     7
100
AcDbLine
 10
120.3534193263497
 20
451.988578856319
 30
0.0
 11
86.35341932634972
 21
451.988578856319
 31
0.0
  0
LINE
  5
84
330
47
100
AcDbEntity
  8
0
  6
Continuous
 62
     7
100
AcDbLine
 10
126.3534193263497
 20
461.9885788563191
 30
0.0
 11
126.3534193263497
 21
457.9885788563191
 31
0.0
  0
LINE
  5
85
330
47
100
AcDbEntity
  8
0
  6
Continuous
 62
     7
100
AcDbLine
 10
114.8534193263497
 20
433.988578856319
 30
0.0
 11
115.3534193263497
 21
434.488578856319
 31
0.0
  0
LINE
  5
86
330
47
100
AcDbEntity
  8
0
  6
Continuous
 62
     7
100
AcDbLine
 10
115.3534193263497
 20
434.488578856319
 30
0.0
 11
91.35341932634972
 21
434.4885788563191
 31
0.0
  0
ARC
  5
87
330
47
100
AcDbEntity
  8
0
  6
Continuous
 62
     7
100
AcDbCircle
 10
103.3534193263497
 20
206.9151220513302
 30
0.0
 40
22.99999999999998
100
AcDbArc
 50
289.8183973145416
 51
58.55101861062047
  0
ARC
  5
88
330
47
100
AcDbEntity
  8
0
  6
Continuous
 62
     7
100
AcDbCircle
 10
103.3534193263497
 20
206.9151220513302
 30
0.0
 40
23.00000000000001
100
AcDbArc
 50
121.4489813893795
 51
250.1816026854739
  0
ARC
  5
89
330
47
100
AcDbEntity
  8
0
  6
Continuous
 62
     7
100
AcDbCircle
 10
323.3534193263498
 20
223.9151220513302
 30
0.0
 40
6.0
100
AcDbArc
 50
90.0
 51
180.0
  0
ARC
  5
8A
330
47
100
AcDbEntity
  8
0
  6
Continuous
 62
     7
100
AcDbCircle
 10
315.3534193263498
 20
220.9151220513302
 30
0.0
 40
2.0
100
AcDbArc
 50
270.0
 51
0.0
  0
ARC
  5
8B
330
47
100
AcDbEntity
  8
0
  6
Continuous
 62
     7
100
AcDbCircle
 10
323.3534193263498
 20
189.9151220513302
 30
0.0
 40
6.0
100
AcDbArc
 50
180.0
 51
270.0
  0
ARC
  5
8C
330
47
100
AcDbEntity
  8
0
  6
Continuous
 62
     7
100
AcDbCircle
 10
315.3534193263498
 20
192.9151220513302
 30
0.0
 40
2.0
100
AcDbArc
 50
0.0
 51
90.0
  0
ARC
  5
8D
330
47
100
AcDbEntity
  8
0
  6
Continuous
 62
     7
100
AcDbCircle
 10
86.35341932634972
 20
457.9885788563191
 30
0.0
 40
6.0
100
AcDbArc
 50
180.0
 51
270.0
  0
ARC
  5
8E
330
47
100
AcDbEntity
  8
0
  6
Continuous
 62
     7
100
AcDbCircle
 10
89.35341932634972
 20
449.988578856319
 30
0.0
 40
2.0
100
AcDbArc
 50
0.0
 51
90.0
  0
ARC
  5
8F
330
47
100
AcDbEntity
  8
0
  6
Continuous
 62
     7
100
AcDbCircle
 10
120.3534193263497
 20
457.9885788563191
 30
0.0
 40
6.000000000000114
100
AcDbArc
 50
270.0
 51
0.0
  0
ARC
  5
90
330
47
100
AcDbEntity
  8
0
  6
Continuous
 62
     7
100
AcDbCircle
 10
117.3534193263497
 20
449.988578856319
 30
0.0
 40
2.0
100
AcDbArc
 50
90.0
 51
180.0
  0
ENDBLK
  5
49
330
47
100
AcDbEntity
  8
0
100
AcDbBlockEnd
  0
BLOCK
  5
4B
330
4A
100
AcDbEntity
  8
0
100
AcDbBlockBegin
  2
開示A4
 70
     0
 10
0.0
 20
0.0
 30
0.0
  3
開示A4
  1

  0
POINT
  5
91
330
4A
100
AcDbEntity
  8
1
 62
     4
100
AcDbPoint
 10
34.0
 20
34.00000000000001
 30
0.0
  0
POINT
  5
92
330
4A
100
AcDbEntity
  8
1
 62
     4
100
AcDbPoint
 10
57.0
 20
12.25
 30
0.0
  0
POINT
  5
93
330
4A
100
AcDbEntity
  8
1
 62
     4
100
AcDbPoint
 10
57.0
 20
20.75000000000001
 30
0.0
  0
POINT
  5
94
330
4A
100
AcDbEntity
  8
1
 62
     4
100
AcDbPoint
 10
57.0
 20
24.75000000000001
 30
0.0
  0
POINT
  5
95
330
4A
100
AcDbEntity
  8
1
 62
     4
100
AcDbPoint
 10
57.0
 20
16.25
 30
0.0
  0
POINT
  5
96
330
4A
100
AcDbEntity
  8
1
 62
     4
100
AcDbPoint
 10
157.5
 20
19.00000000000001
 30
0.0
  0
POINT
  5
97
330
4A
100
AcDbEntity
  8
1
 62
     4
100
AcDbPoint
 10
47.5
 20
282.0000000000003
 30
0.0
  0
POINT
  5
98
330
4A
100
AcDbEntity
  8
1
 62
     4
100
AcDbPoint
 10
57.0
 20
22.75000000000001
 30
0.0
  0
POINT
  5
99
330
4A
100
AcDbEntity
  8
1
 62
     4
100
AcDbPoint
 10
57.0
 20
14.25
 30
0.0
  0
POINT
  5
9A
330
4A
100
AcDbEntity
  8
1
 62
     4
100
AcDbPoint
 10
157.5
 20
12.5
 30
0.0
  0
POINT
  5
9B
330
4A
100
AcDbEntity
  8
1
 62
     4
100
AcDbPoint
 10
163.25
 20
12.5
 30
0.0
  0
POINT
  5
9C
330
4A
100
AcDbEntity
  8
1
 62
     4
100
AcDbPoint
 10
151.75
 20
12.5
 30
0.0
  0
POINT
  5
9D
330
4A
100
AcDbEntity
  8
1
 62
     4
100
AcDbPoint
 10
134.75
 20
12.5
 30
0.0
  0
POINT
  5
9E
330
4A
100
AcDbEntity
  8
1
 62
     4
100
AcDbPoint
 10
146.25
 20
12.5
 30
0.0
  0
POINT
  5
9F
330
4A
100
AcDbEntity
  8
1
 62
     4
100
AcDbPoint
 10
140.5
 20
12.5
 30
0.0
  0
POINT
  5
A0
330
4A
100
AcDbEntity
  8
1
 62
     4
100
AcDbPoint
 10
140.5
 20
19.00000000000001
 30
0.0
  0
POINT
  5
A1
330
4A
100
AcDbEntity
  8
1
 62
     4
100
AcDbPoint
 10
117.75
 20
12.5
 30
0.0
  0
POINT
  5
A2
330
4A
100
AcDbEntity
  8
1
 62
     4
100
AcDbPoint
 10
129.25
 20
12.5
 30
0.0
  0
POINT
  5
A3
330
4A
100
AcDbEntity
  8
1
 62
     4
100
AcDbPoint
 10
123.5
 20
12.5
 30
0.0
  0
POINT
  5
A4
330
4A
100
AcDbEntity
  8
1
 62
     4
100
AcDbPoint
 10
123.5
 20
19.00000000000001
 30
0.0
  0
POINT
  5
A5
330
4A
100
AcDbEntity
  8
1
 62
     4
100
AcDbPoint
 10
100.75
 20
12.5
 30
0.0
  0
POINT
  5
A6
330
4A
100
AcDbEntity
  8
1
 62
     4
100
AcDbPoint
 10
112.25
 20
12.5
 30
0.0
  0
POINT
  5
A7
330
4A
100
AcDbEntity
  8
1
 62
     4
100
AcDbPoint
 10
106.5
 20
12.5
 30
0.0
  0
POINT
  5
A8
330
4A
100
AcDbEntity
  8
1
 62
     4
100
AcDbPoint
 10
106.5
 20
19.00000000000001
 30
0.0
  0
POINT
  5
A9
330
4A
100
AcDbEntity
  8
1
 62
     4
100
AcDbPoint
 10
85.25
 20
17.0
 30
0.0
  0
POINT
  5
AA
330
4A
100
AcDbEntity
  8
1
 62
     4
100
AcDbPoint
 10
93.75
 20
17.0
 30
0.0
  0
LINE
  5
AB
330
4A
100
AcDbEntity
  8
1
  6
Continuous
 62
     2
100
AcDbLine
 10
81.0
 20
27.00000000000001
 30
0.0
 11
81.0
 21
10.0
 31
0.0
  0
LINE
  5
AC
330
4A
100
AcDbEntity
  8
1
  6
DOT_CENTER
 62
     2
100
AcDbLine
 10
187.0
 20
26.50000000000001
 30
0.0
 11
187.0
 21
20.50000000000001
 31
0.0
  0
LINE
  5
AD
330
4A
100
AcDbEntity
  8
1
  6
DOT_CENTER
 62
     2
100
AcDbLine
 10
184.0
 20
23.50000000000001
 30
0.0
 11
197.0
 21
23.50000000000001
 31
0.0
  0
LINE
  5
AE
330
4A
100
AcDbEntity
  8
1
  6
Continuous
 62
     7
100
AcDbLine
 10
196.0
 20
21.50000000000001
 30
0.0
 11
191.0
 21
22.30000000000001
 31
0.0
  0
LINE
  5
AF
330
4A
100
AcDbEntity
  8
1
  6
Continuous
 62
     7
100
AcDbLine
 10
196.0
 20
25.50000000000001
 30
0.0
 11
196.0
 21
21.50000000000001
 31
0.0
  0
LINE
  5
B0
330
4A
100
AcDbEntity
  8
1
  6
Continuous
 62
     7
100
AcDbLine
 10
191.0
 20
24.70000000000001
 30
0.0
 11
196.0
 21
25.50000000000001
 31
0.0
  0
LINE
  5
B1
330
4A
100
AcDbEntity
  8
1
  6
Continuous
 62
     7
100
AcDbLine
 10
191.0
 20
24.70000000000001
 30
0.0
 11
191.0
 21
22.30000000000001
 31
0.0
  0
LINE
  5
B2
330
4A
100
AcDbEntity
  8
1
  6
Continuous
 62
     2
100
AcDbLine
 10
33.0
 20
27.0
 30
0.0
 11
33.0
 21
10.0
 31
0.0
  0
LINE
  5
B3
330
4A
100
AcDbEntity
  8
1
  6
Continuous
 62
     2
100
AcDbLine
 10
25.0
 20
18.50000000000001
 30
0.0
 11
81.0
 21
18.50000000000001
 31
0.0
  0
LINE
  5
B4
330
4A
100
AcDbEntity
  8
1
  6
Continuous
 62
     7
100
AcDbLine
 10
200.0
 20
287.0000000000003
 30
0.0
 11
105.0
 21
287.0000000000003
 31
0.0
  0
LINE
  5
B5
330
4A
100
AcDbEntity
  8
1
  6
Continuous
 62
     7
100
AcDbLine
 10
200.0
 20
10.0
 30
0.0
 11
200.0
 21
148.5
 31
0.0
  0
LINE
  5
B6
330
4A
100
AcDbEntity
  8
1
  6
Continuous
 62
     7
100
AcDbLine
 10
25.0
 20
10.0
 30
0.0
 11
105.0
 21
10.0
 31
0.0
  0
LINE
  5
B7
330
4A
100
AcDbEntity
  8
1
  6
PHANTOM
 62
     4
100
AcDbLine
 10
0.0
 20
297.0
 30
0.0
 11
0.0
 21
0.0
 31
0.0
  0
LINE
  5
B8
330
4A
100
AcDbEntity
  8
1
  6
PHANTOM
 62
     4
100
AcDbLine
 10
210.0
 20
297.0
 30
0.0
 11
0.0
 21
297.0
 31
0.0
  0
LINE
  5
B9
330
4A
100
AcDbEntity
  8
1
  6
PHANTOM
 62
     4
100
AcDbLine
 10
210.0
 20
0.0
 30
0.0
 11
210.0
 21
297.0
 31
0.0
  0
LINE
  5
BA
330
4A
100
AcDbEntity
  8
1
  6
PHANTOM
 62
     4
100
AcDbLine
 10
0.0
 20
0.0
 30
0.0
 11
210.0
 21
0.0
 31
0.0
  0
LINE
  5
BB
330
4A
100
AcDbEntity
  8
1
  6
Continuous
 62
     7
100
AcDbLine
 10
25.0
 20
41.0
 30
0.0
 11
200.0
 21
41.0
 31
0.0
  0
LINE
  5
BC
330
4A
100
AcDbEntity
  8
1
  6
Continuous
 62
     7
100
AcDbLine
 10
200.0
 20
27.00000000000001
 30
0.0
 11
25.0
 21
27.00000000000001
 31
0.0
  0
LINE
  5
BD
330
4A
100
AcDbEntity
  8
1
  6
Continuous
 62
     2
100
AcDbLine
 10
33.0
 20
41.00000000000001
 30
0.0
 11
33.0
 21
27.0
 31
0.0
  0
LINE
  5
BE
330
4A
100
AcDbEntity
  8
1
  6
Continuous
 62
     2
100
AcDbLine
 10
55.0
 20
287.0000000000003
 30
0.0
 11
55.0
 21
277.0000000000003
 31
0.0
  0
LINE
  5
BF
330
4A
100
AcDbEntity
  8
1
  6
Continuous
 62
     2
100
AcDbLine
 10
40.0
 20
287.0000000000003
 30
0.0
 11
40.0
 21
277.0000000000003
 31
0.0
  0
LINE
  5
C0
330
4A
100
AcDbEntity
  8
1
  6
Continuous
 62
     7
100
AcDbLine
 10
25.0
 20
10.0
 30
0.0
 11
25.0
 21
148.5
 31
0.0
  0
LINE
  5
C1
330
4A
100
AcDbEntity
  8
1
  6
Continuous
 62
     2
100
AcDbLine
 10
55.0
 20
277.0000000000003
 30
0.0
 11
25.0
 21
277.0000000000003
 31
0.0
  0
LINE
  5
C2
330
4A
100
AcDbEntity
  8
1
  6
Continuous
 62
     2
100
AcDbLine
 10
166.0
 20
27.00000000000001
 30
0.0
 11
166.0
 21
10.0
 31
0.0
  0
LINE
  5
C3
330
4A
100
AcDbEntity
  8
1
  6
Continuous
 62
     2
100
AcDbLine
 10
132.0
 20
27.00000000000001
 30
0.0
 11
132.0
 21
9.99999999999999
 31
0.0
  0
LINE
  5
C4
330
4A
100
AcDbEntity
  8
1
  6
Continuous
 62
     2
100
AcDbLine
 10
149.0
 20
27.00000000000001
 30
0.0
 11
149.0
 21
10.0
 31
0.0
  0
LINE
  5
C5
330
4A
100
AcDbEntity
  8
1
  6
Continuous
 62
     2
100
AcDbLine
 10
115.0
 20
27.00000000000001
 30
0.0
 11
115.0
 21
9.99999999999999
 31
0.0
  0
LINE
  5
C6
330
4A
100
AcDbEntity
  8
1
  6
Continuous
 62
     2
100
AcDbLine
 10
98.0
 20
27.00000000000001
 30
0.0
 11
98.0
 21
9.99999999999999
 31
0.0
  0
LINE
  5
C7
330
4A
100
AcDbEntity
  8
1
  6
Continuous
 62
     2
100
AcDbLine
 10
166.0
 20
20.00000000000001
 30
0.0
 11
200.0
 21
20.00000000000001
 31
0.0
  0
LINE
  5
C8
330
4A
100
AcDbEntity
  8
1
  6
Continuous
 62
     2
100
AcDbLine
 10
105.0
 20
287.0000000000003
 30
0.0
 11
105.0
 21
292.0000000000003
 31
0.0
  0
LINE
  5
C9
330
4A
100
AcDbEntity
  8
1
  6
Continuous
 62
     7
100
AcDbLine
 10
105.0
 20
287.0000000000003
 30
0.0
 11
25.0
 21
287.0000000000003
 31
0.0
  0
LINE
  5
CA
330
4A
100
AcDbEntity
  8
1
  6
Continuous
 62
     2
100
AcDbLine
 10
25.0
 20
148.5
 30
0.0
 11
20.0
 21
148.5
 31
0.0
  0
LINE
  5
CB
330
4A
100
AcDbEntity
  8
1
  6
Continuous
 62
     7
100
AcDbLine
 10
25.0
 20
148.5
 30
0.0
 11
25.0
 21
287.0000000000003
 31
0.0
  0
LINE
  5
CC
330
4A
100
AcDbEntity
  8
1
  6
Continuous
 62
     2
100
AcDbLine
 10
200.0
 20
148.5
 30
0.0
 11
205.0
 21
148.5
 31
0.0
  0
LINE
  5
CD
330
4A
100
AcDbEntity
  8
1
  6
Continuous
 62
     7
100
AcDbLine
 10
200.0
 20
148.5
 30
0.0
 11
200.0
 21
287.0000000000003
 31
0.0
  0
LINE
  5
CE
330
4A
100
AcDbEntity
  8
1
  6
Continuous
 62
     2
100
AcDbLine
 10
105.0
 20
10.0
 30
0.0
 11
105.0
 21
5.0
 31
0.0
  0
LINE
  5
CF
330
4A
100
AcDbEntity
  8
1
  6
Continuous
 62
     7
100
AcDbLine
 10
105.0
 20
10.0
 30
0.0
 11
200.0
 21
10.0
 31
0.0
  0
CIRCLE
  5
D0
330
4A
100
AcDbEntity
  8
1
  6
DOT_CENTER
 62
     7
100
AcDbCircle
 10
89.5
 20
18.0
 30
0.0
 40
0.1000000000000227
  0
CIRCLE
  5
D1
330
4A
100
AcDbEntity
  8
1
  6
DOT_CENTER
 62
     7
100
AcDbCircle
 10
89.5
 20
16.0
 30
0.0
 40
0.1000000000000227
  0
CIRCLE
  5
D2
330
4A
100
AcDbEntity
  8
1
  6
Continuous
 62
     7
100
AcDbCircle
 10
187.0
 20
23.50000000000001
 30
0.0
 40
2.0
  0
CIRCLE
  5
D3
330
4A
100
AcDbEntity
  8
1
  6
Continuous
 62
     7
100
AcDbCircle
 10
187.0
 20
23.50000000000001
 30
0.0
 40
1.200000000000102
  0
CIRCLE
  5
D4
330
4A
100
AcDbEntity
  8
1
  6
Continuous
 62
     7
100
AcDbCircle
 10
154.5
 20
12.5
 30
0.0
 40
0.3000000000000114
  0
CIRCLE
  5
D5
330
4A
100
AcDbEntity
  8
1
  6
Continuous
 62
     7
100
AcDbCircle
 10
160.5
 20
12.5
 30
0.0
 40
0.3000000000000114
  0
CIRCLE
  5
D6
330
4A
100
AcDbEntity
  8
1
  6
Continuous
 62
     7
100
AcDbCircle
 10
143.5
 20
12.5
 30
0.0
 40
0.3000000000000114
  0
CIRCLE
  5
D7
330
4A
100
AcDbEntity
  8
1
  6
Continuous
 62
     7
100
AcDbCircle
 10
137.5
 20
12.5
 30
0.0
 40
0.3000000000000114
  0
CIRCLE
  5
D8
330
4A
100
AcDbEntity
  8
1
  6
Continuous
 62
     7
100
AcDbCircle
 10
126.5
 20
12.5
 30
0.0
 40
0.2999999999999972
  0
CIRCLE
  5
D9
330
4A
100
AcDbEntity
  8
1
  6
Continuous
 62
     7
100
AcDbCircle
 10
120.5
 20
12.5
 30
0.0
 40
0.2999999999999972
  0
CIRCLE
  5
DA
330
4A
100
AcDbEntity
  8
1
  6
Continuous
 62
     7
100
AcDbCircle
 10
109.5
 20
12.5
 30
0.0
 40
0.2999999999999972
  0
CIRCLE
  5
DB
330
4A
100
AcDbEntity
  8
1
  6
Continuous
 62
     7
100
AcDbCircle
 10
103.5
 20
12.5
 30
0.0
 40
0.2999999999999972
  0
MTEXT
  5
DD
330
4A
100
AcDbEntity
  8
1
 62
   250
100
AcDbMText
 10
25.0
 20
5.0
 30
0.0
 40
3.5
 41
0.0
 71
     4
 72
     1
  1
備考欄の文字列 原点位置=4
  7
CONVERTER_11
 73
     1
 44
0.54545454545455
  0
MTEXT
  5
DE
330
4A
100
AcDbEntity
  8
1
 62
     2
100
AcDbMText
 10
89.5
 20
24.00000000000001
 30
0.0
 40
3.5
 41
0.0
 71
     5
 72
     1
  1
尺度
  7
CONVERTER_11
 73
     1
 44
0.54545454545455
  0
MTEXT
  5
DF
330
4A
100
AcDbEntity
  8
1
 62
     2
100
AcDbMText
 10
135.5
 20
25.00000000000001
 30
0.0
 40
3.0
 41
0.0
 71
     5
 72
     1
  1
製図
  7
CONVERTER_11
 73
     1
 44
0.59090909090909
  0
MTEXT
  5
E0
330
4A
100
AcDbEntity
  8
1
 62
     2
100
AcDbMText
 10
152.5
 20
25.00000000000001
 30
0.0
 40
3.0
 41
0.0
 71
     5
 72
     1
  1
設計
  7
CONVERTER_11
 73
     1
 44
0.59090909090909
  0
MTEXT
  5
E1
330
4A
100
AcDbEntity
  8
1
 62
     2
100
AcDbMText
 10
118.5
 20
25.00000000000001
 30
0.0
 40
3.0
 41
0.0
 71
     5
 72
     1
  1
検図
  7
CONVERTER_11
 73
     1
 44
0.59090909090909
  0
MTEXT
  5
E2
330
4A
100
AcDbEntity
  8
1
 62
     2
100
AcDbMText
 10
175.0
 20
23.50000000000001
 30
0.0
 40
3.5
 41
0.0
 71
     5
 72
     1
  1
第三角法
  7
CONVERTER_11
 73
     1
 44
0.54545454545455
  0
MTEXT
  5
E3
330
4A
100
AcDbEntity
  8
1
 62
     2
100
AcDbMText
 10
101.5
 20
25.00000000000001
 30
0.0
 40
3.0
 41
0.0
 71
     5
 72
     1
  1
承認
  7
CONVERTER_11
 73
     1
 44
0.59090909090909
  0
MTEXT
  5
E4
330
4A
100
AcDbEntity
  8
1
 62
     2
100
AcDbMText
 10
29.0
 20
14.25
 30
0.0
 40
3.5
 41
0.0
 71
     5
 72
     1
  1
品番
  7
CONVERTER_11
 73
     1
 44
0.72727272727273
  0
MTEXT
  5
E5
330
4A
100
AcDbEntity
  8
1
 62
     2
100
AcDbMText
 10
29.0
 20
22.75
 30
0.0
 40
3.5
 41
0.0
 71
     5
 72
     1
  1
品名
  7
CONVERTER_11
 73
     1
 44
0.72727272727273
  0
MTEXT
  5
E6
330
4A
100
AcDbEntity
  8
1
 62
     2
100
AcDbMText
 10
29.0
 20
34.00000000000001
 30
0.0
 40
3.5
 41
0.0
 71
     5
 72
     1
  1
備考
  7
CONVERTER_11
 73
     1
 44
0.45454545454545
  0
MTEXT
  5
E7
330
4A
100
AcDbEntity
  8
1
 62
     2
100
AcDbMText
 10
32.5
 20
282.0000000000003
 30
0.0
 40
5.0
 41
0.0
 71
     5
 72
     1
  1
図番
  7
CONVERTER_11
 73
     1
 44
0.45454545454545
  0
MTEXT
  5
E8
330
4A
100
AcDbEntity
  8
1
 62
     7
100
AcDbMText
 10
171.5
 20
15.0
 30
0.0
 40
2.5
 41
0.0
 71
     5
 72
     1
  1
株式会社
  7
CONVERTER_11
 73
     1
 44
1.0
  0
MTEXT
  5
E9
330
4A
100
AcDbEntity
  8
1
 62
     7
100
AcDbMText
 10
188.5
 20
15.0
 30
0.0
 40
3.0
 41
0.0
 71
     5
 72
     1
  1
三栄水栓製作所
  7
CONVERTER_11
 73
     1
 44
1.0
  0
ENDBLK
  5
4C
330
4A
100
AcDbEntity
  8
0
100
AcDbBlockEnd
  0
BLOCK
  5
4E
330
4D
100
AcDbEntity
  8
0
100
AcDbBlockBegin
  2
21-1C
 70
     0
 10
169.9875733043132
 20
335.0468523528607
 30
0.0
  3
21-1C
  1

  0
LINE
  5
EA
330
4D
100
AcDbEntity
  8
1
  6
PHANTOM
 62
     4
100
AcDbLine
 10
112.0136733641942
 20
402.9885788563189
 30
0.0
 11
73.90855559767883
 21
424.988578856319
 31
0.0
  0
LINE
  5
EB
330
4D
100
AcDbEntity
  8
1
  6
PHANTOM
 62
     4
100
AcDbLine
 10
94.69316528850533
 20
402.9885788563189
 30
0.0
 11
132.7982830550207
 21
424.988578856319
 31
0.0
  0
LINE
  5
EC
330
4D
100
AcDbEntity
  8
1
  6
Continuous
 62
     7
100
AcDbLine
 10
273.3534193263498
 20
249.4151220513302
 30
0.0
 11
291.2781936142754
 21
249.4151220513303
 31
0.0
  0
LINE
  5
ED
330
4D
100
AcDbEntity
  8
1
  6
Continuous
 62
     7
100
AcDbLine
 10
291.1561051807008
 20
254.3741986570738
 30
0.0
 11
291.7733226747085
 21
249.9847439840429
 31
0.0
  0
LINE
  5
EE
330
4D
100
AcDbEntity
  8
1
  6
Continuous
 62
     7
100
AcDbLine
 10
243.9201026114197
 20
249.4151220513303
 30
0.0
 11
273.3534193263498
 21
249.4151220513302
 31
0.0
  0
LINE
  5
EF
330
4D
100
AcDbEntity
  8
1
  6
Continuous
 62
     7
100
AcDbLine
 10
242.8853775945818
 20
253.2002018066809
 30
0.0
 11
242.4334694955894
 21
249.9847086018104
 31
0.0
  0
LINE
  5
F0
330
4D
100
AcDbEntity
  8
1
  6
Continuous
 62
     7
100
AcDbLine
 10
242.9286035299609
 20
249.4151220513303
 30
0.0
 11
243.9201026114197
 21
249.4151220513303
 31
0.0
  0
LINE
  5
F1
330
4D
100
AcDbEntity
  8
1
  6
Continuous
 62
     7
100
AcDbLine
 10
76.20278423173883
 20
249.4172511747567
 30
0.0
 11
130.5040544209608
 21
249.4172511747567
 31
0.0
  0
LINE
  5
F2
330
4D
100
AcDbEntity
  8
1
  6
Continuous
 62
     7
100
AcDbLine
 10
130.9991884553317
 20
249.9868377252368
 30
0.0
 11
130.5472803563392
 21
253.2023309301074
 31
0.0
  0
LINE
  5
F3
330
4D
100
AcDbEntity
  8
1
  6
Continuous
 62
     7
100
AcDbLine
 10
76.15955829636044
 20
253.2023309301074
 30
0.0
 11
75.70765019736814
 21
249.9868377252368
 31
0.0
  0
LINE
  5
F4
330
4D
100
AcDbEntity
  8
1
  6
Continuous
 62
     7
100
AcDbLine
 10
99.35341932634972
 20
260.4172511747567
 30
0.0
 11
107.3534193263497
 21
260.4172511747567
 31
0.0
  0
LINE
  5
F5
330
4D
100
AcDbEntity
  8
1
  6
Continuous
 62
     7
100
AcDbLine
 10
109.1489742840842
 20
381.4356645857038
 30
0.0
 11
112.8003834955546
 21
395.0629092821367
 31
0.0
  0
LINE
  5
F6
330
4D
100
AcDbEntity
  8
1
  6
Continuous
 62
     7
100
AcDbLine
 10
129.2466951080799
 20
416.2459381691997
 30
0.0
 11
119.2708596231175
 21
406.2701026842374
 31
0.0
  0
LINE
  5
F7
330
4D
100
AcDbEntity
  8
1
  6
Continuous
 62
     7
100
AcDbLine
 10
124.2116450529661
 20
426.4879104885505
 30
0.0
 11
109.8238954539128
 21
422.6327246025829
 31
0.0
  0
LINE
  5
F8
330
4D
100
AcDbEntity
  8
1
  6
Continuous
 62
     7
100
AcDbLine
 10
83.25569850235394
 20
426.2841338140534
 30
0.0
 11
96.88294319878673
 21
422.6327246025829
 31
0.0
  0
LINE
  5
F9
330
4D
100
AcDbEntity
  8
1
  6
Continuous
 62
     7
100
AcDbLine
 10
77.46014354461954
 20
416.2459381691997
 30
0.0
 11
87.43597902958183
 21
406.2701026842374
 31
0.0
  0
LINE
  5
FA
330
4D
100
AcDbEntity
  8
1
  6
Continuous
 62
     7
100
AcDbLine
 10
97.55786436861533
 20
381.4356645857038
 30
0.0
 11
93.90645515714485
 21
395.0629092821367
 31
0.0
  0
ARC
  5
FB
330
4D
100
AcDbEntity
  8
1
  6
Continuous
 62
     7
100
AcDbCircle
 10
273.3534193263498
 20
110.4151220513303
 30
0.0
 40
150.0533238552215
100
AcDbArc
 50
91.52752544221293
 51
99.8029017937679
  0
ARC
  5
FC
330
4D
100
AcDbEntity
  8
1
  6
Continuous
 62
     7
100
AcDbCircle
 10
273.7176149915968
 20
185.5033010426311
 30
0.0
 40
74.99999999999987
100
AcDbArc
 50
80.40850751733502
 51
87.2213610340376
  0
ARC
  5
FD
330
4D
100
AcDbEntity
  8
1
  6
Continuous
 62
     7
100
AcDbCircle
 10
101.7163289754606
 20
133.0470986344323
 30
0.0
 40
127.4948334081409
100
AcDbArc
 50
79.1905067536478
 51
87.4658831052027
  0
ARC
  5
FE
330
4D
100
AcDbEntity
  8
1
  6
Continuous
 62
     7
100
AcDbCircle
 10
104.990509677239
 20
133.0470986344323
 30
0.0
 40
127.4948334081409
100
AcDbArc
 50
92.53411689479738
 51
100.8094932463522
  0
ARC
  5
FF
330
4D
100
AcDbEntity
  8
1
  6
Continuous
 62
     7
100
AcDbCircle
 10
103.3534193263497
 20
382.988578856319
 30
0.0
 40
6.0
100
AcDbArc
 50
270.0
 51
344.9999999999997
  0
ARC
  5
100
330
4D
100
AcDbEntity
  8
1
  6
Continuous
 62
     7
100
AcDbCircle
 10
125.0040544209607
 20
420.488578856319
 30
0.0
 40
5.999999999999968
100
AcDbArc
 50
314.9999999999993
 51
97.52424107894032
  0
ARC
  5
101
330
4D
100
AcDbEntity
  8
1
  6
Continuous
 62
     7
100
AcDbCircle
 10
81.70278423173863
 20
420.488578856319
 30
0.0
 40
6.000000000000033
100
AcDbArc
 50
74.99999999999831
 51
225.0000000000015
  0
ARC
  5
102
330
4D
100
AcDbEntity
  8
1
  6
Continuous
 62
     7
100
AcDbCircle
 10
103.3534193263497
 20
382.988578856319
 30
0.0
 40
5.999999999999976
100
AcDbArc
 50
195.0000000000007
 51
270.0
  0
ARC
  5
103
330
4D
100
AcDbEntity
  8
1
  6
Continuous
 62
     7
100
AcDbCircle
 10
291.2781936142758
 20
249.9151220513303
 30
0.0
 40
0.5
100
AcDbArc
 50
269.9999999999544
 51
8.00409437170619
  0
ARC
  5
104
330
4D
100
AcDbEntity
  8
1
  6
Continuous
 62
     7
100
AcDbCircle
 10
285.2145564555038
 20
253.5387354645224
 30
0.0
 40
5.999999999999894
100
AcDbArc
 50
8.00409437170114
 51
80.40850751733326
  0
ARC
  5
105
330
4D
100
AcDbEntity
  8
1
  6
Continuous
 62
     7
100
AcDbCircle
 10
248.8269860070319
 20
252.3651632009205
 30
0.0
 40
6.000000000000173
100
AcDbArc
 50
99.80290179377636
 51
172.0000000000009
  0
ARC
  5
106
330
4D
100
AcDbEntity
  8
1
  6
Continuous
 62
     7
100
AcDbCircle
 10
242.9286035299609
 20
249.9151220513303
 30
0.0
 40
0.5000000000007098
100
AcDbArc
 50
172.0000000000008
 51
270.0
  0
ARC
  5
107
330
4D
100
AcDbEntity
  8
1
  6
Continuous
 62
     7
100
AcDbCircle
 10
130.5040544209608
 20
249.9172511747567
 30
0.0
 40
0.5
100
AcDbArc
 50
270.0
 51
8.00000000000551
  0
ARC
  5
108
330
4D
100
AcDbEntity
  8
1
  6
Continuous
 62
     7
100
AcDbCircle
 10
124.6056719438898
 20
252.367292324347
 30
0.0
 40
5.999999999999976
100
AcDbArc
 50
7.99999999999999
 51
80.19709820623217
  0
ARC
  5
109
330
4D
100
AcDbEntity
  8
1
  6
Continuous
 62
     7
100
AcDbCircle
 10
82.10116670880993
 20
252.367292324347
 30
0.0
 40
6.00000000000001
100
AcDbArc
 50
99.80290179376892
 51
172.0000000000001
  0
ARC
  5
10A
330
4D
100
AcDbEntity
  8
1
  6
Continuous
 62
     7
100
AcDbCircle
 10
76.20278423173883
 20
249.9172511747567
 30
0.0
 40
0.4999999999999177
100
AcDbArc
 50
171.9999999999913
 51
270.0
  0
ARC
  5
10B
330
4D
100
AcDbEntity
  8
1
  6
Continuous
 62
     7
100
AcDbCircle
 10
136.9485291527813
 20
388.5924331545735
 30
0.0
 40
25.00000000000022
100
AcDbArc
 50
134.9999999999999
 51
164.9999999999996
  0
ARC
  5
10C
330
4D
100
AcDbEntity
  8
1
  6
Continuous
 62
     7
100
AcDbCircle
 10
103.3534193263497
 20
446.7808702598096
 30
0.0
 40
24.99999999999996
100
AcDbArc
 50
255.0000000000001
 51
285.0000000000002
  0
ARC
  5
10D
330
4D
100
AcDbEntity
  8
1
  6
Continuous
 62
     7
100
AcDbCircle
 10
69.75830949991803
 20
388.5924331545737
 30
0.0
 40
25.00000000000009
100
AcDbArc
 50
14.9999999999998
 51
44.99999999999977
  0
ENDBLK
  5
4F
330
4D
100
AcDbEntity
  8
0
100
AcDbBlockEnd
  0
BLOCK
  5
51
330
50
100
AcDbEntity
  8
0
100
AcDbBlockBegin
  2
42-1
 70
     0
 10
272.7229250576814
 20
256.3304848170407
 30
0.0
  3
42-1
  1

  0
LINE
  5
10E
330
50
100
AcDbEntity
  8
1
  6
Continuous
 62
     7
100
AcDbLine
 10
97.85341932634972
 20
263.4172511747566
 30
0.0
 11
98.35341932634972
 21
263.4172511747566
 31
0.0
  0
LINE
  5
10F
330
50
100
AcDbEntity
  8
1
  6
Continuous
 62
     7
100
AcDbLine
 10
96.85341932634972
 20
263.4172511747566
 30
0.0
 11
97.35341932634972
 21
263.4172511747566
 31
0.0
  0
LINE
  5
110
330
50
100
AcDbEntity
  8
1
  6
Continuous
 62
     7
100
AcDbLine
 10
96.35341932634972
 20
260.4172511747567
 30
0.0
 11
96.35341932634972
 21
263.4172511747566
 31
0.0
  0
LINE
  5
111
330
50
100
AcDbEntity
  8
1
  6
Continuous
 62
     7
100
AcDbLine
 10
96.35341932634972
 20
263.4172511747566
 30
0.0
 11
97.35341932634964
 21
263.6865733737799
 31
0.0
  0
LINE
  5
112
330
50
100
AcDbEntity
  8
1
  6
Continuous
 62
     7
100
AcDbLine
 10
96.35341932634972
 20
263.4172511747566
 30
0.0
 11
96.85341932634972
 21
263.4172511747566
 31
0.0
  0
LINE
  5
113
330
50
100
AcDbEntity
  8
1
  6
Continuous
 62
     2
100
AcDbLine
 10
97.35341932634972
 20
263.4172511747566
 30
0.0
 11
97.35341932634972
 21
260.4172511747567
 31
0.0
  0
LINE
  5
114
330
50
100
AcDbEntity
  8
1
  6
Continuous
 62
     7
100
AcDbLine
 10
97.35341932634972
 20
263.4172511747566
 30
0.0
 11
97.85341932634972
 21
263.4172511747566
 31
0.0
  0
LINE
  5
115
330
50
100
AcDbEntity
  8
1
  6
Continuous
 62
     2
100
AcDbLine
 10
98.35341932634972
 20
263.4172511747566
 30
0.0
 11
98.35341932634972
 21
260.4172511747567
 31
0.0
  0
LINE
  5
116
330
50
100
AcDbEntity
  8
1
  6
Continuous
 62
     2
100
AcDbLine
 10
99.35341932634972
 20
263.2273247663045
 30
0.0
 11
99.35341932634972
 21
260.5832994872082
 31
0.0
  0
LINE
  5
117
330
50
100
AcDbEntity
  8
1
  6
Continuous
 62
     2
100
AcDbLine
 10
100.3534193263497
 20
263.1137776684292
 30
0.0
 11
100.3534193263497
 21
260.7779516549945
 31
0.0
  0
LINE
  5
118
330
50
100
AcDbEntity
  8
1
  6
Continuous
 62
     2
100
AcDbLine
 10
101.3534193263497
 20
262.9029044866606
 30
0.0
 11
101.3534193263497
 21
261.1348139626026
 31
0.0
  0
LINE
  5
119
330
50
100
AcDbEntity
  8
1
  6
Continuous
 62
     2
100
AcDbLine
 10
102.3534193263497
 20
262.659589276928
 30
0.0
 11
102.3534193263497
 21
261.3943501863175
 31
0.0
  0
LINE
  5
11A
330
50
100
AcDbEntity
  8
1
  6
Continuous
 62
     7
100
AcDbLine
 10
97.60341932634972
 20
263.7470168949604
 30
0.0
 11
103.3534193263497
 21
263.7470168949604
 31
0.0
  0
LINE
  5
11B
330
50
100
AcDbEntity
  8
1
  6
Continuous
 62
     7
100
AcDbLine
 10
108.3534193263497
 20
263.4172511747566
 30
0.0
 11
108.8534193263497
 21
263.4172511747566
 31
0.0
  0
LINE
  5
11C
330
50
100
AcDbEntity
  8
1
  6
Continuous
 62
     7
100
AcDbLine
 10
109.3534193263497
 20
263.4172511747566
 30
0.0
 11
109.8534193263497
 21
263.4172511747566
 31
0.0
  0
LINE
  5
11D
330
50
100
AcDbEntity
  8
1
  6
Continuous
 62
     7
100
AcDbLine
 10
110.3534193263497
 20
263.4172511747566
 30
0.0
 11
110.3534193263497
 21
260.4172511747567
 31
0.0
  0
LINE
  5
11E
330
50
100
AcDbEntity
  8
1
  6
Continuous
 62
     7
100
AcDbLine
 10
109.3534193263498
 20
263.6865733737799
 30
0.0
 11
110.3534193263497
 21
263.4172511747566
 31
0.0
  0
LINE
  5
11F
330
50
100
AcDbEntity
  8
1
  6
Continuous
 62
     7
100
AcDbLine
 10
109.8534193263497
 20
263.4172511747566
 30
0.0
 11
110.3534193263497
 21
263.4172511747566
 31
0.0
  0
LINE
  5
120
330
50
100
AcDbEntity
  8
1
  6
Continuous
 62
     2
100
AcDbLine
 10
109.3534193263497
 20
260.4172511747567
 30
0.0
 11
109.3534193263497
 21
263.4172511747566
 31
0.0
  0
LINE
  5
121
330
50
100
AcDbEntity
  8
1
  6
Continuous
 62
     7
100
AcDbLine
 10
108.8534193263497
 20
263.4172511747566
 30
0.0
 11
109.3534193263497
 21
263.4172511747566
 31
0.0
  0
LINE
  5
122
330
50
100
AcDbEntity
  8
1
  6
Continuous
 62
     7
100
AcDbLine
 10
96.35341932634972
 20
260.4172511747567
 30
0.0
 11
110.3534193263497
 21
260.4172511747567
 31
0.0
  0
LINE
  5
123
330
50
100
AcDbEntity
  8
1
  6
Continuous
 62
     2
100
AcDbLine
 10
108.3534193263497
 20
260.4172511747567
 30
0.0
 11
108.3534193263497
 21
263.4172511747566
 31
0.0
  0
LINE
  5
124
330
50
100
AcDbEntity
  8
1
  6
Continuous
 62
     2
100
AcDbLine
 10
107.3534193263497
 20
260.5832994872082
 30
0.0
 11
107.3534193263497
 21
263.2273247663045
 31
0.0
  0
LINE
  5
125
330
50
100
AcDbEntity
  8
1
  6
Continuous
 62
     2
100
AcDbLine
 10
106.3534193263497
 20
260.7779516549945
 30
0.0
 11
106.3534193263497
 21
263.1137776684292
 31
0.0
  0
LINE
  5
126
330
50
100
AcDbEntity
  8
1
  6
Continuous
 62
     2
100
AcDbLine
 10
105.3534193263497
 20
261.1348139626026
 30
0.0
 11
105.3534193263497
 21
262.9029044866606
 31
0.0
  0
LINE
  5
127
330
50
100
AcDbEntity
  8
1
  6
Continuous
 62
     2
100
AcDbLine
 10
104.3534193263497
 20
261.3943501863175
 30
0.0
 11
104.3534193263497
 21
262.659589276928
 31
0.0
  0
LINE
  5
128
330
50
100
AcDbEntity
  8
1
  6
Continuous
 62
     7
100
AcDbLine
 10
103.3534193263497
 20
263.7470168949604
 30
0.0
 11
109.1034193263497
 21
263.7470168949604
 31
0.0
  0
LINE
  5
129
330
50
100
AcDbEntity
  8
1
  6
Continuous
 62
     7
100
AcDbLine
 10
108.3534193263497
 20
263.4172511747566
 30
0.0
 11
98.35341932634972
 21
263.4172511747566
 31
0.0
  0
LINE
  5
12A
330
50
100
AcDbEntity
  8
1
  6
Continuous
 62
     7
100
AcDbLine
 10
267.8534193263498
 20
263.4151220513302
 30
0.0
 11
268.3534193263498
 21
263.4151220513302
 31
0.0
  0
LINE
  5
12B
330
50
100
AcDbEntity
  8
1
  6
Continuous
 62
     7
100
AcDbLine
 10
266.8534193263498
 20
263.4151220513302
 30
0.0
 11
267.3534193263498
 21
263.4151220513302
 31
0.0
  0
LINE
  5
12C
330
50
100
AcDbEntity
  8
1
  6
Continuous
 62
     7
100
AcDbLine
 10
266.3534193263498
 20
260.4151220513303
 30
0.0
 11
266.3534193263498
 21
263.4151220513302
 31
0.0
  0
LINE
  5
12D
330
50
100
AcDbEntity
  8
1
  6
Continuous
 62
     7
100
AcDbLine
 10
266.3534193263498
 20
263.4151220513302
 30
0.0
 11
267.3534193263497
 21
263.6844442503535
 31
0.0
  0
LINE
  5
12E
330
50
100
AcDbEntity
  8
1
  6
Continuous
 62
     7
100
AcDbLine
 10
266.3534193263498
 20
263.4151220513302
 30
0.0
 11
266.8534193263498
 21
263.4151220513302
 31
0.0
  0
LINE
  5
12F
330
50
100
AcDbEntity
  8
1
  6
Continuous
 62
     2
100
AcDbLine
 10
267.3534193263498
 20
263.4151220513302
 30
0.0
 11
267.3534193263498
 21
260.4151220513303
 31
0.0
  0
LINE
  5
130
330
50
100
AcDbEntity
  8
1
  6
Continuous
 62
     7
100
AcDbLine
 10
267.3534193263498
 20
263.4151220513302
 30
0.0
 11
267.8534193263498
 21
263.4151220513302
 31
0.0
  0
LINE
  5
131
330
50
100
AcDbEntity
  8
1
  6
Continuous
 62
     2
100
AcDbLine
 10
268.3534193263498
 20
263.4151220513302
 30
0.0
 11
268.3534193263498
 21
260.4151220513303
 31
0.0
  0
LINE
  5
132
330
50
100
AcDbEntity
  8
1
  6
Continuous
 62
     2
100
AcDbLine
 10
269.3534193263498
 20
263.2251956428781
 30
0.0
 11
269.3534193263498
 21
260.5811703637818
 31
0.0
  0
LINE
  5
133
330
50
100
AcDbEntity
  8
1
  6
Continuous
 62
     2
100
AcDbLine
 10
270.3534193263498
 20
263.1116485450028
 30
0.0
 11
270.3534193263498
 21
260.775822531568
 31
0.0
  0
LINE
  5
134
330
50
100
AcDbEntity
  8
1
  6
Continuous
 62
     2
100
AcDbLine
 10
271.3534193263498
 20
262.9007753632342
 30
0.0
 11
271.3534193263498
 21
261.1326848391762
 31
0.0
  0
LINE
  5
135
330
50
100
AcDbEntity
  8
1
  6
Continuous
 62
     2
100
AcDbLine
 10
272.3534193263498
 20
262.6574601535016
 30
0.0
 11
272.3534193263498
 21
261.3922210628911
 31
0.0
  0
LINE
  5
136
330
50
100
AcDbEntity
  8
1
  6
Continuous
 62
     7
100
AcDbLine
 10
267.6034193263498
 20
263.744887771534
 30
0.0
 11
273.3534193263498
 21
263.744887771534
 31
0.0
  0
LINE
  5
137
330
50
100
AcDbEntity
  8
1
  6
Continuous
 62
     7
100
AcDbLine
 10
278.3534193263498
 20
263.4151220513302
 30
0.0
 11
278.8534193263498
 21
263.4151220513302
 31
0.0
  0
LINE
  5
138
330
50
100
AcDbEntity
  8
1
  6
Continuous
 62
     7
100
AcDbLine
 10
279.3534193263498
 20
263.4151220513302
 30
0.0
 11
279.8534193263498
 21
263.4151220513302
 31
0.0
  0
LINE
  5
139
330
50
100
AcDbEntity
  8
1
  6
Continuous
 62
     7
100
AcDbLine
 10
280.3534193263498
 20
263.4151220513302
 30
0.0
 11
280.3534193263498
 21
260.4151220513303
 31
0.0
  0
LINE
  5
13A
330
50
100
AcDbEntity
  8
1
  6
Continuous
 62
     7
100
AcDbLine
 10
279.3534193263498
 20
263.6844442503535
 30
0.0
 11
280.3534193263498
 21
263.4151220513302
 31
0.0
  0
LINE
  5
13B
330
50
100
AcDbEntity
  8
1
  6
Continuous
 62
     7
100
AcDbLine
 10
279.8534193263498
 20
263.4151220513302
 30
0.0
 11
280.3534193263498
 21
263.4151220513302
 31
0.0
  0
LINE
  5
13C
330
50
100
AcDbEntity
  8
1
  6
Continuous
 62
     2
100
AcDbLine
 10
279.3534193263498
 20
260.4151220513303
 30
0.0
 11
279.3534193263498
 21
263.4151220513302
 31
0.0
  0
LINE
  5
13D
330
50
100
AcDbEntity
  8
1
  6
Continuous
 62
     7
100
AcDbLine
 10
278.8534193263498
 20
263.4151220513302
 30
0.0
 11
279.3534193263498
 21
263.4151220513302
 31
0.0
  0
LINE
  5
13E
330
50
100
AcDbEntity
  8
1
  6
Continuous
 62
     7
100
AcDbLine
 10
266.3534193263498
 20
260.4151220513303
 30
0.0
 11
280.3534193263498
 21
260.4151220513303
 31
0.0
  0
LINE
  5
13F
330
50
100
AcDbEntity
  8
1
  6
Continuous
 62
     2
100
AcDbLine
 10
278.3534193263498
 20
260.4151220513303
 30
0.0
 11
278.3534193263498
 21
263.4151220513302
 31
0.0
  0
LINE
  5
140
330
50
100
AcDbEntity
  8
1
  6
Continuous
 62
     2
100
AcDbLine
 10
277.3534193263498
 20
260.5811703637818
 30
0.0
 11
277.3534193263498
 21
263.2251956428781
 31
0.0
  0
LINE
  5
141
330
50
100
AcDbEntity
  8
1
  6
Continuous
 62
     2
100
AcDbLine
 10
276.3534193263498
 20
260.775822531568
 30
0.0
 11
276.3534193263498
 21
263.1116485450028
 31
0.0
  0
LINE
  5
142
330
50
100
AcDbEntity
  8
1
  6
Continuous
 62
     2
100
AcDbLine
 10
275.3534193263498
 20
261.1326848391762
 30
0.0
 11
275.3534193263498
 21
262.9007753632342
 31
0.0
  0
LINE
  5
143
330
50
100
AcDbEntity
  8
1
  6
Continuous
 62
     2
100
AcDbLine
 10
274.3534193263498
 20
261.3922210628911
 30
0.0
 11
274.3534193263498
 21
262.6574601535016
 31
0.0
  0
LINE
  5
144
330
50
100
AcDbEntity
  8
1
  6
Continuous
 62
     7
100
AcDbLine
 10
273.3534193263498
 20
263.744887771534
 30
0.0
 11
279.1034193263497
 21
263.744887771534
 31
0.0
  0
LINE
  5
145
330
50
100
AcDbEntity
  8
1
  6
Continuous
 62
     7
100
AcDbLine
 10
278.3534193263498
 20
263.4151220513302
 30
0.0
 11
268.3534193263498
 21
263.4151220513302
 31
0.0
  0
ARC
  5
146
330
50
100
AcDbEntity
  8
1
  6
Continuous
 62
     7
100
AcDbCircle
 10
103.3534193263497
 20
239.4172511747567
 30
0.0
 40
24.99999999999996
100
AcDbArc
 50
76.70292825279094
 51
90.0
  0
ARC
  5
147
330
50
100
AcDbEntity
  8
1
  6
Continuous
 62
     7
100
AcDbCircle
 10
103.3534193263497
 20
239.4172511747567
 30
0.0
 40
24.99999999999996
100
AcDbArc
 50
103.297071747209
 51
103.8865403626291
  0
ARC
  5
148
330
50
100
AcDbEntity
  8
1
  6
Continuous
 62
     7
100
AcDbCircle
 10
103.3534193263497
 20
239.4172511747567
 30
0.0
 40
25.00000000000001
100
AcDbArc
 50
76.11345963737078
 51
76.70292825279094
  0
ARC
  5
149
330
50
100
AcDbEntity
  8
1
  6
Continuous
 62
     7
100
AcDbCircle
 10
103.3534193263497
 20
239.4172511747567
 30
0.0
 40
25.0
100
AcDbArc
 50
90.0
 51
103.297071747209
  0
ARC
  5
14A
330
50
100
AcDbEntity
  8
1
  6
Continuous
 62
     7
100
AcDbCircle
 10
273.3534193263498
 20
239.4151220513303
 30
0.0
 40
24.99999999999999
100
AcDbArc
 50
76.70292825279121
 51
90.0
  0
ARC
  5
14B
330
50
100
AcDbEntity
  8
1
  6
Continuous
 62
     7
100
AcDbCircle
 10
273.3534193263498
 20
239.4151220513303
 30
0.0
 40
25.00000000000002
100
AcDbArc
 50
103.2970717472091
 51
103.8865403626292
  0
ARC
  5
14C
330
50
100
AcDbEntity
  8
1
  6
Continuous
 62
     7
100
AcDbCircle
 10
273.3534193263498
 20
239.4151220513303
 30
0.0
 40
25.00000000000004
100
AcDbArc
 50
76.11345963737104
 51
76.70292825279121
  0
ARC
  5
14D
330
50
100
AcDbEntity
  8
1
  6
Continuous
 62
     7
100
AcDbCircle
 10
273.3534193263498
 20
239.4151220513303
 30
0.0
 40
25.0
100
AcDbArc
 50
90.0
 51
103.2970717472091
  0
CIRCLE
  5
14E
330
50
100
AcDbEntity
  8
0
  6
Continuous
 62
     7
100
AcDbCircle
 10
103.3534193263497
 20
407.9885788563189
 30
0.0
 40
5.750000000000099
  0
CIRCLE
  5
14F
330
50
100
AcDbEntity
  8
0
  6
Continuous
 62
     7
100
AcDbCircle
 10
103.3534193263497
 20
407.9885788563189
 30
0.0
 40
7.000000000000099
  0
ENDBLK
  5
52
330
50
100
AcDbEntity
  8
0
100
AcDbBlockEnd
  0
BLOCK
  5
54
330
53
100
AcDbEntity
  8
0
100
AcDbBlockBegin
  2
36-1A-13-M4
 70
     0
 10
182.3541240985693
 20
254.109945321221
 30
0.0
  3
36-1A-13-M4
  1

  0
LINE
  5
150
330
53
100
AcDbEntity
  8
1
  6
Continuous
 62
     7
100
AcDbLine
 10
98.60341932634972
 20
246.3448133395151
 30
0.0
 11
98.60341932634972
 21
249.4151220513302
 31
0.0
  0
LINE
  5
151
330
53
100
AcDbEntity
  8
1
  6
Continuous
 62
     7
100
AcDbLine
 10
108.1034193263497
 20
249.4151220513302
 30
0.0
 11
108.1034193263497
 21
246.3448133395151
 31
0.0
  0
LINE
  5
152
330
53
100
AcDbEntity
  8
1
  6
Continuous
 62
     7
100
AcDbLine
 10
278.1034193263498
 20
249.4151220513302
 30
0.0
 11
278.1034193263498
 21
246.3448133395151
 31
0.0
  0
LINE
  5
153
330
53
100
AcDbEntity
  8
1
  6
Continuous
 62
     7
100
AcDbLine
 10
268.6034193263497
 20
246.3448133395151
 30
0.0
 11
268.6034193263497
 21
249.4151220513302
 31
0.0
  0
ENDBLK
  5
55
330
53
100
AcDbEntity
  8
0
100
AcDbBlockEnd
  0
BLOCK
  5
57
330
56
100
AcDbEntity
  8
0
100
AcDbBlockBegin
  2
37-1-13
 70
     0
 10
170.2124196823907
 20
323.2686106326751
 30
0.0
  3
37-1-13
  1

  0
LINE
  5
154
330
56
100
AcDbEntity
  8
1
  6
Continuous
 62
     7
100
AcDbLine
 10
116.3534193263496
 20
402.7642873464997
 30
0.0
 11
116.3534193263496
 21
401.5659625669869
 31
0.0
  0
LINE
  5
155
330
56
100
AcDbEntity
  8
1
  6
Continuous
 62
     7
100
AcDbLine
 10
115.4155681916714
 20
399.9415567517879
 30
0.0
 11
114.3777884906284
 21
399.3423943620308
 31
0.0
  0
LINE
  5
156
330
56
100
AcDbEntity
  8
1
  6
Continuous
 62
     7
100
AcDbLine
 10
92.32905016207104
 20
399.3423943620308
 30
0.0
 11
91.29127046102795
 21
399.9415567517879
 31
0.0
  0
LINE
  5
157
330
56
100
AcDbEntity
  8
1
  6
Continuous
 62
     7
100
AcDbLine
 10
90.35341932634964
 20
401.5659625669869
 30
0.0
 11
90.35341932634964
 21
402.7642873464997
 31
0.0
  0
LINE
  5
158
330
56
100
AcDbEntity
  8
1
  6
Continuous
 62
     7
100
AcDbLine
 10
101.3777884906284
 20
421.8590548604259
 30
0.0
 11
102.4155681916714
 21
422.4582172501828
 31
0.0
  0
LINE
  5
159
330
56
100
AcDbEntity
  8
1
  6
Continuous
 62
     7
100
AcDbLine
 10
104.2912704610278
 20
422.4582172501828
 30
0.0
 11
105.329050162071
 21
421.8590548604259
 31
0.0
  0
LINE
  5
15A
330
56
100
AcDbEntity
  8
1
  6
Continuous
 62
     7
100
AcDbLine
 10
260.2827051120788
 20
232.3448133395151
 30
0.0
 11
261.3534193263498
 21
232.3448133395151
 31
0.0
  0
LINE
  5
15B
330
56
100
AcDbEntity
  8
1
  6
Continuous
 62
     7
100
AcDbLine
 10
267.3534193263498
 20
246.3448133395151
 30
0.0
 11
268.6034193263498
 21
246.3448133395151
 31
0.0
  0
LINE
  5
15C
330
56
100
AcDbEntity
  8
1
  6
Continuous
 62
     7
100
AcDbLine
 10
285.3534193263498
 20
232.3448133395151
 30
0.0
 11
286.4241335406219
 21
232.3448133395151
 31
0.0
  0
LINE
  5
15D
330
56
100
AcDbEntity
  8
1
  6
Continuous
 62
     7
100
AcDbLine
 10
279.3534193263498
 20
246.3448133395151
 30
0.0
 11
278.1034193263498
 21
246.3448133395151
 31
0.0
  0
LINE
  5
15E
330
56
100
AcDbEntity
  8
1
  6
Continuous
 62
     7
100
AcDbLine
 10
268.6034193263498
 20
246.3448133395151
 30
0.0
 11
278.1034193263498
 21
246.3448133395151
 31
0.0
  0
LINE
  5
15F
330
56
100
AcDbEntity
  8
1
  6
Continuous
 62
     7
100
AcDbLine
 10
261.3534193263498
 20
232.3448133395151
 30
0.0
 11
285.3534193263498
 21
232.3448133395151
 31
0.0
  0
LINE
  5
160
330
56
100
AcDbEntity
  8
1
  6
Continuous
 62
     7
100
AcDbLine
 10
90.35341932634972
 20
232.3448133395151
 30
0.0
 11
90.35341932634972
 21
239.4155275537866
 31
0.0
  0
LINE
  5
161
330
56
100
AcDbEntity
  8
1
  6
Continuous
 62
     7
100
AcDbLine
 10
116.3534193263497
 20
239.4155275537866
 30
0.0
 11
116.3534193263497
 21
232.3448133395151
 31
0.0
  0
LINE
  5
162
330
56
100
AcDbEntity
  8
1
  6
Continuous
 62
     7
100
AcDbLine
 10
103.3534193263497
 20
232.3448133395151
 30
0.0
 11
90.35341932634972
 21
232.3448133395151
 31
0.0
  0
LINE
  5
163
330
56
100
AcDbEntity
  8
1
  6
Continuous
 62
     7
100
AcDbLine
 10
103.3534193263497
 20
232.3448133395151
 30
0.0
 11
116.3534193263497
 21
232.3448133395151
 31
0.0
  0
LINE
  5
164
330
56
100
AcDbEntity
  8
1
  6
Continuous
 62
     7
100
AcDbLine
 10
98.35341932634972
 20
246.3448133395151
 30
0.0
 11
97.35341932634972
 21
246.3448133395151
 31
0.0
  0
LINE
  5
165
330
56
100
AcDbEntity
  8
1
  6
Continuous
 62
     7
100
AcDbLine
 10
103.3534193263497
 20
246.3448133395151
 30
0.0
 11
109.3534193263497
 21
246.3448133395151
 31
0.0
  0
LINE
  5
166
330
56
100
AcDbEntity
  8
1
  6
Continuous
 62
     7
100
AcDbLine
 10
103.3534193263497
 20
246.3448133395151
 30
0.0
 11
98.35341932634972
 21
246.3448133395151
 31
0.0
  0
ARC
  5
167
330
56
100
AcDbEntity
  8
1
  6
Continuous
 62
     7
100
AcDbCircle
 10
103.3534193263496
 20
407.988578856319
 30
0.0
 40
14.49999999999986
100
AcDbArc
 50
326.2915552747306
 51
333.7084447252723
  0
ARC
  5
168
330
56
100
AcDbEntity
  8
1
  6
Continuous
 62
     7
100
AcDbCircle
 10
103.3534193263496
 20
407.988578856319
 30
0.0
 40
14.49999999999975
100
AcDbArc
 50
206.2915552747278
 51
213.7084447252698
  0
ARC
  5
169
330
56
100
AcDbEntity
  8
1
  6
Continuous
 62
     7
100
AcDbCircle
 10
103.3534193263496
 20
407.988578856319
 30
0.0
 40
14.49999999999983
100
AcDbArc
 50
86.29155527472949
 51
90.0
  0
ARC
  5
16A
330
56
100
AcDbEntity
  8
1
  6
Continuous
 62
     7
100
AcDbCircle
 10
103.3534193263496
 20
407.988578856319
 30
0.0
 40
14.49999999999977
100
AcDbArc
 50
90.0
 51
93.70844472527047
  0
ARC
  5
16B
330
56
100
AcDbEntity
  8
1
  6
Continuous
 62
     7
100
AcDbCircle
 10
263.8534193263498
 20
235.8448133395151
 30
0.0
 40
5.000000000000091
100
AcDbArc
 50
126.8698976458433
 51
224.4270040008092
  0
ARC
  5
16C
330
56
100
AcDbEntity
  8
1
  6
Continuous
 62
     7
100
AcDbCircle
 10
247.4469641212349
 20
259.75126854463
 30
0.0
 40
23.99999999999989
100
AcDbArc
 50
303.9591925000976
 51
326.0408074999025
  0
ARC
  5
16D
330
56
100
AcDbEntity
  8
1
  6
Continuous
 62
     7
100
AcDbCircle
 10
282.8534193263498
 20
235.8448133395151
 30
0.0
 40
5.000000000000463
100
AcDbArc
 50
315.5729959991995
 51
53.13010235415676
  0
ARC
  5
16E
330
56
100
AcDbEntity
  8
1
  6
Continuous
 62
     7
100
AcDbCircle
 10
299.2598745314647
 20
259.75126854463
 30
0.0
 40
23.99999999999995
100
AcDbArc
 50
213.9591925000976
 51
236.0408074999025
  0
ARC
  5
16F
330
56
100
AcDbEntity
  8
1
  6
Continuous
 62
     7
100
AcDbCircle
 10
93.85341932634972
 20
235.8448133395151
 30
0.0
 40
4.999999999999972
100
AcDbArc
 50
126.8698976458414
 51
134.4270040008051
  0
ARC
  5
170
330
56
100
AcDbEntity
  8
1
  6
Continuous
 62
     7
100
AcDbCircle
 10
77.44696412123503
 20
259.75126854463
 30
0.0
 40
23.99999999999989
100
AcDbArc
 50
303.9591925000976
 51
326.0408074999022
  0
ARC
  5
171
330
56
100
AcDbEntity
  8
1
  6
Continuous
 62
     7
100
AcDbCircle
 10
112.8534193263497
 20
235.8448133395151
 30
0.0
 40
5.000000000000057
100
AcDbArc
 50
45.57299599919494
 51
53.13010235415676
  0
ARC
  5
172
330
56
100
AcDbEntity
  8
1
  6
Continuous
 62
     7
100
AcDbCircle
 10
129.2598745314647
 20
259.75126854463
 30
0.0
 40
24.00000000000007
100
AcDbArc
 50
213.9591925000974
 51
236.0408074999022
  0
SPLINE
  5
173
330
56
100
AcDbEntity
  8
1
  6
Continuous
 62
     7
100
AcDbSpline
210
0.0
220
0.0
230
1.0
 70
    11
 71
     3
 72
    79
 73
    75
 74
    73
 42
0.000000001
 43
0.0000000001
 44
0.00000001
 40
0.0
 40
0.0
 40
0.0
 40
0.0
 40
0.2803981055170699
 40
0.5607977780793725
 40
0.8427454767814644
 40
1.124697465942916
 40
1.409536444711898
 40
1.694381494092168
 40
1.983071303433766
 40
2.271767836809141
 40
2.564776135645496
 40
2.85779084803175
 40
3.155055692063475
 40
3.452325972452664
 40
3.753284820909501
 40
4.054247736388266
 40
4.357919800455218
 40
4.661594361771427
 40
4.966700742338081
 40
5.271807963175702
 40
5.576915184002915
 40
5.88202156453842
 40
6.185696125802589
 40
6.48936818979602
 40
6.79033110517986
 40
7.091289953518746
 40
7.388560233767495
 40
7.685825077633754
 40
7.978839789830514
 40
8.271848088449236
 40
8.56054462157986
 40
8.849234430642522
 40
9.134079479707385
 40
9.418918458106297
 40
9.70087044681287
 40
9.982818144856152
 40
10.26321781600888
 40
10.5436159303524
 40
10.82401404469591
 40
11.1044137158487
 40
11.38636141389198
 40
11.66831340259855
 40
11.95315238099751
 40
12.23799743006238
 40
12.52668723912508
 40
12.81538377225559
 40
13.10839207087425
 40
13.40140678307103
 40
13.69867162693732
 40
13.9959419071861
 40
14.29690075552498
 40
14.59786367090884
 40
14.90153573490224
 40
15.20521029616641
 40
15.51031667670192
 40
15.81542389752914
 40
16.12053111836676
 40
16.42563749893343
 40
16.72931206024962
 40
17.03298412431656
 40
17.33394703979537
 40
17.63490588825218
 40
17.93217616864135
 40
18.22944101267316
 40
18.52245572505939
 40
18.81546402389572
 40
19.10416055727101
 40
19.39285036661261
 40
19.67769541599293
 40
19.96253439476191
 40
20.24448638392331
 40
20.52643408262545
 40
20.80683375518776
 40
21.08723186070488
 40
21.08723186070488
 40
21.08723186070488
 40
21.08723186070488
 10
284.6117495755475
 20
239.3452271950882
 30
0.0
 10
284.7052501155896
 20
239.3426458092821
 30
0.0
 10
284.8922517183915
 20
239.3374830285774
 30
0.0
 10
285.1707361295849
 20
239.2960106800143
 30
0.0
 10
285.4446783267373
 20
239.2301105201725
 30
0.0
 10
285.7126064925062
 20
239.1378784112152
 30
0.0
 10
285.9716522803767
 20
239.0207962220863
 30
0.0
 10
286.2208115747936
 20
238.8793199406872
 30
0.0
 10
286.4571215952078
 20
238.7150375948509
 30
0.0
 10
286.6798965893454
 20
238.5285774467721
 30
0.0
 10
286.8863526218516
 20
238.3221529719592
 30
0.0
 10
287.0759653656916
 20
238.0964352776357
 30
0.0
 10
287.2463645418101
 20
237.8541444793908
 30
0.0
 10
287.3970773496058
 20
237.5960869866469
 30
0.0
 10
287.526300486315
 20
237.3252597832542
 30
0.0
 10
287.6335801596799
 20
237.042742929841
 30
0.0
 10
287.7177346634135
 20
236.7515549593261
 30
0.0
 10
287.7783779374211
 20
236.4531761864847
 30
0.0
 10
287.8149116998678
 20
236.1504152146738
 30
0.0
 10
287.8271307307793
 20
235.845227204491
 30
0.0
 10
287.814911700218
 20
235.5400391943066
 30
0.0
 10
287.778377938122
 20
235.2372782224798
 30
0.0
 10
287.7177346644679
 20
234.9388994496371
 30
0.0
 10
287.6335801610906
 20
234.6477114790331
 30
0.0
 10
287.5263004880862
 20
234.365194625817
 30
0.0
 10
287.3970773517427
 20
234.0943674215208
 30
0.0
 10
287.2463645443193
 20
233.8363099318944
 30
0.0
 10
287.0759653685801
 20
233.5940191218379
 30
0.0
 10
286.886352625129
 20
233.368301470676
 30
0.0
 10
286.6798965930223
 20
233.1618768356821
 30
0.0
 10
286.4571215992984
 20
232.975417276534
 30
0.0
 10
286.2208115793167
 20
232.8111327488483
 30
0.0
 10
285.9716522853624
 20
232.6696645058001
 30
0.0
 10
285.7126064980018
 20
232.5525525022162
 30
0.0
 10
285.4446783328681
 20
232.4604305837575
 30
0.0
 10
285.1707361366682
 20
232.3941208181997
 30
0.0
 10
284.8922517236317
 20
232.35416915311
 30
0.0
 10
284.6117495755474
 20
232.3407562434889
 30
0.0
 10
284.3312474274634
 20
232.35416915311
 30
0.0
 10
284.0527630144267
 20
232.3941208181997
 30
0.0
 10
283.778820818227
 20
232.4604305837574
 30
0.0
 10
283.5108926530929
 20
232.5525525022162
 30
0.0
 10
283.2518468657325
 20
232.6696645058
 30
0.0
 10
283.0026875717782
 20
232.8111327488483
 30
0.0
 10
282.7663775517964
 20
232.975417276534
 30
0.0
 10
282.5436025580728
 20
233.1618768356821
 30
0.0
 10
282.337146525966
 20
233.3683014706761
 30
0.0
 10
282.1475337825149
 20
233.594019121838
 30
0.0
 10
281.9771346067757
 20
233.8363099318943
 30
0.0
 10
281.8264217993523
 20
234.0943674215209
 30
0.0
 10
281.6971986630087
 20
234.365194625817
 30
0.0
 10
281.5899189900042
 20
234.6477114790331
 30
0.0
 10
281.5057644866271
 20
234.9388994496371
 30
0.0
 10
281.4451212129728
 20
235.23727822248
 30
0.0
 10
281.408587450877
 20
235.5400391943064
 30
0.0
 10
281.3963684203156
 20
235.8452272044912
 30
0.0
 10
281.4085874512272
 20
236.1504152146737
 30
0.0
 10
281.4451212136739
 20
236.4531761864847
 30
0.0
 10
281.5057644876815
 20
236.7515549593261
 30
0.0
 10
281.5899189914148
 20
237.0427429298409
 30
0.0
 10
281.69719866478
 20
237.3252597832543
 30
0.0
 10
281.8264218014891
 20
237.5960869866469
 30
0.0
 10
281.9771346092847
 20
237.8541444793908
 30
0.0
 10
282.1475337854034
 20
238.0964352776356
 30
0.0
 10
282.3371465292435
 20
238.3221529719593
 30
0.0
 10
282.5436025617494
 20
238.528577446772
 30
0.0
 10
282.7663775558872
 20
238.715037594851
 30
0.0
 10
283.0026875763011
 20
238.8793199406873
 30
0.0
 10
283.2518468707182
 20
239.0207962220863
 30
0.0
 10
283.5108926585887
 20
239.1378784112152
 30
0.0
 10
283.7788208243576
 20
239.2301105201726
 30
0.0
 10
284.05276302151
 20
239.2960106800141
 30
0.0
 10
284.3312474327032
 20
239.3374830285775
 30
0.0
 10
284.5182490355054
 20
239.3426458092821
 30
0.0
 10
284.6117495755475
 20
239.3452271950882
 30
0.0
 11
284.6117495755475
 21
239.3452271950882
 31
0.0
 11
284.8918295744171
 21
239.3318744097901
 31
0.0
 11
285.1693873827957
 21
239.292054330631
 31
0.0
 11
285.4434387871746
 21
239.2257947479071
 31
0.0
 11
285.7100816474491
 21
239.1341513678389
 31
0.0
 11
285.9696700719851
 21
239.0169033675538
 31
0.0
 11
286.2174036478806
 21
238.8763161083338
 31
0.0
 11
286.4545041324895
 21
238.7116189129817
 31
0.0
 11
286.6759386618244
 21
238.5263827460046
 31
0.0
 11
286.8832220511342
 21
238.3192898690894
 31
0.0
 11
287.0717543349118
 21
238.0949838289911
 31
0.0
 11
287.2428428814854
 21
237.8518889982903
 31
0.0
 11
287.3928240082083
 21
237.5952271950882
 31
0.0
 11
287.5225007880827
 21
237.3236389751171
 31
0.0
 11
287.62939214216
 21
237.0422976967281
 31
0.0
 11
287.7137582034903
 21
236.7505802131827
 31
0.0
 11
287.7742707337261
 21
236.4529958169225
 31
0.0
 11
287.810849682289
 21
236.1500900823882
 31
0.0
 11
287.8230577202137
 21
235.8452271950882
 31
0.0
 11
287.810849682289
 21
235.5403643077883
 31
0.0
 11
287.7742707337261
 21
235.237458573254
 31
0.0
 11
287.7137582034903
 21
234.9398741769938
 31
0.0
 11
287.62939214216
 21
234.6481566934484
 31
0.0
 11
287.5225007880827
 21
234.3668154150594
 31
0.0
 11
287.3928240082083
 21
234.0952271950882
 31
0.0
 11
287.2428428814854
 21
233.8385653918861
 31
0.0
 11
287.0717543349118
 21
233.5954705611853
 31
0.0
 11
286.8832220511342
 21
233.371164521087
 31
0.0
 11
286.6759386618244
 21
233.1640716441718
 31
0.0
 11
286.4545041324895
 21
232.9788354771948
 31
0.0
 11
286.2174036478806
 21
232.8141382818427
 31
0.0
 11
285.9696700719851
 21
232.6735510226227
 31
0.0
 11
285.7100816474491
 21
232.5563030223375
 31
0.0
 11
285.4434387871746
 21
232.4646596422694
 31
0.0
 11
285.1693873827957
 21
232.3984000595455
 31
0.0
 11
284.8918295744171
 21
232.3585799803864
 31
0.0
 11
284.6117495755475
 21
232.3452271950882
 31
0.0
 11
284.3316695766779
 21
232.3585799803864
 31
0.0
 11
284.0541117682992
 21
232.3984000595455
 31
0.0
 11
283.7800603639203
 21
232.4646596422694
 31
0.0
 11
283.5134175036458
 21
232.5563030223375
 31
0.0
 11
283.2538290791098
 21
232.6735510226226
 31
0.0
 11
283.0060955032143
 21
232.8141382818427
 31
0.0
 11
282.7689950186053
 21
232.9788354771947
 31
0.0
 11
282.5475604892706
 21
233.1640716441718
 31
0.0
 11
282.3402770999608
 21
233.371164521087
 31
0.0
 11
282.1517448161832
 21
233.5954705611853
 31
0.0
 11
281.9806562696096
 21
233.8385653918861
 31
0.0
 11
281.8306751428866
 21
234.0952271950882
 31
0.0
 11
281.7009983630123
 21
234.3668154150594
 31
0.0
 11
281.5941070089349
 21
234.6481566934484
 31
0.0
 11
281.5097409476047
 21
234.9398741769938
 31
0.0
 11
281.4492284173689
 21
235.237458573254
 31
0.0
 11
281.4126494688059
 21
235.5403643077883
 31
0.0
 11
281.4004414308812
 21
235.8452271950882
 31
0.0
 11
281.4126494688059
 21
236.1500900823882
 31
0.0
 11
281.4492284173689
 21
236.4529958169225
 31
0.0
 11
281.5097409476046
 21
236.7505802131827
 31
0.0
 11
281.5941070089349
 21
237.0422976967281
 31
0.0
 11
281.7009983630123
 21
237.3236389751171
 31
0.0
 11
281.8306751428866
 21
237.5952271950882
 31
0.0
 11
281.9806562696095
 21
237.8518889982903
 31
0.0
 11
282.1517448161832
 21
238.0949838289911
 31
0.0
 11
282.3402770999608
 21
238.3192898690894
 31
0.0
 11
282.5475604892706
 21
238.5263827460046
 31
0.0
 11
282.7689950186053
 21
238.7116189129817
 31
0.0
 11
283.0060955032143
 21
238.8763161083338
 31
0.0
 11
283.2538290791098
 21
239.0169033675538
 31
0.0
 11
283.5134175036458
 21
239.1341513678389
 31
0.0
 11
283.7800603639203
 21
239.2257947479071
 31
0.0
 11
284.0541117682992
 21
239.292054330631
 31
0.0
 11
284.3316695766778
 21
239.3318744097901
 31
0.0
 11
284.6117495755475
 21
239.3452271950882
 31
0.0
  0
SPLINE
  5
174
330
56
100
AcDbEntity
  8
1
  6
Continuous
 62
     7
100
AcDbSpline
210
0.0
220
0.0
230
1.0
 70
     8
 71
     3
 72
    29
 73
    25
 74
    23
 42
0.000000001
 43
0.0000000001
 44
0.00000001
 40
0.0
 40
0.0
 40
0.0
 40
0.0
 40
0.6069077071334908
 40
1.212222618922135
 40
1.842666699980974
 40
2.474631891987717
 40
3.102420163134918
 40
3.729333881624504
 40
4.271042929453236
 40
4.812985317241431
 40
5.340107969104172
 40
5.866248914948787
 40
6.263874824440361
 40
6.661485222726755
 40
7.280966483141104
 40
7.902596723210173
 40
8.549168899022707
 40
9.195896755584885
 40
9.722415956712045
 40
10.24911839923919
 40
11.0789753537709
 40
11.90732205839655
 40
12.67331707894449
 40
13.44191268485659
 40
13.44191268485659
 40
13.44191268485659
 40
13.44191268485659
 10
273.3534193263498
 20
239.3452271950882
 30
0.0
 10
273.5554791538956
 20
239.3353518217242
 30
0.0
 10
273.9590685135728
 20
239.3156269805116
 30
0.0
 10
274.5707740616565
 20
239.2518366322901
 30
0.0
 10
275.1801911227986
 20
239.1176533345497
 30
0.0
 10
275.7785972977769
 20
238.9171977150233
 30
0.0
 10
276.3531598292505
 20
238.658636598793
 30
0.0
 10
276.8680576266194
 20
238.3497072096887
 30
0.0
 10
277.3170765003752
 20
237.9958902857441
 30
0.0
 10
277.6910181026731
 20
237.6078656182272
 30
0.0
 10
277.9979840039801
 20
237.1709352151522
 30
0.0
 10
278.2052926614193
 20
236.7307212487158
 30
0.0
 10
278.3211952496396
 20
236.3040121286632
 30
0.0
 10
278.3718984545172
 20
235.8330966868612
 30
0.0
 10
278.3114421312761
 20
235.2841220946204
 30
0.0
 10
278.0984948996468
 20
234.6863760292985
 30
0.0
 10
277.7512579624945
 20
234.1447737841581
 30
0.0
 10
277.3299002369142
 20
233.704165816768
 30
0.0
 10
276.8824867469339
 20
233.3542918937985
 30
0.0
 10
276.3466503613887
 20
233.0253815114569
 30
0.0
 10
275.6817593120029
 20
232.7216428910551
 30
0.0
 10
274.9020982513663
 20
232.4968730253386
 30
0.0
 10
274.119692635262
 20
232.3924862259478
 30
0.0
 10
273.6091321690883
 20
232.3610637354419
 30
0.0
 10
273.3534193263498
 20
232.3453258711752
 30
0.0
 11
273.3534193263498
 21
239.3452271950882
 31
0.0
 11
273.959305348108
 21
239.3100263293259
 31
0.0
 11
274.5607481675895
 21
239.2416693372417
 31
0.0
 11
275.1766393793305
 21
239.1069928514173
 31
0.0
 11
275.7761008408792
 21
238.9069279594723
 31
0.0
 11
276.3477996141993
 21
238.6475467212221
 31
0.0
 11
276.8843648312124
 21
238.323326766444
 31
0.0
 11
277.3087973699915
 21
237.9867176264629
 31
0.0
 11
277.683546345272
 21
237.5952271950882
 31
0.0
 11
277.985102231232
 21
237.1628820338697
 31
0.0
 11
278.2071225450657
 21
236.6858796482535
 31
0.0
 11
278.3108832622087
 21
236.3020306181238
 31
0.0
 11
278.3526413600295
 21
235.9066190723095
 31
0.0
 11
278.2880477484081
 21
235.2905146180997
 31
0.0
 11
278.0804295782568
 21
234.7045804478229
 31
0.0
 11
277.7350569774019
 21
234.1579788139089
 31
0.0
 11
277.2907828507989
 21
233.6880028338285
 31
0.0
 11
276.8769124320241
 21
233.3625281862574
 31
0.0
 11
276.4288735848
 21
233.0856226880777
 31
0.0
 11
275.6741128781624
 21
232.7406605999003
 31
0.0
 11
274.8779565677744
 21
232.5119831101539
 31
0.0
 11
274.1199474371748
 21
232.4016629811393
 31
0.0
 11
273.3534193263498
 21
232.3453258711752
 31
0.0
  0
SPLINE
  5
175
330
56
100
AcDbEntity
  8
1
  6
Continuous
 62
     7
100
AcDbSpline
210
0.0
220
0.0
230
1.0
 70
    11
 71
     3
 72
    79
 73
    75
 74
    73
 42
0.000000001
 43
0.0000000001
 44
0.00000001
 40
0.0
 40
0.0
 40
0.0
 40
0.0
 40
0.2803981055171267
 40
0.5607977780794855
 40
0.8427454767815774
 40
1.124697465943028
 40
1.40953644471201
 40
1.694381494092281
 40
1.983071303433832
 40
2.271767836809251
 40
2.564776135645525
 40
2.85779084803178
 40
3.155055692063583
 40
3.452325972452752
 40
3.753284820909589
 40
4.054247736388354
 40
4.357919800455274
 40
4.661594361771483
 40
4.966700742338137
 40
5.271807963175762
 40
5.57691518400298
 40
5.882021564538485
 40
6.185696125802643
 40
6.489368189796059
 40
6.790331105179878
 40
7.091289953518789
 40
7.388560233767566
 40
7.685825077633858
 40
7.978839789830618
 40
8.27184808844926
 40
8.56054462157984
 40
8.849234430642548
 40
9.134079479707397
 40
9.418918458106322
 40
9.700870446812894
 40
9.982818144856177
 40
10.26321781600902
 40
10.54361593035254
 40
10.82401404469605
 40
11.10441371584884
 40
11.38636141389212
 40
11.66831340259859
 40
11.95315238099754
 40
12.23799743006242
 40
12.52668723912511
 40
12.81538377225571
 40
13.10839207087437
 40
13.40140678307115
 40
13.69867162693744
 40
13.99594190718622
 40
14.29690075552513
 40
14.59786367090895
 40
14.90153573490236
 40
15.20521029616652
 40
15.51031667670203
 40
15.81542389752925
 40
16.12053111836687
 40
16.42563749893353
 40
16.72931206024973
 40
17.03298412431666
 40
17.33394703979543
 40
17.63490588825227
 40
17.93217616864146
 40
18.22944101267325
 40
18.52245572505952
 40
18.81546402389581
 40
19.10416055727119
 40
19.39285036661279
 40
19.67769541599301
 40
19.96253439476209
 40
20.24448638392349
 40
20.52643408262552
 40
20.80683375518783
 40
21.08723186070495
 40
21.08723186070495
 40
21.08723186070495
 40
21.08723186070495
 10
262.0950890771521
 20
239.3452271950882
 30
0.0
 10
262.00158853711
 20
239.3426458092821
 30
0.0
 10
261.814586934308
 20
239.3374830285776
 30
0.0
 10
261.5361025231147
 20
239.2960106800141
 30
0.0
 10
261.2621603259622
 20
239.2301105201725
 30
0.0
 10
260.9942321601933
 20
239.1378784112152
 30
0.0
 10
260.7351863723227
 20
239.0207962220863
 30
0.0
 10
260.4860270779059
 20
238.8793199406873
 30
0.0
 10
260.2497170574918
 20
238.7150375948509
 30
0.0
 10
260.026942063354
 20
238.5285774467722
 30
0.0
 10
259.820486030848
 20
238.3221529719592
 30
0.0
 10
259.630873287008
 20
238.0964352776356
 30
0.0
 10
259.4604741108895
 20
237.8541444793908
 30
0.0
 10
259.3097613030936
 20
237.5960869866468
 30
0.0
 10
259.1805381663845
 20
237.3252597832543
 30
0.0
 10
259.0732584930195
 20
237.0427429298411
 30
0.0
 10
258.9891039892861
 20
236.7515549593261
 30
0.0
 10
258.9284607152784
 20
236.4531761864847
 30
0.0
 10
258.891926952832
 20
236.1504152146737
 30
0.0
 10
258.8797079219201
 20
235.8452272044912
 30
0.0
 10
258.8919269524818
 20
235.5400391943065
 30
0.0
 10
258.9284607145773
 20
235.2372782224799
 30
0.0
 10
258.9891039882317
 20
234.9388994496371
 30
0.0
 10
259.073258491609
 20
234.6477114790331
 30
0.0
 10
259.180538164613
 20
234.3651946258169
 30
0.0
 10
259.3097613009569
 20
234.0943674215209
 30
0.0
 10
259.4604741083803
 20
233.8363099318943
 30
0.0
 10
259.6308732841194
 20
233.5940191218379
 30
0.0
 10
259.8204860275706
 20
233.3683014706761
 30
0.0
 10
260.0269420596772
 20
233.1618768356821
 30
0.0
 10
260.2497170534011
 20
232.975417276534
 30
0.0
 10
260.4860270733828
 20
232.8111327488483
 30
0.0
 10
260.7351863673372
 20
232.6696645058001
 30
0.0
 10
260.9942321546976
 20
232.5525525022163
 30
0.0
 10
261.2621603198315
 20
232.4604305837575
 30
0.0
 10
261.5361025160313
 20
232.3941208181997
 30
0.0
 10
261.8145869290679
 20
232.35416915311
 30
0.0
 10
262.0950890771521
 20
232.340756243489
 30
0.0
 10
262.3755912252363
 20
232.35416915311
 30
0.0
 10
262.654075638273
 20
232.3941208181998
 30
0.0
 10
262.9280178344727
 20
232.4604305837573
 30
0.0
 10
263.1959459996065
 20
232.5525525022163
 30
0.0
 10
263.454991786967
 20
232.6696645058
 30
0.0
 10
263.7041510809213
 20
232.8111327488483
 30
0.0
 10
263.9404611009031
 20
232.975417276534
 30
0.0
 10
264.1632360946269
 20
233.1618768356821
 30
0.0
 10
264.3696921267336
 20
233.368301470676
 30
0.0
 10
264.5593048701847
 20
233.5940191218379
 30
0.0
 10
264.7297040459239
 20
233.8363099318943
 30
0.0
 10
264.8804168533473
 20
234.0943674215209
 30
0.0
 10
265.009639989691
 20
234.365194625817
 30
0.0
 10
265.1169196626953
 20
234.6477114790331
 30
0.0
 10
265.2010741660725
 20
234.9388994496372
 30
0.0
 10
265.2617174397267
 20
235.2372782224799
 30
0.0
 10
265.2982512018224
 20
235.5400391943064
 30
0.0
 10
265.310470232384
 20
235.8452272044912
 30
0.0
 10
265.2982512014723
 20
236.1504152146737
 30
0.0
 10
265.2617174390257
 20
236.4531761864847
 30
0.0
 10
265.2010741650181
 20
236.7515549593261
 30
0.0
 10
265.1169196612847
 20
237.042742929841
 30
0.0
 10
265.0096399879197
 20
237.3252597832543
 30
0.0
 10
264.8804168512104
 20
237.5960869866468
 30
0.0
 10
264.7297040434148
 20
237.8541444793908
 30
0.0
 10
264.5593048672961
 20
238.0964352776356
 30
0.0
 10
264.3696921234562
 20
238.3221529719592
 30
0.0
 10
264.1632360909501
 20
238.5285774467722
 30
0.0
 10
263.9404610968124
 20
238.715037594851
 30
0.0
 10
263.7041510763983
 20
238.8793199406872
 30
0.0
 10
263.4549917819814
 20
239.0207962220864
 30
0.0
 10
263.1959459941108
 20
239.1378784112152
 30
0.0
 10
262.928017828342
 20
239.2301105201725
 30
0.0
 10
262.6540756311895
 20
239.2960106800142
 30
0.0
 10
262.3755912199964
 20
239.3374830285775
 30
0.0
 10
262.1885896171943
 20
239.3426458092821
 30
0.0
 10
262.0950890771521
 20
239.3452271950882
 30
0.0
 11
262.0950890771521
 21
239.3452271950882
 31
0.0
 11
261.8150090782825
 21
239.3318744097901
 31
0.0
 11
261.5374512699038
 21
239.292054330631
 31
0.0
 11
261.2633998655249
 21
239.2257947479071
 31
0.0
 11
260.9967570052504
 21
239.1341513678389
 31
0.0
 11
260.7371685807144
 21
239.0169033675538
 31
0.0
 11
260.4894350048189
 21
238.8763161083338
 31
0.0
 11
260.25233452021
 21
238.7116189129817
 31
0.0
 11
260.0308999908751
 21
238.5263827460046
 31
0.0
 11
259.8236166015654
 21
238.3192898690894
 31
0.0
 11
259.6350843177878
 21
238.0949838289911
 31
0.0
 11
259.4639957712142
 21
237.8518889982903
 31
0.0
 11
259.3140146444912
 21
237.5952271950882
 31
0.0
 11
259.1843378646169
 21
237.3236389751171
 31
0.0
 11
259.0774465105395
 21
237.0422976967281
 31
0.0
 11
258.9930804492093
 21
236.7505802131827
 31
0.0
 11
258.9325679189735
 21
236.4529958169225
 31
0.0
 11
258.8959889704106
 21
236.1500900823882
 31
0.0
 11
258.8837809324858
 21
235.8452271950882
 31
0.0
 11
258.8959889704106
 21
235.5403643077883
 31
0.0
 11
258.9325679189735
 21
235.237458573254
 31
0.0
 11
258.9930804492092
 21
234.9398741769938
 31
0.0
 11
259.0774465105395
 21
234.6481566934484
 31
0.0
 11
259.1843378646168
 21
234.3668154150594
 31
0.0
 11
259.3140146444912
 21
234.0952271950882
 31
0.0
 11
259.4639957712142
 21
233.8385653918861
 31
0.0
 11
259.6350843177878
 21
233.5954705611853
 31
0.0
 11
259.8236166015654
 21
233.371164521087
 31
0.0
 11
260.0308999908751
 21
233.1640716441718
 31
0.0
 11
260.25233452021
 21
232.9788354771948
 31
0.0
 11
260.4894350048189
 21
232.8141382818427
 31
0.0
 11
260.7371685807144
 21
232.6735510226227
 31
0.0
 11
260.9967570052504
 21
232.5563030223375
 31
0.0
 11
261.2633998655249
 21
232.4646596422694
 31
0.0
 11
261.5374512699038
 21
232.3984000595455
 31
0.0
 11
261.8150090782825
 21
232.3585799803864
 31
0.0
 11
262.0950890771521
 21
232.3452271950882
 31
0.0
 11
262.3751690760217
 21
232.3585799803864
 31
0.0
 11
262.6527268844004
 21
232.3984000595455
 31
0.0
 11
262.9267782887793
 21
232.4646596422694
 31
0.0
 11
263.1934211490537
 21
232.5563030223375
 31
0.0
 11
263.4530095735897
 21
232.6735510226226
 31
0.0
 11
263.7007431494852
 21
232.8141382818427
 31
0.0
 11
263.9378436340942
 21
232.9788354771947
 31
0.0
 11
264.159278163429
 21
233.1640716441718
 31
0.0
 11
264.3665615527388
 21
233.371164521087
 31
0.0
 11
264.5550938365164
 21
233.5954705611853
 31
0.0
 11
264.72618238309
 21
233.8385653918861
 31
0.0
 11
264.876163509813
 21
234.0952271950882
 31
0.0
 11
265.0058402896874
 21
234.3668154150594
 31
0.0
 11
265.1127316437647
 21
234.6481566934484
 31
0.0
 11
265.197097705095
 21
234.9398741769938
 31
0.0
 11
265.2576102353307
 21
235.237458573254
 31
0.0
 11
265.2941891838936
 21
235.5403643077883
 31
0.0
 11
265.3063972218183
 21
235.8452271950882
 31
0.0
 11
265.2941891838936
 21
236.1500900823882
 31
0.0
 11
265.2576102353307
 21
236.4529958169225
 31
0.0
 11
265.197097705095
 21
236.7505802131827
 31
0.0
 11
265.1127316437647
 21
237.0422976967281
 31
0.0
 11
265.0058402896874
 21
237.3236389751171
 31
0.0
 11
264.876163509813
 21
237.5952271950882
 31
0.0
 11
264.7261823830901
 21
237.8518889982903
 31
0.0
 11
264.5550938365164
 21
238.0949838289911
 31
0.0
 11
264.3665615527387
 21
238.3192898690894
 31
0.0
 11
264.159278163429
 21
238.5263827460046
 31
0.0
 11
263.9378436340942
 21
238.7116189129817
 31
0.0
 11
263.7007431494852
 21
238.8763161083338
 31
0.0
 11
263.4530095735898
 21
239.0169033675538
 31
0.0
 11
263.1934211490537
 21
239.1341513678389
 31
0.0
 11
262.9267782887792
 21
239.2257947479071
 31
0.0
 11
262.6527268844004
 21
239.292054330631
 31
0.0
 11
262.3751690760218
 21
239.3318744097901
 31
0.0
 11
262.0950890771521
 21
239.3452271950882
 31
0.0
  0
SPLINE
  5
176
330
56
100
AcDbEntity
  8
1
  6
Continuous
 62
     7
100
AcDbSpline
210
0.0
220
0.0
230
1.0
 70
     8
 71
     3
 72
    29
 73
    25
 74
    23
 42
0.000000001
 43
0.0000000001
 44
0.00000001
 40
0.0
 40
0.0
 40
0.0
 40
0.0
 40
0.6069077071334908
 40
1.212222618922135
 40
1.84266669998103
 40
2.474631891987827
 40
3.102420163134976
 40
3.729333881624513
 40
4.271042929453182
 40
4.812985317241437
 40
5.34010796910421
 40
5.866248914948849
 40
6.263874824440423
 40
6.661485222726805
 40
7.280966483141199
 40
7.902596723210215
 40
8.54916889902278
 40
9.195896755584918
 40
9.722415956712076
 40
10.24911839923922
 40
11.07897535377093
 40
11.90732205839669
 40
12.67331707894458
 40
13.44191268485673
 40
13.44191268485673
 40
13.44191268485673
 40
13.44191268485673
 10
273.3534193263498
 20
239.3452271950882
 30
0.0
 10
273.1513594988041
 20
239.3353518217242
 30
0.0
 10
272.7477701391268
 20
239.3156269805116
 30
0.0
 10
272.136064591043
 20
239.2518366322902
 30
0.0
 10
271.5266475299009
 20
239.1176533345496
 30
0.0
 10
270.9282413549228
 20
238.9171977150233
 30
0.0
 10
270.3536788234489
 20
238.6586365987931
 30
0.0
 10
269.8387810260803
 20
238.3497072096886
 30
0.0
 10
269.3897621523245
 20
237.9958902857441
 30
0.0
 10
269.0158205500265
 20
237.6078656182272
 30
0.0
 10
268.7088546487196
 20
237.1709352151522
 30
0.0
 10
268.5015459912802
 20
236.7307212487158
 30
0.0
 10
268.38564340306
 20
236.3040121286633
 30
0.0
 10
268.3349401981825
 20
235.8330966868611
 30
0.0
 10
268.3953965214233
 20
235.2841220946203
 30
0.0
 10
268.6083437530527
 20
234.6863760292985
 30
0.0
 10
268.9555806902051
 20
234.1447737841581
 30
0.0
 10
269.3769384157852
 20
233.704165816768
 30
0.0
 10
269.8243519057657
 20
233.3542918937985
 30
0.0
 10
270.3601882913107
 20
233.0253815114569
 30
0.0
 10
271.0250793406966
 20
232.7216428910551
 30
0.0
 10
271.8047404013334
 20
232.4968730253387
 30
0.0
 10
272.5871460174375
 20
232.3924862259478
 30
0.0
 10
273.0977064836113
 20
232.3610637354419
 30
0.0
 10
273.3534193263498
 20
232.3453258711752
 30
0.0
 11
273.3534193263498
 21
239.3452271950882
 31
0.0
 11
272.7475333045916
 21
239.3100263293259
 31
0.0
 11
272.1460904851101
 21
239.2416693372417
 31
0.0
 11
271.530199273369
 21
239.1069928514173
 31
0.0
 11
270.9307378118203
 21
238.9069279594723
 31
0.0
 11
270.3590390385003
 21
238.6475467212221
 31
0.0
 11
269.8224738214872
 21
238.323326766444
 31
0.0
 11
269.3980412827082
 21
237.9867176264629
 31
0.0
 11
269.0232923074276
 21
237.5952271950882
 31
0.0
 11
268.7217364214675
 21
237.1628820338697
 31
0.0
 11
268.4997161076338
 21
236.6858796482535
 31
0.0
 11
268.3959553904908
 21
236.3020306181238
 31
0.0
 11
268.3541972926701
 21
235.9066190723095
 31
0.0
 11
268.4187909042914
 21
235.2905146180996
 31
0.0
 11
268.6264090744427
 21
234.7045804478229
 31
0.0
 11
268.9717816752977
 21
234.1579788139089
 31
0.0
 11
269.4160558019006
 21
233.6880028338285
 31
0.0
 11
269.8299262206754
 21
233.3625281862574
 31
0.0
 11
270.2779650678995
 21
233.0856226880777
 31
0.0
 11
271.0327257745371
 21
232.7406605999003
 31
0.0
 11
271.8288820849252
 21
232.5119831101539
 31
0.0
 11
272.5868912155248
 21
232.4016629811393
 31
0.0
 11
273.3534193263498
 21
232.3453258711752
 31
0.0
  0
SPLINE
  5
177
330
56
100
AcDbEntity
  8
1
  6
Continuous
 62
     7
100
AcDbSpline
210
0.0
220
0.0
230
1.0
 70
    11
 71
     3
 72
    79
 73
    75
 74
    73
 42
0.000000001
 43
0.0000000001
 44
0.00000001
 40
0.0
 40
0.0
 40
0.0
 40
0.0
 40
0.3102615582252136
 40
0.620559542082215
 40
0.9422162975289119
 40
1.263944872753771
 40
1.606039020844992
 40
1.94819346890699
 40
2.316051885190453
 40
2.683951048239907
 40
3.079084664080319
 40
3.474244780173715
 40
3.894897959207582
 40
4.315568207494338
 40
4.757452126736475
 40
5.199346674241554
 40
5.656354161987029
 40
6.11336747865817
 40
6.578223037733378
 40
7.043080455843
 40
7.507937873950444
 40
7.97279343301873
 40
8.429806749677654
 40
8.886814237403595
 40
9.32870878488038
 40
9.770592704081405
 40
10.19126295231276
 40
10.61191613126944
 40
11.00707624726322
 40
11.40220986296881
 40
11.77010902584992
 40
12.13796744190993
 40
12.48012188969632
 40
12.82221603741923
 40
13.14394461216151
 40
13.46560136682476
 40
13.77589934864145
 40
14.0861609144726
 40
14.39642248030368
 40
14.70672046212033
 40
15.02837721678359
 40
15.35010579152587
 40
15.6921999392487
 40
16.03435438703516
 40
16.40221280309513
 40
16.77011196597628
 40
17.16524558168187
 40
17.5604056976757
 40
17.98105887663236
 40
18.40172912486369
 40
18.8436130440647
 40
19.28550759154147
 40
19.74251507926742
 40
20.19952839592635
 40
20.66438395499465
 40
21.12924137310208
 40
21.59409879121168
 40
22.0589543502869
 40
22.51596766695798
 40
22.97297515470343
 40
23.41486970220855
 40
23.85675362145072
 40
24.27742386973744
 40
24.69807704877131
 40
25.09323716486474
 40
25.48837078070516
 40
25.85626994375462
 40
26.22412836003808
 40
26.56628280810012
 40
26.9083769561913
 40
27.23010553141616
 40
27.55176228686285
 40
27.8620602707198
 40
28.17232182894496
 40
28.17232182894496
 40
28.17232182894496
 40
28.17232182894496
 10
104.2912704610282
 20
235.8801704466508
 30
0.0
 10
104.2953036527442
 20
235.9836606285729
 30
0.0
 10
104.303370501415
 20
236.1906531429177
 30
0.0
 10
104.3673544792244
 20
236.4995020109404
 30
0.0
 10
104.4687752755218
 20
236.8014689246744
 30
0.0
 10
104.6111977756193
 20
237.0983785807892
 30
0.0
 10
104.7903003483794
 20
237.3826966891495
 30
0.0
 10
105.00827061624
 20
237.6581977354457
 30
0.0
 10
105.258552770275
 20
237.9168037561144
 30
0.0
 10
105.5450149320464
 20
238.1625616457271
 30
0.0
 10
105.8588456843339
 20
238.3882069059218
 30
0.0
 10
106.204759849365
 20
238.5969785738096
 30
0.0
 10
106.5728786415157
 20
238.783199342081
 30
0.0
 10
106.9675725764324
 20
238.9488838724275
 30
0.0
 10
107.3791257764044
 20
239.0901916452773
 30
0.0
 10
107.8105514759988
 20
239.2079711338518
 30
0.0
 10
108.2533255047094
 20
239.3000894354903
 30
0.0
 10
108.7083835033033
 20
239.3665753628834
 30
0.0
 10
109.1691506053845
 20
239.4066329197935
 30
0.0
 10
109.6340727808154
 20
239.4199748770888
 30
0.0
 10
110.0989949562424
 20
239.406632919872
 30
0.0
 10
110.5597620583351
 20
239.3665753630445
 30
0.0
 10
111.0148200568873
 20
239.3000894357428
 30
0.0
 10
111.4575940857522
 20
239.2079711342079
 30
0.0
 10
111.8890197847939
 20
239.0901916457551
 30
0.0
 10
112.3005729867927
 20
238.9488838730472
 30
0.0
 10
112.695266914515
 20
238.78319934287
 30
0.0
 10
113.0633857327371
 20
238.5969785747961
 30
0.0
 10
113.4092998061601
 20
238.3882069071437
 30
0.0
 10
113.7231308880981
 20
238.1625616472209
 30
0.0
 10
114.0095919005712
 20
237.9168037579297
 30
0.0
 10
114.2598781796442
 20
237.6581977376307
 30
0.0
 10
114.4778340776511
 20
237.3826966917742
 30
0.0
 10
114.6569883913903
 20
237.0983785839349
 30
0.0
 10
114.799228742778
 20
236.8014689285226
 30
0.0
 10
114.9013123948181
 20
236.4995020160134
 30
0.0
 10
114.9629056347459
 20
236.1906531468668
 30
0.0
 10
114.9838594382075
 20
235.8801704466508
 30
0.0
 10
114.9629056347459
 20
235.5696877464348
 30
0.0
 10
114.9013123948181
 20
235.2608388772883
 30
0.0
 10
114.799228742778
 20
234.9588719647792
 30
0.0
 10
114.6569883913903
 20
234.6619623093667
 30
0.0
 10
114.4778340776511
 20
234.3776442015275
 30
0.0
 10
114.2598781796443
 20
234.1021431556709
 30
0.0
 10
114.0095919005711
 20
233.8435371353721
 30
0.0
 10
113.7231308880982
 20
233.5977792460808
 30
0.0
 10
113.4092998061601
 20
233.3721339861581
 30
0.0
 10
113.0633857327371
 20
233.1633623185054
 30
0.0
 10
112.695266914515
 20
232.9771415504317
 30
0.0
 10
112.3005729867927
 20
232.8114570202545
 30
0.0
 10
111.8890197847939
 20
232.6701492475467
 30
0.0
 10
111.4575940857522
 20
232.5523697590938
 30
0.0
 10
111.0148200568874
 20
232.4602514575589
 30
0.0
 10
110.5597620583351
 20
232.3937655302572
 30
0.0
 10
110.0989949562424
 20
232.3537079734297
 30
0.0
 10
109.6340727808154
 20
232.3403660162132
 30
0.0
 10
109.1691506053845
 20
232.3537079735081
 30
0.0
 10
108.7083835033033
 20
232.3937655304184
 30
0.0
 10
108.2533255047094
 20
232.4602514578114
 30
0.0
 10
107.8105514759989
 20
232.5523697594501
 30
0.0
 10
107.3791257764045
 20
232.6701492480244
 30
0.0
 10
106.9675725764325
 20
232.8114570208742
 30
0.0
 10
106.5728786415157
 20
232.9771415512207
 30
0.0
 10
106.2047598493651
 20
233.163362319492
 30
0.0
 10
105.8588456843339
 20
233.3721339873799
 30
0.0
 10
105.5450149320465
 20
233.5977792475744
 30
0.0
 10
105.258552770275
 20
233.8435371371875
 30
0.0
 10
105.00827061624
 20
234.1021431578558
 30
0.0
 10
104.7903003483795
 20
234.3776442041523
 30
0.0
 10
104.6111977756193
 20
234.6619623125125
 30
0.0
 10
104.4687752755218
 20
234.9588719686273
 30
0.0
 10
104.3673544792244
 20
235.2608388823613
 30
0.0
 10
104.303370501415
 20
235.569687750384
 30
0.0
 10
104.2953036527442
 20
235.7766802647286
 30
0.0
 10
104.2912704610282
 20
235.8801704466508
 30
0.0
 11
104.2912704610282
 21
235.8801704466508
 31
0.0
 11
104.311887554229
 21
236.1897462447875
 31
0.0
 11
104.372439633627
 21
236.4940787657068
 31
0.0
 11
104.4749065222588
 21
236.7989781009701
 31
0.0
 11
104.6134808671876
 21
237.0893337911408
 31
0.0
 11
104.7952729115449
 21
237.3791269218323
 31
0.0
 11
105.0070702458012
 21
237.6478490002187
 31
0.0
 11
105.262426756075
 21
237.9126373439876
 31
0.0
 11
105.5412487553642
 21
238.1526541909349
 31
0.0
 11
105.8617406829892
 21
238.3837721232601
 31
0.0
 11
106.1997856521711
 21
238.5884111130133
 31
0.0
 11
106.5749493760153
 21
238.7786774456045
 31
0.0
 11
106.9626716258482
 21
238.9418795128802
 31
0.0
 11
107.3805079503095
 21
239.0856647834622
 31
0.0
 11
107.8067267721239
 21
239.2023194320693
 31
0.0
 11
108.2541167382139
 21
239.2955828337687
 31
0.0
 11
108.7063049024916
 21
239.3618175354249
 31
0.0
 11
109.169408115704
 21
239.4021425241916
 31
0.0
 11
109.6340727906683
 21
239.4155275537866
 31
0.0
 11
110.0987374656326
 21
239.4021425241917
 31
0.0
 11
110.5618406788449
 21
239.3618175354249
 31
0.0
 11
111.0140288431226
 21
239.2955828337687
 31
0.0
 11
111.4614188092126
 21
239.2023194320693
 31
0.0
 11
111.887637631027
 21
239.0856647834622
 31
0.0
 11
112.3054739554882
 21
238.9418795128802
 31
0.0
 11
112.6931962053211
 21
238.7786774456045
 31
0.0
 11
113.0683599291653
 21
238.5884111130133
 31
0.0
 11
113.4064048983472
 21
238.3837721232602
 31
0.0
 11
113.7268968259722
 21
238.1526541909349
 31
0.0
 11
114.0057188252615
 21
237.9126373439877
 31
0.0
 11
114.2610753355353
 21
237.6478490002187
 31
0.0
 11
114.4728726697914
 21
237.3791269218323
 31
0.0
 11
114.6546647141486
 21
237.0893337911408
 31
0.0
 11
114.7932390590775
 21
236.7989781009701
 31
0.0
 11
114.8957059477094
 21
236.4940787657068
 31
0.0
 11
114.9562580271074
 21
236.1897462447875
 31
0.0
 11
114.9768751203082
 21
235.8801704466508
 31
0.0
 11
114.9562580271074
 21
235.5705946485141
 31
0.0
 11
114.8957059477094
 21
235.2662621275949
 31
0.0
 11
114.7932390590775
 21
234.9613627923316
 31
0.0
 11
114.6546647141486
 21
234.6710071021609
 31
0.0
 11
114.4728726697914
 21
234.3812139714695
 31
0.0
 11
114.2610753355353
 21
234.112491893083
 31
0.0
 11
114.0057188252614
 21
233.8477035493141
 31
0.0
 11
113.7268968259722
 21
233.6076867023668
 31
0.0
 11
113.4064048983472
 21
233.3765687700415
 31
0.0
 11
113.0683599291653
 21
233.1719297802883
 31
0.0
 11
112.6931962053211
 21
232.9816634476972
 31
0.0
 11
112.3054739554882
 21
232.8184613804215
 31
0.0
 11
111.887637631027
 21
232.6746761098396
 31
0.0
 11
111.4614188092126
 21
232.5580214612325
 31
0.0
 11
111.0140288431226
 21
232.464758059533
 31
0.0
 11
110.5618406788449
 21
232.3985233578768
 31
0.0
 11
110.0987374656326
 21
232.3581983691101
 31
0.0
 11
109.6340727906683
 21
232.3448133395152
 31
0.0
 11
109.169408115704
 21
232.3581983691101
 31
0.0
 11
108.7063049024916
 21
232.3985233578768
 31
0.0
 11
108.2541167382139
 21
232.464758059533
 31
0.0
 11
107.806726772124
 21
232.5580214612325
 31
0.0
 11
107.3805079503095
 21
232.6746761098395
 31
0.0
 11
106.9626716258482
 21
232.8184613804215
 31
0.0
 11
106.5749493760153
 21
232.9816634476972
 31
0.0
 11
106.1997856521711
 21
233.1719297802883
 31
0.0
 11
105.8617406829892
 21
233.3765687700415
 31
0.0
 11
105.5412487553642
 21
233.6076867023668
 31
0.0
 11
105.262426756075
 21
233.8477035493141
 31
0.0
 11
105.0070702458012
 21
234.112491893083
 31
0.0
 11
104.7952729115449
 21
234.3812139714695
 31
0.0
 11
104.6134808671876
 21
234.6710071021609
 31
0.0
 11
104.4749065222588
 21
234.9613627923316
 31
0.0
 11
104.372439633627
 21
235.2662621275949
 31
0.0
 11
104.311887554229
 21
235.5705946485142
 31
0.0
 11
104.2912704610282
 21
235.8801704466508
 31
0.0
  0
SPLINE
  5
178
330
56
100
AcDbEntity
  8
1
  6
Continuous
 62
     7
100
AcDbSpline
210
0.0
220
0.0
230
1.0
 70
    11
 71
     3
 72
    79
 73
    75
 74
    73
 42
0.000000001
 43
0.0000000001
 44
0.00000001
 40
0.0
 40
0.0
 40
0.0
 40
0.0
 40
0.3102615582252694
 40
0.6205595420822179
 40
0.9422162975289913
 40
1.263944872753854
 40
1.60603902084506
 40
1.948193468907014
 40
2.316051885190496
 40
2.683951048240015
 40
3.07908466408045
 40
3.47424478017381
 40
3.894897959207563
 40
4.315568207494214
 40
4.757452126736472
 40
5.199346674241743
 40
5.656354161987119
 40
6.113367478658134
 40
6.578223037733313
 40
7.043080455842964
 40
7.507937873950393
 40
7.972793433018707
 40
8.429806749677548
 40
8.88681423740346
 40
9.328708784880341
 40
9.77059270408146
 40
10.19126295231271
 40
10.61191613126931
 40
11.00707624726317
 40
11.40220986296878
 40
11.77010902584987
 40
12.13796744190989
 40
12.48012188969634
 40
12.82221603741926
 40
13.14394461216152
 40
13.46560136682479
 40
13.77589934864154
 40
14.08616091447265
 40
14.39642248030372
 40
14.70672046212039
 40
15.02837721678366
 40
15.35010579152592
 40
15.69219993924879
 40
16.03435438703529
 40
16.40221280309525
 40
16.77011196597639
 40
17.16524558168199
 40
17.56040569767591
 40
17.98105887663248
 40
18.40172912486372
 40
18.84361304406486
 40
19.2855075915417
 40
19.74251507926762
 40
20.19952839592646
 40
20.66438395499477
 40
21.1292413731022
 40
21.59409879121185
 40
22.05895435028702
 40
22.51596766695805
 40
22.97297515470343
 40
23.41486970220867
 40
23.85675362145093
 40
24.27742386973755
 40
24.6980770487713
 40
25.09323716486469
 40
25.48837078070514
 40
25.85626994375466
 40
26.22412836003814
 40
26.56628280810013
 40
26.9083769561913
 40
27.23010553141622
 40
27.55176228686293
 40
27.86206027071982
 40
28.17232182894504
 40
28.17232182894504
 40
28.17232182894504
 40
28.17232182894504
 10
102.4155681916716
 20
235.8801704466508
 30
0.0
 10
102.4115349999556
 20
235.9836606285729
 30
0.0
 10
102.4034681512848
 20
236.1906531429177
 30
0.0
 10
102.3394841734754
 20
236.4995020109403
 30
0.0
 10
102.238063377178
 20
236.8014689246744
 30
0.0
 10
102.0956408770803
 20
237.0983785807892
 30
0.0
 10
101.9165383043202
 20
237.3826966891494
 30
0.0
 10
101.6985680364597
 20
237.6581977354458
 30
0.0
 10
101.4482858824247
 20
237.9168037561144
 30
0.0
 10
101.1618237206531
 20
238.1625616457272
 30
0.0
 10
100.8479929683658
 20
238.3882069059218
 30
0.0
 10
100.5020788033345
 20
238.5969785738095
 30
0.0
 10
100.1339600111841
 20
238.783199342081
 30
0.0
 10
99.73926607626731
 20
238.9488838724275
 30
0.0
 10
99.3277128762953
 20
239.0901916452773
 30
0.0
 10
98.8962871767008
 20
239.2079711338516
 30
0.0
 10
98.45351314799024
 20
239.3000894354903
 30
0.0
 10
97.99845514939639
 20
239.3665753628833
 30
0.0
 10
97.5376880473153
 20
239.4066329197936
 30
0.0
 10
97.07276587188431
 20
239.4199748770887
 30
0.0
 10
96.60784369645731
 20
239.4066329198721
 30
0.0
 10
96.14707659436469
 20
239.3665753630445
 30
0.0
 10
95.69201859581247
 20
239.3000894357429
 30
0.0
 10
95.24924456694757
 20
239.207971134208
 30
0.0
 10
94.81781886790581
 20
239.0901916457551
 30
0.0
 10
94.40626566590703
 20
238.9488838730473
 30
0.0
 10
94.01157173818477
 20
238.7831993428699
 30
0.0
 10
93.64345291996275
 20
238.5969785747961
 30
0.0
 10
93.29753884653962
 20
238.3882069071436
 30
0.0
 10
92.98370776460159
 20
238.162561647221
 30
0.0
 10
92.69724675212855
 20
237.9168037579297
 30
0.0
 10
92.44696047305558
 20
237.6581977376307
 30
0.0
 10
92.22900457504848
 20
237.3826966917743
 30
0.0
 10
92.04985026130933
 20
237.098378583935
 30
0.0
 10
91.9076099099217
 20
236.8014689285225
 30
0.0
 10
91.80552625788152
 20
236.4995020160134
 30
0.0
 10
91.74393301795365
 20
236.1906531468668
 30
0.0
 10
91.72297921449204
 20
235.8801704466507
 30
0.0
 10
91.74393301795365
 20
235.5696877464349
 30
0.0
 10
91.80552625788152
 20
235.2608388772883
 30
0.0
 10
91.90760990992172
 20
234.9588719647792
 30
0.0
 10
92.04985026130932
 20
234.6619623093667
 30
0.0
 10
92.22900457504855
 20
234.3776442015275
 30
0.0
 10
92.44696047305547
 20
234.1021431556709
 30
0.0
 10
92.69724675212862
 20
233.8435371353722
 30
0.0
 10
92.98370776460155
 20
233.5977792460807
 30
0.0
 10
93.29753884653965
 20
233.3721339861581
 30
0.0
 10
93.6434529199627
 20
233.1633623185055
 30
0.0
 10
94.01157173818478
 20
232.9771415504317
 30
0.0
 10
94.40626566590703
 20
232.8114570202544
 30
0.0
 10
94.81781886790581
 20
232.6701492475466
 30
0.0
 10
95.2492445669476
 20
232.5523697590939
 30
0.0
 10
95.69201859581246
 20
232.4602514575589
 30
0.0
 10
96.14707659436469
 20
232.3937655302572
 30
0.0
 10
96.60784369645734
 20
232.3537079734297
 30
0.0
 10
97.07276587188431
 20
232.3403660162131
 30
0.0
 10
97.53768804731527
 20
232.3537079735082
 30
0.0
 10
97.99845514939639
 20
232.3937655304184
 30
0.0
 10
98.45351314799024
 20
232.4602514578114
 30
0.0
 10
98.89628717670081
 20
232.5523697594502
 30
0.0
 10
99.32771287629531
 20
232.6701492480245
 30
0.0
 10
99.7392660762673
 20
232.811457020874
 30
0.0
 10
100.1339600111841
 20
232.9771415512208
 30
0.0
 10
100.5020788033346
 20
233.163362319492
 30
0.0
 10
100.8479929683657
 20
233.37213398738
 30
0.0
 10
101.1618237206531
 20
233.5977792475744
 30
0.0
 10
101.4482858824247
 20
233.8435371371874
 30
0.0
 10
101.6985680364597
 20
234.1021431578559
 30
0.0
 10
101.9165383043202
 20
234.3776442041524
 30
0.0
 10
102.0956408770803
 20
234.6619623125124
 30
0.0
 10
102.238063377178
 20
234.9588719686274
 30
0.0
 10
102.3394841734754
 20
235.2608388823613
 30
0.0
 10
102.4034681512848
 20
235.569687750384
 30
0.0
 10
102.4115349999556
 20
235.7766802647286
 30
0.0
 10
102.4155681916716
 20
235.8801704466508
 30
0.0
 11
102.4155681916716
 21
235.8801704466508
 31
0.0
 11
102.3949510984708
 21
236.1897462447875
 31
0.0
 11
102.3343990190728
 21
236.4940787657068
 31
0.0
 11
102.2319321304409
 21
236.7989781009702
 31
0.0
 11
102.093357785512
 21
237.0893337911408
 31
0.0
 11
101.9115657411547
 21
237.3791269218323
 31
0.0
 11
101.6997684068985
 21
237.6478490002187
 31
0.0
 11
101.4444118966246
 21
237.9126373439876
 31
0.0
 11
101.1655898973354
 21
238.1526541909349
 31
0.0
 11
100.8450979697104
 21
238.3837721232601
 31
0.0
 11
100.5070530005285
 21
238.5884111130133
 31
0.0
 11
100.1318892766844
 21
238.7786774456045
 31
0.0
 11
99.74416702685164
 21
238.9418795128802
 31
0.0
 11
99.32633070239027
 21
239.0856647834622
 31
0.0
 11
98.90011188057562
 21
239.2023194320693
 31
0.0
 11
98.45272191448575
 21
239.2955828337687
 31
0.0
 11
98.00053375020815
 21
239.3618175354249
 31
0.0
 11
97.53743053699577
 21
239.4021425241916
 31
0.0
 11
97.07276586203145
 21
239.4155275537866
 31
0.0
 11
96.60810118706718
 21
239.4021425241917
 31
0.0
 11
96.14499797385483
 21
239.3618175354249
 31
0.0
 11
95.69280980957717
 21
239.2955828337687
 31
0.0
 11
95.24541984348724
 21
239.2023194320693
 31
0.0
 11
94.81920102167271
 21
239.0856647834622
 31
0.0
 11
94.40136469721145
 21
238.9418795128802
 31
0.0
 11
94.01364244737869
 21
238.7786774456045
 31
0.0
 11
93.63847872353455
 21
238.5884111130133
 31
0.0
 11
93.30043375435257
 21
238.3837721232602
 31
0.0
 11
92.97994182672753
 21
238.1526541909349
 31
0.0
 11
92.7011198274383
 21
237.9126373439877
 31
0.0
 11
92.44576331716445
 21
237.6478490002187
 31
0.0
 11
92.23396598290827
 21
237.3791269218323
 31
0.0
 11
92.05217393855102
 21
237.0893337911408
 31
0.0
 11
91.91359959362215
 21
236.7989781009701
 31
0.0
 11
91.81113270499023
 21
236.4940787657068
 31
0.0
 11
91.75058062559214
 21
236.1897462447875
 31
0.0
 11
91.72996353239134
 21
235.8801704466508
 31
0.0
 11
91.75058062559214
 21
235.5705946485141
 31
0.0
 11
91.81113270499023
 21
235.2662621275949
 31
0.0
 11
91.91359959362215
 21
234.9613627923316
 31
0.0
 11
92.05217393855102
 21
234.6710071021609
 31
0.0
 11
92.23396598290827
 21
234.3812139714695
 31
0.0
 11
92.44576331716445
 21
234.112491893083
 31
0.0
 11
92.7011198274383
 21
233.8477035493141
 31
0.0
 11
92.97994182672753
 21
233.6076867023668
 31
0.0
 11
93.30043375435255
 21
233.3765687700415
 31
0.0
 11
93.63847872353455
 21
233.1719297802883
 31
0.0
 11
94.01364244737869
 21
232.9816634476972
 31
0.0
 11
94.40136469721145
 21
232.8184613804215
 31
0.0
 11
94.81920102167274
 21
232.6746761098395
 31
0.0
 11
95.24541984348724
 21
232.5580214612325
 31
0.0
 11
95.69280980957717
 21
232.464758059533
 31
0.0
 11
96.14499797385483
 21
232.3985233578768
 31
0.0
 11
96.60810118706718
 21
232.3581983691101
 31
0.0
 11
97.07276586203145
 21
232.3448133395152
 31
0.0
 11
97.53743053699577
 21
232.3581983691101
 31
0.0
 11
98.00053375020815
 21
232.3985233578768
 31
0.0
 11
98.45272191448575
 21
232.464758059533
 31
0.0
 11
98.90011188057562
 21
232.5580214612325
 31
0.0
 11
99.32633070239025
 21
232.6746761098395
 31
0.0
 11
99.74416702685164
 21
232.8184613804215
 31
0.0
 11
100.1318892766844
 21
232.9816634476972
 31
0.0
 11
100.5070530005285
 21
233.1719297802883
 31
0.0
 11
100.8450979697104
 21
233.3765687700415
 31
0.0
 11
101.1655898973354
 21
233.6076867023668
 31
0.0
 11
101.4444118966246
 21
233.8477035493141
 31
0.0
 11
101.6997684068985
 21
234.112491893083
 31
0.0
 11
101.9115657411547
 21
234.3812139714695
 31
0.0
 11
102.093357785512
 21
234.6710071021609
 31
0.0
 11
102.2319321304409
 21
234.9613627923316
 31
0.0
 11
102.3343990190728
 21
235.2662621275949
 31
0.0
 11
102.3949510984708
 21
235.5705946485141
 31
0.0
 11
102.4155681916716
 21
235.8801704466508
 31
0.0
  0
ENDBLK
  5
58
330
56
100
AcDbEntity
  8
0
100
AcDbBlockEnd
  0
BLOCK
  5
5E
330
59
100
AcDbEntity
  8
0
100
AcDbBlockBegin
  2
R10AK-13-B
 70
     0
 10
96.86478423173872
 20
182.9151220513302
 30
0.0
  3
R10AK-13-B
  1

  0
INSERT
  5
5A
330
59
100
AcDbEntity
  8
0
100
AcDbBlockReference
  2
21-1C
 10
169.9875733043132
 20
335.0468523528607
 30
0.0
  0
INSERT
  5
5B
330
59
100
AcDbEntity
  8
1
100
AcDbBlockReference
  2
42-1
 10
272.7229250576814
 20
256.3304848170407
 30
0.0
  0
INSERT
  5
5C
330
59
100
AcDbEntity
  8
1
100
AcDbBlockReference
  2
36-1A-13-M4
 10
182.3541240985693
 20
254.109945321221
 30
0.0
  0
INSERT
  5
5D
330
59
100
AcDbEntity
  8
0
100
AcDbBlockReference
  2
37-1-13
 10
170.2124196823907
 20
323.2686106326751
 30
0.0
  0
LINE
  5
179
330
59
100
AcDbEntity
  8
1
  6
PHANTOM
 62
     4
100
AcDbLine
 10
273.3534193263498
 20
230.9178058582493
 30
0.0
 11
273.3534193263498
 21
260.4172511747566
 31
0.0
  0
ENDBLK
  5
5F
330
59
100
AcDbEntity
  8
0
100
AcDbBlockEnd
  0
BLOCK
  5
61
330
60
100
AcDbEntity
  8
0
100
AcDbBlockBegin
  2
62-1B-M2
 70
     0
 10
159.3619870583374
 20
2323.863957651242
 30
0.0
  3
62-1B-M2
  1

  0
LINE
  5
17A
330
60
100
AcDbEntity
  8
1
  6
Continuous
 62
     7
100
AcDbLine
 10
189.0739699168126
 20
170.2960681452562
 30
0.0
 11
190.1632507290548
 21
169.788128160626
 31
0.0
  0
LINE
  5
17B
330
60
100
AcDbEntity
  8
1
  6
Continuous
 62
     7
100
AcDbLine
 10
234.0888463635306
 20
214.9151220513302
 30
0.0
 11
238.3534193263498
 21
214.9151220513302
 31
0.0
  0
LINE
  5
17C
330
60
100
AcDbEntity
  8
0
  6
PHANTOM
 62
     4
100
AcDbLine
 10
195.0565774278838
 20
164.1961986902203
 30
0.0
 11
206.899612752431
 21
189.5936699035511
 31
0.0
  0
LINE
  5
17D
330
60
100
AcDbEntity
  8
0
  6
Continuous
 62
     7
100
AcDbLine
 10
199.6491504561379
 20
192.9746159974768
 30
0.0
 11
191.1870612255162
 21
174.8276070804391
 31
0.0
  0
LINE
  5
17E
330
60
100
AcDbEntity
  8
1
  6
Continuous
 62
     7
100
AcDbLine
 10
234.0888463635306
 20
198.9151220513302
 30
0.0
 11
238.3534193263498
 21
198.9151220513302
 31
0.0
  0
LINE
  5
17F
330
60
100
AcDbEntity
  8
0
  6
Continuous
 62
     7
100
AcDbLine
 10
214.1500750487243
 20
186.2127238096257
 30
0.0
 11
205.6879858181025
 21
168.0657148925877
 31
0.0
  0
LINE
  5
180
330
60
100
AcDbEntity
  8
1
  6
Continuous
 62
     7
100
AcDbLine
 10
196.3244322131059
 20
166.9151220513303
 30
0.0
 11
202.4856136971569
 21
164.0421159420343
 31
0.0
  0
LINE
  5
181
330
60
100
AcDbEntity
  8
1
  6
Continuous
 62
     7
100
AcDbLine
 10
202.4856136971569
 20
164.0421159420343
 30
0.0
 11
203.5748945093991
 21
163.5341759574046
 31
0.0
  0
LINE
  5
182
330
60
100
AcDbEntity
  8
1
  6
Continuous
 62
     7
100
AcDbLine
 10
190.1632507290548
 20
169.788128160626
 30
0.0
 11
196.3244322131059
 21
166.9151220513303
 31
0.0
  0
LINE
  5
183
330
60
100
AcDbEntity
  8
0
  6
PHANTOM
 62
     4
100
AcDbLine
 10
234.0888463635306
 20
206.9151220513302
 30
0.0
 11
256.8244322131058
 21
206.9151220513302
 31
0.0
  0
LINE
  5
184
330
60
100
AcDbEntity
  8
0
  6
Continuous
 62
     7
100
AcDbLine
 10
95.35341932634967
 20
372.988578856319
 30
0.0
 11
95.35341932634967
 21
333.0726830517787
 31
0.0
  0
LINE
  5
185
330
60
100
AcDbEntity
  8
0
  6
Continuous
 62
     7
100
AcDbLine
 10
111.3534193263497
 20
333.0726830517787
 30
0.0
 11
111.3534193263497
 21
372.988578856319
 31
0.0
  0
LINE
  5
186
330
60
100
AcDbEntity
  8
0
  6
Continuous
 62
     7
100
AcDbLine
 10
111.3534193263497
 20
171.4466609865171
 30
0.0
 11
111.3534193263497
 21
171.4466609865136
 31
0.0
  0
LINE
  5
187
330
60
100
AcDbEntity
  8
0
  6
Continuous
 62
     7
100
AcDbLine
 10
111.3534193263497
 20
206.9151220513303
 30
0.0
 11
111.3534193263497
 21
171.4466609865171
 31
0.0
  0
LINE
  5
188
330
60
100
AcDbEntity
  8
0
  6
Continuous
 62
     7
100
AcDbLine
 10
95.35341932634967
 20
206.9151220513303
 30
0.0
 11
95.35341932634967
 21
171.4466609865136
 31
0.0
  0
LINE
  5
189
330
60
100
AcDbEntity
  8
1
  6
Continuous
 62
     7
100
AcDbLine
 10
191.1870612255162
 20
174.8276070804391
 30
0.0
 11
205.6879858181025
 21
168.0657148925877
 31
0.0
  0
ARC
  5
18A
330
60
100
AcDbEntity
  8
0
  6
Continuous
 62
     7
100
AcDbCircle
 10
234.0888463635306
 20
176.9151220513302
 30
0.0
 40
38.0
100
AcDbArc
 50
90.0
 51
155.0
  0
ARC
  5
18B
330
60
100
AcDbEntity
  8
0
  6
Continuous
 62
     7
100
AcDbCircle
 10
234.0888463635306
 20
176.9151220513302
 30
0.0
 40
22.0
100
AcDbArc
 50
90.0
 51
154.9999999999998
  0
ARC
  5
18C
330
60
100
AcDbEntity
  8
0
  6
Continuous
 62
     7
100
AcDbCircle
 10
190.5610117700049
 20
172.3610939385217
 30
0.0
 40
15.72500000000223
100
AcDbArc
 50
334.9999999999994
 51
344.1478425197992
  0
ARC
  5
18D
330
60
100
AcDbEntity
  8
0
  6
Continuous
 62
     7
100
AcDbCircle
 10
204.2009439649102
 20
166.0006890993221
 30
0.0
 40
15.72500000000196
100
AcDbArc
 50
155.0000000000001
 51
164.1478425197988
  0
ARC
  5
18E
330
60
100
AcDbEntity
  8
0
  6
Continuous
 62
     7
100
AcDbCircle
 10
190.5610117700049
 20
172.3610939385217
 30
0.0
 40
15.72500000000221
100
AcDbArc
 50
325.8521574801989
 51
334.9999999999994
  0
ARC
  5
18F
330
60
100
AcDbEntity
  8
0
  6
Continuous
 62
     7
100
AcDbCircle
 10
204.2009439649102
 20
166.0006890993221
 30
0.0
 40
15.72500000000203
100
AcDbArc
 50
145.8521574801988
 51
155.0000000000001
  0
ARC
  5
190
330
60
100
AcDbEntity
  8
0
  6
Continuous
 62
     7
100
AcDbCircle
 10
98.61914112565464
 20
169.1808915189239
 30
0.0
 40
12.93427820069511
100
AcDbArc
 50
349.9111250439124
 51
10.08887495608583
  0
ARC
  5
191
330
60
100
AcDbEntity
  8
0
  6
Continuous
 62
     7
100
AcDbCircle
 10
108.0876975270263
 20
169.180891518922
 30
0.0
 40
12.93427820067661
100
AcDbArc
 50
169.9111250439069
 51
190.0888749560937
  0
ARC
  5
192
330
60
100
AcDbEntity
  8
0
  6
Continuous
 62
     7
100
AcDbCircle
 10
103.3534193263497
 20
163.6723277008666
 30
0.0
 40
11.15527937957266
100
AcDbArc
 50
44.18038574971194
 51
135.8196142502882
  0
ARC
  5
193
330
60
100
AcDbEntity
  8
0
  6
Continuous
 62
     7
100
AcDbCircle
 10
103.3534193263497
 20
206.9151220513303
 30
0.0
 40
8.0
100
AcDbArc
 50
0.0
 51
180.0
  0
SPLINE
  5
194
330
60
100
AcDbEntity
  8
0
  6
Continuous
 62
     7
100
AcDbSpline
210
0.0
220
0.0
230
1.0
 70
     8
 71
     3
 72
     9
 73
     5
 74
     3
 42
0.000000001
 43
0.0000000001
 44
0.00000001
 40
0.0
 40
0.0
 40
0.0
 40
0.0
 40
0.3163021173070504
 40
0.6333434931012452
 40
0.6333434931012452
 40
0.6333434931012452
 40
0.6333434931012452
 10
111.3534193263496
 20
333.0726830517798
 30
0.0
 10
111.3521383502923
 20
332.9672184840919
 30
0.0
 10
111.3495733843151
 20
332.7560428585933
 30
0.0
 10
111.3317437545171
 20
332.5456054117665
 30
0.0
 10
111.3228185239767
 20
332.4402638743462
 30
0.0
 11
111.3534193263496
 21
333.0726830517798
 31
0.0
 11
111.3457691257565
 21
332.756473463063
 31
0.0
 11
111.3228185239767
 21
332.4402638743462
 31
0.0
  0
SPLINE
  5
195
330
60
100
AcDbEntity
  8
0
  6
Continuous
 62
     7
100
AcDbSpline
210
0.0
220
0.0
230
1.0
 70
     8
 71
     3
 72
    43
 73
    39
 74
    37
 42
0.000000001
 43
0.0000000001
 44
0.00000001
 40
0.0
 40
0.0
 40
0.0
 40
0.0
 40
0.6352042227109191
 40
1.270370506174654
 40
1.911389447579995
 40
2.552340371688596
 40
3.202156823994568
 40
3.851887900974447
 40
4.512333247407484
 40
5.172689359422703
 40
5.844261527685633
 40
6.515751879406503
 40
7.197615459148071
 40
7.879412550273209
 40
8.569551789603889
 40
9.259644670793886
 40
9.955129077082805
 40
10.65058978344138
 40
11.34791329175563
 40
12.04523680007119
 40
12.74069750643362
 40
13.43618191272933
 40
14.1262747939298
 40
14.81641403327604
 40
15.49821112442294
 40
16.18007470419453
 40
16.85156505595581
 40
17.52313722427398
 40
18.18349333636393
 40
18.84393868290146
 40
19.49366976003031
 40
20.14348621256301
 40
20.78443713704765
 40
21.42545607917981
 40
22.06062236442596
 40
22.69582659140844
 40
23.01286796528383
 40
23.32917007682777
 40
23.32917007682777
 40
23.32917007682777
 40
23.32917007682777
 10
111.3228185239767
 20
332.4402638743462
 30
0.0
 10
111.2966317687273
 20
332.2299869756581
 30
0.0
 10
111.2442598097132
 20
331.8094457395046
 30
0.0
 10
111.0886419760408
 20
331.190097596181
 30
0.0
 10
110.8791633582179
 20
330.585579143581
 30
0.0
 10
110.6101908353545
 20
329.999401842491
 30
0.0
 10
110.2873590893088
 20
329.4378595930983
 30
0.0
 10
109.9104685953839
 20
328.9031007290142
 30
0.0
 10
109.4851474001502
 20
328.4014067256618
 30
0.0
 10
109.0118207520902
 20
327.9343495514539
 30
0.0
 10
108.4971394749811
 20
327.5075223653884
 30
0.0
 10
107.9419445856658
 20
327.1222574011742
 30
0.0
 10
107.3535584781313
 20
326.7830202885782
 30
0.0
 10
106.7334827404715
 20
326.4910793558872
 30
0.0
 10
106.089167068773
 20
326.2495375755596
 30
0.0
 10
105.4230759252431
 20
326.0595917253639
 30
0.0
 10
104.74223304728
 20
325.9229652326831
 30
0.0
 10
104.0503018795304
 20
325.8406014642251
 30
0.0
 10
103.353419326166
 20
325.8130181243301
 30
0.0
 10
102.6565367727879
 20
325.8406014642264
 30
0.0
 10
101.9646056050719
 20
325.9229652326894
 30
0.0
 10
101.2837627269656
 20
326.0595917253602
 30
0.0
 10
100.6176715839299
 20
326.2495375756062
 30
0.0
 10
99.97335591034327
 20
326.4910793557623
 30
0.0
 10
99.35328017956988
 20
326.7830202891071
 30
0.0
 10
98.7648940464157
 20
327.1222573993114
 30
0.0
 10
98.20969925116961
 20
327.5075223723623
 30
0.0
 10
97.6950176258077
 20
327.9343495257922
 30
0.0
 10
97.2216922564496
 20
328.4014068199479
 30
0.0
 10
96.79636633056735
 20
328.9031003797227
 30
0.0
 10
96.41949321835158
 20
329.4378608739153
 30
0.0
 10
96.09659711028124
 20
329.9993970877275
 30
0.0
 10
95.82786167261942
 20
330.5855966225077
 30
0.0
 10
95.61750337840013
 20
331.1900325816663
 30
0.0
 10
95.46514010925517
 20
331.8096859335034
 30
0.0
 10
95.3895984604605
 20
332.3342328914292
 30
0.0
 10
95.35785918123061
 20
332.7560985594109
 30
0.0
 10
95.35489812179974
 20
332.967237037138
 30
0.0
 10
95.35341932634967
 20
333.0726830517787
 30
0.0
 11
111.3228185239767
 21
332.4402638743462
 31
0.0
 11
111.2314933340768
 21
331.8116589734752
 31
0.0
 11
111.080314243103
 21
331.1947464245084
 31
0.0
 11
110.8695501666843
 21
330.5893673790313
 31
0.0
 11
110.6027903731318
 21
330.0065661260488
 31
0.0
 11
110.2789206353901
 21
329.4432102747085
 31
0.0
 11
109.9049411758524
 21
328.9119007258797
 31
0.0
 11
109.4779524188196
 21
328.4080469203452
 31
0.0
 11
109.0081559956522
 21
327.9439763268473
 31
0.0
 11
108.4913161200969
 21
327.5151573435081
 31
0.0
 11
107.9398139858263
 21
327.1320846499401
 31
0.0
 11
107.3491735595328
 21
326.7913768155971
 31
0.0
 11
106.7324266021316
 21
326.5007387861713
 31
0.0
 11
106.0862434910423
 21
326.2583763370818
 31
0.0
 11
105.4226516901563
 21
326.068971726352
 31
0.0
 11
104.7407727526173
 21
325.9320787973315
 31
0.0
 11
104.0501976914717
 21
325.8497885847629
 31
0.0
 11
103.3534193263497
 21
325.8222207554855
 31
0.0
 11
102.6566409612276
 21
325.8497885847629
 31
0.0
 11
101.966065900082
 21
325.9320787973315
 31
0.0
 11
101.2841869625431
 21
326.0689717263519
 31
0.0
 11
100.6205951616572
 21
326.2583763370817
 31
0.0
 11
99.97441205056788
 21
326.5007387861713
 31
0.0
 11
99.35766509316647
 21
326.7913768155971
 31
0.0
 11
98.7670246668728
 21
327.1320846499401
 31
0.0
 11
98.21552253260214
 21
327.515157343508
 31
0.0
 11
97.69868265704689
 21
327.9439763268473
 31
0.0
 11
97.2288862338796
 21
328.4080469203452
 31
0.0
 11
96.80189747684676
 21
328.9119007258797
 31
0.0
 11
96.42791801730918
 21
329.4432102747085
 31
0.0
 11
96.10404827956745
 21
330.0065661260488
 31
0.0
 11
95.83728848601497
 21
330.5893673790313
 31
0.0
 11
95.62652440959647
 21
331.1947464245084
 31
0.0
 11
95.47534531862267
 21
331.8116589734752
 31
0.0
 11
95.3840201287224
 21
332.4402638743462
 31
0.0
 11
95.36106952694286
 21
332.7564734630623
 31
0.0
 11
95.35341932634967
 21
333.0726830517787
 31
0.0
  0
SPLINE
  5
196
330
60
100
AcDbEntity
  8
0
  6
Continuous
 62
     7
100
AcDbSpline
210
0.0
220
0.0
230
1.0
 70
     8
 71
     3
 72
    29
 73
    25
 74
    23
 42
0.000000001
 43
0.0000000001
 44
0.00000001
 40
0.0
 40
0.0
 40
0.0
 40
0.0
 40
0.5560807599853174
 40
1.112897340665074
 40
1.837501207589159
 40
2.562105074891819
 40
3.28643227319544
 40
4.010763623168096
 40
4.734297751148679
 40
5.457839725937399
 40
6.180158596308973
 40
6.902488131140755
 40
7.623314500669194
 40
8.344153128178762
 40
9.06338870512766
 40
9.782636681427448
 40
10.50037505297007
 40
11.21812444695244
 40
11.93464087037672
 40
12.65116554767545
 40
13.36688432640433
 40
14.08260752222867
 40
14.79805062165038
 40
15.51349372031729
 40
15.51349372031729
 40
15.51349372031729
 40
15.51349372031729
 10
111.3534193263538
 20
333.8394768989379
 30
0.0
 10
111.3901664982035
 20
333.6577242022702
 30
0.0
 10
111.4637094526128
 20
333.293978306341
 30
0.0
 10
111.5343310943321
 20
332.684912279037
 30
0.0
 10
111.5640566354277
 20
332.0161671524367
 30
0.0
 10
111.5324485829577
 20
331.2914007880657
 30
0.0
 10
111.4392161016132
 20
330.5721181284056
 30
0.0
 10
111.2840947480421
 20
329.8639396076554
 30
0.0
 10
111.0689390187276
 20
329.1719155497563
 30
0.0
 10
110.7948201770791
 20
328.5017776807404
 30
0.0
 10
110.464297498684
 20
327.8580390017941
 30
0.0
 10
110.079473568711
 20
327.2462769362471
 30
0.0
 10
109.6435981439055
 20
326.6703920497889
 30
0.0
 10
109.1597285083474
 20
326.1355839607323
 30
0.0
 10
108.6317203152566
 20
325.6450739551281
 30
0.0
 10
108.0634738356335
 20
325.2034777914024
 30
0.0
 10
107.4593665628462
 20
324.8132778272621
 30
0.0
 10
106.8239844250433
 20
324.4783391537655
 30
0.0
 10
106.1621402398206
 20
324.2003225826404
 30
0.0
 10
105.478923672498
 20
323.9823106848553
 30
0.0
 10
104.7794567370883
 20
323.8247296061166
 30
0.0
 10
104.0692462634327
 20
323.731123811583
 30
0.0
 10
103.3531712500164
 20
323.6957111703888
 30
0.0
 10
102.8768424967286
 20
323.7257789682054
 30
0.0
 10
102.6386781205232
 20
323.7408128742718
 30
0.0
 11
111.3534193263538
 21
333.8394768989379
 31
0.0
 11
111.4559784090435
 21
333.2929355477073
 31
0.0
 11
111.5221686128239
 21
332.7400670615023
 31
0.0
 11
111.5534193263496
 21
332.0161373974269
 31
0.0
 11
111.522168612824
 21
331.2922077333516
 31
0.0
 11
111.4288901087041
 21
330.5739118251691
 31
0.0
 11
111.2740099140081
 21
329.8663328327298
 31
0.0
 11
111.0590739502739
 21
329.1754607993863
 31
0.0
 11
110.7852210586393
 21
328.5057462455751
 31
0.0
 11
110.4551737558157
 21
327.8632407367077
 31
0.0
 11
110.0706332730896
 21
327.2517764494811
 31
0.0
 11
109.6354918703192
 21
326.6771090542719
 31
0.0
 11
109.1519349939831
 21
326.1425240986482
 31
0.0
 11
108.6248859788808
 21
325.6531171602373
 31
0.0
 11
108.0570191363779
 21
325.2117047667094
 31
0.0
 11
107.4540265809383
 21
324.8224126544441
 31
0.0
 11
106.8191413747778
 21
324.4876217223341
 31
0.0
 11
106.1584752522476
 21
324.2102842738505
 31
0.0
 11
105.4759133982609
 21
323.9923004910743
 31
0.0
 11
104.7776086613669
 21
323.8353805567559
 31
0.0
 11
104.068160532176
 21
323.7408128742718
 31
0.0
 11
103.3534193263497
 21
323.709129446782
 31
0.0
 11
102.6386781205232
 21
323.7408128742718
 31
0.0
  0
SPLINE
  5
197
330
60
100
AcDbEntity
  8
0
  6
Continuous
 62
     7
100
AcDbSpline
210
0.0
220
0.0
230
1.0
 70
     8
 71
     3
 72
    27
 73
    23
 74
    21
 42
0.000000001
 43
0.0000000001
 44
0.00000001
 40
0.0
 40
0.0
 40
0.0
 40
0.0
 40
0.7157231949453234
 40
1.431441972946407
 40
2.147966649822795
 40
2.864483072980327
 40
3.582232466784444
 40
4.299970838200164
 40
5.019218814406445
 40
5.738454391282873
 40
6.45929301873487
 40
7.18011938821567
 40
7.902448923007073
 40
8.624767793343011
 40
9.348309768099655
 40
10.07184389605065
 40
10.79617524599643
 40
11.52050244427785
 40
12.24510631157179
 40
12.96971017853073
 40
13.52652675935634
 40
14.08260751976738
 40
14.08260751976738
 40
14.08260751976738
 40
14.08260751976738
 10
102.6386781205232
 20
323.7408128742718
 30
0.0
 10
102.4014902026793
 20
323.7679187258568
 30
0.0
 10
101.9271158326656
 20
323.8221302760729
 30
0.0
 10
101.2279863646412
 20
323.98300804254
 30
0.0
 10
100.5446792771409
 20
324.200135650881
 30
0.0
 10
99.88285936461452
 20
324.4783893376272
 30
0.0
 10
99.24747071252577
 20
324.8132643719392
 30
0.0
 10
98.64336518711193
 20
325.2034814050133
 30
0.0
 10
98.07511823843109
 20
325.6450729858567
 30
0.0
 10
97.54711017122591
 20
326.135584220764
 30
0.0
 10
97.06324050190253
 20
326.6703919796556
 30
0.0
 10
96.62736508617779
 20
327.24627695462
 30
0.0
 10
96.24254115377903
 20
327.8580389963477
 30
0.0
 10
95.91201847603836
 20
328.5017776816313
 30
0.0
 10
95.63789963421013
 20
329.1719155488989
 30
0.0
 10
95.42274390493213
 20
329.8639396072225
 30
0.0
 10
95.26762255132982
 20
330.5721181278185
 30
0.0
 10
95.17439006995939
 20
331.2914007874883
 30
0.0
 10
95.14278201744168
 20
332.0161671518487
 30
0.0
 10
95.17250755846996
 20
332.6849122785113
 30
0.0
 10
95.24312920011039
 20
333.2939783060259
 30
0.0
 10
95.31667215447348
 20
333.6577242021596
 30
0.0
 10
95.35341932635194
 20
333.8394768989663
 30
0.0
 11
102.6386781205232
 21
323.7408128742718
 31
0.0
 11
101.9292299913321
 21
323.8353805567558
 31
0.0
 11
101.2309252544383
 21
323.9923004910742
 31
0.0
 11
100.5483634004519
 21
324.2102842738505
 31
0.0
 11
99.88769727792169
 21
324.4876217223341
 31
0.0
 11
99.25281207176104
 21
324.8224126544441
 31
0.0
 11
98.6498195163214
 21
325.2117047667094
 31
0.0
 11
98.0819526738184
 21
325.6531171602374
 31
0.0
 11
97.55490365871617
 21
326.1425240986482
 31
0.0
 11
97.07134678238009
 21
326.6771090542719
 31
0.0
 11
96.63620537960972
 21
327.251776449481
 31
0.0
 11
96.25166489688354
 21
327.8632407367076
 31
0.0
 11
95.92161759405988
 21
328.5057462455749
 31
0.0
 11
95.64776470242539
 21
329.1754607993862
 31
0.0
 11
95.43282873869123
 21
329.8663328327298
 31
0.0
 11
95.27794854399521
 21
330.5739118251691
 31
0.0
 11
95.18467003987529
 21
331.2922077333516
 31
0.0
 11
95.15341932634958
 21
332.0161373974269
 31
0.0
 11
95.1846700398753
 21
332.7400670615023
 31
0.0
 11
95.25086024365802
 21
333.2929355477218
 31
0.0
 11
95.35341932635194
 21
333.8394768989663
 31
0.0
  0
SPLINE
  5
198
330
60
100
AcDbEntity
  8
0
  6
Continuous
 62
     7
100
AcDbSpline
210
0.0
220
0.0
230
1.0
 70
    11
 71
     3
 72
    79
 73
    75
 74
    73
 42
0.000000001
 43
0.0000000001
 44
0.00000001
 40
0.0
 40
0.0
 40
0.0
 40
0.0
 40
0.2880792242047238
 40
0.5747423010472867
 40
0.9128589881786839
 40
1.249698475288353
 40
1.652730795403926
 40
2.05517106777571
 40
2.52652129289928
 40
2.99756294608116
 40
3.532369598397574
 40
4.067014772304876
 40
4.655357060650625
 40
5.24361080398524
 40
5.872269835225592
 40
6.500881647768408
 40
7.154525175570087
 40
7.808147992924863
 40
8.47024354084784
 40
9.13233908878026
 40
9.785961906162779
 40
10.4396054340095
 40
11.06821724661072
 40
11.69687627792184
 40
12.28513002133052
 40
12.87347230975227
 40
13.4081174837239
 40
13.94292413608903
 40
14.41396578928838
 40
14.88531601438279
 40
15.28775628666812
 40
15.69078860658983
 40
16.0276280933946
 40
16.36574477990857
 40
16.65240785482132
 40
16.94048708356485
 40
17.20815220686513
 40
17.47581733016469
 40
17.76389655890634
 40
18.05055963381658
 40
18.38867632032724
 40
18.72551580712882
 40
19.1285481270472
 40
19.53098839932954
 40
20.00233862442095
 40
20.47338027761776
 40
21.00818692998051
 40
21.54283210395026
 40
22.13117439237045
 40
22.71942813577803
 40
23.34808716708886
 40
23.97669897969125
 40
24.63034250754104
 40
25.28396532492912
 40
25.9460608728705
 40
26.6081564208068
 40
27.26177923817998
 40
27.91542276600639
 40
28.54403457858008
 40
29.17269360985923
 40
29.76094735323827
 40
30.34928964163665
 40
30.88393481559935
 40
31.41874146797763
 40
31.88978312121905
 40
32.36113334640334
 40
32.76357361882485
 40
33.16660593897341
 40
33.5034454260752
 40
33.84156211304526
 40
34.1282251885359
 40
34.41630441808011
 40
34.68396954321026
 40
34.95163466300136
 40
34.95163466300136
 40
34.95163466300136
 40
34.95163466300136
 10
95.76466574667865
 20
166.6492869906542
 30
0.0
 10
95.79158473922975
 20
166.5567219967192
 30
0.0
 10
95.84529038351343
 20
166.3720470383859
 30
0.0
 10
96.0038970320204
 20
166.1092021608315
 30
0.0
 10
96.2081049722027
 20
165.861240726692
 30
0.0
 10
96.47249169887749
 20
165.6164622374235
 30
0.0
 10
96.7796692358992
 20
165.3903508965612
 30
0.0
 10
97.14372225136745
 20
165.1690280545083
 30
0.0
 10
97.5446087591979
 20
164.967443292098
 30
0.0
 10
97.99809978603486
 20
164.7749015596644
 30
0.0
 10
98.48225002768952
 20
164.6029175870741
 30
0.0
 10
99.01183522012882
 20
164.4444134951501
 30
0.0
 10
99.56572196643992
 20
164.3072269067839
 30
0.0
 10
100.1555568768408
 20
164.1872634301052
 30
0.0
 10
100.76304577206
 20
164.0892882112946
 30
0.0
 10
101.395362519733
 20
164.0112903988797
 30
0.0
 10
102.0384035503053
 20
163.9557796924856
 30
0.0
 10
102.6941124415168
 20
163.9219208250843
 30
0.0
 10
103.3534193163671
 20
163.9108143865203
 30
0.0
 10
104.0127261912585
 20
163.9219208254214
 30
0.0
 10
104.6684350823684
 20
163.9557796931857
 30
0.0
 10
105.3114761133593
 20
164.0112903998051
 30
0.0
 10
105.9437928596074
 20
164.0892882128744
 30
0.0
 10
106.5512817600858
 20
164.1872634306958
 30
0.0
 10
107.1411166521715
 20
164.3072269120533
 30
0.0
 10
107.6950034639345
 20
164.4444134848085
 30
0.0
 10
108.2245884333918
 20
164.6029176307855
 30
0.0
 10
108.7087394579155
 20
164.7749014142691
 30
0.0
 10
109.1622278927381
 20
164.9674437731816
 30
0.0
 10
109.5631233527573
 20
165.1690263719501
 30
0.0
 10
109.9271475566585
 20
165.390356177114
 30
0.0
 10
110.234423318345
 20
165.6164437784871
 30
0.0
 10
110.4984997357794
 20
165.8612972636954
 30
0.0
 10
110.7037669237151
 20
166.1090026948011
 30
0.0
 10
110.8589789711607
 20
166.3726679894894
 30
0.0
 10
110.949670215574
 20
166.6404545781065
 30
0.0
 10
110.984857679988
 20
166.9151220511631
 30
0.0
 10
110.9496702155777
 20
167.1897895242195
 30
0.0
 10
110.8589789711678
 20
167.457576112836
 30
0.0
 10
110.7037669237254
 20
167.7212414075232
 30
0.0
 10
110.4984997357921
 20
167.9689468386273
 30
0.0
 10
110.23442331836
 20
168.213800323833
 30
0.0
 10
109.9271475566753
 20
168.4398879252033
 30
0.0
 10
109.5631233527752
 20
168.6612177303632
 30
0.0
 10
109.1622278927567
 20
168.8628003291267
 30
0.0
 10
108.7087394579342
 20
169.055342688033
 30
0.0
 10
108.2245884334099
 20
169.2273264715082
 30
0.0
 10
107.6950034639513
 20
169.3858306174742
 30
0.0
 10
107.1411166521863
 20
169.5230171902154
 30
0.0
 10
106.5512817600978
 20
169.6429806715545
 30
0.0
 10
105.9437928596157
 20
169.7409558893526
 30
0.0
 10
105.3114761133625
 20
169.8189537023927
 30
0.0
 10
104.6684350823656
 20
169.8744644089757
 30
0.0
 10
104.0127261912454
 20
169.9083232766961
 30
0.0
 10
103.3534193163512
 20
169.9194297155423
 30
0.0
 10
102.6941124414607
 20
169.9083232769238
 30
0.0
 10
102.0384035503358
 20
169.874464409422
 30
0.0
 10
101.3953625193713
 20
169.8189537030501
 30
0.0
 10
100.7630457730233
 20
169.7409558901697
 30
0.0
 10
100.1555568729084
 20
169.6429806726115
 30
0.0
 10
99.56572197955502
 20
169.5230171910836
 30
0.0
 10
99.011835172316
 20
169.3858306195076
 30
0.0
 10
98.48225018743321
 20
169.2273264698364
 30
0.0
 10
97.99809921704113
 20
169.0553426994063
 30
0.0
 10
97.54461060295719
 20
168.8628002970715
 30
0.0
 10
97.14371576201371
 20
168.661217847746
 30
0.0
 10
96.77968956564322
 20
168.4398875607675
 30
0.0
 10
96.47242059666365
 20
168.213801600702
 30
0.0
 10
96.20832271987355
 20
167.9689429286383
 30
0.0
 10
96.00312878407377
 20
167.7212552006696
 30
0.0
 10
95.8476819837158
 20
167.457533169459
 30
0.0
 10
95.75781881046315
 20
167.1899467100467
 30
0.0
 10
95.71974382562695
 20
166.9145813735463
 30
0.0
 10
95.74969177744995
 20
166.7377184515709
 30
0.0
 10
95.76466574667865
 20
166.6492869906542
 30
0.0
 11
95.76466574667865
 21
166.6492869906542
 31
0.0
 11
95.85701820203765
 21
166.3764121730694
 31
0.0
 11
96.00003556679577
 21
166.1279735449656
 31
0.0
 11
96.21394890413956
 21
165.8661263035377
 31
0.0
 11
96.45988396350634
 21
165.6359594369604
 31
0.0
 11
96.78309854976081
 21
165.3951952740226
 31
0.0
 11
97.12647836409546
 21
165.1853179863628
 31
0.0
 11
97.54679891860258
 21
164.972006790783
 31
0.0
 11
97.98013212067953
 21
164.7873379655213
 31
0.0
 11
98.48368324716448
 21
164.6071868666643
 31
0.0
 11
98.99575669831505
 21
164.4534785628429
 31
0.0
 11
99.56664990725895
 21
164.3112548225345
 31
0.0
 11
100.1430480269373
 21
164.1937487620713
 31
0.0
 11
100.7636047572614
 21
164.0931429865038
 31
0.0
 11
101.3874718122068
 21
164.0160540205033
 31
0.0
 11
102.0386669344987
 21
163.9595316869697
 31
0.0
 11
102.6914201003183
 21
163.9258257243943
 31
0.0
 11
103.3534193263493
 21
163.9145323929713
 31
0.0
 11
104.0154185523803
 21
163.9258257243943
 31
0.0
 11
104.6681717181998
 21
163.9595316869697
 31
0.0
 11
105.3193668404916
 21
164.0160540205033
 31
0.0
 11
105.9432338954369
 21
164.0931429865038
 31
0.0
 11
106.5637906257612
 21
164.1937487620714
 31
0.0
 11
107.1401887454396
 21
164.3112548225345
 31
0.0
 11
107.7110819543835
 21
164.4534785628429
 31
0.0
 11
108.223155405534
 21
164.6071868666642
 31
0.0
 11
108.7267065320189
 21
164.7873379655211
 31
0.0
 11
109.1600397340959
 21
164.9720067907828
 31
0.0
 11
109.580360288603
 21
165.1853179863627
 31
0.0
 11
109.9237401029376
 21
165.3951952740226
 31
0.0
 11
110.2469546891921
 21
165.6359594369604
 31
0.0
 11
110.492889748559
 21
165.8661263035377
 31
0.0
 11
110.7068030859027
 21
166.1279735449656
 31
0.0
 11
110.8498204506608
 21
166.3764121730693
 31
0.0
 11
110.9421729060199
 21
166.6492869906542
 31
0.0
 11
110.97341932635
 21
166.9151220513525
 31
0.0
 11
110.9421729060199
 21
167.1809571120509
 31
0.0
 11
110.8498204506609
 21
167.4538319296358
 31
0.0
 11
110.7068030859027
 21
167.7022705577395
 31
0.0
 11
110.492889748559
 21
167.9641177991673
 31
0.0
 11
110.2469546891922
 21
168.1942846657445
 31
0.0
 11
109.9237401029376
 21
168.4350488286824
 31
0.0
 11
109.580360288603
 21
168.6449261163422
 31
0.0
 11
109.1600397340959
 21
168.8582373119221
 31
0.0
 11
108.7267065320189
 21
169.0429061371838
 31
0.0
 11
108.223155405534
 21
169.2230572360408
 31
0.0
 11
107.7110819543834
 21
169.3767655398621
 31
0.0
 11
107.1401887454394
 21
169.5189892801706
 31
0.0
 11
106.5637906257611
 21
169.6364953406337
 31
0.0
 11
105.943233895437
 21
169.7371011162011
 31
0.0
 11
105.3193668404916
 21
169.8141900822017
 31
0.0
 11
104.6681717181998
 21
169.8707124157352
 31
0.0
 11
104.0154185523803
 21
169.9044183783106
 31
0.0
 11
103.3534193263493
 21
169.9157117097336
 31
0.0
 11
102.6914201003183
 21
169.9044183783106
 31
0.0
 11
102.0386669344987
 21
169.8707124157352
 31
0.0
 11
101.3874718122068
 21
169.8141900822017
 31
0.0
 11
100.7636047572614
 21
169.7371011162012
 31
0.0
 11
100.1430480269373
 21
169.6364953406337
 31
0.0
 11
99.56664990725895
 21
169.5189892801706
 31
0.0
 11
98.99575669831505
 21
169.3767655398621
 31
0.0
 11
98.48368324716449
 21
169.2230572360408
 31
0.0
 11
97.98013212067958
 21
169.0429061371838
 31
0.0
 11
97.54679891860263
 21
168.8582373119221
 31
0.0
 11
97.12647836409542
 21
168.6449261163422
 31
0.0
 11
96.78309854976072
 21
168.4350488286824
 31
0.0
 11
96.45988396350627
 21
168.1942846657446
 31
0.0
 11
96.21394890413954
 21
167.9641177991673
 31
0.0
 11
96.00003556679577
 21
167.7022705577393
 31
0.0
 11
95.85701820203764
 21
167.4538319296356
 31
0.0
 11
95.76466574667865
 21
167.1809571120508
 31
0.0
 11
95.73341932634855
 21
166.9151220513525
 31
0.0
 11
95.76466574667865
 21
166.6492869906542
 31
0.0
  0
SPLINE
  5
199
330
60
100
AcDbEntity
  8
0
  6
Continuous
 62
     7
100
AcDbSpline
210
0.0
220
0.0
230
1.0
 70
     8
 71
     3
 72
    45
 73
    41
 74
    39
 42
0.000000001
 43
0.0000000001
 44
0.00000001
 40
0.0
 40
0.0
 40
0.0
 40
0.0
 40
0.1496759111573661
 40
0.3011042835006146
 40
0.6212686760131757
 40
0.9401911722348673
 40
1.309172157783727
 40
1.676945089661126
 40
2.110264699573998
 40
2.542950026973653
 40
3.044677579413449
 40
3.546065731447836
 40
4.111847668931672
 40
4.677445583570016
 40
5.297533362699505
 40
5.917518809634994
 40
6.578627120082736
 40
7.239680249901859
 40
7.926252532374897
 40
8.612800488592653
 40
9.307992794106504
 40
10.00318509962039
 40
10.68973305583826
 40
11.37630533831137
 40
12.03735846813051
 40
12.69846677857823
 40
13.31845222551366
 40
13.93854000464306
 40
14.50413791928134
 40
15.06991985676502
 40
15.57130800879939
 40
16.07303556123931
 40
16.5057208886391
 40
16.93904049855197
 40
17.30681343042932
 40
17.6757944159781
 40
17.99471691219973
 40
18.31488130471226
 40
18.46630967706469
 40
18.61598558823094
 40
18.61598558823094
 40
18.61598558823094
 40
18.61598558823094
 10
111.35341932635
 20
166.9151220513525
 30
0.0
 10
111.3518645141588
 20
166.8651955433613
 30
0.0
 10
111.3487366895124
 20
166.7647579692795
 30
0.0
 10
111.3134162301725
 20
166.5602314362734
 30
0.0
 10
111.2347245749789
 20
166.3069874681129
 30
0.0
 10
111.0725308725576
 20
166.0107173217706
 30
0.0
 10
110.8575074891023
 20
165.7306271644347
 30
0.0
 10
110.5805943699538
 20
165.4546869269648
 30
0.0
 10
110.2575755193865
 20
165.1988699430179
 30
0.0
 10
109.8754281504778
 20
164.9493262757095
 30
0.0
 10
109.4539389292558
 20
164.7215286345382
 30
0.0
 10
108.9777908408774
 20
164.5044679007954
 30
0.0
 10
108.4689754995203
 20
164.3103181451387
 30
0.0
 10
107.9129137238982
 20
164.1316499196552
 30
0.0
 10
107.331004580747
 20
163.9768809768659
 30
0.0
 10
106.7116744373116
 20
163.8416652420362
 30
0.0
 10
106.0735912990922
 20
163.7311727444907
 30
0.0
 10
105.4096416345655
 20
163.6432612602678
 30
0.0
 10
104.7343094901383
 20
163.5806695991389
 30
0.0
 10
104.0457730503663
 20
163.5425096710538
 30
0.0
 10
103.3534193263512
 20
163.5299830171579
 30
0.0
 10
102.6610656023362
 20
163.5425096710529
 30
0.0
 10
101.972529162564
 20
163.580669599137
 30
0.0
 10
101.2971970181366
 20
163.6432612602652
 30
0.0
 10
100.6332473536098
 20
163.7311727444873
 30
0.0
 10
99.99516421539026
 20
163.841665242032
 30
0.0
 10
99.37583407195481
 20
163.976880976861
 30
0.0
 10
98.7939249288035
 20
164.1316499196494
 30
0.0
 10
98.2378631531812
 20
164.3103181451323
 30
0.0
 10
97.72904781182405
 20
164.5044679007883
 30
0.0
 10
97.25289972344541
 20
164.7215286345307
 30
0.0
 10
96.83141050222305
 20
164.9493262757014
 30
0.0
 10
96.44926313331396
 20
165.1988699430094
 30
0.0
 10
96.12624428274636
 20
165.454686926956
 30
0.0
 10
95.84933116359755
 20
165.7306271644255
 30
0.0
 10
95.63430778014187
 20
166.010717321761
 30
0.0
 10
95.47211407772025
 20
166.3069874681031
 30
0.0
 10
95.39342242252542
 20
166.5602314362662
 30
0.0
 10
95.3581019631849
 20
166.7647579692785
 30
0.0
 10
95.35497413853938
 20
166.8651955433664
 30
0.0
 10
95.35341932634864
 20
166.9151220513606
 30
0.0
 11
111.35341932635
 21
166.9151220513525
 31
0.0
 11
111.3452978337293
 21
166.7656666317874
 31
0.0
 11
111.3209333558646
 21
166.6162112122223
 31
0.0
 11
111.2247606766161
 21
166.3108326716152
 31
0.0
 11
111.0742586204643
 21
166.0296553449204
 31
0.0
 11
110.8511669525258
 21
165.7357555749907
 31
0.0
 11
110.5918605268237
 21
165.4749546806077
 31
0.0
 11
110.2535957570463
 21
165.2041358679716
 31
0.0
 11
109.8918826827867
 21
164.9666906238657
 31
0.0
 11
109.4513460404719
 21
164.7265698146316
 31
0.0
 11
108.9954174248818
 21
164.5179573128763
 31
0.0
 11
108.4672613019415
 21
164.3150772748644
 31
0.0
 11
107.9289225559086
 21
164.1416056784005
 31
0.0
 11
107.3298884778469
 21
163.9813963586237
 31
0.0
 11
106.7242351461928
 21
163.8488595894753
 31
0.0
 11
106.0729165919976
 21
163.735509081171
 31
0.0
 11
105.4176024471436
 21
163.6485918189079
 31
0.0
 11
104.7339909820634
 21
163.5848983178782
 31
0.0
 11
104.0484950776413
 21
163.5469054333219
 31
0.0
 11
103.3534193263513
 21
163.5341759574144
 31
0.0
 11
102.6583435750611
 21
163.5469054333209
 31
0.0
 11
101.9728476706389
 21
163.5848983178765
 31
0.0
 11
101.2892362055586
 21
163.6485918189053
 31
0.0
 11
100.6339220607044
 21
163.7355090811676
 31
0.0
 11
99.98260350650915
 21
163.8488595894711
 31
0.0
 11
99.3769501748549
 21
163.9813963586187
 31
0.0
 11
98.77791609679304
 21
164.1416056783947
 31
0.0
 11
98.23957735075999
 21
164.3150772748579
 31
0.0
 11
97.71142122781964
 21
164.5179573128693
 31
0.0
 11
97.25549261222938
 21
164.726569814624
 31
0.0
 11
96.81495596991411
 21
164.9666906238576
 31
0.0
 11
96.45324289565416
 21
165.2041358679631
 31
0.0
 11
96.11497812587638
 21
165.4749546805988
 31
0.0
 11
95.85567170017403
 21
165.7357555749815
 31
0.0
 11
95.63258003223518
 21
166.0296553449109
 31
0.0
 11
95.482077976083
 21
166.3108326716054
 31
0.0
 11
95.3859052968342
 21
166.6162112122123
 31
0.0
 11
95.3615408189684
 21
166.7656666317865
 31
0.0
 11
95.35341932634864
 21
166.9151220513606
 31
0.0
  0
SPLINE
  5
19A
330
60
100
AcDbEntity
  8
0
  6
Continuous
 62
     7
100
AcDbSpline
210
0.0
220
0.0
230
1.0
 70
     8
 71
     3
 72
    45
 73
    41
 74
    39
 42
0.000000001
 43
0.0000000001
 44
0.00000001
 40
0.0
 40
0.0
 40
0.0
 40
0.0
 40
0.1496759111544334
 40
0.3011042834884619
 40
0.6212686760009756
 40
0.9401911722226209
 40
1.309172157771398
 40
1.676945089648715
 40
2.110264699561497
 40
2.542950026961223
 40
3.04467757940115
 40
3.546065731435621
 40
4.111847668919395
 40
4.677445583557655
 40
5.297533362687035
 40
5.917518809622503
 40
6.5786271200703
 40
7.239680249889421
 40
7.926252532362451
 40
8.61280048858024
 40
9.307992794094144
 40
10.00318509960809
 40
10.68973305582593
 40
11.37630533829902
 40
12.03735846811815
 40
12.6984667785659
 40
13.31845222550139
 40
13.9385400046309
 40
14.50413791926926
 40
15.06991985675294
 40
15.57130800878724
 40
16.07303556122712
 40
16.50572088862688
 40
16.93904049853978
 40
17.30681343041717
 40
17.67579441596598
 40
17.99471691218761
 40
18.31488130470012
 40
18.46630967702943
 40
18.6159855881884
 40
18.6159855881884
 40
18.6159855881884
 40
18.6159855881884
 10
111.3534193263498
 20
166.9151220513402
 30
0.0
 10
111.351864514158
 20
166.9650485593304
 30
0.0
 10
111.3487366895105
 20
167.0654861334081
 30
0.0
 10
111.3134162301713
 20
167.2700126664101
 30
0.0
 10
111.234724574978
 20
167.5232566345675
 30
0.0
 10
111.0725308725565
 20
167.8195267809095
 30
0.0
 10
110.8575074891008
 20
168.099616938245
 30
0.0
 10
110.5805943699521
 20
168.3755571757146
 30
0.0
 10
110.2575755193845
 20
168.6313741596612
 30
0.0
 10
109.8754281504754
 20
168.880917826969
 30
0.0
 10
109.4539389292531
 20
169.1087154681398
 30
0.0
 10
108.9777908408744
 20
169.3257762018822
 30
0.0
 10
108.4689754995171
 20
169.5199259575382
 30
0.0
 10
107.9129137238949
 20
169.6985941830212
 30
0.0
 10
107.3310045807435
 20
169.8533631258096
 30
0.0
 10
106.7116744373081
 20
169.9885788606386
 30
0.0
 10
106.0735912990885
 20
170.0990713581834
 30
0.0
 10
105.4096416345617
 20
170.1869828424055
 30
0.0
 10
104.7343094901344
 20
170.2495745035337
 30
0.0
 10
104.0457730503623
 20
170.2877344316177
 30
0.0
 10
103.3534193263472
 20
170.3002610855127
 30
0.0
 10
102.661065602332
 20
170.2877344316168
 30
0.0
 10
101.97252916256
 20
170.2495745035318
 30
0.0
 10
101.2971970181326
 20
170.1869828424028
 30
0.0
 10
100.633247353606
 20
170.0990713581798
 30
0.0
 10
99.99516421538655
 20
169.9885788606343
 30
0.0
 10
99.37583407195116
 20
169.8533631258046
 30
0.0
 10
98.7939249288
 20
169.6985941830154
 30
0.0
 10
98.23786315317781
 20
169.519925957532
 30
0.0
 10
97.72904781182089
 20
169.3257762018753
 30
0.0
 10
97.25289972344254
 20
169.1087154681323
 30
0.0
 10
96.83141050222054
 20
168.8809178269611
 30
0.0
 10
96.44926313331175
 20
168.6313741596527
 30
0.0
 10
96.12624428274438
 20
168.3755571757058
 30
0.0
 10
95.84933116359605
 20
168.0996169382357
 30
0.0
 10
95.63430778014056
 20
167.8195267808999
 30
0.0
 10
95.47211407771982
 20
167.5232566345576
 30
0.0
 10
95.39342242252621
 20
167.2700126664019
 30
0.0
 10
95.35810196318877
 20
167.0654861333996
 30
0.0
 10
95.35497413854141
 20
166.965048559322
 30
0.0
 10
95.35341932634967
 20
166.9151220513303
 30
0.0
 11
111.3534193263498
 21
166.9151220513402
 31
0.0
 11
111.3452978337277
 21
167.0645774709023
 31
0.0
 11
111.3209333558642
 21
167.2140328904583
 31
0.0
 11
111.2247606766153
 21
167.5194114310652
 31
0.0
 11
111.0742586204632
 21
167.8005887577597
 31
0.0
 11
110.8511669525244
 21
168.0944885276891
 31
0.0
 11
110.591860526822
 21
168.3552894220718
 31
0.0
 11
110.2535957570443
 21
168.6261082347074
 31
0.0
 11
109.8918826827844
 21
168.8635534788128
 31
0.0
 11
109.4513460404691
 21
169.1036742880465
 31
0.0
 11
108.9954174248788
 21
169.3122867898012
 31
0.0
 11
108.4672613019383
 21
169.5151668278125
 31
0.0
 11
107.9289225559053
 21
169.6886384242758
 31
0.0
 11
107.3298884778435
 21
169.8488477440518
 31
0.0
 11
106.7242351461892
 21
169.9813845131995
 31
0.0
 11
106.0729165919938
 21
170.0947350215031
 31
0.0
 11
105.4176024471397
 21
170.1816522837654
 31
0.0
 11
104.7339909820595
 21
170.2453457847942
 31
0.0
 11
104.0484950776373
 21
170.2833386693497
 31
0.0
 11
103.3534193263472
 21
170.2960681452562
 31
0.0
 11
102.658343575057
 21
170.2833386693488
 31
0.0
 11
101.9728476706348
 21
170.2453457847924
 31
0.0
 11
101.2892362055546
 21
170.1816522837627
 31
0.0
 11
100.6339220607006
 21
170.0947350214995
 31
0.0
 11
99.98260350650546
 21
169.9813845131952
 31
0.0
 11
99.3769501748513
 21
169.8488477440468
 31
0.0
 11
98.77791609678951
 21
169.6886384242701
 31
0.0
 11
98.23957735075658
 21
169.5151668278063
 31
0.0
 11
97.71142122781649
 21
169.3122867897943
 31
0.0
 11
97.25549261222653
 21
169.103674288039
 31
0.0
 11
96.81495596991161
 21
168.8635534788049
 31
0.0
 11
96.45324289565195
 21
168.626108234699
 31
0.0
 11
96.11497812587447
 21
168.3552894220629
 31
0.0
 11
95.85567170017246
 21
168.0944885276798
 31
0.0
 11
95.63258003223402
 21
167.8005887577501
 31
0.0
 11
95.48207797608221
 21
167.5194114310553
 31
0.0
 11
95.38590529683367
 21
167.2140328904484
 31
0.0
 11
95.36154081897172
 21
167.0645774708969
 31
0.0
 11
95.35341932634967
 21
166.9151220513303
 31
0.0
  0
ARC
  5
19B
330
60
100
AcDbEntity
  8
0
  6
PHANTOM
 62
     4
100
AcDbCircle
 10
234.0888463635306
 20
176.9151220513302
 30
0.0
 40
30.0
100
AcDbArc
 50
90.0
 51
155.0000000000002
  0
ENDBLK
  5
62
330
60
100
AcDbEntity
  8
0
100
AcDbBlockEnd
  0
BLOCK
  5
64
330
63
100
AcDbEntity
  8
0
100
AcDbBlockBegin
  2
32-1-16
 70
     0
 10
274.8695350084333
 20
-70.84930599341786
 30
0.0
  3
32-1-16
  1

  0
LINE
  5
19C
330
63
100
AcDbEntity
  8
1
  6
Continuous
 62
     7
100
AcDbLine
 10
239.3534193263498
 20
206.9151220513302
 30
0.0
 11
239.3534193263498
 21
215.7134440303998
 31
0.0
  0
LINE
  5
19D
330
63
100
AcDbEntity
  8
1
  6
Continuous
 62
     7
100
AcDbLine
 10
239.3534193263498
 20
198.1168000722605
 30
0.0
 11
239.3534193263498
 21
206.9151220513302
 31
0.0
  0
LINE
  5
19E
330
63
100
AcDbEntity
  8
1
  6
Continuous
 62
     7
100
AcDbLine
 10
248.3534193263498
 20
220.1021220513302
 30
0.0
 11
248.3534193263498
 21
219.9151220513302
 31
0.0
  0
LINE
  5
19F
330
63
100
AcDbEntity
  8
1
  6
Continuous
 62
     7
100
AcDbLine
 10
238.3534193263498
 20
199.0151220513302
 30
0.0
 11
238.3534193263498
 21
197.1471728588989
 31
0.0
  0
LINE
  5
1A0
330
63
100
AcDbEntity
  8
1
  6
Continuous
 62
     7
100
AcDbLine
 10
239.3534193263498
 20
195.3571009895996
 30
0.0
 11
239.3534193263498
 21
195.4151220513301
 31
0.0
  0
LINE
  5
1A1
330
63
100
AcDbEntity
  8
1
  6
Continuous
 62
     7
100
AcDbLine
 10
238.3534193263498
 20
216.6830712437614
 30
0.0
 11
238.3534193263498
 21
214.8151220513301
 31
0.0
  0
LINE
  5
1A2
330
63
100
AcDbEntity
  8
1
  6
Continuous
 62
     7
100
AcDbLine
 10
248.3534193263498
 20
220.2151220513303
 30
0.0
 11
248.3534193263498
 21
220.1021220513302
 31
0.0
  0
LINE
  5
1A3
330
63
100
AcDbEntity
  8
1
  6
Continuous
 62
     7
100
AcDbLine
 10
239.3534193263498
 20
218.4151220513301
 30
0.0
 11
239.3534193263498
 21
218.4731431130607
 31
0.0
  0
LINE
  5
1A4
330
63
100
AcDbEntity
  8
0
  6
Continuous
 62
     7
100
AcDbLine
 10
240.6402420766368
 20
220.9151220513302
 30
0.0
 11
247.7816705051796
 21
220.9151220513302
 31
0.0
  0
LINE
  5
1A5
330
63
100
AcDbEntity
  8
0
  6
Continuous
 62
     7
100
AcDbLine
 10
240.6402420766367
 20
192.9151220513302
 30
0.0
 11
247.7816705051799
 21
192.9151220513302
 31
0.0
  0
LINE
  5
1A6
330
63
100
AcDbEntity
  8
1
  6
Continuous
 62
     7
100
AcDbLine
 10
238.3534193263498
 20
214.8151220513301
 30
0.0
 11
238.3534193263498
 21
199.0151220513302
 31
0.0
  0
LINE
  5
1A7
330
63
100
AcDbEntity
  8
1
  6
Continuous
 62
     7
100
AcDbLine
 10
248.3534193263498
 20
219.9151220513302
 30
0.0
 11
248.3534193263498
 21
193.6151220513301
 31
0.0
  0
LINE
  5
1A8
330
63
100
AcDbEntity
  8
1
  6
Continuous
 62
     7
100
AcDbLine
 10
111.5534193263498
 20
372.988578856319
 30
0.0
 11
113.1213685187808
 21
372.988578856319
 31
0.0
  0
LINE
  5
1A9
330
63
100
AcDbEntity
  8
1
  6
Continuous
 62
     7
100
AcDbLine
 10
116.6534193263497
 20
382.988578856319
 30
0.0
 11
109.5650764088102
 21
382.988578856319
 31
0.0
  0
LINE
  5
1AA
330
63
100
AcDbEntity
  8
1
  6
Continuous
 62
     7
100
AcDbLine
 10
116.5404193263497
 20
382.988578856319
 30
0.0
 11
116.6534193263497
 21
382.988578856319
 31
0.0
  0
LINE
  5
1AB
330
63
100
AcDbEntity
  8
1
  6
Continuous
 62
     7
100
AcDbLine
 10
114.9114403880804
 20
373.988578856319
 30
0.0
 11
114.8534193263497
 21
373.988578856319
 31
0.0
  0
LINE
  5
1AC
330
63
100
AcDbEntity
  8
1
  6
Continuous
 62
     7
100
AcDbLine
 10
103.3534193263497
 20
372.988578856319
 30
0.0
 11
111.5534193263498
 21
372.988578856319
 31
0.0
  0
LINE
  5
1AD
330
63
100
AcDbEntity
  8
1
  6
Continuous
 62
     7
100
AcDbLine
 10
112.1517413054193
 20
373.988578856319
 30
0.0
 11
103.3534193263497
 21
373.988578856319
 31
0.0
  0
LINE
  5
1AE
330
63
100
AcDbEntity
  8
1
  6
Continuous
 62
     7
100
AcDbLine
 10
93.58547013391873
 20
372.988578856319
 30
0.0
 11
95.15341932634973
 21
372.988578856319
 31
0.0
  0
LINE
  5
1AF
330
63
100
AcDbEntity
  8
1
  6
Continuous
 62
     7
100
AcDbLine
 10
90.05341932634983
 20
382.988578856319
 30
0.0
 11
90.16641932634982
 21
382.988578856319
 31
0.0
  0
LINE
  5
1B0
330
63
100
AcDbEntity
  8
1
  6
Continuous
 62
     7
100
AcDbLine
 10
91.85341932634972
 20
373.988578856319
 30
0.0
 11
91.79539826461914
 21
373.988578856319
 31
0.0
  0
LINE
  5
1B1
330
63
100
AcDbEntity
  8
1
  6
Continuous
 62
     7
100
AcDbLine
 10
95.15341932634973
 20
372.988578856319
 30
0.0
 11
103.3534193263497
 21
372.988578856319
 31
0.0
  0
LINE
  5
1B2
330
63
100
AcDbEntity
  8
1
  6
Continuous
 62
     7
100
AcDbLine
 10
103.3534193263497
 20
373.988578856319
 30
0.0
 11
94.55509734728022
 21
373.988578856319
 31
0.0
  0
LINE
  5
1B3
330
63
100
AcDbEntity
  8
1
  6
Continuous
 62
     7
100
AcDbLine
 10
97.14176224388925
 20
382.988578856319
 30
0.0
 11
90.05341932634983
 21
382.988578856319
 31
0.0
  0
LINE
  5
1B4
330
63
100
AcDbEntity
  8
1
  6
Continuous
 62
     7
100
AcDbLine
 10
96.70135197852474
 20
220.9151220513302
 30
0.0
 11
110.0054866741747
 21
220.9151220513302
 31
0.0
  0
LINE
  5
1B5
330
63
100
AcDbEntity
  8
1
  6
Continuous
 62
     7
100
AcDbLine
 10
112.1517413054193
 20
219.6759813622317
 30
0.0
 11
118.8038086532444
 21
208.1542627404288
 31
0.0
  0
LINE
  5
1B6
330
63
100
AcDbEntity
  8
1
  6
Continuous
 62
     7
100
AcDbLine
 10
112.1517413054193
 20
194.1542627404288
 30
0.0
 11
118.8038086532444
 21
205.6759813622317
 31
0.0
  0
LINE
  5
1B7
330
63
100
AcDbEntity
  8
1
  6
Continuous
 62
     7
100
AcDbLine
 10
87.90302999945504
 20
205.6759813622317
 30
0.0
 11
94.55509734728014
 21
194.1542627404288
 31
0.0
  0
LINE
  5
1B8
330
63
100
AcDbEntity
  8
1
  6
Continuous
 62
     7
100
AcDbLine
 10
94.55509734728014
 20
219.6759813622317
 30
0.0
 11
87.90302999945504
 21
208.1542627404288
 31
0.0
  0
ARC
  5
1B9
330
63
100
AcDbEntity
  8
1
  6
Continuous
 62
     7
100
AcDbCircle
 10
103.3534193263497
 20
206.9151220513302
 30
0.0
 40
15.49999999999991
100
AcDbArc
 50
235.414620915161
 51
238.9270490278465
  0
ARC
  5
1BA
330
63
100
AcDbEntity
  8
1
  6
Continuous
 62
     7
100
AcDbCircle
 10
103.3534193263497
 20
206.9151220513302
 30
0.0
 40
10.5
100
AcDbArc
 50
0.0
 51
220.3675935441849
  0
ARC
  5
1BB
330
63
100
AcDbEntity
  8
1
  6
Continuous
 62
     7
100
AcDbCircle
 10
103.3534193263497
 20
206.9151220513302
 30
0.0
 40
8.200000000000003
100
AcDbArc
 50
0.0
 51
189.5961468008252
  0
ARC
  5
1BC
330
63
100
AcDbEntity
  8
1
  6
Continuous
 62
     7
100
AcDbCircle
 10
244.2109562909089
 20
196.4151220513301
 30
0.0
 40
4.999999999999612
100
AcDbArc
 50
315.5729959991917
 51
325.9442022574278
  0
ARC
  5
1BD
330
63
100
AcDbEntity
  8
1
  6
Continuous
 62
     7
100
AcDbCircle
 10
244.2109562909089
 20
217.4151220513302
 30
0.0
 40
5.000000000000483
100
AcDbArc
 50
135.5729959991997
 51
164.6624423304452
  0
ARC
  5
1BE
330
63
100
AcDbEntity
  8
1
  6
Continuous
 62
     7
100
AcDbCircle
 10
244.2109562909089
 20
217.4151220513302
 30
0.0
 40
4.999999999999476
100
AcDbArc
 50
34.0557977425733
 51
44.42700400081168
  0
ARC
  5
1BF
330
63
100
AcDbEntity
  8
1
  6
Continuous
 62
     7
100
AcDbCircle
 10
244.2109562909089
 20
196.4151220513301
 30
0.0
 40
5.000000000000752
100
AcDbArc
 50
195.3375576695517
 51
224.4270040007985
  0
ARC
  5
1C0
330
63
100
AcDbEntity
  8
1
  6
Continuous
 62
     7
100
AcDbCircle
 10
113.8534193263497
 20
378.8461158208773
 30
0.0
 40
5.000000000000014
100
AcDbArc
 50
285.3375576695554
 51
55.94420225743279
  0
ARC
  5
1C1
330
63
100
AcDbEntity
  8
1
  6
Continuous
 62
     7
100
AcDbCircle
 10
92.85341932634972
 20
378.8461158208773
 30
0.0
 40
5.000000000000047
100
AcDbArc
 50
124.0557977425661
 51
254.6624423304449
  0
ARC
  5
1C2
330
63
100
AcDbEntity
  8
1
  6
Continuous
 62
     7
100
AcDbCircle
 10
103.3534193263497
 20
206.9151220513302
 30
0.0
 40
10.50000000000005
100
AcDbArc
 50
319.6324064558142
 51
0.0
  0
ARC
  5
1C3
330
63
100
AcDbEntity
  8
1
  6
Continuous
 62
     7
100
AcDbCircle
 10
103.3534193263497
 20
206.9151220513302
 30
0.0
 40
8.20000000000002
100
AcDbArc
 50
347.3196165081795
 51
0.0
  0
ARC
  5
1C4
330
63
100
AcDbEntity
  8
1
  6
Continuous
 62
     7
100
AcDbCircle
 10
103.3534193263497
 20
206.9151220513302
 30
0.0
 40
15.50000000000004
100
AcDbArc
 50
55.41462091516112
 51
64.5853790848391
  0
ARC
  5
1C5
330
63
100
AcDbEntity
  8
1
  6
Continuous
 62
     7
100
AcDbCircle
 10
103.3534193263497
 20
206.9151220513302
 30
0.0
 40
15.5
100
AcDbArc
 50
0.0
 51
4.58537908483923
  0
ARC
  5
1C6
330
63
100
AcDbEntity
  8
1
  6
Continuous
 62
     7
100
AcDbCircle
 10
103.3534193263497
 20
206.9151220513302
 30
0.0
 40
15.49999999999995
100
AcDbArc
 50
301.0729509721534
 51
304.5853790848391
  0
ARC
  5
1C7
330
63
100
AcDbEntity
  8
1
  6
Continuous
 62
     7
100
AcDbCircle
 10
103.3534193263497
 20
206.9151220513302
 30
0.0
 40
15.49999999999997
100
AcDbArc
 50
180.0
 51
184.5853790848388
  0
ARC
  5
1C8
330
63
100
AcDbEntity
  8
1
  6
Continuous
 62
     7
100
AcDbCircle
 10
103.3534193263497
 20
206.9151220513302
 30
0.0
 40
15.49999999999996
100
AcDbArc
 50
115.4146209151607
 51
124.5853790848387
  0
ARC
  5
1C9
330
63
100
AcDbEntity
  8
1
  6
Continuous
 62
     7
100
AcDbCircle
 10
103.3534193263497
 20
206.9151220513302
 30
0.0
 40
15.5
100
AcDbArc
 50
175.4146209151608
 51
180.0
  0
ARC
  5
1CA
330
63
100
AcDbEntity
  8
1
  6
Continuous
 62
     7
100
AcDbCircle
 10
103.3534193263497
 20
206.9151220513302
 30
0.0
 40
15.50000000000004
100
AcDbArc
 50
355.4146209151612
 51
0.0
  0
SPLINE
  5
1CB
330
63
100
AcDbEntity
  8
1
  6
Continuous
 62
     7
100
AcDbSpline
210
0.0
220
0.0
230
1.0
 70
    11
 71
     3
 72
    79
 73
    75
 74
    73
 42
0.000000001
 43
0.0000000001
 44
0.00000001
 40
0.0
 40
0.0
 40
0.0
 40
0.0
 40
0.2903672471831723
 40
0.5807357518971574
 40
0.8724070977358462
 40
1.164081911023934
 40
1.458189924522288
 40
1.752302920472865
 40
2.049663201046421
 40
2.347029106415294
 40
2.648045786115961
 40
2.949067936325409
 40
3.253697746552377
 40
3.558332275329984
 40
3.866104857780088
 40
4.173881019540122
 40
4.483966061108348
 40
4.794053321447617
 40
5.105362217358584
 40
5.416671863434677
 40
5.727981509499969
 40
6.039290405378608
 40
6.349377665663661
 40
6.659462707155461
 40
6.967238868816719
 40
7.275011451144644
 40
7.579645979777318
 40
7.884275789834294
 40
8.185297939849576
 40
8.486314619328517
 40
8.78368052444888
 40
9.081040804740868
 40
9.375153800374186
 40
9.669261813502406
 40
9.96093662633733
 40
10.25260797152409
 40
10.54297647485878
 40
10.83334373090428
 40
11.12371098694981
 40
11.41407949028456
 40
11.70575083547132
 40
11.99742564830621
 40
12.29153366143431
 40
12.58564665706749
 40
12.88300693735963
 40
13.18037284247999
 40
13.48138952195887
 40
13.78241167197408
 40
14.08704148203106
 40
14.39167601066377
 40
14.69944859299166
 40
15.00722475465296
 40
15.3173097961448
 40
15.62739705642979
 40
15.93870595230837
 40
16.25001559837372
 40
16.56132524444981
 40
16.87263414036078
 40
17.18272140069999
 40
17.49280644226825
 40
17.80058260402828
 40
18.10835518647839
 40
18.41298971525597
 40
18.71761952548301
 40
19.01864167569242
 40
19.31965835539299
 40
19.61702426076193
 40
19.91438454133549
 40
20.20849753728602
 40
20.50260555078427
 40
20.79428036407234
 40
21.08595170991103
 40
21.37632021462505
 40
21.66668746180827
 40
21.66668746180827
 40
21.66668746180827
 40
21.66668746180827
 10
91.22906367336765
 20
375.275401606606
 30
0.0
 10
91.13223986665797
 20
375.2780332039267
 30
0.0
 10
90.9385918337423
 20
375.2832964047451
 30
0.0
 10
90.6502309574355
 20
375.3255914769271
 30
0.0
 10
90.3665188134563
 20
375.3928023694205
 30
0.0
 10
90.08909375067054
 20
375.4868575346898
 30
0.0
 10
89.82077283928946
 20
375.6062889923733
 30
0.0
 10
89.5627730759185
 20
375.7505644878596
 30
0.0
 10
89.31797107266225
 20
375.9181685630625
 30
0.0
 10
89.0872748475999
 20
376.1083311172223
 30
0.0
 10
88.8733791403233
 20
376.3189538375341
 30
0.0
 10
88.67700559774372
 20
376.5491754533658
 30
0.0
 10
88.50045625258025
 20
376.7964118767636
 30
0.0
 10
88.34435345590995
 20
377.0596460510105
 30
0.0
 10
88.21046444130057
 20
377.3360096055923
 30
0.0
 10
88.09933642429746
 20
377.6242230494537
 30
0.0
 10
88.01214566431537
 20
377.9213614926065
 30
0.0
 10
87.94932005767512
 20
378.2257846466384
 30
0.0
 10
87.91147150772002
 20
378.5347212589305
 30
0.0
 10
87.89880924558167
 20
378.8461158115051
 30
0.0
 10
87.91147150735847
 20
379.1575103640818
 30
0.0
 10
87.94932005695122
 20
379.4664469763906
 30
0.0
 10
88.01214566322716
 20
379.770870130425
 30
0.0
 10
88.09933642284264
 20
380.0680085736683
 30
0.0
 10
88.21046443947527
 20
380.3562220173342
 30
0.0
 10
88.34435345371024
 20
380.6325855728226
 30
0.0
 10
88.50045625000025
 20
380.8958197439443
 30
0.0
 10
88.67700559477743
 20
381.1430561792085
 30
0.0
 10
88.87337913696247
 20
381.3732777515848
 30
0.0
 10
89.08727484383529
 20
381.5839006334016
 30
0.0
 10
89.31797106848057
 20
381.7740625922787
 30
0.0
 10
89.5627730713027
 20
381.941668875872
 30
0.0
 10
89.82077283421086
 20
382.0859362163335
 30
0.0
 10
90.0890937450834
 20
382.2053979556722
 30
0.0
 10
90.36651880723862
 20
382.299341002726
 30
0.0
 10
90.65023095027914
 20
382.3669689751631
 30
0.0
 10
90.93859182846079
 20
382.4077141000059
 30
0.0
 10
91.22906367336765
 20
382.4213879779309
 30
0.0
 10
91.51953551827458
 20
382.4077141000059
 30
0.0
 10
91.80789639645621
 20
382.366968975163
 30
0.0
 10
92.09160853949675
 20
382.2993410027261
 30
0.0
 10
92.36903360165194
 20
382.2053979556721
 30
0.0
 10
92.6373545125243
 20
382.0859362163334
 30
0.0
 10
92.89535427543247
 20
381.941668875872
 30
0.0
 10
93.14015627825452
 20
381.7740625922784
 30
0.0
 10
93.3708525029
 20
381.5839006334018
 30
0.0
 10
93.5847482097727
 20
381.3732777515849
 30
0.0
 10
93.78112175195764
 20
381.1430561792083
 30
0.0
 10
93.95767109673483
 20
380.8958197439445
 30
0.0
 10
94.11377389302487
 20
380.6325855728225
 30
0.0
 10
94.24766290725992
 20
380.3562220173345
 30
0.0
 10
94.35879092389254
 20
380.0680085736682
 30
0.0
 10
94.44598168350791
 20
379.770870130425
 30
0.0
 10
94.50880728978387
 20
379.4664469763906
 30
0.0
 10
94.5466558393766
 20
379.1575103640819
 30
0.0
 10
94.55931810115338
 20
378.846115811505
 30
0.0
 10
94.54665583901502
 20
378.5347212589306
 30
0.0
 10
94.50880728905997
 20
378.2257846466383
 30
0.0
 10
94.44598168241971
 20
377.9213614926068
 30
0.0
 10
94.35879092243768
 20
377.6242230494536
 30
0.0
 10
94.24766290543462
 20
377.3360096055924
 30
0.0
 10
94.11377389082521
 20
377.0596460510105
 30
0.0
 10
93.9576710941548
 20
376.7964118767637
 30
0.0
 10
93.78112174899137
 20
376.5491754533659
 30
0.0
 10
93.58474820641194
 20
376.318953837534
 30
0.0
 10
93.37085249913531
 20
376.1083311172223
 30
0.0
 10
93.14015627407306
 20
375.9181685630625
 30
0.0
 10
92.89535427081663
 20
375.7505644878595
 30
0.0
 10
92.63735450744585
 20
375.6062889923733
 30
0.0
 10
92.36903359606477
 20
375.4868575346896
 30
0.0
 10
92.09160853327907
 20
375.3928023694206
 30
0.0
 10
91.8078963892999
 20
375.325591476927
 30
0.0
 10
91.51953551299303
 20
375.283296404745
 30
0.0
 10
91.32588748007733
 20
375.2780332039267
 30
0.0
 10
91.22906367336765
 20
375.275401606606
 30
0.0
 11
91.22906367336765
 21
375.275401606606
 31
0.0
 11
90.93901591156963
 21
375.2890192194585
 31
0.0
 11
90.65150398703395
 21
375.329648778872
 31
0.0
 11
90.36776667716536
 21
375.3972158767106
 31
0.0
 11
90.09149315951012
 21
375.4907420227912
 31
0.0
 11
89.82277609741134
 21
375.610285588229
 31
0.0
 11
89.56604683641135
 21
375.7537866016642
 31
0.0
 11
89.32062954662922
 21
375.921695774371
 31
0.0
 11
89.09113043837652
 21
376.1107900390688
 31
0.0
 11
88.87657587933961
 21
376.3219236048985
 31
0.0
 11
88.68117405984023
 21
376.5509049662122
 31
0.0
 11
88.5040706547
 21
376.7987632022096
 31
0.0
 11
88.34863401791682
 21
377.0607587137417
 31
0.0
 11
88.21438078929371
 21
377.3377064220086
 31
0.0
 11
88.10361437350653
 21
377.6248596335373
 31
0.0
 11
88.01625661803354
 21
377.9223850199845
 31
0.0
 11
87.95355992451883
 21
378.2260678045998
 31
0.0
 11
87.91567750454969
 21
378.5350631944722
 31
0.0
 11
87.90302999945504
 21
378.8461158208773
 31
0.0
 11
87.91567750454969
 21
379.1571684472825
 31
0.0
 11
87.95355992451883
 21
379.466163837155
 31
0.0
 11
88.01625661803352
 21
379.7698466217703
 31
0.0
 11
88.10361437350653
 21
380.0673720082176
 31
0.0
 11
88.21438078929373
 21
380.3545252197462
 31
0.0
 11
88.34863401791682
 21
380.6314729280131
 31
0.0
 11
88.5040706547
 21
380.8934684395452
 31
0.0
 11
88.68117405984023
 21
381.1413266755427
 31
0.0
 11
88.87657587933961
 21
381.3703080368563
 31
0.0
 11
89.09113043837652
 21
381.581441602686
 31
0.0
 11
89.32062954662919
 21
381.7705358673838
 31
0.0
 11
89.56604683641123
 21
381.9384450400905
 31
0.0
 11
89.82277609741126
 21
382.0819460535258
 31
0.0
 11
90.09149315951012
 21
382.2014896189636
 31
0.0
 11
90.36776667716535
 21
382.2950157650442
 31
0.0
 11
90.65150398703395
 21
382.3625828628827
 31
0.0
 11
90.93901591156961
 21
382.4032124222963
 31
0.0
 11
91.22906367336765
 21
382.4168300351489
 31
0.0
 11
91.51911143516571
 21
382.4032124222963
 31
0.0
 11
91.80662335970143
 21
382.3625828628827
 31
0.0
 11
92.09036066957002
 21
382.2950157650442
 31
0.0
 11
92.36663418722523
 21
382.2014896189636
 31
0.0
 11
92.63535124932393
 21
382.0819460535257
 31
0.0
 11
92.89208051032384
 21
381.9384450400905
 31
0.0
 11
93.13749780010599
 21
381.7705358673837
 31
0.0
 11
93.36699690835874
 21
381.581441602686
 31
0.0
 11
93.58155146739557
 21
381.3703080368563
 31
0.0
 11
93.77695328689484
 21
381.1413266755427
 31
0.0
 11
93.95405669203508
 21
380.8934684395452
 31
0.0
 11
94.10949332881833
 21
380.6314729280131
 31
0.0
 11
94.24374655744145
 21
380.3545252197462
 31
0.0
 11
94.35451297322862
 21
380.0673720082176
 31
0.0
 11
94.44187072870159
 21
379.7698466217702
 31
0.0
 11
94.50456742221624
 21
379.466163837155
 31
0.0
 11
94.54244984218538
 21
379.1571684472825
 31
0.0
 11
94.55509734728003
 21
378.8461158208773
 31
0.0
 11
94.54244984218538
 21
378.5350631944722
 31
0.0
 11
94.50456742221624
 21
378.2260678045998
 31
0.0
 11
94.44187072870156
 21
377.9223850199846
 31
0.0
 11
94.35451297322862
 21
377.6248596335373
 31
0.0
 11
94.24374655744145
 21
377.3377064220086
 31
0.0
 11
94.10949332881833
 21
377.0607587137417
 31
0.0
 11
93.9540566920351
 21
376.7987632022097
 31
0.0
 11
93.77695328689484
 21
376.5509049662122
 31
0.0
 11
93.58155146739557
 21
376.3219236048985
 31
0.0
 11
93.36699690835874
 21
376.1107900390688
 31
0.0
 11
93.137497800106
 21
375.9216957743709
 31
0.0
 11
92.89208051032384
 21
375.7537866016642
 31
0.0
 11
92.63535124932393
 21
375.610285588229
 31
0.0
 11
92.36663418722523
 21
375.4907420227912
 31
0.0
 11
92.09036066957002
 21
375.3972158767106
 31
0.0
 11
91.80662335970143
 21
375.329648778872
 31
0.0
 11
91.51911143516571
 21
375.2890192194585
 31
0.0
 11
91.22906367336765
 21
375.275401606606
 31
0.0
  0
SPLINE
  5
1CC
330
63
100
AcDbEntity
  8
1
  6
Continuous
 62
     7
100
AcDbSpline
210
0.0
220
0.0
230
1.0
 70
    11
 71
     3
 72
    79
 73
    75
 74
    73
 42
0.000000001
 43
0.0000000001
 44
0.00000001
 40
0.0
 40
0.0
 40
0.0
 40
0.0
 40
0.290367247183229
 40
0.5807357518972565
 40
0.8724070977359453
 40
1.164081911024006
 40
1.458189924522243
 40
1.752302920472783
 40
2.049663201046483
 40
2.347029106415524
 40
2.648045786116069
 40
2.949067936325369
 40
3.253697746552375
 40
3.558332275329933
 40
3.866104857780087
 40
4.173881019540157
 40
4.483966061108395
 40
4.794053321447655
 40
5.105362217358618
 40
5.416671863434709
 40
5.727981509500001
 40
6.039290405378631
 40
6.349377665663678
 40
6.659462707155487
 40
6.96723886881678
 40
7.275011451144755
 40
7.579645979777436
 40
7.884275789834395
 40
8.185297939849574
 40
8.486314619328354
 40
8.783680524448858
 40
9.081040804741022
 40
9.375153800374278
 40
9.669261813502393
 40
9.960936626337292
 40
10.25260797152405
 40
10.5429764748588
 40
10.83334373090434
 40
11.12371098694979
 40
11.41407949028453
 40
11.70575083547131
 40
11.99742564830619
 40
12.29153366143428
 40
12.58564665706746
 40
12.88300693735958
 40
13.18037284248004
 40
13.48138952195885
 40
13.78241167197407
 40
14.08704148203105
 40
14.39167601066377
 40
14.69944859299169
 40
15.007224754653
 40
15.31730979614482
 40
15.62739705642982
 40
15.93870595230841
 40
16.25001559837376
 40
16.56132524444986
 40
16.87263414036083
 40
17.1827214007001
 40
17.4928064422683
 40
17.80058260402834
 40
18.10835518647848
 40
18.41298971525603
 40
18.71761952548299
 40
19.01864167569245
 40
19.31965835539305
 40
19.61702426076204
 40
19.91438454133562
 40
20.20849753728614
 40
20.5026055507844
 40
20.79428036407245
 40
21.08595170991115
 40
21.37632021462512
 40
21.66668746180831
 40
21.66668746180831
 40
21.66668746180831
 40
21.66668746180831
 10
115.4777749793318
 20
375.275401606606
 30
0.0
 10
115.5745987860415
 20
375.2780332039266
 30
0.0
 10
115.7682468189572
 20
375.2832964047451
 30
0.0
 10
116.0566076952641
 20
375.325591476927
 30
0.0
 10
116.3403198392432
 20
375.3928023694205
 30
0.0
 10
116.617744902029
 20
375.4868575346897
 30
0.0
 10
116.8860658134099
 20
375.6062889923733
 30
0.0
 10
117.1440655767808
 20
375.7505644878596
 30
0.0
 10
117.3888675800374
 20
375.9181685630624
 30
0.0
 10
117.6195638050998
 20
376.1083311172223
 30
0.0
 10
117.8334595123763
 20
376.318953837534
 30
0.0
 10
118.0298330549556
 20
376.5491754533658
 30
0.0
 10
118.206382400119
 20
376.7964118767638
 30
0.0
 10
118.3624851967893
 20
377.0596460510105
 30
0.0
 10
118.4963742113989
 20
377.3360096055923
 30
0.0
 10
118.6075022284021
 20
377.6242230494537
 30
0.0
 10
118.6946929883842
 20
377.9213614926066
 30
0.0
 10
118.7575185950244
 20
378.2257846466383
 30
0.0
 10
118.7953671449795
 20
378.5347212589305
 30
0.0
 10
118.8080294071177
 20
378.8461158115051
 30
0.0
 10
118.795367145341
 20
379.1575103640818
 30
0.0
 10
118.7575185957483
 20
379.4664469763905
 30
0.0
 10
118.6946929894724
 20
379.770870130425
 30
0.0
 10
118.6075022298569
 20
380.0680085736682
 30
0.0
 10
118.4963742132241
 20
380.3562220173344
 30
0.0
 10
118.362485198989
 20
380.6325855728225
 30
0.0
 10
118.206382402699
 20
380.8958197439443
 30
0.0
 10
118.0298330579219
 20
381.1430561792083
 30
0.0
 10
117.8334595157371
 20
381.3732777515849
 30
0.0
 10
117.6195638088644
 20
381.5839006334018
 30
0.0
 10
117.3888675842189
 20
381.7740625922785
 30
0.0
 10
117.1440655813967
 20
381.941668875872
 30
0.0
 10
116.8860658184885
 20
382.0859362163335
 30
0.0
 10
116.6177449076161
 20
382.2053979556721
 30
0.0
 10
116.3403198454609
 20
382.299341002726
 30
0.0
 10
116.0566077024204
 20
382.3669689751632
 30
0.0
 10
115.7682468242387
 20
382.4077141000059
 30
0.0
 10
115.4777749793319
 20
382.4213879779309
 30
0.0
 10
115.1873031344249
 20
382.4077141000058
 30
0.0
 10
114.8989422562433
 20
382.3669689751632
 30
0.0
 10
114.6152301132028
 20
382.299341002726
 30
0.0
 10
114.3378050510475
 20
382.2053979556721
 30
0.0
 10
114.0694841401752
 20
382.0859362163334
 30
0.0
 10
113.8114843772671
 20
381.941668875872
 30
0.0
 10
113.5666823744449
 20
381.7740625922787
 30
0.0
 10
113.3359861497995
 20
381.5839006334018
 30
0.0
 10
113.1220904429268
 20
381.3732777515849
 30
0.0
 10
112.9257169007419
 20
381.1430561792085
 30
0.0
 10
112.7491675559647
 20
380.8958197439442
 30
0.0
 10
112.5930647596746
 20
380.6325855728226
 30
0.0
 10
112.4591757454396
 20
380.3562220173344
 30
0.0
 10
112.3480477288069
 20
380.0680085736683
 30
0.0
 10
112.2608569691916
 20
379.770870130425
 30
0.0
 10
112.1980313629156
 20
379.4664469763905
 30
0.0
 10
112.1601828133227
 20
379.1575103640819
 30
0.0
 10
112.147520551546
 20
378.8461158115051
 30
0.0
 10
112.1601828136843
 20
378.5347212589305
 30
0.0
 10
112.1980313636395
 20
378.2257846466382
 30
0.0
 10
112.2608569702798
 20
377.9213614926067
 30
0.0
 10
112.3480477302618
 20
377.6242230494538
 30
0.0
 10
112.4591757472648
 20
377.336009605592
 30
0.0
 10
112.5930647618743
 20
377.0596460510105
 30
0.0
 10
112.7491675585446
 20
376.7964118767638
 30
0.0
 10
112.925716903708
 20
376.5491754533658
 30
0.0
 10
113.1220904462874
 20
376.3189538375341
 30
0.0
 10
113.3359861535642
 20
376.1083311172223
 30
0.0
 10
113.5666823786265
 20
375.9181685630623
 30
0.0
 10
113.8114843818828
 20
375.7505644878597
 30
0.0
 10
114.0694841452537
 20
375.6062889923732
 30
0.0
 10
114.3378050566347
 20
375.4868575346898
 30
0.0
 10
114.6152301194205
 20
375.3928023694205
 30
0.0
 10
114.8989422633996
 20
375.325591476927
 30
0.0
 10
115.1873031397064
 20
375.2832964047452
 30
0.0
 10
115.3809511726221
 20
375.2780332039267
 30
0.0
 10
115.4777749793318
 20
375.275401606606
 30
0.0
 11
115.4777749793318
 21
375.275401606606
 31
0.0
 11
115.7678227411299
 21
375.2890192194585
 31
0.0
 11
116.0553346656656
 21
375.329648778872
 31
0.0
 11
116.3390719755342
 21
375.3972158767106
 31
0.0
 11
116.6153454931894
 21
375.4907420227912
 31
0.0
 11
116.8840625552881
 21
375.610285588229
 31
0.0
 11
117.140791816288
 21
375.7537866016642
 31
0.0
 11
117.3862091060703
 21
375.9216957743709
 31
0.0
 11
117.6157082143232
 21
376.1107900390688
 31
0.0
 11
117.8302627733599
 21
376.3219236048985
 31
0.0
 11
118.0256645928591
 21
376.5509049662122
 31
0.0
 11
118.2027679979993
 21
376.7987632022097
 31
0.0
 11
118.3582046347825
 21
377.0607587137417
 31
0.0
 11
118.4924578634057
 21
377.3377064220086
 31
0.0
 11
118.603224279193
 21
377.6248596335373
 31
0.0
 11
118.690582034666
 21
377.9223850199845
 31
0.0
 11
118.7532787281807
 21
378.2260678045998
 31
0.0
 11
118.7911611481498
 21
378.5350631944722
 31
0.0
 11
118.8038086532444
 21
378.8461158208773
 31
0.0
 11
118.7911611481498
 21
379.1571684472825
 31
0.0
 11
118.7532787281807
 21
379.466163837155
 31
0.0
 11
118.690582034666
 21
379.7698466217703
 31
0.0
 11
118.603224279193
 21
380.0673720082176
 31
0.0
 11
118.4924578634057
 21
380.3545252197462
 31
0.0
 11
118.3582046347825
 21
380.6314729280131
 31
0.0
 11
118.2027679979993
 21
380.8934684395452
 31
0.0
 11
118.0256645928591
 21
381.1413266755427
 31
0.0
 11
117.8302627733599
 21
381.3703080368564
 31
0.0
 11
117.6157082143232
 21
381.581441602686
 31
0.0
 11
117.3862091060704
 21
381.7705358673838
 31
0.0
 11
117.1407918162881
 21
381.9384450400905
 31
0.0
 11
116.8840625552881
 21
382.0819460535258
 31
0.0
 11
116.6153454931894
 21
382.2014896189636
 31
0.0
 11
116.3390719755342
 21
382.2950157650442
 31
0.0
 11
116.0553346656656
 21
382.3625828628827
 31
0.0
 11
115.7678227411299
 21
382.4032124222963
 31
0.0
 11
115.4777749793318
 21
382.4168300351489
 31
0.0
 11
115.1877272175338
 21
382.4032124222963
 31
0.0
 11
114.9002152929981
 21
382.3625828628827
 31
0.0
 11
114.6164779831295
 21
382.2950157650442
 31
0.0
 11
114.3402044654743
 21
382.2014896189636
 31
0.0
 11
114.0714874033756
 21
382.0819460535257
 31
0.0
 11
113.8147581423757
 21
381.9384450400905
 31
0.0
 11
113.5693408525935
 21
381.7705358673838
 31
0.0
 11
113.3398417443407
 21
381.581441602686
 31
0.0
 11
113.1252871853039
 21
381.3703080368564
 31
0.0
 11
112.9298853658047
 21
381.1413266755427
 31
0.0
 11
112.7527819606645
 21
380.8934684395452
 31
0.0
 11
112.5973453238812
 21
380.6314729280131
 31
0.0
 11
112.463092095258
 21
380.3545252197462
 31
0.0
 11
112.3523256794708
 21
380.0673720082176
 31
0.0
 11
112.2649679239979
 21
379.7698466217702
 31
0.0
 11
112.2022712304832
 21
379.466163837155
 31
0.0
 11
112.164388810514
 21
379.1571684472825
 31
0.0
 11
112.1517413054193
 21
378.8461158208773
 31
0.0
 11
112.164388810514
 21
378.5350631944722
 31
0.0
 11
112.2022712304832
 21
378.2260678045998
 31
0.0
 11
112.2649679239979
 21
377.9223850199845
 31
0.0
 11
112.3523256794708
 21
377.6248596335373
 31
0.0
 11
112.463092095258
 21
377.3377064220086
 31
0.0
 11
112.5973453238812
 21
377.0607587137417
 31
0.0
 11
112.7527819606644
 21
376.7987632022097
 31
0.0
 11
112.9298853658045
 21
376.5509049662122
 31
0.0
 11
113.1252871853038
 21
376.3219236048985
 31
0.0
 11
113.3398417443407
 21
376.1107900390688
 31
0.0
 11
113.5693408525935
 21
375.9216957743709
 31
0.0
 11
113.8147581423757
 21
375.7537866016642
 31
0.0
 11
114.0714874033756
 21
375.610285588229
 31
0.0
 11
114.3402044654743
 21
375.4907420227912
 31
0.0
 11
114.6164779831295
 21
375.3972158767106
 31
0.0
 11
114.9002152929981
 21
375.329648778872
 31
0.0
 11
115.1877272175338
 21
375.2890192194585
 31
0.0
 11
115.4777749793318
 21
375.275401606606
 31
0.0
  0
SPLINE
  5
1CD
330
63
100
AcDbEntity
  8
1
  6
Continuous
 62
     7
100
AcDbSpline
210
0.0
220
0.0
230
1.0
 70
    11
 71
     3
 72
    79
 73
    75
 74
    73
 42
0.000000001
 43
0.0000000001
 44
0.00000001
 40
0.0
 40
0.0
 40
0.0
 40
0.0
 40
0.3102615582252899
 40
0.6205595420823558
 40
0.9422162975294748
 40
1.263944872754711
 40
1.606039020845932
 40
1.948193468908041
 40
2.31605188519155
 40
2.683951048240952
 40
3.079084664081585
 40
3.474244780175213
 40
3.894897959208522
 40
4.315568207494612
 40
4.757452126737348
 40
5.199346674243002
 40
5.656354161988162
 40
6.113367478659001
 40
6.578223037734372
 40
7.043080455844249
 40
7.507937873951279
 40
7.972793433019304
 40
8.429806749678221
 40
8.886814237404291
 40
9.328708784881437
 40
9.770592704082901
 40
10.1912629523137
 40
10.61191613126984
 40
11.00707624726393
 40
11.40220986296968
 40
11.77010902585109
 40
12.13796744191138
 40
12.48012188969759
 40
12.82221603742029
 40
13.14394461216246
 40
13.46560136682567
 40
13.77589934864224
 40
14.08616091447323
 40
14.3964224803045
 40
14.70672046212134
 40
15.02837721678445
 40
15.35010579152646
 40
15.69219993924954
 40
16.03435438703607
 40
16.40221280309597
 40
16.77011196597703
 40
17.1652455816829
 40
17.56040569767703
 40
17.98105887663332
 40
18.40172912486424
 40
18.8436130440655
 40
19.28550759154248
 40
19.74251507926861
 40
20.19952839592763
 40
20.66438395499551
 40
21.12924137310247
 40
21.59409879121243
 40
22.05895435028787
 40
22.51596766695873
 40
22.97297515470391
 40
23.41486970220948
 40
23.85675362145204
 40
24.27742386973807
 40
24.69807704877138
 40
25.09323716486512
 40
25.48837078070584
 40
25.85626994375518
 40
26.22412836003859
 40
26.56628280810074
 40
26.90837695619207
 40
27.23010553141677
 40
27.55176228686344
 40
27.86206027072037
 40
28.17232182894548
 40
28.17232182894548
 40
28.17232182894548
 40
28.17232182894548
 10
243.7185464093878
 20
205.6122049563361
 30
0.0
 10
243.615035421999
 20
205.6087466504663
 30
0.0
 10
243.4080012943242
 20
205.6018296409835
 30
0.0
 10
243.0988017992802
 20
205.5395621136527
 30
0.0
 10
242.7962762141098
 20
205.4398201203446
 30
0.0
 10
242.4985800695688
 20
205.2990489657925
 30
0.0
 10
242.2132715435463
 20
205.1215283661713
 30
0.0
 10
241.9365640576926
 20
204.9050916977112
 30
0.0
 10
241.6765718644061
 20
204.6562498001448
 30
0.0
 10
241.4292266465303
 20
204.3711570895614
 30
0.0
 10
241.2018417323138
 20
204.0585844974864
 30
0.0
 10
240.9911519467032
 20
203.7138352652593
 30
0.0
 10
240.8028893799444
 20
203.3467564922049
 30
0.0
 10
240.6350151259263
 20
202.9529889202872
 30
0.0
 10
240.4914236106387
 20
202.5422269456445
 30
0.0
 10
240.3712496373042
 20
202.1114620929316
 30
0.0
 10
240.27667342215
 20
201.6692065542163
 30
0.0
 10
240.2076609560275
 20
201.2145248632002
 30
0.0
 10
240.1650447421912
 20
200.7539873635933
 30
0.0
 10
240.1491206370142
 20
200.2891464661819
 30
0.0
 10
240.1598800347319
 20
199.8241573562161
 30
0.0
 10
240.197377698804
 20
199.3631748669405
 30
0.0
 10
240.2613350361952
 20
198.907754599968
 30
0.0
 10
240.3509925822389
 20
198.4644757412881
 30
0.0
 10
240.4663739522778
 20
198.0324025054333
 30
0.0
 10
240.6053936230003
 20
197.6200707750809
 30
0.0
 10
240.7688833179533
 20
197.2244626612045
 30
0.0
 10
240.9530565422315
 20
196.8553151808528
 30
0.0
 10
241.1599036517798
 20
196.5082468465467
 30
0.0
 10
241.383802294387
 20
196.1931672865069
 30
0.0
 10
241.6279652798351
 20
195.9053456605765
 30
0.0
 10
241.8851771262577
 20
195.6536268466452
 30
0.0
 10
242.1594633127908
 20
195.4341440736967
 30
0.0
 10
242.4427819439791
 20
195.2534133131767
 30
0.0
 10
242.7388969626226
 20
195.1095260073652
 30
0.0
 10
243.0402922058549
 20
195.0057666915372
 30
0.0
 10
243.3487941986361
 20
194.9424589382378
 30
0.0
 10
243.6591557240922
 20
194.9197809195981
 30
0.0
 10
243.9697500202555
 20
194.9390098614282
 30
0.0
 10
244.2789362373601
 20
194.99888668775
 30
0.0
 10
244.5814655030569
 20
195.0992915265832
 30
0.0
 10
244.8791606351722
 20
195.239880535239
 30
0.0
 10
245.1644694480631
 20
195.4174528750428
 30
0.0
 10
245.4411768536623
 20
195.6338751738724
 30
0.0
 10
245.7011690694909
 20
195.8827211964157
 30
0.0
 10
245.9485142806606
 20
196.1678127577208
 30
0.0
 10
246.1758991964359
 20
196.4803856794431
 30
0.0
 10
246.3865889813028
 20
196.8251348200647
 30
0.0
 10
246.5748515480092
 20
197.1922136191913
 30
0.0
 10
246.7427258018187
 20
197.5859811839152
 30
0.0
 10
246.8863173169751
 20
197.9967431605857
 30
0.0
 10
247.0064912901844
 20
198.4275080127464
 30
0.0
 10
247.1010675052357
 20
198.869763551617
 30
0.0
 10
247.1700799712665
 20
199.3244452425919
 30
0.0
 10
247.2126961850199
 20
199.7849827422105
 30
0.0
 10
247.2286202901185
 20
200.2498236396182
 30
0.0
 10
247.2178608923232
 20
200.7148127495885
 30
0.0
 10
247.1803632281693
 20
201.1757952388536
 30
0.0
 10
247.1164058906859
 20
201.6312155058681
 30
0.0
 10
247.026748344537
 20
202.0744943643939
 30
0.0
 10
246.9113669743803
 20
202.506567600802
 30
0.0
 10
246.7723473035052
 20
202.9188993291286
 30
0.0
 10
246.6088576084232
 20
203.3145074502005
 30
0.0
 10
246.4246843838028
 20
203.6836549044822
 30
0.0
 10
246.2178372745271
 20
204.030723330396
 30
0.0
 10
245.9939386298167
 20
204.3458025607912
 30
0.0
 10
245.7497756504306
 20
204.633625336004
 30
0.0
 10
245.4925637807269
 20
204.8853400249633
 30
0.0
 10
245.2182776735698
 20
205.1048371675466
 30
0.0
 10
244.9349587544717
 20
205.2855161878891
 30
0.0
 10
244.6388447468487
 20
205.4295856396048
 30
0.0
 10
244.3374458206398
 20
205.5326821099216
 30
0.0
 10
244.0289571080453
 20
205.5983805642177
 30
0.0
 10
243.8220125930306
 20
205.6075970032033
 30
0.0
 10
243.7185464093878
 20
205.6122049563361
 30
0.0
 11
243.7185464093878
 21
205.6122049563361
 31
0.0
 11
243.4088608715306
 21
205.5933076822954
 31
0.0
 11
243.1041967159848
 21
205.534446914936
 31
0.0
 11
242.7987329441269
 21
205.4336751332087
 31
0.0
 11
242.5076120385407
 21
205.2967156712579
 31
0.0
 11
242.2168136363001
 21
205.1165360518725
 31
0.0
 11
241.9469193005949
 21
204.9062345688422
 31
0.0
 11
241.6807166946799
 21
204.6523527322741
 31
0.0
 11
241.4391548672639
 21
204.3748681783949
 31
0.0
 11
241.206260366648
 21
204.0556649110273
 31
0.0
 11
240.9997469039138
 21
203.7187617988035
 31
0.0
 11
240.8073997050247
 21
203.3446606733235
 31
0.0
 11
240.6420465991608
 21
202.957850890408
 31
0.0
 11
240.4959427255071
 21
202.5408196491568
 31
0.0
 11
240.3769224957578
 21
202.1152553461173
 31
0.0
 11
240.2811755595439
 21
201.6683903015458
 31
0.0
 11
240.2124302554287
 21
201.2165770051742
 31
0.0
 11
240.169533638216
 21
200.7537049158897
 31
0.0
 11
240.1535678916587
 21
200.2891217542125
 31
0.0
 11
240.1643717913452
 21
199.8243899014973
 31
0.0
 11
240.2021239075858
 21
199.3610698517199
 31
0.0
 11
240.2658459633526
 21
198.908520770155
 31
0.0
 11
240.3566229532349
 21
198.4606196851345
 31
0.0
 11
240.4709084217457
 21
198.0337594939734
 31
0.0
 11
240.6123706532858
 21
197.6151309771191
 31
0.0
 11
240.7734166469679
 21
197.2265082221278
 31
0.0
 11
240.9615962432859
 21
196.8502934742304
 31
0.0
 11
241.1643544466672
 21
196.5111170772358
 31
0.0
 11
241.3936886803998
 21
196.1893463769639
 31
0.0
 11
241.6321531420332
 21
195.9091955343018
 31
0.0
 11
241.8955190545767
 21
195.6523722284173
 31
0.0
 11
242.1630605852033
 21
195.4390855771703
 31
0.0
 11
242.4518395038338
 21
195.2556867163723
 31
0.0
 11
242.741421020722
 21
195.1155017636719
 31
0.0
 11
243.0457465128328
 21
195.0113429293782
 31
0.0
 11
243.3497380100542
 21
194.9491014060552
 31
0.0
 11
243.6591945176367
 21
194.9267651297595
 31
0.0
 11
243.968880055494
 21
194.9456624038002
 31
0.0
 11
244.2735442110398
 21
195.0045231711598
 31
0.0
 11
244.579007982897
 21
195.1052949528874
 31
0.0
 11
244.8701288884827
 21
195.242254414838
 31
0.0
 11
245.1609272907239
 21
195.4224340342226
 31
0.0
 11
245.4308216264297
 21
195.632735517252
 31
0.0
 11
245.6970242323444
 21
195.8866173538203
 31
0.0
 11
245.9385860597598
 21
196.1641019077
 31
0.0
 11
246.1714805603754
 21
196.4833051750679
 31
0.0
 11
246.3779940231098
 21
196.8202082872917
 31
0.0
 11
246.5703412219995
 21
197.1943094127716
 31
0.0
 11
246.7356943278638
 21
197.5811191956872
 31
0.0
 11
246.8817982015171
 21
197.9981504369381
 31
0.0
 11
247.0008184312658
 21
198.4237147399773
 31
0.0
 11
247.0965653674796
 21
198.8705797845493
 31
0.0
 11
247.1653106715947
 21
199.3223930809214
 31
0.0
 11
247.2082072888072
 21
199.7852651702052
 31
0.0
 11
247.2241730353647
 21
200.2498483318817
 31
0.0
 11
247.2133691356789
 21
200.7145801845977
 31
0.0
 11
247.1756170194388
 21
201.1779002343757
 31
0.0
 11
247.1118949636715
 21
201.6304493159402
 31
0.0
 11
247.0211179737888
 21
202.0783504009602
 31
0.0
 11
246.9068325052782
 21
202.5052105921215
 31
0.0
 11
246.7653702737387
 21
202.9238391089761
 31
0.0
 11
246.6043242800571
 21
203.3124618639674
 31
0.0
 11
246.4161446837389
 21
203.6886766118647
 31
0.0
 11
246.2133864803571
 21
204.027853008859
 31
0.0
 11
245.9840522466239
 21
204.3496237091307
 31
0.0
 11
245.7455877849907
 21
204.6297745517924
 31
0.0
 11
245.4822218724478
 21
204.886597857677
 31
0.0
 11
245.2146803418212
 21
205.0998845089248
 31
0.0
 11
244.9259014231907
 21
205.2832833697234
 31
0.0
 11
244.6363199063026
 21
205.4234683224238
 31
0.0
 11
244.3319944141918
 21
205.5276271567174
 31
0.0
 11
244.0280029169704
 21
205.5898686800404
 31
0.0
 11
243.7185464093878
 21
205.6122049563361
 31
0.0
  0
SPLINE
  5
1CE
330
63
100
AcDbEntity
  8
1
  6
Continuous
 62
     7
100
AcDbSpline
210
0.0
220
0.0
230
1.0
 70
    11
 71
     3
 72
    79
 73
    75
 74
    73
 42
0.000000001
 43
0.0000000001
 44
0.00000001
 40
0.0
 40
0.0
 40
0.0
 40
0.0
 40
0.3102615582254666
 40
0.620559542082615
 40
0.9422162975295312
 40
1.263944872754523
 40
1.606039020845256
 40
1.948193468906846
 40
2.316051885190577
 40
2.683951048240202
 40
3.079084664080303
 40
3.474244780173479
 40
3.894897959207691
 40
4.315568207494713
 40
4.757452126736891
 40
5.199346674242049
 40
5.656354161987178
 40
6.11336747865802
 40
6.578223037733452
 40
7.043080455843332
 40
7.507937873950826
 40
7.972793433019254
 40
8.429806749677777
 40
8.886814237403335
 40
9.328708784880197
 40
9.770592704081322
 40
10.19126295231285
 40
10.61191613126973
 40
11.00707624726343
 40
11.40220986296887
 40
11.77010902584989
 40
12.13796744190978
 40
12.48012188969653
 40
12.8222160374197
 40
13.14394461216182
 40
13.46560136682507
 40
13.77589934864163
 40
14.0861609144725
 40
14.39642248030367
 40
14.70672046212044
 40
15.02837721678373
 40
15.35010579152579
 40
15.6921999392491
 40
16.03435438703609
 40
16.40221280309583
 40
16.77011196597665
 40
17.1652455816823
 40
17.5604056976762
 40
17.98105887663278
 40
18.4017291248641
 40
18.84361304406526
 40
19.28550759154218
 40
19.74251507926782
 40
20.19952839592644
 40
20.66438395499489
 40
21.12924137310247
 40
21.59409879121232
 40
22.05895435028773
 40
22.51596766695861
 40
22.97297515470387
 40
23.41486970220898
 40
23.85675362145106
 40
24.27742386973792
 40
24.698077048772
 40
25.09323716486539
 40
25.48837078070586
 40
25.85626994375506
 40
26.22412836003836
 40
26.5662828081004
 40
26.90837695619165
 40
27.23010553141649
 40
27.55176228686318
 40
27.86206027071993
 40
28.17232182894492
 40
28.17232182894492
 40
28.17232182894492
 40
28.17232182894492
 10
243.6418089160669
 20
208.4449623805197
 30
0.0
 10
243.5384003043602
 20
208.4507194122733
 30
0.0
 10
243.3315709398853
 20
208.462234143412
 30
0.0
 10
243.0238310786279
 20
208.5313554171896
 30
0.0
 10
242.7235960053575
 20
208.6377936419492
 30
0.0
 10
242.4291006764462
 20
208.7851436120129
 30
0.0
 10
242.1478063270959
 20
208.9689587564765
 30
0.0
 10
241.8759754467696
 20
209.1914892862526
 30
0.0
 10
241.6215756417443
 20
209.4460457038844
 30
0.0
 10
241.3806250316529
 20
209.7365630251072
 30
0.0
 10
241.1602402865442
 20
210.0541100116347
 30
0.0
 10
240.9572613794642
 20
210.4034548014377
 30
0.0
 10
240.7772002247821
 20
210.774625382498
 30
0.0
 10
240.6181152639963
 20
211.172025232911
 30
0.0
 10
240.4836845931827
 20
211.5858758313395
 30
0.0
 10
240.3731100647807
 20
212.0192041316707
 30
0.0
 10
240.2883822517801
 20
212.4634516074107
 30
0.0
 10
240.2294879355588
 20
212.9195542495236
 30
0.0
 10
240.1971134484659
 20
213.3809248411431
 30
0.0
 10
240.1915200858097
 20
213.8460047819344
 30
0.0
 10
240.2126069331841
 20
214.310640103336
 30
0.0
 10
240.2603364375885
 20
214.7706757809081
 30
0.0
 10
240.3343955158106
 20
215.2245627861287
 30
0.0
 10
240.4338787287404
 20
215.6657404288758
 30
0.0
 10
240.5588304751149
 20
216.0951437390304
 30
0.0
 10
240.7069761148701
 20
216.5042852721515
 30
0.0
 10
240.8792142111013
 20
216.8961636950428
 30
0.0
 10
241.0715428877915
 20
217.2611285137773
 30
0.0
 10
241.2860493479134
 20
217.6035159171269
 30
0.0
 10
241.5168924765399
 20
217.9135436276333
 30
0.0
 10
241.7673893899257
 20
218.195869942737
 30
0.0
 10
242.0301298909572
 20
218.4418124651784
 30
0.0
 10
242.3092243686885
 20
218.6551475824095
 30
0.0
 10
242.5964881548965
 20
218.8295395882762
 30
0.0
 10
242.8957266635716
 20
218.9668129504625
 30
0.0
 10
243.1993526182671
 20
219.0638509218933
 30
0.0
 10
243.5091849047314
 20
219.1202894321689
 30
0.0
 10
243.8199736428742
 20
219.1360669242519
 30
0.0
 10
244.1300640976216
 20
219.1099426273715
 30
0.0
 10
244.4378437955522
 20
219.0432117595548
 30
0.0
 10
244.7380678227978
 20
218.9361107710967
 30
0.0
 10
245.0325661860506
 20
218.7889429244677
 30
0.0
 10
245.3138596727491
 20
218.6050760462163
 30
0.0
 10
245.5856907920725
 20
218.3825598843055
 30
0.0
 10
245.8400905279946
 20
218.1279993422141
 30
0.0
 10
246.0810411569142
 20
217.8374831701357
 30
0.0
 10
246.301425896259
 20
217.5199358540081
 30
0.0
 10
246.5044048046308
 20
217.1705911558047
 30
0.0
 10
246.6844659586803
 20
216.7994205486797
 30
0.0
 10
246.843550919416
 20
216.402020705463
 30
0.0
 10
246.9779815900539
 20
215.9881701050104
 30
0.0
 10
247.0885561183439
 20
215.5548418052338
 30
0.0
 10
247.173283931238
 20
215.1105943293412
 30
0.0
 10
247.2321782473687
 20
214.6544916872715
 30
0.0
 10
247.2645527343785
 20
214.1931210956419
 30
0.0
 10
247.2701460969567
 20
213.728041154856
 30
0.0
 10
247.2490592495044
 20
213.2634058334516
 30
0.0
 10
247.201329745018
 20
212.8033701558923
 30
0.0
 10
247.1272706667029
 20
212.3494831506314
 30
0.0
 10
247.0277874536715
 20
211.9083055080404
 30
0.0
 10
246.9028357071662
 20
211.4789021973352
 30
0.0
 10
246.754690067303
 20
211.069760666243
 30
0.0
 10
246.5824519707827
 20
210.6778822361612
 30
0.0
 10
246.3901232943293
 20
210.3129174434979
 30
0.0
 10
246.1756168324457
 20
209.9705299485566
 30
0.0
 10
245.9447737090404
 20
209.6605025676595
 30
0.0
 10
245.6942767761828
 20
209.3781751034221
 30
0.0
 10
245.4315363435151
 20
209.1322367054525
 30
0.0
 10
245.1524416259066
 20
208.9188872203709
 30
0.0
 10
244.8651787013092
 20
208.744546948309
 30
0.0
 10
244.5659371568884
 20
208.6070914627115
 30
0.0
 10
244.2623222457689
 20
208.51071625502
 30
0.0
 10
243.9524501248786
 20
208.4518873387463
 30
0.0
 10
243.7453519334822
 20
208.4472706123562
 30
0.0
 10
243.6418089160669
 20
208.4449623805197
 30
0.0
 11
243.6418089160669
 21
208.4449623805197
 31
0.0
 11
243.3326196270772
 21
208.4707349026739
 31
0.0
 11
243.0293383020917
 21
208.5363495010777
 31
0.0
 11
242.7261886448557
 21
208.6438825342711
 31
0.0
 11
242.4381822523208
 21
208.7872756782704
 31
0.0
 11
242.1514584539125
 21
208.9738711482411
 31
0.0
 11
241.8863027441878
 21
209.190116647178
 31
0.0
 11
241.6258060255491
 21
209.449849729233
 31
0.0
 11
241.3904683572808
 21
209.7326322888089
 31
0.0
 11
241.1647226913024
 21
210.0569307140391
 31
0.0
 11
240.9657447685439
 21
210.3983385399174
 31
0.0
 11
240.7817559970012
 21
210.7766204836483
 31
0.0
 11
240.6250369892978
 21
211.1670082529281
 31
0.0
 11
240.4882338569447
 21
211.5871823847521
 31
0.0
 11
240.3786972530109
 21
212.0152857875758
 31
0.0
 11
240.2929014117466
 21
212.4641676400448
 31
0.0
 11
240.2342104679147
 21
212.9173966602191
 31
0.0
 11
240.2016075114269
 21
213.3811074947218
 31
0.0
 11
240.1959667918619
 21
213.8459306884847
 31
0.0
 11
240.2170924150464
 21
214.3103078274806
 31
0.0
 11
240.2651282395969
 21
214.772674835783
 31
0.0
 11
240.3388883085815
 21
215.2236965911778
 31
0.0
 11
240.4395933755257
 21
215.6694704501533
 31
0.0
 11
240.5633336788837
 21
216.0936863485299
 31
0.0
 11
240.7140611647788
 21
216.5090688506546
 31
0.0
 11
240.8837009775117
 21
216.8940179274357
 31
0.0
 11
241.0801920424668
 21
217.2659592647449
 31
0.0
 11
241.2904352798676
 21
217.6005475168452
 31
0.0
 11
241.5268613071417
 21
217.917143960196
 31
0.0
 11
241.7714906905289
 21
218.1919279824565
 31
0.0
 11
242.0404971392218
 21
218.442837019553
 31
0.0
 11
242.3127109738364
 21
218.6501273822209
 31
0.0
 11
242.6054929738628
 21
218.8270655252208
 31
0.0
 11
242.8981173425229
 21
218.9607825950104
 31
0.0
 11
243.2046816985299
 21
219.0581548884821
 31
0.0
 11
243.5099809154786
 21
219.1136276361958
 31
0.0
 11
243.8198572670279
 21
219.1290835759733
 31
0.0
 11
244.1290465560174
 21
219.1033110538191
 31
0.0
 11
244.4323278810028
 21
219.0376964554153
 31
0.0
 11
244.7354775382388
 21
218.9301634222225
 31
0.0
 11
245.0234839307737
 21
218.7867702782237
 31
0.0
 11
245.3102077291826
 21
218.6001748082525
 31
0.0
 11
245.5753634389078
 21
218.3839293093147
 31
0.0
 11
245.8358601575458
 21
218.1241962272597
 31
0.0
 11
246.0711978258137
 21
217.8414136676841
 31
0.0
 11
246.2969434917928
 21
217.5171152424539
 31
0.0
 11
246.4959214145518
 21
217.1757074165755
 31
0.0
 11
246.679910186094
 21
216.7974254728448
 31
0.0
 11
246.8366291937967
 21
216.4070377035651
 31
0.0
 11
246.9734323261498
 21
215.9868635717411
 31
0.0
 11
247.0829689300838
 21
215.5587601689174
 31
0.0
 11
247.168764771348
 21
215.1098783164484
 31
0.0
 11
247.2274557151798
 21
214.656649296274
 31
0.0
 11
247.2600586716675
 21
214.1929384617715
 31
0.0
 11
247.2656993912329
 21
213.7281152680087
 31
0.0
 11
247.244573768049
 21
213.2637381290126
 31
0.0
 11
247.1965379434987
 21
212.80137112071
 31
0.0
 11
247.1227778745136
 21
212.3503493653152
 31
0.0
 11
247.0220728075688
 21
211.9045755063396
 31
0.0
 11
246.8983325042107
 21
211.4803596079631
 31
0.0
 11
246.7476050183157
 21
211.0649771058384
 31
0.0
 11
246.5779652055828
 21
210.6800280290574
 31
0.0
 11
246.3814741406277
 21
210.3080866917482
 31
0.0
 11
246.1712309032269
 21
209.9734984396477
 31
0.0
 11
245.9348048759528
 21
209.6569019962967
 31
0.0
 11
245.6901754925657
 21
209.3821179740363
 31
0.0
 11
245.4211690438727
 21
209.1312089369401
 31
0.0
 11
245.148955209258
 21
208.9239185742727
 31
0.0
 11
244.8561732092317
 21
208.746980431273
 31
0.0
 11
244.5635488405716
 21
208.6132633614831
 31
0.0
 11
244.2569844845648
 21
208.5158910680109
 31
0.0
 11
243.9516852676161
 21
208.4604183202972
 31
0.0
 11
243.6418089160669
 21
208.4449623805197
 31
0.0
  0
SPLINE
  5
1CF
330
63
100
AcDbEntity
  8
1
  6
Continuous
 62
     7
100
AcDbSpline
210
0.0
220
0.0
230
1.0
 70
     8
 71
     3
 72
    19
 73
    15
 74
    13
 42
0.000000001
 43
0.0000000001
 44
0.00000001
 40
0.0
 40
0.0
 40
0.0
 40
0.0
 40
2.236249111410656
 40
4.472185184257585
 40
5.387243810691734
 40
6.297107187477441
 40
6.730942982291144
 40
7.165161237881422
 40
7.650976097360575
 40
8.134990265011592
 40
8.581478825009599
 40
9.029057878930299
 40
9.763805598228018
 40
10.4981482575305
 40
10.4981482575305
 40
10.4981482575305
 40
10.4981482575305
 10
103.3534193263497
 20
375.275298791962
 30
0.0
 10
102.6073505007141
 20
375.3134551232747
 30
0.0
 10
101.1153172881689
 20
375.3897624577417
 30
0.0
 10
99.37337370763959
 20
375.9241341017113
 30
0.0
 10
98.1795916947213
 20
376.5685960266425
 30
0.0
 10
97.58465270341813
 20
377.0401053369482
 30
0.0
 10
97.19024314495977
 20
377.4843871721467
 30
0.0
 10
96.94176372601872
 20
377.8635274799866
 30
0.0
 10
96.76201520752684
 20
378.299341362823
 30
0.0
 10
96.68271879921065
 20
378.7698621635589
 30
0.0
 10
96.72487167559862
 20
379.2317685944455
 30
0.0
 10
96.89000713561093
 20
379.7523175777206
 30
0.0
 10
97.23587187271828
 20
380.3030748907743
 30
0.0
 10
97.60004006150176
 20
380.632493890268
 30
0.0
 10
97.78207395468672
 20
380.7971579728167
 30
0.0
 11
103.3534193263497
 21
375.275298791962
 31
0.0
 11
101.1267070008605
 21
375.4816050917771
 31
0.0
 11
98.99287709695713
 21
376.1495722089955
 31
0.0
 11
98.1920958464171
 21
376.5923833207894
 31
0.0
 11
97.48487225816868
 21
377.1648221066075
 31
0.0
 11
97.19863338750862
 21
377.4908294785789
 31
0.0
 11
96.96260948132802
 21
377.8552992442284
 31
0.0
 11
96.77931474843857
 21
378.3052093683025
 31
0.0
 11
96.70241473581444
 21
378.783075566853
 31
0.0
 11
96.7406237702997
 21
379.2279262213461
 31
0.0
 11
96.87428958421623
 21
379.655080128726
 31
0.0
 11
97.26072599047569
 21
380.279997017544
 31
0.0
 11
97.78207395468672
 21
380.7971579728167
 31
0.0
  0
SPLINE
  5
1D0
330
63
100
AcDbEntity
  8
1
  6
Continuous
 62
     7
100
AcDbSpline
210
0.0
220
0.0
230
1.0
 70
     8
 71
     3
 72
    19
 73
    15
 74
    13
 42
0.000000001
 43
0.0000000001
 44
0.00000001
 40
0.0
 40
0.0
 40
0.0
 40
0.0
 40
2.236249111410755
 40
4.472185184257738
 40
5.387243810691849
 40
6.297107187477557
 40
6.730942982291269
 40
7.165161237881547
 40
7.650976097360705
 40
8.13499026501172
 40
8.581478825009729
 40
9.029057878930441
 40
9.76380559822813
 40
10.49814825753067
 40
10.49814825753067
 40
10.49814825753067
 40
10.49814825753067
 10
103.3534193263497
 20
375.275298791962
 30
0.0
 10
104.0994881519853
 20
375.3134551232747
 30
0.0
 10
105.5915213645306
 20
375.3897624577418
 30
0.0
 10
107.3334649450599
 20
375.9241341017112
 30
0.0
 10
108.5272469579783
 20
376.5685960266427
 30
0.0
 10
109.1221859492813
 20
377.0401053369478
 30
0.0
 10
109.5165955077398
 20
377.4843871721469
 30
0.0
 10
109.7650749266808
 20
377.8635274799865
 30
0.0
 10
109.9448234451727
 20
378.299341362823
 30
0.0
 10
110.0241198534888
 20
378.7698621635588
 30
0.0
 10
109.9819669771009
 20
379.2317685944454
 30
0.0
 10
109.8168315170885
 20
379.7523175777208
 30
0.0
 10
109.4709667799812
 20
380.3030748907743
 30
0.0
 10
109.1067985911977
 20
380.6324938902681
 30
0.0
 10
108.9247646980127
 20
380.7971579728167
 30
0.0
 11
103.3534193263497
 21
375.275298791962
 31
0.0
 11
105.580131651839
 21
375.4816050917771
 31
0.0
 11
107.7139615557424
 21
376.1495722089955
 31
0.0
 11
108.5147428062824
 21
376.5923833207894
 31
0.0
 11
109.2219663945308
 21
377.1648221066075
 31
0.0
 11
109.5082052651909
 21
377.4908294785789
 31
0.0
 11
109.7442291713715
 21
377.8552992442284
 31
0.0
 11
109.927523904261
 21
378.3052093683025
 31
0.0
 11
110.0044239168851
 21
378.783075566853
 31
0.0
 11
109.9662148823998
 21
379.2279262213461
 31
0.0
 11
109.8325490684832
 21
379.655080128726
 31
0.0
 11
109.4461126622238
 21
380.279997017544
 31
0.0
 11
108.9247646980127
 21
380.7971579728167
 31
0.0
  0
ARC
  5
1D1
330
63
100
AcDbEntity
  8
1
  6
Continuous
 62
     7
100
AcDbCircle
 10
240.3534193263498
 20
195.3571009895996
 30
0.0
 40
1.0
100
AcDbArc
 50
180.0
 51
195.3375576695555
  0
ARC
  5
1D2
330
63
100
AcDbEntity
  8
1
  6
Continuous
 62
     7
100
AcDbCircle
 10
239.3534193263498
 20
197.1471728588989
 30
0.0
 40
1.0
100
AcDbArc
 50
180.0
 51
227.058597135126
  0
ARC
  5
1D3
330
63
100
AcDbEntity
  8
1
  6
Continuous
 62
     7
100
AcDbCircle
 10
238.3534193263498
 20
195.4151220513301
 30
0.0
 40
1.0
100
AcDbArc
 50
0.0
 51
59.99999999999946
  0
ARC
  5
1D4
330
63
100
AcDbEntity
  8
1
  6
Continuous
 62
     7
100
AcDbCircle
 10
239.3534193263498
 20
197.1471728588989
 30
0.0
 40
0.999999999999813
100
AcDbArc
 50
227.058597135126
 51
239.9999999999986
  0
ARC
  5
1D5
330
63
100
AcDbEntity
  8
1
  6
Continuous
 62
     7
100
AcDbCircle
 10
240.3534193263498
 20
218.4731431130607
 30
0.0
 40
0.9999999999995581
100
AcDbArc
 50
164.6624423304292
 51
180.0
  0
ARC
  5
1D6
330
63
100
AcDbEntity
  8
1
  6
Continuous
 62
     7
100
AcDbCircle
 10
239.3534193263498
 20
216.6830712437614
 30
0.0
 40
0.9999999999997298
100
AcDbArc
 50
132.9414028648784
 51
180.0
  0
ARC
  5
1D7
330
63
100
AcDbEntity
  8
1
  6
Continuous
 62
     7
100
AcDbCircle
 10
238.3534193263498
 20
218.4151220513302
 30
0.0
 40
1.000000000000058
100
AcDbArc
 50
299.9999999999981
 51
359.9999999999935
  0
ARC
  5
1D8
330
63
100
AcDbEntity
  8
1
  6
Continuous
 62
     7
100
AcDbCircle
 10
239.3534193263498
 20
216.6830712437614
 30
0.0
 40
0.9999999999998851
100
AcDbArc
 50
120.0000000000038
 51
132.9414028648784
  0
ARC
  5
1D9
330
63
100
AcDbEntity
  8
1
  6
Continuous
 62
     7
100
AcDbCircle
 10
113.1213685187808
 20
373.988578856319
 30
0.0
 40
1.0
100
AcDbArc
 50
270.0
 51
317.0585971351162
  0
ARC
  5
1DA
330
63
100
AcDbEntity
  8
1
  6
Continuous
 62
     7
100
AcDbCircle
 10
114.9114403880804
 20
374.988578856319
 30
0.0
 40
1.0
100
AcDbArc
 50
270.0
 51
285.3375576695503
  0
ARC
  5
1DB
330
63
100
AcDbEntity
  8
1
  6
Continuous
 62
     7
100
AcDbCircle
 10
113.1213685187808
 20
373.988578856319
 30
0.0
 40
1.000000000000088
100
AcDbArc
 50
317.0585971351162
 51
330.0000000000019
  0
ARC
  5
1DC
330
63
100
AcDbEntity
  8
1
  6
Continuous
 62
     7
100
AcDbCircle
 10
114.8534193263497
 20
372.988578856319
 30
0.0
 40
1.0
100
AcDbArc
 50
90.0
 51
149.9999999999987
  0
ARC
  5
1DD
330
63
100
AcDbEntity
  8
1
  6
Continuous
 62
     7
100
AcDbCircle
 10
93.58547013391873
 20
373.988578856319
 30
0.0
 40
1.000000000000172
100
AcDbArc
 50
222.9414028648793
 51
270.0
  0
ARC
  5
1DE
330
63
100
AcDbEntity
  8
1
  6
Continuous
 62
     7
100
AcDbCircle
 10
91.79539826461914
 20
374.988578856319
 30
0.0
 40
1.000000000000131
100
AcDbArc
 50
254.6624423304449
 51
270.0
  0
ARC
  5
1DF
330
63
100
AcDbEntity
  8
1
  6
Continuous
 62
     7
100
AcDbCircle
 10
93.58547013391873
 20
373.988578856319
 30
0.0
 40
1.000000000000131
100
AcDbArc
 50
209.9999999999957
 51
222.9414028648793
  0
ARC
  5
1E0
330
63
100
AcDbEntity
  8
1
  6
Continuous
 62
     7
100
AcDbCircle
 10
91.85341932634972
 20
372.988578856319
 30
0.0
 40
0.9999999999999836
100
AcDbArc
 50
30.00000000000054
 51
90.0
  0
ENDBLK
  5
65
330
63
100
AcDbEntity
  8
0
100
AcDbBlockEnd
  0
BLOCK
  5
67
330
66
100
AcDbEntity
  8
0
100
AcDbBlockBegin
  2
75-2
 70
     0
 10
246.4106733317362
 20
117.6727907806972
 30
0.0
  3
75-2
  1

  0
LINE
  5
1E1
330
66
100
AcDbEntity
  8
1
  6
Continuous
 62
     7
100
AcDbLine
 10
104.8857782329255
 20
169.8577918389332
 30
0.0
 11
104.253571818673
 21
169.2255854246809
 31
0.0
  0
LINE
  5
1E2
330
66
100
AcDbEntity
  8
1
  6
Continuous
 62
     7
100
AcDbLine
 10
104.253571818673
 20
169.9011970433403
 30
0.0
 11
104.253571818673
 21
169.2255854246809
 31
0.0
  0
LINE
  5
1E3
330
66
100
AcDbEntity
  8
1
  6
Continuous
 62
     7
100
AcDbLine
 10
102.4535717874313
 20
169.9012124397033
 30
0.0
 11
102.4535717874313
 21
169.225280471276
 31
0.0
  0
LINE
  5
1E4
330
66
100
AcDbEntity
  8
1
  6
Continuous
 62
     7
100
AcDbLine
 10
100.4448358855164
 20
168.1215713872592
 30
0.0
 11
100.4448358855164
 21
165.7965369419742
 31
0.0
  0
LINE
  5
1E5
330
66
100
AcDbEntity
  8
1
  6
Continuous
 62
     7
100
AcDbLine
 10
106.2620027671831
 20
168.1646875609771
 30
0.0
 11
106.2620027671831
 21
165.7965369419742
 31
0.0
  0
LINE
  5
1E6
330
66
100
AcDbEntity
  8
1
  6
Continuous
 62
     7
100
AcDbLine
 10
104.253571818673
 20
164.7253758643864
 30
0.0
 11
104.253571818673
 21
169.0054529484775
 31
0.0
  0
LINE
  5
1E7
330
66
100
AcDbEntity
  8
1
  6
Continuous
 62
     7
100
AcDbLine
 10
106.5304823381276
 20
169.5507050839321
 30
0.0
 11
106.5962281054771
 21
169.6164508512816
 31
0.0
  0
LINE
  5
1E8
330
66
100
AcDbEntity
  8
1
  6
Continuous
 62
     7
100
AcDbLine
 10
98.85588153470235
 20
166.969127498021
 30
0.0
 11
97.14357120803453
 21
166.969127498021
 31
0.0
  0
LINE
  5
1E9
330
66
100
AcDbEntity
  8
1
  6
Continuous
 62
     7
100
AcDbLine
 10
106.5304823381276
 20
165.1483699205797
 30
0.0
 11
106.6606249011472
 21
165.01822735756
 31
0.0
  0
LINE
  5
1EA
330
66
100
AcDbEntity
  8
1
  6
Continuous
 62
     7
100
AcDbLine
 10
109.5639631341815
 20
166.969127498021
 30
0.0
 11
107.8509571179971
 21
166.969127498021
 31
0.0
  0
LINE
  5
1EB
330
66
100
AcDbEntity
  8
1
  6
Continuous
 62
     7
100
AcDbLine
 10
107.8509571179971
 20
167.7299475064907
 30
0.0
 11
109.5639631341815
 21
167.7299475064907
 31
0.0
  0
LINE
  5
1EC
330
66
100
AcDbEntity
  8
1
  6
Continuous
 62
     7
100
AcDbLine
 10
100.1763563145719
 20
169.5507050839321
 30
0.0
 11
100.1106105472252
 21
169.6164508512787
 31
0.0
  0
LINE
  5
1ED
330
66
100
AcDbEntity
  8
1
  6
Continuous
 62
     7
100
AcDbLine
 10
102.4535717874313
 20
169.225280471276
 30
0.0
 11
101.821060419774
 21
169.8577918389332
 31
0.0
  0
LINE
  5
1EE
330
66
100
AcDbEntity
  8
1
  6
Continuous
 62
     7
100
AcDbLine
 10
97.14287551851803
 20
167.7299475064907
 30
0.0
 11
98.85588153470235
 21
167.7299475064907
 31
0.0
  0
LINE
  5
1EF
330
66
100
AcDbEntity
  8
1
  6
Continuous
 62
     7
100
AcDbLine
 10
104.253571818673
 20
165.4734895798308
 30
0.0
 11
104.9692037130293
 21
164.7578576854746
 31
0.0
  0
LINE
  5
1F0
330
66
100
AcDbEntity
  8
1
  6
Continuous
 62
     7
100
AcDbLine
 10
102.4535717874313
 20
164.7253758643864
 30
0.0
 11
102.4535717874313
 21
169.0054529484775
 31
0.0
  0
LINE
  5
1F1
330
66
100
AcDbEntity
  8
1
  6
Continuous
 62
     7
100
AcDbLine
 10
101.7376349396701
 20
164.7578576854746
 30
0.0
 11
102.4535717874313
 21
165.4737945332357
 31
0.0
  0
LINE
  5
1F2
330
66
100
AcDbEntity
  8
1
  6
Continuous
 62
     7
100
AcDbLine
 10
100.0462137515522
 20
165.01822735756
 30
0.0
 11
100.1763563145719
 21
165.1483699205797
 31
0.0
  0
ARC
  5
1F3
330
66
100
AcDbEntity
  8
1
  6
Continuous
 62
     7
100
AcDbCircle
 10
107.8509571179971
 20
165.0501328733286
 30
0.0
 40
1.918994624692402
100
AcDbArc
 50
90.0
 51
134.629699151787
  0
ARC
  5
1F4
330
66
100
AcDbEntity
  8
1
  6
Continuous
 62
     7
100
AcDbCircle
 10
107.1786493595221
 20
165.7965369419742
 30
0.0
 40
0.9166465923391882
100
AcDbArc
 50
137.5005082888386
 51
225.0
  0
ARC
  5
1F5
330
66
100
AcDbEntity
  8
1
  6
Continuous
 62
     7
100
AcDbCircle
 10
99.52818929317735
 20
165.7965369419742
 30
0.0
 40
0.9166465923391134
100
AcDbArc
 50
315.0000000000025
 51
42.49949171115902
  0
ARC
  5
1F6
330
66
100
AcDbEntity
  8
1
  6
Continuous
 62
     7
100
AcDbCircle
 10
98.85588153470235
 20
165.0501328733286
 30
0.0
 40
1.918994624692455
100
AcDbArc
 50
45.37030084821176
 51
90.0
  0
ARC
  5
1F7
330
66
100
AcDbEntity
  8
1
  6
Continuous
 62
     7
100
AcDbCircle
 10
107.8509571179971
 20
169.6489421311832
 30
0.0
 40
1.918994624692476
100
AcDbArc
 50
225.3703008482147
 51
270.0
  0
ARC
  5
1F8
330
66
100
AcDbEntity
  8
1
  6
Continuous
 62
     7
100
AcDbCircle
 10
107.1786493595221
 20
168.9025380625375
 30
0.0
 40
0.9166465923391335
100
AcDbArc
 50
134.9999999999962
 51
222.4994917111614
  0
ARC
  5
1F9
330
66
100
AcDbEntity
  8
1
  6
Continuous
 62
     7
100
AcDbCircle
 10
98.85588153470235
 20
169.6489421311832
 30
0.0
 40
1.918994624692488
100
AcDbArc
 50
270.0
 51
314.6296991517864
  0
ARC
  5
1FA
330
66
100
AcDbEntity
  8
1
  6
Continuous
 62
     7
100
AcDbCircle
 10
99.52818929317735
 20
168.9025380625375
 30
0.0
 40
0.9166465923392301
100
AcDbArc
 50
317.500508288841
 51
45.00000000000126
  0
SPLINE
  5
1FB
330
66
100
AcDbEntity
  8
1
  6
Continuous
 62
     7
100
AcDbSpline
210
0.0
220
0.0
230
1.0
 70
     8
 71
     3
 72
    41
 73
    37
 74
    35
 42
0.000000001
 43
0.0000000001
 44
0.00000001
 40
0.0
 40
0.0
 40
0.0
 40
0.0
 40
0.0729288036756125
 40
0.1458278634703953
 40
0.2220831371643949
 40
0.2983654586367571
 40
0.3708466255312766
 40
0.4433152243473813
 40
0.5103449923834686
 40
0.5773771529835152
 40
0.6376245804699362
 40
0.6978691614446216
 40
0.7504693655676435
 40
0.803063956572758
 40
0.8478791180743842
 40
0.8926919057562012
 40
0.930752908002329
 40
0.9687649982675489
 40
1.002688508119323
 40
1.036543066964857
 40
1.070397470691134
 40
1.104321114879324
 40
1.142333938195873
 40
1.180394324779373
 40
1.222230617126671
 40
1.264055526364788
 40
1.310191711648079
 40
1.356333454697231
 40
1.426004524432938
 40
1.495712726976023
 40
1.625131683998794
 40
1.75465119493822
 40
1.840966285748781
 40
1.927202321082943
 40
2.000131704865216
 40
2.07310151038272
 40
2.07310151038272
 40
2.07310151038272
 40
2.07310151038272
 10
109.5639631341815
 20
166.969127498021
 30
0.0
 10
109.5882649001494
 20
166.9697436457816
 30
0.0
 10
109.6368585203538
 20
166.9709757002802
 30
0.0
 10
109.7108187689626
 20
166.974473376895
 30
0.0
 10
109.7856732488471
 20
166.9813872538815
 30
0.0
 10
109.8600219556678
 20
166.9914402073653
 30
0.0
 10
109.932692082297
 20
167.0040875102858
 30
0.0
 10
110.0017517424704
 20
167.0191558378831
 30
0.0
 10
110.0682863991474
 20
167.0369345005679
 30
0.0
 10
110.1299592868012
 20
167.0568266484135
 30
0.0
 10
110.18834614591
 20
167.0792390561824
 30
0.0
 10
110.2408488502946
 20
167.1032743669255
 30
0.0
 10
110.2893211883621
 20
167.1296708691098
 30
0.0
 10
110.3311709569518
 20
167.1571664945124
 30
0.0
 10
110.3682550871461
 20
167.1868182678657
 30
0.0
 10
110.3983404970376
 20
167.2170948773621
 30
0.0
 10
110.4228249425568
 20
167.2492499505646
 30
0.0
 10
110.4402553684027
 20
167.281742022416
 30
0.0
 10
110.4508915834863
 20
167.3155687011521
 30
0.0
 10
110.4546802577147
 20
167.3494919557929
 30
0.0
 10
110.4508981508529
 20
167.3834159896836
 30
0.0
 10
110.4402684253561
 20
167.4172449466335
 30
0.0
 10
110.4228455318164
 20
167.4497409155564
 30
0.0
 10
110.3989689556454
 20
167.4811093551739
 30
0.0
 10
110.3704392349647
 20
167.5100976308406
 30
0.0
 10
110.3368917708417
 20
167.5375189336993
 30
0.0
 10
110.2999054419632
 20
167.5627156290399
 30
0.0
 10
110.2530754256825
 20
167.5896472246006
 30
0.0
 10
110.1972008303264
 20
167.6163295215518
 30
0.0
 10
110.1136201641266
 20
167.6487746637772
 30
0.0
 10
110.0083330546917
 20
167.6797390644388
 30
0.0
 10
109.8953982936072
 20
167.702429227652
 30
0.0
 10
109.7957055466706
 20
167.7167633092363
 30
0.0
 10
109.7142054564569
 20
167.724502275416
 30
0.0
 10
109.6368967888836
 20
167.7281265418778
 30
0.0
 10
109.5882788424219
 20
167.729340409604
 30
0.0
 10
109.5639631341815
 20
167.7299475064907
 30
0.0
 11
109.5639631341815
 21
166.969127498021
 31
0.0
 11
109.6368612784088
 21
166.9712422152611
 31
0.0
 11
109.7096658790995
 21
166.974952081789
 31
0.0
 11
109.785602099444
 21
166.9819203872664
 31
0.0
 11
109.8612023365157
 21
166.9920986375783
 31
0.0
 11
109.9325985579095
 21
167.0045926026671
 31
0.0
 11
110.0033869625109
 21
167.0201070998638
 31
0.0
 11
110.0681261516189
 21
167.0374802753446
 31
0.0
 11
110.1318995491732
 21
167.058126445692
 31
0.0
 11
110.1881050134125
 21
167.0798220290001
 31
0.0
 11
110.2428353065873
 21
167.1050014764787
 31
0.0
 11
110.2889543163159
 21
167.1302961091254
 31
0.0
 11
110.3328235079004
 21
167.1593079181333
 31
0.0
 11
110.3676925450967
 21
167.1874601644049
 31
0.0
 11
110.3991299071518
 21
167.2193956969064
 31
0.0
 11
110.4219954838593
 21
167.2498227460377
 31
0.0
 11
110.439739817953
 21
167.283439076046
 31
0.0
 11
110.4498243912394
 21
167.3158289807822
 31
0.0
 11
110.4534193287138
 21
167.3494921298844
 31
0.0
 11
110.4498309296252
 21
167.3831558205902
 31
0.0
 11
110.4397527944219
 21
167.4155478698052
 31
0.0
 11
110.4220153275782
 21
167.4491686526005
 31
0.0
 11
110.3991554658063
 21
167.4795992255767
 31
0.0
 11
110.3699328998412
 21
167.5095377796743
 31
0.0
 11
110.3376611166064
 21
167.5361433253641
 31
0.0
 11
110.2995988249166
 21
167.5622164833399
 31
0.0
 11
110.2596584843334
 21
167.5853212375242
 31
0.0
 11
110.1968719313293
 21
167.6155190314918
 31
0.0
 11
110.1319567945302
 21
167.6409209714168
 31
0.0
 11
110.0079292366878
 21
167.6778862449262
 31
0.0
 11
109.8810385439994
 21
167.7038488322051
 31
0.0
 11
109.7955943598452
 21
167.7160793826359
 31
0.0
 11
109.7097394723119
 21
167.7241782820471
 31
0.0
 11
109.6369030830552
 21
167.7278600603252
 31
0.0
 11
109.5639631341815
 21
167.7299475064907
 31
0.0
  0
SPLINE
  5
1FC
330
66
100
AcDbEntity
  8
1
  6
Continuous
 62
     7
100
AcDbSpline
210
0.0
220
0.0
230
1.0
 70
     8
 71
     3
 72
    41
 73
    37
 74
    35
 42
0.000000001
 43
0.0000000001
 44
0.00000001
 40
0.0
 40
0.0
 40
0.0
 40
0.0
 40
0.0729288036756543
 40
0.1458278634704811
 40
0.2220831371644666
 40
0.2983654586368429
 40
0.3708466255313764
 40
0.4433152243474811
 40
0.5103449923835683
 40
0.5773771529836014
 40
0.6376245804700357
 40
0.697869161444734
 40
0.7504693655677309
 40
0.8030639565728453
 40
0.8478791180744937
 40
0.8926919057562906
 40
0.9307529080024356
 40
0.9687649982676488
 40
1.002688508119415
 40
1.03654306696495
 40
1.07039747069122
 40
1.104321114879397
 40
1.142333938195959
 40
1.18039432477951
 40
1.222230617126828
 40
1.264055526364923
 40
1.31019171164816
 40
1.356333454697285
 40
1.426004524433044
 40
1.495712726976169
 40
1.625131683998899
 40
1.754651194938242
 40
1.840966285748858
 40
1.927202321083063
 40
2.000131704865378
 40
2.073101510382954
 40
2.073101510382954
 40
2.073101510382954
 40
2.073101510382954
 10
97.14287551851803
 20
166.969127498021
 30
0.0
 10
97.11857375255013
 20
166.9697436457816
 30
0.0
 10
97.06998013234566
 20
166.9709757002802
 30
0.0
 10
96.9960198837368
 20
166.974473376895
 30
0.0
 10
96.92116540385234
 20
166.9813872538814
 30
0.0
 10
96.8468166970316
 20
166.9914402073653
 30
0.0
 10
96.77414657040244
 20
167.0040875102858
 30
0.0
 10
96.7050869102291
 20
167.0191558378831
 30
0.0
 10
96.638552253552
 20
167.036934500568
 30
0.0
 10
96.57687936589826
 20
167.0568266484135
 30
0.0
 10
96.51849250678936
 20
167.0792390561824
 30
0.0
 10
96.46598980240478
 20
167.1032743669254
 30
0.0
 10
96.4175174643373
 20
167.1296708691098
 30
0.0
 10
96.3756676957477
 20
167.1571664945125
 30
0.0
 10
96.33858356555334
 20
167.1868182678656
 30
0.0
 10
96.30849815566187
 20
167.2170948773622
 30
0.0
 10
96.28401371014257
 20
167.2492499505645
 30
0.0
 10
96.26658328429679
 20
167.2817420224161
 30
0.0
 10
96.25594706921312
 20
167.3155687011521
 30
0.0
 10
96.25215839498475
 20
167.3494919557929
 30
0.0
 10
96.25594050184641
 20
167.3834159896836
 30
0.0
 10
96.26657022734325
 20
167.4172449466335
 30
0.0
 10
96.283993120883
 20
167.4497409155565
 30
0.0
 10
96.307869697054
 20
167.4811093551739
 30
0.0
 10
96.33639941773477
 20
167.5100976308406
 30
0.0
 10
96.36994688185779
 20
167.5375189336993
 30
0.0
 10
96.40693321073609
 20
167.5627156290399
 30
0.0
 10
96.4537632270169
 20
167.5896472246006
 30
0.0
 10
96.5096378223729
 20
167.6163295215518
 30
0.0
 10
96.59321848857283
 20
167.6487746637771
 30
0.0
 10
96.69850559800764
 20
167.6797390644388
 30
0.0
 10
96.81144035909219
 20
167.7024292276519
 30
0.0
 10
96.91113310602873
 20
167.7167633092365
 30
0.0
 10
96.99263319624262
 20
167.7245022754159
 30
0.0
 10
97.06994186381586
 20
167.7281265418778
 30
0.0
 10
97.11855981027755
 20
167.729340409604
 30
0.0
 10
97.14287551851803
 20
167.7299475064907
 30
0.0
 11
97.14287551851803
 21
166.969127498021
 31
0.0
 11
97.06997737429072
 21
166.9712422152611
 31
0.0
 11
96.99717277359994
 21
166.974952081789
 31
0.0
 11
96.92123655325545
 21
166.9819203872664
 31
0.0
 11
96.84563631618374
 21
166.9920986375783
 31
0.0
 11
96.77424009478995
 21
167.0045926026671
 31
0.0
 11
96.70345169018853
 21
167.0201070998638
 31
0.0
 11
96.63871250108053
 21
167.0374802753446
 31
0.0
 11
96.57493910352625
 21
167.058126445692
 31
0.0
 11
96.51873363928692
 21
167.0798220290001
 31
0.0
 11
96.46400334611212
 21
167.1050014764787
 31
0.0
 11
96.41788433638354
 21
167.1302961091254
 31
0.0
 11
96.37401514479905
 21
167.1593079181333
 31
0.0
 11
96.33914610760274
 21
167.1874601644049
 31
0.0
 11
96.30770874554764
 21
167.2193956969064
 31
0.0
 11
96.28484316884008
 21
167.2498227460377
 31
0.0
 11
96.26709883474643
 21
167.283439076046
 31
0.0
 11
96.25701426146003
 21
167.3158289807822
 31
0.0
 11
96.25341932398564
 21
167.3494921298844
 31
0.0
 11
96.25700772307417
 21
167.3831558205902
 31
0.0
 11
96.26708585827743
 21
167.4155478698052
 31
0.0
 11
96.28482332512118
 21
167.4491686526005
 31
0.0
 11
96.30768318689314
 21
167.4795992255767
 31
0.0
 11
96.33690575285823
 21
167.5095377796743
 31
0.0
 11
96.36917753609305
 21
167.5361433253641
 31
0.0
 11
96.4072398277828
 21
167.5622164833399
 31
0.0
 11
96.44718016836595
 21
167.5853212375242
 31
0.0
 11
96.50996672137009
 21
167.6155190314918
 31
0.0
 11
96.57488185816925
 21
167.6409209714168
 31
0.0
 11
96.69890941601156
 21
167.6778862449262
 31
0.0
 11
96.82580010869992
 21
167.7038488322051
 31
0.0
 11
96.9112442928542
 21
167.7160793826359
 31
0.0
 11
96.99709918038752
 21
167.7241782820471
 31
0.0
 11
97.06993556964424
 21
167.7278600603252
 31
0.0
 11
97.14287551851803
 21
167.7299475064907
 31
0.0
  0
SPLINE
  5
1FD
330
66
100
AcDbEntity
  8
1
  6
Continuous
 62
     7
100
AcDbSpline
210
0.0
220
0.0
230
1.0
 70
     8
 71
     3
 72
    43
 73
    39
 74
    37
 42
0.000000001
 43
0.0000000001
 44
0.00000001
 40
0.0
 40
0.0
 40
0.0
 40
0.0
 40
0.0448557901638125
 40
0.0895229444511075
 40
0.1420251082514905
 40
0.1947532401613405
 40
0.2550487154288838
 40
0.3152379064368686
 40
0.3822477338289679
 40
0.4493013354606345
 40
0.5217835067270228
 40
0.5942519415061182
 40
0.6705157160779626
 40
0.7467846702038184
 40
0.8249938919559554
 40
0.9032018536927537
 40
0.9814103232140011
 40
1.059619074000624
 40
1.135885763744263
 40
1.212151681689669
 40
1.284627294180619
 40
1.357102770454543
 40
1.424135757138407
 40
1.491164191024711
 40
1.551405676236845
 40
1.611656884965365
 40
1.664277407453823
 40
1.716849526799906
 40
1.761592188488757
 40
1.806484764559293
 40
1.857965131830176
 40
1.908967480764708
 40
1.92957631956646
 40
1.950229041233207
 40
1.972260135517674
 40
1.994167368541358
 40
2.043389227994406
 40
2.09376412806489
 40
2.09376412806489
 40
2.09376412806489
 40
2.09376412806489
 10
104.9692037130222
 20
164.7578576854817
 30
0.0
 10
104.9798711107336
 20
164.7473814597828
 30
0.0
 10
105.0011610552711
 20
164.7264730749337
 30
0.0
 10
105.03692868725
 20
164.6953371948708
 30
0.0
 10
105.078727731132
 20
164.6676957126618
 30
0.0
 10
105.12751700115
 20
164.6418506523407
 30
0.0
 10
105.1800635807586
 20
164.6178419796075
 30
0.0
 10
105.2383723962147
 20
164.5952512157026
 30
0.0
 10
105.3000298972264
 20
164.5753615193703
 30
0.0
 10
105.3665824114474
 20
164.5576343891833
 30
0.0
 10
105.4356401000758
 20
164.5425230400402
 30
0.0
 10
105.5083058526398
 20
164.5298723874275
 30
0.0
 10
105.5826752977874
 20
164.5200077120591
 30
0.0
 10
105.6592772409554
 20
164.5128863867523
 30
0.0
 10
105.7367386801789
 20
164.5085957466069
 30
0.0
 10
105.814951892151
 20
164.5071742252247
 30
0.0
 10
105.8931646968086
 20
164.5086098137654
 30
0.0
 10
105.9706245677004
 20
164.5129162153803
 30
0.0
 10
106.0472244941917
 20
164.52005731589
 30
0.0
 10
106.1215942763016
 20
164.5299357315684
 30
0.0
 10
106.194261324743
 20
164.5425834955685
 30
0.0
 10
106.2633094192478
 20
164.5577111435115
 30
0.0
 10
106.32984006608
 20
164.5755107614123
 30
0.0
 10
106.3915104986008
 20
164.5954028274569
 30
0.0
 10
106.4498978775792
 20
164.6178113434657
 30
0.0
 10
106.5024000925576
 20
164.641866697918
 30
0.0
 10
106.550847916734
 20
164.6683124707416
 30
0.0
 10
106.5926755756153
 20
164.6957875953867
 30
0.0
 10
106.6298242842483
 20
164.7253551717495
 30
0.0
 10
106.6630241616046
 20
164.7588665856603
 30
0.0
 10
106.6918910473726
 20
164.7989505389054
 30
0.0
 10
106.7081390641013
 20
164.8372130142934
 30
0.0
 10
106.7139769555749
 20
164.8674817257749
 30
0.0
 10
106.7153862022066
 20
164.888589409542
 30
0.0
 10
106.7139726510381
 20
164.91013787631
 30
0.0
 10
106.7076564125904
 20
164.9406688729364
 30
0.0
 10
106.6896889272545
 20
164.9775748321136
 30
0.0
 10
106.6703873971063
 20
165.0045723329338
 30
0.0
 10
106.6606249011401
 20
165.0182273575671
 30
0.0
 11
104.9692037130222
 21
164.7578576854817
 31
0.0
 11
105.0015211140527
 21
164.7267509786521
 31
0.0
 11
105.0355101122736
 21
164.6977699067085
 31
0.0
 11
105.0790812681885
 21
164.6684777356907
 31
0.0
 11
105.1254983135868
 21
164.643463465054
 31
0.0
 11
105.1803259001026
 21
164.6183740228626
 31
0.0
 11
105.2364340710009
 21
164.5965884342673
 31
0.0
 11
105.3001770401191
 21
164.5759208064156
 31
0.0
 11
105.3649466576631
 21
164.5585690884391
 31
0.0
 11
105.4357441768774
 21
164.5430327953591
 31
0.0
 11
105.5071312836584
 21
164.5305606261535
 31
0.0
 11
105.5827289358932
 21
164.5205028794376
 31
0.0
 11
105.6586677410746
 21
164.5134140703642
 31
0.0
 11
105.7367567745726
 21
164.5090798808494
 31
0.0
 11
105.8149516713343
 21
164.5076504104923
 31
0.0
 11
105.8931468116058
 21
164.509094269924
 31
0.0
 11
105.9712344663001
 21
164.5134447724264
 31
0.0
 11
106.0471693392259
 21
164.5205513206211
 31
0.0
 11
106.12276755233
 21
164.5306210974112
 31
0.0
 11
106.1941611765085
 21
164.5430976683513
 31
0.0
 11
106.264946673284
 21
164.5586574915038
 31
0.0
 11
106.3296829342619
 21
164.576053979889
 31
0.0
 11
106.3934517885186
 21
164.5967020830566
 31
0.0
 11
106.4496514320623
 21
164.6183962434486
 31
0.0
 11
106.5043783351335
 21
164.643598906407
 31
0.0
 11
106.5504971465064
 21
164.6689361243268
 31
0.0
 11
106.5943558661418
 21
164.6979230253082
 31
0.0
 11
106.6292052821223
 21
164.7259841009434
 31
0.0
 11
106.6606504597945
 21
164.7580238288968
 31
0.0
 11
106.6903328781098
 21
164.8000854767532
 31
0.0
 11
106.7096545639838
 21
164.8472862394691
 31
0.0
 11
106.7135520591439
 21
164.8675231799037
 31
0.0
 11
106.714914322702
 21
164.8881309245891
 31
0.0
 11
106.7134627356721
 21
164.9101141455902
 31
0.0
 11
106.7089680483652
 21
164.9315553361737
 31
0.0
 11
106.6887423655015
 21
164.9764297537376
 31
0.0
 11
106.6606249011401
 21
165.0182273575671
 31
0.0
  0
SPLINE
  5
1FE
330
66
100
AcDbEntity
  8
1
  6
Continuous
 62
     7
100
AcDbSpline
210
0.0
220
0.0
230
1.0
 70
     8
 71
     3
 72
    27
 73
    23
 74
    21
 42
0.000000001
 43
0.0000000001
 44
0.00000001
 40
0.0
 40
0.0
 40
0.0
 40
0.0
 40
0.0340794409750356
 40
0.0675402528098968
 40
0.1486179150034533
 40
0.233182978217801
 40
0.3468645482932282
 40
0.4587323364806618
 40
0.5978897934231584
 40
0.737665840965648
 40
0.8922263830692592
 40
1.046563329381495
 40
1.200901780637814
 40
1.355460863749585
 40
1.495230670999064
 40
1.634394107566075
 40
1.746277737395578
 40
1.859945121254407
 40
1.944482087465458
 40
2.025576304278998
 40
2.0589711253476
 40
2.092973121985973
 40
2.092973121985973
 40
2.092973121985973
 40
2.092973121985973
 10
102.4534193107288
 20
164.7251990582569
 30
0.0
 10
102.4549796573311
 20
164.7139502315763
 30
0.0
 10
102.4580720401802
 20
164.6916567754211
 30
0.0
 10
102.4696947052117
 20
164.6432243116618
 30
0.0
 10
102.5082410578611
 20
164.5865691362003
 30
0.0
 10
102.5804725004139
 20
164.5273433345473
 30
0.0
 10
102.6698816926693
 20
164.4744661433414
 30
0.0
 10
102.7828473167194
 20
164.4288124958411
 30
0.0
 10
102.908164433415
 20
164.3924722915141
 30
0.0
 10
103.0502221089707
 20
164.3651563755777
 30
0.0
 10
103.1990056982514
 20
164.3484936578219
 30
0.0
 10
103.3534573670818
 20
164.3430900606677
 30
0.0
 10
103.5079075004481
 20
164.3485233375946
 30
0.0
 10
103.6566858365583
 20
164.3652150119294
 30
0.0
 10
103.7987369263568
 20
164.3925626505837
 30
0.0
 10
103.9240514138125
 20
164.4289288313866
 30
0.0
 10
104.0370163588617
 20
164.4745898743686
 30
0.0
 10
104.1264099116532
 20
164.5274809197963
 30
0.0
 10
104.1985858216967
 20
164.5867672266916
 30
0.0
 10
104.2371021985042
 20
164.6433845626436
 30
0.0
 10
104.2488275954253
 20
164.6917436605058
 30
0.0
 10
104.25198094613
 20
164.7139804813451
 30
0.0
 10
104.253571818673
 20
164.7251990582569
 30
0.0
 11
102.4534193107288
 21
164.7251990582569
 31
0.0
 11
102.4586578310545
 21
164.6915246388124
 31
0.0
 11
102.4670988214896
 21
164.6591460044185
 31
0.0
 11
102.5101452151793
 21
164.5904394199569
 31
0.0
 11
102.5740151315422
 21
164.5350148465058
 31
0.0
 11
102.6716327173194
 21
164.4767541738362
 31
0.0
 11
102.7749390902694
 21
164.4338333740646
 31
0.0
 11
102.9084546016013
 21
164.3946108600089
 31
0.0
 11
103.0456363029269
 21
164.3678055659508
 31
0.0
 11
103.1992199284497
 21
164.3504553366349
 31
0.0
 11
103.3534566906028
 21
164.3448953502896
 31
0.0
 11
103.5076938811563
 21
164.3504851476965
 31
0.0
 11
103.6612725715984
 21
164.3678660372086
 31
0.0
 11
103.7984423952612
 21
164.3946995608624
 31
0.0
 11
103.931956807787
 21
164.4339470228539
 31
0.0
 11
104.0352733504424
 21
164.4768846327753
 31
0.0
 11
104.1328608854104
 21
164.5351679651055
 31
0.0
 11
104.1966754907881
 21
164.5906133836478
 31
0.0
 11
104.2397528076787
 21
164.6593201244656
 31
0.0
 11
104.2482472454713
 21
164.6916165477172
 31
0.0
 11
104.253571818673
 21
164.7251990582569
 31
0.0
  0
SPLINE
  5
1FF
330
66
100
AcDbEntity
  8
1
  6
Continuous
 62
     7
100
AcDbSpline
210
0.0
220
0.0
230
1.0
 70
     8
 71
     3
 72
    43
 73
    39
 74
    37
 42
0.000000001
 43
0.0000000001
 44
0.00000001
 40
0.0
 40
0.0
 40
0.0
 40
0.0
 40
0.0448557901637613
 40
0.0895229444510239
 40
0.1420251082514187
 40
0.1947532401612562
 40
0.2550487154287865
 40
0.3152379064366918
 40
0.3822477338288587
 40
0.4493013354606488
 40
0.5217835067270232
 40
0.5942519415060487
 40
0.6705157160778931
 40
0.746784670203749
 40
0.8249938919558717
 40
0.90320185369267
 40
0.9814103232138737
 40
1.059619074000542
 40
1.135885763744111
 40
1.212151681689488
 40
1.284627294180481
 40
1.35710277045446
 40
1.424135757138297
 40
1.491164191024533
 40
1.551405676236707
 40
1.611656884965292
 40
1.664277407453662
 40
1.716849526799733
 40
1.76159218848871
 40
1.806484764559286
 40
1.857965131830063
 40
1.908967480764574
 40
1.929576319566344
 40
1.950229041233096
 40
1.972260135517562
 40
1.994167368541246
 40
2.043389227994344
 40
2.093764128064813
 40
2.093764128064813
 40
2.093764128064813
 40
2.093764128064813
 10
101.7376349396771
 20
164.7578576854817
 30
0.0
 10
101.7269675419657
 20
164.7473814597828
 30
0.0
 10
101.7056775974283
 20
164.7264730749336
 30
0.0
 10
101.6699099654494
 20
164.6953371948708
 30
0.0
 10
101.6281109215674
 20
164.6676957126619
 30
0.0
 10
101.5793216515495
 20
164.6418506523407
 30
0.0
 10
101.5267750719408
 20
164.6178419796074
 30
0.0
 10
101.4684662564847
 20
164.5952512157026
 30
0.0
 10
101.406808755473
 20
164.5753615193702
 30
0.0
 10
101.340256241252
 20
164.5576343891833
 30
0.0
 10
101.2711985526235
 20
164.5425230400402
 30
0.0
 10
101.1985328000596
 20
164.5298723874275
 30
0.0
 10
101.124163354912
 20
164.520007712059
 30
0.0
 10
101.0475614117439
 20
164.5128863867523
 30
0.0
 10
100.9700999725205
 20
164.5085957466069
 30
0.0
 10
100.8918867605485
 20
164.5071742252247
 30
0.0
 10
100.8136739558909
 20
164.5086098137654
 30
0.0
 10
100.736214084999
 20
164.5129162153803
 30
0.0
 10
100.6596141585077
 20
164.5200573158901
 30
0.0
 10
100.5852443763978
 20
164.5299357315683
 30
0.0
 10
100.5125773279565
 20
164.5425834955685
 30
0.0
 10
100.4435292334516
 20
164.5577111435115
 30
0.0
 10
100.3769985866195
 20
164.5755107614123
 30
0.0
 10
100.3153281540987
 20
164.595402827457
 30
0.0
 10
100.2569407751203
 20
164.6178113434657
 30
0.0
 10
100.2044385601418
 20
164.641866697918
 30
0.0
 10
100.1559907359655
 20
164.6683124707416
 30
0.0
 10
100.1141630770842
 20
164.6957875953868
 30
0.0
 10
100.077014368451
 20
164.7253551717494
 30
0.0
 10
100.0438144910947
 20
164.7588665856603
 30
0.0
 10
100.0149476053269
 20
164.7989505389055
 30
0.0
 10
99.99869958859833
 20
164.8372130142933
 30
0.0
 10
99.99286169712454
 20
164.8674817257749
 30
0.0
 10
99.99145245049269
 20
164.8885894095421
 30
0.0
 10
99.99286600166126
 20
164.91013787631
 30
0.0
 10
99.99918224010892
 20
164.9406688729365
 30
0.0
 10
100.0171497254449
 20
164.9775748321136
 30
0.0
 10
100.0364512555931
 20
165.0045723329338
 30
0.0
 10
100.0462137515593
 20
165.0182273575671
 30
0.0
 11
101.7376349396771
 21
164.7578576854817
 31
0.0
 11
101.7053175386467
 21
164.7267509786521
 31
0.0
 11
101.6713285404258
 21
164.6977699067085
 31
0.0
 11
101.6277573845109
 21
164.6684777356907
 31
0.0
 11
101.5813403391126
 21
164.643463465054
 31
0.0
 11
101.5265127525968
 21
164.6183740228626
 31
0.0
 11
101.4704045816986
 21
164.5965884342673
 31
0.0
 11
101.4066616125804
 21
164.5759208064156
 31
0.0
 11
101.3418919950362
 21
164.5585690884391
 31
0.0
 11
101.2710944758219
 21
164.5430327953591
 31
0.0
 11
101.199707369041
 21
164.5305606261535
 31
0.0
 11
101.1241097168062
 21
164.5205028794376
 31
0.0
 11
101.0481709116248
 21
164.5134140703642
 31
0.0
 11
100.9700818781268
 21
164.5090798808494
 31
0.0
 11
100.8918869813651
 21
164.5076504104923
 31
0.0
 11
100.8136918410937
 21
164.5090942699239
 31
0.0
 11
100.7356041863993
 21
164.5134447724264
 31
0.0
 11
100.6596693134736
 21
164.5205513206211
 31
0.0
 11
100.5840711003695
 21
164.5306210974112
 31
0.0
 11
100.5126774761909
 21
164.5430976683513
 31
0.0
 11
100.4418919794154
 21
164.5586574915038
 31
0.0
 11
100.3771557184375
 21
164.576053979889
 31
0.0
 11
100.3133868641809
 21
164.5967020830566
 31
0.0
 11
100.2571872206371
 21
164.6183962434486
 31
0.0
 11
100.2024603175659
 21
164.643598906407
 31
0.0
 11
100.1563415061931
 21
164.6689361243268
 31
0.0
 11
100.1124827865577
 21
164.6979230253082
 31
0.0
 11
100.077633370577
 21
164.7259841009434
 31
0.0
 11
100.0461881929048
 21
164.7580238288968
 31
0.0
 11
100.0165057745897
 21
164.8000854767532
 31
0.0
 11
99.99718408871573
 21
164.8472862394691
 31
0.0
 11
99.99328659355551
 21
164.8675231799037
 31
0.0
 11
99.99192432999735
 21
164.8881309245891
 31
0.0
 11
99.99337591702727
 21
164.9101141455902
 31
0.0
 11
99.99787060433414
 21
164.9315553361737
 31
0.0
 11
100.0180962871978
 21
164.9764297537376
 31
0.0
 11
100.0462137515593
 21
165.0182273575671
 31
0.0
  0
ENDBLK
  5
68
330
66
100
AcDbEntity
  8
0
100
AcDbBlockEnd
  0
BLOCK
  5
6A
330
69
100
AcDbEntity
  8
0
100
AcDbBlockBegin
  2
Y13-0A
 70
     0
 10
712.8099100107079
 20
1312.540318222332
 30
0.0
  3
Y13-0A
  1

  0
LINE
  5
200
330
69
100
AcDbEntity
  8
1
  6
Continuous
 62
     7
100
AcDbLine
 10
248.8534193263499
 20
219.9151220513302
 30
0.0
 11
248.8534193263499
 21
193.9151220513302
 31
0.0
  0
LINE
  5
201
330
69
100
AcDbEntity
  8
1
  6
Continuous
 62
     7
100
AcDbLine
 10
116.35341932635
 20
383.4885788563191
 30
0.0
 11
109.6990510050262
 21
383.4885788563191
 31
0.0
  0
LINE
  5
202
330
69
100
AcDbEntity
  8
1
  6
Continuous
 62
     7
100
AcDbLine
 10
116.35341932635
 20
383.4885788563191
 30
0.0
 11
116.35341932635
 21
382.9885788563191
 31
0.0
  0
LINE
  5
203
330
69
100
AcDbEntity
  8
1
  6
Continuous
 62
     7
100
AcDbLine
 10
261.3534193263499
 20
222.4929647685987
 30
0.0
 11
261.3534193263499
 21
229.1830712437612
 31
0.0
  0
LINE
  5
204
330
69
100
AcDbEntity
  8
1
  6
Continuous
 62
     2
100
AcDbLine
 10
250.2618008595763
 20
219.1021220513302
 30
0.0
 11
248.3534193263498
 21
219.1021220513302
 31
0.0
  0
LINE
  5
205
330
69
100
AcDbEntity
  8
1
  6
Continuous
 62
     7
100
AcDbLine
 10
248.8534193263499
 20
193.9151220513302
 30
0.0
 11
248.3534193263498
 21
193.9151220513302
 31
0.0
  0
LINE
  5
206
330
69
100
AcDbEntity
  8
1
  6
Continuous
 62
     7
100
AcDbLine
 10
261.3534193263499
 20
230.9151220513302
 30
0.0
 11
261.3534193263499
 21
229.1830712437612
 31
0.0
  0
LINE
  5
207
330
69
100
AcDbEntity
  8
1
  6
Continuous
 62
     2
100
AcDbLine
 10
261.3534193263499
 20
229.1830712437612
 30
0.0
 11
262.3534193263499
 21
230.9151220513302
 31
0.0
  0
LINE
  5
208
330
69
100
AcDbEntity
  8
1
  6
Continuous
 62
     2
100
AcDbLine
 10
262.3534193263499
 20
230.9151220513302
 30
0.0
 11
262.3534193263499
 21
232.3448133395151
 31
0.0
  0
LINE
  5
209
330
69
100
AcDbEntity
  8
1
  6
Continuous
 62
     7
100
AcDbLine
 10
261.3534193263499
 20
230.9151220513302
 30
0.0
 11
262.3534193263499
 21
230.9151220513302
 31
0.0
  0
LINE
  5
20A
330
69
100
AcDbEntity
  8
1
  6
Continuous
 62
     7
100
AcDbLine
 10
261.3534193263499
 20
232.3448133395151
 30
0.0
 11
261.3534193263499
 21
230.9151220513302
 31
0.0
  0
LINE
  5
20B
330
69
100
AcDbEntity
  8
1
  6
Continuous
 62
     7
100
AcDbLine
 10
285.3534193263499
 20
230.9151220513302
 30
0.0
 11
285.3534193263499
 21
232.3448133395151
 31
0.0
  0
LINE
  5
20C
102
{ACAD_REACTORS
330
248
102
}
330
69
100
AcDbEntity
  8
1
  6
Continuous
 62
     7
100
AcDbLine
 10
284.3534193263499
 20
230.9151220513302
 30
0.0
 11
285.3534193263499
 21
230.9151220513302
 31
0.0
  0
LINE
  5
20D
330
69
100
AcDbEntity
  8
1
  6
Continuous
 62
     2
100
AcDbLine
 10
284.3534193263499
 20
232.3448133395151
 30
0.0
 11
284.3534193263499
 21
230.9151220513302
 31
0.0
  0
LINE
  5
20E
102
{ACAD_REACTORS
330
248
102
}
330
69
100
AcDbEntity
  8
1
  6
Continuous
 62
     2
100
AcDbLine
 10
284.3534193263499
 20
230.9151220513302
 30
0.0
 11
285.3534193263499
 21
229.1830712437612
 31
0.0
  0
LINE
  5
20F
102
{ACAD_REACTORS
330
248
102
}
330
69
100
AcDbEntity
  8
1
  6
Continuous
 62
     7
100
AcDbLine
 10
285.3534193263499
 20
229.1830712437612
 30
0.0
 11
285.3534193263499
 21
230.9151220513302
 31
0.0
  0
LINE
  5
210
330
69
100
AcDbEntity
  8
1
  6
Continuous
 62
     7
100
AcDbLine
 10
340.3534193263499
 20
196.4151220513302
 30
0.0
 11
341.3534193263499
 21
197.4151220513302
 31
0.0
  0
LINE
  5
211
330
69
100
AcDbEntity
  8
1
  6
Continuous
 62
     7
100
AcDbLine
 10
340.3534193263499
 20
196.4151220513302
 30
0.0
 11
327.3534193263498
 21
196.4151220513302
 31
0.0
  0
LINE
  5
212
330
69
100
AcDbEntity
  8
1
  6
Continuous
 62
     2
100
AcDbLine
 10
341.3534193263499
 20
197.4151220513302
 30
0.0
 11
327.3534193263496
 21
197.4151220513304
 31
0.0
  0
LINE
  5
213
330
69
100
AcDbEntity
  8
1
  6
Continuous
 62
     2
100
AcDbLine
 10
327.3534193263496
 20
216.4151220513298
 30
0.0
 11
341.3534193263499
 21
216.4151220513302
 31
0.0
  0
LINE
  5
214
330
69
100
AcDbEntity
  8
1
  6
Continuous
 62
     7
100
AcDbLine
 10
341.3534193263499
 20
216.4151220513302
 30
0.0
 11
340.3534193263499
 21
217.4151220513302
 31
0.0
  0
LINE
  5
215
330
69
100
AcDbEntity
  8
1
  6
Continuous
 62
     7
100
AcDbLine
 10
341.3534193263499
 20
216.4151220513302
 30
0.0
 11
341.3534193263499
 21
197.4151220513302
 31
0.0
  0
LINE
  5
216
330
69
100
AcDbEntity
  8
1
  6
Continuous
 62
     7
100
AcDbLine
 10
93.85341932635004
 20
475.9885788563191
 30
0.0
 11
92.85341932635004
 21
474.9885788563191
 31
0.0
  0
LINE
  5
217
330
69
100
AcDbEntity
  8
1
  6
Continuous
 62
     7
100
AcDbLine
 10
113.85341932635
 20
474.9885788563191
 30
0.0
 11
112.85341932635
 21
475.9885788563191
 31
0.0
  0
LINE
  5
218
330
69
100
AcDbEntity
  8
1
  6
Continuous
 62
     7
100
AcDbLine
 10
112.85341932635
 20
475.9885788563191
 30
0.0
 11
93.85341932635004
 21
475.9885788563191
 31
0.0
  0
LINE
  5
219
330
69
100
AcDbEntity
  8
1
  6
Continuous
 62
     7
100
AcDbLine
 10
92.85341932635004
 20
474.9885788563191
 30
0.0
 11
113.85341932635
 21
474.9885788563191
 31
0.0
  0
LINE
  5
21A
330
69
100
AcDbEntity
  8
1
  6
Continuous
 62
     7
100
AcDbLine
 10
92.85341932635004
 20
427.8317136893037
 30
0.0
 11
92.85341932635004
 21
433.9885788563191
 31
0.0
  0
LINE
  5
21B
330
69
100
AcDbEntity
  8
1
  6
Continuous
 62
     7
100
AcDbLine
 10
113.85341932635
 20
427.8317136893037
 30
0.0
 11
113.85341932635
 21
433.9885788563191
 31
0.0
  0
LINE
  5
21C
330
69
100
AcDbEntity
  8
1
  6
Continuous
 62
     7
100
AcDbLine
 10
285.3534193263499
 20
229.1830712437612
 30
0.0
 11
285.3534193263499
 21
221.4151220513302
 31
0.0
  0
LINE
  5
21D
330
69
100
AcDbEntity
  8
1
  6
Continuous
 62
     2
100
AcDbLine
 10
91.3534193263497
 20
229.1830712437612
 30
0.0
 11
92.3534193263497
 21
230.9151220513302
 31
0.0
  0
LINE
  5
21E
330
69
100
AcDbEntity
  8
1
  6
Continuous
 62
     2
100
AcDbLine
 10
92.3534193263497
 20
230.9151220513302
 30
0.0
 11
92.3534193263497
 21
232.3469424629416
 31
0.0
  0
LINE
  5
21F
330
69
100
AcDbEntity
  8
1
  6
Continuous
 62
     7
100
AcDbLine
 10
91.3534193263497
 20
230.9151220513302
 30
0.0
 11
92.3534193263497
 21
230.9151220513302
 31
0.0
  0
LINE
  5
220
330
69
100
AcDbEntity
  8
1
  6
Continuous
 62
     7
100
AcDbLine
 10
115.3534193263497
 20
229.1830712437612
 30
0.0
 11
115.3534193263497
 21
232.3469424629416
 31
0.0
  0
LINE
  5
221
330
69
100
AcDbEntity
  8
1
  6
Continuous
 62
     7
100
AcDbLine
 10
114.3534193263497
 20
230.9151220513302
 30
0.0
 11
115.3534193263497
 21
230.9151220513302
 31
0.0
  0
LINE
  5
222
330
69
100
AcDbEntity
  8
1
  6
Continuous
 62
     2
100
AcDbLine
 10
114.3534193263497
 20
230.9151220513302
 30
0.0
 11
115.3534193263497
 21
229.1830712437612
 31
0.0
  0
LINE
  5
223
330
69
100
AcDbEntity
  8
1
  6
Continuous
 62
     7
100
AcDbLine
 10
115.3534193263497
 20
229.1830712437612
 30
0.0
 11
115.6630201567379
 21
228.6468268754633
 31
0.0
  0
LINE
  5
224
330
69
100
AcDbEntity
  8
1
  6
Continuous
 62
     7
100
AcDbLine
 10
115.6630201567379
 20
228.6468268754633
 30
0.0
 11
116.1686834386103
 21
212.7184334964808
 31
0.0
  0
LINE
  5
225
330
69
100
AcDbEntity
  8
1
  6
Continuous
 62
     7
100
AcDbLine
 10
91.3534193263497
 20
229.1830712437612
 30
0.0
 11
91.04381849596149
 21
228.6468268754634
 31
0.0
  0
LINE
  5
226
330
69
100
AcDbEntity
  8
1
  6
Continuous
 62
     7
100
AcDbLine
 10
91.04381849596149
 20
228.6468268754634
 30
0.0
 11
90.5381552140887
 21
212.7184334964801
 31
0.0
  0
LINE
  5
227
330
69
100
AcDbEntity
  8
1
  6
Continuous
 62
     7
100
AcDbLine
 10
92.3534193263497
 20
230.9151220513302
 30
0.0
 11
114.3534193263497
 21
230.9151220513302
 31
0.0
  0
LINE
  5
228
330
69
100
AcDbEntity
  8
1
  6
Continuous
 62
     7
100
AcDbLine
 10
91.3534193263497
 20
232.3469424629416
 30
0.0
 11
91.3534193263497
 21
229.1830712437612
 31
0.0
  0
LINE
  5
229
330
69
100
AcDbEntity
  8
1
  6
Continuous
 62
     2
100
AcDbLine
 10
114.3534193263497
 20
232.3469424629416
 30
0.0
 11
114.3534193263497
 21
230.9151220513302
 31
0.0
  0
LINE
  5
22A
330
69
100
AcDbEntity
  8
1
  6
Continuous
 62
     7
100
AcDbLine
 10
92.85341932635004
 20
461.9885788563191
 30
0.0
 11
92.85341932635004
 21
474.9885788563191
 31
0.0
  0
LINE
  5
22B
330
69
100
AcDbEntity
  8
1
  6
Continuous
 62
     2
100
AcDbLine
 10
93.85341932635004
 20
461.9885788563191
 30
0.0
 11
93.85341932635004
 21
475.9885788563191
 31
0.0
  0
LINE
  5
22C
330
69
100
AcDbEntity
  8
1
  6
Continuous
 62
     2
100
AcDbLine
 10
112.85341932635
 20
461.9885788563191
 30
0.0
 11
112.85341932635
 21
475.9885788563191
 31
0.0
  0
LINE
  5
22D
330
69
100
AcDbEntity
  8
1
  6
Continuous
 62
     7
100
AcDbLine
 10
113.85341932635
 20
461.9885788563191
 30
0.0
 11
113.85341932635
 21
474.9885788563191
 31
0.0
  0
LINE
  5
22E
330
69
100
AcDbEntity
  8
1
  6
Continuous
 62
     2
100
AcDbLine
 10
115.5404193263501
 20
382.9885788563191
 30
0.0
 11
115.5404193263501
 21
384.8969603895456
 31
0.0
  0
LINE
  5
22F
330
69
100
AcDbEntity
  8
1
  6
Continuous
 62
     2
100
AcDbLine
 10
91.16641932635002
 20
382.9885788563191
 30
0.0
 11
91.16641932635002
 21
384.8969603895456
 31
0.0
  0
LINE
  5
230
330
69
100
AcDbEntity
  8
1
  6
Continuous
 62
     7
100
AcDbLine
 10
90.35341932635004
 20
382.9885788563191
 30
0.0
 11
90.35341932635004
 21
383.4885788563191
 31
0.0
  0
LINE
  5
231
330
69
100
AcDbEntity
  8
1
  6
Continuous
 62
     7
100
AcDbLine
 10
97.00778764767392
 20
383.4885788563191
 30
0.0
 11
90.35341932635004
 21
383.4885788563191
 31
0.0
  0
LINE
  5
232
330
69
100
AcDbEntity
  8
1
  6
Continuous
 62
     7
100
AcDbLine
 10
248.3534193263498
 20
219.9151220513302
 30
0.0
 11
248.8534193263499
 21
219.9151220513302
 31
0.0
  0
LINE
  5
233
330
69
100
AcDbEntity
  8
1
  6
Continuous
 62
     2
100
AcDbLine
 10
248.3534193263498
 20
194.7281220513302
 30
0.0
 11
250.2618008595763
 21
194.7281220513302
 31
0.0
  0
LINE
  5
234
330
69
100
AcDbEntity
  8
1
  6
Continuous
 62
     7
100
AcDbLine
 10
299.3534193263498
 20
217.4151220513302
 30
0.0
 11
289.3534193263499
 21
217.4151220513302
 31
0.0
  0
LINE
  5
235
330
69
100
AcDbEntity
  8
1
  6
Continuous
 62
     7
100
AcDbLine
 10
299.3534193263498
 20
196.4151220513302
 30
0.0
 11
293.1965541593344
 21
196.4151220513302
 31
0.0
  0
LINE
  5
236
330
69
100
AcDbEntity
  8
1
  6
Continuous
 62
     7
100
AcDbLine
 10
327.3534193263498
 20
217.4151220513302
 30
0.0
 11
340.3534193263499
 21
217.4151220513302
 31
0.0
  0
LINE
  5
237
330
69
100
AcDbEntity
  8
1
  6
Continuous
 62
     7
100
AcDbLine
 10
340.3534193263499
 20
217.4151220513302
 30
0.0
 11
340.3534193263499
 21
196.4151220513302
 31
0.0
  0
ARC
  5
238
330
69
100
AcDbEntity
  8
1
  6
Continuous
 62
     7
100
AcDbCircle
 10
130.35341932635
 20
407.9885788563191
 30
0.0
 40
39.99999999999997
100
AcDbArc
 50
191.2154399726493
 51
197.14772915687
  0
ARC
  5
239
330
69
100
AcDbEntity
  8
1
  6
Continuous
 62
     7
100
AcDbCircle
 10
77.68811320390103
 20
391.7385788563191
 30
0.0
 40
15.11530612244895
100
AcDbArc
 50
333.0875481918084
 51
17.1477291568701
  0
ARC
  5
23A
330
69
100
AcDbEntity
  8
1
  6
Continuous
 62
     7
100
AcDbCircle
 10
77.68811320390103
 20
391.7385788563191
 30
0.0
 40
15.115306122449
100
AcDbArc
 50
326.9203519975422
 51
333.0875481918084
  0
ARC
  5
23B
330
69
100
AcDbEntity
  8
1
  6
Continuous
 62
     7
100
AcDbCircle
 10
129.0187254487989
 20
391.7385788563191
 30
0.0
 40
15.11530612244877
100
AcDbArc
 50
206.9124518081919
 51
213.079648002458
  0
ARC
  5
23C
330
69
100
AcDbEntity
  8
1
  6
Continuous
 62
     7
100
AcDbCircle
 10
129.0187254487989
 20
391.7385788563191
 30
0.0
 40
15.11530612244887
100
AcDbArc
 50
162.8522708431298
 51
206.9124518081919
  0
ARC
  5
23D
330
69
100
AcDbEntity
  8
1
  6
Continuous
 62
     7
100
AcDbCircle
 10
257.1034193263499
 20
232.5804281737792
 30
0.0
 40
15.11530612244899
100
AcDbArc
 50
243.0875481918081
 51
265.7478988069223
  0
ARC
  5
23E
330
69
100
AcDbEntity
  8
1
  6
Continuous
 62
     7
100
AcDbCircle
 10
256.3534193263499
 20
222.4929647685987
 30
0.0
 40
4.99999999999988
100
AcDbArc
 50
265.7478988069223
 51
0.0
  0
ARC
  5
23F
330
69
100
AcDbEntity
  8
1
  6
Continuous
 62
     7
100
AcDbCircle
 10
257.1034193263499
 20
232.5804281737792
 30
0.0
 40
15.11530612244902
100
AcDbArc
 50
236.9203519975421
 51
243.0875481918081
  0
ARC
  5
240
330
69
100
AcDbEntity
  8
1
  6
Continuous
 62
     7
100
AcDbCircle
 10
257.1034193263499
 20
181.2498159288812
 30
0.0
 40
15.11530612244894
100
AcDbArc
 50
72.85227084313007
 51
116.9124518081919
  0
ARC
  5
241
330
69
100
AcDbEntity
  8
1
  6
Continuous
 62
     7
100
AcDbCircle
 10
257.1034193263499
 20
181.2498159288812
 30
0.0
 40
15.11530612244899
100
AcDbArc
 50
116.9124518081919
 51
123.0796480024579
  0
ARC
  5
242
330
69
100
AcDbEntity
  8
1
  6
Continuous
 62
     7
100
AcDbCircle
 10
273.3534193263499
 20
233.9151220513302
 30
0.0
 40
40.00000000000006
100
AcDbArc
 50
252.8522708431299
 51
284.3615115629165
  0
ARC
  5
243
330
69
100
AcDbEntity
  8
1
  6
Continuous
 62
     7
100
AcDbCircle
 10
76.35341932635004
 20
407.9885788563191
 30
0.0
 40
40.00000000000001
100
AcDbArc
 50
342.85227084313
 51
348.7845600273496
  0
ARC
  5
244
330
69
100
AcDbEntity
  8
1
  6
Continuous
 62
     7
100
AcDbCircle
 10
52.85341932635004
 20
427.8317136893037
 30
0.0
 40
39.99999999999999
100
AcDbArc
 50
354.1689399423541
 51
0.0
  0
ARC
  5
245
330
69
100
AcDbEntity
  8
1
  6
Continuous
 62
     7
100
AcDbCircle
 10
289.3534193263499
 20
221.4151220513302
 30
0.0
 40
4.0
100
AcDbArc
 50
180.0
 51
270.0
  0
ARC
  5
246
330
69
100
AcDbEntity
  8
1
  6
Continuous
 62
     7
100
AcDbCircle
 10
293.1965541593344
 20
156.4151220513302
 30
0.0
 40
40.0
100
AcDbArc
 50
90.0
 51
104.3615115629167
  0
ARC
  5
247
330
69
100
AcDbEntity
  8
1
  6
Continuous
 62
     7
100
AcDbCircle
 10
153.85341932635
 20
427.8317136893037
 30
0.0
 40
40.00000000000001
100
AcDbArc
 50
180.0
 51
185.8310600576459
  0
HATCH
  5
248
330
69
100
AcDbEntity
  8
1
  6
Continuous
 62
     2
100
AcDbHatch
 10
0.0
 20
0.0
 30
0.0
210
0.0
220
0.0
230
1.0
  2
CUSTOM0
 70
     0
 71
     1
 91
        1
 92
        1
 93
        3
 72
     1
 10
284.3534193263499
 20
230.9151220513302
 11
285.3534193263499
 21
229.1830712437612
 72
     1
 10
285.3534193263499
 20
229.1830712437612
 11
285.3534193263499
 21
230.9151220513302
 72
     1
 10
285.3534193263499
 20
230.9151220513302
 11
284.3534193263499
 21
230.9151220513302
 97
        3
330
20F
330
20E
330
20C
 75
     1
 76
     2
 52
45.0
 41
1.0
 77
     0
 78
     1
 53
45.0
 43
0.0
 44
0.0
 45
-2.82842712474619
 46
0.0000000000000002
 79
     0
 98
        1
 10
0.0
 20
0.0
  0
ENDBLK
  5
6B
330
69
100
AcDbEntity
  8
0
100
AcDbBlockEnd
  0
BLOCK
  5
269
330
260
100
AcDbEntity
  8
0
100
AcDbBlockBegin
  2
*D12
 70
     1
 10
0.0
 20
0.0
 30
0.0
  3
*D12
  1

  0
LINE
  5
261
330
260
100
AcDbEntity
  8
1
  6
Continuous
 62
     2
100
AcDbLine
 10
190.3228334675328
 20
134.6417990254756
 30
0.0
 11
203.011142486046
 21
128.725143361106
 31
0.0
  0
LINE
  5
262
330
260
100
AcDbEntity
  8
1
  6
Continuous
 62
     2
100
AcDbLine
 10
175.4593857601317
 20
141.5727385180229
 30
0.0
 11
190.3228334675328
 21
134.6417990254756
 31
0.0
  0
LINE
  5
263
330
260
100
AcDbEntity
  8
1
  6
Continuous
 62
     2
100
AcDbLine
 10
141.8260865163678
 20
157.2562035244083
 30
0.0
 11
175.4593857601317
 21
141.5727385180229
 31
0.0
  0
LINE
  5
264
330
260
100
AcDbEntity
  8
1
  6
Continuous
 62
     2
100
AcDbLine
 10
204.8127017211582
 20
165.7154217726481
 30
0.0
 11
189.4775969440514
 21
132.8291834514023
 31
0.0
  0
LINE
  5
265
330
260
100
AcDbEntity
  8
1
  6
Continuous
 62
     2
100
AcDbLine
 10
189.9492540137572
 20
172.6463612651954
 30
0.0
 11
174.6141492366503
 21
139.7601229439496
 31
0.0
  0
SOLID
  5
266
330
260
100
AcDbEntity
  8
1
 62
     2
100
AcDbTrace
 10
168.7257600030857
 20
143.6958425639838
 30
0.0
 11
169.5047024986646
 21
145.3662901364317
 31
0.0
 12
175.4593857601317
 22
141.5727385180229
 32
0.0
 13
175.4593857601317
 23
141.5727385180229
 33
0.0
  0
SOLID
  5
267
330
260
100
AcDbEntity
  8
1
 62
     2
100
AcDbTrace
 10
197.0564592245788
 20
132.5186949795147
 30
0.0
 11
196.277516729
 21
130.8482474070668
 31
0.0
 12
190.3228334675328
 22
134.6417990254756
 32
0.0
 13
190.3228334675328
 23
134.6417990254756
 33
0.0
  0
MTEXT
  5
268
330
260
100
AcDbEntity
  8
1
 62
     7
100
AcDbMText
 10
145.3779345365851
 20
158.579069973177
 30
0.0
 40
7.0
 41
0.0
 71
     7
 72
     1
  1
\C7;{\Fgdt;n}\C7;16,5
  7
CONVERTER_12
 11
0.9063077870366549
 21
-0.4226182617406888
 31
0.0
 73
     1
 44
0.60024009603842
  0
ENDBLK
  5
26A
330
260
100
AcDbEntity
  8
0
100
AcDbBlockEnd
  0
BLOCK
  5
274
330
26D
100
AcDbEntity
  8
0
100
AcDbBlockBegin
  2
*D13
 70
     1
 10
0.0
 20
0.0
 30
0.0
  3
*D13
  1

  0
LINE
  5
26E
330
26D
100
AcDbEntity
  8
1
  6
Continuous
 62
     2
100
AcDbLine
 10
196.3244322131059
 20
143.7064284165653
 30
0.0
 11
273.3534193263498
 21
143.7064284165653
 31
0.0
  0
LINE
  5
26F
330
26D
100
AcDbEntity
  8
1
  6
Continuous
 62
     2
100
AcDbLine
 10
273.3534193263498
 20
190.8420026668849
 30
0.0
 11
273.3534193263498
 21
141.7064284165653
 31
0.0
  0
LINE
  5
270
330
26D
100
AcDbEntity
  8
1
  6
Continuous
 62
     2
100
AcDbLine
 10
196.3244322131059
 20
166.9151220513303
 30
0.0
 11
196.3244322131059
 21
141.7064284165653
 31
0.0
  0
SOLID
  5
271
330
26D
100
AcDbEntity
  8
1
 62
     2
100
AcDbTrace
 10
203.3244322131059
 20
144.6279958996771
 30
0.0
 11
203.3244322131059
 21
142.7848609334535
 31
0.0
 12
196.3244322131059
 22
143.7064284165653
 32
0.0
 13
196.3244322131059
 23
143.7064284165653
 33
0.0
  0
SOLID
  5
272
330
26D
100
AcDbEntity
  8
1
 62
     2
100
AcDbTrace
 10
266.3534193263498
 20
142.7848609334535
 30
0.0
 11
266.3534193263498
 21
144.6279958996771
 31
0.0
 12
273.3534193263498
 22
143.7064284165653
 32
0.0
 13
273.3534193263498
 23
143.7064284165653
 33
0.0
  0
MTEXT
  5
273
330
26D
100
AcDbEntity
  8
1
 62
     7
100
AcDbMText
 10
229.5889257697278
 20
145.7064284165653
 30
0.0
 40
7.0
 41
0.0
 71
     7
 72
     1
  1
77
  7
CONVERTER_12
 11
0.9999999999970619
 21
2.424068405545306E-6
 31
0.0
 73
     1
 44
0.60024009603842
  0
ENDBLK
  5
275
330
26D
100
AcDbEntity
  8
0
100
AcDbBlockEnd
  0
BLOCK
  5
27F
330
278
100
AcDbEntity
  8
0
100
AcDbBlockBegin
  2
*D14
 70
     1
 10
0.0
 20
0.0
 30
0.0
  3
*D14
  1

  0
LINE
  5
279
330
278
100
AcDbEntity
  8
1
  6
Continuous
 62
     2
100
AcDbLine
 10
171.2223536208015
 20
206.9151220513301
 30
0.0
 11
171.2223536208015
 21
166.9151220513302
 31
0.0
  0
LINE
  5
27A
330
278
100
AcDbEntity
  8
1
  6
Continuous
 62
     2
100
AcDbLine
 10
234.0888463635306
 20
206.9151220513301
 30
0.0
 11
169.2223536208015
 21
206.9151220513301
 31
0.0
  0
LINE
  5
27B
330
278
100
AcDbEntity
  8
1
  6
Continuous
 62
     2
100
AcDbLine
 10
196.3244322131058
 20
166.9151220513302
 30
0.0
 11
169.2223536208015
 21
166.9151220513302
 31
0.0
  0
SOLID
  5
27C
330
278
100
AcDbEntity
  8
1
 62
     2
100
AcDbTrace
 10
172.1439211039133
 20
199.9151220513301
 30
0.0
 11
170.3007861376897
 21
199.9151220513301
 31
0.0
 12
171.2223536208015
 22
206.9151220513301
 32
0.0
 13
171.2223536208015
 23
206.9151220513301
 33
0.0
  0
SOLID
  5
27D
330
278
100
AcDbEntity
  8
1
 62
     2
100
AcDbTrace
 10
170.3007861376897
 20
173.9151220513302
 30
0.0
 11
172.1439211039133
 21
173.9151220513302
 31
0.0
 12
171.2223536208015
 22
166.9151220513302
 32
0.0
 13
171.2223536208015
 23
166.9151220513302
 33
0.0
  0
MTEXT
  5
27E
330
278
100
AcDbEntity
  8
1
 62
     7
100
AcDbMText
 10
169.2223536208015
 20
181.6651220513302
 30
0.0
 40
7.0
 41
0.0
 71
     7
 72
     1
  1
40
  7
CONVERTER_12
 11
0.0
 21
1.0
 31
0.0
 73
     1
 44
0.60024009603842
  0
ENDBLK
  5
280
330
278
100
AcDbEntity
  8
0
100
AcDbBlockEnd
  0
BLOCK
  5
28A
330
283
100
AcDbEntity
  8
0
100
AcDbBlockBegin
  2
*D15
 70
     1
 10
0.0
 20
0.0
 30
0.0
  3
*D15
  1

  0
LINE
  5
284
330
283
100
AcDbEntity
  8
1
  6
Continuous
 62
     2
100
AcDbLine
 10
327.3534193263498
 20
143.7064284165653
 30
0.0
 11
273.3534193263498
 21
143.7064284165653
 31
0.0
  0
LINE
  5
285
330
283
100
AcDbEntity
  8
1
  6
Continuous
 62
     2
100
AcDbLine
 10
327.3534193263498
 20
183.9151220513302
 30
0.0
 11
327.3534193263498
 21
141.7064284165653
 31
0.0
  0
LINE
  5
286
330
283
100
AcDbEntity
  8
1
  6
Continuous
 62
     2
100
AcDbLine
 10
273.3534193263498
 20
190.8420026668849
 30
0.0
 11
273.3534193263498
 21
141.7064284165653
 31
0.0
  0
SOLID
  5
287
330
283
100
AcDbEntity
  8
1
 62
     2
100
AcDbTrace
 10
320.3534193263498
 20
142.7848609334535
 30
0.0
 11
320.3534193263498
 21
144.6279958996771
 31
0.0
 12
327.3534193263498
 22
143.7064284165653
 32
0.0
 13
327.3534193263498
 23
143.7064284165653
 33
0.0
  0
SOLID
  5
288
330
283
100
AcDbEntity
  8
1
 62
     2
100
AcDbTrace
 10
280.3534193263498
 20
144.6279958996771
 30
0.0
 11
280.3534193263498
 21
142.7848609334535
 31
0.0
 12
273.3534193263498
 22
143.7064284165653
 32
0.0
 13
273.3534193263498
 23
143.7064284165653
 33
0.0
  0
MTEXT
  5
289
330
283
100
AcDbEntity
  8
1
 62
     7
100
AcDbMText
 10
295.1034193263498
 20
145.7064284165653
 30
0.0
 40
7.0
 41
0.0
 71
     7
 72
     1
  1
54
  7
CONVERTER_12
 11
0.9999999999970619
 21
2.424068405545306E-6
 31
0.0
 73
     1
 44
0.60024009603842
  0
ENDBLK
  5
28B
330
283
100
AcDbEntity
  8
0
100
AcDbBlockEnd
  0
BLOCK
  5
295
330
28E
100
AcDbEntity
  8
0
100
AcDbBlockBegin
  2
*D16
 70
     1
 10
0.0
 20
0.0
 30
0.0
  3
*D16
  1

  0
LINE
  5
28F
330
28E
100
AcDbEntity
  8
1
  6
Continuous
 62
     2
100
AcDbLine
 10
361.3534193263498
 20
183.9151220513302
 30
0.0
 11
361.3534193263498
 21
229.9151220513302
 31
0.0
  0
LINE
  5
290
330
28E
100
AcDbEntity
  8
1
  6
Continuous
 62
     2
100
AcDbLine
 10
327.3534193263498
 20
183.9151220513302
 30
0.0
 11
363.3534193263498
 21
183.9151220513302
 31
0.0
  0
LINE
  5
291
330
28E
100
AcDbEntity
  8
1
  6
Continuous
 62
     2
100
AcDbLine
 10
327.3534193263498
 20
229.9151220513302
 30
0.0
 11
363.3534193263498
 21
229.9151220513302
 31
0.0
  0
SOLID
  5
292
330
28E
100
AcDbEntity
  8
1
 62
     2
100
AcDbTrace
 10
360.4318518432381
 20
190.9151220513302
 30
0.0
 11
362.2749868094616
 21
190.9151220513302
 31
0.0
 12
361.3534193263498
 22
183.9151220513302
 32
0.0
 13
361.3534193263498
 23
183.9151220513302
 33
0.0
  0
SOLID
  5
293
330
28E
100
AcDbEntity
  8
1
 62
     2
100
AcDbTrace
 10
362.2749868094616
 20
222.9151220513302
 30
0.0
 11
360.4318518432381
 21
222.9151220513302
 31
0.0
 12
361.3534193263498
 22
229.9151220513302
 32
0.0
 13
361.3534193263498
 23
229.9151220513302
 33
0.0
  0
MTEXT
  5
294
330
28E
100
AcDbEntity
  8
1
 62
     7
100
AcDbMText
 10
359.3534193263498
 20
200.1251220513302
 30
0.0
 40
7.0
 41
0.0
 71
     7
 72
     1
  1
\C7;{\Fgdt;n}\C7;46
  7
CONVERTER_12
 11
0.0
 21
1.0
 31
0.0
 73
     1
 44
0.60024009603842
  0
ENDBLK
  5
296
330
28E
100
AcDbEntity
  8
0
100
AcDbBlockEnd
  0
BLOCK
  5
2A1
330
299
100
AcDbEntity
  8
0
100
AcDbBlockBegin
  2
*D17
 70
     1
 10
0.0
 20
0.0
 30
0.0
  3
*D17
  1

  0
LINE
  5
29A
330
299
100
AcDbEntity
  8
1
  6
Continuous
 62
     2
100
AcDbLine
 10
228.3805813613728
 20
220.9151220513302
 30
0.0
 11
228.3805813613728
 21
232.8320032714417
 31
0.0
  0
LINE
  5
29B
330
299
100
AcDbEntity
  8
1
  6
Continuous
 62
     2
100
AcDbLine
 10
228.3805813613728
 20
192.9151220513302
 30
0.0
 11
228.3805813613728
 21
220.9151220513302
 31
0.0
  0
LINE
  5
29C
330
299
100
AcDbEntity
  8
1
  6
Continuous
 62
     2
100
AcDbLine
 10
240.6402420766366
 20
192.9151220513302
 30
0.0
 11
226.3805813613728
 21
192.9151220513302
 31
0.0
  0
LINE
  5
29D
330
299
100
AcDbEntity
  8
1
  6
Continuous
 62
     2
100
AcDbLine
 10
240.6402420766367
 20
220.9151220513302
 30
0.0
 11
226.3805813613728
 21
220.9151220513302
 31
0.0
  0
SOLID
  5
29E
330
299
100
AcDbEntity
  8
1
 62
     2
100
AcDbTrace
 10
227.459013878261
 20
199.9151220513302
 30
0.0
 11
229.3021488444846
 21
199.9151220513302
 31
0.0
 12
228.3805813613728
 22
192.9151220513302
 32
0.0
 13
228.3805813613728
 23
192.9151220513302
 33
0.0
  0
SOLID
  5
29F
330
299
100
AcDbEntity
  8
1
 62
     2
100
AcDbTrace
 10
229.3021488444846
 20
213.9151220513302
 30
0.0
 11
227.459013878261
 21
213.9151220513302
 31
0.0
 12
228.3805813613728
 22
220.9151220513302
 32
0.0
 13
228.3805813613728
 23
220.9151220513302
 33
0.0
  0
MTEXT
  5
2A0
330
299
100
AcDbEntity
  8
1
 62
     7
100
AcDbMText
 10
226.3805813613728
 20
222.3320032714417
 30
0.0
 40
7.0
 41
0.0
 71
     7
 72
     1
  1
28
  7
CONVERTER_12
 11
0.0
 21
1.0
 31
0.0
 73
     1
 44
0.60024009603842
  0
ENDBLK
  5
2A2
330
299
100
AcDbEntity
  8
0
100
AcDbBlockEnd
  0
BLOCK
  5
2AE
330
2A5
100
AcDbEntity
  8
0
100
AcDbBlockBegin
  2
*D18
 70
     1
 10
0.0
 20
0.0
 30
0.0
  3
*D18
  1

  0
LINE
  5
2A6
330
2A5
100
AcDbEntity
  8
1
  6
Continuous
 62
     2
100
AcDbLine
 10
313.3534193263499
 20
143.7064284165653
 30
0.0
 11
327.3534193263499
 21
143.7064284165653
 31
0.0
  0
LINE
  5
2A7
330
2A5
100
AcDbEntity
  8
1
  6
Continuous
 62
     2
100
AcDbLine
 10
327.3534193263499
 20
143.7064284165653
 30
0.0
 11
341.35341932635
 21
143.7064284165653
 31
0.0
  0
LINE
  5
2A8
330
2A5
100
AcDbEntity
  8
1
  6
Continuous
 62
     2
100
AcDbLine
 10
341.35341932635
 20
143.7064284165653
 30
0.0
 11
355.35341932635
 21
143.7064284165653
 31
0.0
  0
LINE
  5
2A9
330
2A5
100
AcDbEntity
  8
1
  6
Continuous
 62
     2
100
AcDbLine
 10
327.3534193263499
 20
183.9151220513302
 30
0.0
 11
327.3534193263499
 21
141.7064284165653
 31
0.0
  0
LINE
  5
2AA
330
2A5
100
AcDbEntity
  8
1
  6
Continuous
 62
     2
100
AcDbLine
 10
341.35341932635
 20
197.4151220513302
 30
0.0
 11
341.35341932635
 21
141.7064284165653
 31
0.0
  0
SOLID
  5
2AB
330
2A5
100
AcDbEntity
  8
1
 62
     2
100
AcDbTrace
 10
320.3534193263499
 20
142.7848609334535
 30
0.0
 11
320.3534193263499
 21
144.6279958996771
 31
0.0
 12
327.3534193263499
 22
143.7064284165653
 32
0.0
 13
327.3534193263499
 23
143.7064284165653
 33
0.0
  0
SOLID
  5
2AC
330
2A5
100
AcDbEntity
  8
1
 62
     2
100
AcDbTrace
 10
348.35341932635
 20
144.6279958996771
 30
0.0
 11
348.35341932635
 21
142.7848609334535
 31
0.0
 12
341.35341932635
 22
143.7064284165653
 32
0.0
 13
341.35341932635
 23
143.7064284165653
 33
0.0
  0
MTEXT
  5
2AD
330
2A5
100
AcDbEntity
  8
1
 62
     7
100
AcDbMText
 10
330.1534193263499
 20
145.7064284165653
 30
0.0
 40
7.0
 41
0.0
 71
     7
 72
     1
  1
14
  7
CONVERTER_12
 11
0.9999999999970619
 21
2.424068405545306E-6
 31
0.0
 73
     1
 44
0.60024009603842
  0
ENDBLK
  5
2AF
330
2A5
100
AcDbEntity
  8
0
100
AcDbBlockEnd
  0
BLOCK
  5
2B9
330
2B2
100
AcDbEntity
  8
0
100
AcDbBlockBegin
  2
*D19
 70
     1
 10
0.0
 20
0.0
 30
0.0
  3
*D19
  1

  0
LINE
  5
2B3
330
2B2
100
AcDbEntity
  8
1
  6
Continuous
 62
     2
100
AcDbLine
 10
171.2223536208015
 20
206.9151220513303
 30
0.0
 11
171.2223536208015
 21
264.4151220513303
 31
0.0
  0
LINE
  5
2B4
330
2B2
100
AcDbEntity
  8
1
  6
Continuous
 62
     2
100
AcDbLine
 10
273.3534193263498
 20
264.4151220513303
 30
0.0
 11
169.2223536208015
 21
264.4151220513303
 31
0.0
  0
LINE
  5
2B5
330
2B2
100
AcDbEntity
  8
1
  6
Continuous
 62
     2
100
AcDbLine
 10
234.0888463635305
 20
206.9151220513303
 30
0.0
 11
169.2223536208015
 21
206.9151220513303
 31
0.0
  0
SOLID
  5
2B6
330
2B2
100
AcDbEntity
  8
1
 62
     2
100
AcDbTrace
 10
170.3007861376897
 20
213.9151220513303
 30
0.0
 11
172.1439211039133
 21
213.9151220513303
 31
0.0
 12
171.2223536208015
 22
206.9151220513303
 32
0.0
 13
171.2223536208015
 23
206.9151220513303
 33
0.0
  0
SOLID
  5
2B7
330
2B2
100
AcDbEntity
  8
1
 62
     2
100
AcDbTrace
 10
172.1439211039133
 20
257.4151220513303
 30
0.0
 11
170.3007861376897
 21
257.4151220513303
 31
0.0
 12
171.2223536208015
 22
264.4151220513303
 32
0.0
 13
171.2223536208015
 23
264.4151220513303
 33
0.0
  0
MTEXT
  5
2B8
330
2B2
100
AcDbEntity
  8
1
 62
     7
100
AcDbMText
 10
169.2223536208015
 20
216.7651220513303
 30
0.0
 40
7.0
 41
0.0
 71
     7
 72
     1
  1
\C7;\C7;58リフト5
  7
CONVERTER_11
 11
0.0
 21
1.0
 31
0.0
 73
     1
 44
0.45454545454545
  0
ENDBLK
  5
2BA
330
2B2
100
AcDbEntity
  8
0
100
AcDbBlockEnd
  0
BLOCK
  5
2C6
330
2BD
100
AcDbEntity
  8
0
100
AcDbBlockBegin
  2
*D20
 70
     1
 10
0.0
 20
0.0
 30
0.0
  3
*D20
  1

  0
LINE
  5
2BE
330
2BD
100
AcDbEntity
  8
0
  6
Continuous
 62
     2
100
AcDbLine
 10
196.3244322131058
 20
166.4151220513302
 30
0.0
 11
196.3244322131058
 21
113.4412272247049
 31
0.0
  0
LINE
  5
2BF
330
2BD
100
AcDbEntity
  8
0
  6
Continuous
 62
     2
100
AcDbLine
 10
195.4791956896244
 20
165.1025064772569
 30
0.0
 11
173.7253877329721
 21
118.451314766781
 31
0.0
  0
LINE
  5
2C0
330
2BD
100
AcDbEntity
  8
0
  6
Continuous
 62
     2
100
AcDbLine
 10
196.3244322131058
 20
113.4412272247049
 30
0.0
 11
196.3244322131058
 21
111.4412272247049
 31
0.0
  0
LINE
  5
2C1
330
2BD
100
AcDbEntity
  8
0
  6
Continuous
 62
     2
100
AcDbLine
 10
173.7253877329721
 20
118.451314766781
 30
0.0
 11
172.8801512094906
 21
116.6386991927077
 31
0.0
  0
ARC
  5
2C2
330
2BD
100
AcDbEntity
  8
0
  6
Continuous
 62
     2
100
AcDbCircle
 10
196.3244322131058
 20
166.9151220513302
 30
0.0
 40
53.47389482662535
100
AcDbArc
 50
244.9999999999996
 51
270.0
  0
SOLID
  5
2C3
330
2BD
100
AcDbEntity
  8
0
 62
     2
100
AcDbTrace
 10
180.5834583777163
 20
116.773174826959
 30
0.0
 11
179.9154407104724
 21
115.0553567632614
 31
0.0
 12
173.7253877329721
 22
118.451314766781
 32
0.0
 13
173.7253877329721
 23
118.451314766781
 33
0.0
  0
SOLID
  5
2C4
330
2BD
100
AcDbEntity
  8
0
 62
     2
100
AcDbTrace
 10
189.279145129036
 20
112.9794734710997
 30
0.0
 11
189.3996967994014
 21
114.8186618242837
 31
0.0
 12
196.3244322131058
 22
113.4412272247049
 32
0.0
 13
196.3244322131058
 23
113.4412272247049
 33
0.0
  0
MTEXT
  5
2C5
330
2BD
100
AcDbEntity
  8
0
 62
     7
100
AcDbMText
 10
178.5026833729428
 20
118.0148447831936
 30
0.0
 40
7.0
 41
0.0
 71
     7
 72
     1
  1
25{\Fgdt;~}
  7
CONVERTER_12
 11
0.9798672439439299
 21
-0.1996501546348692
 31
0.0
 73
     1
 44
0.60024009603842
  0
ENDBLK
  5
2C7
330
2BD
100
AcDbEntity
  8
0
100
AcDbBlockEnd
  0
ENDSEC
  0
SECTION
  2
ENTITIES
  0
INSERT
  5
6C
330
1F
100
AcDbEntity
  8
0
100
AcDbBlockReference
  2
38-134
 10
378.3933942505003
 20
260.3211386873057
 30
0.0
  0
INSERT
  5
6D
330
1F
100
AcDbEntity
  8
1
100
AcDbBlockReference
  2
開示A4
 10
0.0
 20
0.0
 30
0.0
 41
2.0
 42
2.0
 43
2.0
  0
INSERT
  5
6E
330
1F
100
AcDbEntity
  8
1
100
AcDbBlockReference
  2
R10AK-13-B
 10
96.86478423173872
 20
182.9151220513302
 30
0.0
  0
INSERT
  5
6F
330
1F
100
AcDbEntity
  8
1
100
AcDbBlockReference
  2
62-1B-M2
 10
159.3619870583374
 20
2323.863957651242
 30
0.0
  0
INSERT
  5
70
330
1F
100
AcDbEntity
  8
0
100
AcDbBlockReference
  2
32-1-16
 10
274.8695350084333
 20
-70.84930599341786
 30
0.0
  0
INSERT
  5
71
330
1F
100
AcDbEntity
  8
0
100
AcDbBlockReference
  2
75-2
 10
246.4106733317362
 20
117.6727907806972
 30
0.0
  0
INSERT
  5
72
330
1F
100
AcDbEntity
  8
1
100
AcDbBlockReference
  2
Y13-0A
 10
712.8099100107079
 20
1312.540318222332
 30
0.0
  0
LINE
  5
249
330
1F
100
AcDbEntity
  8
1
  6
DASH_CENTER
 62
     2
100
AcDbLine
 10
273.3534193263498
 20
230.9151220513302
 30
0.0
 11
273.3534193263498
 21
230.9178058582493
 31
0.0
  0
LINE
  5
24A
330
1F
100
AcDbEntity
  8
1
  6
DASH_CENTER
 62
     2
100
AcDbLine
 10
74.35341932634972
 20
206.9151220513302
 30
0.0
 11
132.3534193263497
 21
206.9151220513302
 31
0.0
  0
LINE
  5
24B
330
1F
100
AcDbEntity
  8
1
  6
DASH_CENTER
 62
     2
100
AcDbLine
 10
103.3534193263497
 20
271.4172511747566
 30
0.0
 11
103.3534193263497
 21
157.7064284165653
 31
0.0
  0
LINE
  5
24C
330
1F
100
AcDbEntity
  8
1
  6
DASH_CENTER
 62
     2
100
AcDbLine
 10
85.59989854876892
 20
397.738578856319
 30
0.0
 11
135.3963592663739
 21
426.488578856319
 31
0.0
  0
LINE
  5
24D
330
1F
100
AcDbEntity
  8
1
  6
DASH_CENTER
 62
     2
100
AcDbLine
 10
71.31047938632547
 20
426.488578856319
 30
0.0
 11
121.1069401039304
 21
397.7385788563191
 31
0.0
  0
LINE
  5
24E
330
1F
100
AcDbEntity
  8
1
  6
DASH_CENTER
 62
     2
100
AcDbLine
 10
79.7175028575002
 20
407.988578856319
 30
0.0
 11
126.9893357951992
 21
407.988578856319
 31
0.0
  0
LINE
  5
24F
330
1F
100
AcDbEntity
  8
1
  6
DASH_CENTER
 62
     2
100
AcDbLine
 10
103.3534193263496
 20
481.988578856319
 30
0.0
 11
103.3534193263497
 21
319.8575131507707
 31
0.0
  0
LINE
  5
250
330
1F
100
AcDbEntity
  8
1
  6
DASH_CENTER
 62
     2
100
AcDbLine
 10
273.3534193263498
 20
190.8420026668849
 30
0.0
 11
273.3534193263498
 21
271.4151220513302
 31
0.0
  0
LINE
  5
251
330
1F
100
AcDbEntity
  8
1
  6
DASH_CENTER
 62
     2
100
AcDbLine
 10
206.899612752431
 20
189.5936699035511
 30
0.0
 11
196.3244322131058
 21
166.9151220513302
 31
0.0
  0
LINE
  5
252
330
1F
100
AcDbEntity
  8
1
  6
DASH_CENTER
 62
     2
100
AcDbLine
 10
234.0888463635305
 20
206.9151220513302
 30
0.0
 11
347.3534193263498
 21
206.9151220513302
 31
0.0
  0
LINE
  5
253
330
1F
100
AcDbEntity
  8
1
  6
DASH_CENTER
 62
     2
100
AcDbLine
 10
92.15421132525154
 20
332.738578856319
 30
0.0
 11
114.546730372761
 21
332.738578856319
 31
0.0
  0
LINE
  5
254
330
1F
100
AcDbEntity
  8
0
  6
Continuous
 62
     2
100
AcDbLine
 10
196.3244322131058
 20
166.9151220513302
 30
0.0
 11
196.3244322131058
 21
166.4151220513302
 31
0.0
  0
LINE
  5
255
330
1F
100
AcDbEntity
  8
1
  6
DASH_CENTER
 62
     2
100
AcDbLine
 10
196.3244322131058
 20
166.9151220513302
 30
0.0
 11
195.4791956896244
 21
165.1025064772569
 31
0.0
  0
ARC
  5
256
330
1F
100
AcDbEntity
  8
1
  6
DASH_CENTER
 62
     2
100
AcDbCircle
 10
234.0888463635305
 20
176.9151220513302
 30
0.0
 40
30.0
100
AcDbArc
 50
90.0
 51
155.0000000000001
  0
SOLID
  5
257
330
1F
100
AcDbEntity
  8
1
 62
     2
100
AcDbTrace
 10
116.5553184746733
 20
474.9305404243659
 30
0.0
 11
118.1515201780262
 21
474.0089729412541
 31
0.0
 12
113.8534193263497
 22
468.407578856319
 32
0.0
 13
113.8534193263497
 23
468.407578856319
 33
0.0
  0
LEADER
  5
258
330
1F
100
AcDbEntity
  8
1
  6
Continuous
 62
     2
100
AcDbLeader
  3
Standard
 71
     0
 76
     3
 10
113.8534193263497
 20
468.407578856319
 30
0.0
 10
129.7773171008688
 20
495.988578856319
 30
0.0
 10
161.281392590015
 20
495.988578856319
 30
0.0
  0
MTEXT
  5
25A
330
1F
100
AcDbEntity
  8
0
 62
     7
100
AcDbMText
 10
187.5
 20
34.0
 30
0.0
 40
7.0
 41
0.0
 71
     5
 72
     1
  1
2
  7
CONVERTER_12
 73
     1
 44
1.32052821128451
  0
MTEXT
  5
25B
330
1F
100
AcDbEntity
  8
0
 62
     7
100
AcDbMText
 10
170.5
 20
34.0
 30
0.0
 40
7.0
 41
0.0
 71
     5
 72
     1
  1
1
  7
CONVERTER_12
 73
     1
 44
1.32052821128451
  0
MTEXT
  5
25C
330
1F
100
AcDbEntity
  8
0
 62
     7
100
AcDbMText
 10
114.0
 20
28.5
 30
0.0
 40
7.0
 41
0.0
 71
     5
 72
     1
  1
Y13JK-13
  7
CONVERTER_12
 73
     1
 44
0.90036014405762
  0
MTEXT
  5
25D
330
1F
100
AcDbEntity
  8
0
 62
     7
100
AcDbMText
 10
114.0
 20
45.50000000000002
 30
0.0
 40
7.0
 41
0.0
 71
     5
 72
     1
  1
送り座ホーム水栓
  7
CONVERTER_11
 73
     1
 44
1.0
  0
MTEXT
  5
25E
330
1F
100
AcDbEntity
  8
1
 62
     7
100
AcDbMText
 10
72.80587665929181
 20
69.62995022123914
 30
0.0
 40
7.0
 41
0.0
 71
     5
 72
     1
  1
JIS
  7
CONVERTER_12
 73
     1
 44
0.7202881152461
  0
MTEXT
  5
25F
330
1F
100
AcDbEntity
  8
1
 62
     7
100
AcDbMText
 10
145.5293548454419
 20
501.988578856319
 30
0.0
 40
7.0
 41
0.0
 71
     5
 72
     1
  1
PJ1/2
  7
CONVERTER_12
 73
     1
 44
1.32052821128451
  0
DIMENSION
  5
26C
330
1F
100
AcDbEntity
  8
1
100
AcDbDimension
  2
*D12
 10
175.4593857601317
 20
141.5727385180229
 30
0.0
 11
155.8764853269441
 21
157.1591557848354
 31
0.0
 70
    33
  1
{\Fgdt;n}16,5
 71
     5
 42
-1.0
 53
-24.99999999999936
  3
ME10_DIM_10
100
AcDbAlignedDimension
 13
204.8127017211582
 23
165.7154217726481
 33
0.0
 14
189.9492540137571
 24
172.6463612651954
 34
0.0
  0
DIMENSION
  5
277
330
1F
100
AcDbEntity
  8
1
100
AcDbDimension
  2
*D13
 10
196.3244322131059
 20
143.7064284165653
 30
0.0
 11
234.8389257697278
 21
149.2064284165653
 31
0.0
 70
    32
  1
77
 71
     5
 42
-1.0
 53
0.00013888888889
  3
ME10_DIM_11
100
AcDbAlignedDimension
 13
273.3534193263498
 23
190.8420026668849
 33
0.0
 14
196.3244322131059
 24
166.9151220513303
 34
0.0
100
AcDbRotatedDimension
  0
DIMENSION
  5
282
330
1F
100
AcDbEntity
  8
1
100
AcDbDimension
  2
*D14
 10
171.2223536208015
 20
206.9151220513301
 30
0.0
 11
165.7223536208015
 21
186.9151220513302
 31
0.0
 70
    32
  1
<>
 71
     5
 42
-1.0
 53
90.0
  3
ME10_DIM_12
100
AcDbAlignedDimension
 13
196.3244322131058
 23
166.9151220513302
 33
0.0
 14
234.0888463635306
 24
206.9151220513302
 34
0.0
 50
90.0
100
AcDbRotatedDimension
  0
DIMENSION
  5
28D
330
1F
100
AcDbEntity
  8
1
100
AcDbDimension
  2
*D15
 10
327.3534193263498
 20
143.7064284165653
 30
0.0
 11
300.3534193263498
 21
149.2064284165653
 31
0.0
 70
    32
  1
<>
 71
     5
 42
-1.0
 53
0.00013888888889
  3
ME10_DIM_13
100
AcDbAlignedDimension
 13
273.3534193263498
 23
190.8420026668849
 33
0.0
 14
327.3534193263498
 24
183.9151220513302
 34
0.0
100
AcDbRotatedDimension
  0
DIMENSION
  5
298
330
1F
100
AcDbEntity
  8
1
100
AcDbDimension
  2
*D16
 10
361.3534193263498
 20
183.9151220513302
 30
0.0
 11
355.8534193263498
 21
206.9151220513302
 31
0.0
 70
    32
  1
<>
 71
     5
 42
-1.0
 53
90.0
  3
ME10_DIM_14
100
AcDbAlignedDimension
 13
327.3534193263498
 23
229.9151220513302
 33
0.0
 14
327.3534193263498
 24
183.9151220513302
 34
0.0
 50
90.0
100
AcDbRotatedDimension
  0
DIMENSION
  5
2A4
330
1F
100
AcDbEntity
  8
1
100
AcDbDimension
  2
*D17
 10
228.3805813613728
 20
192.9151220513302
 30
0.0
 11
222.8805813613728
 21
227.5820032714417
 31
0.0
 70
    32
  1
<>
 71
     5
 42
-1.0
 53
90.0
  3
ME10_DIM_15
100
AcDbAlignedDimension
 13
240.6402420766368
 23
220.9151220513302
 33
0.0
 14
240.6402420766367
 24
192.9151220513302
 34
0.0
 50
90.0
100
AcDbRotatedDimension
  0
DIMENSION
  5
2B1
330
1F
100
AcDbEntity
  8
1
100
AcDbDimension
  2
*D18
 10
327.3534193263499
 20
143.7064284165653
 30
0.0
 11
334.3534193263499
 21
149.2064284165653
 31
0.0
 70
    32
  1
<>
 71
     5
 42
-1.0
 53
0.00013888888889
  3
ME10_DIM_16
100
AcDbAlignedDimension
 13
341.3534193263499
 23
197.4151220513302
 33
0.0
 14
327.3534193263498
 24
183.9151220513302
 34
0.0
100
AcDbRotatedDimension
  0
DIMENSION
  5
2BC
330
1F
100
AcDbEntity
  8
1
100
AcDbDimension
  2
*D19
 10
171.2223536208015
 20
206.9151220513303
 30
0.0
 11
165.7223536208015
 21
235.6651220513303
 31
0.0
 70
    32
  1
58リフト5
 71
     5
 42
-1.0
 53
90.0
  3
ME10_DIM_17
100
AcDbAlignedDimension
 13
273.3534193263498
 23
264.4151220513303
 33
0.0
 14
234.0888463635305
 24
206.9151220513302
 34
0.0
 50
90.0
100
AcDbRotatedDimension
  0
DIMENSION
  5
2C9
330
1F
100
AcDbEntity
  8
0
100
AcDbDimension
  2
*D20
 10
184.7505630610643
 20
114.7087720469446
 30
0.0
 11
186.7464366925331
 21
119.9070739463089
 31
0.0
 70
    37
  1
<>
 71
     5
 42
-1.0
  3
ME10_DIM_18
100
AcDb3PointAngularDimension
 13
195.4791956896244
 23
165.1025064772569
 33
0.0
 14
196.3244322131058
 24
166.4151220513302
 34
0.0
 15
196.3244322131058
 25
166.9151220513302
 35
0.0
  0
ENDSEC
  0
SECTION
  2
OBJECTS
  0
DICTIONARY
  5
C
330
0
100
AcDbDictionary
281
     1
  3
ACAD_GROUP
350
D
  3
ACAD_LAYOUT
350
1A
  3
ACAD_MATERIAL
350
3B
  3
ACAD_MLEADERSTYLE
350
2CC
  3
ACAD_MLINESTYLE
350
17
  3
ACAD_PLOTSETTINGS
350
19
  3
ACAD_PLOTSTYLENAME
350
E
  3
ACAD_VISUALSTYLE
350
2A
  3
AcDbVariableDictionary
350
2CA
  0
DICTIONARY
  5
D
102
{ACAD_REACTORS
330
C
102
}
330
C
100
AcDbDictionary
281
     1
  0
DICTIONARY
  5
1A
102
{ACAD_REACTORS
330
C
102
}
330
C
100
AcDbDictionary
281
     1
  3
Layout1
350
1E
  3
Layout2
350
26
  3
Model
350
22
  0
DICTIONARY
  5
3B
102
{ACAD_REACTORS
330
C
102
}
330
C
100
AcDbDictionary
281
     1
  3
ByBlock
350
3D
  3
ByLayer
350
3C
  3
Global
350
3E
  0
DICTIONARY
  5
2CC
102
{ACAD_REACTORS
330
C
102
}
330
C
100
AcDbDictionary
281
     1
  0
DICTIONARY
  5
17
102
{ACAD_REACTORS
330
C
102
}
330
C
100
AcDbDictionary
281
     1
  3
Standard
350
18
  0
DICTIONARY
  5
19
102
{ACAD_REACTORS
330
C
102
}
330
C
100
AcDbDictionary
281
     1
  0
ACDBDICTIONARYWDFLT
  5
E
102
{ACAD_REACTORS
330
C
102
}
330
C
100
AcDbDictionary
281
     1
  3
Normal
350
F
100
AcDbDictionaryWithDefault
340
F
  0
DICTIONARY
  5
2A
102
{ACAD_REACTORS
330
C
102
}
330
C
100
AcDbDictionary
281
     1
  3
2dWireframe
350
2F
  3
3D Hidden
350
31
  3
3dWireframe
350
30
  3
Basic
350
32
  3
Brighten
350
36
  3
ColorChange
350
3A
  3
Conceptual
350
34
  3
Dim
350
35
  3
Facepattern
350
39
  3
Flat
350
2B
  3
FlatWithEdges
350
2C
  3
Gouraud
350
2D
  3
GouraudWithEdges
350
2E
  3
Linepattern
350
38
  3
Realistic
350
33
  3
Thicken
350
37
  0
DICTIONARY
  5
2CA
102
{ACAD_REACTORS
330
C
102
}
330
C
100
AcDbDictionary
281
     1
  3
DIMASSOC
350
2CD
  3
HIDETEXT
350
2CE
  0
LAYOUT
  5
1E
102
{ACAD_REACTORS
330
1A
102
}
330
1A
100
AcDbPlotSettings
  1

  2
none_device
  4

  6

 40
0.0
 41
0.0
 42
0.0
 43
0.0
 44
0.0
 45
0.0
 46
0.0
 47
0.0
 48
0.0
 49
0.0
140
0.0
141
0.0
142
1.0
143
1.0
 70
   688
 72
     0
 73
     0
 74
     5
  7

 75
    16
147
1.0
148
0.0
149
0.0
100
AcDbLayout
  1
Layout1
 70
     1
 71
     1
 10
0.0
 20
0.0
 11
12.0
 21
9.0
 12
0.0
 22
0.0
 32
0.0
 14
1.00000000000000E+20
 24
1.00000000000000E+20
 34
1.00000000000000E+20
 15
-1.00000000000000E+20
 25
-1.00000000000000E+20
 35
-1.00000000000000E+20
146
0.0
 13
0.0
 23
0.0
 33
0.0
 16
1.0
 26
0.0
 36
0.0
 17
0.0
 27
1.0
 37
0.0
 76
     0
330
1B
  0
LAYOUT
  5
26
102
{ACAD_REACTORS
330
1A
102
}
330
1A
100
AcDbPlotSettings
  1

  2
none_device
  4

  6

 40
0.0
 41
0.0
 42
0.0
 43
0.0
 44
0.0
 45
0.0
 46
0.0
 47
0.0
 48
0.0
 49
0.0
140
0.0
141
0.0
142
1.0
143
1.0
 70
   688
 72
     0
 73
     0
 74
     5
  7

 75
    16
147
1.0
148
0.0
149
0.0
100
AcDbLayout
  1
Layout2
 70
     1
 71
     2
 10
0.0
 20
0.0
 11
0.0
 21
0.0
 12
0.0
 22
0.0
 32
0.0
 14
0.0
 24
0.0
 34
0.0
 15
0.0
 25
0.0
 35
0.0
146
0.0
 13
0.0
 23
0.0
 33
0.0
 16
1.0
 26
0.0
 36
0.0
 17
0.0
 27
1.0
 37
0.0
 76
     0
330
23
  0
LAYOUT
  5
22
102
{ACAD_REACTORS
330
1A
102
}
330
1A
100
AcDbPlotSettings
  1

  2
none_device
  4

  6

 40
0.0
 41
0.0
 42
0.0
 43
0.0
 44
0.0
 45
0.0
 46
0.0
 47
0.0
 48
0.0
 49
0.0
140
0.0
141
0.0
142
1.0
143
1.0
 70
  1712
 72
     0
 73
     0
 74
     0
  7

 75
     0
147
1.0
148
0.0
149
0.0
100
AcDbLayout
  1
Model
 70
     1
 71
     0
 10
0.0
 20
0.0
 11
12.0
 21
9.0
 12
0.0
 22
0.0
 32
0.0
 14
0.0
 24
0.0
 34
0.0
 15
420.0
 25
594.0
 35
0.0
146
0.0
 13
0.0
 23
0.0
 33
0.0
 16
1.0
 26
0.0
 36
0.0
 17
0.0
 27
1.0
 37
0.0
 76
     0
330
1F
331
29
  0
MATERIAL
  5
3D
102
{ACAD_REACTORS
330
3B
102
}
102
{ACAD_XDICTIONARY
360
2F1
102
}
330
3B
100
AcDbMaterial
  1
ByBlock
  0
MATERIAL
  5
3C
102
{ACAD_REACTORS
330
3B
102
}
102
{ACAD_XDICTIONARY
360
2EF
102
}
330
3B
100
AcDbMaterial
  1
ByLayer
  0
MATERIAL
  5
3E
102
{ACAD_REACTORS
330
3B
102
}
102
{ACAD_XDICTIONARY
360
2F3
102
}
330
3B
100
AcDbMaterial
  1
Global
  0
MLINESTYLE
  5
18
102
{ACAD_REACTORS
330
17
102
}
330
17
100
AcDbMlineStyle
  2
Standard
 70
     0
  3

 62
   256
 51
90.0
 52
90.0
 71
     2
 49
0.5
 62
   256
  6
BYLAYER
 49
-0.5
 62
   256
  6
BYLAYER
  0
ACDBPLACEHOLDER
  5
F
102
{ACAD_REACTORS
330
E
102
}
330
E
  0
VISUALSTYLE
  5
2F
102
{ACAD_REACTORS
330
2A
102
}
102
{ACAD_XDICTIONARY
360
2D7
102
}
330
2A
100
AcDbVisualStyle
  2
2dWireframe
 70
     4
 71
     0
 72
     2
 73
     0
 90
        0
 40
-0.6
 41
-30.0
 62
     5
 63
     7
 74
     1
 91
        4
 64
     7
 65
   257
 75
     1
175
     1
 42
1.0
 92
        0
 66
   257
 43
1.0
 76
     1
 77
     6
 78
     2
 67
     7
 79
     5
170
     0
171
     0
290
     0
174
     0
 93
        1
 44
0.0
173
     0
291
     0
 45
0.0
1001
ACAD
1000
AcDbSavedByObjectVersion
1070
     0
  0
VISUALSTYLE
  5
31
102
{ACAD_REACTORS
330
2A
102
}
102
{ACAD_XDICTIONARY
360
2DB
102
}
330
2A
100
AcDbVisualStyle
  2
3D Hidden
 70
     6
 71
     1
 72
     2
 73
     2
 90
        0
 40
-0.6
 41
-30.0
 62
     5
 63
     7
 74
     2
 91
        2
 64
     7
 65
   257
 75
     2
175
     1
 42
40.0
 92
        0
 66
   257
 43
1.0
 76
     1
 77
     6
 78
     2
 67
     7
 79
     3
170
     0
171
     0
290
     0
174
     0
 93
        1
 44
0.0
173
     0
291
     0
 45
0.0
1001
ACAD
1000
AcDbSavedByObjectVersion
1070
     0
  0
VISUALSTYLE
  5
30
102
{ACAD_REACTORS
330
2A
102
}
102
{ACAD_XDICTIONARY
360
2D9
102
}
330
2A
100
AcDbVisualStyle
  2
3dWireframe
 70
     5
 71
     0
 72
     2
 73
     0
 90
        0
 40
-0.6
 41
-30.0
 62
     5
 63
     7
 74
     1
 91
        4
 64
     7
 65
   257
 75
     1
175
     1
 42
1.0
 92
        0
 66
   257
 43
1.0
 76
     1
 77
     6
 78
     2
 67
     7
 79
     5
170
     0
171
     0
290
     0
174
     0
 93
        1
 44
0.0
173
     0
291
     0
 45
0.0
1001
ACAD
1000
AcDbSavedByObjectVersion
1070
     0
  0
VISUALSTYLE
  5
32
102
{ACAD_REACTORS
330
2A
102
}
102
{ACAD_XDICTIONARY
360
2DD
102
}
330
2A
100
AcDbVisualStyle
  2
Basic
 70
     7
 71
     1
 72
     0
 73
     1
 90
        0
 40
-0.6
 41
-30.0
 62
     5
 63
     7
 74
     0
 91
        4
 64
     7
 65
   257
 75
     1
175
     1
 42
1.0
 92
        8
 66
     7
 43
1.0
 76
     1
 77
     6
 78
     2
 67
     7
 79
     5
170
     0
171
     0
290
     0
174
     0
 93
        1
 44
0.0
173
     0
291
     1
 45
0.0
1001
ACAD
1000
AcDbSavedByObjectVersion
1070
     0
  0
VISUALSTYLE
  5
36
102
{ACAD_REACTORS
330
2A
102
}
102
{ACAD_XDICTIONARY
360
2E5
102
}
330
2A
100
AcDbVisualStyle
  2
Brighten
 70
    12
 71
     2
 72
     2
 73
     0
 90
        0
 40
-0.6
 41
-30.0
 62
     5
 63
     7
 74
     1
 91
        4
 64
     7
 65
   257
 75
     1
175
     1
 42
1.0
 92
        8
 66
     7
 43
1.0
 76
     1
 77
     6
 78
     2
 67
     7
 79
     5
170
     0
171
     0
290
     0
174
     0
 93
        1
 44
50.0
173
     0
291
     1
 45
0.0
1001
ACAD
1000
AcDbSavedByObjectVersion
1070
     0
  0
VISUALSTYLE
  5
3A
102
{ACAD_REACTORS
330
2A
102
}
102
{ACAD_XDICTIONARY
360
2ED
102
}
330
2A
100
AcDbVisualStyle
  2
ColorChange
 70
    16
 71
     2
 72
     2
 73
     3
 90
        0
 40
-0.6
 41
-30.0
 62
     5
 63
     8
 74
     1
 91
        4
 64
     7
 65
   257
 75
     1
175
     1
 42
1.0
 92
        8
 66
     8
 43
1.0
 76
     1
 77
     6
 78
     2
 67
     7
 79
     5
170
     0
171
     0
290
     0
174
     0
 93
        1
 44
0.0
173
     0
291
     1
 45
0.0
1001
ACAD
1000
AcDbSavedByObjectVersion
1070
     0
  0
VISUALSTYLE
  5
34
102
{ACAD_REACTORS
330
2A
102
}
102
{ACAD_XDICTIONARY
360
2E1
102
}
330
2A
100
AcDbVisualStyle
  2
Conceptual
 70
     9
 71
     3
 72
     2
 73
     0
 90
        0
 40
-0.6
 41
-30.0
 62
     5
 63
     7
 74
     2
 91
        2
 64
     7
 65
   257
 75
     1
175
     1
 42
40.0
 92
        8
 66
     7
 43
1.0
 76
     1
 77
     6
 78
     2
 67
     7
 79
     3
170
     0
171
     0
290
     0
174
     0
 93
        1
 44
0.0
173
     0
291
     0
 45
0.0
1001
ACAD
1000
AcDbSavedByObjectVersion
1070
     0
  0
VISUALSTYLE
  5
35
102
{ACAD_REACTORS
330
2A
102
}
102
{ACAD_XDICTIONARY
360
2E3
102
}
330
2A
100
AcDbVisualStyle
  2
Dim
 70
    11
 71
     2
 72
     2
 73
     0
 90
        0
 40
-0.6
 41
-30.0
 62
     5
 63
     7
 74
     1
 91
        4
 64
     7
 65
   257
 75
     1
175
     1
 42
1.0
 92
        8
 66
     7
 43
1.0
 76
     1
 77
     6
 78
     2
 67
     7
 79
     5
170
     0
171
     0
290
     0
174
     0
 93
        1
 44
-50.0
173
     0
291
     1
 45
0.0
1001
ACAD
1000
AcDbSavedByObjectVersion
1070
     0
  0
VISUALSTYLE
  5
39
102
{ACAD_REACTORS
330
2A
102
}
102
{ACAD_XDICTIONARY
360
2EB
102
}
330
2A
100
AcDbVisualStyle
  2
Facepattern
 70
    15
 71
     2
 72
     2
 73
     0
 90
        0
 40
-0.6
 41
-30.0
 62
     5
 63
     7
 74
     1
 91
        4
 64
     7
 65
   257
 75
     1
175
     1
 42
1.0
 92
        8
 66
     7
 43
1.0
 76
     1
 77
     6
 78
     2
 67
     7
 79
     5
170
     0
171
     0
290
     0
174
     0
 93
        1
 44
0.0
173
     0
291
     1
 45
0.0
1001
ACAD
1000
AcDbSavedByObjectVersion
1070
     0
  0
VISUALSTYLE
  5
2B
102
{ACAD_REACTORS
330
2A
102
}
102
{ACAD_XDICTIONARY
360
2CF
102
}
330
2A
100
AcDbVisualStyle
  2
Flat
 70
     0
 71
     2
 72
     1
 73
     1
 90
        2
 40
-0.6
 41
30.0
 62
     5
 63
     7
 74
     0
 91
        4
 64
     7
 65
   257
 75
     1
175
     1
 42
1.0
 92
        8
 66
     7
 43
1.0
 76
     1
 77
     6
 78
     2
 67
     7
 79
     5
170
     0
171
     0
290
     0
174
     0
 93
       13
 44
0.0
173
     0
291
     1
 45
0.0
1001
ACAD
1000
AcDbSavedByObjectVersion
1070
     0
  0
VISUALSTYLE
  5
2C
102
{ACAD_REACTORS
330
2A
102
}
102
{ACAD_XDICTIONARY
360
2D1
102
}
330
2A
100
AcDbVisualStyle
  2
FlatWithEdges
 70
     1
 71
     2
 72
     1
 73
     1
 90
        2
 40
-0.6
 41
30.0
 62
     5
 63
     7
 74
     1
 91
        4
 64
     7
 65
   257
 75
     1
175
     1
 42
1.0
 92
        0
 66
   257
 43
1.0
 76
     1
 77
     6
 78
     2
 67
     7
 79
     5
170
     0
171
     0
290
     0
174
     0
 93
       13
 44
0.0
173
     0
291
     1
 45
0.0
1001
ACAD
1000
AcDbSavedByObjectVersion
1070
     0
  0
VISUALSTYLE
  5
2D
102
{ACAD_REACTORS
330
2A
102
}
102
{ACAD_XDICTIONARY
360
2D3
102
}
330
2A
100
AcDbVisualStyle
  2
Gouraud
 70
     2
 71
     2
 72
     2
 73
     1
 90
        2
 40
-0.6
 41
30.0
 62
     5
 63
     7
 74
     0
 91
        4
 64
     7
 65
   257
 75
     1
175
     1
 42
1.0
 92
        0
 66
     7
 43
1.0
 76
     1
 77
     6
 78
     2
 67
     7
 79
     5
170
     0
171
     0
290
     0
174
     0
 93
       13
 44
0.0
173
     0
291
     1
 45
0.0
1001
ACAD
1000
AcDbSavedByObjectVersion
1070
     0
  0
VISUALSTYLE
  5
2E
102
{ACAD_REACTORS
330
2A
102
}
102
{ACAD_XDICTIONARY
360
2D5
102
}
330
2A
100
AcDbVisualStyle
  2
GouraudWithEdges
 70
     3
 71
     2
 72
     2
 73
     1
 90
        2
 40
-0.6
 41
30.0
 62
     5
 63
     7
 74
     1
 91
        4
 64
     7
 65
   257
 75
     1
175
     1
 42
1.0
 92
        0
 66
   257
 43
1.0
 76
     1
 77
     6
 78
     2
 67
     7
 79
     5
170
     0
171
     0
290
     0
174
     0
 93
       13
 44
0.0
173
     0
291
     1
 45
0.0
1001
ACAD
1000
AcDbSavedByObjectVersion
1070
     0
  0
VISUALSTYLE
  5
38
102
{ACAD_REACTORS
330
2A
102
}
102
{ACAD_XDICTIONARY
360
2E9
102
}
330
2A
100
AcDbVisualStyle
  2
Linepattern
 70
    14
 71
     2
 72
     2
 73
     0
 90
        0
 40
-0.6
 41
-30.0
 62
     5
 63
     7
 74
     1
 91
        4
 64
     7
 65
   257
 75
     7
175
     7
 42
1.0
 92
        8
 66
     7
 43
1.0
 76
     1
 77
     6
 78
     2
 67
     7
 79
     5
170
     0
171
     0
290
     0
174
     0
 93
        1
 44
0.0
173
     0
291
     1
 45
0.0
1001
ACAD
1000
AcDbSavedByObjectVersion
1070
     0
  0
VISUALSTYLE
  5
33
102
{ACAD_REACTORS
330
2A
102
}
102
{ACAD_XDICTIONARY
360
2DF
102
}
330
2A
100
AcDbVisualStyle
  2
Realistic
 70
     8
 71
     2
 72
     2
 73
     0
 90
        0
 40
-0.6
 41
-30.0
 62
     5
 63
     7
 74
     1
 91
        0
 64
     7
 65
   257
 75
     1
175
     1
 42
1.0
 92
        8
 66
     8
 43
1.0
 76
     1
 77
     6
 78
     2
 67
     7
 79
     5
170
     0
171
     0
290
     0
174
     0
 93
       13
 44
0.0
173
     0
291
     0
 45
0.0
1001
ACAD
1000
AcDbSavedByObjectVersion
1070
     0
  0
VISUALSTYLE
  5
37
102
{ACAD_REACTORS
330
2A
102
}
102
{ACAD_XDICTIONARY
360
2E7
102
}
330
2A
100
AcDbVisualStyle
  2
Thicken
 70
    13
 71
     2
 72
     2
 73
     0
 90
        0
 40
-0.6
 41
-30.0
 62
     5
 63
     7
 74
     1
 91
        4
 64
     7
 65
   257
 75
     1
175
     1
 42
1.0
 92
       12
 66
     7
 43
1.0
 76
     1
 77
     6
 78
     2
 67
     7
 79
     5
170
     0
171
     0
290
     0
174
     0
 93
        1
 44
0.0
173
     0
291
     1
 45
0.0
1001
ACAD
1000
AcDbSavedByObjectVersion
1070
     0
  0
DICTIONARYVAR
  5
2CD
102
{ACAD_REACTORS
330
2CA
102
}
330
2CA
100
DictionaryVariables
280
     0
  1
2
  0
DICTIONARYVAR
  5
2CE
102
{ACAD_REACTORS
330
2CA
102
}
330
2CA
100
DictionaryVariables
280
     0
  1
1
  0
DICTIONARY
  5
2F1
330
3D
100
AcDbDictionary
280
     1
281
     1
  3
ACAD_XREC_ROUNDTRIP
360
2F2
  0
DICTIONARY
  5
2EF
330
3C
100
AcDbDictionary
280
     1
281
     1
  3
ACAD_XREC_ROUNDTRIP
360
2F0
  0
DICTIONARY
  5
2F3
330
3E
100
AcDbDictionary
280
     1
281
     1
  3
ACAD_XREC_ROUNDTRIP
360
2F4
  0
DICTIONARY
  5
2D7
330
2F
100
AcDbDictionary
280
     1
281
     1
  3
ACAD_XREC_ROUNDTRIP
360
2D8
  0
DICTIONARY
  5
2DB
330
31
100
AcDbDictionary
280
     1
281
     1
  3
ACAD_XREC_ROUNDTRIP
360
2DC
  0
DICTIONARY
  5
2D9
330
30
100
AcDbDictionary
280
     1
281
     1
  3
ACAD_XREC_ROUNDTRIP
360
2DA
  0
DICTIONARY
  5
2DD
330
32
100
AcDbDictionary
280
     1
281
     1
  3
ACAD_XREC_ROUNDTRIP
360
2DE
  0
DICTIONARY
  5
2E5
330
36
100
AcDbDictionary
280
     1
281
     1
  3
ACAD_XREC_ROUNDTRIP
360
2E6
  0
DICTIONARY
  5
2ED
330
3A
100
AcDbDictionary
280
     1
281
     1
  3
ACAD_XREC_ROUNDTRIP
360
2EE
  0
DICTIONARY
  5
2E1
330
34
100
AcDbDictionary
280
     1
281
     1
  3
ACAD_XREC_ROUNDTRIP
360
2E2
  0
DICTIONARY
  5
2E3
330
35
100
AcDbDictionary
280
     1
281
     1
  3
ACAD_XREC_ROUNDTRIP
360
2E4
  0
DICTIONARY
  5
2EB
330
39
100
AcDbDictionary
280
     1
281
     1
  3
ACAD_XREC_ROUNDTRIP
360
2EC
  0
DICTIONARY
  5
2CF
330
2B
100
AcDbDictionary
280
     1
281
     1
  3
ACAD_XREC_ROUNDTRIP
360
2D0
  0
DICTIONARY
  5
2D1
330
2C
100
AcDbDictionary
280
     1
281
     1
  3
ACAD_XREC_ROUNDTRIP
360
2D2
  0
DICTIONARY
  5
2D3
330
2D
100
AcDbDictionary
280
     1
281
     1
  3
ACAD_XREC_ROUNDTRIP
360
2D4
  0
DICTIONARY
  5
2D5
330
2E
100
AcDbDictionary
280
     1
281
     1
  3
ACAD_XREC_ROUNDTRIP
360
2D6
  0
DICTIONARY
  5
2E9
330
38
100
AcDbDictionary
280
     1
281
     1
  3
ACAD_XREC_ROUNDTRIP
360
2EA
  0
DICTIONARY
  5
2DF
330
33
100
AcDbDictionary
280
     1
281
     1
  3
ACAD_XREC_ROUNDTRIP
360
2E0
  0
DICTIONARY
  5
2E7
330
37
100
AcDbDictionary
280
     1
281
     1
  3
ACAD_XREC_ROUNDTRIP
360
2E8
  0
XRECORD
  5
2F2
102
{ACAD_REACTORS
330
2F1
102
}
330
2F1
100
AcDbXrecord
280
     1
102
MATERIAL
148
0.0
149
0.0
149
0.0
 93
        0
 94
      127
282
     0
 72
     1
 77
     1
171
     1
175
     1
179
     1
273
     0
  0
XRECORD
  5
2F0
102
{ACAD_REACTORS
330
2EF
102
}
330
2EF
100
AcDbXrecord
280
     1
102
MATERIAL
148
0.0
149
0.0
149
0.0
 93
        0
 94
      127
282
     0
 72
     1
 77
     1
171
     1
175
     1
179
     1
273
     0
  0
XRECORD
  5
2F4
102
{ACAD_REACTORS
330
2F3
102
}
330
2F3
100
AcDbXrecord
280
     1
102
MATERIAL
148
0.0
149
0.0
149
0.0
 93
        0
 94
      127
282
     0
 72
     1
 77
     1
171
     1
175
     1
179
     1
273
     0
  0
XRECORD
  5
2D8
102
{ACAD_REACTORS
330
2D7
102
}
330
2D7
100
AcDbXrecord
280
     1
102
RTVSPropertyOp0
 70
     1
102
RTVSPropertyOp1
 70
     1
102
RTVSPropertyOp2
 70
     1
102
RTVSPropertyOp3
 70
     1
102
RTVSPropertyOp4
 70
     1
102
RTVSPropertyOp5
 70
     1
102
RTVSPropertyOp6
 70
     1
102
RTVSPropertyOp7
 70
     1
102
RTVSPropertyOp8
 70
     1
102
RTVSPropertyOp9
 70
     1
102
RTVSPropertyOp10
 70
     1
102
RTVSPropertyOp11
 70
     1
102
RTVSPropertyOp12
 70
     1
102
RTVSPropertyOp13
 70
     1
102
RTVSPropertyOp14
 70
     1
102
RTVSPropertyOp15
 70
     1
102
RTVSPropertyOp16
 70
     1
102
RTVSPropertyOp17
 70
     1
102
RTVSPropertyOp18
 70
     1
102
RTVSPropertyOp19
 70
     1
102
RTVSPropertyOp20
 70
     1
102
RTVSPropertyOp21
 70
     1
102
RTVSPropertyOp22
 70
     1
102
RTVSPropertyOp23
 70
     1
102
RTVSPropertyOp24
 70
     1
102
RTVSPropertyOp25
 70
     1
102
RTVSPropertyOp26
 70
     1
102
RTVSPropertyOp27
 70
     1
102
RTVSPropertyOp28
 70
     1
102
RTVSPropertyOp29
 70
     1
102
RTVSPropertyOp30
 70
     1
102
RTVSPropertyOp31
 70
     1
102
RTVSPropertyOp32
 70
     1
  0
XRECORD
  5
2DC
102
{ACAD_REACTORS
330
2DB
102
}
330
2DB
100
AcDbXrecord
280
     1
102
RTVSPropertyOp0
 70
     1
102
RTVSPropertyOp1
 70
     1
102
RTVSPropertyOp2
 70
     1
102
RTVSPropertyOp3
 70
     1
102
RTVSPropertyOp4
 70
     1
102
RTVSPropertyOp5
 70
     1
102
RTVSPropertyOp6
 70
     1
102
RTVSPropertyOp7
 70
     1
102
RTVSPropertyOp8
 70
     1
102
RTVSPropertyOp9
 70
     1
102
RTVSPropertyOp10
 70
     1
102
RTVSPropertyOp11
 70
     1
102
RTVSPropertyOp12
 70
     1
102
RTVSPropertyOp13
 70
     1
102
RTVSPropertyOp14
 70
     1
102
RTVSPropertyOp15
 70
     1
102
RTVSPropertyOp16
 70
     1
102
RTVSPropertyOp17
 70
     1
102
RTVSPropertyOp18
 70
     1
102
RTVSPropertyOp19
 70
     1
102
RTVSPropertyOp20
 70
     1
102
RTVSPropertyOp21
 70
     1
102
RTVSPropertyOp22
 70
     1
102
RTVSPropertyOp23
 70
     1
102
RTVSPropertyOp24
 70
     1
102
RTVSPropertyOp25
 70
     1
102
RTVSPropertyOp26
 70
     1
102
RTVSPropertyOp27
 70
     1
102
RTVSPropertyOp28
 70
     1
102
RTVSPropertyOp29
 70
     1
102
RTVSPropertyOp30
 70
     1
102
RTVSPropertyOp31
 70
     1
102
RTVSPropertyOp32
 70
     1
  0
XRECORD
  5
2DA
102
{ACAD_REACTORS
330
2D9
102
}
330
2D9
100
AcDbXrecord
280
     1
102
RTVSPropertyOp0
 70
     1
102
RTVSPropertyOp1
 70
     1
102
RTVSPropertyOp2
 70
     1
102
RTVSPropertyOp3
 70
     1
102
RTVSPropertyOp4
 70
     1
102
RTVSPropertyOp5
 70
     1
102
RTVSPropertyOp6
 70
     1
102
RTVSPropertyOp7
 70
     1
102
RTVSPropertyOp8
 70
     1
102
RTVSPropertyOp9
 70
     1
102
RTVSPropertyOp10
 70
     1
102
RTVSPropertyOp11
 70
     1
102
RTVSPropertyOp12
 70
     1
102
RTVSPropertyOp13
 70
     1
102
RTVSPropertyOp14
 70
     1
102
RTVSPropertyOp15
 70
     1
102
RTVSPropertyOp16
 70
     1
102
RTVSPropertyOp17
 70
     1
102
RTVSPropertyOp18
 70
     1
102
RTVSPropertyOp19
 70
     1
102
RTVSPropertyOp20
 70
     1
102
RTVSPropertyOp21
 70
     1
102
RTVSPropertyOp22
 70
     1
102
RTVSPropertyOp23
 70
     1
102
RTVSPropertyOp24
 70
     1
102
RTVSPropertyOp25
 70
     1
102
RTVSPropertyOp26
 70
     1
102
RTVSPropertyOp27
 70
     1
102
RTVSPropertyOp28
 70
     1
102
RTVSPropertyOp29
 70
     1
102
RTVSPropertyOp30
 70
     1
102
RTVSPropertyOp31
 70
     1
102
RTVSPropertyOp32
 70
     1
  0
XRECORD
  5
2DE
102
{ACAD_REACTORS
330
2DD
102
}
330
2DD
100
AcDbXrecord
280
     1
102
RTVSPropertyOp0
 70
     1
102
RTVSPropertyOp1
 70
     1
102
RTVSPropertyOp2
 70
     1
102
RTVSPropertyOp3
 70
     1
102
RTVSPropertyOp4
 70
     1
102
RTVSPropertyOp5
 70
     1
102
RTVSPropertyOp6
 70
     1
102
RTVSPropertyOp7
 70
     1
102
RTVSPropertyOp8
 70
     1
102
RTVSPropertyOp9
 70
     1
102
RTVSPropertyOp10
 70
     1
102
RTVSPropertyOp11
 70
     1
102
RTVSPropertyOp12
 70
     1
102
RTVSPropertyOp13
 70
     1
102
RTVSPropertyOp14
 70
     1
102
RTVSPropertyOp15
 70
     1
102
RTVSPropertyOp16
 70
     1
102
RTVSPropertyOp17
 70
     1
102
RTVSPropertyOp18
 70
     1
102
RTVSPropertyOp19
 70
     1
102
RTVSPropertyOp20
 70
     1
102
RTVSPropertyOp21
 70
     1
102
RTVSPropertyOp22
 70
     1
102
RTVSPropertyOp23
 70
     1
102
RTVSPropertyOp24
 70
     1
102
RTVSPropertyOp25
 70
     1
102
RTVSPropertyOp26
 70
     1
102
RTVSPropertyOp27
 70
     1
102
RTVSPropertyOp28
 70
     1
102
RTVSPropertyOp29
 70
     1
102
RTVSPropertyOp30
 70
     1
102
RTVSPropertyOp31
 70
     1
102
RTVSPropertyOp32
 70
     1
  0
XRECORD
  5
2E6
102
{ACAD_REACTORS
330
2E5
102
}
330
2E5
100
AcDbXrecord
280
     1
102
RTVSPropertyOp0
 70
     1
102
RTVSPropertyOp1
 70
     1
102
RTVSPropertyOp2
 70
     1
102
RTVSPropertyOp3
 70
     1
102
RTVSPropertyOp4
 70
     1
102
RTVSPropertyOp5
 70
     1
102
RTVSPropertyOp6
 70
     1
102
RTVSPropertyOp7
 70
     1
102
RTVSPropertyOp8
 70
     1
102
RTVSPropertyOp9
 70
     1
102
RTVSPropertyOp10
 70
     1
102
RTVSPropertyOp11
 70
     1
102
RTVSPropertyOp12
 70
     1
102
RTVSPropertyOp13
 70
     1
102
RTVSPropertyOp14
 70
     1
102
RTVSPropertyOp15
 70
     1
102
RTVSPropertyOp16
 70
     1
102
RTVSPropertyOp17
 70
     1
102
RTVSPropertyOp18
 70
     1
102
RTVSPropertyOp19
 70
     1
102
RTVSPropertyOp20
 70
     1
102
RTVSPropertyOp21
 70
     1
102
RTVSPropertyOp22
 70
     1
102
RTVSPropertyOp23
 70
     1
102
RTVSPropertyOp24
 70
     1
102
RTVSPropertyOp25
 70
     1
102
RTVSPropertyOp26
 70
     1
102
RTVSPropertyOp27
 70
     1
102
RTVSPropertyOp28
 70
     1
102
RTVSPropertyOp29
 70
     1
102
RTVSPropertyOp30
 70
     1
102
RTVSPropertyOp31
 70
     1
102
RTVSPropertyOp32
 70
     1
  0
XRECORD
  5
2EE
102
{ACAD_REACTORS
330
2ED
102
}
330
2ED
100
AcDbXrecord
280
     1
102
RTVSPropertyOp0
 70
     1
102
RTVSPropertyOp1
 70
     1
102
RTVSPropertyOp2
 70
     1
102
RTVSPropertyOp3
 70
     1
102
RTVSPropertyOp4
 70
     1
102
RTVSPropertyOp5
 70
     1
102
RTVSPropertyOp6
 70
     1
102
RTVSPropertyOp7
 70
     1
102
RTVSPropertyOp8
 70
     1
102
RTVSPropertyOp9
 70
     1
102
RTVSPropertyOp10
 70
     1
102
RTVSPropertyOp11
 70
     1
102
RTVSPropertyOp12
 70
     1
102
RTVSPropertyOp13
 70
     1
102
RTVSPropertyOp14
 70
     1
102
RTVSPropertyOp15
 70
     1
102
RTVSPropertyOp16
 70
     1
102
RTVSPropertyOp17
 70
     1
102
RTVSPropertyOp18
 70
     1
102
RTVSPropertyOp19
 70
     1
102
RTVSPropertyOp20
 70
     1
102
RTVSPropertyOp21
 70
     1
102
RTVSPropertyOp22
 70
     1
102
RTVSPropertyOp23
 70
     1
102
RTVSPropertyOp24
 70
     1
102
RTVSPropertyOp25
 70
     1
102
RTVSPropertyOp26
 70
     1
102
RTVSPropertyOp27
 70
     1
102
RTVSPropertyOp28
 70
     1
102
RTVSPropertyOp29
 70
     1
102
RTVSPropertyOp30
 70
     1
102
RTVSPropertyOp31
 70
     1
102
RTVSPropertyOp32
 70
     1
  0
XRECORD
  5
2E2
102
{ACAD_REACTORS
330
2E1
102
}
330
2E1
100
AcDbXrecord
280
     1
102
RTVSPropertyOp0
 70
     1
102
RTVSPropertyOp1
 70
     1
102
RTVSPropertyOp2
 70
     1
102
RTVSPropertyOp3
 70
     1
102
RTVSPropertyOp4
 70
     1
102
RTVSPropertyOp5
 70
     1
102
RTVSPropertyOp6
 70
     1
102
RTVSPropertyOp7
 70
     1
102
RTVSPropertyOp8
 70
     1
102
RTVSPropertyOp9
 70
     1
102
RTVSPropertyOp10
 70
     1
102
RTVSPropertyOp11
 70
     1
102
RTVSPropertyOp12
 70
     1
102
RTVSPropertyOp13
 70
     1
102
RTVSPropertyOp14
 70
     1
102
RTVSPropertyOp15
 70
     1
102
RTVSPropertyOp16
 70
     1
102
RTVSPropertyOp17
 70
     1
102
RTVSPropertyOp18
 70
     1
102
RTVSPropertyOp19
 70
     1
102
RTVSPropertyOp20
 70
     1
102
RTVSPropertyOp21
 70
     1
102
RTVSPropertyOp22
 70
     1
102
RTVSPropertyOp23
 70
     1
102
RTVSPropertyOp24
 70
     1
102
RTVSPropertyOp25
 70
     1
102
RTVSPropertyOp26
 70
     1
102
RTVSPropertyOp27
 70
     1
102
RTVSPropertyOp28
 70
     1
102
RTVSPropertyOp29
 70
     1
102
RTVSPropertyOp30
 70
     1
102
RTVSPropertyOp31
 70
     1
102
RTVSPropertyOp32
 70
     1
  0
XRECORD
  5
2E4
102
{ACAD_REACTORS
330
2E3
102
}
330
2E3
100
AcDbXrecord
280
     1
102
RTVSPropertyOp0
 70
     1
102
RTVSPropertyOp1
 70
     1
102
RTVSPropertyOp2
 70
     1
102
RTVSPropertyOp3
 70
     1
102
RTVSPropertyOp4
 70
     1
102
RTVSPropertyOp5
 70
     1
102
RTVSPropertyOp6
 70
     1
102
RTVSPropertyOp7
 70
     1
102
RTVSPropertyOp8
 70
     1
102
RTVSPropertyOp9
 70
     1
102
RTVSPropertyOp10
 70
     1
102
RTVSPropertyOp11
 70
     1
102
RTVSPropertyOp12
 70
     1
102
RTVSPropertyOp13
 70
     1
102
RTVSPropertyOp14
 70
     1
102
RTVSPropertyOp15
 70
     1
102
RTVSPropertyOp16
 70
     1
102
RTVSPropertyOp17
 70
     1
102
RTVSPropertyOp18
 70
     1
102
RTVSPropertyOp19
 70
     1
102
RTVSPropertyOp20
 70
     1
102
RTVSPropertyOp21
 70
     1
102
RTVSPropertyOp22
 70
     1
102
RTVSPropertyOp23
 70
     1
102
RTVSPropertyOp24
 70
     1
102
RTVSPropertyOp25
 70
     1
102
RTVSPropertyOp26
 70
     1
102
RTVSPropertyOp27
 70
     1
102
RTVSPropertyOp28
 70
     1
102
RTVSPropertyOp29
 70
     1
102
RTVSPropertyOp30
 70
     1
102
RTVSPropertyOp31
 70
     1
102
RTVSPropertyOp32
 70
     1
  0
XRECORD
  5
2EC
102
{ACAD_REACTORS
330
2EB
102
}
330
2EB
100
AcDbXrecord
280
     1
102
RTVSPropertyOp0
 70
     1
102
RTVSPropertyOp1
 70
     1
102
RTVSPropertyOp2
 70
     1
102
RTVSPropertyOp3
 70
     1
102
RTVSPropertyOp4
 70
     1
102
RTVSPropertyOp5
 70
     1
102
RTVSPropertyOp6
 70
     1
102
RTVSPropertyOp7
 70
     1
102
RTVSPropertyOp8
 70
     1
102
RTVSPropertyOp9
 70
     1
102
RTVSPropertyOp10
 70
     1
102
RTVSPropertyOp11
 70
     1
102
RTVSPropertyOp12
 70
     1
102
RTVSPropertyOp13
 70
     1
102
RTVSPropertyOp14
 70
     1
102
RTVSPropertyOp15
 70
     1
102
RTVSPropertyOp16
 70
     1
102
RTVSPropertyOp17
 70
     1
102
RTVSPropertyOp18
 70
     1
102
RTVSPropertyOp19
 70
     1
102
RTVSPropertyOp20
 70
     1
102
RTVSPropertyOp21
 70
     1
102
RTVSPropertyOp22
 70
     1
102
RTVSPropertyOp23
 70
     1
102
RTVSPropertyOp24
 70
     1
102
RTVSPropertyOp25
 70
     1
102
RTVSPropertyOp26
 70
     1
102
RTVSPropertyOp27
 70
     1
102
RTVSPropertyOp28
 70
     1
102
RTVSPropertyOp29
 70
     1
102
RTVSPropertyOp30
 70
     1
102
RTVSPropertyOp31
 70
     1
102
RTVSPropertyOp32
 70
     1
  0
XRECORD
  5
2D0
102
{ACAD_REACTORS
330
2CF
102
}
330
2CF
100
AcDbXrecord
280
     1
102
RTVSPropertyOp0
 70
     1
102
RTVSPropertyOp1
 70
     1
102
RTVSPropertyOp2
 70
     1
102
RTVSPropertyOp3
 70
     1
102
RTVSPropertyOp4
 70
     1
102
RTVSPropertyOp5
 70
     1
102
RTVSPropertyOp6
 70
     1
102
RTVSPropertyOp7
 70
     1
102
RTVSPropertyOp8
 70
     1
102
RTVSPropertyOp9
 70
     1
102
RTVSPropertyOp10
 70
     1
102
RTVSPropertyOp11
 70
     1
102
RTVSPropertyOp12
 70
     1
102
RTVSPropertyOp13
 70
     1
102
RTVSPropertyOp14
 70
     1
102
RTVSPropertyOp15
 70
     1
102
RTVSPropertyOp16
 70
     1
102
RTVSPropertyOp17
 70
     1
102
RTVSPropertyOp18
 70
     1
102
RTVSPropertyOp19
 70
     1
102
RTVSPropertyOp20
 70
     1
102
RTVSPropertyOp21
 70
     1
102
RTVSPropertyOp22
 70
     1
102
RTVSPropertyOp23
 70
     1
102
RTVSPropertyOp24
 70
     1
102
RTVSPropertyOp25
 70
     1
102
RTVSPropertyOp26
 70
     1
102
RTVSPropertyOp27
 70
     1
102
RTVSPropertyOp28
 70
     1
102
RTVSPropertyOp29
 70
     1
102
RTVSPropertyOp30
 70
     1
102
RTVSPropertyOp31
 70
     1
102
RTVSPropertyOp32
 70
     1
  0
XRECORD
  5
2D2
102
{ACAD_REACTORS
330
2D1
102
}
330
2D1
100
AcDbXrecord
280
     1
102
RTVSPropertyOp0
 70
     1
102
RTVSPropertyOp1
 70
     1
102
RTVSPropertyOp2
 70
     1
102
RTVSPropertyOp3
 70
     1
102
RTVSPropertyOp4
 70
     1
102
RTVSPropertyOp5
 70
     1
102
RTVSPropertyOp6
 70
     1
102
RTVSPropertyOp7
 70
     1
102
RTVSPropertyOp8
 70
     1
102
RTVSPropertyOp9
 70
     1
102
RTVSPropertyOp10
 70
     1
102
RTVSPropertyOp11
 70
     1
102
RTVSPropertyOp12
 70
     1
102
RTVSPropertyOp13
 70
     1
102
RTVSPropertyOp14
 70
     1
102
RTVSPropertyOp15
 70
     1
102
RTVSPropertyOp16
 70
     1
102
RTVSPropertyOp17
 70
     1
102
RTVSPropertyOp18
 70
     1
102
RTVSPropertyOp19
 70
     1
102
RTVSPropertyOp20
 70
     1
102
RTVSPropertyOp21
 70
     1
102
RTVSPropertyOp22
 70
     1
102
RTVSPropertyOp23
 70
     1
102
RTVSPropertyOp24
 70
     1
102
RTVSPropertyOp25
 70
     1
102
RTVSPropertyOp26
 70
     1
102
RTVSPropertyOp27
 70
     1
102
RTVSPropertyOp28
 70
     1
102
RTVSPropertyOp29
 70
     1
102
RTVSPropertyOp30
 70
     1
102
RTVSPropertyOp31
 70
     1
102
RTVSPropertyOp32
 70
     1
  0
XRECORD
  5
2D4
102
{ACAD_REACTORS
330
2D3
102
}
330
2D3
100
AcDbXrecord
280
     1
102
RTVSPropertyOp0
 70
     1
102
RTVSPropertyOp1
 70
     1
102
RTVSPropertyOp2
 70
     1
102
RTVSPropertyOp3
 70
     1
102
RTVSPropertyOp4
 70
     1
102
RTVSPropertyOp5
 70
     1
102
RTVSPropertyOp6
 70
     1
102
RTVSPropertyOp7
 70
     1
102
RTVSPropertyOp8
 70
     1
102
RTVSPropertyOp9
 70
     1
102
RTVSPropertyOp10
 70
     1
102
RTVSPropertyOp11
 70
     1
102
RTVSPropertyOp12
 70
     1
102
RTVSPropertyOp13
 70
     1
102
RTVSPropertyOp14
 70
     1
102
RTVSPropertyOp15
 70
     1
102
RTVSPropertyOp16
 70
     1
102
RTVSPropertyOp17
 70
     1
102
RTVSPropertyOp18
 70
     1
102
RTVSPropertyOp19
 70
     1
102
RTVSPropertyOp20
 70
     1
102
RTVSPropertyOp21
 70
     1
102
RTVSPropertyOp22
 70
     1
102
RTVSPropertyOp23
 70
     1
102
RTVSPropertyOp24
 70
     1
102
RTVSPropertyOp25
 70
     1
102
RTVSPropertyOp26
 70
     1
102
RTVSPropertyOp27
 70
     1
102
RTVSPropertyOp28
 70
     1
102
RTVSPropertyOp29
 70
     1
102
RTVSPropertyOp30
 70
     1
102
RTVSPropertyOp31
 70
     1
102
RTVSPropertyOp32
 70
     1
  0
XRECORD
  5
2D6
102
{ACAD_REACTORS
330
2D5
102
}
330
2D5
100
AcDbXrecord
280
     1
102
RTVSPropertyOp0
 70
     1
102
RTVSPropertyOp1
 70
     1
102
RTVSPropertyOp2
 70
     1
102
RTVSPropertyOp3
 70
     1
102
RTVSPropertyOp4
 70
     1
102
RTVSPropertyOp5
 70
     1
102
RTVSPropertyOp6
 70
     1
102
RTVSPropertyOp7
 70
     1
102
RTVSPropertyOp8
 70
     1
102
RTVSPropertyOp9
 70
     1
102
RTVSPropertyOp10
 70
     1
102
RTVSPropertyOp11
 70
     1
102
RTVSPropertyOp12
 70
     1
102
RTVSPropertyOp13
 70
     1
102
RTVSPropertyOp14
 70
     1
102
RTVSPropertyOp15
 70
     1
102
RTVSPropertyOp16
 70
     1
102
RTVSPropertyOp17
 70
     1
102
RTVSPropertyOp18
 70
     1
102
RTVSPropertyOp19
 70
     1
102
RTVSPropertyOp20
 70
     1
102
RTVSPropertyOp21
 70
     1
102
RTVSPropertyOp22
 70
     1
102
RTVSPropertyOp23
 70
     1
102
RTVSPropertyOp24
 70
     1
102
RTVSPropertyOp25
 70
     1
102
RTVSPropertyOp26
 70
     1
102
RTVSPropertyOp27
 70
     1
102
RTVSPropertyOp28
 70
     1
102
RTVSPropertyOp29
 70
     1
102
RTVSPropertyOp30
 70
     1
102
RTVSPropertyOp31
 70
     1
102
RTVSPropertyOp32
 70
     1
  0
XRECORD
  5
2EA
102
{ACAD_REACTORS
330
2E9
102
}
330
2E9
100
AcDbXrecord
280
     1
102
RTVSPropertyOp0
 70
     1
102
RTVSPropertyOp1
 70
     1
102
RTVSPropertyOp2
 70
     1
102
RTVSPropertyOp3
 70
     1
102
RTVSPropertyOp4
 70
     1
102
RTVSPropertyOp5
 70
     1
102
RTVSPropertyOp6
 70
     1
102
RTVSPropertyOp7
 70
     1
102
RTVSPropertyOp8
 70
     1
102
RTVSPropertyOp9
 70
     1
102
RTVSPropertyOp10
 70
     1
102
RTVSPropertyOp11
 70
     1
102
RTVSPropertyOp12
 70
     1
102
RTVSPropertyOp13
 70
     1
102
RTVSPropertyOp14
 70
     1
102
RTVSPropertyOp15
 70
     1
102
RTVSPropertyOp16
 70
     1
102
RTVSPropertyOp17
 70
     1
102
RTVSPropertyOp18
 70
     1
102
RTVSPropertyOp19
 70
     1
102
RTVSPropertyOp20
 70
     1
102
RTVSPropertyOp21
 70
     1
102
RTVSPropertyOp22
 70
     1
102
RTVSPropertyOp23
 70
     1
102
RTVSPropertyOp24
 70
     1
102
RTVSPropertyOp25
 70
     1
102
RTVSPropertyOp26
 70
     1
102
RTVSPropertyOp27
 70
     1
102
RTVSPropertyOp28
 70
     1
102
RTVSPropertyOp29
 70
     1
102
RTVSPropertyOp30
 70
     1
102
RTVSPropertyOp31
 70
     1
102
RTVSPropertyOp32
 70
     1
  0
XRECORD
  5
2E0
102
{ACAD_REACTORS
330
2DF
102
}
330
2DF
100
AcDbXrecord
280
     1
102
RTVSPropertyOp0
 70
     1
102
RTVSPropertyOp1
 70
     1
102
RTVSPropertyOp2
 70
     1
102
RTVSPropertyOp3
 70
     1
102
RTVSPropertyOp4
 70
     1
102
RTVSPropertyOp5
 70
     1
102
RTVSPropertyOp6
 70
     1
102
RTVSPropertyOp7
 70
     1
102
RTVSPropertyOp8
 70
     1
102
RTVSPropertyOp9
 70
     1
102
RTVSPropertyOp10
 70
     1
102
RTVSPropertyOp11
 70
     1
102
RTVSPropertyOp12
 70
     1
102
RTVSPropertyOp13
 70
     1
102
RTVSPropertyOp14
 70
     1
102
RTVSPropertyOp15
 70
     1
102
RTVSPropertyOp16
 70
     1
102
RTVSPropertyOp17
 70
     1
102
RTVSPropertyOp18
 70
     1
102
RTVSPropertyOp19
 70
     1
102
RTVSPropertyOp20
 70
     1
102
RTVSPropertyOp21
 70
     1
102
RTVSPropertyOp22
 70
     1
102
RTVSPropertyOp23
 70
     1
102
RTVSPropertyOp24
 70
     1
102
RTVSPropertyOp25
 70
     1
102
RTVSPropertyOp26
 70
     1
102
RTVSPropertyOp27
 70
     1
102
RTVSPropertyOp28
 70
     1
102
RTVSPropertyOp29
 70
     1
102
RTVSPropertyOp30
 70
     1
102
RTVSPropertyOp31
 70
     1
102
RTVSPropertyOp32
 70
     1
  0
XRECORD
  5
2E8
102
{ACAD_REACTORS
330
2E7
102
}
330
2E7
100
AcDbXrecord
280
     1
102
RTVSPropertyOp0
 70
     1
102
RTVSPropertyOp1
 70
     1
102
RTVSPropertyOp2
 70
     1
102
RTVSPropertyOp3
 70
     1
102
RTVSPropertyOp4
 70
     1
102
RTVSPropertyOp5
 70
     1
102
RTVSPropertyOp6
 70
     1
102
RTVSPropertyOp7
 70
     1
102
RTVSPropertyOp8
 70
     1
102
RTVSPropertyOp9
 70
     1
102
RTVSPropertyOp10
 70
     1
102
RTVSPropertyOp11
 70
     1
102
RTVSPropertyOp12
 70
     1
102
RTVSPropertyOp13
 70
     1
102
RTVSPropertyOp14
 70
     1
102
RTVSPropertyOp15
 70
     1
102
RTVSPropertyOp16
 70
     1
102
RTVSPropertyOp17
 70
     1
102
RTVSPropertyOp18
 70
     1
102
RTVSPropertyOp19
 70
     1
102
RTVSPropertyOp20
 70
     1
102
RTVSPropertyOp21
 70
     1
102
RTVSPropertyOp22
 70
     1
102
RTVSPropertyOp23
 70
     1
102
RTVSPropertyOp24
 70
     1
102
RTVSPropertyOp25
 70
     1
102
RTVSPropertyOp26
 70
     1
102
RTVSPropertyOp27
 70
     1
102
RTVSPropertyOp28
 70
     1
102
RTVSPropertyOp29
 70
     1
102
RTVSPropertyOp30
 70
     1
102
RTVSPropertyOp31
 70
     1
102
RTVSPropertyOp32
 70
     1
  0
ENDSEC
  0
EOF
