  0
SECTION
  2
HEADER
  9
$ACADVER
  1
AC1015
  9
$ACADMAINTVER
 70
     6
  9
$DWGCODEPAGE
  3
ANSI_932
  9
$INSBASE
 10
0.0
 20
0.0
 30
0.0
  9
$EXTMIN
 10
0.0
 20
0.0
 30
0.0
  9
$EXTMAX
 10
420.0
 20
594.0
 30
0.0
  9
$LIMMIN
 10
0.0
 20
0.0
  9
$LIMMAX
 10
12.0
 20
9.0
  9
$ORTHOMODE
 70
     0
  9
$REGENMODE
 70
     1
  9
$FILLMODE
 70
     1
  9
$QTEXTMODE
 70
     0
  9
$MIRRTEXT
 70
     1
  9
$LTSCALE
 40
1.0
  9
$ATTMODE
 70
     1
  9
$TEXTSIZE
 40
0.2
  9
$TRACEWID
 40
0.05
  9
$TEXTSTYLE
  7
Standard
  9
$CLAYER
  8
0
  9
$CELTYPE
  6
ByLayer
  9
$CECOLOR
 62
   256
  9
$CELTSCALE
 40
1.0
  9
$DISPSILH
 70
     0
  9
$DIMSCALE
 40
1.0
  9
$DIMASZ
 40
0.18
  9
$DIMEXO
 40
0.0625
  9
$DIMDLI
 40
0.38
  9
$DIMRND
 40
0.0
  9
$DIMDLE
 40
0.0
  9
$DIMEXE
 40
0.18
  9
$DIMTP
 40
0.0
  9
$DIMTM
 40
0.0
  9
$DIMTXT
 40
0.18
  9
$DIMCEN
 40
0.09
  9
$DIMTSZ
 40
0.0
  9
$DIMTOL
 70
     0
  9
$DIMLIM
 70
     0
  9
$DIMTIH
 70
     1
  9
$DIMTOH
 70
     1
  9
$DIMSE1
 70
     0
  9
$DIMSE2
 70
     0
  9
$DIMTAD
 70
     0
  9
$DIMZIN
 70
     0
  9
$DIMBLK
  1

  9
$DIMASO
 70
     1
  9
$DIMSHO
 70
     1
  9
$DIMPOST
  1

  9
$DIMAPOST
  1

  9
$DIMALT
 70
     0
  9
$DIMALTD
 70
     2
  9
$DIMALTF
 40
25.4
  9
$DIMLFAC
 40
1.0
  9
$DIMTOFL
 70
     0
  9
$DIMTVP
 40
0.0
  9
$DIMTIX
 70
     0
  9
$DIMSOXD
 70
     0
  9
$DIMSAH
 70
     0
  9
$DIMBLK1
  1

  9
$DIMBLK2
  1

  9
$DIMSTYLE
  2
Standard
  9
$DIMCLRD
 70
     0
  9
$DIMCLRE
 70
     0
  9
$DIMCLRT
 70
     0
  9
$DIMTFAC
 40
1.0
  9
$DIMGAP
 40
0.09
  9
$DIMJUST
 70
     0
  9
$DIMSD1
 70
     0
  9
$DIMSD2
 70
     0
  9
$DIMTOLJ
 70
     1
  9
$DIMTZIN
 70
     0
  9
$DIMALTZ
 70
     0
  9
$DIMALTTZ
 70
     0
  9
$DIMUPT
 70
     0
  9
$DIMDEC
 70
     4
  9
$DIMTDEC
 70
     4
  9
$DIMALTU
 70
     2
  9
$DIMALTTD
 70
     2
  9
$DIMTXSTY
  7
Standard
  9
$DIMAUNIT
 70
     0
  9
$DIMADEC
 70
     0
  9
$DIMALTRND
 40
0.0
  9
$DIMAZIN
 70
     0
  9
$DIMDSEP
 70
    46
  9
$DIMATFIT
 70
     3
  9
$DIMFRAC
 70
     0
  9
$DIMLDRBLK
  1

  9
$DIMLUNIT
 70
     2
  9
$DIMLWD
 70
    -2
  9
$DIMLWE
 70
    -2
  9
$DIMTMOVE
 70
     0
  9
$LUNITS
 70
     2
  9
$LUPREC
 70
     4
  9
$SKETCHINC
 40
0.1
  9
$FILLETRAD
 40
0.5
  9
$AUNITS
 70
     0
  9
$AUPREC
 70
     0
  9
$MENU
  1
.
  9
$ELEVATION
 40
0.0
  9
$PELEVATION
 40
0.0
  9
$THICKNESS
 40
0.0
  9
$LIMCHECK
 70
     0
  9
$CHAMFERA
 40
0.5
  9
$CHAMFERB
 40
0.5
  9
$CHAMFERC
 40
1.0
  9
$CHAMFERD
 40
0.0
  9
$SKPOLY
 70
     0
  9
$TDCREATE
 40
2456673.489764953
  9
$TDUCREATE
 40
2456673.114764953
  9
$TDUPDATE
 40
2456673.48976603
  9
$TDUUPDATE
 40
2456673.11476603
  9
$TDINDWG
 40
0.0000000116
  9
$TDUSRTIMER
 40
0.0000000116
  9
$USRTIMER
 70
     1
  9
$ANGBASE
 50
0.0
  9
$ANGDIR
 70
     0
  9
$PDMODE
 70
     0
  9
$PDSIZE
 40
0.0
  9
$PLINEWID
 40
0.0
  9
$SPLFRAME
 70
     0
  9
$SPLINETYPE
 70
     6
  9
$SPLINESEGS
 70
     8
  9
$HANDSEED
  5
334
  9
$SURFTAB1
 70
     6
  9
$SURFTAB2
 70
     6
  9
$SURFTYPE
 70
     6
  9
$SURFU
 70
     6
  9
$SURFV
 70
     6
  9
$UCSBASE
  2

  9
$UCSNAME
  2

  9
$UCSORG
 10
0.0
 20
0.0
 30
0.0
  9
$UCSXDIR
 10
1.0
 20
0.0
 30
0.0
  9
$UCSYDIR
 10
0.0
 20
1.0
 30
0.0
  9
$UCSORTHOREF
  2

  9
$UCSORTHOVIEW
 70
     0
  9
$UCSORGTOP
 10
0.0
 20
0.0
 30
0.0
  9
$UCSORGBOTTOM
 10
0.0
 20
0.0
 30
0.0
  9
$UCSORGLEFT
 10
0.0
 20
0.0
 30
0.0
  9
$UCSORGRIGHT
 10
0.0
 20
0.0
 30
0.0
  9
$UCSORGFRONT
 10
0.0
 20
0.0
 30
0.0
  9
$UCSORGBACK
 10
0.0
 20
0.0
 30
0.0
  9
$PUCSBASE
  2

  9
$PUCSNAME
  2

  9
$PUCSORG
 10
0.0
 20
0.0
 30
0.0
  9
$PUCSXDIR
 10
1.0
 20
0.0
 30
0.0
  9
$PUCSYDIR
 10
0.0
 20
1.0
 30
0.0
  9
$PUCSORTHOREF
  2

  9
$PUCSORTHOVIEW
 70
     0
  9
$PUCSORGTOP
 10
0.0
 20
0.0
 30
0.0
  9
$PUCSORGBOTTOM
 10
0.0
 20
0.0
 30
0.0
  9
$PUCSORGLEFT
 10
0.0
 20
0.0
 30
0.0
  9
$PUCSORGRIGHT
 10
0.0
 20
0.0
 30
0.0
  9
$PUCSORGFRONT
 10
0.0
 20
0.0
 30
0.0
  9
$PUCSORGBACK
 10
0.0
 20
0.0
 30
0.0
  9
$USERI1
 70
     0
  9
$USERI2
 70
     0
  9
$USERI3
 70
     0
  9
$USERI4
 70
     0
  9
$USERI5
 70
     0
  9
$USERR1
 40
18.1
  9
$USERR2
 40
0.0
  9
$USERR3
 40
0.0
  9
$USERR4
 40
0.0
  9
$USERR5
 40
0.0
  9
$WORLDVIEW
 70
     1
  9
$SHADEDGE
 70
     3
  9
$SHADEDIF
 70
    70
  9
$TILEMODE
 70
     1
  9
$MAXACTVP
 70
    64
  9
$PINSBASE
 10
0.0
 20
0.0
 30
0.0
  9
$PLIMCHECK
 70
     0
  9
$PEXTMIN
 10
1.00000000000000E+20
 20
1.00000000000000E+20
 30
1.00000000000000E+20
  9
$PEXTMAX
 10
-1.00000000000000E+20
 20
-1.00000000000000E+20
 30
-1.00000000000000E+20
  9
$PLIMMIN
 10
0.0
 20
0.0
  9
$PLIMMAX
 10
12.0
 20
9.0
  9
$UNITMODE
 70
     0
  9
$VISRETAIN
 70
     1
  9
$PLINEGEN
 70
     0
  9
$PSLTSCALE
 70
     1
  9
$TREEDEPTH
 70
  3020
  9
$CMLSTYLE
  2
Standard
  9
$CMLJUST
 70
     0
  9
$CMLSCALE
 40
1.0
  9
$PROXYGRAPHICS
 70
     1
  9
$MEASUREMENT
 70
     1
  9
$CELWEIGHT
370
    -1
  9
$ENDCAPS
280
     0
  9
$JOINSTYLE
280
     0
  9
$LWDISPLAY
290
     0
  9
$INSUNITS
 70
     4
  9
$HYPERLINKBASE
  1

  9
$STYLESHEET
  1

  9
$XEDIT
290
     1
  9
$CEPSNTYPE
380
     0
  9
$PSTYLEMODE
290
     1
  9
$FINGERPRINTGUID
  2
{9DFC0458-4A06-4E34-839F-9AF278760396}
  9
$VERSIONGUID
  2
{FAEB1C32-E019-11D5-929B-00C0DF256EC4}
  9
$EXTNAMES
290
     1
  9
$PSVPSCALE
 40
0.0
  9
$OLESTARTUP
290
     0
  0
ENDSEC
  0
SECTION
  2
CLASSES
  0
CLASS
  1
ACDBDICTIONARYWDFLT
  2
AcDbDictionaryWithDefault
  3
ObjectDBX Classes
 90
        0
280
     0
281
     0
  0
CLASS
  1
VISUALSTYLE
  2
AcDbVisualStyle
  3
ObjectDBX Classes
 90
     4095
280
     0
281
     0
  0
CLASS
  1
MATERIAL
  2
AcDbMaterial
  3
ObjectDBX Classes
 90
     1153
280
     0
281
     0
  0
CLASS
  1
DICTIONARYVAR
  2
AcDbDictionaryVar
  3
ObjectDBX Classes
 90
        0
280
     0
281
     0
  0
CLASS
  1
ACDBPLACEHOLDER
  2
AcDbPlaceHolder
  3
ObjectDBX Classes
 90
        0
280
     0
281
     0
  0
CLASS
  1
LAYOUT
  2
AcDbLayout
  3
ObjectDBX Classes
 90
        0
280
     0
281
     0
  0
ENDSEC
  0
SECTION
  2
TABLES
  0
TABLE
  2
VPORT
  5
8
330
0
100
AcDbSymbolTable
 70
     1
  0
VPORT
  5
29
330
8
100
AcDbSymbolTableRecord
100
AcDbViewportTableRecord
  2
*Active
 70
     0
 10
0.0
 20
0.0
 11
1.0
 21
1.0
 12
210.0
 22
297.0
 13
0.0
 23
0.0
 14
0.5
 24
0.5
 15
0.5
 25
0.5
 16
0.0
 26
0.0
 36
1.0
 17
0.0
 27
0.0
 37
0.0
 40
653.4000000000001
 41
1.60267857142857
 42
50.0
 43
0.0
 44
0.0
 50
0.0
 51
0.0
 71
     0
 72
   100
 73
     1
 74
     3
 75
     0
 76
     0
 77
     0
 78
     0
281
     0
 65
     1
110
0.0
120
0.0
130
0.0
111
1.0
121
0.0
131
0.0
112
0.0
122
1.0
132
0.0
 79
     0
146
0.0
  0
ENDTAB
  0
TABLE
  2
LTYPE
  5
5
330
0
100
AcDbSymbolTable
 70
     8
  0
LTYPE
  5
14
330
5
100
AcDbSymbolTableRecord
100
AcDbLinetypeTableRecord
  2
ByBlock
 70
     0
  3

 72
    65
 73
     0
 40
0.0
  0
LTYPE
  5
15
330
5
100
AcDbSymbolTableRecord
100
AcDbLinetypeTableRecord
  2
ByLayer
 70
     0
  3

 72
    65
 73
     0
 40
0.0
  0
LTYPE
  5
16
330
5
100
AcDbSymbolTableRecord
100
AcDbLinetypeTableRecord
  2
Continuous
 70
     0
  3
Solid line
 72
    65
 73
     0
 40
0.0
  0
LTYPE
  5
3F
330
5
100
AcDbSymbolTableRecord
100
AcDbLinetypeTableRecord
  2
DASHED
 70
     0
  3
Dashed
 72
    65
 73
     2
 40
15.0
 49
7.0
 74
     0
 49
-8.0
 74
     0
  0
LTYPE
  5
40
330
5
100
AcDbSymbolTableRecord
100
AcDbLinetypeTableRecord
  2
DOTTED
 70
     0
  3
Dotted
 72
    65
 73
     2
 40
1.0
 49
0.0
 74
     0
 49
-1.0
 74
     0
  0
LTYPE
  5
41
330
5
100
AcDbSymbolTableRecord
100
AcDbLinetypeTableRecord
  2
DOT_CENTER
 70
     0
  3
Dot_Center
 72
    65
 73
     4
 40
14.0
 49
12.0
 74
     0
 49
-1.0
 74
     0
 49
0.0
 74
     0
 49
-1.0
 74
     0
  0
LTYPE
  5
42
330
5
100
AcDbSymbolTableRecord
100
AcDbLinetypeTableRecord
  2
LONG_DASHED
 70
     0
  3
Long_Dashed
 72
    65
 73
     2
 40
15.0
 49
10.0
 74
     0
 49
-5.0
 74
     0
  0
LTYPE
  5
43
330
5
100
AcDbSymbolTableRecord
100
AcDbLinetypeTableRecord
  2
DASH_CENTER
 70
     0
  3
Dash_Center
 72
    65
 73
     4
 40
14.0
 49
11.0
 74
     0
 49
-1.0
 74
     0
 49
1.0
 74
     0
 49
-1.0
 74
     0
  0
LTYPE
  5
44
330
5
100
AcDbSymbolTableRecord
100
AcDbLinetypeTableRecord
  2
PHANTOM
 70
     0
  3
Phantom
 72
    65
 73
     6
 40
13.0
 49
10.0
 74
     0
 49
-1.0
 74
     0
 49
0.0
 74
     0
 49
-1.0
 74
     0
 49
0.0
 74
     0
 49
-1.0
 74
     0
  0
LTYPE
  5
45
330
5
100
AcDbSymbolTableRecord
100
AcDbLinetypeTableRecord
  2
CENTER_DASH_DASH
 70
     0
  3
Center_Dash_Dash
 72
    65
 73
     6
 40
14.0
 49
9.0
 74
     0
 49
-1.0
 74
     0
 49
1.0
 74
     0
 49
-1.0
 74
     0
 49
1.0
 74
     0
 49
-1.0
 74
     0
  0
ENDTAB
  0
TABLE
  2
LAYER
  5
2
330
0
100
AcDbSymbolTable
 70
     3
  0
LAYER
  5
10
330
2
100
AcDbSymbolTableRecord
100
AcDbLayerTableRecord
  2
0
 70
     0
 62
     7
  6
Continuous
370
    -3
390
F
  0
LAYER
  5
46
330
2
100
AcDbSymbolTableRecord
100
AcDbLayerTableRecord
  2
1
 70
     0
 62
     7
  6
Continuous
370
    -3
390
F
  0
LAYER
  5
47
330
2
100
AcDbSymbolTableRecord
100
AcDbLayerTableRecord
  2
レイヤ0
 70
     0
 62
     7
  6
Continuous
370
    -3
390
F
  0
ENDTAB
  0
TABLE
  2
STYLE
  5
3
330
0
100
AcDbSymbolTable
 70
     3
  0
STYLE
  5
11
330
3
100
AcDbSymbolTableRecord
100
AcDbTextStyleTableRecord
  2
Standard
 70
     0
 40
0.0
 41
1.0
 50
0.0
 71
     0
 42
0.2
  3
txt
  4

  0
STYLE
  5
239
330
3
100
AcDbSymbolTableRecord
100
AcDbTextStyleTableRecord
  2
CONVERTER_11
 70
     0
 40
0.0
 41
0.89
 50
0.0
 71
     0
 42
0.2
  3
MS Mincho.ttf
  4

1001
ACAD
1000
MS Mincho
1071
    32785
  0
STYLE
  5
288
330
3
100
AcDbSymbolTableRecord
100
AcDbTextStyleTableRecord
  2
CONVERTER_12
 70
     0
 40
0.0
 41
0.9
 50
0.0
 71
     0
 42
0.2
  3
txt.shx
  4

  0
ENDTAB
  0
TABLE
  2
VIEW
  5
6
330
0
100
AcDbSymbolTable
 70
     0
  0
ENDTAB
  0
TABLE
  2
UCS
  5
7
330
0
100
AcDbSymbolTable
 70
     0
  0
ENDTAB
  0
TABLE
  2
APPID
  5
9
330
0
100
AcDbSymbolTable
 70
     1
  0
APPID
  5
12
330
9
100
AcDbSymbolTableRecord
100
AcDbRegAppTableRecord
  2
ACAD
 70
     0
  0
ENDTAB
  0
TABLE
  2
DIMSTYLE
  5
A
330
0
100
AcDbSymbolTable
 70
    12
100
AcDbDimStyleTable
  0
DIMSTYLE
105
27
330
A
100
AcDbSymbolTableRecord
100
AcDbDimStyleTableRecord
  2
Standard
 70
     0
178
     0
340
11
  0
DIMSTYLE
105
297
102
{ACAD_REACTORS
330
298
102
}
330
A
100
AcDbSymbolTableRecord
100
AcDbDimStyleTableRecord
  2
ME10_DIM_10
 70
     0
  3
{\Fgdt;n}<>
 41
7.0
 42
0.0
 44
2.0
 73
     0
 74
     0
 77
     1
 78
     8
140
7.0
147
2.0
172
     1
173
     1
174
     1
175
     1
176
     2
177
     2
271
     2
178
     7
271
     2
340
288
  0
DIMSTYLE
105
2A2
102
{ACAD_REACTORS
330
2A3
102
}
330
A
100
AcDbSymbolTableRecord
100
AcDbDimStyleTableRecord
  2
ME10_DIM_11
 70
     0
 41
7.0
 42
0.0
 44
2.0
 73
     0
 74
     0
 77
     1
 78
     8
140
7.0
147
2.0
172
     1
173
     1
174
     1
175
     1
176
     2
177
     2
271
     2
178
     7
271
     2
340
288
  0
DIMSTYLE
105
2AD
102
{ACAD_REACTORS
330
2AE
102
}
330
A
100
AcDbSymbolTableRecord
100
AcDbDimStyleTableRecord
  2
ME10_DIM_12
 70
     0
 41
7.0
 42
0.0
 44
2.0
 73
     0
 74
     0
 77
     1
 78
     8
140
7.0
147
2.0
172
     1
173
     1
174
     1
175
     1
176
     2
177
     2
271
     2
178
     7
271
     2
340
288
  0
DIMSTYLE
105
2B8
102
{ACAD_REACTORS
330
2B9
102
}
330
A
100
AcDbSymbolTableRecord
100
AcDbDimStyleTableRecord
  2
ME10_DIM_13
 70
     0
  3
{\Fgdt;n}<>
 41
7.0
 42
0.0
 44
2.0
 73
     0
 74
     0
 77
     1
 78
     8
140
7.0
147
2.0
172
     1
173
     1
174
     1
175
     1
176
     2
177
     2
271
     2
178
     7
271
     2
340
288
  0
DIMSTYLE
105
2C3
102
{ACAD_REACTORS
330
2C4
102
}
330
A
100
AcDbSymbolTableRecord
100
AcDbDimStyleTableRecord
  2
ME10_DIM_14
 70
     0
 41
7.0
 42
0.0
 44
2.0
 73
     0
 74
     0
 77
     1
 78
     8
140
7.0
147
2.0
172
     1
173
     1
174
     1
175
     1
176
     2
177
     2
271
     2
178
     7
271
     2
340
288
  0
DIMSTYLE
105
2CE
102
{ACAD_REACTORS
330
2CF
102
}
330
A
100
AcDbSymbolTableRecord
100
AcDbDimStyleTableRecord
  2
ME10_DIM_15
 70
     0
 41
7.0
 42
0.0
 44
2.0
 73
     0
 74
     0
 77
     1
 78
     8
140
7.0
147
2.0
172
     1
173
     1
174
     1
175
     1
176
     2
177
     2
271
     2
178
     7
271
     2
340
239
  0
DIMSTYLE
105
2DB
102
{ACAD_REACTORS
330
2DC
102
}
330
A
100
AcDbSymbolTableRecord
100
AcDbDimStyleTableRecord
  2
ME10_DIM_16
 70
     0
  3
{\Fgdt;n}<>
 41
7.0
 42
0.0
 44
2.0
 73
     0
 74
     0
 77
     1
 78
     8
140
7.0
147
2.0
172
     1
173
     1
174
     1
175
     1
176
     2
177
     2
271
     2
178
     7
271
     2
340
288
  0
DIMSTYLE
105
2E6
102
{ACAD_REACTORS
330
2E7
102
}
330
A
100
AcDbSymbolTableRecord
100
AcDbDimStyleTableRecord
  2
ME10_DIM_17
 70
     0
 41
7.0
 42
0.0
 44
2.0
 73
     0
 74
     0
 77
     1
 78
     8
140
7.0
147
2.0
172
     1
173
     1
174
     1
175
     1
176
     2
177
     2
271
     2
178
     7
271
     2
340
288
  0
DIMSTYLE
105
2F1
102
{ACAD_REACTORS
330
2F2
102
}
330
A
100
AcDbSymbolTableRecord
100
AcDbDimStyleTableRecord
  2
ME10_DIM_18
 70
     0
  3
{\Fgdt;n}<>
 41
7.0
 42
0.0
 44
2.0
 73
     0
 74
     0
 77
     1
 78
     8
140
7.0
147
2.0
172
     1
173
     1
174
     1
175
     1
176
     2
177
     2
271
     2
178
     7
271
     2
340
288
  0
DIMSTYLE
105
2FC
102
{ACAD_REACTORS
330
2FD
102
}
330
A
100
AcDbSymbolTableRecord
100
AcDbDimStyleTableRecord
  2
ME10_DIM_19
 70
     0
  3
{\Fgdt;n}<>
 41
7.0
 42
0.0
 44
2.0
 73
     0
 74
     0
 77
     1
 78
     8
140
7.0
147
2.0
172
     1
173
     1
174
     1
175
     1
176
     2
177
     2
271
     2
178
     7
271
     2
340
288
  0
DIMSTYLE
105
307
102
{ACAD_REACTORS
330
308
102
}
330
A
100
AcDbSymbolTableRecord
100
AcDbDimStyleTableRecord
  2
ME10_DIM_20
 70
     0
 41
7.0
 42
0.0
 44
2.0
 73
     0
 74
     0
 77
     1
 78
     8
140
7.0
147
2.0
172
     1
173
     1
174
     1
175
     1
176
     2
177
     2
271
     2
178
     7
271
     2
340
288
  0
ENDTAB
  0
TABLE
  2
BLOCK_RECORD
  5
1
330
0
100
AcDbSymbolTable
 70
    21
  0
BLOCK_RECORD
  5
1F
330
1
100
AcDbSymbolTableRecord
100
AcDbBlockTableRecord
  2
*Model_Space
340
22
  0
BLOCK_RECORD
  5
1B
330
1
100
AcDbSymbolTableRecord
100
AcDbBlockTableRecord
  2
*Paper_Space
340
1E
  0
BLOCK_RECORD
  5
23
330
1
100
AcDbSymbolTableRecord
100
AcDbBlockTableRecord
  2
*Paper_Space0
340
26
  0
BLOCK_RECORD
  5
48
330
1
100
AcDbSymbolTableRecord
100
AcDbBlockTableRecord
  2
U7321-H8-M11
340
0
102
{BLKREFS
331
4C
102
}
  0
BLOCK_RECORD
  5
4B
330
1
100
AcDbSymbolTableRecord
100
AcDbBlockTableRecord
  2
U7321-F-13
340
0
102
{BLKREFS
331
66
102
}
  0
BLOCK_RECORD
  5
4F
330
1
100
AcDbSymbolTableRecord
100
AcDbBlockTableRecord
  2
Y143-0B
340
0
102
{BLKREFS
331
67
102
}
  0
BLOCK_RECORD
  5
52
330
1
100
AcDbSymbolTableRecord
100
AcDbBlockTableRecord
  2
38-134
340
0
102
{BLKREFS
331
68
102
}
  0
BLOCK_RECORD
  5
55
330
1
100
AcDbSymbolTableRecord
100
AcDbBlockTableRecord
  2
35-199A
340
0
102
{BLKREFS
331
5C
102
}
  0
BLOCK_RECORD
  5
58
330
1
100
AcDbSymbolTableRecord
100
AcDbBlockTableRecord
  2
14-38D
340
0
102
{BLKREFS
331
5D
102
}
  0
BLOCK_RECORD
  5
5B
330
1
100
AcDbSymbolTableRecord
100
AcDbBlockTableRecord
  2
35-199BX
340
0
102
{BLKREFS
331
69
102
}
  0
BLOCK_RECORD
  5
60
330
1
100
AcDbSymbolTableRecord
100
AcDbBlockTableRecord
  2
開示A4
340
0
102
{BLKREFS
331
6A
102
}
  0
BLOCK_RECORD
  5
63
330
1
100
AcDbSymbolTableRecord
100
AcDbBlockTableRecord
  2
81-93A
340
0
102
{BLKREFS
331
6B
102
}
  0
BLOCK_RECORD
  5
28E
330
1
100
AcDbSymbolTableRecord
100
AcDbBlockTableRecord
  2
*D10
340
0
  0
BLOCK_RECORD
  5
299
330
1
100
AcDbSymbolTableRecord
100
AcDbBlockTableRecord
  2
*D11
340
0
  0
BLOCK_RECORD
  5
2A4
330
1
100
AcDbSymbolTableRecord
100
AcDbBlockTableRecord
  2
*D12
340
0
  0
BLOCK_RECORD
  5
2AF
330
1
100
AcDbSymbolTableRecord
100
AcDbBlockTableRecord
  2
*D13
340
0
  0
BLOCK_RECORD
  5
2BA
330
1
100
AcDbSymbolTableRecord
100
AcDbBlockTableRecord
  2
*D14
340
0
  0
BLOCK_RECORD
  5
2C5
330
1
100
AcDbSymbolTableRecord
100
AcDbBlockTableRecord
  2
*D15
340
0
  0
BLOCK_RECORD
  5
2D0
330
1
100
AcDbSymbolTableRecord
100
AcDbBlockTableRecord
  2
*D16
340
0
  0
BLOCK_RECORD
  5
2DD
330
1
100
AcDbSymbolTableRecord
100
AcDbBlockTableRecord
  2
*D17
340
0
  0
BLOCK_RECORD
  5
2E8
330
1
100
AcDbSymbolTableRecord
100
AcDbBlockTableRecord
  2
*D18
340
0
  0
BLOCK_RECORD
  5
2F3
330
1
100
AcDbSymbolTableRecord
100
AcDbBlockTableRecord
  2
*D19
340
0
  0
BLOCK_RECORD
  5
2FE
330
1
100
AcDbSymbolTableRecord
100
AcDbBlockTableRecord
  2
*D20
340
0
  0
ENDTAB
  0
ENDSEC
  0
SECTION
  2
BLOCKS
  0
BLOCK
  5
20
330
1F
100
AcDbEntity
  8
0
100
AcDbBlockBegin
  2
*Model_Space
 70
     0
 10
0.0
 20
0.0
 30
0.0
  3
*Model_Space
  1

  0
ENDBLK
  5
21
330
1F
100
AcDbEntity
  8
0
100
AcDbBlockEnd
  0
BLOCK
  5
1C
330
1B
100
AcDbEntity
 67
     1
  8
0
100
AcDbBlockBegin
  2
*Paper_Space
 70
     0
 10
0.0
 20
0.0
 30
0.0
  3
*Paper_Space
  1

  0
ENDBLK
  5
1D
330
1B
100
AcDbEntity
 67
     1
  8
0
100
AcDbBlockEnd
  0
BLOCK
  5
24
330
23
100
AcDbEntity
  8
0
100
AcDbBlockBegin
  2
*Paper_Space0
 70
     0
 10
0.0
 20
0.0
 30
0.0
  3
*Paper_Space0
  1

  0
ENDBLK
  5
25
330
23
100
AcDbEntity
  8
0
100
AcDbBlockEnd
  0
BLOCK
  5
49
330
48
100
AcDbEntity
  8
0
100
AcDbBlockBegin
  2
U7321-H8-M11
 70
     0
 10
-391.3211597284999
 20
260.9466915885517
 30
0.0
  3
U7321-H8-M11
  1

  0
LINE
  5
6C
330
48
100
AcDbEntity
  8
1
  6
Continuous
 62
     7
100
AcDbLine
 10
-13.84294484751223
 20
195.7698681995543
 30
0.0
 11
-13.08583556588809
 21
196.5269774811783
 31
0.0
  0
LINE
  5
6D
330
48
100
AcDbEntity
  8
1
  6
Continuous
 62
     7
100
AcDbLine
 10
-18.7426898153804
 20
210.6691131049093
 30
0.0
 11
-17.8588063388973
 21
211.5529965813925
 31
0.0
  0
LINE
  5
6E
330
48
100
AcDbEntity
  8
1
  6
Continuous
 62
     7
100
AcDbLine
 10
-13.08583556588809
 20
196.5269774811783
 30
0.0
 11
4.64183646421321
 21
214.2546495112796
 31
0.0
  0
LINE
  5
6F
330
48
100
AcDbEntity
  8
1
  6
Continuous
 62
     7
100
AcDbLine
 10
-10.96451522232843
 20
218.4472876979613
 30
0.0
 11
-10.25740844114193
 21
219.154394479148
 31
0.0
  0
LINE
  5
70
330
48
100
AcDbEntity
  8
1
  6
Continuous
 62
     7
100
AcDbLine
 10
-10.96451522232843
 20
218.4472876979613
 30
0.0
 11
-17.8588063388973
 21
211.5529965813925
 31
0.0
  0
ARC
  5
71
330
48
100
AcDbEntity
  8
1
  6
Continuous
 62
     7
100
AcDbCircle
 10
-163.1260315778236
 20
366.9810132482999
 30
0.0
 40
3.7905014138054
100
AcDbArc
 50
218.0118299049885
 51
221.035458067886
  0
ARC
  5
72
330
48
100
AcDbEntity
  8
1
  6
Continuous
 62
     7
100
AcDbCircle
 10
-173.2730044568113
 20
195.0439281783927
 30
0.0
 40
6.440333889438788
100
AcDbArc
 50
47.64884174047317
 51
51.03236674995535
  0
ARC
  5
73
330
48
100
AcDbEntity
  8
1
  6
Continuous
 62
     7
100
AcDbCircle
 10
-170.1494351856499
 20
201.2514733052387
 30
0.0
 40
3.790501413801749
100
AcDbArc
 50
282.1800623858377
 51
286.9920919796995
  0
ARC
  5
74
330
48
100
AcDbEntity
  8
1
  6
Continuous
 62
     7
100
AcDbCircle
 10
-169.6158628102844
 20
199.506945630457
 30
0.0
 40
1.966199936094393
100
AcDbArc
 50
286.9787147489514
 51
291.972010412716
  0
ARC
  5
75
330
48
100
AcDbEntity
  8
1
  6
Continuous
 62
     7
100
AcDbCircle
 10
-169.6150627770512
 20
199.5043086910268
 30
0.0
 40
1.963455206088729
100
AcDbArc
 50
291.9791509164003
 51
296.977099680791
  0
ARC
  5
76
330
48
100
AcDbEntity
  8
1
  6
Continuous
 62
     7
100
AcDbCircle
 10
-169.6344495270953
 20
199.5418656101228
 30
0.0
 40
2.005719988146498
100
AcDbArc
 50
296.9839592503503
 51
301.9114364661623
  0
ARC
  5
77
330
48
100
AcDbEntity
  8
1
  6
Continuous
 62
     7
100
AcDbCircle
 10
-169.0826137900901
 20
198.6573464576553
 30
0.0
 40
0.9631773118265955
100
AcDbArc
 50
301.8596243616224
 51
310.1467342181105
  0
ARC
  5
78
330
48
100
AcDbEntity
  8
1
  6
Continuous
 62
     7
100
AcDbCircle
 10
-169.07370661054
 20
198.6459350538978
 30
0.0
 40
0.9487117616986332
100
AcDbArc
 50
310.1798817708359
 51
318.5510552519623
  0
ARC
  5
79
330
48
100
AcDbEntity
  8
1
  6
Continuous
 62
     7
100
AcDbCircle
 10
-169.1090555935818
 20
198.676434598978
 30
0.0
 40
0.9953968388992851
100
AcDbArc
 50
318.5820537952068
 51
326.6892795883724
  0
ARC
  5
7A
330
48
100
AcDbEntity
  8
1
  6
Continuous
 62
     7
100
AcDbCircle
 10
-168.8571875709576
 20
198.5132035309242
 30
0.0
 40
0.6952690794829148
100
AcDbArc
 50
326.5320679075536
 51
337.0081506442539
  0
ARC
  5
7B
330
48
100
AcDbEntity
  8
1
  6
Continuous
 62
     7
100
AcDbCircle
 10
-168.8246323862927
 20
198.4985360810682
 30
0.0
 40
0.659571424826985
100
AcDbArc
 50
337.0764475653199
 51
347.9274743193898
  0
ARC
  5
7C
330
48
100
AcDbEntity
  8
1
  6
Continuous
 62
     7
100
AcDbCircle
 10
-168.8597133916498
 20
198.5051916950679
 30
0.0
 40
0.6952690794931659
100
AcDbArc
 50
347.99577124054
 51
358.4718539770814
  0
ARC
  5
7D
330
48
100
AcDbEntity
  8
1
  6
Continuous
 62
     7
100
AcDbCircle
 10
-169.1596578270216
 20
198.5159256637149
 30
0.0
 40
0.9953968389009751
100
AcDbArc
 50
358.3146422963317
 51
6.42186808947711
  0
ARC
  5
7E
330
48
100
AcDbEntity
  8
1
  6
Continuous
 62
     7
100
AcDbCircle
 10
-169.1132081373146
 20
198.5206372641798
 30
0.0
 40
0.9487117616935024
100
AcDbArc
 50
6.45286663269018
 51
14.8240401138793
  0
ARC
  5
7F
330
48
100
AcDbEntity
  8
1
  6
Continuous
 62
     7
100
AcDbCircle
 10
-169.1270494937919
 20
198.516397590317
 30
0.0
 40
0.9631773118332778
100
AcDbArc
 50
14.85718766659705
 51
23.14429752301271
  0
ARC
  5
80
330
48
100
AcDbEntity
  8
1
  6
Continuous
 62
     7
100
AcDbCircle
 10
-170.0740168517118
 20
198.1141156628839
 30
0.0
 40
1.992048232809211
100
AcDbArc
 50
23.07819219660656
 51
30.50465257463719
  0
ARC
  5
81
330
48
100
AcDbEntity
  8
1
  6
Continuous
 62
     7
100
AcDbCircle
 10
-170.0481228781402
 20
198.128425269571
 30
0.0
 40
1.962474791067954
100
AcDbArc
 50
30.52844740281814
 51
38.02935673097168
  0
ARC
  5
82
330
48
100
AcDbEntity
  8
1
  6
Continuous
 62
     7
100
AcDbCircle
 10
-171.488764877927
 20
197.0031552317697
 30
0.0
 40
3.790501413805747
100
AcDbArc
 50
38.01182990498823
 51
42.82385949884075
  0
ARC
  5
83
330
48
100
AcDbEntity
  8
1
  6
Continuous
 62
     7
100
AcDbCircle
 10
-171.4775542478257
 20
197.012969909174
 30
0.0
 40
3.775607540426521
100
AcDbArc
 50
42.83026110833876
 51
47.65493914020749
  0
ARC
  5
84
330
48
100
AcDbEntity
  8
1
  6
Continuous
 62
     7
100
AcDbCircle
 10
-164.4035062404789
 20
201.2514733052375
 30
0.0
 40
3.790501413800605
100
AcDbArc
 50
253.007908020298
 51
257.8199376141584
  0
ARC
  5
85
330
48
100
AcDbEntity
  8
1
  6
Continuous
 62
     7
100
AcDbCircle
 10
-164.9370786158442
 20
199.506945630457
 30
0.0
 40
1.966199936094471
100
AcDbArc
 50
248.027989587284
 51
253.0212852510486
  0
ARC
  5
86
330
48
100
AcDbEntity
  8
1
  6
Continuous
 62
     7
100
AcDbCircle
 10
-164.9378786490774
 20
199.5043086910268
 30
0.0
 40
1.963455206088623
100
AcDbArc
 50
243.022900319209
 51
248.0208490835997
  0
ARC
  5
87
330
48
100
AcDbEntity
  8
1
  6
Continuous
 62
     7
100
AcDbCircle
 10
-164.9184918990297
 20
199.5418656101294
 30
0.0
 40
2.00571998815407
100
AcDbArc
 50
238.0885635338504
 51
243.016040749644
  0
ARC
  5
88
330
48
100
AcDbEntity
  8
1
  6
Continuous
 62
     7
100
AcDbCircle
 10
-165.4703276360328
 20
198.6573464576626
 30
0.0
 40
0.9631773118357979
100
AcDbArc
 50
229.8532657819112
 51
238.1403756383198
  0
ARC
  5
89
330
48
100
AcDbEntity
  8
1
  6
Continuous
 62
     7
100
AcDbCircle
 10
-165.479234815589
 20
198.6459350538974
 30
0.0
 40
0.948711761698157
100
AcDbArc
 50
221.4489447480356
 51
229.820118229167
  0
ARC
  5
8A
330
48
100
AcDbEntity
  8
1
  6
Continuous
 62
     7
100
AcDbCircle
 10
-165.4438858325538
 20
198.6764345989725
 30
0.0
 40
0.9953968388901864
100
AcDbArc
 50
213.3107204115933
 51
221.4179462048214
  0
ARC
  5
8B
330
48
100
AcDbEntity
  8
1
  6
Continuous
 62
     7
100
AcDbCircle
 10
-165.6957538551685
 20
198.5132035309258
 30
0.0
 40
0.6952690794855872
100
AcDbArc
 50
202.9918493557985
 51
213.4679320924583
  0
ARC
  5
8C
330
48
100
AcDbEntity
  8
1
  6
Continuous
 62
     7
100
AcDbCircle
 10
-165.7283090398332
 20
198.498536081069
 30
0.0
 40
0.6595714248297547
100
AcDbArc
 50
192.0725256806287
 51
202.9235524346629
  0
ARC
  5
8D
330
48
100
AcDbEntity
  8
1
  6
Continuous
 62
     7
100
AcDbCircle
 10
-165.693228034492
 20
198.5051916950663
 30
0.0
 40
0.6952690794799832
100
AcDbArc
 50
181.5281460228142
 51
192.0042287595554
  0
ARC
  5
8E
330
48
100
AcDbEntity
  8
1
  6
Continuous
 62
     7
100
AcDbCircle
 10
-165.3932835991013
 20
198.5159256637149
 30
0.0
 40
0.995396838906696
100
AcDbArc
 50
173.578131910561
 51
181.6853577036587
  0
ARC
  5
8F
330
48
100
AcDbEntity
  8
1
  6
Continuous
 62
     7
100
AcDbCircle
 10
-165.4397332887986
 20
198.5206372641767
 30
0.0
 40
0.9487117617093056
100
AcDbArc
 50
165.1759598861783
 51
173.5471333672298
  0
ARC
  5
90
330
48
100
AcDbEntity
  8
1
  6
Continuous
 62
     7
100
AcDbCircle
 10
-165.4258919323367
 20
198.5163975903168
 30
0.0
 40
0.9631773118331809
100
AcDbArc
 50
156.8557024769717
 51
165.142812333392
  0
ARC
  5
91
330
48
100
AcDbEntity
  8
1
  6
Continuous
 62
     7
100
AcDbCircle
 10
-164.4789245744118
 20
198.1141156628816
 30
0.0
 40
1.992048232814837
100
AcDbArc
 50
149.4953474253788
 51
156.9218078033867
  0
ARC
  5
92
330
48
100
AcDbEntity
  8
1
  6
Continuous
 62
     7
100
AcDbCircle
 10
-164.5048185479841
 20
198.1284252695677
 30
0.0
 40
1.962474791073301
100
AcDbArc
 50
141.9706432690302
 51
149.471552597163
  0
ARC
  5
93
330
48
100
AcDbEntity
  8
1
  6
Continuous
 62
     7
100
AcDbCircle
 10
-163.0641765482019
 20
197.0031552317697
 30
0.0
 40
3.790501413805376
100
AcDbArc
 50
137.1761405011561
 51
141.9881700950089
  0
ARC
  5
94
330
48
100
AcDbEntity
  8
1
  6
Continuous
 62
     7
100
AcDbCircle
 10
-163.0753871783029
 20
197.012969909174
 30
0.0
 40
3.775607540426526
100
AcDbArc
 50
132.3450608597925
 51
137.1697388916613
  0
ARC
  5
95
330
48
100
AcDbEntity
  8
1
  6
Continuous
 62
     7
100
AcDbCircle
 10
-161.2799369693036
 20
195.0439281783764
 30
0.0
 40
6.440333889460202
100
AcDbArc
 50
129.5244813549721
 51
132.3511582595193
  0
ARC
  5
96
330
48
100
AcDbEntity
  8
1
  6
Continuous
 62
     7
100
AcDbCircle
 10
-155.1943929151966
 20
201.7419918591935
 30
0.0
 40
0.9631773118297027
100
AcDbArc
 50
49.8532657819084
 51
58.14037563836781
  0
ARC
  5
97
330
48
100
AcDbEntity
  8
1
  6
Continuous
 62
     7
100
AcDbCircle
 10
-155.7462286522009
 20
200.857472706727
 30
0.0
 40
2.005719988148411
100
AcDbArc
 50
58.08856353383965
 51
59.6405080406166
  0
ARC
  5
98
330
48
100
AcDbEntity
  8
1
  6
Continuous
 62
     7
100
AcDbCircle
 10
-179.3585485109283
 20
201.7419918591884
 30
0.0
 40
0.9631773118361528
100
AcDbArc
 50
121.8596243616692
 51
126.4633546649475
  0
ARC
  5
99
330
48
100
AcDbEntity
  8
1
  6
Continuous
 62
     7
100
AcDbCircle
 10
-178.8067127739259
 20
200.8574727067237
 30
0.0
 40
2.005719988152085
100
AcDbArc
 50
120.35949195938
 51
121.9114364661588
  0
ARC
  5
9A
330
48
100
AcDbEntity
  8
1
  6
Continuous
 62
     7
100
AcDbCircle
 10
-170.2112902152718
 20
362.7326951748311
 30
0.0
 40
3.790501413801661
100
AcDbArc
 50
73.00790802030022
 51
77.81993761416057
  0
ARC
  5
9B
330
48
100
AcDbEntity
  8
1
  6
Continuous
 62
     7
100
AcDbCircle
 10
-169.6777178399062
 20
364.4772228496128
 30
0.0
 40
1.966199936094297
100
AcDbArc
 50
68.02798958728552
 51
73.02128525105059
  0
ARC
  5
9C
330
48
100
AcDbEntity
  8
1
  6
Continuous
 62
     7
100
AcDbCircle
 10
-169.676917806673
 20
364.4798597890429
 30
0.0
 40
1.963455206088686
100
AcDbArc
 50
63.0229003192128
 51
68.02084908360247
  0
ARC
  5
9D
330
48
100
AcDbEntity
  8
1
  6
Continuous
 62
     7
100
AcDbCircle
 10
-169.6963045567171
 20
364.4423028699468
 30
0.0
 40
2.005719988146728
100
AcDbArc
 50
58.08856353384317
 51
63.01604074965484
  0
ARC
  5
9E
330
48
100
AcDbEntity
  8
1
  6
Continuous
 62
     7
100
AcDbCircle
 10
-169.1444688197121
 20
365.3268220224143
 30
0.0
 40
0.9631773118267565
100
AcDbArc
 50
49.85326578189328
 51
58.14037563837812
  0
ARC
  5
9F
330
48
100
AcDbEntity
  8
1
  6
Continuous
 62
     7
100
AcDbCircle
 10
-169.1355616401618
 20
365.3382334261719
 30
0.0
 40
0.9487117616987562
100
AcDbArc
 50
41.44894474804023
 51
49.8201182291749
  0
ARC
  5
A0
330
48
100
AcDbEntity
  8
1
  6
Continuous
 62
     7
100
AcDbCircle
 10
-169.1709106232038
 20
365.3077338810917
 30
0.0
 40
0.9953968388994138
100
AcDbArc
 50
33.31072041162399
 51
41.41794620478696
  0
ARC
  5
A1
330
48
100
AcDbEntity
  8
1
  6
Continuous
 62
     7
100
AcDbCircle
 10
-168.9190426005794
 20
365.4709649491455
 30
0.0
 40
0.6952690794827908
100
AcDbArc
 50
22.99184935574112
 51
33.46793209244965
  0
ARC
  5
A2
330
48
100
AcDbEntity
  8
1
  6
Continuous
 62
     7
100
AcDbCircle
 10
-168.8864874159144
 20
365.4856323990014
 30
0.0
 40
0.659571424826795
100
AcDbArc
 50
12.07252568063072
 51
22.92355243468546
  0
ARC
  5
A3
330
48
100
AcDbEntity
  8
1
  6
Continuous
 62
     7
100
AcDbCircle
 10
-168.9215684212718
 20
365.4789767850018
 30
0.0
 40
0.6952690794932939
100
AcDbArc
 50
1.52814602291615
 51
12.00422875946719
  0
ARC
  5
A4
330
48
100
AcDbEntity
  8
1
  6
Continuous
 62
     7
100
AcDbCircle
 10
-169.2215128566434
 20
365.4682428163548
 30
0.0
 40
0.9953968389008213
100
AcDbArc
 50
353.5781319105229
 51
1.6853577036669
  0
ARC
  5
A5
330
48
100
AcDbEntity
  8
1
  6
Continuous
 62
     7
100
AcDbCircle
 10
-169.1750631669364
 20
365.4635312158899
 30
0.0
 40
0.9487117616935024
100
AcDbArc
 50
345.1759598861281
 51
353.5471333673117
  0
ARC
  5
A6
330
48
100
AcDbEntity
  8
1
  6
Continuous
 62
     7
100
AcDbCircle
 10
-169.1889045234137
 20
365.4677708897527
 30
0.0
 40
0.9631773118331923
100
AcDbArc
 50
336.8557024769831
 51
345.1428123334065
  0
ARC
  5
A7
330
48
100
AcDbEntity
  8
1
  6
Continuous
 62
     7
100
AcDbCircle
 10
-170.1358718813337
 20
365.8700528171858
 30
0.0
 40
1.992048232809203
100
AcDbArc
 50
329.495347425364
 51
336.9218078033934
  0
ARC
  5
A8
330
48
100
AcDbEntity
  8
1
  6
Continuous
 62
     7
100
AcDbCircle
 10
-170.1099779077621
 20
365.8557432104988
 30
0.0
 40
1.962474791068024
100
AcDbArc
 50
321.9706432690319
 51
329.4715525971802
  0
ARC
  5
A9
330
48
100
AcDbEntity
  8
1
  6
Continuous
 62
     7
100
AcDbCircle
 10
-171.5506199075487
 20
366.9810132482999
 30
0.0
 40
3.790501413805585
100
AcDbArc
 50
318.8575310259902
 51
321.9881700950141
  0
ARC
  5
AA
330
48
100
AcDbEntity
  8
1
  6
Continuous
 62
     7
100
AcDbCircle
 10
-164.4653612701006
 20
362.7326951748322
 30
0.0
 40
3.790501413800555
100
AcDbArc
 50
102.1800623858416
 51
106.9920919797033
  0
ARC
  5
AB
330
48
100
AcDbEntity
  8
1
  6
Continuous
 62
     7
100
AcDbCircle
 10
-164.998933645466
 20
364.4772228496128
 30
0.0
 40
1.966199936094257
100
AcDbArc
 50
106.9787147489526
 51
111.9720104127176
  0
ARC
  5
AC
330
48
100
AcDbEntity
  8
1
  6
Continuous
 62
     7
100
AcDbCircle
 10
-164.9997336786993
 20
364.4798597890429
 30
0.0
 40
1.96345520608866
100
AcDbArc
 50
111.9791509163975
 51
116.9770996807843
  0
ARC
  5
AD
330
48
100
AcDbEntity
  8
1
  6
Continuous
 62
     7
100
AcDbCircle
 10
-164.9803469286514
 20
364.4423028699403
 30
0.0
 40
2.005719988154113
100
AcDbArc
 50
116.9839592503552
 51
121.9114364661486
  0
ARC
  5
AE
330
48
100
AcDbEntity
  8
1
  6
Continuous
 62
     7
100
AcDbCircle
 10
-165.5321826656548
 20
365.3268220224071
 30
0.0
 40
0.9631773118357464
100
AcDbArc
 50
121.8596243616623
 51
130.1467342180702
  0
ARC
  5
AF
330
48
100
AcDbEntity
  8
1
  6
Continuous
 62
     7
100
AcDbCircle
 10
-165.5410898452108
 20
365.3382334261723
 30
0.0
 40
0.9487117616981078
100
AcDbArc
 50
130.1798817708222
 51
138.5510552519585
  0
ARC
  5
B0
330
48
100
AcDbEntity
  8
1
  6
Continuous
 62
     7
100
AcDbCircle
 10
-165.5057408621756
 20
365.3077338810972
 30
0.0
 40
0.995396838890368
100
AcDbArc
 50
138.5820537951729
 51
146.6892795884131
  0
ARC
  5
B1
330
48
100
AcDbEntity
  8
1
  6
Continuous
 62
     7
100
AcDbCircle
 10
-165.7576088847904
 20
365.4709649491438
 30
0.0
 40
0.6952690794857601
100
AcDbArc
 50
146.5320679075429
 51
157.0081506442073
  0
ARC
  5
B2
330
48
100
AcDbEntity
  8
1
  6
Continuous
 62
     7
100
AcDbCircle
 10
-165.7901640694552
 20
365.4856323990007
 30
0.0
 40
0.6595714248294606
100
AcDbArc
 50
157.0764475653439
 51
167.927474319354
  0
ARC
  5
B3
330
48
100
AcDbEntity
  8
1
  6
Continuous
 62
     7
100
AcDbCircle
 10
-165.7550830641138
 20
365.4789767850034
 30
0.0
 40
0.6952690794798758
100
AcDbArc
 50
167.9957712404317
 51
178.4718539771855
  0
ARC
  5
B4
330
48
100
AcDbEntity
  8
1
  6
Continuous
 62
     7
100
AcDbCircle
 10
-165.455138628723
 20
365.4682428163548
 30
0.0
 40
0.9953968389066562
100
AcDbArc
 50
178.3146422963429
 51
186.4218680894385
  0
ARC
  5
B5
330
48
100
AcDbEntity
  8
1
  6
Continuous
 62
     7
100
AcDbCircle
 10
-165.5015883184203
 20
365.463531215893
 30
0.0
 40
0.9487117617094681
100
AcDbArc
 50
186.4528666327694
 51
194.8240401138151
  0
ARC
  5
B6
330
48
100
AcDbEntity
  8
1
  6
Continuous
 62
     7
100
AcDbCircle
 10
-165.4877469619585
 20
365.4677708897528
 30
0.0
 40
0.9631773118331881
100
AcDbArc
 50
194.8571876665967
 51
203.1442975230174
  0
ARC
  5
B7
330
48
100
AcDbEntity
  8
1
  6
Continuous
 62
     7
100
AcDbCircle
 10
-164.5407796040336
 20
365.8700528171881
 30
0.0
 40
1.992048232814704
100
AcDbArc
 50
203.0781921966103
 51
210.5046525746193
  0
ARC
  5
B8
330
48
100
AcDbEntity
  8
1
  6
Continuous
 62
     7
100
AcDbCircle
 10
-164.5666735776058
 20
365.8557432105019
 30
0.0
 40
1.96247479107321
100
AcDbArc
 50
210.5284474028317
 51
218.0293567309646
  0
ARC
  5
B9
330
48
100
AcDbEntity
  8
1
  6
Continuous
 62
     7
100
AcDbCircle
 10
-13.79294234707459
 20
200.7696181682977
 30
0.0
 40
4.999999999999997
100
AcDbArc
 50
171.8698976458423
 51
269.4270040008053
  0
ARC
  5
BA
330
48
100
AcDbEntity
  8
1
  6
Continuous
 62
     7
100
AcDbCircle
 10
-42.29847466751392
 20
206.0729190271968
 30
0.0
 40
24.00000000000004
100
AcDbArc
 50
348.9591925000979
 51
11.04080749990229
  0
ARC
  5
BB
330
48
100
AcDbEntity
  8
1
  6
Continuous
 62
     7
100
AcDbCircle
 10
-0.35791350453019
 20
214.2046470108421
 30
0.0
 40
4.999999999999964
100
AcDbArc
 50
0.57299599919312
 51
98.13010235415949
  0
ARC
  5
BC
330
48
100
AcDbEntity
  8
1
  6
Continuous
 62
     7
100
AcDbCircle
 10
-5.66121436342939
 20
242.7101793312814
 30
0.0
 40
23.99999999999994
100
AcDbArc
 50
258.9591925000975
 51
281.040807499902
  0
SPLINE
  5
BD
330
48
100
AcDbEntity
  8
0
  6
Continuous
 62
     7
100
AcDbSpline
210
0.0
220
0.0
230
1.0
 70
    11
 71
     3
 72
    79
 73
    75
 74
    73
 42
0.000000001
 43
0.0000000001
 44
0.00000001
 40
0.0
 40
0.0
 40
0.0
 40
0.0
 40
0.2804298649000982
 40
0.5608615546295272
 40
0.843039041188227
 40
1.125221498489625
 40
1.410656629591403
 40
1.696098719412458
 40
1.985866395263564
 40
2.275641679865196
 40
2.570259896478415
 40
2.86488527687488
 40
3.164276383431174
 40
3.463673493276991
 40
3.767200494705935
 40
4.070731947280103
 40
4.377293184817275
 40
4.683857138951271
 40
4.992021206918459
 40
5.300186186186611
 40
5.60835116544469
 40
5.91651523338166
 40
6.223079187465137
 40
6.529640424930736
 40
6.833171877412277
 40
7.136698878725858
 40
7.436095988434312
 40
7.735487094828088
 40
8.030112475038035
 40
8.324730691436285
 40
8.614505975795785
 40
8.904273651369893
 40
9.189715740876744
 40
9.475150871608475
 40
9.757333328453836
 40
10.03951081434903
 40
10.31994250264857
 40
10.6003723763505
 40
10.88080225005255
 40
11.16123393835218
 40
11.4434114242475
 40
11.72559388109293
 40
12.01102901182449
 40
12.29647110133111
 40
12.58623877690527
 40
12.87601406126486
 40
13.17063227766315
 40
13.46525765787316
 40
13.76464876426691
 40
14.0640458739753
 40
14.36757287528878
 40
14.67110432777029
 40
14.97766556523597
 40
15.28422951931951
 40
15.59239358725639
 40
15.90055856651444
 40
16.2087235457826
 40
16.51688761374983
 40
16.8234515678838
 40
17.13001280542091
 40
17.43354425799516
 40
17.73707125942415
 40
18.03646836926996
 40
18.3358594758262
 40
18.63048485622256
 40
18.92510307283576
 40
19.21487835743755
 40
19.50464603328886
 40
19.7900881231097
 40
20.07552325421129
 40
20.35770571151266
 40
20.63988319807136
 40
20.92031488780103
 40
21.20074475270137
 40
21.20074475270137
 40
21.20074475270137
 40
21.20074475270137
 10
-17.56114582443843
 20
202.051167160115
 30
0.0
 10
-17.62542396224082
 20
201.9831996526474
 30
0.0
 10
-17.7539806600749
 20
201.8472641991277
 30
0.0
 10
-17.92130371045799
 20
201.6206834164485
 30
0.0
 10
-18.06793875290898
 20
201.3798903489376
 30
0.0
 10
-18.19153112691315
 20
201.1245060947693
 30
0.0
 10
-18.29106088982564
 20
200.8577094085837
 30
0.0
 10
-18.36619348411328
 20
200.580422418758
 30
0.0
 10
-18.41592964595382
 20
200.2960120892927
 30
0.0
 10
-18.44026276266051
 20
200.0052605751305
 30
0.0
 10
-18.43879449308456
 20
199.7118782058242
 30
0.0
 10
-18.41163180667297
 20
199.4165515090431
 30
0.0
 10
-18.35906131741456
 20
199.12305706025
 30
0.0
 10
-18.28129422877285
 20
198.8321555170144
 30
0.0
 10
-18.17923821905814
 20
198.5473947355953
 30
0.0
 10
-18.05329661650569
 20
198.2697510100645
 30
0.0
 10
-17.90483940516867
 20
198.0023079290208
 30
0.0
 10
-17.73460391472448
 20
197.7463239932986
 30
0.0
 10
-17.54421260408056
 20
197.5042746662209
 30
0.0
 10
-17.33488767733423
 20
197.2776753518016
 30
0.0
 10
-17.10828836315561
 20
197.068350424812
 30
0.0
 10
-16.86623903630995
 20
196.8779591139144
 30
0.0
 10
-16.61025510083216
 20
196.7077236232254
 30
0.0
 10
-16.34281201997199
 20
196.5592664115782
 30
0.0
 10
-16.06516829483583
 20
196.4333248089193
 30
0.0
 10
-15.78040751301913
 20
196.3312687982987
 30
0.0
 10
-15.48950597229673
 20
196.2535017116512
 30
0.0
 10
-15.19601151524578
 20
196.2009312136051
 30
0.0
 10
-14.90068484984209
 20
196.1737685580263
 30
0.0
 10
-14.60730236549684
 20
196.1723001728512
 30
0.0
 10
-14.31655127491719
 20
196.1966337125577
 30
0.0
 10
-14.03213937900299
 20
196.2463683073398
 30
0.0
 10
-13.75485815273934
 20
196.3215066645354
 30
0.0
 10
-13.48804010737621
 20
196.421015067548
 30
0.0
 10
-13.2327346999587
 20
196.5446862874005
 30
0.0
 10
-12.99164868901753
 20
196.6910283850606
 30
0.0
 10
-12.76615475195523
 20
196.8594382836378
 30
0.0
 10
-12.55820087950682
 20
197.0482222151835
 30
0.0
 10
-12.36941694796119
 20
197.2561760876319
 30
0.0
 10
-12.20100704938386
 20
197.4816700246943
 30
0.0
 10
-12.05466495172382
 20
197.7227560356356
 30
0.0
 10
-11.93099373187117
 20
197.9780614430531
 30
0.0
 10
-11.83148532885881
 20
198.2448794884162
 30
0.0
 10
-11.75634697166315
 20
198.5221607146797
 30
0.0
 10
-11.70661237688111
 20
198.8065726105938
 30
0.0
 10
-11.68227883717436
 20
199.0973237011736
 30
0.0
 10
-11.68374722234958
 20
199.3907061855189
 30
0.0
 10
-11.71090987792843
 20
199.6860328509225
 30
0.0
 10
-11.76348037597455
 20
199.9795273079735
 30
0.0
 10
-11.84124746262218
 20
200.2704288486958
 30
0.0
 10
-11.94330347324259
 20
200.5551896305125
 30
0.0
 10
-12.06924507590121
 20
200.8328333556487
 30
0.0
 10
-12.2177022875485
 20
201.1002764365089
 30
0.0
 10
-12.38793777823782
 20
201.3562603719866
 30
0.0
 10
-12.57832908913533
 20
201.5983096988322
 30
0.0
 10
-12.78765401612493
 20
201.8249090130109
 30
0.0
 10
-13.01425333054423
 20
202.0342339397572
 30
0.0
 10
-13.2563026576219
 20
202.2246252504011
 30
0.0
 10
-13.51228659334398
 20
202.3948607408455
 30
0.0
 10
-13.77972967438776
 20
202.5433179521824
 30
0.0
 10
-14.05737339991853
 20
202.6692595547349
 30
0.0
 10
-14.34213418133773
 20
202.7713155644495
 30
0.0
 10
-14.63303572457328
 20
202.8490826530913
 30
0.0
 10
-14.92653017336633
 20
202.9016531423499
 30
0.0
 10
-15.22185687014738
 20
202.9288158287616
 30
0.0
 10
-15.51523923945371
 20
202.9302840983373
 30
0.0
 10
-15.805990753616
 20
202.9059509816305
 30
0.0
 10
-16.09040108308136
 20
202.8562148197899
 30
0.0
 10
-16.36768807290693
 20
202.7810822255023
 30
0.0
 10
-16.63448475909251
 20
202.6815524625901
 30
0.0
 10
-16.88986901326071
 20
202.5579600885859
 30
0.0
 10
-17.13066208077159
 20
202.4113250461348
 30
0.0
 10
-17.35724286345107
 20
202.2440019957517
 30
0.0
 10
-17.49317831697073
 20
202.1154452979175
 30
0.0
 10
-17.56114582443843
 20
202.051167160115
 30
0.0
 11
-17.56114582443843
 21
202.051167160115
 31
0.0
 11
-17.74967049329421
 21
201.8435632983716
 31
0.0
 11
-17.9174765811884
 21
201.6188789669629
 31
0.0
 11
-18.06396803430865
 21
201.3777060252372
 31
0.0
 11
-18.1870229718042
 21
201.1237681954085
 31
0.0
 11
-18.28686767937312
 21
200.8563654124505
 31
0.0
 11
-18.36159496560441
 21
200.5808785357079
 31
0.0
 11
-18.41163150314382
 21
200.295463660799
 31
0.0
 11
-18.4358882808944
 21
200.0067054154559
 31
0.0
 11
-18.43453784942528
 21
199.7120902938813
 31
0.0
 11
-18.40764555288382
 21
199.4186947943653
 31
0.0
 11
-18.35496844998134
 21
199.1239743208667
 31
0.0
 11
-18.27772492257162
 21
198.8347130776103
 31
0.0
 11
-18.17540503862247
 21
198.5489521951478
 31
0.0
 11
-18.05007396256661
 21
198.2725042541455
 31
0.0
 11
-17.9013412972646
 21
198.0044401076292
 31
0.0
 11
-17.73160973209212
 21
197.7491507545805
 31
0.0
 11
-17.54111224412043
 21
197.5069198732073
 31
0.0
 11
-17.33200860563971
 21
197.2805544101703
 31
0.0
 11
-17.10564314260266
 21
197.0714507716897
 31
0.0
 11
-16.86341226122949
 21
196.880953283718
 31
0.0
 11
-16.60812290818085
 21
196.7112217185455
 31
0.0
 11
-16.34005876166452
 21
196.5624890532434
 31
0.0
 11
-16.06361082066228
 21
196.4371579771876
 31
0.0
 11
-15.77784993819989
 21
196.3348380932384
 31
0.0
 11
-15.48858869494341
 21
196.2575945658287
 31
0.0
 11
-15.1938682214448
 21
196.2049174629262
 31
0.0
 11
-14.90047272192894
 21
196.1780251663848
 31
0.0
 11
-14.60585760035428
 21
196.1766747349157
 31
0.0
 11
-14.31709935501102
 21
196.2009315126661
 31
0.0
 11
-14.031684480102
 21
196.2509680502054
 31
0.0
 11
-13.75619760335947
 21
196.3256953364367
 31
0.0
 11
-13.48879482040144
 21
196.4255400440057
 31
0.0
 11
-13.23485699057291
 21
196.5485949815013
 31
0.0
 11
-12.99368404884723
 21
196.6950864346216
 31
0.0
 11
-12.76899971743838
 21
196.8628925225158
 31
0.0
 11
-12.56139585569491
 21
197.0514171913715
 31
0.0
 11
-12.37287118683909
 21
197.2590210531151
 31
0.0
 11
-12.20506509894489
 21
197.483705384524
 31
0.0
 11
-12.05857364582458
 21
197.7248783262498
 31
0.0
 11
-11.93551870832891
 21
197.9788161560784
 31
0.0
 11
-11.83567400076002
 21
198.2462189390363
 31
0.0
 11
-11.76094671452881
 21
198.5217058157786
 31
0.0
 11
-11.71091017698946
 21
198.8071206906877
 31
0.0
 11
-11.68665339923894
 21
199.095878936031
 31
0.0
 11
-11.68800383070807
 21
199.3904940576057
 31
0.0
 11
-11.71489612724952
 21
199.6838895571216
 31
0.0
 11
-11.76757323015208
 21
199.9786100306202
 31
0.0
 11
-11.84481675756183
 21
200.2678712738766
 31
0.0
 11
-11.9471366415108
 21
200.5536321563389
 31
0.0
 11
-12.0724677175665
 21
200.8300800973412
 31
0.0
 11
-12.22120038286864
 21
201.0981442438576
 31
0.0
 11
-12.39093194804133
 21
201.3534335969062
 31
0.0
 11
-12.58142943601301
 21
201.5956644782792
 31
0.0
 11
-12.79053307449362
 21
201.8220299413163
 31
0.0
 11
-13.01689853753064
 21
202.0311335797971
 31
0.0
 11
-13.2591294189038
 21
202.2216310677688
 31
0.0
 11
-13.51441877195239
 21
202.3913626329413
 31
0.0
 11
-13.7824829184687
 21
202.5400952982433
 31
0.0
 11
-14.05893085947109
 21
202.6654263742992
 31
0.0
 11
-14.34469174193362
 21
202.7677462582483
 31
0.0
 11
-14.63395298519001
 21
202.8449897856581
 31
0.0
 11
-14.92867345868854
 21
202.8976668885607
 31
0.0
 11
-15.22206895820438
 21
202.9245591851022
 31
0.0
 11
-15.516684079779
 21
202.9259096165712
 31
0.0
 11
-15.80544232512229
 21
202.9016528388205
 31
0.0
 11
-16.09085720003134
 21
202.851616301281
 31
0.0
 11
-16.36634407677371
 21
202.7768890150498
 31
0.0
 11
-16.63374685973162
 21
202.6770443074811
 31
0.0
 11
-16.88768468956027
 21
202.5539893699856
 31
0.0
 11
-17.128857631286
 21
202.4074979168653
 31
0.0
 11
-17.35354196269489
 21
202.239691828971
 31
0.0
 11
-17.56114582443843
 21
202.051167160115
 31
0.0
  0
SPLINE
  5
BE
330
48
100
AcDbEntity
  8
0
  6
Continuous
 62
     7
100
AcDbSpline
210
0.0
220
0.0
230
1.0
 70
    11
 71
     3
 72
    79
 73
    75
 74
    73
 42
0.000000001
 43
0.0000000001
 44
0.00000001
 40
0.0
 40
0.0
 40
0.0
 40
0.0
 40
0.2804298649002436
 40
0.560861554629805
 40
0.8430390411885572
 40
1.125221498489973
 40
1.410656629591541
 40
1.696098719412353
 40
1.985866395263615
 40
2.275641679865343
 40
2.57025989647865
 40
2.864885276875121
 40
3.164276383431381
 40
3.463673493277188
 40
3.767200494706089
 40
4.070731947280247
 40
4.377293184817388
 40
4.683857138951382
 40
4.992021206918617
 40
5.300186186186759
 40
5.608351165444734
 40
5.916515233381634
 40
6.223079187465221
 40
6.529640424930945
 40
6.833171877412369
 40
7.136698878725832
 40
7.436095988434295
 40
7.735487094828079
 40
8.03011247503808
 40
8.324730691436367
 40
8.614505975795957
 40
8.904273651370112
 40
9.189715740876794
 40
9.475150871608356
 40
9.757333328453775
 40
10.03951081434905
 40
10.31994250264864
 40
10.6003723763506
 40
10.88080225005269
 40
11.16123393835234
 40
11.44341142424746
 40
11.72559388109275
 40
12.01102901182446
 40
12.29647110133128
 40
12.58623877690551
 40
12.87601406126514
 40
13.17063227766334
 40
13.46525765787322
 40
13.76464876426701
 40
14.06404587397549
 40
14.36757287528903
 40
14.67110432777052
 40
14.97766556523615
 40
15.28422951931965
 40
15.59239358725649
 40
15.90055856651448
 40
16.20872354578272
 40
16.51688761375001
 40
16.82345156788397
 40
17.13001280542102
 40
17.43354425799519
 40
17.73707125942409
 40
18.03646836927001
 40
18.33585947582636
 40
18.63048485622271
 40
18.92510307283584
 40
19.21487835743768
 40
19.504646033289
 40
19.79008812310997
 40
20.07552325421172
 40
20.35770571151304
 40
20.63988319807167
 40
20.92031488780117
 40
21.20074475270139
 40
21.20074475270139
 40
21.20074475270139
 40
21.20074475270139
 10
-1.63946249634779
 20
217.9728504882056
 30
0.0
 10
-1.571494988880116
 20
218.037128626008
 30
0.0
 10
-1.435559535360505
 20
218.1656853238422
 30
0.0
 10
-1.208978752681079
 20
218.3330083742254
 30
0.0
 10
-0.968185685170177
 20
218.4796434166764
 30
0.0
 10
-0.7128014310019462
 20
218.6032357906806
 30
0.0
 10
-0.4460047448163765
 20
218.7027655535928
 30
0.0
 10
-0.168717754990834
 20
218.7778981478804
 30
0.0
 10
0.1156925744744547
 20
218.8276343097211
 30
0.0
 10
0.406444088636759
 20
218.8519674264277
 30
0.0
 10
0.6998264579431446
 20
218.8504991568519
 30
0.0
 10
0.9951531547242829
 20
218.8233364704404
 30
0.0
 10
1.288647603517373
 20
218.7707659811819
 30
0.0
 10
1.579549146752953
 20
218.6929988925402
 30
0.0
 10
1.864309928172068
 20
218.5909428828255
 30
0.0
 10
2.141953653702742
 20
218.465001280273
 30
0.0
 10
2.40939673474645
 20
218.3165440689359
 30
0.0
 10
2.665380670468548
 20
218.1463085784916
 30
0.0
 10
2.907429997546324
 20
217.9559172678477
 30
0.0
 10
3.134029311965711
 20
217.7465923411017
 30
0.0
 10
3.343354238955277
 20
217.5199930269229
 30
0.0
 10
3.533745549852568
 20
217.2779437000772
 30
0.0
 10
3.703981040541861
 20
217.0219597645994
 30
0.0
 10
3.852438252189157
 20
216.7545166837393
 30
0.0
 10
3.978379854847938
 20
216.4768729586031
 30
0.0
 10
4.080435865468477
 20
216.1921121767865
 30
0.0
 10
4.158202952116172
 20
215.9012106360642
 30
0.0
 10
4.210773450162273
 20
215.6077161790131
 30
0.0
 10
4.237936105741047
 20
215.3123895136095
 30
0.0
 10
4.239404490916154
 20
215.0190070292642
 30
0.0
 10
4.215070951209365
 20
214.7282559386844
 30
0.0
 10
4.165336356427345
 20
214.4438440427703
 30
0.0
 10
4.090197999231831
 20
214.1665628165067
 30
0.0
 10
3.990689596219538
 20
213.8997447711436
 30
0.0
 10
3.867018376366848
 20
213.6444393637261
 30
0.0
 10
3.720676278706692
 20
213.4033533527849
 30
0.0
 10
3.552266380129452
 20
213.1778594157225
 30
0.0
 10
3.363482448583816
 20
212.9699055432741
 30
0.0
 10
3.15552857613536
 20
212.7811216117284
 30
0.0
 10
2.930034639072929
 20
212.6127117131513
 30
0.0
 10
2.688948628131748
 20
212.4663696154912
 30
0.0
 10
2.433643220714297
 20
212.3426983956387
 30
0.0
 10
2.166825175351222
 20
212.2431899926262
 30
0.0
 10
1.889543949087532
 20
212.1680516354304
 30
0.0
 10
1.605132053173279
 20
212.1183170406484
 30
0.0
 10
1.314380962593571
 20
212.0939835009416
 30
0.0
 10
1.020998478248318
 20
212.0954518861168
 30
0.0
 10
0.7256718128446578
 20
212.1226145416955
 30
0.0
 10
0.4321773557937356
 20
212.1751850397417
 30
0.0
 10
0.1412758150713693
 20
212.2529521263893
 30
0.0
 10
-0.1434849667453494
 20
212.3550081370099
 30
0.0
 10
-0.4211286918815169
 20
212.4809497396686
 30
0.0
 10
-0.6885717727415622
 20
212.629406951316
 30
0.0
 10
-0.9445557082192666
 20
212.7996424420052
 30
0.0
 10
-1.186605035065099
 20
212.9900337529024
 30
0.0
 10
-1.413204349243807
 20
213.1993586798919
 30
0.0
 10
-1.622529275989959
 20
213.4259579943115
 30
0.0
 10
-1.812920586633712
 20
213.6680073213893
 30
0.0
 10
-1.983156077077997
 20
213.9239912571114
 30
0.0
 10
-2.131613288415258
 20
214.1914343381549
 30
0.0
 10
-2.257554890967544
 20
214.4690780636857
 30
0.0
 10
-2.359610900682193
 20
214.7538388451049
 30
0.0
 10
-2.437377989324087
 20
215.0447403883405
 30
0.0
 10
-2.489948478582708
 20
215.3382348371335
 30
0.0
 10
-2.517111164994245
 20
215.6335615339147
 30
0.0
 10
-2.518579434570038
 20
215.9269439032209
 30
0.0
 10
-2.494246317863226
 20
216.2176954173833
 30
0.0
 10
-2.444510156022597
 20
216.5021057468486
 30
0.0
 10
-2.369377561734953
 20
216.7793927366743
 30
0.0
 10
-2.26984779882259
 20
217.0461894228599
 30
0.0
 10
-2.146255424818452
 20
217.3015736770282
 30
0.0
 10
-1.9996203823675
 20
217.5423667445389
 30
0.0
 10
-1.832297331984337
 20
217.7689475272184
 30
0.0
 10
-1.7037406341502
 20
217.9048829807379
 30
0.0
 10
-1.63946249634779
 20
217.9728504882056
 30
0.0
 11
-1.63946249634779
 21
217.9728504882056
 31
0.0
 11
-1.431858634604331
 21
218.1613751570615
 31
0.0
 11
-1.207174303195529
 21
218.3291812449558
 31
0.0
 11
-0.9660013614697452
 21
218.4756726980761
 31
0.0
 11
-0.7120635316410358
 21
218.5987276355716
 31
0.0
 11
-0.4446607486831507
 21
218.6985723431403
 31
0.0
 11
-0.1691738719408136
 21
218.7732996293715
 31
0.0
 11
0.1162410029681797
 21
218.823336166911
 31
0.0
 11
0.4049992483114124
 21
218.8475929446617
 31
0.0
 11
0.6996143698861423
 21
218.8462425131926
 31
0.0
 11
0.9930098694021012
 21
218.8193502166512
 31
0.0
 11
1.287730342900658
 21
218.7666731137487
 31
0.0
 11
1.576991586157078
 21
218.689429586339
 31
0.0
 11
1.862752468619502
 21
218.5871097023898
 31
0.0
 11
2.139200409621765
 21
218.4617786263339
 31
0.0
 11
2.407264556138045
 21
218.3130459610318
 31
0.0
 11
2.66255390918667
 21
218.1433143958593
 31
0.0
 11
2.904784790559928
 21
217.9528169078877
 31
0.0
 11
3.131150253597014
 21
217.743713269407
 31
0.0
 11
3.340253892077548
 21
217.51734780637
 31
0.0
 11
3.530751380049082
 21
217.2751169249968
 31
0.0
 11
3.700482945221721
 21
217.0198275719481
 31
0.0
 11
3.849215610523913
 21
216.7517634254317
 31
0.0
 11
3.974546686579712
 21
216.4753154844296
 31
0.0
 11
4.076866570528807
 21
216.1895546019673
 31
0.0
 11
4.154110097938634
 21
215.9002933587108
 31
0.0
 11
4.206787200841177
 21
215.6055728852122
 31
0.0
 11
4.233679497382551
 21
215.3121773856963
 31
0.0
 11
4.235029928851589
 21
215.0175622641216
 31
0.0
 11
4.210773151101027
 21
214.7288040187783
 31
0.0
 11
4.16073661356171
 21
214.4433891438692
 31
0.0
 11
4.086009327330602
 21
214.1679022671268
 31
0.0
 11
3.98616461976178
 21
213.9004994841689
 31
0.0
 11
3.863109682266074
 21
213.6465616543403
 31
0.0
 11
3.716618229145695
 21
213.4053887126146
 31
0.0
 11
3.548812141251537
 21
213.1807043812057
 31
0.0
 11
3.360287472395783
 21
212.9731005194622
 31
0.0
 11
3.152683610652182
 21
212.7845758506064
 31
0.0
 11
2.927999279243181
 21
212.6167697627122
 31
0.0
 11
2.686826337517547
 21
212.470278309592
 31
0.0
 11
2.432888507689086
 21
212.3472233720964
 31
0.0
 11
2.165485724731085
 21
212.2473786645274
 31
0.0
 11
1.889998847988579
 21
212.1726513782961
 31
0.0
 11
1.60458397307945
 21
212.1226148407567
 31
0.0
 11
1.315825727736069
 21
212.0983580630062
 31
0.0
 11
1.021210606161471
 21
212.0997084944753
 31
0.0
 11
0.7278151066456644
 21
212.1266007910166
 31
0.0
 11
0.4330946331470591
 21
212.1792778939192
 31
0.0
 11
0.1438333898905739
 21
212.256521421329
 31
0.0
 11
-0.1419274925718013
 21
212.3588413052781
 31
0.0
 11
-0.4183754335739991
 21
212.4841723813339
 31
0.0
 11
-0.6864395800902687
 21
212.6329050466361
 31
0.0
 11
-0.9417289331389043
 21
212.8026366118087
 31
0.0
 11
-1.183959814512128
 21
212.9931340997801
 31
0.0
 11
-1.410325277549191
 21
213.2022377382606
 31
0.0
 11
-1.619428916029832
 21
213.4286032012978
 31
0.0
 11
-1.809926404001431
 21
213.6708340826712
 31
0.0
 11
-1.979657969173975
 21
213.9261234357198
 31
0.0
 11
-2.128390634476091
 21
214.1941875822359
 31
0.0
 11
-2.253721710531897
 21
214.4706355232383
 31
0.0
 11
-2.356041594480985
 21
214.7563964057007
 31
0.0
 11
-2.433285121890872
 21
215.0456576489572
 31
0.0
 11
-2.485962224793525
 21
215.3403781224558
 31
0.0
 11
-2.512854521334941
 21
215.6337736219716
 31
0.0
 11
-2.514204952803937
 21
215.9283887435462
 31
0.0
 11
-2.489948175053222
 21
216.2171469888895
 31
0.0
 11
-2.439911637513717
 21
216.5025618637986
 31
0.0
 11
-2.36518435128246
 21
216.7780487405411
 31
0.0
 11
-2.265339643713617
 21
217.0454515234991
 31
0.0
 11
-2.142284706218132
 21
217.2993893533277
 31
0.0
 11
-1.995793253097929
 21
217.5405622950534
 31
0.0
 11
-1.827987165203665
 21
217.7652466264622
 31
0.0
 11
-1.63946249634779
 21
217.9728504882056
 31
0.0
  0
SPLINE
  5
BF
330
48
100
AcDbEntity
  8
0
  6
Continuous
 62
     7
100
AcDbSpline
210
0.0
220
0.0
230
1.0
 70
    11
 71
     3
 72
    79
 73
    75
 74
    73
 42
0.000000001
 43
0.0000000001
 44
0.00000001
 40
0.0
 40
0.0
 40
0.0
 40
0.0
 40
0.3116700467790923
 40
0.6234686029075426
 40
0.9551731604826557
 40
1.287058856055062
 40
1.653584844168336
 40
2.020201090439384
 40
2.428997904310902
 40
2.837843040535027
 40
3.289957829814612
 40
3.742100122107553
 40
4.23374714452792
 40
4.725411053182677
 40
5.24937178710406
 40
5.773342759004063
 40
6.320057951009801
 40
6.866778678449296
 40
7.425225173656764
 40
7.983673423047784
 40
8.54212167244047
 40
9.10056816765235
 40
9.647288895097834
 40
10.19400408710942
 40
10.7179750590123
 40
11.24193579292982
 40
11.73359970156937
 40
12.22524672395659
 40
12.67738901619447
 40
13.12950380538327
 40
13.53834894147932
 40
13.9471457551598
 40
14.31376200118028
 40
14.68028798893262
 40
15.01217368402136
 40
15.34387824078783
 40
15.6556767947127
 40
15.96734684800638
 40
16.27901690130016
 40
16.59081545522504
 40
16.92252001199143
 40
17.25440570708011
 40
17.62093169483254
 40
17.98754794085307
 40
18.39634475453358
 40
18.8051898906297
 40
19.25730467981843
 40
19.70944697205618
 40
20.20109399444338
 40
20.69275790308293
 40
21.21671863700051
 40
21.74068960890339
 40
22.28740480091501
 40
22.8341255283606
 40
23.39257202357247
 40
23.95102027296508
 40
24.50946852235613
 40
25.06791501756354
 40
25.61463574500304
 40
26.1613509370088
 40
26.68532190890884
 40
27.20928264283027
 40
27.70094655148491
 40
28.19259357390522
 40
28.64473586619822
 40
29.0968506554779
 40
29.50569579170189
 40
29.9144926055734
 40
30.2811088518446
 40
30.64763483995805
 40
30.97952053553035
 40
31.31122509310539
 40
31.62302364923394
 40
31.93469369601313
 40
31.93469369601313
 40
31.93469369601313
 40
31.93469369601313
 10
-11.6419047071675
 20
202.9706583086424
 30
0.0
 10
-11.56487163071751
 20
202.9006331431436
 30
0.0
 10
-11.4107737217822
 20
202.7605539313972
 30
0.0
 10
-11.13616619614448
 20
202.5957076338416
 30
0.0
 10
-10.83587244178823
 20
202.468768142594
 30
0.0
 10
-10.50308479300974
 20
202.3801167157114
 30
0.0
 10
-10.15048961538729
 20
202.3319320479104
 30
0.0
 10
-9.769283382305108
 20
202.3230763517099
 30
0.0
 10
-9.375047395765648
 20
202.3532434925094
 30
0.0
 10
-8.957203107410887
 20
202.4235887381217
 30
0.0
 10
-8.532335641277436
 20
202.5307034565085
 30
0.0
 10
-8.090441797986141
 20
202.6775596098756
 30
0.0
 10
-7.647098074624687
 20
202.8584692465691
 30
0.0
 10
-7.194408001537517
 20
203.0770738491518
 30
0.0
 10
-6.745617997278856
 20
203.3265709646557
 30
0.0
 10
-6.295716353794072
 20
203.6101041465584
 30
0.0
 10
-5.854897457209372
 20
203.9209182747464
 30
0.0
 10
-5.421284991296038
 20
204.2606441431862
 30
0.0
 10
-5.001747390263951
 20
204.6236104751494
 30
0.0
 10
-4.597417990094855
 20
205.009122639777
 30
0.0
 10
-4.211905825522091
 20
205.4134520399916
 30
0.0
 10
-3.848939493592521
 20
205.8329896410825
 30
0.0
 10
-3.509213625239418
 20
206.2666021069863
 30
0.0
 10
-3.198399496907316
 20
206.7074210037688
 30
0.0
 10
-2.914866315634397
 20
207.1573226466457
 30
0.0
 10
-2.66536919788799
 20
207.6061126531295
 30
0.0
 10
-2.44676460312683
 20
208.058802718329
 30
0.0
 10
-2.265854938241843
 20
208.5021464697609
 30
0.0
 10
-2.118998881734854
 20
208.9440402160014
 30
0.0
 10
-2.011883819252396
 20
209.3689080259686
 30
0.0
 10
-1.941539740348462
 20
209.7867511472589
 30
0.0
 10
-1.911368486262365
 20
210.1809912466375
 30
0.0
 10
-1.920238028355598
 20
210.562183633249
 30
0.0
 10
-1.968373844038164
 20
210.9148276622723
 30
0.0
 10
-2.057191214629696
 20
211.2474493663526
 30
0.0
 10
-2.183537125188306
 20
211.5483366995589
 30
0.0
 10
-2.350472263944315
 20
211.8208553851224
 30
0.0
 10
-2.552886754942938
 20
212.0596762608671
 30
0.0
 10
-2.791707630687656
 20
212.2620907518657
 30
0.0
 10
-3.064226316251011
 20
212.4290258906218
 30
0.0
 10
-3.365113649457394
 20
212.5553718011801
 30
0.0
 10
-3.697735353537667
 20
212.6441891717718
 30
0.0
 10
-4.050379382560994
 20
212.6923249874543
 30
0.0
 10
-4.431571769172442
 20
212.7011945295477
 30
0.0
 10
-4.825811868551185
 20
212.6710232754616
 30
0.0
 10
-5.243654989841469
 20
212.6006791965575
 30
0.0
 10
-5.668522799808639
 20
212.4935641340751
 30
0.0
 10
-6.110416546049085
 20
212.3467080775683
 30
0.0
 10
-6.553760297480899
 20
212.1657984126832
 30
0.0
 10
-7.006450362680381
 20
211.947193817922
 30
0.0
 10
-7.455240369164187
 20
211.6976967001755
 30
0.0
 10
-7.90514201204121
 20
211.4141635189027
 30
0.0
 10
-8.345960908823711
 20
211.1033493905706
 30
0.0
 10
-8.779573374727612
 20
210.7636235222176
 30
0.0
 10
-9.199110975818508
 20
210.400657190288
 30
0.0
 10
-9.603440376033104
 20
210.0151450257151
 30
0.0
 10
-9.988952540660598
 20
209.610815625546
 30
0.0
 10
-10.35191887262387
 20
209.191278024514
 30
0.0
 10
-10.69164474106367
 20
208.7576655586006
 30
0.0
 10
-11.00245886925165
 20
208.316846662016
 30
0.0
 10
-11.2859920511543
 20
207.866945018531
 30
0.0
 10
-11.53548916665823
 20
207.4181550142725
 30
0.0
 10
-11.75409376924097
 20
206.9654649411853
 30
0.0
 10
-11.93500340593456
 20
206.522121217824
 30
0.0
 10
-12.08185955930161
 20
206.0802273745326
 30
0.0
 10
-12.18897427768857
 20
205.6553599083992
 30
0.0
 10
-12.25931952330077
 20
205.2375156200445
 30
0.0
 10
-12.28948666410048
 20
204.8432796335049
 30
0.0
 10
-12.28063096789965
 20
204.4620734004227
 30
0.0
 10
-12.23244630009868
 20
204.1094782228002
 30
0.0
 10
-12.14379487321613
 20
203.7766905740217
 30
0.0
 10
-12.01685538196847
 20
203.4763968196655
 30
0.0
 10
-11.85200908441283
 20
203.2017892940278
 30
0.0
 10
-11.71192987266645
 20
203.0476913850924
 30
0.0
 10
-11.6419047071675
 20
202.9706583086424
 30
0.0
 11
-11.6419047071675
 21
202.9706583086424
 31
0.0
 11
-11.40452151366268
 21
202.7686992988436
 31
0.0
 11
-11.13881075377799
 21
202.6055547911695
 31
0.0
 11
-10.83341000232178
 21
202.4761009613164
 31
0.0
 11
-10.51301261966802
 21
202.3895351952397
 31
0.0
 11
-10.15001429045669
 21
202.3388053938313
 31
0.0
 11
-9.783524864473634
 21
202.3291631669648
 31
0.0
 11
-9.375844782919303
 21
202.3593589618251
 31
0.0
 11
-8.972512604497126
 21
202.4262730798739
 31
0.0
 11
-8.533925862572929
 21
202.5360430777901
 31
0.0
 11
-8.104618036866725
 21
202.6779142984032
 31
0.0
 11
-7.649196524588454
 21
202.8631385970031
 31
0.0
 11
-7.206211698843106
 21
203.0764408314645
 31
0.0
 11
-6.748074702781365
 21
203.330695317226
 31
0.0
 11
-6.304591212392609
 21
203.6097436520145
 31
0.0
 11
-5.857646387153808
 21
203.9246052475841
 31
0.0
 11
-5.427151859753224
 21
204.2616186237156
 31
0.0
 11
-5.004775430083227
 21
204.6269412751737
 31
0.0
 11
-4.600554191649621
 21
205.012258855417
 31
0.0
 11
-4.215236611406209
 21
205.4164800938507
 31
0.0
 11
-3.849913959948196
 21
205.8388565235206
 31
0.0
 11
-3.512900583816759
 21
206.2693510509211
 31
0.0
 11
-3.19803898824722
 21
206.7162958761599
 31
0.0
 11
-2.918990653458622
 21
207.1597793665487
 31
0.0
 11
-2.664736167697015
 21
207.6179163626105
 31
0.0
 11
-2.45143393323573
 21
208.0609011883557
 31
0.0
 11
-2.266209634636027
 21
208.5163227006339
 31
0.0
 11
-2.124338414022777
 21
208.9456305263402
 31
0.0
 11
-2.014568416106499
 21
209.3842172682645
 31
0.0
 11
-1.947654298057625
 21
209.7875494466866
 31
0.0
 11
-1.917458503197395
 21
210.1952295282409
 31
0.0
 11
-1.927100730063855
 21
210.5617189542241
 31
0.0
 11
-1.977830531472307
 21
210.9247172834355
 31
0.0
 11
-2.064396297548967
 21
211.2451146660893
 31
0.0
 11
-2.193850127402016
 21
211.5505154175455
 31
0.0
 11
-2.356994635076214
 21
211.8162261774302
 31
0.0
 11
-2.558953644875032
 21
212.0536093709349
 31
0.0
 11
-2.79633683837982
 21
212.2555683807338
 31
0.0
 11
-3.062047598264485
 21
212.418712888408
 31
0.0
 11
-3.367448349720661
 21
212.5481667182609
 31
0.0
 11
-3.687845732374399
 21
212.6347324843376
 31
0.0
 11
-4.050844061585908
 21
212.6854622857461
 31
0.0
 11
-4.417333487569124
 21
212.6951045126126
 31
0.0
 11
-4.825013569123452
 21
212.6649087177524
 31
0.0
 11
-5.228345747545632
 21
212.5979945997034
 31
0.0
 11
-5.666932489469854
 21
212.4882246017872
 31
0.0
 11
-6.09624031517609
 21
212.3463533811741
 31
0.0
 11
-6.551661827454222
 21
212.1611290825743
 31
0.0
 11
-6.994646653199425
 21
211.947826848113
 31
0.0
 11
-7.45278364926125
 21
211.6935723623513
 31
0.0
 11
-7.896267139650092
 21
211.4145240275628
 31
0.0
 11
-8.343211964888916
 21
211.0996624319933
 31
0.0
 11
-8.773706492289534
 21
210.7626490558618
 31
0.0
 11
-9.19608292195949
 21
210.3973264044038
 31
0.0
 11
-9.600304160393023
 21
210.0120088241604
 31
0.0
 11
-9.985621740636383
 21
209.6077875857268
 31
0.0
 11
-10.35094439209439
 21
209.1854111560568
 31
0.0
 11
-10.68795776822595
 21
208.7549166286562
 31
0.0
 11
-11.00281936379554
 21
208.3079718034174
 31
0.0
 11
-11.28186769858399
 21
207.8644883130286
 31
0.0
 11
-11.53612218434552
 21
207.4063513169668
 31
0.0
 11
-11.749424418807
 21
206.9633664912216
 31
0.0
 11
-11.9346487174069
 21
206.5079449789434
 31
0.0
 11
-12.07651993802012
 21
206.0786371532372
 31
0.0
 11
-12.18628993593632
 21
205.6400504113129
 31
0.0
 11
-12.2532040539852
 21
205.2367182328908
 31
0.0
 11
-12.28339984884542
 21
204.8290381513365
 31
0.0
 11
-12.27375762197889
 21
204.4625487253533
 31
0.0
 11
-12.22302782057034
 21
204.0995503961418
 31
0.0
 11
-12.13646205449365
 21
203.7791530134882
 31
0.0
 11
-12.00700822464063
 21
203.473752262032
 31
0.0
 11
-11.8438637169664
 21
203.2080415021473
 31
0.0
 11
-11.6419047071675
 21
202.9706583086424
 31
0.0
  0
SPLINE
  5
C0
330
48
100
AcDbEntity
  8
1
  6
Continuous
 62
     7
100
AcDbSpline
210
0.0
220
0.0
230
1.0
 70
     8
 71
     3
 72
    39
 73
    35
 74
    33
 42
0.000000001
 43
0.0000000001
 44
0.00000001
 40
0.0
 40
0.0
 40
0.0
 40
0.0
 40
0.4056869092050482
 40
0.811333056698981
 40
1.011858531315813
 40
1.212813452708452
 40
2.105120348129654
 40
2.996840030529816
 40
3.949040890429936
 40
4.900767092968212
 40
5.912937113261065
 40
6.924761692062269
 40
7.990296111021686
 40
9.055597401592768
 40
10.16277464392622
 40
11.26980967121185
 40
12.40335000440594
 40
13.53682321918196
 40
14.67935888607404
 40
15.82189455302985
 40
16.95536776797697
 40
18.08890810140391
 40
19.19594312893441
 40
20.30312037150221
 40
21.36842166227864
 40
22.43395608142539
 40
23.44578066039623
 40
24.45795068086868
 40
25.40967688361759
 40
26.36187774385024
 40
27.25359742685695
 40
28.14590432042718
 40
28.75282074369527
 40
29.35849543585096
 40
29.35849543585096
 40
29.35849543585096
 40
29.35849543585096
 10
-179.7696729629176
 20
361.9095742134572
 30
0.0
 10
-179.7104044371477
 20
362.0311596348795
 30
0.0
 10
-179.5918733271376
 20
362.2743182545119
 30
0.0
 10
-179.4231741440703
 20
362.5667004832917
 30
0.0
 10
-179.2802807719513
 20
362.7946768667583
 30
0.0
 10
-179.0409084940485
 20
363.1534435081017
 30
0.0
 10
-178.6397228648565
 20
363.68125570679
 30
0.0
 10
-178.0159899839445
 20
364.3485551657895
 30
0.0
 10
-177.318905069233
 20
364.9689367601646
 30
0.0
 10
-176.5387089517272
 20
365.5505467437677
 30
0.0
 10
-175.6970282553673
 20
366.0773901333604
 30
0.0
 10
-174.7842951599794
 20
366.5563127132941
 30
0.0
 10
-173.8230025680435
 20
366.9748425079204
 30
0.0
 10
-172.8055109829174
 20
367.3373092192
 30
0.0
 10
-171.7529385995664
 20
367.6353536082479
 30
0.0
 10
-170.6614549174494
 20
367.8710089899
 30
0.0
 10
-169.5487587399327
 20
368.0396121129222
 30
0.0
 10
-168.4161642211061
 20
368.141837298034
 30
0.0
 10
-167.2764707137835
 20
368.1757065933667
 30
0.0
 10
-166.1367772065141
 20
368.1418372983347
 30
0.0
 10
-165.0041826871554
 20
368.0396121133491
 30
0.0
 10
-163.8914865106886
 20
367.8710089907714
 30
0.0
 10
-162.8000028236315
 20
367.6353536079298
 30
0.0
 10
-161.7474304572594
 20
367.3373092232603
 30
0.0
 10
-160.7299388100641
 20
366.9748424959496
 30
0.0
 10
-159.7686464432355
 20
366.556312759195
 30
0.0
 10
-158.8559125474264
 20
366.0773899730369
 30
0.0
 10
-158.0142347470372
 20
365.5505473289285
 30
0.0
 10
-157.2340284344197
 20
364.9689347199691
 30
0.0
 10
-156.536980290707
 20
364.3485625929962
 30
0.0
 10
-155.9131184408892
 20
363.6812299259792
 30
0.0
 10
-155.43030796408
 20
363.0455806471215
 30
0.0
 10
-155.0531155647062
 20
362.452699252712
 30
0.0
 10
-154.8731560644273
 20
362.0904922585409
 30
0.0
 10
-154.7832684632169
 20
361.9095742134694
 30
0.0
 11
-179.7696729629176
 21
361.9095742134572
 31
0.0
 11
-179.5876829474276
 21
362.272150419822
 31
0.0
 11
-179.3861752444553
 21
362.62420644908
 31
0.0
 11
-179.2795578443234
 21
362.794039297141
 31
0.0
 11
-179.1681887483658
 21
362.9613109462027
 31
0.0
 11
-178.6280703978445
 21
363.6715811474417
 31
0.0
 11
-178.020551467396
 21
364.3243328145771
 31
0.0
 11
-177.3101188054807
 21
364.9583453607613
 31
0.0
 11
-176.5478233495388
 21
365.528159717322
 31
0.0
 11
-175.6905636322086
 21
366.0662990351689
 31
0.0
 11
-174.7950089553616
 21
366.5372245042518
 31
0.0
 11
-173.8184830388217
 21
366.9635585639126
 31
0.0
 11
-172.8151591244307
 21
367.3216199559258
 31
0.0
 11
-171.7500800191827
 21
367.6240235653887
 31
0.0
 11
-170.6680476294014
 21
367.8579732528672
 31
0.0
 11
-169.5473749833633
 21
368.0282862118912
 31
0.0
 11
-168.4184958094031
 21
368.1302339210846
 31
0.0
 11
-167.2764707130643
 21
368.1643868895293
 31
0.0
 11
-166.1344456167255
 21
368.1302339210847
 31
0.0
 11
-165.0055664427653
 21
368.0282862118911
 31
0.0
 11
-163.8848937967273
 21
367.8579732528672
 31
0.0
 11
-162.8028614069461
 21
367.6240235653887
 31
0.0
 11
-161.7377823016981
 21
367.3216199559258
 31
0.0
 11
-160.7344583873071
 21
366.9635585639126
 31
0.0
 11
-159.7579324707672
 21
366.5372245042518
 31
0.0
 11
-158.8623777939201
 21
366.0662990351689
 31
0.0
 11
-158.00511807659
 21
365.5281597173221
 31
0.0
 11
-157.2428226206481
 21
364.9583453607613
 31
0.0
 11
-156.5323899587326
 21
364.3243328145771
 31
0.0
 11
-155.9248710282842
 21
363.6715811474416
 31
0.0
 11
-155.3847526777629
 21
362.9613109462028
 31
0.0
 11
-155.0622456081167
 21
362.4471740546383
 31
0.0
 11
-154.7832684632169
 21
361.9095742134694
 31
0.0
  0
SPLINE
  5
C1
330
48
100
AcDbEntity
  8
1
  6
Continuous
 62
     7
100
AcDbSpline
210
0.0
220
0.0
230
1.0
 70
     8
 71
     3
 72
    33
 73
    29
 74
    27
 42
0.000000001
 43
0.0000000001
 44
0.00000001
 40
0.0
 40
0.0
 40
0.0
 40
0.0
 40
0.1525184305165952
 40
0.3052159079022832
 40
1.368283722217539
 40
2.430823175324434
 40
3.560613667421094
 40
4.690019233595025
 40
5.87919397144343
 40
7.068108733814642
 40
8.303629643194844
 40
9.538991877772329
 40
10.80385578501881
 40
12.06864478332894
 40
13.34352112241129
 40
14.61839746149369
 40
15.88318645980388
 40
17.14805036705047
 40
18.38341260162804
 40
19.61893351100834
 40
20.80784827337953
 40
21.9970230112279
 40
23.12642857740172
 40
24.25621906949839
 40
25.31875852260523
 40
26.38182633692041
 40
26.53452381429538
 40
26.68704224480108
 40
26.68704224480108
 40
26.68704224480108
 40
26.68704224480108
 10
-155.0725803493772
 20
362.0404686022812
 30
0.0
 10
-155.1080598520127
 20
362.0768829549758
 30
0.0
 10
-155.1790605196004
 20
362.1497543970132
 30
0.0
 10
-155.5036945586016
 20
362.4701324499856
 30
0.0
 10
-156.0704949730457
 20
362.9772992375696
 30
0.0
 10
-156.9414014311388
 20
363.6266998635582
 30
0.0
 10
-157.8804871575317
 20
364.2155163915631
 30
0.0
 10
-158.8989609732582
 20
364.7506026002795
 30
0.0
 10
-159.9716097161437
 20
365.2182702057506
 30
0.0
 10
-161.1069560819337
 20
365.6232691033242
 30
0.0
 10
-162.2814637913294
 20
365.9562976227136
 30
0.0
 10
-163.4993754272494
 20
366.2196069831887
 30
0.0
 10
-164.7409685543485
 20
366.4079996088615
 30
0.0
 10
-166.0047569692495
 20
366.5222206670286
 30
0.0
 10
-167.2764707130643
 20
366.5600659601525
 30
0.0
 10
-168.5481844568791
 20
366.5222206670286
 30
0.0
 10
-169.8119728717802
 20
366.4079996088615
 30
0.0
 10
-171.0535659988793
 20
366.2196069831887
 30
0.0
 10
-172.2714776347995
 20
365.9562976227137
 30
0.0
 10
-173.4459853441953
 20
365.6232691033242
 30
0.0
 10
-174.5813317099852
 20
365.2182702057503
 30
0.0
 10
-175.6539804528707
 20
364.7506026002794
 30
0.0
 10
-176.6724542685972
 20
364.2155163915633
 30
0.0
 10
-177.6115399949899
 20
363.6266998635578
 30
0.0
 10
-178.482446453083
 20
362.9772992375699
 30
0.0
 10
-179.0492468675245
 20
362.4701324499875
 30
0.0
 10
-179.3738809065205
 20
362.149754397021
 30
0.0
 10
-179.4448815741034
 20
362.0768829549887
 30
0.0
 10
-179.4803610767365
 20
362.0404686022968
 30
0.0
 11
-155.0725803493772
 21
362.0404686022812
 31
0.0
 11
-155.1793718865092
 21
362.1493604736875
 31
0.0
 11
-155.2879244323091
 21
362.2567516602317
 31
0.0
 11
-156.0805926386916
 21
362.9651232288801
 31
0.0
 11
-156.931228532775
 21
363.6018403262983
 31
0.0
 11
-157.8877374305213
 21
364.2031033987275
 31
0.0
 11
-158.8870665206186
 21
364.7293146685996
 31
0.0
 11
-159.9766664529145
 21
365.2056638498447
 31
0.0
 11
-161.0962399669959
 21
365.6057556600013
 31
0.0
 11
-162.2846618443128
 21
365.9436393036158
 31
0.0
 11
-163.4920497763642
 21
366.2050474704849
 31
0.0
 11
-164.7425167610912
 21
366.3953446626406
 31
0.0
 11
-166.0021656414279
 21
366.5092564963319
 31
0.0
 11
-167.2764707130643
 21
366.5474174925287
 31
0.0
 11
-168.5507757847007
 21
366.5092564963319
 31
0.0
 11
-169.8104246650374
 21
366.3953446626406
 31
0.0
 11
-171.0608916497646
 21
366.2050474704849
 31
0.0
 11
-172.2682795818161
 21
365.9436393036158
 31
0.0
 11
-173.4567014591331
 21
365.6057556600012
 31
0.0
 11
-174.5762749732144
 21
365.2056638498445
 31
0.0
 11
-175.6658749055102
 21
364.7293146685996
 31
0.0
 11
-176.6652039956075
 21
364.2031033987276
 31
0.0
 11
-177.6217128933537
 21
363.6018403262983
 31
0.0
 11
-178.4723487874372
 21
362.9651232288801
 31
0.0
 11
-179.2650169938196
 21
362.2567516602318
 31
0.0
 11
-179.3735695396119
 21
362.1493604736951
 31
0.0
 11
-179.4803610767365
 21
362.0404686022968
 31
0.0
  0
SPLINE
  5
C2
330
48
100
AcDbEntity
  8
1
  6
Continuous
 62
     7
100
AcDbSpline
210
0.0
220
0.0
230
1.0
 70
     8
 71
     3
 72
    39
 73
    35
 74
    33
 42
0.000000001
 43
0.0000000001
 44
0.00000001
 40
0.0
 40
0.0
 40
0.0
 40
0.0
 40
0.6059256131608645
 40
1.21044074627894
 40
1.410966220572578
 40
1.611921140894949
 40
2.504228035341415
 40
3.395947717773588
 40
4.348148577711197
 40
5.299874780251804
 40
6.31204480052318
 40
7.323869379289839
 40
8.389403798208875
 40
9.454705088746195
 40
10.56188233106834
 40
11.66891735838942
 40
12.80245769169849
 40
13.93593090669157
 40
15.07846657389926
 40
16.22100224121293
 40
17.35447545647681
 40
18.48801579012576
 40
19.59505081777137
 40
20.70222806037611
 40
21.76752935114131
 40
22.83306377025442
 40
23.84488834918766
 40
24.85705836962803
 40
25.80878457235407
 40
26.76098543253275
 40
27.65270511507749
 40
28.5450120068321
 40
29.35067912815591
 40
30.1564932519802
 40
30.1564932519802
 40
30.1564932519802
 40
30.1564932519802
 10
-179.8674243443818
 20
202.4406005184202
 30
0.0
 10
-179.7872978891336
 20
202.2550826061172
 30
0.0
 10
-179.6272314843261
 20
201.8844786382309
 30
0.0
 10
-179.3965078298413
 20
201.473629723918
 30
0.0
 10
-179.2184283868435
 20
201.1894929654114
 30
0.0
 10
-178.9790498365122
 20
200.8307231258659
 30
0.0
 10
-178.5778692746059
 20
200.3029135095027
 30
0.0
 10
-177.9541345393331
 20
199.6356131045879
 30
0.0
 10
-177.2570501537327
 20
199.0152317795519
 30
0.0
 10
-176.4768538897173
 20
198.433621721004
 30
0.0
 10
-175.6351732351176
 20
197.9067783525107
 30
0.0
 10
-174.7224401283132
 20
197.4278557665967
 30
0.0
 10
-173.7611475397049
 20
197.0093259735119
 30
0.0
 10
-172.7436559537634
 20
196.6468592616541
 30
0.0
 10
-171.6910835707073
 20
196.3488148725786
 30
0.0
 10
-170.5995998885168
 20
196.1131594907014
 30
0.0
 10
-169.4869037109278
 20
195.9445563674709
 30
0.0
 10
-168.3543091918974
 20
195.842331182146
 30
0.0
 10
-167.2146156842799
 20
195.8084618866998
 30
0.0
 10
-166.0749221766808
 20
195.8423311817024
 30
0.0
 10
-164.9423276570213
 20
195.9445563670158
 30
0.0
 10
-163.8296314804167
 20
196.1131594892046
 30
0.0
 10
-162.7381477931109
 20
196.3488148745797
 30
0.0
 10
-161.6855754273908
 20
196.6468592510782
 30
0.0
 10
-160.6680837779635
 20
197.0093260087395
 30
0.0
 10
-159.7067914196027
 20
197.4278556358254
 30
0.0
 10
-158.7940574941765
 20
197.9067788123309
 30
0.0
 10
-157.9523798015392
 20
198.4336200446169
 30
0.0
 10
-157.17217311033
 20
199.0152376244815
 30
0.0
 10
-156.475126333347
 20
199.6355918236968
 30
0.0
 10
-155.8512596927553
 20
200.3029873710852
 30
0.0
 10
-155.3283319509287
 20
200.9912519092976
 30
0.0
 10
-154.8871481109672
 20
201.7024945435929
 30
0.0
 10
-154.670260642447
 20
202.1945502292305
 30
0.0
 10
-154.5618070225064
 20
202.4406005184129
 30
0.0
 11
-179.8674243443818
 21
202.4406005184202
 31
0.0
 11
-179.6175561529969
 21
201.8885935074616
 31
0.0
 11
-179.3243202148335
 21
201.3599620309898
 31
0.0
 11
-179.2177028147015
 21
201.1901291829288
 31
0.0
 11
-179.1063337187439
 21
201.0228575338669
 31
0.0
 11
-178.5662153682227
 21
200.3125873326281
 31
0.0
 11
-177.9586964377742
 21
199.6598356654927
 31
0.0
 11
-177.2482637758587
 21
199.0258231193086
 31
0.0
 11
-176.4859683199169
 21
198.4560087627478
 31
0.0
 11
-175.6287086025868
 21
197.9178694449009
 31
0.0
 11
-174.7331539257397
 21
197.446943975818
 31
0.0
 11
-173.7566280091999
 21
197.0206099161572
 31
0.0
 11
-172.7533040948089
 21
196.6625485241439
 31
0.0
 11
-171.6882249895609
 21
196.3601449146811
 31
0.0
 11
-170.6061925997796
 21
196.1261952272026
 31
0.0
 11
-169.4855199537415
 21
195.9558822681787
 31
0.0
 11
-168.3566407797813
 21
195.8539345589852
 31
0.0
 11
-167.2146156834426
 21
195.8197815905406
 31
0.0
 11
-166.0725905871038
 21
195.8539345589852
 31
0.0
 11
-164.9437114131436
 21
195.9558822681787
 31
0.0
 11
-163.8230387671055
 21
196.1261952272026
 31
0.0
 11
-162.7410063773243
 21
196.3601449146811
 31
0.0
 11
-161.6759272720762
 21
196.6625485241439
 31
0.0
 11
-160.6726033576851
 21
197.0206099161572
 31
0.0
 11
-159.6960774411453
 21
197.446943975818
 31
0.0
 11
-158.8005227642984
 21
197.9178694449009
 31
0.0
 11
-157.9432630469682
 21
198.4560087627477
 31
0.0
 11
-157.1809675910263
 21
199.0258231193084
 31
0.0
 11
-156.4705349291108
 21
199.6598356654926
 31
0.0
 11
-155.8630159986624
 21
200.3125873326281
 31
0.0
 11
-155.3228976481411
 21
201.0228575338669
 31
0.0
 11
-154.9039374636801
 21
201.7110231277797
 31
0.0
 11
-154.5618070225064
 21
202.4406005184129
 31
0.0
  0
SPLINE
  5
C3
330
48
100
AcDbEntity
  8
1
  6
Continuous
 62
     7
100
AcDbSpline
210
0.0
220
0.0
230
1.0
 70
     8
 71
     3
 72
    33
 73
    29
 74
    27
 42
0.000000001
 43
0.0000000001
 44
0.00000001
 40
0.0
 40
0.0
 40
0.0
 40
0.0
 40
0.4869289021886417
 40
0.9749028451890971
 40
2.03797065596387
 40
3.100510109632597
 40
4.230300601941833
 40
5.359706168234515
 40
6.548880906176334
 40
7.737795668630852
 40
8.973316578097638
 40
10.20867881276583
 40
11.47354272011087
 40
12.73833171852376
 40
14.01320805771141
 40
15.28808439689726
 40
16.55287339530501
 40
17.81773730264232
 40
19.05309953730157
 40
20.28862044675966
 40
21.47753520920758
 40
22.66670994714771
 40
23.79611551344859
 40
24.92590600579239
 40
25.98844545958249
 40
27.05151326983444
 40
27.58905137369149
 40
28.125462974659
 40
28.125462974659
 40
28.125462974659
 40
28.125462974659
 10
-154.5618070225048
 20
202.440600518417
 30
0.0
 10
-154.6682599348962
 20
202.3180262222305
 30
0.0
 10
-154.8813942389557
 20
202.0726145724918
 30
0.0
 10
-155.3584229039081
 20
201.5884957674267
 30
0.0
 10
-156.0086420202779
 20
201.0069299310967
 30
0.0
 10
-156.879545805245
 20
200.3574512119424
 30
0.0
 10
-157.8186322907393
 20
199.7686568630842
 30
0.0
 10
-158.83710589684
 20
199.2335645257186
 30
0.0
 10
-159.9097546988
 20
198.7658986448374
 30
0.0
 10
-161.0451010484401
 20
198.3608992734082
 30
0.0
 10
-162.2196087624114
 20
198.0278708856367
 30
0.0
 10
-163.4375203971844
 20
197.7645614891879
 30
0.0
 10
-164.6791135247124
 20
197.5761688733317
 30
0.0
 10
-165.9429019396242
 20
197.4619478124226
 30
0.0
 10
-167.2146156835653
 20
197.4241025202413
 30
0.0
 10
-168.4863294274853
 20
197.4619478123724
 30
0.0
 10
-169.7501178424451
 20
197.5761688736965
 30
0.0
 10
-170.9917109697606
 20
197.764561488115
 30
0.0
 10
-172.2096226052547
 20
198.0278708899272
 30
0.0
 10
-173.3841303165186
 20
198.3608992581282
 30
0.0
 10
-174.5194766758351
 20
198.7658987000531
 30
0.0
 10
-175.5921254425123
 20
199.2335643243922
 30
0.0
 10
-176.6105991739502
 20
199.7686575734565
 30
0.0
 10
-177.5496852058571
 20
200.3574486230004
 30
0.0
 10
-178.4205905878167
 20
201.0069389592399
 30
0.0
 10
-179.0831355951548
 20
201.5994979033306
 30
0.0
 10
-179.5823534850326
 20
202.1082453533741
 30
0.0
 10
-179.8148477932887
 20
202.3805868839434
 30
0.0
 10
-179.9309730060952
 20
202.5166148199739
 30
0.0
 11
-154.5618070225048
 21
202.440600518417
 31
0.0
 11
-154.8849231020288
 21
202.0763262311
 31
0.0
 11
-155.2260694026874
 21
201.7274168198379
 31
0.0
 11
-156.0187376090698
 21
201.0190452511896
 31
0.0
 11
-156.8693735031532
 21
200.3823281537715
 31
0.0
 11
-157.8258824008994
 21
199.7810650813423
 31
0.0
 11
-158.8252114909968
 21
199.2548538114702
 31
0.0
 11
-159.9148114232927
 21
198.7785046302252
 31
0.0
 11
-161.034384937374
 21
198.3784128200685
 31
0.0
 11
-162.2228068146909
 21
198.0405291764538
 31
0.0
 11
-163.4301947467424
 21
197.7791210095848
 31
0.0
 11
-164.6806617314695
 21
197.5888238174291
 31
0.0
 11
-165.9403106118062
 21
197.4749119837379
 31
0.0
 11
-167.2146156834426
 21
197.436750987541
 31
0.0
 11
-168.488920755079
 21
197.4749119837379
 31
0.0
 11
-169.7485696354157
 21
197.5888238174291
 31
0.0
 11
-170.9990366201428
 21
197.7791210095848
 31
0.0
 11
-172.2064245521943
 21
198.0405291764539
 31
0.0
 11
-173.3948464295112
 21
198.3784128200685
 31
0.0
 11
-174.5144199435925
 21
198.7785046302251
 31
0.0
 11
-175.6040198758883
 21
199.2548538114702
 31
0.0
 11
-176.6033489659855
 21
199.7810650813423
 31
0.0
 11
-177.5598578637318
 21
200.3823281537715
 31
0.0
 11
-178.4104937578153
 21
201.0190452511896
 31
0.0
 11
-179.2031619641977
 21
201.7274168198379
 31
0.0
 11
-179.5780105831237
 21
202.1126904021631
 31
0.0
 11
-179.9309730060952
 21
202.5166148199739
 31
0.0
  0
SPLINE
  5
C4
330
48
100
AcDbEntity
  8
1
  6
Continuous
 62
     7
100
AcDbSpline
210
0.0
220
0.0
230
1.0
 70
    24
 71
     3
 72
     9
 73
     5
 74
     3
 42
0.000000001
 43
0.0000000001
 44
0.00000001
 40
0.0
 40
0.0
 40
0.0
 40
0.0
 40
0.1271335604951459
 40
0.2542671209900699
 40
0.2542671209900699
 40
0.2542671209900699
 40
0.2542671209900699
 10
-179.9309730060952
 20
202.5166148199739
 30
0.0
 10
-179.9575759914673
 20
202.5496021453644
 30
0.0
 10
-180.0107819622114
 20
202.6155767961454
 30
0.0
 10
-180.0639879329557
 20
202.6815514469266
 30
0.0
 10
-180.0905909183277
 20
202.714538772317
 30
0.0
 11
-179.9309730060952
 21
202.5166148199739
 31
0.0
 11
-180.0107819622115
 21
202.6155767961455
 31
0.0
 11
-180.0905909183277
 21
202.714538772317
 31
0.0
  0
SPLINE
  5
C5
330
48
100
AcDbEntity
  8
1
  6
Continuous
 62
     7
100
AcDbSpline
210
0.0
220
0.0
230
1.0
 70
    24
 71
     3
 72
     9
 73
     5
 74
     3
 42
0.000000001
 43
0.0000000001
 44
0.00000001
 40
0.0
 40
0.0
 40
0.0
 40
0.0
 40
0.2378919749017942
 40
0.4757839498036336
 40
0.4757839498036336
 40
0.4757839498036336
 40
0.4757839498036336
 10
-154.5618070225048
 20
202.440600518417
 30
0.0
 10
-154.5118910815295
 20
202.5022159757594
 30
0.0
 10
-154.4120591995788
 20
202.6254468904442
 30
0.0
 10
-154.312227317628
 20
202.7486778051288
 30
0.0
 10
-154.2623113766526
 20
202.8102932624712
 30
0.0
 11
-154.5618070225048
 21
202.440600518417
 31
0.0
 11
-154.4120591995787
 21
202.6254468904441
 31
0.0
 11
-154.2623113766526
 21
202.8102932624712
 31
0.0
  0
ENDBLK
  5
4A
330
48
100
AcDbEntity
  8
0
100
AcDbBlockEnd
  0
BLOCK
  5
4D
330
4B
100
AcDbEntity
  8
0
100
AcDbBlockBegin
  2
U7321-F-13
 70
     0
 10
1441.996345544482
 20
615.6155495436134
 30
0.0
  3
U7321-F-13
  1

  0
INSERT
  5
4C
330
4B
100
AcDbEntity
  8
1
100
AcDbBlockReference
  2
U7321-H8-M11
 10
-109.3211597284999
 20
321.6966915885517
 30
0.0
  0
LINE
  5
C6
330
4B
100
AcDbEntity
  8
1
  6
Continuous
 62
     7
100
AcDbLine
 10
282.4552371315406
 20
292.8798260762248
 30
0.0
 11
250.2818785874103
 21
260.7064675323791
 31
0.0
  0
LINE
  5
C7
330
4B
100
AcDbEntity
  8
1
  6
Continuous
 62
     7
100
AcDbLine
 10
277.5408450023173
 20
297.7942182054917
 30
0.0
 11
245.3674864581867
 21
265.6208596616458
 31
0.0
  0
LINE
  5
C8
330
4B
100
AcDbEntity
  8
1
  6
Continuous
 62
     7
100
AcDbLine
 10
245.3674864581978
 20
268.0957333957987
 30
0.0
 11
275.0659712681643
 21
297.7942182055026
 31
0.0
  0
LINE
  5
C9
330
4B
100
AcDbEntity
  8
1
  6
PHANTOM
 62
     4
100
AcDbLine
 10
141.7235292869357
 20
378.8111014783751
 30
0.0
 11
87.72352928693573
 21
378.8111014783534
 31
0.0
  0
LINE
  5
CA
330
4B
100
AcDbEntity
  8
1
  6
Continuous
 62
     7
100
AcDbLine
 10
137.4735292869357
 20
404.2669456009744
 30
0.0
 11
137.4735292869357
 21
409.3934697645527
 31
0.0
  0
LINE
  5
CB
330
4B
100
AcDbEntity
  8
1
  6
Continuous
 62
     7
100
AcDbLine
 10
91.97352928693573
 20
404.2669456009744
 30
0.0
 11
91.97352928693567
 21
409.3934697645527
 31
0.0
  0
LINE
  5
CC
330
4B
100
AcDbEntity
  8
1
  6
PHANTOM
 62
     4
100
AcDbLine
 10
114.7235292869357
 20
359.8258201040682
 30
0.0
 11
114.7235292869357
 21
431.2680170022608
 31
0.0
  0
LINE
  5
CD
330
4B
100
AcDbEntity
  8
1
  6
Continuous
 62
     7
100
AcDbLine
 10
135.7235292869357
 20
378.8111014783727
 30
0.0
 11
135.7235292869357
 21
403.6234784300974
 31
0.0
  0
LINE
  5
CE
330
4B
100
AcDbEntity
  8
1
  6
Continuous
 62
     7
100
AcDbLine
 10
93.72352928693573
 20
378.8111014783727
 30
0.0
 11
93.72352928693573
 21
403.6234784300974
 31
0.0
  0
LINE
  5
CF
330
4B
100
AcDbEntity
  8
レイヤ0
  6
Continuous
 62
     7
100
AcDbLine
 10
263.1158657328469
 20
273.1161906089921
 30
0.0
 11
270.0455140548139
 21
280.0458389308978
 31
0.0
  0
LINE
  5
D0
330
4B
100
AcDbEntity
  8
レイヤ0
  6
Continuous
 62
     7
100
AcDbLine
 10
270.0455140548139
 20
280.0458389308978
 30
0.0
 11
282.4552371315386
 21
292.4555620075129
 31
0.0
  0
LINE
  5
D1
330
4B
100
AcDbEntity
  8
レイヤ0
  6
Continuous
 62
     7
100
AcDbLine
 10
250.7061426561222
 20
260.7064675323771
 30
0.0
 11
263.1158657328469
 21
273.1161906089921
 31
0.0
  0
LINE
  5
D2
330
4B
100
AcDbEntity
  8
レイヤ0
  6
Continuous
 62
     7
100
AcDbLine
 10
250.7061426561222
 20
260.7064675323771
 30
0.0
 11
250.2818785874103
 21
260.7064675323791
 31
0.0
  0
LINE
  5
D3
330
4B
100
AcDbEntity
  8
1
  6
Continuous
 62
     7
100
AcDbLine
 10
91.9735292869357
 20
276.581014769945
 30
0.0
 11
91.9735292869357
 21
281.7075389335688
 31
0.0
  0
LINE
  5
D4
330
4B
100
AcDbEntity
  8
レイヤ0
  6
Continuous
 62
     7
100
AcDbLine
 10
282.4552371315386
 20
292.4555620075129
 30
0.0
 11
282.4552371315406
 21
292.8798260762248
 31
0.0
  0
LINE
  5
D5
330
4B
100
AcDbEntity
  8
レイヤ0
  6
Continuous
 62
     7
100
AcDbLine
 10
277.5408450023173
 20
297.7942182054917
 30
0.0
 11
282.4552371315406
 21
292.8798260762248
 31
0.0
  0
LINE
  5
D6
330
4B
100
AcDbEntity
  8
1
  6
Continuous
 62
     7
100
AcDbLine
 10
93.7235292869357
 20
287.8962634378523
 30
0.0
 11
93.7235292869357
 21
307.1633830563957
 31
0.0
  0
LINE
  5
D7
330
4B
100
AcDbEntity
  8
1
  6
Continuous
 62
     7
100
AcDbLine
 10
135.7235292869357
 20
287.8962634378521
 30
0.0
 11
135.7235292869357
 21
282.9449758006506
 31
0.0
  0
LINE
  5
D8
330
4B
100
AcDbEntity
  8
1
  6
Continuous
 62
     7
100
AcDbLine
 10
93.7235292869357
 20
282.9449758006507
 30
0.0
 11
93.7235292869357
 21
287.8962634378523
 31
0.0
  0
LINE
  5
D9
330
4B
100
AcDbEntity
  8
1
  6
Continuous
 62
     7
100
AcDbLine
 10
135.7235292869357
 20
307.1633830563957
 30
0.0
 11
135.7235292869357
 21
287.8962634378521
 31
0.0
  0
LINE
  5
DA
330
4B
100
AcDbEntity
  8
レイヤ0
  6
Continuous
 62
     7
100
AcDbLine
 10
270.0455140548139
 20
280.0458389308978
 30
0.0
 11
270.9647750327069
 21
279.1265779529967
 31
0.0
  0
LINE
  5
DB
330
4B
100
AcDbEntity
  8
レイヤ0
  6
Continuous
 62
     7
100
AcDbLine
 10
263.1158657328469
 20
273.1161906089921
 30
0.0
 11
264.0351267107706
 21
272.1969296310604
 31
0.0
  0
LINE
  5
DC
330
4B
100
AcDbEntity
  8
レイヤ0
  6
Continuous
 62
     7
100
AcDbLine
 10
224.3310597180206
 20
295.496121166869
 30
0.0
 11
247.6655834972801
 21
318.8306449459221
 31
0.0
  0
LINE
  5
DD
330
4B
100
AcDbEntity
  8
レイヤ0
  6
Continuous
 62
     7
100
AcDbLine
 10
275.0659712681643
 20
297.7942182055026
 30
0.0
 11
277.5408450023173
 21
297.7942182054917
 31
0.0
  0
LINE
  5
DE
330
4B
100
AcDbEntity
  8
レイヤ0
  6
Continuous
 62
     7
100
AcDbLine
 10
254.029544527959
 20
318.8306449458939
 30
0.0
 11
275.0659712681643
 21
297.7942182055026
 31
0.0
  0
LINE
  5
DF
330
4B
100
AcDbEntity
  8
レイヤ0
  6
Continuous
 62
     7
100
AcDbLine
 10
275.0659712681643
 20
297.7942182055026
 30
0.0
 11
277.5408450023173
 21
297.7942182054917
 31
0.0
  0
LINE
  5
E0
330
4B
100
AcDbEntity
  8
レイヤ0
  6
Continuous
 62
     7
100
AcDbLine
 10
224.3310597179924
 20
289.1321601361902
 30
0.0
 11
245.3674864581978
 21
268.0957333957987
 31
0.0
  0
LINE
  5
E1
330
4B
100
AcDbEntity
  8
レイヤ0
  6
Continuous
 62
     7
100
AcDbLine
 10
245.3674864581867
 20
265.6208596616458
 30
0.0
 11
245.3674864581978
 21
268.0957333957987
 31
0.0
  0
LINE
  5
E2
330
4B
100
AcDbEntity
  8
レイヤ0
  6
Continuous
 62
     7
100
AcDbLine
 10
245.3674864581867
 20
265.6208596616458
 30
0.0
 11
250.2818785874103
 21
260.7064675323791
 31
0.0
  0
LINE
  5
E3
330
4B
100
AcDbEntity
  8
1
  6
PHANTOM
 62
     4
100
AcDbLine
 10
233.8770012641002
 20
309.2847033999647
 30
0.0
 11
297.1984076868633
 21
245.9632969766416
 31
0.0
  0
ARC
  5
E4
330
4B
100
AcDbEntity
  8
レイヤ0
  6
Continuous
 62
     7
100
AcDbCircle
 10
227.513040233346
 20
292.3141406515155
 30
0.0
 40
4.499999999999956
100
AcDbArc
 50
134.9999999997472
 51
180.0
  0
ARC
  5
E5
330
4B
100
AcDbEntity
  8
レイヤ0
  6
Continuous
 62
     7
100
AcDbCircle
 10
227.513040233346
 20
292.3141406515155
 30
0.0
 40
4.5
100
AcDbArc
 50
180.0
 51
224.9999999997454
  0
ARC
  5
E6
330
4B
100
AcDbEntity
  8
レイヤ0
  6
Continuous
 62
     7
100
AcDbCircle
 10
250.8475640126053
 20
315.6486644305686
 30
0.0
 40
4.500000000000036
100
AcDbArc
 50
44.99999999974412
 51
134.9999999997454
  0
SPLINE
  5
E7
330
4B
100
AcDbEntity
  8
1
  6
Continuous
 62
     7
100
AcDbSpline
210
0.0
220
0.0
230
1.0
 70
     8
 71
     3
 72
     9
 73
     5
 74
     3
 42
0.000000001
 43
0.0000000001
 44
0.00000001
 40
0.0
 40
0.0
 40
0.0
 40
0.0
 40
0.6497276509900912
 40
1.301991758938592
 40
1.301991758938592
 40
1.301991758938592
 40
1.301991758938592
 10
93.72352928693573
 20
378.8111014783558
 30
0.0
 10
93.72694186794014
 20
379.0277814806255
 30
0.0
 10
93.73378037220746
 20
379.4619873763495
 30
0.0
 10
93.78109590791645
 20
379.8936629874219
 30
0.0
 10
93.80479977429974
 20
380.1099212735678
 30
0.0
 11
93.72352928693573
 21
378.8111014783558
 31
0.0
 11
93.7438469087761
 21
379.4605113759618
 31
0.0
 11
93.80479977429974
 21
380.1099212735678
 31
0.0
  0
SPLINE
  5
E8
330
4B
100
AcDbEntity
  8
1
  6
Continuous
 62
     7
100
AcDbSpline
210
0.0
220
0.0
230
1.0
 70
     8
 71
     3
 72
    43
 73
    39
 74
    37
 42
0.000000001
 43
0.0000000001
 44
0.00000001
 40
0.0
 40
0.0
 40
0.0
 40
0.0
 40
1.320456927968567
 40
2.640356188610214
 40
4.013761213921689
 40
5.386309091624266
 40
6.837031345351583
 40
8.28688635308078
 40
9.827279205668958
 40
11.36695207837296
 40
12.99751990437288
 40
14.62755225054946
 40
16.33864767337009
 40
18.04937586459325
 40
19.82347406966684
 40
21.59734580799198
 40
23.41139583590997
 40
25.22533831405951
 40
27.05302957916754
 40
28.88072084288989
 40
30.69466331777745
 40
32.50871334280723
 40
34.28258507961322
 40
36.05668328401376
 40
37.76741147496855
 40
39.47850689769572
 40
41.10853924386371
 40
42.73910706990102
 40
44.27877994267185
 40
45.81917279536186
 40
47.26902780324072
 40
48.7197500572352
 40
50.09229793551841
 40
51.46570296248844
 40
52.78560222773119
 40
54.10605916055248
 40
54.75832326534714
 40
55.40805091000399
 40
55.40805091000399
 40
55.40805091000399
 40
55.40805091000399
 10
93.80479977429974
 20
380.1099212735678
 30
0.0
 10
93.87441766924984
 20
380.5451148878681
 30
0.0
 10
94.0136240708677
 20
381.4153183189218
 30
0.0
 10
94.42870362209331
 20
382.6922746290616
 30
0.0
 10
94.98205459400411
 20
383.9318804468715
 30
0.0
 10
95.6962309611096
 20
385.1381425292013
 30
0.0
 10
96.54573730687763
 20
386.2844874786733
 30
0.0
 10
97.54231741309954
 20
387.3820974232151
 30
0.0
 10
98.6576749015162
 20
388.4030396447555
 30
0.0
 10
99.90518090459007
 20
389.359565922193
 30
0.0
 10
101.252008017404
 20
390.2267259034548
 30
0.0
 10
102.7117832691006
 20
391.014438954516
 30
0.0
 10
104.2500380831423
 20
391.7032833509138
 30
0.0
 10
105.8775690861211
 20
392.2994907145931
 30
0.0
 10
107.5618159703461
 20
392.7899868911364
 30
0.0
 10
109.3078532188455
 20
393.177619472107
 30
0.0
 10
111.0881900276485
 20
393.4550757457645
 30
0.0
 10
112.9001200714818
 20
393.6232197486841
 30
0.0
 10
114.723529292344
 20
393.678976017873
 30
0.0
 10
116.5469385122773
 20
393.6232197516972
 30
0.0
 10
118.3588685536236
 20
393.4550757500948
 30
0.0
 10
120.1392053602525
 20
393.177619475788
 30
0.0
 10
121.8852426049868
 20
392.7899868936706
 30
0.0
 10
123.5694894948183
 20
392.2994907172581
 30
0.0
 10
125.1970204732304
 20
391.7032833502312
 30
0.0
 10
126.7352753745918
 20
391.0144389640912
 30
0.0
 10
128.1950503140371
 20
390.2267258752804
 30
0.0
 10
129.5418785586427
 20
389.3595660301933
 30
0.0
 10
130.789380561602
 20
388.4030392711778
 30
0.0
 10
131.9047525142702
 20
387.3820987909783
 30
0.0
 10
132.9012816487569
 20
386.2844827101836
 30
0.0
 10
133.7509725016064
 20
385.1381599729758
 30
0.0
 10
134.4644953969577
 20
383.9318192209664
 30
0.0
 10
135.0202265567729
 20
382.6924999450328
 30
0.0
 10
135.4267499285639
 20
381.4145135802221
 30
0.0
 10
135.6266783020627
 20
380.3325083549386
 30
0.0
 10
135.7117605654927
 20
379.4618046671039
 30
0.0
 10
135.7196114821897
 20
379.0277206562087
 30
0.0
 10
135.7235292869358
 20
378.8111014783862
 30
0.0
 11
93.80479977429974
 21
380.1099212735678
 31
0.0
 11
94.04712852348375
 21
381.4079518165183
 31
0.0
 11
94.44431104334106
 21
382.6666734362096
 31
0.0
 11
95.0055810618513
 21
383.9201555198401
 31
0.0
 11
95.70202842943144
 21
385.1028848811238
 31
0.0
 11
96.56448729522039
 21
386.2694009602317
 31
0.0
 11
97.53733505839506
 21
387.3444110873544
 31
0.0
 11
98.67218700683229
 21
388.3860065921807
 31
0.0
 11
99.89288324224185
 21
389.3243526136446
 31
0.0
 11
101.262794706836
 21
390.2087134079621
 31
0.0
 11
102.6966306783227
 21
390.9840326044849
 31
0.0
 11
104.2576276700379
 21
391.6848435187948
 31
0.0
 11
105.8636367743525
 21
392.274186967242
 31
0.0
 11
107.5666364790364
 21
392.7713956202545
 31
0.0
 11
109.2982321120002
 21
393.1563599071673
 31
0.0
 11
111.0905290627515
 21
393.436447630372
 31
0.0
 11
112.8967017907709
 21
393.6041598139334
 31
0.0
 11
114.7235292869331
 21
393.6603438833558
 31
0.0
 11
116.5503567830953
 21
393.6041598139339
 31
0.0
 11
118.3565295111148
 21
393.4364476303732
 31
0.0
 11
120.1488264618662
 21
393.1563599071691
 31
0.0
 11
121.8804220948302
 21
392.771395620257
 31
0.0
 11
123.5834217995142
 21
392.2741869672452
 31
0.0
 11
125.1894309038289
 21
391.6848435187985
 31
0.0
 11
126.7504278955446
 21
390.9840326044891
 31
0.0
 11
128.1842638670317
 21
390.2087134079667
 31
0.0
 11
129.554175331626
 21
389.3243526136496
 31
0.0
 11
130.7748715670358
 21
388.3860065921861
 31
0.0
 11
131.9097235154734
 21
387.3444110873602
 31
0.0
 11
132.8825712786485
 21
386.269400960238
 31
0.0
 11
133.7450301444379
 21
385.1028848811303
 31
0.0
 11
134.4414775120184
 21
383.9201555198468
 31
0.0
 11
135.002747530529
 21
382.6666734362166
 31
0.0
 11
135.3999300503868
 21
381.4079518165254
 31
0.0
 11
135.6422587995713
 21
380.109921273575
 31
0.0
 11
135.7032116650944
 21
379.4605113759806
 31
0.0
 11
135.7235292869358
 21
378.8111014783862
 31
0.0
  0
SPLINE
  5
E9
330
4B
100
AcDbEntity
  8
1
  6
Continuous
 62
     7
100
AcDbSpline
210
0.0
220
0.0
230
1.0
 70
     8
 71
     3
 72
    43
 73
    39
 74
    37
 42
0.000000001
 43
0.0000000001
 44
0.00000001
 40
0.0
 40
0.0
 40
0.0
 40
0.0
 40
1.430495005756969
 40
2.860385871822158
 40
4.348241316034529
 40
5.835168183584492
 40
7.406783958471507
 40
8.977460216853407
 40
10.64621914049723
 40
12.31419808593209
 40
14.08064656410287
 40
15.84651493912884
 40
17.70020164717894
 40
19.55349052098268
 40
21.47543024308792
 40
23.39712462613895
 40
25.36234548945433
 40
27.32744984045961
 40
29.30744871076171
 40
31.28744757967817
 40
33.25255192742149
 40
35.21777278784863
 40
37.13946716938046
 40
39.06140689081273
 40
40.91469576434816
 40
42.76838247230447
 40
44.53425084732156
 40
46.30069932552987
 40
47.96867827103167
 40
49.6374371947774
 40
51.2081134533091
 40
52.7797292284632
 40
54.26665609659384
 40
55.75451154246477
 40
57.18440241313107
 40
58.61489742374074
 40
59.32151687089241
 40
60.02538848649296
 40
60.02538848649296
 40
60.02538848649296
 40
60.02538848649296
 10
92.0615723149138
 20
405.6740003791027
 30
0.0
 10
92.13699170113394
 20
406.1454601280788
 30
0.0
 10
92.2877986351489
 20
407.0881805122132
 30
0.0
 10
92.73746814998879
 20
408.471549848277
 30
0.0
 10
93.33693170307605
 20
409.8144561509725
 30
0.0
 10
94.11062276766157
 20
411.1212400734483
 30
0.0
 10
95.03092130900163
 20
412.3631137686597
 30
0.0
 10
96.11054975747969
 20
413.5521912085308
 30
0.0
 10
97.31885370330711
 20
414.6582119484943
 30
0.0
 10
98.6703185399989
 20
415.6944487490234
 30
0.0
 10
100.1293812455624
 20
416.6338720620392
 30
0.0
 10
101.7108044349023
 20
417.4872278673508
 30
0.0
 10
103.3772471500994
 20
418.2334759634595
 30
0.0
 10
105.1404057366167
 20
418.8793672741448
 30
0.0
 10
106.9650065277677
 20
419.4107381321272
 30
0.0
 10
108.8565468801309
 20
419.830673428275
 30
0.0
 10
110.785245089411
 20
420.1312510581673
 30
0.0
 10
112.7481693032974
 20
420.3134070612875
 30
0.0
 10
114.7235292923461
 20
420.3738096861008
 30
0.0
 10
116.6988892804695
 20
420.3134070643005
 30
0.0
 10
118.6618134918575
 20
420.1312510624956
 30
0.0
 10
120.5905116990048
 20
419.8306734319578
 30
0.0
 10
122.4820520474515
 20
419.4107381346443
 30
0.0
 10
124.3066528447642
 20
418.8793672768594
 30
0.0
 10
126.0698114047123
 20
418.2334759625843
 30
0.0
 10
127.7362542145278
 20
417.4872278776123
 30
0.0
 10
129.3176770656051
 20
416.6338720314191
 30
0.0
 10
130.7767409972778
 20
415.6944488659321
 30
0.0
 10
132.1282015005054
 20
414.6582115436943
 30
0.0
 10
133.3365211159231
 20
413.5521926901776
 30
0.0
 10
134.4160943449868
 20
412.3631086026884
 30
0.0
 10
135.3365927689482
 20
411.1212589707548
 30
0.0
 10
136.1095759056509
 20
409.8143898227939
 30
0.0
 10
136.7116179954959
 20
408.4717939405821
 30
0.0
 10
137.1520183152136
 20
407.0873087120834
 30
0.0
 10
137.368607386382
 20
405.9151363846272
 30
0.0
 10
137.4607798397441
 20
404.9718740559279
 30
0.0
 10
137.4692849984577
 20
404.5016163771353
 30
0.0
 10
137.4735292869357
 20
404.2669456009757
 30
0.0
 11
92.0615723149138
 21
405.6740003791027
 31
0.0
 11
92.32409512653003
 21
407.0802001339661
 31
0.0
 11
92.75437618970886
 21
408.4438152219652
 31
0.0
 11
93.36241870976173
 21
409.8017541458984
 31
0.0
 11
94.11690335797383
 21
411.0830442872895
 31
0.0
 11
95.05123379591218
 21
412.3467700396565
 31
0.0
 11
96.1051522060184
 21
413.5113643440394
 31
0.0
 11
97.33457515015897
 21
414.6397594742678
 31
0.0
 11
98.65699607185267
 21
415.6563009975205
 31
0.0
 11
100.1410668251629
 21
416.6143585246979
 31
0.0
 11
101.6943891276071
 21
417.4542876542642
 31
0.0
 11
103.3854692019655
 21
418.2134994780999
 31
0.0
 11
105.1253123983064
 21
418.8519548805842
 31
0.0
 11
106.9702287450473
 21
419.3905975880141
 31
0.0
 11
108.8461240140916
 21
419.8076422321695
 31
0.0
 11
110.7877790440723
 21
420.1110705989743
 31
0.0
 11
112.7444661660932
 21
420.2927587978321
 31
0.0
 11
114.7235292869357
 21
420.3536248730396
 31
0.0
 11
116.7025924077782
 21
420.2927587978321
 31
0.0
 11
118.6592795297993
 21
420.1110705989743
 31
0.0
 11
120.6009345597799
 21
419.8076422321695
 31
0.0
 11
122.4768298288242
 21
419.3905975880142
 31
0.0
 11
124.3217461755651
 21
418.8519548805842
 31
0.0
 11
126.0615893719059
 21
418.2134994780998
 31
0.0
 11
127.7526694462643
 21
417.4542876542642
 31
0.0
 11
129.3059917487084
 21
416.614358524698
 31
0.0
 11
130.7900625020187
 21
415.6563009975207
 31
0.0
 11
132.1124834237125
 21
414.6397594742681
 31
0.0
 11
133.3419063678531
 21
413.5113643440395
 31
0.0
 11
134.3958247779593
 21
412.3467700396565
 31
0.0
 11
135.3301552158976
 21
411.0830442872894
 31
0.0
 11
136.0846398641096
 21
409.8017541458983
 31
0.0
 11
136.6926823841625
 21
408.4438152219652
 31
0.0
 11
137.1229634473415
 21
407.0802001339661
 31
0.0
 11
137.3854862589577
 21
405.6740003791027
 31
0.0
 11
137.4515185299412
 21
404.9704729900392
 31
0.0
 11
137.4735292869357
 21
404.2669456009757
 31
0.0
  0
SPLINE
  5
EA
330
4B
100
AcDbEntity
  8
1
  6
Continuous
 62
     7
100
AcDbSpline
210
0.0
220
0.0
230
1.0
 70
     8
 71
     3
 72
    13
 73
     9
 74
     7
 42
0.000000001
 43
0.0000000001
 44
0.00000001
 40
0.0
 40
0.0
 40
0.0
 40
0.0
 40
1.11598152283929
 40
2.235065787054977
 40
3.664956656545005
 40
5.09545166632697
 40
5.80207111601691
 40
6.505942737464079
 40
6.505942737464079
 40
6.505942737464079
 40
6.505942737464079
 10
93.72352928693448
 20
398.0782210966383
 30
0.0
 10
93.54244289058174
 20
398.4034083490178
 30
0.0
 10
93.17976663986823
 20
399.0546869723499
 30
0.0
 10
92.6991001764297
 20
400.1800122188835
 30
0.0
 10
92.2947354689372
 20
401.446432205023
 30
0.0
 10
92.07848825924279
 20
402.6187730834779
 30
0.0
 10
91.98627227276863
 20
403.5620139545482
 30
0.0
 10
91.97777142378216
 20
404.032273762009
 30
0.0
 10
91.97352928693567
 20
404.2669456009705
 30
0.0
 11
93.72352928693448
 21
398.0782210966383
 31
0.0
 11
93.19760758074071
 21
399.0625082082199
 31
0.0
 11
92.75437618970885
 21
400.0900759799836
 31
0.0
 11
92.32409512652988
 21
401.4536910679827
 31
0.0
 11
92.06157231491369
 21
402.859890822846
 31
0.0
 11
91.99554004393032
 21
403.5634182119082
 31
0.0
 11
91.97352928693567
 21
404.2669456009705
 31
0.0
  0
SPLINE
  5
EB
330
4B
100
AcDbEntity
  8
1
  6
Continuous
 62
     7
100
AcDbSpline
210
0.0
220
0.0
230
1.0
 70
     8
 71
     3
 72
    13
 73
     9
 74
     7
 42
0.000000001
 43
0.0000000001
 44
0.00000001
 40
0.0
 40
0.0
 40
0.0
 40
0.0
 40
0.7038716214496633
 40
1.410491071142221
 40
2.840986080924295
 40
4.270876950414307
 40
5.389961214620827
 40
6.505942737450825
 40
6.505942737450825
 40
6.505942737450825
 40
6.505942737450825
 10
137.4735292869357
 20
404.2669456009757
 30
0.0
 10
137.4692871500893
 20
404.0322737620132
 30
0.0
 10
137.460786301103
 20
403.5620139545508
 30
0.0
 10
137.3685703146288
 20
402.618773083479
 30
0.0
 10
137.1523231049342
 20
401.4464322050231
 30
0.0
 10
136.7479583974427
 20
400.1800122188864
 30
0.0
 10
136.267291934007
 20
399.0546869723583
 30
0.0
 10
135.9046156832973
 20
398.4034083490313
 30
0.0
 10
135.7235292869464
 20
398.0782210966542
 30
0.0
 11
137.4735292869357
 21
404.2669456009757
 31
0.0
 11
137.4515185299412
 21
403.5634182119109
 31
0.0
 11
137.3854862589577
 21
402.8598908228461
 31
0.0
 11
137.1229634473415
 21
401.4536910679827
 31
0.0
 11
136.6926823841626
 21
400.0900759799836
 31
0.0
 11
136.2494509931348
 21
399.0625082082282
 31
0.0
 11
135.7235292869464
 21
398.0782210966542
 31
0.0
  0
SPLINE
  5
EC
330
4B
100
AcDbEntity
  8
1
  6
Continuous
 62
     7
100
AcDbSpline
210
0.0
220
0.0
230
1.0
 70
     8
 71
     3
 72
     9
 73
     5
 74
     3
 42
0.000000001
 43
0.0000000001
 44
0.00000001
 40
0.0
 40
0.0
 40
0.0
 40
0.0
 40
0.7038716219248395
 40
1.410491072221325
 40
1.410491072221325
 40
1.410491072221325
 40
1.410491072221325
 10
91.97352928693567
 20
404.2669456009705
 30
0.0
 10
91.97722624969093
 20
404.5016822701023
 30
0.0
 10
91.98463462765125
 20
404.9720719905606
 30
0.0
 10
92.03589312633113
 20
405.4397205691049
 30
0.0
 10
92.0615723149138
 20
405.6740003791027
 30
0.0
 11
91.97352928693567
 21
404.2669456009705
 31
0.0
 11
91.99554004393012
 21
404.9704729900366
 31
0.0
 11
92.0615723149138
 21
405.6740003791027
 31
0.0
  0
SPLINE
  5
ED
330
4B
100
AcDbEntity
  8
1
  6
Continuous
 62
     7
100
AcDbSpline
210
0.0
220
0.0
230
1.0
 70
     8
 71
     3
 72
     9
 73
     5
 74
     3
 42
0.000000001
 43
0.0000000001
 44
0.00000001
 40
0.0
 40
0.0
 40
0.0
 40
0.0
 40
0.6947279480717765
 40
1.392244148476115
 40
1.392244148476115
 40
1.392244148476115
 40
1.392244148476115
 10
91.97352928693573
 20
409.3934697645567
 30
0.0
 10
91.9772299737913
 20
409.6251601535973
 30
0.0
 10
91.98464621996528
 20
410.0894708073388
 30
0.0
 10
92.03594251148104
 20
410.5510001833256
 30
0.0
 10
92.06164203285215
 20
410.7822270237941
 30
0.0
 11
91.97352928693573
 21
409.3934697645567
 31
0.0
 11
91.99555747341498
 21
410.0878483941755
 31
0.0
 11
92.06164203285215
 21
410.7822270237941
 31
0.0
  0
SPLINE
  5
EE
330
4B
100
AcDbEntity
  8
1
  6
Continuous
 62
     7
100
AcDbSpline
210
0.0
220
0.0
230
1.0
 70
     8
 71
     3
 72
    43
 73
    39
 74
    37
 42
0.000000001
 43
0.0000000001
 44
0.00000001
 40
0.0
 40
0.0
 40
0.0
 40
0.0
 40
1.413052233817289
 40
2.825461803540172
 40
4.298031970240942
 40
5.769623795833988
 40
7.328915243947052
 40
8.887229655894618
 40
10.54686684882682
 40
12.20570321616487
 40
13.96603967179696
 40
15.72578671703021
 40
17.57589598418959
 40
19.42560416387447
 40
21.34586139170176
 40
23.26587257412049
 40
25.23057682249787
 40
27.19516457768813
 40
29.17503989251045
 40
31.15491520539988
 40
33.11950295536973
 40
35.08420719981279
 40
37.00421838081316
 40
38.92447560818358
 40
40.77418378773226
 40
42.6242930548668
 40
44.38404010012016
 40
46.14437655579569
 40
47.8032129231909
 40
49.46285011620159
 40
51.02116452826223
 40
52.580455976587
 40
54.05204780268838
 40
55.5246179710285
 40
56.93702754562538
 40
58.35007978448702
 40
59.04759598172095
 40
59.74232392342331
 40
59.74232392342331
 40
59.74232392342331
 40
59.74232392342331
 10
92.06164203285215
 20
410.7822270237941
 30
0.0
 10
92.13712603969694
 20
411.2477964168671
 30
0.0
 10
92.28805973629858
 20
412.1787234567373
 30
0.0
 10
92.73817374271323
 20
413.54439992265
 30
0.0
 10
93.33786334338397
 20
414.8696389312188
 30
0.0
 10
94.11202667312662
 20
416.1594890535599
 30
0.0
 10
95.03240796061385
 20
417.3846537327637
 30
0.0
 10
96.11238547447248
 20
418.5581238210253
 30
0.0
 10
97.32055146029307
 20
419.6490947973911
 30
0.0
 10
98.67221126567199
 20
420.6716201444875
 30
0.0
 10
100.1309793041598
 20
421.5982298273844
 30
0.0
 10
101.7124656860418
 20
422.4402443103355
 30
0.0
 10
103.3785485857583
 20
423.1763339017201
 30
0.0
 10
105.1416669127846
 20
423.8136207092119
 30
0.0
 10
106.9659094394944
 20
424.337780752142
 30
0.0
 10
108.8573256605387
 20
424.752115029584
 30
0.0
 10
110.7857044856182
 20
425.0486219493518
 30
0.0
 10
112.7484318249776
 20
425.2283522445409
 30
0.0
 10
114.7235292936001
 20
425.2879262342959
 30
0.0
 10
116.6986267606716
 20
425.2283522485458
 30
0.0
 10
118.6613540964264
 20
425.0486219552328
 30
0.0
 10
120.5897329181962
 20
424.7521150333984
 30
0.0
 10
122.4811491349454
 20
424.3377807544473
 30
0.0
 10
124.3053916680711
 20
423.8136207116605
 30
0.0
 10
126.0685099682814
 20
423.1763339004997
 30
0.0
 10
127.7345929641076
 20
422.4402443206112
 30
0.0
 10
129.3160790033371
 20
421.5982297957221
 30
0.0
 10
130.7748482828929
 20
420.6716202642177
 30
0.0
 10
132.1265037104754
 20
419.6490943829571
 30
0.0
 10
133.3346855071569
 20
418.5581253359311
 30
0.0
 10
134.4146074303638
 20
417.3846484645511
 30
0.0
 10
135.3351896811918
 20
416.1595083072826
 30
0.0
 10
136.1086429173382
 20
414.8695715381725
 30
0.0
 10
136.7109159691838
 20
413.5446477644272
 30
0.0
 10
137.1517602715988
 20
412.1778401933719
 30
0.0
 10
137.368468264106
 20
411.0205762901971
 30
0.0
 10
137.4607712751118
 20
410.0892705547744
 30
0.0
 10
137.4692823022097
 20
409.6250934914054
 30
0.0
 10
137.4735292869356
 20
409.3934697645397
 30
0.0
 11
92.06164203285215
 21
410.7822270237941
 31
0.0
 11
92.3243516743171
 21
412.1706434869994
 31
0.0
 11
92.75464108311245
 21
413.5159136570167
 31
0.0
 11
93.36322610733959
 21
414.8568413837406
 31
0.0
 11
94.11742094119995
 21
416.1204760836132
 31
0.0
 11
95.05250144631364
 21
417.3682798620084
 31
0.0
 11
96.10583315630447
 21
418.5166857638094
 31
0.0
 11
97.3360214196849
 21
419.6307021231463
 31
0.0
 11
98.65770251935427
 21
420.6331477149178
 31
0.0
 11
100.1424302970526
 21
421.57885795768
 31
0.0
 11
101.6950115635923
 21
422.407230503144
 31
0.0
 11
103.3865812749792
 21
423.1565610122694
 31
0.0
 11
105.1257859443432
 21
423.7863129218435
 31
0.0
 11
106.9710010636603
 21
424.3178851020247
 31
0.0
 11
108.8464167528665
 21
424.7292960009407
 31
0.0
 11
110.7881722101218
 21
425.0287096143529
 31
0.0
 11
112.744564891853
 21
425.2079655788348
 31
0.0
 11
114.7235292869356
 21
425.2680170022608
 31
0.0
 11
116.7024936820182
 21
425.2079655788348
 31
0.0
 11
118.6588863637494
 21
425.028709614353
 31
0.0
 11
120.6006418210048
 21
424.7292960009408
 31
0.0
 11
122.4760575102111
 21
424.3178851020247
 31
0.0
 11
124.3212726295283
 21
423.7863129218435
 31
0.0
 11
126.0604772988924
 21
423.1565610122695
 31
0.0
 11
127.7520470102792
 21
422.4072305031441
 31
0.0
 11
129.3046282768188
 21
421.5788579576802
 31
0.0
 11
130.7893560545172
 21
420.6331477149178
 31
0.0
 11
132.1110371541866
 21
419.6307021231463
 31
0.0
 11
133.341225417567
 21
418.5166857638095
 31
0.0
 11
134.3945571275577
 21
417.3682798620085
 31
0.0
 11
135.3296376326714
 21
416.1204760836133
 31
0.0
 11
136.0838324665317
 21
414.8568413837406
 31
0.0
 11
136.6924174907589
 21
413.5159136570166
 31
0.0
 11
137.1227068995543
 21
412.1706434869994
 31
0.0
 11
137.3854165410193
 21
410.7822270237941
 31
0.0
 11
137.451501100457
 21
410.0878483941669
 31
0.0
 11
137.4735292869356
 21
409.3934697645397
 31
0.0
  0
SPLINE
  5
EF
330
4B
100
AcDbEntity
  8
1
  6
Continuous
 62
     7
100
AcDbSpline
210
0.0
220
0.0
230
1.0
 70
     8
 71
     3
 72
     9
 73
     5
 74
     3
 42
0.000000001
 43
0.0000000001
 44
0.00000001
 40
0.0
 40
0.0
 40
0.0
 40
0.0
 40
0.624129346943728
 40
1.250911942036842
 40
1.250911942036842
 40
1.250911942036842
 40
1.250911942036842
 10
93.72352928693579
 20
403.6234784300901
 30
0.0
 10
93.72695273355745
 20
403.8316303132709
 30
0.0
 10
93.73381420023779
 20
404.2488189570911
 30
0.0
 10
93.78123983680918
 20
404.6633613814163
 30
0.0
 10
93.8050029611731
 20
404.871072225598
 30
0.0
 11
93.72352928693579
 21
403.6234784300901
 31
0.0
 11
93.74389770549486
 21
404.247275327844
 31
0.0
 11
93.8050029611731
 21
404.871072225598
 31
0.0
  0
SPLINE
  5
F0
330
4B
100
AcDbEntity
  8
1
  6
Continuous
 62
     7
100
AcDbSpline
210
0.0
220
0.0
230
1.0
 70
     8
 71
     3
 72
    43
 73
    39
 74
    37
 42
0.000000001
 43
0.0000000001
 44
0.00000001
 40
0.0
 40
0.0
 40
0.0
 40
0.0
 40
1.271667517245458
 40
2.542663633426426
 40
3.8733971075536
 40
5.203129102597079
 40
6.619528408387707
 40
8.034954787851271
 40
9.550003680610583
 40
11.06427604282397
 40
12.67789626805441
 40
14.2909570523938
 40
15.99214808416131
 40
17.69296435115265
 40
19.4624093178357
 40
21.23162679936025
 40
23.04424882422836
 40
24.85676380565598
 40
26.68411364060286
 40
28.51146347530824
 40
30.32397844024966
 40
32.1366004626616
 40
33.90581794417169
 40
35.6752629108716
 40
37.3760791778754
 40
39.07727020965051
 40
40.69033099399324
 40
42.3039512192237
 40
43.81822358143496
 40
45.3332724741927
 40
46.74869885366438
 40
48.16509815951198
 40
49.49483015483844
 40
50.82556363043317
 40
52.09655975205521
 40
53.36822727480608
 40
53.99500986669175
 40
54.61913920713057
 40
54.61913920713057
 40
54.61913920713057
 40
54.61913920713057
 10
93.8050029611731
 20
404.871072225598
 30
0.0
 10
93.87480913268325
 20
405.2897830656809
 30
0.0
 10
94.01438463388388
 20
406.1269836766448
 30
0.0
 10
94.43074445137178
 20
407.3543946916601
 30
0.0
 10
94.98474334856317
 20
408.5445091689517
 30
0.0
 10
95.70025496919868
 20
409.7033304648264
 30
0.0
 10
96.54998077724467
 20
410.8028621837356
 30
0.0
 10
97.54752688432019
 20
411.8567486704944
 30
0.0
 10
98.66247066331138
 20
412.8355455264261
 30
0.0
 10
99.91050366023195
 20
413.7536707284827
 30
0.0
 10
101.2564838563326
 20
414.584966368853
 30
0.0
 10
102.7164213725471
 20
415.3409257006119
 30
0.0
 10
104.2536601481459
 20
416.0013471001512
 30
0.0
 10
105.8810718330604
 20
416.573468640999
 30
0.0
 10
107.5643181548902
 20
417.0437926544075
 30
0.0
 10
109.3100089476341
 20
417.415748881837
 30
0.0
 10
111.0894599970668
 20
417.6818183306161
 30
0.0
 10
112.9008455741975
 20
417.8431730087873
 30
0.0
 10
114.7235292967969
 20
417.8966127041674
 30
0.0
 10
116.5462130137173
 20
417.843173008795
 30
0.0
 10
118.3575985852525
 20
417.6818183394163
 30
0.0
 10
120.1370496274356
 20
417.4157488808082
 30
0.0
 10
121.8827404176483
 20
417.0437926551011
 30
0.0
 10
123.5659867463596
 20
416.5734686417964
 30
0.0
 10
125.1933984061029
 20
416.0013470978823
 30
0.0
 10
126.7306372733048
 20
415.3409257098033
 30
0.0
 10
128.1905744645665
 20
414.5849663373203
 30
0.0
 10
129.5365558356262
 20
413.7536708444823
 30
0.0
 10
130.784584704309
 20
412.8355451244985
 30
0.0
 10
131.8995433557704
 20
411.8567501351217
 30
0.0
 10
132.8970374175354
 20
410.8028571173724
 30
0.0
 10
133.7469508576525
 20
409.7033489450037
 30
0.0
 10
134.4618027432062
 20
408.5444448580041
 30
0.0
 10
135.0181960276917
 20
407.3546308548855
 30
0.0
 10
135.4259983537919
 20
406.126145943603
 30
0.0
 10
135.6262727242596
 20
405.0858696110766
 30
0.0
 10
135.711735552566
 20
404.2486296067656
 30
0.0
 10
135.7196036092121
 20
403.83156728529
 30
0.0
 10
135.7235292869357
 20
403.6234784300872
 30
0.0
 11
93.8050029611731
 21
404.871072225598
 31
0.0
 11
94.0478743675469
 21
406.1193317212121
 31
0.0
 11
94.44507514100837
 21
407.3266687435515
 31
0.0
 11
95.00790892399631
 21
408.5325168744629
 31
0.0
 11
95.70351044379291
 21
409.6657978212328
 31
0.0
 11
96.56810394854944
 21
410.7877002521542
 31
0.0
 11
97.53926738963924
 21
411.8173960353398
 31
0.0
 11
98.67627180382901
 21
412.8186922498214
 31
0.0
 11
99.8948703812126
 21
413.717601752404
 31
0.0
 11
101.2666135962438
 21
414.5673610024344
 31
0.0
 11
102.6983689323775
 21
415.310356124379
 31
0.0
 11
104.2607229649771
 21
415.9834837521356
 31
0.0
 11
105.8649522912908
 21
416.5484830818625
 31
0.0
 11
107.5687769648057
 21
417.0258895879268
 31
0.0
 11
109.2990426026828
 21
417.3950932163422
 31
0.0
 11
111.0916160487853
 21
417.663940824604
 31
0.0
 11
112.8969746795429
 21
417.8248467365927
 31
0.0
 11
114.7235292869357
 21
417.8787511388865
 31
0.0
 11
116.5500838943285
 21
417.8248467365927
 31
0.0
 11
118.3554425250861
 21
417.663940824604
 31
0.0
 11
120.1480159711886
 21
417.3950932163421
 31
0.0
 11
121.8782816090658
 21
417.0258895879268
 31
0.0
 11
123.5821062825806
 21
416.5484830818624
 31
0.0
 11
125.1863356088942
 21
415.9834837521356
 31
0.0
 11
126.7486896414939
 21
415.3103561243789
 31
0.0
 11
128.1804449776277
 21
414.5673610024344
 31
0.0
 11
129.5521881926589
 21
413.717601752404
 31
0.0
 11
130.7707867700425
 21
412.8186922498215
 31
0.0
 11
131.9077911842322
 21
411.8173960353399
 31
0.0
 11
132.8789546253219
 21
410.7877002521543
 31
0.0
 11
133.7435481300784
 21
409.6657978212328
 31
0.0
 11
134.439149649875
 21
408.532516874463
 31
0.0
 11
135.0019834328629
 21
407.3266687435516
 31
0.0
 11
135.3991842063244
 21
406.1193317212121
 31
0.0
 11
135.6420556126983
 21
404.8710722255979
 31
0.0
 11
135.7031608683767
 21
404.2472753278426
 31
0.0
 11
135.7235292869357
 21
403.6234784300872
 31
0.0
  0
SPLINE
  5
F1
330
4B
100
AcDbEntity
  8
1
  6
Continuous
 62
     7
100
AcDbSpline
210
0.0
220
0.0
230
1.0
 70
     8
 71
     3
 72
     9
 73
     5
 74
     3
 42
0.000000001
 43
0.0000000001
 44
0.00000001
 40
0.0
 40
0.0
 40
0.0
 40
0.0
 40
0.5694391833520063
 40
1.141822836835172
 40
1.141822836835172
 40
1.141822836835172
 40
1.141822836835172
 10
93.72352928693562
 20
378.8111014783623
 30
0.0
 10
93.72698109294244
 20
378.6211681376466
 30
0.0
 10
93.73390257358832
 20
378.2403193453017
 30
0.0
 10
93.78161321212306
 20
377.8624055429174
 30
0.0
 10
93.80553005815426
 20
377.6729613709247
 30
0.0
 11
93.72352928693562
 21
378.8111014783623
 31
0.0
 11
93.74402947974068
 21
378.2420314246435
 31
0.0
 11
93.80553005815426
 21
377.6729613709247
 31
0.0
  0
SPLINE
  5
F2
330
4B
100
AcDbEntity
  8
1
  6
Continuous
 62
     7
100
AcDbSpline
210
0.0
220
0.0
230
1.0
 70
     8
 71
     3
 72
    43
 73
    39
 74
    37
 42
0.000000001
 43
0.0000000001
 44
0.00000001
 40
0.0
 40
0.0
 40
0.0
 40
0.0
 40
1.167911524290458
 40
2.334839024845226
 40
3.575727862031187
 40
4.815252339088198
 40
6.160244710668719
 40
7.50403636809093
 40
8.966961206352288
 40
10.42901038334925
 40
12.00810821364874
 40
13.58661707070748
 40
15.26777752840556
 40
16.94856225781812
 40
18.7086418246967
 40
20.46850053752287
 40
22.27825577331399
 40
24.08790894509276
 40
25.91457425716339
 40
27.74123956849073
 40
29.55089273836522
 40
31.36064797187397
 40
33.12050668279178
 40
34.88058624827347
 40
36.56137097675122
 40
38.2425314337784
 40
39.82104029036196
 40
41.40013812027529
 40
42.86218729695798
 40
44.32511213491056
 40
45.66890379201556
 40
47.01389616317531
 40
48.25342063961434
 40
49.49430947624679
 40
50.66123698333021
 40
51.82914851489556
 40
52.40153216587708
 40
52.97097134215406
 40
52.97097134215406
 40
52.97097134215406
 40
52.97097134215406
 10
93.80553005815426
 20
377.6729613709247
 30
0.0
 10
93.87582424262271
 20
377.2893808481032
 30
0.0
 10
94.0163534001994
 20
376.5225429918109
 30
0.0
 10
94.43583921339103
 20
375.4011458564065
 30
0.0
 10
94.99137953680352
 20
374.3171239205022
 30
0.0
 10
95.7098546143243
 20
373.2600288371823
 30
0.0
 10
96.55989124166456
 20
372.2608846115186
 30
0.0
 10
97.55935867752507
 20
371.3007143508306
 30
0.0
 10
98.6731178533071
 20
370.4120649040566
 30
0.0
 10
99.92207735607678
 20
369.5761239226129
 30
0.0
 10
101.266028786422
 20
368.8213461320113
 30
0.0
 10
102.7261694841027
 20
368.1332517627898
 30
0.0
 10
104.2611614465295
 20
367.533382530378
 30
0.0
 10
105.8882581478556
 20
367.0126897294389
 30
0.0
 10
107.5693999174233
 20
366.5853145573876
 30
0.0
 10
109.3143647104653
 20
366.2468128862353
 30
0.0
 10
111.0920106727212
 20
366.0049809483043
 30
0.0
 10
112.9023007331433
 20
365.8581172683803
 30
0.0
 10
114.723529291878
 20
365.809595958937
 30
0.0
 10
116.5447578499554
 20
365.8581172709872
 30
0.0
 10
118.3550479084053
 20
366.0049809526674
 30
0.0
 10
120.1326938691189
 20
366.2468128909837
 30
0.0
 10
121.8776586581778
 20
366.5853145620588
 30
0.0
 10
123.5588004342939
 20
367.0126897323921
 30
0.0
 10
125.185897106736
 20
367.5333825365808
 30
0.0
 10
126.7208891701267
 20
368.1332517544545
 30
0.0
 10
128.1810295106513
 20
368.8213461725079
 30
0.0
 10
129.524982222427
 20
369.5761237857548
 30
0.0
 10
130.7739372782705
 20
370.412065380886
 30
0.0
 10
131.8877123412036
 20
371.300712633473
 30
0.0
 10
132.8871250539329
 20
372.2608904502373
 30
0.0
 10
133.7373571037989
 20
373.2600076899744
 30
0.0
 10
134.4551568237258
 20
374.3171960302797
 30
0.0
 10
135.0131267635924
 20
375.4008824688188
 30
0.0
 10
135.4240539497773
 20
376.5234614389677
 30
0.0
 10
135.6252184971395
 20
377.4746731266183
 30
0.0
 10
135.7116699531036
 20
378.2405245549978
 30
0.0
 10
135.7195829818214
 20
378.6212364238394
 30
0.0
 10
135.7235292869357
 20
378.8111014783799
 30
0.0
 11
93.80553005815426
 21
377.6729613709247
 31
0.0
 11
94.04978623891132
 21
376.5308771971918
 31
0.0
 11
94.44695583619365
 21
375.4336187429561
 31
0.0
 11
95.01362705209266
 21
374.3296763367575
 31
0.0
 11
95.70703047491989
 21
373.3022462323
 31
0.0
 11
96.57653296318728
 21
372.2761030161332
 31
0.0
 11
97.54365754614983
 21
371.3431260294702
 31
0.0
 11
98.68533616923833
 21
370.4284025729289
 31
0.0
 11
99.89919686428651
 21
369.6134608529092
 31
0.0
 11
101.2747593246884
 21
368.8379752806155
 31
0.0
 11
102.7020269967301
 21
368.1637370426453
 31
0.0
 11
104.2671361279183
 21
367.5499505256653
 31
0.0
 11
105.8676541296525
 21
367.0367454709664
 31
0.0
 11
107.5731261661958
 21
366.6017222445156
 31
0.0
 11
109.3006817093352
 21
366.2660817739637
 31
0.0
 11
111.0938001863314
 21
366.0212550404377
 31
0.0
 11
112.8975224646307
 21
365.8748633279681
 31
0.0
 11
114.7235292869357
 21
365.8258201040683
 31
0.0
 11
116.5495361092407
 21
365.8748633279681
 31
0.0
 11
118.35325838754
 21
366.0212550404378
 31
0.0
 11
120.1463768645364
 21
366.2660817739637
 31
0.0
 11
121.8739324076759
 21
366.6017222445157
 31
0.0
 11
123.5794044442191
 21
367.0367454709664
 31
0.0
 11
125.1799224459531
 21
367.5499505256654
 31
0.0
 11
126.7450315771412
 21
368.1637370426453
 31
0.0
 11
128.1722992491829
 21
368.8379752806155
 31
0.0
 11
129.5478617095848
 21
369.6134608529092
 31
0.0
 11
130.761722404633
 21
370.4284025729289
 31
0.0
 11
131.9034010277215
 21
371.3431260294702
 31
0.0
 11
132.8705256106842
 21
372.2761030161332
 31
0.0
 11
133.7400280989516
 21
373.3022462323
 31
0.0
 11
134.4334315217789
 21
374.3296763367576
 31
0.0
 11
135.0001027376777
 21
375.4336187429562
 31
0.0
 11
135.39727233496
 21
376.5308771971918
 31
0.0
 11
135.6415285157171
 21
377.6729613709246
 31
0.0
 11
135.7030290941313
 21
378.2420314246522
 31
0.0
 11
135.7235292869357
 21
378.8111014783799
 31
0.0
  0
SPLINE
  5
F3
330
4B
100
AcDbEntity
  8
1
  6
Continuous
 62
     7
100
AcDbSpline
210
0.0
220
0.0
230
1.0
 70
     8
 71
     3
 72
     9
 73
     5
 74
     3
 42
0.000000001
 43
0.0000000001
 44
0.00000001
 40
0.0
 40
0.0
 40
0.0
 40
0.0
 40
0.6947279480667181
 40
1.392244148466015
 40
1.392244148466015
 40
1.392244148466015
 40
1.392244148466015
 10
91.9735292869357
 20
276.5810147699431
 30
0.0
 10
91.9772299737912
 20
276.3493243809041
 30
0.0
 10
91.98464621996521
 20
275.8850137271661
 30
0.0
 10
92.03594251148093
 20
275.4234843511826
 30
0.0
 10
92.061642032852
 20
275.1922575107158
 30
0.0
 11
91.9735292869357
 21
276.5810147699431
 31
0.0
 11
91.99555747341489
 21
275.8866361403294
 31
0.0
 11
92.061642032852
 21
275.1922575107158
 31
0.0
  0
SPLINE
  5
F4
330
4B
100
AcDbEntity
  8
1
  6
Continuous
 62
     7
100
AcDbSpline
210
0.0
220
0.0
230
1.0
 70
     8
 71
     3
 72
    13
 73
     9
 74
     7
 42
0.000000001
 43
0.0000000001
 44
0.00000001
 40
0.0
 40
0.0
 40
0.0
 40
0.0
 40
0.7038716214426772
 40
1.410491071128677
 40
2.840986080898995
 40
4.270876950377242
 40
5.389961214585201
 40
6.505942737416683
 40
6.505942737416683
 40
6.505942737416683
 40
6.505942737416683
 10
91.9735292869357
 20
281.7075389335688
 30
0.0
 10
91.9777714237821
 20
281.9422107725289
 30
0.0
 10
91.98627227276845
 20
282.4124705799868
 30
0.0
 10
92.07848825924292
 20
283.3557114510502
 30
0.0
 10
92.29473546893753
 20
284.5280523294959
 30
0.0
 10
92.69910017643016
 20
285.7944723156244
 30
0.0
 10
93.17976663986877
 20
286.9197975621482
 30
0.0
 10
93.54244289058228
 20
287.5710761854744
 30
0.0
 10
93.72352928693502
 20
287.8962634378509
 30
0.0
 11
91.9735292869357
 21
281.7075389335688
 31
0.0
 11
91.99554004393022
 21
282.4110663226266
 31
0.0
 11
92.06157231491383
 21
283.1145937116848
 31
0.0
 11
92.3240951265302
 21
284.5207934665362
 31
0.0
 11
92.7543761897091
 21
285.884408554523
 31
0.0
 11
93.19760758074122
 21
286.9119763262781
 31
0.0
 11
93.72352928693502
 21
287.8962634378509
 31
0.0
  0
SPLINE
  5
F5
330
4B
100
AcDbEntity
  8
1
  6
Continuous
 62
     7
100
AcDbSpline
210
0.0
220
0.0
230
1.0
 70
     8
 71
     3
 72
     9
 73
     5
 74
     3
 42
0.000000001
 43
0.0000000001
 44
0.00000001
 40
0.0
 40
0.0
 40
0.0
 40
0.0
 40
0.7038716219160944
 40
1.410491072203905
 40
1.410491072203905
 40
1.410491072203905
 40
1.410491072203905
 10
137.4735292869357
 20
281.7075389335674
 30
0.0
 10
137.4698323241803
 20
281.4728022644384
 30
0.0
 10
137.4624239462199
 20
281.0024125439861
 30
0.0
 10
137.4111654475402
 20
280.5347639654474
 30
0.0
 10
137.3854862589576
 20
280.3004841554526
 30
0.0
 11
137.4735292869357
 21
281.7075389335674
 31
0.0
 11
137.4515185299411
 21
281.00401154451
 31
0.0
 11
137.3854862589576
 21
280.3004841554526
 31
0.0
  0
SPLINE
  5
F6
330
4B
100
AcDbEntity
  8
1
  6
Continuous
 62
     7
100
AcDbSpline
210
0.0
220
0.0
230
1.0
 70
     8
 71
     3
 72
    43
 73
    39
 74
    37
 42
0.000000001
 43
0.0000000001
 44
0.00000001
 40
0.0
 40
0.0
 40
0.0
 40
0.0
 40
1.413052233805855
 40
2.825461803517199
 40
4.298031970207949
 40
5.769623795790869
 40
7.328915243895853
 40
8.887229655835213
 40
10.54686684876141
 40
12.20570321609341
 40
13.96603967172141
 40
15.72578671695054
 40
17.57589598410752
 40
19.4256041637902
 40
21.34586139161655
 40
23.26587257403418
 40
25.23057682241121
 40
27.19516457760112
 40
29.17503989242341
 40
31.15491520531281
 40
33.1195029552823
 40
35.08420719972495
 40
37.00421838072413
 40
38.92447560809347
 40
40.7741837876398
 40
42.62429305477204
 40
44.38404010002135
 40
46.14437655569274
 40
47.80321292308194
 40
49.46285011608672
 40
51.02116452813932
 40
52.58045597645602
 40
54.05204780254714
 40
55.52461797087711
 40
56.93702754546243
 40
58.35007978431258
 40
59.04759598153568
 40
59.7423239232272
 40
59.7423239232272
 40
59.7423239232272
 40
59.7423239232272
 10
92.061642032852
 20
275.1922575107158
 30
0.0
 10
92.13712603969682
 20
274.7266881176466
 30
0.0
 10
92.2880597362985
 20
273.7957610777843
 30
0.0
 10
92.73817374271361
 20
272.430084611883
 30
0.0
 10
93.33786334338471
 20
271.1048456033263
 30
0.0
 10
94.11202667312777
 20
269.8149954809961
 30
0.0
 10
95.03240796061492
 20
268.5898308018036
 30
0.0
 10
96.11238547447384
 20
267.4163607135521
 30
0.0
 10
97.32055146029424
 20
266.3253897371961
 30
0.0
 10
98.67221126567318
 20
265.3028643901092
 30
0.0
 10
100.1309793041608
 20
264.3762547072204
 30
0.0
 10
101.7124656860428
 20
263.534240224277
 30
0.0
 10
103.3785485857589
 20
262.7981506328993
 30
0.0
 10
105.1416669127854
 20
262.1608638254129
 30
0.0
 10
106.9659094394949
 20
261.6367037824874
 30
0.0
 10
108.8573256605393
 20
261.2223695050491
 30
0.0
 10
110.7857044856185
 20
260.9258625852839
 30
0.0
 10
112.7484318249778
 20
260.7461322900967
 30
0.0
 10
114.7235292936002
 20
260.6865583003421
 30
0.0
 10
116.6986267606715
 20
260.7461322860918
 30
0.0
 10
118.6613540964262
 20
260.925862579403
 30
0.0
 10
120.5897329181958
 20
261.2223695012348
 30
0.0
 10
122.4811491349448
 20
261.6367037801822
 30
0.0
 10
124.3053916680703
 20
262.1608638229642
 30
0.0
 10
126.0685099682805
 20
262.7981506341192
 30
0.0
 10
127.7345929641066
 20
263.5342402140011
 30
0.0
 10
129.316079003336
 20
264.3762547388828
 30
0.0
 10
130.7748482828916
 20
265.3028642703787
 30
0.0
 10
132.1265037104741
 20
266.3253901516305
 30
0.0
 10
133.3346855071557
 20
267.4163591986462
 30
0.0
 10
134.414607430363
 20
268.5898360700162
 30
0.0
 10
135.3351896811908
 20
269.8149762272735
 30
0.0
 10
136.1086429173375
 20
271.1049129963723
 30
0.0
 10
136.7109159691832
 20
272.429836770106
 30
0.0
 10
137.1517602715988
 20
273.7966443411495
 30
0.0
 10
137.3684682641056
 20
274.9539082443132
 30
0.0
 10
137.4607712751115
 20
275.8852139797245
 30
0.0
 10
137.4692823022096
 20
276.3493910430863
 30
0.0
 10
137.4735292869357
 20
276.5810147699484
 30
0.0
 11
92.061642032852
 21
275.1922575107158
 31
0.0
 11
92.32435167431704
 21
273.8038410475222
 31
0.0
 11
92.75464108311255
 21
272.4585708775171
 31
0.0
 11
93.36322610734024
 21
271.1176431508044
 31
0.0
 11
94.11742094120046
 21
269.8540084509435
 31
0.0
 11
95.05250144631464
 21
268.6062046725588
 31
0.0
 11
96.10583315630504
 21
267.4577987707685
 31
0.0
 11
97.3360214196859
 21
266.3437824114411
 31
0.0
 11
98.65770251935473
 21
265.3413368196789
 31
0.0
 11
100.1424302970535
 21
264.3956265769248
 31
0.0
 11
101.6950115635925
 21
263.5672540314685
 31
0.0
 11
103.3865812749797
 21
262.8179235223496
 31
0.0
 11
105.1257859443434
 21
262.1881716127812
 31
0.0
 11
106.9710010636609
 21
261.6565994326047
 31
0.0
 11
108.8464167528667
 21
261.2451885336923
 31
0.0
 11
110.7881722101221
 21
260.9457749202828
 31
0.0
 11
112.7445648918531
 21
260.7665189558026
 31
0.0
 11
114.7235292869357
 21
260.7064675323771
 31
0.0
 11
116.7024936820183
 21
260.7665189558026
 31
0.0
 11
118.6588863637493
 21
260.9457749202828
 31
0.0
 11
120.6006418210046
 21
261.2451885336923
 31
0.0
 11
122.4760575102106
 21
261.6565994326047
 31
0.0
 11
124.321272629528
 21
262.1881716127812
 31
0.0
 11
126.0604772988917
 21
262.8179235223495
 31
0.0
 11
127.7520470102789
 21
263.5672540314683
 31
0.0
 11
129.3046282768179
 21
264.3956265769247
 31
0.0
 11
130.7893560545167
 21
265.3413368196788
 31
0.0
 11
132.1110371541855
 21
266.343782411441
 31
0.0
 11
133.3412254175665
 21
267.4577987707684
 31
0.0
 11
134.3945571275569
 21
268.6062046725587
 31
0.0
 11
135.329637632671
 21
269.8540084509435
 31
0.0
 11
136.0838324665311
 21
271.1176431508044
 31
0.0
 11
136.6924174907587
 21
272.4585708775171
 31
0.0
 11
137.1227068995542
 21
273.8038410475221
 31
0.0
 11
137.3854165410193
 21
275.1922575107157
 31
0.0
 11
137.4515011004567
 21
275.886636140332
 31
0.0
 11
137.4735292869357
 21
276.5810147699484
 31
0.0
  0
SPLINE
  5
F7
330
4B
100
AcDbEntity
  8
1
  6
Continuous
 62
     7
100
AcDbSpline
210
0.0
220
0.0
230
1.0
 70
     8
 71
     3
 72
     9
 73
     5
 74
     3
 42
0.000000001
 43
0.0000000001
 44
0.00000001
 40
0.0
 40
0.0
 40
0.0
 40
0.0
 40
0.5694391833531802
 40
1.1418228368373
 40
1.1418228368373
 40
1.1418228368373
 40
1.1418228368373
 10
135.7235292869357
 20
307.1633830563928
 30
0.0
 10
135.7200774809291
 20
307.3533163971088
 30
0.0
 10
135.7131560002838
 20
307.7341651894546
 30
0.0
 10
135.6654453617485
 20
308.1120789918394
 30
0.0
 10
135.6415285157171
 20
308.3015231638324
 30
0.0
 11
135.7235292869357
 21
307.1633830563928
 31
0.0
 11
135.7030290941312
 21
307.7324531101127
 31
0.0
 11
135.6415285157171
 21
308.3015231638324
 31
0.0
  0
SPLINE
  5
F8
330
4B
100
AcDbEntity
  8
1
  6
Continuous
 62
     7
100
AcDbSpline
210
0.0
220
0.0
230
1.0
 70
     8
 71
     3
 72
    43
 73
    39
 74
    37
 42
0.000000001
 43
0.0000000001
 44
0.00000001
 40
0.0
 40
0.0
 40
0.0
 40
0.0
 40
1.167911524279684
 40
2.334839024823568
 40
3.575727862000278
 40
4.815252339048141
 40
6.160244710621511
 40
7.504036368036458
 40
8.96696120629252
 40
10.42901038328424
 40
12.00810821358023
 40
13.58661707063543
 40
15.26777752833143
 40
16.94856225774188
 40
18.70864182461953
 40
20.46850053744484
 40
22.27825577323579
 40
24.08790894501433
 40
25.91457425708495
 40
27.74123956841226
 40
29.55089273828641
 40
31.36064797179476
 40
33.12050668271151
 40
34.88058624819232
 40
36.56137097666817
 40
38.2425314336935
 40
39.82104029027365
 40
41.40013812018355
 40
42.862187296861
 40
44.32511213480832
 40
45.66890379190603
 40
47.01389616305854
 40
48.25342063948834
 40
49.49430947611153
 40
50.66123698318416
 40
51.82914851473887
 40
52.4015321657112
 40
52.97097134197882
 40
52.97097134197882
 40
52.97097134197882
 40
52.97097134197882
 10
135.6415285157171
 20
306.0252429489534
 30
0.0
 10
135.5712343312485
 20
305.6416624261356
 30
0.0
 10
135.4307051736716
 20
304.8748245698507
 30
0.0
 10
135.0112193604797
 20
303.7534274344572
 30
0.0
 10
134.4556790370672
 20
302.6694054985641
 30
0.0
 10
133.7372039595462
 20
301.6123104152546
 30
0.0
 10
132.8871673322058
 20
300.6131661896014
 30
0.0
 10
131.8876998963451
 20
299.6529959289229
 30
0.0
 10
130.7739407205631
 20
298.7643464821584
 30
0.0
 10
129.5249812177934
 20
297.928405500723
 30
0.0
 10
128.1810297874484
 20
297.1736277101297
 30
0.0
 10
126.7208890897678
 20
296.4855333409152
 30
0.0
 10
125.1858971273413
 20
295.8856641085097
 30
0.0
 10
123.5588004260153
 20
295.3649713075758
 30
0.0
 10
121.8776586564479
 20
294.937596135529
 30
0.0
 10
120.1326938634059
 20
294.5990944643798
 30
0.0
 10
118.35504790115
 20
294.3572625264516
 30
0.0
 10
116.544757840728
 20
294.210398846529
 30
0.0
 10
114.7235292819934
 20
294.1618775370861
 30
0.0
 10
112.9023007239161
 20
294.210398849136
 30
0.0
 10
111.0920106654664
 20
294.3572625308145
 30
0.0
 10
109.3143647047531
 20
294.5990944691284
 30
0.0
 10
107.5693999156943
 20
294.9375961402
 30
0.0
 10
105.8882581395785
 20
295.3649713105289
 30
0.0
 10
104.2611614671362
 20
295.8856641147122
 30
0.0
 10
102.7261694037457
 20
296.4855333325797
 30
0.0
 10
101.2660290632211
 20
297.1736277506262
 30
0.0
 10
99.92207635144547
 20
297.9284053638651
 30
0.0
 10
98.67312129560192
 20
298.7643469589877
 30
0.0
 10
97.55934623266896
 20
299.6529942115654
 30
0.0
 10
96.5599335199395
 20
300.6131720283199
 30
0.0
 10
95.70970147007344
 20
301.6122892680467
 30
0.0
 10
94.99190175014641
 20
302.6694776083414
 30
0.0
 10
94.43393181027959
 20
303.7531640468694
 30
0.0
 10
94.02300462409431
 20
304.8757430170075
 30
0.0
 10
93.8218400767323
 20
305.8269547046477
 30
0.0
 10
93.73538862076816
 20
306.5928061330172
 30
0.0
 10
93.72747559205025
 20
306.9735180018528
 30
0.0
 10
93.7235292869357
 20
307.1633830563901
 30
0.0
 11
135.6415285157171
 21
306.0252429489534
 31
0.0
 11
135.3972723349598
 21
304.8831587752315
 31
0.0
 11
135.0001027376775
 21
303.7859003210074
 31
0.0
 11
134.4334315217782
 21
302.6819579148193
 31
0.0
 11
133.7400280989512
 21
301.6545278103728
 31
0.0
 11
132.8705256106832
 21
300.6283845942158
 31
0.0
 11
131.9034010277211
 21
299.6954076075629
 31
0.0
 11
130.7617224046321
 21
298.7806841510305
 31
0.0
 11
129.5478617095845
 21
297.9657424310195
 31
0.0
 11
128.1722992491821
 21
297.1902568587337
 31
0.0
 11
126.745031577141
 21
296.5160186207706
 31
0.0
 11
125.1799224459526
 21
295.9022321037968
 31
0.0
 11
123.5794044442189
 21
295.3890270491032
 31
0.0
 11
121.8739324076755
 21
294.9540038226568
 31
0.0
 11
120.1463768645363
 21
294.6183633521082
 31
0.0
 11
118.3532583875399
 21
294.3735366185848
 31
0.0
 11
116.5495361092408
 21
294.2271449061167
 31
0.0
 11
114.7235292869357
 21
294.1781016822173
 31
0.0
 11
112.8975224646307
 21
294.2271449061167
 31
0.0
 11
111.0938001863317
 21
294.3735366185848
 31
0.0
 11
109.3006817093354
 21
294.6183633521082
 31
0.0
 11
107.5731261661962
 21
294.9540038226567
 31
0.0
 11
105.8676541296529
 21
295.3890270491031
 31
0.0
 11
104.267136127919
 21
295.9022321037967
 31
0.0
 11
102.7020269967305
 21
296.5160186207705
 31
0.0
 11
101.2747593246893
 21
297.1902568587337
 31
0.0
 11
99.89919686428696
 21
297.9657424310195
 31
0.0
 11
98.68533616923925
 21
298.7806841510306
 31
0.0
 11
97.5436575461502
 21
299.6954076075629
 31
0.0
 11
96.57653296318803
 21
300.6283845942158
 31
0.0
 11
95.70703047492012
 21
301.6545278103728
 31
0.0
 11
95.01362705209323
 21
302.6819579148194
 31
0.0
 11
94.4469558361939
 21
303.7859003210074
 31
0.0
 11
94.04978623891166
 21
304.8831587752315
 31
0.0
 11
93.80553005815442
 21
306.0252429489534
 31
0.0
 11
93.74402947974039
 21
306.5943130026718
 31
0.0
 11
93.7235292869357
 21
307.1633830563901
 31
0.0
  0
SPLINE
  5
F9
330
4B
100
AcDbEntity
  8
1
  6
Continuous
 62
     7
100
AcDbSpline
210
0.0
220
0.0
230
1.0
 70
     8
 71
     3
 72
    43
 73
    39
 74
    37
 42
0.000000001
 43
0.0000000001
 44
0.00000001
 40
0.0
 40
0.0
 40
0.0
 40
0.0
 40
1.167911524279684
 40
2.334839024823622
 40
3.575727862000383
 40
4.815252339048103
 40
6.160244710621343
 40
7.50403636803633
 40
8.966961206292464
 40
10.42901038328421
 40
12.00810821358023
 40
13.58661707063546
 40
15.26777752833145
 40
16.94856225774191
 40
18.70864182461954
 40
20.46850053744481
 40
22.27825577323576
 40
24.08790894501431
 40
25.91457425708493
 40
27.74123956841224
 40
29.55089273828641
 40
31.36064797179474
 40
33.12050668271149
 40
34.88058624819228
 40
36.56137097666816
 40
38.24253143369346
 40
39.82104029027357
 40
41.4001381201835
 40
42.86218729686095
 40
44.32511213480831
 40
45.6689037919061
 40
47.01389616305853
 40
48.25342063948818
 40
49.49430947611143
 40
50.66123698318405
 40
51.82914851473888
 40
52.40153216571121
 40
52.97097134197882
 40
52.97097134197882
 40
52.97097134197882
 40
52.97097134197882
 10
135.6415285157171
 20
308.3015231638324
 30
0.0
 10
135.5712343312485
 20
308.6851036866504
 30
0.0
 10
135.4307051736715
 20
309.4519415429351
 30
0.0
 10
135.0112193604798
 20
310.5733386783287
 30
0.0
 10
134.4556790370672
 20
311.6573606142219
 30
0.0
 10
133.7372039595462
 20
312.7144556975313
 30
0.0
 10
132.8871673322056
 20
313.7135999231842
 30
0.0
 10
131.8876998963451
 20
314.6737701838627
 30
0.0
 10
130.7739407205631
 20
315.5624196306273
 30
0.0
 10
129.5249812177935
 20
316.3983606120628
 30
0.0
 10
128.1810297874483
 20
317.1531384026562
 30
0.0
 10
126.7208890897679
 20
317.8412327718709
 30
0.0
 10
125.1858971273413
 20
318.4411020042763
 30
0.0
 10
123.5588004260154
 20
318.9617948052102
 30
0.0
 10
121.8776586564479
 20
319.389169977257
 30
0.0
 10
120.1326938634059
 20
319.7276716484058
 30
0.0
 10
118.35504790115
 20
319.9695035863341
 30
0.0
 10
116.5447578407281
 20
320.1163672662568
 30
0.0
 10
114.7235292819934
 20
320.1648885756997
 30
0.0
 10
112.9023007239161
 20
320.1163672636498
 30
0.0
 10
111.0920106654664
 20
319.969503581971
 30
0.0
 10
109.3143647047531
 20
319.7276716436572
 30
0.0
 10
107.5693999156943
 20
319.3891699725858
 30
0.0
 10
105.8882581395785
 20
318.9617948022569
 30
0.0
 10
104.2611614671362
 20
318.4411019980735
 30
0.0
 10
102.7261694037458
 20
317.841232780206
 30
0.0
 10
101.2660290632211
 20
317.1531383621597
 30
0.0
 10
99.92207635144548
 20
316.3983607489207
 30
0.0
 10
98.6731212956019
 20
315.5624191537981
 30
0.0
 10
97.55934623266891
 20
314.6737719012203
 30
0.0
 10
96.55993351993958
 20
313.7135940844659
 30
0.0
 10
95.70970147007347
 20
312.714476844739
 30
0.0
 10
94.99190175014633
 20
311.6572885044446
 30
0.0
 10
94.43393181027965
 20
310.5736020659165
 30
0.0
 10
94.02300462409428
 20
309.4510230957783
 30
0.0
 10
93.82184007673226
 20
308.4998114081382
 30
0.0
 10
93.7353886207682
 20
307.7339599797684
 30
0.0
 10
93.72747559205024
 20
307.3532481109332
 30
0.0
 10
93.7235292869357
 20
307.1633830563957
 30
0.0
 11
135.6415285157171
 21
308.3015231638324
 31
0.0
 11
135.3972723349598
 21
309.4436073375543
 31
0.0
 11
135.0001027376775
 21
310.5408657917785
 31
0.0
 11
134.4334315217782
 21
311.6448081979666
 31
0.0
 11
133.7400280989512
 21
312.672238302413
 31
0.0
 11
132.8705256106832
 21
313.6983815185698
 31
0.0
 11
131.9034010277211
 21
314.6313585052228
 31
0.0
 11
130.7617224046321
 21
315.5460819617552
 31
0.0
 11
129.5478617095845
 21
316.3610236817663
 31
0.0
 11
128.1722992491821
 21
317.1365092540522
 31
0.0
 11
126.745031577141
 21
317.8107474920153
 31
0.0
 11
125.1799224459526
 21
318.4245340089891
 31
0.0
 11
123.5794044442189
 21
318.9377390636827
 31
0.0
 11
121.8739324076755
 21
319.3727622901291
 31
0.0
 11
120.1463768645363
 21
319.7084027606775
 31
0.0
 11
118.3532583875399
 21
319.9532294942009
 31
0.0
 11
116.5495361092408
 21
320.0996212066691
 31
0.0
 11
114.7235292869357
 21
320.1486644305685
 31
0.0
 11
112.8975224646307
 21
320.0996212066691
 31
0.0
 11
111.0938001863317
 21
319.9532294942008
 31
0.0
 11
109.3006817093354
 21
319.7084027606774
 31
0.0
 11
107.5731261661962
 21
319.372762290129
 31
0.0
 11
105.8676541296529
 21
318.9377390636827
 31
0.0
 11
104.267136127919
 21
318.424534008989
 31
0.0
 11
102.7020269967305
 21
317.8107474920153
 31
0.0
 11
101.2747593246893
 21
317.1365092540522
 31
0.0
 11
99.89919686428696
 21
316.3610236817663
 31
0.0
 11
98.68533616923925
 21
315.5460819617552
 31
0.0
 11
97.5436575461502
 21
314.6313585052229
 31
0.0
 11
96.57653296318803
 21
313.6983815185698
 31
0.0
 11
95.70703047492012
 21
312.672238302413
 31
0.0
 11
95.01362705209323
 21
311.6448081979665
 31
0.0
 11
94.4469558361939
 21
310.5408657917785
 31
0.0
 11
94.04978623891166
 21
309.4436073375543
 31
0.0
 11
93.80553005815442
 21
308.3015231638324
 31
0.0
 11
93.74402947974039
 21
307.732453110114
 31
0.0
 11
93.7235292869357
 21
307.1633830563957
 31
0.0
  0
SPLINE
  5
FA
330
4B
100
AcDbEntity
  8
1
  6
Continuous
 62
     7
100
AcDbSpline
210
0.0
220
0.0
230
1.0
 70
     8
 71
     3
 72
     9
 73
     5
 74
     3
 42
0.000000001
 43
0.0000000001
 44
0.00000001
 40
0.0
 40
0.0
 40
0.0
 40
0.0
 40
0.6497276509759641
 40
1.301991758910727
 40
1.301991758910727
 40
1.301991758910727
 40
1.301991758910727
 10
135.7235292869357
 20
282.9449758006506
 30
0.0
 10
135.720116705931
 20
282.7282957983855
 30
0.0
 10
135.7132782016631
 20
282.2940899026709
 30
0.0
 10
135.6659626659545
 20
281.8624142916078
 30
0.0
 10
135.6422587995715
 20
281.6461560054665
 30
0.0
 11
135.7235292869357
 21
282.9449758006506
 31
0.0
 11
135.7032116650947
 21
282.2955659030587
 31
0.0
 11
135.6422587995715
 21
281.6461560054665
 31
0.0
  0
SPLINE
  5
FB
330
4B
100
AcDbEntity
  8
1
  6
Continuous
 62
     7
100
AcDbSpline
210
0.0
220
0.0
230
1.0
 70
     8
 71
     3
 72
    13
 73
     9
 74
     7
 42
0.000000001
 43
0.0000000001
 44
0.00000001
 40
0.0
 40
0.0
 40
0.0
 40
0.0
 40
1.115981522831576
 40
2.23506578703961
 40
3.664956656517883
 40
5.095451666288233
 40
5.802071115974685
 40
6.505942737418271
 40
6.505942737418271
 40
6.505942737418271
 40
6.505942737418271
 10
135.7235292869364
 20
287.8962634378511
 30
0.0
 10
135.9046156832891
 20
287.5710761854745
 30
0.0
 10
136.2672919340026
 20
286.9197975621483
 30
0.0
 10
136.7479583974413
 20
285.7944723156244
 30
0.0
 10
137.1523231049341
 20
284.5280523294959
 30
0.0
 10
137.3685703146286
 20
283.3557114510501
 30
0.0
 10
137.460786301103
 20
282.4124705799861
 30
0.0
 10
137.4692871500893
 20
281.9422107725277
 30
0.0
 10
137.4735292869357
 20
281.7075389335674
 30
0.0
 11
135.7235292869364
 21
287.8962634378511
 31
0.0
 11
136.2494509931302
 21
286.9119763262782
 31
0.0
 11
136.6926823841624
 21
285.884408554523
 31
0.0
 11
137.1229634473414
 21
284.5207934665362
 31
0.0
 11
137.3854862589576
 21
283.1145937116848
 31
0.0
 11
137.4515185299412
 21
282.4110663226261
 31
0.0
 11
137.4735292869357
 21
281.7075389335674
 31
0.0
  0
SPLINE
  5
FC
330
4B
100
AcDbEntity
  8
1
  6
Continuous
 62
     7
100
AcDbSpline
210
0.0
220
0.0
230
1.0
 70
     8
 71
     3
 72
    43
 73
    39
 74
    37
 42
0.000000001
 43
0.0000000001
 44
0.00000001
 40
0.0
 40
0.0
 40
0.0
 40
0.0
 40
1.430495005745123
 40
2.860385871798587
 40
4.348241316000728
 40
5.835168183540436
 40
7.406783958419274
 40
8.977460216792808
 40
10.64621914043057
 40
12.31419808585918
 40
14.08064656402594
 40
15.84651493904773
 40
17.70020164709541
 40
19.55349052089669
 40
21.47543024300074
 40
23.39712462605062
 40
25.3623454893657
 40
27.3274498403707
 40
29.30744871067271
 40
31.28744757958896
 40
33.25255192733184
 40
35.2177727877587
 40
37.13946716928952
 40
39.06140689072059
 40
40.91469576425356
 40
42.76838247220754
 40
44.53425084722062
 40
46.30069932542483
 40
47.96867827092041
 40
49.63743719465999
 40
51.20811345318336
 40
52.77972922832924
 40
54.26665609644954
 40
55.75451154231023
 40
57.18440241296485
 40
58.6148974235628
 40
59.32151687070877
 40
60.02538848630414
 40
60.02538848630414
 40
60.02538848630414
 40
60.02538848630414
 10
137.3854862589576
 20
280.3004841554526
 30
0.0
 10
137.3100668727375
 20
279.8290244064804
 30
0.0
 10
137.1592599387226
 20
278.8863040223541
 30
0.0
 10
136.7095904238822
 20
277.5029346863022
 30
0.0
 10
136.1101268707947
 20
276.1600283836185
 30
0.0
 10
135.3364358062088
 20
274.853244461154
 30
0.0
 10
134.4161372648689
 20
273.6113707659538
 30
0.0
 10
133.3365088163905
 20
272.422293326093
 30
0.0
 10
132.1282048705633
 20
271.3162725861393
 30
0.0
 10
130.7767400338712
 20
270.2800357856199
 30
0.0
 10
129.317677328308
 20
269.3406124726125
 30
0.0
 10
127.7362541389679
 20
268.4872566673087
 30
0.0
 10
126.0698114237711
 20
267.7410085712068
 30
0.0
 10
124.3066528372538
 20
267.0951172605273
 30
0.0
 10
122.4820520461032
 20
266.5637464025497
 30
0.0
 10
120.59051169374
 20
266.1438111064057
 30
0.0
 10
118.6618134844601
 20
265.843233476516
 30
0.0
 10
116.6988892705738
 20
265.6610774733975
 30
0.0
 10
114.7235292815254
 20
265.6006748485847
 30
0.0
 10
112.7481692934022
 20
265.6610774703844
 30
0.0
 10
110.7852450820144
 20
265.8432334721879
 30
0.0
 10
108.8565468748672
 20
266.1438111027227
 30
0.0
 10
106.9650065264206
 20
266.5637464000324
 30
0.0
 10
105.1404057291081
 20
267.0951172578127
 30
0.0
 10
103.3772471691599
 20
267.7410085720816
 30
0.0
 10
101.7108043593448
 20
268.4872566570472
 30
0.0
 10
100.1293815082673
 20
269.3406125032326
 30
0.0
 10
98.67031757659481
 20
270.2800356687111
 30
0.0
 10
97.31885707336723
 20
271.3162729909399
 30
0.0
 10
96.11053745794955
 20
272.4222918444462
 30
0.0
 10
95.03096422888555
 20
273.6113759319252
 30
0.0
 10
94.11046580492408
 20
274.8532255638473
 30
0.0
 10
93.33748266822101
 20
276.1600947117971
 30
0.0
 10
92.73544057837591
 20
277.502690593997
 30
0.0
 10
92.29504025865813
 20
278.887175822484
 30
0.0
 10
92.0784511874894
 20
280.05934814993
 30
0.0
 10
91.9862787341273
 20
281.002610478622
 30
0.0
 10
91.97777357541376
 20
281.4728681574109
 30
0.0
 10
91.9735292869357
 20
281.7075389335688
 30
0.0
 11
137.3854862589576
 21
280.3004841554526
 31
0.0
 11
137.1229634473414
 21
278.8942844006012
 31
0.0
 11
136.6926823841624
 21
277.5306693126145
 31
0.0
 11
136.0846398641091
 21
276.1727303886927
 31
0.0
 11
135.3301552158972
 21
274.8914402473134
 31
0.0
 11
134.3958247779584
 21
273.6277144949569
 31
0.0
 11
133.3419063678526
 21
272.4631201905848
 31
0.0
 11
132.1124834237115
 21
271.334725060366
 31
0.0
 11
130.7900625020183
 21
270.3181835371229
 31
0.0
 11
129.3059917487075
 21
269.3601260099538
 31
0.0
 11
127.7526694462639
 21
268.5201968803952
 31
0.0
 11
126.0615893719051
 21
267.7609850565663
 31
0.0
 11
124.3217461755647
 21
267.1225296540878
 31
0.0
 11
122.4768298288236
 21
266.5838869466626
 31
0.0
 11
120.6009345597797
 21
266.166842302511
 31
0.0
 11
118.6592795297989
 21
265.8634139357089
 31
0.0
 11
116.7025924077781
 21
265.6817257368527
 31
0.0
 11
114.7235292869357
 21
265.6208596616458
 31
0.0
 11
112.7444661660934
 21
265.6817257368527
 31
0.0
 11
110.7877790440725
 21
265.8634139357089
 31
0.0
 11
108.8461240140918
 21
266.1668423025109
 31
0.0
 11
106.9702287450478
 21
266.5838869466625
 31
0.0
 11
105.1253123983067
 21
267.1225296540877
 31
0.0
 11
103.3854692019663
 21
267.7609850565661
 31
0.0
 11
101.6943891276075
 21
268.5201968803951
 31
0.0
 11
100.1410668251639
 21
269.3601260099537
 31
0.0
 11
98.65699607185309
 21
270.3181835371228
 31
0.0
 11
97.33457515015985
 21
271.3347250603659
 31
0.0
 11
96.10515220601877
 21
272.4631201905848
 31
0.0
 11
95.05123379591295
 21
273.6277144949569
 31
0.0
 11
94.11690335797411
 21
274.8914402473134
 31
0.0
 11
93.36241870976222
 21
276.1727303886926
 31
0.0
 11
92.754376189709
 21
277.5306693126144
 31
0.0
 11
92.32409512653014
 21
278.8942844006012
 31
0.0
 11
92.06157231491376
 21
280.3004841554527
 31
0.0
 11
91.99554004393022
 21
281.0040115445105
 31
0.0
 11
91.9735292869357
 21
281.7075389335688
 31
0.0
  0
SPLINE
  5
FD
330
4B
100
AcDbEntity
  8
1
  6
Continuous
 62
     7
100
AcDbSpline
210
0.0
220
0.0
230
1.0
 70
     8
 71
     3
 72
    43
 73
    39
 74
    37
 42
0.000000001
 43
0.0000000001
 44
0.00000001
 40
0.0
 40
0.0
 40
0.0
 40
0.0
 40
1.320456927958094
 40
2.640356188589152
 40
4.013761213891422
 40
5.386309091584811
 40
6.837031345304784
 40
8.286886353026416
 40
9.827279205609035
 40
11.36695207830741
 40
12.99751990430358
 40
14.6275522504765
 40
16.33864767329514
 40
18.04937586451614
 40
19.82347406958873
 40
21.59734580791296
 40
23.41139583583067
 40
25.22533831397991
 40
27.05302957908781
 40
28.88072084281001
 40
30.69466331769717
 40
32.50871334272664
 40
34.28258507953168
 40
36.05668328393129
 40
37.76741147488391
 40
39.47850689760886
 40
41.10853924377304
 40
42.73910706980669
 40
44.27877994257198
 40
45.81917279525641
 40
47.26902780312782
 40
48.71975005711499
 40
50.09229793538913
 40
51.46570296234988
 40
52.78560222758207
 40
54.10605916039287
 40
54.75832326518386
 40
55.4080509098369
 40
55.4080509098369
 40
55.4080509098369
 40
55.4080509098369
 10
135.6422587995715
 20
281.6461560054665
 30
0.0
 10
135.5726409046212
 20
281.2109623911697
 30
0.0
 10
135.4334345030031
 20
280.3407589601233
 30
0.0
 10
135.0183549517768
 20
279.0638026499941
 30
0.0
 10
134.4650039798659
 20
277.8241968321951
 30
0.0
 10
133.7508276127599
 20
276.6179347498753
 30
0.0
 10
132.9013212669917
 20
275.4715898004135
 30
0.0
 10
131.9047411607693
 20
274.3739798558812
 30
0.0
 10
130.7893836723525
 20
273.3530376343504
 30
0.0
 10
129.5418776692784
 20
272.3965113569211
 30
0.0
 10
128.1950505564647
 20
271.5293513756674
 30
0.0
 10
126.7352753047678
 20
270.7416383246132
 30
0.0
 10
125.1970204907262
 20
270.0527939282215
 30
0.0
 10
123.5694894877472
 20
269.4565865645479
 30
0.0
 10
121.8852426035223
 20
268.9660903880092
 30
0.0
 10
120.1392053550229
 20
268.5784578070422
 30
0.0
 10
118.3588685462199
 20
268.3010015333876
 30
0.0
 10
116.5469385023867
 20
268.1328575304701
 30
0.0
 10
114.7235292815247
 20
268.0771012612817
 30
0.0
 10
112.9001200615917
 20
268.1328575274572
 30
0.0
 10
111.0881900202456
 20
268.3010015290586
 30
0.0
 10
109.3078532136169
 20
268.5784578033631
 30
0.0
 10
107.5618159688827
 20
268.9660903854777
 30
0.0
 10
105.8775690790514
 20
269.4565865618859
 30
0.0
 10
104.2500381006395
 20
270.052793928908
 30
0.0
 10
102.7117831992785
 20
270.7416383150422
 30
0.0
 10
101.2520082598334
 20
271.5293514038465
 30
0.0
 10
99.90518001522801
 20
272.396511248926
 30
0.0
 10
98.6576780122688
 20
273.3530380079334
 30
0.0
 10
97.54230605960078
 20
274.3739784881241
 30
0.0
 10
96.54577692511404
 20
275.4715945689096
 30
0.0
 10
95.69608607226472
 20
276.6179173061075
 30
0.0
 10
94.9825631769133
 20
277.8242580581068
 30
0.0
 10
94.42683201709826
 20
279.06357733403
 30
0.0
 10
94.02030864530725
 20
280.3415636988301
 30
0.0
 10
93.82038027180873
 20
281.4235689241053
 30
0.0
 10
93.73529800837858
 20
282.2942726119339
 30
0.0
 10
93.7274470916817
 20
282.7283566228268
 30
0.0
 10
93.7235292869357
 20
282.9449758006479
 30
0.0
 11
135.6422587995715
 21
281.6461560054665
 31
0.0
 11
135.399930050387
 21
280.3481254625267
 31
0.0
 11
135.0027475305294
 21
279.0894038428466
 31
0.0
 11
134.4414775120187
 21
277.8359217592264
 31
0.0
 11
133.7450301444386
 21
276.6531923979533
 31
0.0
 11
132.882571278649
 21
275.4866763188551
 31
0.0
 11
131.9097235154745
 21
274.4116661917424
 31
0.0
 11
130.7748715670366
 21
273.3700706869251
 31
0.0
 11
129.5541753316274
 21
272.4317246654699
 31
0.0
 11
128.1842638670329
 21
271.54736387116
 31
0.0
 11
126.7504278955464
 21
270.7720446746443
 31
0.0
 11
125.1894309038307
 21
270.0712337603405
 31
0.0
 11
123.5834217995163
 21
269.4818903118989
 31
0.0
 11
121.8804220948321
 21
268.9846816588911
 31
0.0
 11
120.1488264618684
 21
268.5997173719819
 31
0.0
 11
118.3565295111169
 21
268.31962964878
 31
0.0
 11
116.5503567830978
 21
268.1519174652204
 31
0.0
 11
114.7235292869357
 21
268.0957333957987
 31
0.0
 11
112.8967017907735
 21
268.1519174652204
 31
0.0
 11
111.0905290627543
 21
268.31962964878
 31
0.0
 11
109.2982321120029
 21
268.5997173719819
 31
0.0
 11
107.5666364790393
 21
268.9846816588911
 31
0.0
 11
105.8636367743551
 21
269.4818903118989
 31
0.0
 11
104.2576276700408
 21
270.0712337603405
 31
0.0
 11
102.696630678325
 21
270.7720446746443
 31
0.0
 11
101.2627947068386
 21
271.54736387116
 31
0.0
 11
99.89288324224401
 21
272.4317246654699
 31
0.0
 11
98.6721870068348
 21
273.370070686925
 31
0.0
 11
97.5373350583969
 21
274.4116661917424
 31
0.0
 11
96.56448729522235
 21
275.4866763188551
 31
0.0
 11
95.70202842943272
 21
276.6531923979534
 31
0.0
 11
95.00558106185252
 21
277.8359217592266
 31
0.0
 11
94.44431104334186
 21
279.0894038428467
 31
0.0
 11
94.04712852348443
 21
280.3481254625268
 31
0.0
 11
93.80479977430014
 21
281.6461560054667
 31
0.0
 11
93.74384690877692
 21
282.2955659030573
 31
0.0
 11
93.7235292869357
 21
282.9449758006479
 31
0.0
  0
ENDBLK
  5
4E
330
4B
100
AcDbEntity
  8
0
100
AcDbBlockEnd
  0
BLOCK
  5
50
330
4F
100
AcDbEntity
  8
0
100
AcDbBlockBegin
  2
Y143-0B
 70
     0
 10
201.4176735531898
 20
42.82194175420628
 30
0.0
  3
Y143-0B
  1

  0
LINE
  5
FE
330
4F
100
AcDbEntity
  8
1
  6
Continuous
 62
     7
100
AcDbLine
 10
-13.08583556585558
 20
196.5269774812109
 30
0.0
 11
-11.73659725533867
 21
195.177739170694
 31
0.0
  0
LINE
  5
FF
330
4F
100
AcDbEntity
  8
1
  6
Continuous
 62
     2
100
AcDbLine
 10
3.30984936951705
 20
212.9226624165835
 30
0.0
 11
3.66337009959261
 21
212.5691416865079
 31
0.0
  0
LINE
  5
100
330
4F
100
AcDbEntity
  8
1
  6
Continuous
 62
     7
100
AcDbLine
 10
-156.7764707130643
 20
390.2873892812851
 30
0.0
 11
-156.6698090114564
 21
381.1892555005242
 31
0.0
  0
LINE
  5
101
330
4F
100
AcDbEntity
  8
1
  6
Continuous
 62
     7
100
AcDbLine
 10
-177.7764707130643
 20
390.2873892812851
 30
0.0
 11
-177.8831324146726
 21
381.1892555005242
 31
0.0
  0
LINE
  5
102
330
4F
100
AcDbEntity
  8
1
  6
Continuous
 62
     7
100
AcDbLine
 10
-167.2764707130643
 20
432.2873892812851
 30
0.0
 11
-176.5919707130644
 21
432.2873892812851
 31
0.0
  0
LINE
  5
103
330
4F
100
AcDbEntity
  8
1
  6
Continuous
 62
     7
100
AcDbLine
 10
-176.5919707130644
 20
432.2873892812851
 30
0.0
 11
-177.7539707130644
 21
431.125389281285
 31
0.0
  0
LINE
  5
104
330
4F
100
AcDbEntity
  8
1
  6
Continuous
 62
     7
100
AcDbLine
 10
-177.7539707130644
 20
431.125389281285
 30
0.0
 11
-156.7989707130644
 21
431.125389281285
 31
0.0
  0
LINE
  5
105
330
4F
100
AcDbEntity
  8
1
  6
Continuous
 62
     7
100
AcDbLine
 10
-177.7539707130644
 20
431.125389281285
 30
0.0
 11
-177.7539707130644
 21
418.2873892812851
 31
0.0
  0
LINE
  5
106
330
4F
100
AcDbEntity
  8
1
  6
Continuous
 62
     7
100
AcDbLine
 10
-156.7989707130644
 20
431.125389281285
 30
0.0
 11
-157.9609707130644
 21
432.2873892812851
 31
0.0
  0
LINE
  5
107
330
4F
100
AcDbEntity
  8
1
  6
Continuous
 62
     2
100
AcDbLine
 10
-157.9609707130644
 20
432.2873892812851
 30
0.0
 11
-157.9609707130644
 21
418.2873892812851
 31
0.0
  0
LINE
  5
108
330
4F
100
AcDbEntity
  8
1
  6
Continuous
 62
     7
100
AcDbLine
 10
-157.9609707130644
 20
432.2873892812851
 30
0.0
 11
-167.2764707130643
 21
432.2873892812851
 31
0.0
  0
LINE
  5
109
330
4F
100
AcDbEntity
  8
1
  6
Continuous
 62
     2
100
AcDbLine
 10
-176.5919707130644
 20
418.2873892812851
 30
0.0
 11
-176.5919707130644
 21
432.2873892812851
 31
0.0
  0
LINE
  5
10A
330
4F
100
AcDbEntity
  8
1
  6
Continuous
 62
     7
100
AcDbLine
 10
-156.7989707130644
 20
418.2873892812851
 30
0.0
 11
-156.7989707130644
 21
431.125389281285
 31
0.0
  0
LINE
  5
10B
330
4F
100
AcDbEntity
  8
1
  6
Continuous
 62
     7
100
AcDbLine
 10
-8.59197071306437
 20
165.6881753768968
 30
0.0
 11
10.03902928693583
 21
165.6881753768968
 31
0.0
  0
LINE
  5
10C
330
4F
100
AcDbEntity
  8
1
  6
Continuous
 62
     7
100
AcDbLine
 10
3.66337009959261
 20
212.5691416865079
 30
0.0
 11
-12.15743702267557
 21
196.7483345642397
 31
0.0
  0
LINE
  5
10D
330
4F
100
AcDbEntity
  8
1
  6
Continuous
 62
     2
100
AcDbLine
 10
-12.15743702267557
 20
196.7483345642397
 30
0.0
 11
-12.51157678711059
 21
197.1024743286748
 31
0.0
  0
LINE
  5
10E
330
4F
100
AcDbEntity
  8
1
  6
Continuous
 62
     2
100
AcDbLine
 10
-12.15743702267557
 20
196.7483345642397
 30
0.0
 11
-11.73659725533867
 21
195.177739170694
 31
0.0
  0
LINE
  5
10F
330
4F
100
AcDbEntity
  8
1
  6
Continuous
 62
     7
100
AcDbLine
 10
-12.73231483578016
 20
196.1734567511353
 30
0.0
 11
-12.15743702267557
 21
196.7483345642397
 31
0.0
  0
LINE
  5
110
330
4F
100
AcDbEntity
  8
1
  6
Continuous
 62
     7
100
AcDbLine
 10
3.66337009959261
 20
212.5691416865079
 30
0.0
 11
4.23824791269703
 21
213.1440194996125
 31
0.0
  0
LINE
  5
111
330
4F
100
AcDbEntity
  8
1
  6
Continuous
 62
     7
100
AcDbLine
 10
4.23824791269703
 20
213.1440194996125
 30
0.0
 11
3.88472718262159
 21
213.497540229688
 31
0.0
  0
LINE
  5
112
330
4F
100
AcDbEntity
  8
1
  6
Continuous
 62
     7
100
AcDbLine
 10
5.23396549313861
 20
212.1483019191711
 30
0.0
 11
4.23824791269703
 21
213.1440194996125
 31
0.0
  0
LINE
  5
113
330
4F
100
AcDbEntity
  8
1
  6
Continuous
 62
     2
100
AcDbLine
 10
5.23396549313861
 20
212.1483019191711
 30
0.0
 11
3.66337009959261
 21
212.5691416865079
 31
0.0
  0
LINE
  5
114
330
4F
100
AcDbEntity
  8
1
  6
Continuous
 62
     7
100
AcDbLine
 10
5.23396549313861
 20
212.1483019191711
 30
0.0
 11
-11.73659725533867
 21
195.177739170694
 31
0.0
  0
LINE
  5
115
330
4F
100
AcDbEntity
  8
1
  6
Continuous
 62
     2
100
AcDbLine
 10
-8.59197071306437
 20
165.6881753768968
 30
0.0
 11
-9.75397071306418
 21
167.7008184152918
 31
0.0
  0
LINE
  5
116
330
4F
100
AcDbEntity
  8
1
  6
Continuous
 62
     2
100
AcDbLine
 10
-8.59197071306437
 20
163.188175376897
 30
0.0
 11
-8.59197071306437
 21
165.6881753768968
 31
0.0
  0
LINE
  5
117
330
4F
100
AcDbEntity
  8
1
  6
Continuous
 62
     7
100
AcDbLine
 10
-8.59197071306437
 20
165.6881753768968
 30
0.0
 11
-9.75397071306418
 21
165.6881753768968
 31
0.0
  0
LINE
  5
118
330
4F
100
AcDbEntity
  8
1
  6
Continuous
 62
     7
100
AcDbLine
 10
-177.7764707130646
 20
167.7008184152918
 30
0.0
 11
-177.7764707130646
 21
180.7133029642275
 31
0.0
  0
LINE
  5
119
330
4F
100
AcDbEntity
  8
1
  6
Continuous
 62
     7
100
AcDbLine
 10
-156.7764707130646
 20
167.7008184152918
 30
0.0
 11
-156.7764707130646
 21
180.7133029642275
 31
0.0
  0
LINE
  5
11A
330
4F
100
AcDbEntity
  8
1
  6
Continuous
 62
     7
100
AcDbLine
 10
-177.7764707130646
 20
167.7008184152918
 30
0.0
 11
-177.7539707130645
 21
167.7008184152918
 31
0.0
  0
LINE
  5
11B
330
4F
100
AcDbEntity
  8
1
  6
Continuous
 62
     7
100
AcDbLine
 10
-156.7764707130646
 20
167.7008184152918
 30
0.0
 11
-156.7989707130645
 21
167.7008184152918
 31
0.0
  0
LINE
  5
11C
330
4F
100
AcDbEntity
  8
1
  6
Continuous
 62
     7
100
AcDbLine
 10
-156.7989707130645
 20
165.6881753768968
 30
0.0
 11
-177.7539707130645
 21
165.6881753768968
 31
0.0
  0
LINE
  5
11D
330
4F
100
AcDbEntity
  8
1
  6
Continuous
 62
     7
100
AcDbLine
 10
-156.7989707130645
 20
167.7008184152918
 30
0.0
 11
-156.7989707130645
 21
163.1881753768968
 31
0.0
  0
LINE
  5
11E
330
4F
100
AcDbEntity
  8
1
  6
Continuous
 62
     7
100
AcDbLine
 10
-177.7539707130645
 20
167.7008184152918
 30
0.0
 11
-177.7539707130645
 21
163.1881753768968
 31
0.0
  0
LINE
  5
11F
330
4F
100
AcDbEntity
  8
1
  6
Continuous
 62
     2
100
AcDbLine
 10
-176.5919707130645
 20
165.6881753768968
 30
0.0
 11
-177.7539707130645
 21
167.7008184152918
 31
0.0
  0
LINE
  5
120
330
4F
100
AcDbEntity
  8
1
  6
Continuous
 62
     2
100
AcDbLine
 10
-156.7989707130645
 20
167.7008184152918
 30
0.0
 11
-157.9609707130645
 21
165.6881753768968
 31
0.0
  0
LINE
  5
121
330
4F
100
AcDbEntity
  8
1
  6
Continuous
 62
     2
100
AcDbLine
 10
-157.9609707130645
 20
165.6881753768968
 30
0.0
 11
-157.9609707130645
 21
163.1881753768968
 31
0.0
  0
LINE
  5
122
330
4F
100
AcDbEntity
  8
1
  6
Continuous
 62
     2
100
AcDbLine
 10
-176.5919707130645
 20
163.1881753768968
 30
0.0
 11
-176.5919707130645
 21
165.6881753768968
 31
0.0
  0
LINE
  5
123
330
4F
100
AcDbEntity
  8
1
  6
Continuous
 62
     7
100
AcDbLine
 10
54.22460941056306
 20
177.2106753768968
 30
0.0
 11
67.06260941056303
 21
177.2106753768968
 31
0.0
  0
LINE
  5
124
330
4F
100
AcDbEntity
  8
1
  6
Continuous
 62
     2
100
AcDbLine
 10
54.22460941056306
 20
197.0036753768968
 30
0.0
 11
68.22460941056306
 21
197.0036753768968
 31
0.0
  0
LINE
  5
125
330
4F
100
AcDbEntity
  8
1
  6
Continuous
 62
     7
100
AcDbLine
 10
68.22460941056306
 20
178.3726753768968
 30
0.0
 11
68.22460941056306
 21
187.6881753768968
 31
0.0
  0
LINE
  5
126
330
4F
100
AcDbEntity
  8
1
  6
Continuous
 62
     2
100
AcDbLine
 10
68.22460941056306
 20
178.3726753768968
 30
0.0
 11
54.22460941056306
 21
178.3726753768968
 31
0.0
  0
LINE
  5
127
330
4F
100
AcDbEntity
  8
1
  6
Continuous
 62
     7
100
AcDbLine
 10
67.06260941056303
 20
177.2106753768968
 30
0.0
 11
68.22460941056306
 21
178.3726753768968
 31
0.0
  0
LINE
  5
128
330
4F
100
AcDbEntity
  8
1
  6
Continuous
 62
     7
100
AcDbLine
 10
67.06260941056303
 20
198.1656753768968
 30
0.0
 11
54.22460941056306
 21
198.1656753768968
 31
0.0
  0
LINE
  5
129
330
4F
100
AcDbEntity
  8
1
  6
Continuous
 62
     7
100
AcDbLine
 10
67.06260941056303
 20
198.1656753768968
 30
0.0
 11
67.06260941056303
 21
177.2106753768968
 31
0.0
  0
LINE
  5
12A
330
4F
100
AcDbEntity
  8
1
  6
Continuous
 62
     7
100
AcDbLine
 10
68.22460941056306
 20
197.0036753768968
 30
0.0
 11
67.06260941056303
 21
198.1656753768968
 31
0.0
  0
LINE
  5
12B
330
4F
100
AcDbEntity
  8
1
  6
Continuous
 62
     7
100
AcDbLine
 10
68.22460941056306
 20
187.6881753768968
 30
0.0
 11
68.22460941056306
 21
197.0036753768968
 31
0.0
  0
LINE
  5
12C
330
4F
100
AcDbEntity
  8
1
  6
Continuous
 62
     7
100
AcDbLine
 10
26.22460941056306
 20
198.1881753768968
 30
0.0
 11
25.22988176128808
 21
198.1881753768968
 31
0.0
  0
LINE
  5
12D
330
4F
100
AcDbEntity
  8
1
  6
Continuous
 62
     7
100
AcDbLine
 10
26.22460941056306
 20
177.1881753768968
 30
0.0
 11
19.22352928693579
 21
177.1881753768968
 31
0.0
  0
LINE
  5
12E
330
4F
100
AcDbEntity
  8
1
  6
Continuous
 62
     2
100
AcDbLine
 10
10.03902928693583
 20
165.6881753768968
 30
0.0
 11
10.03902928693583
 21
163.188175376897
 31
0.0
  0
LINE
  5
12F
330
4F
100
AcDbEntity
  8
1
  6
Continuous
 62
     2
100
AcDbLine
 10
11.20102928693564
 20
167.7008184152918
 30
0.0
 11
10.03902928693583
 21
165.6881753768968
 31
0.0
  0
LINE
  5
130
330
4F
100
AcDbEntity
  8
1
  6
Continuous
 62
     7
100
AcDbLine
 10
11.20102928693564
 20
165.6881753768968
 30
0.0
 11
10.03902928693583
 21
165.6881753768968
 31
0.0
  0
LINE
  5
131
330
4F
100
AcDbEntity
  8
1
  6
Continuous
 62
     7
100
AcDbLine
 10
11.20102928693564
 20
167.7008184152918
 30
0.0
 11
11.20102928693564
 21
163.188175376897
 31
0.0
  0
LINE
  5
132
330
4F
100
AcDbEntity
  8
1
  6
Continuous
 62
     7
100
AcDbLine
 10
11.22352928693579
 20
167.7008184152918
 30
0.0
 11
11.20102928693564
 21
167.7008184152918
 31
0.0
  0
LINE
  5
133
330
4F
100
AcDbEntity
  8
1
  6
Continuous
 62
     7
100
AcDbLine
 10
-9.75397071306418
 20
167.7008184152918
 30
0.0
 11
-9.75397071306418
 21
163.188175376897
 31
0.0
  0
LINE
  5
134
330
4F
100
AcDbEntity
  8
1
  6
Continuous
 62
     7
100
AcDbLine
 10
-9.77647071306421
 20
167.7008184152918
 30
0.0
 11
-9.75397071306418
 21
167.7008184152918
 31
0.0
  0
LINE
  5
135
330
4F
100
AcDbEntity
  8
1
  6
Continuous
 62
     7
100
AcDbLine
 10
5.23396549313861
 20
212.1483019191711
 30
0.0
 11
5.62739700107443
 21
212.5417334271072
 31
0.0
  0
LINE
  5
136
330
4F
100
AcDbEntity
  8
1
  6
Continuous
 62
     7
100
AcDbLine
 10
-11.73659725533867
 20
195.177739170694
 30
0.0
 11
-12.0519900114482
 21
194.8623464145844
 31
0.0
  0
LINE
  5
137
330
4F
100
AcDbEntity
  8
1
  6
Continuous
 62
     7
100
AcDbLine
 10
5.62739700107443
 20
212.5417334271072
 30
0.0
 11
14.06226028157448
 21
205.2500377360821
 31
0.0
  0
LINE
  5
138
330
4F
100
AcDbEntity
  8
1
  6
Continuous
 62
     7
100
AcDbLine
 10
11.22352928693579
 20
167.7008184152918
 30
0.0
 11
11.22352928693579
 21
169.1881753768968
 31
0.0
  0
LINE
  5
139
330
4F
100
AcDbEntity
  8
1
  6
Continuous
 62
     7
100
AcDbLine
 10
-9.77647071306421
 20
167.7008184152918
 30
0.0
 11
-9.77647071306421
 21
189.2599833306328
 31
0.0
  0
LINE
  5
13A
330
4F
100
AcDbEntity
  8
1
  6
Continuous
 62
     7
100
AcDbLine
 10
-12.0519900114482
 20
194.8623464145844
 30
0.0
 11
-11.78986779439981
 21
194.5666381615258
 31
0.0
  0
ARC
  5
13B
330
4F
100
AcDbEntity
  8
0
  6
Continuous
 62
     7
100
AcDbCircle
 10
-144.4085752999561
 20
367.1519382191898
 30
0.0
 40
35.99999999999986
100
AcDbArc
 50
169.2472792266775
 51
188.5513459396559
  0
ARC
  5
13C
330
4F
100
AcDbEntity
  8
0
  6
Continuous
 62
     7
100
AcDbCircle
 10
-190.1443661261728
 20
367.1519382191898
 30
0.0
 40
36.00000000000018
100
AcDbArc
 50
351.4486540603444
 51
10.75272077332242
  0
ARC
  5
13D
330
4F
100
AcDbEntity
  8
1
  6
Continuous
 62
     7
100
AcDbCircle
 10
-132.9772609937348
 20
383.439933552267
 30
0.0
 40
23.79920971932977
100
AcDbArc
 50
185.426539253806
 51
202.7736375216308
  0
ARC
  5
13E
330
4F
100
AcDbEntity
  8
1
  6
Continuous
 62
     7
100
AcDbCircle
 10
-201.5756804323942
 20
383.439933552267
 30
0.0
 40
23.79920971932974
100
AcDbArc
 50
337.2263624783691
 51
354.573460746194
  0
ARC
  5
13F
330
4F
100
AcDbEntity
  8
1
  6
Continuous
 62
     7
100
AcDbCircle
 10
-167.2764707130662
 20
369.0404399371396
 30
0.0
 40
13.39999999999816
100
AcDbArc
 50
157.226362478369
 51
158.8812730110362
  0
ARC
  5
140
330
4F
100
AcDbEntity
  8
1
  6
Continuous
 62
     7
100
AcDbCircle
 10
-167.2764707130627
 20
369.0404399371396
 30
0.0
 40
13.39999999999827
100
AcDbArc
 50
21.11872698896334
 51
22.7736375216312
  0
ARC
  5
141
330
4F
100
AcDbEntity
  8
1
  6
Continuous
 62
     7
100
AcDbCircle
 10
-167.2764707130627
 20
195.1127965793549
 30
0.0
 40
13.39999999999807
100
AcDbArc
 50
337.2263624783686
 51
338.8812730110369
  0
ARC
  5
142
330
4F
100
AcDbEntity
  8
1
  6
Continuous
 62
     7
100
AcDbCircle
 10
-167.2764707130662
 20
195.1127965793549
 30
0.0
 40
13.39999999999796
100
AcDbArc
 50
201.1187269889636
 51
202.7736375216312
  0
ARC
  5
143
330
4F
100
AcDbEntity
  8
1
  6
Continuous
 62
     7
100
AcDbCircle
 10
-201.5756804323942
 20
180.7133029642275
 30
0.0
 40
23.79920971932958
100
AcDbArc
 50
0.0
 51
22.7736375216307
  0
ARC
  5
144
330
4F
100
AcDbEntity
  8
1
  6
Continuous
 62
     7
100
AcDbCircle
 10
-132.9772609937348
 20
180.7133029642275
 30
0.0
 40
23.79920971932973
100
AcDbArc
 50
157.2263624783693
 51
180.0
  0
ARC
  5
145
330
4F
100
AcDbEntity
  8
1
  6
Continuous
 62
     7
100
AcDbCircle
 10
25.22988176128797
 20
209.1881753768968
 30
0.0
 40
10.99999999999994
100
AcDbArc
 50
215.2299785069439
 51
270.0000000000006
  0
ARC
  5
146
330
4F
100
AcDbEntity
  8
1
  6
Continuous
 62
     7
100
AcDbCircle
 10
5.2989080844809
 20
195.1127965793587
 30
0.0
 40
13.39999999999517
100
AcDbArc
 50
35.22997850694235
 51
49.15753251520722
  0
ARC
  5
147
330
4F
100
AcDbEntity
  8
1
  6
Continuous
 62
     7
100
AcDbCircle
 10
-17.77647071306421
 20
189.2599833306328
 30
0.0
 40
7.999999999999996
100
AcDbArc
 50
0.0
 51
41.55447668665798
  0
ARC
  5
148
330
4F
100
AcDbEntity
  8
1
  6
Continuous
 62
     7
100
AcDbCircle
 10
19.22352928693579
 20
169.1881753768968
 30
0.0
 40
8.0
100
AcDbArc
 50
90.0
 51
180.0
  0
ARC
  5
149
330
4F
100
AcDbEntity
  8
0
  6
Continuous
 62
     7
100
AcDbCircle
 10
-144.4085752999561
 20
197.0012982973046
 30
0.0
 40
35.99999999999983
100
AcDbArc
 50
171.0993292218141
 51
190.7527207733223
  0
ARC
  5
14A
330
4F
100
AcDbEntity
  8
0
  6
Continuous
 62
     7
100
AcDbCircle
 10
-190.1443661261728
 20
197.0012982973046
 30
0.0
 40
36.00000000000014
100
AcDbArc
 50
349.2472792266778
 51
8.69714028969048
  0
SPLINE
  5
14B
330
4F
100
AcDbEntity
  8
1
  6
Continuous
 62
     7
100
AcDbSpline
210
0.0
220
0.0
230
1.0
 70
     8
 71
     3
 72
    43
 73
    39
 74
    37
 42
0.000000001
 43
0.0000000001
 44
0.00000001
 40
0.0
 40
0.0
 40
0.0
 40
0.0
 40
0.017607668828242
 40
0.0352207215084133
 40
0.5806840030682326
 40
1.124433271846001
 40
1.669449167366486
 40
2.532188110276508
 40
3.394415961485059
 40
4.310069214116202
 40
5.225297141736817
 40
6.194183360325204
 40
7.162752619225933
 40
8.17919203199058
 40
9.195413752324713
 40
10.24906647442489
 40
11.30258481323865
 40
12.37983915126751
 40
13.45702963354066
 40
14.5423430688447
 40
15.62765650414878
 40
16.70484698642196
 40
17.78210132445076
 40
18.83561966326442
 40
19.88927238536456
 40
20.90549410569874
 40
21.92193351846326
 40
22.89050277736396
 40
23.85938899595234
 40
24.77461692357302
 40
25.69027017620414
 40
26.55249802741269
 40
27.41523697032279
 40
27.96025286584329
 40
28.5040021346211
 40
29.04946541618078
 40
29.06709917938117
 40
29.08472754620444
 40
29.08472754620444
 40
29.08472754620444
 40
29.08472754620444
 10
-155.221968604342
 20
362.7134003534188
 30
0.0
 10
-155.2240382128019
 20
362.7188925851163
 30
0.0
 10
-155.2281780762193
 20
362.7298787226881
 30
0.0
 10
-155.2970474792477
 20
362.9107730498015
 30
0.0
 10
-155.4413846660449
 20
363.2507218512563
 30
0.0
 10
-155.6908065457881
 20
363.735589235667
 30
0.0
 10
-156.0317939424648
 20
364.2901536338944
 30
0.0
 10
-156.4821241452916
 20
364.8999553025808
 30
0.0
 10
-157.0739276057063
 20
365.5532618970698
 30
0.0
 10
-157.7362339121333
 20
366.1610978425567
 30
0.0
 10
-158.4769989735747
 20
366.730511795837
 30
0.0
 10
-159.2767865672017
 20
367.2467751195884
 30
0.0
 10
-160.1436084931349
 20
367.7157061727291
 30
0.0
 10
-161.0570759906155
 20
368.1258061039493
 30
0.0
 10
-162.0235234702301
 20
368.4807351026065
 30
0.0
 10
-163.0236826281824
 20
368.7727470816757
 30
0.0
 10
-164.0605091142038
 20
369.0035099167062
 30
0.0
 10
-165.117723479765
 20
369.1686898920927
 30
0.0
 10
-166.1936854282929
 20
369.2687878520174
 30
0.0
 10
-167.2764707130645
 20
369.3019827529071
 30
0.0
 10
-168.3592559978361
 20
369.2687878520173
 30
0.0
 10
-169.4352179463639
 20
369.1686898920926
 30
0.0
 10
-170.4924323119252
 20
369.0035099167062
 30
0.0
 10
-171.5292587979465
 20
368.7727470816754
 30
0.0
 10
-172.5294179558988
 20
368.4807351026066
 30
0.0
 10
-173.4958654355133
 20
368.1258061039492
 30
0.0
 10
-174.409332932994
 20
367.7157061727289
 30
0.0
 10
-175.2761548589265
 20
367.2467751195882
 30
0.0
 10
-176.0759424525562
 20
366.7305117958372
 30
0.0
 10
-176.816707513988
 20
366.1610978425563
 30
0.0
 10
-177.4790138204495
 20
365.5532618970709
 30
0.0
 10
-178.0708172807429
 20
364.8999553025769
 30
0.0
 10
-178.521147483962
 20
364.2901536339066
 30
0.0
 10
-178.8621348796734
 20
363.7355892356389
 30
0.0
 10
-179.1115567626088
 20
363.2507218513615
 30
0.0
 10
-179.2558966420711
 20
362.9107666885684
 30
0.0
 10
-179.324770710143
 20
362.7298593685829
 30
0.0
 10
-179.3289153817024
 20
362.7188602924812
 30
0.0
 10
-179.3309873935017
 20
362.7133615934741
 30
0.0
 11
-155.221968604342
 21
362.7134003534188
 31
0.0
 11
-155.2281867665753
 21
362.7298735018366
 31
0.0
 11
-155.2344506926858
 21
362.7463350642345
 31
0.0
 11
-155.4476770592685
 21
363.2483955249332
 31
0.0
 11
-155.6966165577047
 21
363.7318129352743
 31
0.0
 11
-155.9812691879945
 21
364.1965872952578
 31
0.0
 11
-156.4933281794236
 21
364.890931641998
 31
0.0
 11
-157.0710746061475
 21
365.5309675260642
 31
0.0
 11
-157.744881096605
 21
366.1509721159968
 31
0.0
 11
-158.4698185499935
 21
366.7096382482007
 31
0.0
 11
-159.2832165046457
 21
367.2360641887848
 31
0.0
 11
-160.1347189248284
 21
367.6976592890994
 31
0.0
 11
-161.0616025620486
 21
368.1148352730028
 31
0.0
 11
-162.015332666643
 21
368.4656991652702
 31
0.0
 11
-163.0265587719905
 21
368.7616819697011
 31
0.0
 11
-164.0548469242459
 21
368.9908639133876
 31
0.0
 11
-165.1191193708575
 21
369.1576004244004
 31
0.0
 11
-166.1916727983954
 21
369.2574426734412
 31
0.0
 11
-167.2764707130644
 21
369.2908901019101
 31
0.0
 11
-168.3612686277334
 21
369.2574426734412
 31
0.0
 11
-169.4338220552713
 21
369.1576004244004
 31
0.0
 11
-170.4980945018829
 21
368.9908639133876
 31
0.0
 11
-171.5263826541383
 21
368.761681969701
 31
0.0
 11
-172.5376087594857
 21
368.4656991652702
 31
0.0
 11
-173.4913388640803
 21
368.1148352730027
 31
0.0
 11
-174.4182225013004
 21
367.6976592890994
 31
0.0
 11
-175.269724921483
 21
367.2360641887848
 31
0.0
 11
-176.0831228761352
 21
366.7096382482007
 31
0.0
 11
-176.8080603295238
 21
366.1509721159968
 31
0.0
 11
-177.4818668199813
 21
365.5309675260642
 31
0.0
 11
-178.0596132467053
 21
364.8909316419981
 31
0.0
 11
-178.5716722381343
 21
364.1965872952578
 31
0.0
 11
-178.8563248684241
 21
363.7318129352742
 31
0.0
 11
-179.1052643668604
 21
363.2483955249331
 31
0.0
 11
-179.318490733443
 21
362.7463350642344
 31
0.0
 11
-179.3247619992629
 21
362.7298541354978
 31
0.0
 11
-179.3309873935017
 21
362.7133615934741
 31
0.0
  0
SPLINE
  5
14C
330
4F
100
AcDbEntity
  8
1
  6
Continuous
 62
     7
100
AcDbSpline
210
0.0
220
0.0
230
1.0
 70
     8
 71
     3
 72
    37
 73
    33
 74
    31
 42
0.000000001
 43
0.0000000001
 44
0.00000001
 40
0.0
 40
0.0
 40
0.0
 40
0.0
 40
0.4459954276748034
 40
0.8932031704151311
 40
1.755942111899837
 40
2.618169964107693
 40
3.533823217314327
 40
4.449051145312372
 40
5.417937364219495
 40
6.386506623412807
 40
7.402946036489501
 40
8.419167757154321
 40
9.472820479615024
 40
10.52633881876397
 40
11.60359315699283
 40
12.68078363914346
 40
13.76609707392922
 40
14.85141050856294
 40
15.92860099034015
 40
17.00585532813059
 40
18.05937366688911
 40
19.11302638903256
 40
20.12924810945917
 40
21.14568752235198
 40
22.11425678141037
 40
23.08314300021001
 40
23.99837092811211
 40
24.9140241811395
 40
25.77625203259025
 40
26.638990972847
 40
27.37746728973388
 40
28.11556653389729
 40
28.11556653389729
 40
28.11556653389729
 40
28.11556653389729
 10
-155.5331079289516
 20
200.7288088867294
 30
0.0
 10
-155.6021123280556
 20
200.5970690194685
 30
0.0
 10
-155.7403087088639
 20
200.3332311938238
 30
0.0
 10
-156.0518565985018
 20
199.8371815184219
 30
0.0
 10
-156.4819030497516
 20
199.2531558931215
 30
0.0
 10
-157.073990925015
 20
198.6000105112373
 30
0.0
 10
-157.7362165589672
 20
197.9921288376957
 30
0.0
 10
-158.4770039262967
 20
197.4227275273083
 30
0.0
 10
-159.2767852112068
 20
196.9064606271718
 30
0.0
 10
-160.1436088768821
 20
196.437530559774
 30
0.0
 10
-161.0570758866128
 20
196.0274303517436
 30
0.0
 10
-162.0235235003825
 20
195.6725014288267
 30
0.0
 10
-163.0236826215672
 20
195.3804894287014
 30
0.0
 10
-164.060509118047
 20
195.1497265995691
 30
0.0
 10
-165.1177234810544
 20
194.9845466230348
 30
0.0
 10
-166.1936854302291
 20
194.8844486641804
 30
0.0
 10
-167.2764707144298
 20
194.8512537637191
 30
0.0
 10
-168.3592559984677
 20
194.884448664853
 30
0.0
 10
-169.4352179473098
 20
194.9845466244154
 30
0.0
 10
-170.4924323097151
 20
195.1497266004497
 30
0.0
 10
-171.5292588063281
 20
195.3804894324823
 30
0.0
 10
-172.5294179251544
 20
195.6725014223771
 30
0.0
 10
-173.4958655459328
 20
196.027430382323
 30
0.0
 10
-174.4093325289067
 20
196.4375304554464
 30
0.0
 10
-175.2761562889745
 20
196.90646100394
 30
0.0
 10
-176.0759372306001
 20
197.4227261596602
 30
0.0
 10
-176.816725810573
 20
197.992133638303
 30
0.0
 10
-177.4789470570329
 20
198.5999930042653
 30
0.0
 10
-178.0710503971945
 20
199.2532170337946
 30
0.0
 10
-178.5587078353887
 20
199.9152791115205
 30
0.0
 10
-178.9632438425679
 20
200.584109531601
 30
0.0
 10
-179.1616116679944
 20
201.0350504331861
 30
0.0
 10
-179.2607702454592
 20
201.2604633087951
 30
0.0
 11
-155.5331079289516
 21
200.7288088867294
 31
0.0
 11
-155.7451774094259
 21
200.3364589666253
 31
0.0
 11
-155.9812691879945
 21
199.9566492212366
 31
0.0
 11
-156.4933281794236
 21
199.2623048744964
 31
0.0
 11
-157.0710746061475
 21
198.6222689904302
 31
0.0
 11
-157.744881096605
 21
198.0022644004976
 31
0.0
 11
-158.4698185499935
 21
197.4435982682937
 31
0.0
 11
-159.2832165046457
 21
196.9171723277096
 31
0.0
 11
-160.1347189248284
 21
196.455577227395
 31
0.0
 11
-161.0616025620486
 21
196.0384012434917
 31
0.0
 11
-162.015332666643
 21
195.6875373512243
 31
0.0
 11
-163.0265587719905
 21
195.3915545467933
 31
0.0
 11
-164.0548469242459
 21
195.1623726031069
 31
0.0
 11
-165.1191193708575
 21
194.9956360920941
 31
0.0
 11
-166.1916727983954
 21
194.8957938430532
 31
0.0
 11
-167.2764707130644
 21
194.8623464145844
 31
0.0
 11
-168.3612686277334
 21
194.8957938430532
 31
0.0
 11
-169.4338220552713
 21
194.9956360920941
 31
0.0
 11
-170.4980945018829
 21
195.1623726031069
 31
0.0
 11
-171.5263826541383
 21
195.3915545467933
 31
0.0
 11
-172.5376087594857
 21
195.6875373512243
 31
0.0
 11
-173.4913388640803
 21
196.0384012434917
 31
0.0
 11
-174.4182225013004
 21
196.455577227395
 31
0.0
 11
-175.269724921483
 21
196.9171723277096
 31
0.0
 11
-176.0831228761352
 21
197.4435982682937
 31
0.0
 11
-176.8080603295238
 21
198.0022644004976
 31
0.0
 11
-177.4818668199813
 21
198.6222689904302
 31
0.0
 11
-178.0596132467053
 21
199.2623048744964
 31
0.0
 11
-178.5716722381343
 21
199.9566492212365
 31
0.0
 11
-178.9490579443577
 21
200.5914147748231
 31
0.0
 11
-179.2607702454592
 21
201.2604633087951
 31
0.0
  0
ENDBLK
  5
51
330
4F
100
AcDbEntity
  8
0
100
AcDbBlockEnd
  0
BLOCK
  5
53
330
52
100
AcDbEntity
  8
0
100
AcDbBlockBegin
  2
38-134
 70
     0
 10
55.263504211086
 20
241.0941920128723
 30
0.0
  3
38-134
  1

  0
LINE
  5
14D
330
52
100
AcDbEntity
  8
1
  6
Continuous
 62
     7
100
AcDbLine
 10
-155.7764707130643
 20
390.2873892812851
 30
0.0
 11
-178.7764707130643
 21
390.2873892812851
 31
0.0
  0
LINE
  5
14E
330
52
100
AcDbEntity
  8
1
  6
Continuous
 62
     7
100
AcDbLine
 10
-144.2764707130643
 20
418.2873892812851
 30
0.0
 11
-190.2764707130643
 21
418.2873892812851
 31
0.0
  0
LINE
  5
14F
330
52
100
AcDbEntity
  8
0
  6
Continuous
 62
     7
100
AcDbLine
 10
-179.2764707130643
 20
390.7873892812851
 30
0.0
 11
-179.2764707130643
 21
406.2873892812851
 31
0.0
  0
LINE
  5
150
330
52
100
AcDbEntity
  8
0
  6
Continuous
 62
     7
100
AcDbLine
 10
-190.2764707130643
 20
414.2873892812851
 30
0.0
 11
-190.2764707130643
 21
418.2873892812851
 31
0.0
  0
LINE
  5
151
330
52
100
AcDbEntity
  8
0
  6
Continuous
 62
     7
100
AcDbLine
 10
-179.2764707130643
 20
390.7873892812851
 30
0.0
 11
-178.7764707130643
 21
390.2873892812851
 31
0.0
  0
LINE
  5
152
330
52
100
AcDbEntity
  8
0
  6
Continuous
 62
     7
100
AcDbLine
 10
-155.2764707130643
 20
406.2873892812851
 30
0.0
 11
-155.2764707130643
 21
390.7873892812851
 31
0.0
  0
LINE
  5
153
330
52
100
AcDbEntity
  8
0
  6
Continuous
 62
     7
100
AcDbLine
 10
-150.2764707130643
 20
408.2873892812851
 30
0.0
 11
-184.2764707130643
 21
408.2873892812851
 31
0.0
  0
LINE
  5
154
330
52
100
AcDbEntity
  8
0
  6
Continuous
 62
     7
100
AcDbLine
 10
-144.2764707130643
 20
418.2873892812851
 30
0.0
 11
-144.2764707130643
 21
414.2873892812851
 31
0.0
  0
LINE
  5
155
330
52
100
AcDbEntity
  8
0
  6
Continuous
 62
     7
100
AcDbLine
 10
-155.7764707130643
 20
390.2873892812851
 30
0.0
 11
-155.2764707130643
 21
390.7873892812851
 31
0.0
  0
LINE
  5
156
330
52
100
AcDbEntity
  8
0
  6
Continuous
 62
     7
100
AcDbLine
 10
-155.2764707130643
 20
390.7873892812851
 30
0.0
 11
-179.2764707130643
 21
390.7873892812851
 31
0.0
  0
LINE
  5
157
330
52
100
AcDbEntity
  8
0
  6
Continuous
 62
     7
100
AcDbLine
 10
26.72460941056306
 20
175.6881753768968
 30
0.0
 11
26.72460941056306
 21
199.6881753768968
 31
0.0
  0
LINE
  5
158
330
52
100
AcDbEntity
  8
0
  6
Continuous
 62
     7
100
AcDbLine
 10
26.22460941056306
 20
176.1881753768968
 30
0.0
 11
26.72460941056306
 21
175.6881753768968
 31
0.0
  0
LINE
  5
159
330
52
100
AcDbEntity
  8
0
  6
Continuous
 62
     7
100
AcDbLine
 10
54.22460941056306
 20
164.6881753768968
 30
0.0
 11
50.22460941056306
 21
164.6881753768968
 31
0.0
  0
LINE
  5
15A
330
52
100
AcDbEntity
  8
0
  6
Continuous
 62
     7
100
AcDbLine
 10
44.22460941056306
 20
170.6881753768968
 30
0.0
 11
44.22460941056306
 21
204.6881753768968
 31
0.0
  0
LINE
  5
15B
330
52
100
AcDbEntity
  8
0
  6
Continuous
 62
     7
100
AcDbLine
 10
42.22460941056306
 20
175.6881753768968
 30
0.0
 11
26.72460941056306
 21
175.6881753768968
 31
0.0
  0
LINE
  5
15C
330
52
100
AcDbEntity
  8
0
  6
Continuous
 62
     7
100
AcDbLine
 10
26.72460941056306
 20
199.6881753768968
 30
0.0
 11
26.22460941056306
 21
199.1881753768968
 31
0.0
  0
LINE
  5
15D
330
52
100
AcDbEntity
  8
0
  6
Continuous
 62
     7
100
AcDbLine
 10
50.22460941056306
 20
210.6881753768968
 30
0.0
 11
54.22460941056306
 21
210.6881753768968
 31
0.0
  0
LINE
  5
15E
330
52
100
AcDbEntity
  8
0
  6
Continuous
 62
     7
100
AcDbLine
 10
26.72460941056306
 20
199.6881753768968
 30
0.0
 11
42.22460941056306
 21
199.6881753768968
 31
0.0
  0
LINE
  5
15F
330
52
100
AcDbEntity
  8
1
  6
Continuous
 62
     7
100
AcDbLine
 10
54.22460941056306
 20
164.6881753768968
 30
0.0
 11
54.22460941056306
 21
210.6881753768968
 31
0.0
  0
LINE
  5
160
330
52
100
AcDbEntity
  8
1
  6
Continuous
 62
     7
100
AcDbLine
 10
26.22460941056306
 20
176.1881753768968
 30
0.0
 11
26.22460941056306
 21
199.1881753768968
 31
0.0
  0
ARC
  5
161
330
52
100
AcDbEntity
  8
1
  6
Continuous
 62
     7
100
AcDbCircle
 10
-167.2764707130643
 20
187.6881753768968
 30
0.0
 40
23.00000000000009
100
AcDbArc
 50
133.3731336685955
 51
242.9000919713435
  0
ARC
  5
162
330
52
100
AcDbEntity
  8
1
  6
Continuous
 62
     7
100
AcDbCircle
 10
-167.2764707130643
 20
187.6881753768968
 30
0.0
 40
22.99999999999998
100
AcDbArc
 50
297.0999080286555
 51
0.0
  0
ARC
  5
163
330
52
100
AcDbEntity
  8
1
  6
Continuous
 62
     7
100
AcDbCircle
 10
-167.2764707130643
 20
187.6881753768968
 30
0.0
 40
23.0
100
AcDbArc
 50
0.0
 51
46.62686633140456
  0
ARC
  5
164
330
52
100
AcDbEntity
  8
0
  6
Continuous
 62
     7
100
AcDbCircle
 10
-184.2764707130643
 20
414.2873892812851
 30
0.0
 40
6.0
100
AcDbArc
 50
180.0
 51
270.0
  0
ARC
  5
165
330
52
100
AcDbEntity
  8
0
  6
Continuous
 62
     7
100
AcDbCircle
 10
-181.2764707130643
 20
406.2873892812851
 30
0.0
 40
2.0
100
AcDbArc
 50
0.0
 51
90.0
  0
ARC
  5
166
330
52
100
AcDbEntity
  8
0
  6
Continuous
 62
     7
100
AcDbCircle
 10
-150.2764707130643
 20
414.2873892812851
 30
0.0
 40
6.0
100
AcDbArc
 50
270.0
 51
0.0
  0
ARC
  5
167
330
52
100
AcDbEntity
  8
0
  6
Continuous
 62
     7
100
AcDbCircle
 10
-153.2764707130643
 20
406.2873892812851
 30
0.0
 40
2.0
100
AcDbArc
 50
90.0
 51
180.0
  0
ARC
  5
168
330
52
100
AcDbEntity
  8
0
  6
Continuous
 62
     7
100
AcDbCircle
 10
42.22460941056306
 20
173.6881753768968
 30
0.0
 40
2.0
100
AcDbArc
 50
0.0
 51
90.0
  0
ARC
  5
169
330
52
100
AcDbEntity
  8
0
  6
Continuous
 62
     7
100
AcDbCircle
 10
50.22460941056306
 20
170.6881753768968
 30
0.0
 40
6.0
100
AcDbArc
 50
180.0
 51
270.0
  0
ARC
  5
16A
330
52
100
AcDbEntity
  8
0
  6
Continuous
 62
     7
100
AcDbCircle
 10
42.22460941056306
 20
201.6881753768968
 30
0.0
 40
2.0
100
AcDbArc
 50
270.0
 51
0.0
  0
ARC
  5
16B
330
52
100
AcDbEntity
  8
0
  6
Continuous
 62
     7
100
AcDbCircle
 10
50.22460941056306
 20
204.6881753768968
 30
0.0
 40
6.0
100
AcDbArc
 50
90.0
 51
180.0
  0
ENDBLK
  5
54
330
52
100
AcDbEntity
  8
0
100
AcDbBlockEnd
  0
BLOCK
  5
56
330
55
100
AcDbEntity
  8
0
100
AcDbBlockBegin
  2
35-199A
 70
     0
 10
63.38179267600731
 20
159.2596636055453
 30
0.0
  3
35-199A
  1

  0
LINE
  5
16C
330
55
100
AcDbEntity
  8
0
  6
Continuous
 62
     7
100
AcDbLine
 10
14.72352928693545
 20
151.1857443768971
 30
0.0
 11
14.72352928693545
 21
150.1857443768971
 31
0.0
  0
LINE
  5
16D
330
55
100
AcDbEntity
  8
0
  6
Continuous
 62
     7
100
AcDbLine
 10
-13.27647071306433
 20
151.1857443768971
 30
0.0
 11
-13.27647071306433
 21
150.1857443768971
 31
0.0
  0
LINE
  5
16E
330
55
100
AcDbEntity
  8
1
  6
Continuous
 62
     7
100
AcDbLine
 10
-13.27647071306433
 20
151.1857443768971
 30
0.0
 11
14.72352928693545
 21
151.1857443768971
 31
0.0
  0
LINE
  5
16F
330
55
100
AcDbEntity
  8
0
  6
Continuous
 62
     7
100
AcDbLine
 10
14.72352928693545
 20
162.188175376897
 30
0.0
 11
14.72352928693545
 21
151.1857443768971
 31
0.0
  0
LINE
  5
170
330
55
100
AcDbEntity
  8
0
  6
Continuous
 62
     7
100
AcDbLine
 10
-13.27647071306456
 20
162.188175376897
 30
0.0
 11
-13.27647071306433
 21
151.1857443768971
 31
0.0
  0
LINE
  5
171
330
55
100
AcDbEntity
  8
1
  6
Continuous
 62
     7
100
AcDbLine
 10
14.72352928693545
 20
162.188175376897
 30
0.0
 11
-13.27647071306456
 21
162.188175376897
 31
0.0
  0
LINE
  5
172
330
55
100
AcDbEntity
  8
1
  6
Continuous
 62
     7
100
AcDbLine
 10
-12.02647071306456
 20
131.688172376897
 30
0.0
 11
13.47352928693545
 21
131.688172376897
 31
0.0
  0
LINE
  5
173
330
55
100
AcDbEntity
  8
1
  6
Continuous
 62
     7
100
AcDbLine
 10
-12.02647071306456
 20
150.1857443768971
 30
0.0
 11
13.47352928693545
 21
150.1857443768971
 31
0.0
  0
LINE
  5
174
330
55
100
AcDbEntity
  8
0
  6
Continuous
 62
     7
100
AcDbLine
 10
14.72352928693545
 20
163.188175376897
 30
0.0
 11
14.72352928693545
 21
162.188175376897
 31
0.0
  0
LINE
  5
175
330
55
100
AcDbEntity
  8
0
  6
Continuous
 62
     7
100
AcDbLine
 10
-13.27647071306456
 20
163.188175376897
 30
0.0
 11
-13.27647071306456
 21
162.188175376897
 31
0.0
  0
LINE
  5
176
330
55
100
AcDbEntity
  8
1
  6
Continuous
 62
     7
100
AcDbLine
 10
21.22352928693545
 20
129.188172376897
 30
0.0
 11
-19.77647071306456
 21
129.188172376897
 31
0.0
  0
LINE
  5
177
330
55
100
AcDbEntity
  8
1
  6
Continuous
 62
     7
100
AcDbLine
 10
14.72352928693545
 20
163.188175376897
 30
0.0
 11
-13.27647071306456
 21
163.188175376897
 31
0.0
  0
LINE
  5
178
330
55
100
AcDbEntity
  8
1
  6
Continuous
 62
     7
100
AcDbLine
 10
-21.27647071306456
 20
130.688172376897
 30
0.0
 11
-21.27647071306456
 21
131.188172376897
 31
0.0
  0
LINE
  5
179
330
55
100
AcDbEntity
  8
1
  6
Continuous
 62
     7
100
AcDbLine
 10
-12.02647071306456
 20
131.688172376897
 30
0.0
 11
-12.02647071306456
 21
150.1857443768971
 31
0.0
  0
LINE
  5
17A
330
55
100
AcDbEntity
  8
1
  6
Continuous
 62
     7
100
AcDbLine
 10
-13.27647071306433
 20
150.1857443768971
 30
0.0
 11
-12.02647071306456
 21
150.1857443768971
 31
0.0
  0
LINE
  5
17B
330
55
100
AcDbEntity
  8
1
  6
Continuous
 62
     7
100
AcDbLine
 10
-20.77647071306456
 20
131.688172376897
 30
0.0
 11
-12.02647071306456
 21
131.688172376897
 31
0.0
  0
LINE
  5
17C
330
55
100
AcDbEntity
  8
1
  6
Continuous
 62
     7
100
AcDbLine
 10
22.72352928693545
 20
131.188172376897
 30
0.0
 11
22.72352928693545
 21
130.688172376897
 31
0.0
  0
LINE
  5
17D
330
55
100
AcDbEntity
  8
1
  6
Continuous
 62
     7
100
AcDbLine
 10
13.47352928693545
 20
150.1857443768971
 30
0.0
 11
13.47352928693545
 21
131.688172376897
 31
0.0
  0
LINE
  5
17E
330
55
100
AcDbEntity
  8
1
  6
Continuous
 62
     7
100
AcDbLine
 10
13.47352928693545
 20
150.1857443768971
 30
0.0
 11
14.72352928693545
 21
150.1857443768971
 31
0.0
  0
LINE
  5
17F
330
55
100
AcDbEntity
  8
1
  6
Continuous
 62
     7
100
AcDbLine
 10
13.47352928693545
 20
131.688172376897
 30
0.0
 11
22.22352928693545
 21
131.688172376897
 31
0.0
  0
LINE
  5
180
330
55
100
AcDbEntity
  8
1
  6
Continuous
 62
     7
100
AcDbLine
 10
-182.2764707130641
 20
151.1857443768971
 30
0.0
 11
-172.6616355201983
 21
151.1857443768971
 31
0.0
  0
LINE
  5
181
330
55
100
AcDbEntity
  8
1
  6
Continuous
 62
     7
100
AcDbLine
 10
-180.0264707130643
 20
131.688172376897
 30
0.0
 11
-154.5264707130643
 21
131.688172376897
 31
0.0
  0
LINE
  5
182
330
55
100
AcDbEntity
  8
1
  6
Continuous
 62
     7
100
AcDbLine
 10
-154.5264707130643
 20
150.1857443768971
 30
0.0
 11
-180.0264707130643
 21
150.1857443768971
 31
0.0
  0
LINE
  5
183
330
55
100
AcDbEntity
  8
1
  6
Continuous
 62
     7
100
AcDbLine
 10
-182.2764707130641
 20
162.188175376897
 30
0.0
 11
-172.6616355201983
 21
162.188175376897
 31
0.0
  0
LINE
  5
184
330
55
100
AcDbEntity
  8
1
  6
Continuous
 62
     7
100
AcDbLine
 10
-177.5349707130645
 20
129.188172376897
 30
0.0
 11
-187.7764707130643
 21
129.188172376897
 31
0.0
  0
LINE
  5
185
330
55
100
AcDbEntity
  8
1
  6
Continuous
 62
     7
100
AcDbLine
 10
-167.2764707130643
 20
163.188175376897
 30
0.0
 11
-181.2764707130643
 21
163.188175376897
 31
0.0
  0
LINE
  5
186
330
55
100
AcDbEntity
  8
1
  6
Continuous
 62
     7
100
AcDbLine
 10
-189.2764707130643
 20
130.688172376897
 30
0.0
 11
-189.2764707130643
 21
131.188172376897
 31
0.0
  0
LINE
  5
187
330
55
100
AcDbEntity
  8
1
  6
Continuous
 62
     7
100
AcDbLine
 10
-182.2764707130641
 20
151.1857443768971
 30
0.0
 11
-182.2764707130641
 21
162.188175376897
 31
0.0
  0
LINE
  5
188
330
55
100
AcDbEntity
  8
1
  6
Continuous
 62
     7
100
AcDbLine
 10
-182.2764707130641
 20
162.188175376897
 30
0.0
 11
-181.2764707130643
 21
163.188175376897
 31
0.0
  0
LINE
  5
189
330
55
100
AcDbEntity
  8
1
  6
Continuous
 62
     7
100
AcDbLine
 10
-180.0264707130643
 20
131.688172376897
 30
0.0
 11
-180.0264707130643
 21
150.1857443768971
 31
0.0
  0
LINE
  5
18A
330
55
100
AcDbEntity
  8
1
  6
Continuous
 62
     7
100
AcDbLine
 10
-181.2764707130641
 20
150.1857443768971
 30
0.0
 11
-182.2764707130641
 21
151.1857443768971
 31
0.0
  0
LINE
  5
18B
330
55
100
AcDbEntity
  8
1
  6
Continuous
 62
     7
100
AcDbLine
 10
-181.2764707130641
 20
150.1857443768971
 30
0.0
 11
-180.0264707130643
 21
150.1857443768971
 31
0.0
  0
LINE
  5
18C
330
55
100
AcDbEntity
  8
1
  6
Continuous
 62
     7
100
AcDbLine
 10
-188.7764707130643
 20
131.688172376897
 30
0.0
 11
-180.0264707130643
 21
131.688172376897
 31
0.0
  0
LINE
  5
18D
330
55
100
AcDbEntity
  8
1
  6
Continuous
 62
     7
100
AcDbLine
 10
-145.2764707130643
 20
131.188172376897
 30
0.0
 11
-145.2764707130643
 21
130.688172376897
 31
0.0
  0
LINE
  5
18E
330
55
100
AcDbEntity
  8
1
  6
Continuous
 62
     7
100
AcDbLine
 10
-153.2764707130646
 20
163.188175376897
 30
0.0
 11
-152.2764707130643
 21
162.188175376897
 31
0.0
  0
LINE
  5
18F
330
55
100
AcDbEntity
  8
1
  6
Continuous
 62
     7
100
AcDbLine
 10
-154.5264707130643
 20
150.1857443768971
 30
0.0
 11
-154.5264707130643
 21
131.688172376897
 31
0.0
  0
LINE
  5
190
330
55
100
AcDbEntity
  8
1
  6
Continuous
 62
     7
100
AcDbLine
 10
-152.2764707130643
 20
153.1357473768972
 30
0.0
 11
-152.2764707130646
 21
151.1857443768971
 31
0.0
  0
LINE
  5
191
330
55
100
AcDbEntity
  8
1
  6
Continuous
 62
     7
100
AcDbLine
 10
-154.5264707130643
 20
150.1857443768971
 30
0.0
 11
-153.2764707130646
 21
150.1857443768971
 31
0.0
  0
LINE
  5
192
330
55
100
AcDbEntity
  8
1
  6
Continuous
 62
     7
100
AcDbLine
 10
-152.2764707130643
 20
153.1357473768972
 30
0.0
 11
-152.2764707130643
 21
162.188175376897
 31
0.0
  0
LINE
  5
193
330
55
100
AcDbEntity
  8
1
  6
Continuous
 62
     7
100
AcDbLine
 10
-146.7764707130643
 20
129.188172376897
 30
0.0
 11
-157.0179707130644
 21
129.188172376897
 31
0.0
  0
LINE
  5
194
330
55
100
AcDbEntity
  8
1
  6
Continuous
 62
     7
100
AcDbLine
 10
-154.5264707130643
 20
131.688172376897
 30
0.0
 11
-145.7764707130643
 21
131.688172376897
 31
0.0
  0
LINE
  5
195
330
55
100
AcDbEntity
  8
1
  6
Continuous
 62
     7
100
AcDbLine
 10
-153.2764707130646
 20
163.188175376897
 30
0.0
 11
-167.2764707130643
 21
163.188175376897
 31
0.0
  0
LINE
  5
196
330
55
100
AcDbEntity
  8
1
  6
Continuous
 62
     7
100
AcDbLine
 10
-177.5349707130645
 20
129.188172376897
 30
0.0
 11
-176.7349707130643
 21
129.188172376897
 31
0.0
  0
LINE
  5
197
330
55
100
AcDbEntity
  8
1
  6
Continuous
 62
     7
100
AcDbLine
 10
-157.0179707130644
 20
129.188172376897
 30
0.0
 11
-176.7349707130643
 21
129.188172376897
 31
0.0
  0
LINE
  5
198
330
55
100
AcDbEntity
  8
1
  6
Continuous
 62
     7
100
AcDbLine
 10
-153.2764707130646
 20
150.1857443768971
 30
0.0
 11
-152.2764707130646
 21
151.1857443768971
 31
0.0
  0
LINE
  5
199
330
55
100
AcDbEntity
  8
1
  6
Continuous
 62
     7
100
AcDbLine
 10
-172.6616355201983
 20
162.188175376897
 30
0.0
 11
-172.6616355201983
 21
151.1857443768971
 31
0.0
  0
LINE
  5
19A
330
55
100
AcDbEntity
  8
1
  6
Continuous
 62
     7
100
AcDbLine
 10
-161.8913059059304
 20
151.1857443768971
 30
0.0
 11
-161.8913059059304
 21
162.188175376897
 31
0.0
  0
LINE
  5
19B
330
55
100
AcDbEntity
  8
1
  6
Continuous
 62
     7
100
AcDbLine
 10
-161.8913059059304
 20
151.1857443768971
 30
0.0
 11
-152.2764707130646
 21
151.1857443768971
 31
0.0
  0
LINE
  5
19C
330
55
100
AcDbEntity
  8
1
  6
Continuous
 62
     7
100
AcDbLine
 10
-161.8913059059304
 20
162.188175376897
 30
0.0
 11
-152.2764707130643
 21
162.188175376897
 31
0.0
  0
LINE
  5
19D
330
55
100
AcDbEntity
  8
1
  6
Continuous
 62
     2
100
AcDbLine
 10
-161.8913059059304
 20
162.188175376897
 30
0.0
 11
-172.6616355201983
 21
151.1857443768971
 31
0.0
  0
LINE
  5
19E
330
55
100
AcDbEntity
  8
1
  6
Continuous
 62
     2
100
AcDbLine
 10
-172.6616355201983
 20
162.188175376897
 30
0.0
 11
-161.8913059059304
 21
151.1857443768971
 31
0.0
  0
ARC
  5
19F
330
55
100
AcDbEntity
  8
1
  6
Continuous
 62
     7
100
AcDbCircle
 10
-167.2764707130643
 20
364.8068559000918
 30
0.0
 40
14.00000000000019
100
AcDbArc
 50
158.4763556776352
 51
194.1554562051607
  0
ARC
  5
1A0
330
55
100
AcDbEntity
  8
1
  6
Continuous
 62
     7
100
AcDbCircle
 10
-167.2764707130643
 20
364.8068559000918
 30
0.0
 40
22.00000000000032
100
AcDbArc
 50
118.7568917067576
 51
203.6022053015998
  0
ARC
  5
1A1
330
55
100
AcDbEntity
  8
1
  6
Continuous
 62
     7
100
AcDbCircle
 10
-167.2764707130643
 20
364.8068559000918
 30
0.0
 40
13.99999999999989
100
AcDbArc
 50
0.0
 51
20.82404474217038
  0
ARC
  5
1A2
330
55
100
AcDbEntity
  8
1
  6
Continuous
 62
     7
100
AcDbCircle
 10
-167.2764707130643
 20
364.8068559000918
 30
0.0
 40
13.99999999999992
100
AcDbArc
 50
345.8445437948403
 51
0.0
  0
ARC
  5
1A3
330
55
100
AcDbEntity
  8
1
  6
Continuous
 62
     7
100
AcDbCircle
 10
-167.2764707130643
 20
364.8068559000918
 30
0.0
 40
22.00000000000001
100
AcDbArc
 50
336.3977946984015
 51
0.0
  0
ARC
  5
1A4
330
55
100
AcDbEntity
  8
1
  6
Continuous
 62
     7
100
AcDbCircle
 10
-167.2764707130643
 20
364.8068559000918
 30
0.0
 40
22.0
100
AcDbArc
 50
0.0
 51
61.25948837823338
  0
ARC
  5
1A5
330
55
100
AcDbEntity
  8
1
  6
Continuous
 62
     7
100
AcDbCircle
 10
-167.2764707130643
 20
148.1881753769
 30
0.0
 40
14.99999999999697
100
AcDbArc
 50
68.96053021868083
 51
111.0394697813196
  0
ARC
  5
1A6
330
55
100
AcDbEntity
  8
1
  6
Continuous
 62
     7
100
AcDbCircle
 10
-167.2764707130643
 20
165.185744376894
 30
0.0
 40
14.99999999999693
100
AcDbArc
 50
248.9605302186803
 51
291.0394697813193
  0
ARC
  5
1A7
330
55
100
AcDbEntity
  8
1
  6
Continuous
 62
     7
100
AcDbCircle
 10
-20.77647071306456
 20
131.188172376897
 30
0.0
 40
0.5
100
AcDbArc
 50
90.0
 51
180.0
  0
ARC
  5
1A8
330
55
100
AcDbEntity
  8
1
  6
Continuous
 62
     7
100
AcDbCircle
 10
-19.77647071306456
 20
130.688172376897
 30
0.0
 40
1.5
100
AcDbArc
 50
180.0
 51
270.0
  0
ARC
  5
1A9
330
55
100
AcDbEntity
  8
1
  6
Continuous
 62
     7
100
AcDbCircle
 10
22.22352928693545
 20
131.188172376897
 30
0.0
 40
0.5
100
AcDbArc
 50
0.0
 51
90.0
  0
ARC
  5
1AA
330
55
100
AcDbEntity
  8
1
  6
Continuous
 62
     7
100
AcDbCircle
 10
21.22352928693545
 20
130.688172376897
 30
0.0
 40
1.5
100
AcDbArc
 50
270.0
 51
0.0
  0
ARC
  5
1AB
330
55
100
AcDbEntity
  8
1
  6
Continuous
 62
     7
100
AcDbCircle
 10
-188.7764707130643
 20
131.188172376897
 30
0.0
 40
0.5
100
AcDbArc
 50
90.0
 51
180.0
  0
ARC
  5
1AC
330
55
100
AcDbEntity
  8
1
  6
Continuous
 62
     7
100
AcDbCircle
 10
-187.7764707130643
 20
130.688172376897
 30
0.0
 40
1.5
100
AcDbArc
 50
180.0
 51
270.0
  0
ARC
  5
1AD
330
55
100
AcDbEntity
  8
1
  6
Continuous
 62
     7
100
AcDbCircle
 10
-145.7764707130643
 20
131.188172376897
 30
0.0
 40
0.5
100
AcDbArc
 50
0.0
 51
90.0
  0
ARC
  5
1AE
330
55
100
AcDbEntity
  8
1
  6
Continuous
 62
     7
100
AcDbCircle
 10
-146.7764707130643
 20
130.688172376897
 30
0.0
 40
1.5
100
AcDbArc
 50
270.0
 51
0.0
  0
ENDBLK
  5
57
330
55
100
AcDbEntity
  8
0
100
AcDbBlockEnd
  0
BLOCK
  5
59
330
58
100
AcDbEntity
  8
0
100
AcDbBlockBegin
  2
14-38D
 70
     0
 10
-118.1081137438285
 20
1267.892379179143
 30
0.0
  3
14-38D
  1

  0
LINE
  5
1AF
330
58
100
AcDbEntity
  8
0
  6
Continuous
 62
     7
100
AcDbLine
 10
123.058063845735
 20
181.3786643394424
 30
0.0
 11
122.5735292869356
 21
180.9381783768976
 31
0.0
  0
LINE
  5
1B0
330
58
100
AcDbEntity
  8
0
  6
Continuous
 62
     7
100
AcDbLine
 10
123.1235292869357
 20
181.5266523541214
 30
0.0
 11
123.1235292869357
 21
182.3381783768974
 31
0.0
  0
LINE
  5
1B1
330
58
100
AcDbEntity
  8
0
  6
Continuous
 62
     2
100
AcDbLine
 10
123.1235292869357
 20
181.4381783768976
 30
0.0
 11
123.058063845735
 21
181.3786643394424
 31
0.0
  0
LINE
  5
1B2
330
58
100
AcDbEntity
  8
0
  6
Continuous
 62
     7
100
AcDbLine
 10
121.5235292869357
 20
183.9381783768976
 30
0.0
 11
123.1235292869357
 21
182.3381783768974
 31
0.0
  0
LINE
  5
1B3
330
58
100
AcDbEntity
  8
0
  6
Continuous
 62
     2
100
AcDbLine
 10
123.1235292869357
 20
181.4381783768976
 30
0.0
 11
123.1235292869357
 21
181.5266523541214
 31
0.0
  0
LINE
  5
1B4
330
58
100
AcDbEntity
  8
0
  6
Continuous
 62
     7
100
AcDbLine
 10
122.5735292869356
 20
180.9381783768976
 30
0.0
 11
122.5735292869356
 21
170.9381783768976
 31
0.0
  0
LINE
  5
1B5
330
58
100
AcDbEntity
  8
0
  6
Continuous
 62
     7
100
AcDbLine
 10
121.5235292869357
 20
185.9381783768976
 30
0.0
 11
121.5235292869357
 21
183.9381783768976
 31
0.0
  0
LINE
  5
1B6
330
58
100
AcDbEntity
  8
0
  6
Continuous
 62
     7
100
AcDbLine
 10
106.8735292869358
 20
180.9381783768976
 30
0.0
 11
106.3889947281364
 21
181.3786643394424
 31
0.0
  0
LINE
  5
1B7
330
58
100
AcDbEntity
  8
0
  6
Continuous
 62
     7
100
AcDbLine
 10
106.3235292869357
 20
182.3381783768974
 30
0.0
 11
106.3235292869357
 21
181.5266523541214
 31
0.0
  0
LINE
  5
1B8
330
58
100
AcDbEntity
  8
0
  6
PHANTOM
 62
     5
100
AcDbLine
 10
106.3889947281364
 20
181.3786643394424
 30
0.0
 11
106.3235292869357
 21
181.4381783768976
 31
0.0
  0
LINE
  5
1B9
330
58
100
AcDbEntity
  8
0
  6
Continuous
 62
     7
100
AcDbLine
 10
106.3235292869357
 20
182.3381783768974
 30
0.0
 11
107.9235292869358
 21
183.9381783768976
 31
0.0
  0
LINE
  5
1BA
330
58
100
AcDbEntity
  8
0
  6
PHANTOM
 62
     5
100
AcDbLine
 10
106.3235292869357
 20
181.5266523541214
 30
0.0
 11
106.3235292869357
 21
181.4381783768976
 31
0.0
  0
LINE
  5
1BB
330
58
100
AcDbEntity
  8
0
  6
Continuous
 62
     7
100
AcDbLine
 10
106.8735292869358
 20
170.9381783768976
 30
0.0
 11
106.8735292869358
 21
180.9381783768976
 31
0.0
  0
LINE
  5
1BC
330
58
100
AcDbEntity
  8
0
  6
Continuous
 62
     7
100
AcDbLine
 10
107.9235292869358
 20
183.9381783768976
 30
0.0
 11
107.9235292869358
 21
185.9381783768976
 31
0.0
  0
LINE
  5
1BD
330
58
100
AcDbEntity
  8
0
  6
Continuous
 62
     7
100
AcDbLine
 10
107.8735292869358
 20
169.9381783768976
 30
0.0
 11
107.9735292869358
 21
169.9381783768976
 31
0.0
  0
LINE
  5
1BE
330
58
100
AcDbEntity
  8
1
  6
Continuous
 62
     7
100
AcDbLine
 10
121.5735292869356
 20
169.9381783768976
 30
0.0
 11
107.9735292869358
 21
169.9381783768976
 31
0.0
  0
LINE
  5
1BF
330
58
100
AcDbEntity
  8
1
  6
Continuous
 62
     7
100
AcDbLine
 10
106.9093157245627
 20
186.9523919392705
 30
0.0
 11
107.9235292869358
 21
185.9381783768976
 31
0.0
  0
LINE
  5
1C0
330
58
100
AcDbEntity
  8
1
  6
Continuous
 62
     7
100
AcDbLine
 10
121.5235292869357
 20
185.9381783768976
 30
0.0
 11
122.5377428493088
 21
186.9523919392705
 31
0.0
  0
LINE
  5
1C1
330
58
100
AcDbEntity
  8
0
  6
Continuous
 62
     7
100
AcDbLine
 10
123.1235292869357
 20
188.3666055016436
 30
0.0
 11
123.1235292869357
 21
189.9381753768975
 31
0.0
  0
LINE
  5
1C2
330
58
100
AcDbEntity
  8
0
  6
Continuous
 62
     7
100
AcDbLine
 10
106.3235292869357
 20
189.9381753768975
 30
0.0
 11
106.3235292869357
 21
188.3666055016436
 31
0.0
  0
LINE
  5
1C3
330
58
100
AcDbEntity
  8
1
  6
Continuous
 62
     7
100
AcDbLine
 10
106.8735292869358
 20
181.4381783768973
 30
0.0
 11
122.5735292869356
 21
181.4381783768973
 31
0.0
  0
LINE
  5
1C4
330
58
100
AcDbEntity
  8
1
  6
Continuous
 62
     7
100
AcDbLine
 10
106.3235292869357
 20
182.3381783768974
 30
0.0
 11
123.1235292869357
 21
182.3381783768974
 31
0.0
  0
LINE
  5
1C5
330
58
100
AcDbEntity
  8
1
  6
Continuous
 62
     7
100
AcDbLine
 10
121.5235292869357
 20
183.9381783768976
 30
0.0
 11
107.9235292869358
 21
183.9381783768976
 31
0.0
  0
LINE
  5
1C6
330
58
100
AcDbEntity
  8
1
  6
Continuous
 62
     7
100
AcDbLine
 10
107.9235292869358
 20
185.9381783768976
 30
0.0
 11
121.5235292869357
 21
185.9381783768976
 31
0.0
  0
LINE
  5
1C7
330
58
100
AcDbEntity
  8
1
  6
Continuous
 62
     7
100
AcDbLine
 10
122.5735292869356
 20
180.9381783768976
 30
0.0
 11
106.8735292869358
 21
180.9381783768976
 31
0.0
  0
LINE
  5
1C8
330
58
100
AcDbEntity
  8
0
  6
Continuous
 62
     7
100
AcDbLine
 10
291.0580638457348
 20
181.3786643394424
 30
0.0
 11
290.5735292869354
 21
180.9381783768976
 31
0.0
  0
LINE
  5
1C9
330
58
100
AcDbEntity
  8
0
  6
Continuous
 62
     7
100
AcDbLine
 10
291.1235292869355
 20
181.5266523541214
 30
0.0
 11
291.1235292869355
 21
182.3381783768974
 31
0.0
  0
LINE
  5
1CA
330
58
100
AcDbEntity
  8
0
  6
Continuous
 62
     2
100
AcDbLine
 10
291.1235292869355
 20
181.4381783768976
 30
0.0
 11
291.0580638457348
 21
181.3786643394424
 31
0.0
  0
LINE
  5
1CB
330
58
100
AcDbEntity
  8
0
  6
Continuous
 62
     7
100
AcDbLine
 10
289.5235292869356
 20
183.9381783768976
 30
0.0
 11
291.1235292869355
 21
182.3381783768974
 31
0.0
  0
LINE
  5
1CC
330
58
100
AcDbEntity
  8
0
  6
Continuous
 62
     2
100
AcDbLine
 10
291.1235292869355
 20
181.4381783768976
 30
0.0
 11
291.1235292869355
 21
181.5266523541214
 31
0.0
  0
LINE
  5
1CD
330
58
100
AcDbEntity
  8
0
  6
Continuous
 62
     7
100
AcDbLine
 10
290.5735292869354
 20
180.9381783768976
 30
0.0
 11
290.5735292869354
 21
170.9381783768976
 31
0.0
  0
LINE
  5
1CE
330
58
100
AcDbEntity
  8
0
  6
Continuous
 62
     7
100
AcDbLine
 10
289.5235292869356
 20
185.9381783768976
 30
0.0
 11
289.5235292869356
 21
183.9381783768976
 31
0.0
  0
LINE
  5
1CF
330
58
100
AcDbEntity
  8
0
  6
Continuous
 62
     7
100
AcDbLine
 10
274.8735292869356
 20
180.9381783768976
 30
0.0
 11
274.3889947281362
 21
181.3786643394424
 31
0.0
  0
LINE
  5
1D0
330
58
100
AcDbEntity
  8
0
  6
Continuous
 62
     7
100
AcDbLine
 10
274.3235292869355
 20
182.3381783768974
 30
0.0
 11
274.3235292869355
 21
181.5266523541214
 31
0.0
  0
LINE
  5
1D1
330
58
100
AcDbEntity
  8
0
  6
PHANTOM
 62
     5
100
AcDbLine
 10
274.3889947281362
 20
181.3786643394424
 30
0.0
 11
274.3235292869355
 21
181.4381783768976
 31
0.0
  0
LINE
  5
1D2
330
58
100
AcDbEntity
  8
0
  6
Continuous
 62
     7
100
AcDbLine
 10
274.3235292869355
 20
182.3381783768974
 30
0.0
 11
275.9235292869357
 21
183.9381783768976
 31
0.0
  0
LINE
  5
1D3
330
58
100
AcDbEntity
  8
0
  6
PHANTOM
 62
     5
100
AcDbLine
 10
274.3235292869355
 20
181.5266523541214
 30
0.0
 11
274.3235292869355
 21
181.4381783768976
 31
0.0
  0
LINE
  5
1D4
330
58
100
AcDbEntity
  8
0
  6
Continuous
 62
     7
100
AcDbLine
 10
274.8735292869356
 20
170.9381783768976
 30
0.0
 11
274.8735292869356
 21
180.9381783768976
 31
0.0
  0
LINE
  5
1D5
330
58
100
AcDbEntity
  8
0
  6
Continuous
 62
     7
100
AcDbLine
 10
275.9235292869357
 20
183.9381783768976
 30
0.0
 11
275.9235292869357
 21
185.9381783768976
 31
0.0
  0
LINE
  5
1D6
330
58
100
AcDbEntity
  8
0
  6
Continuous
 62
     7
100
AcDbLine
 10
275.8735292869356
 20
169.9381783768976
 30
0.0
 11
275.9735292869356
 21
169.9381783768976
 31
0.0
  0
LINE
  5
1D7
330
58
100
AcDbEntity
  8
1
  6
Continuous
 62
     7
100
AcDbLine
 10
289.5735292869354
 20
169.9381783768976
 30
0.0
 11
275.9735292869356
 21
169.9381783768976
 31
0.0
  0
LINE
  5
1D8
330
58
100
AcDbEntity
  8
1
  6
Continuous
 62
     7
100
AcDbLine
 10
274.9093157245627
 20
186.9523919392705
 30
0.0
 11
275.9235292869357
 21
185.9381783768976
 31
0.0
  0
LINE
  5
1D9
330
58
100
AcDbEntity
  8
1
  6
Continuous
 62
     7
100
AcDbLine
 10
289.5235292869356
 20
185.9381783768976
 30
0.0
 11
290.5377428493086
 21
186.9523919392705
 31
0.0
  0
LINE
  5
1DA
330
58
100
AcDbEntity
  8
0
  6
Continuous
 62
     7
100
AcDbLine
 10
291.1235292869355
 20
188.3666055016436
 30
0.0
 11
291.1235292869355
 21
189.9381753768975
 31
0.0
  0
LINE
  5
1DB
330
58
100
AcDbEntity
  8
0
  6
Continuous
 62
     7
100
AcDbLine
 10
274.3235292869355
 20
189.9381753768975
 30
0.0
 11
274.3235292869355
 21
188.3666055016436
 31
0.0
  0
LINE
  5
1DC
330
58
100
AcDbEntity
  8
1
  6
Continuous
 62
     7
100
AcDbLine
 10
274.8735292869356
 20
181.4381783768973
 30
0.0
 11
290.5735292869354
 21
181.4381783768973
 31
0.0
  0
LINE
  5
1DD
330
58
100
AcDbEntity
  8
1
  6
Continuous
 62
     7
100
AcDbLine
 10
274.3235292869355
 20
182.3381783768974
 30
0.0
 11
291.1235292869355
 21
182.3381783768974
 31
0.0
  0
LINE
  5
1DE
330
58
100
AcDbEntity
  8
1
  6
Continuous
 62
     7
100
AcDbLine
 10
289.5235292869356
 20
183.9381783768976
 30
0.0
 11
275.9235292869357
 21
183.9381783768976
 31
0.0
  0
LINE
  5
1DF
330
58
100
AcDbEntity
  8
1
  6
Continuous
 62
     7
100
AcDbLine
 10
275.9235292869357
 20
185.9381783768976
 30
0.0
 11
289.5235292869356
 21
185.9381783768976
 31
0.0
  0
LINE
  5
1E0
330
58
100
AcDbEntity
  8
1
  6
Continuous
 62
     7
100
AcDbLine
 10
290.5735292869354
 20
180.9381783768976
 30
0.0
 11
274.8735292869356
 21
180.9381783768976
 31
0.0
  0
ARC
  5
1E1
330
58
100
AcDbEntity
  8
1
  6
Continuous
 62
     7
100
AcDbCircle
 10
122.9235292869357
 20
181.5266523541214
 30
0.0
 40
0.1999999999998983
100
AcDbArc
 50
312.2736890061356
 51
0.0
  0
ARC
  5
1E2
330
58
100
AcDbEntity
  8
1
  6
Continuous
 62
     7
100
AcDbCircle
 10
106.5235292869357
 20
181.5266523541214
 30
0.0
 40
0.2000000000000028
100
AcDbArc
 50
180.0
 51
227.7263109938644
  0
ARC
  5
1E3
330
58
100
AcDbEntity
  8
1
  6
Continuous
 62
     7
100
AcDbCircle
 10
290.9235292869357
 20
181.5266523541214
 30
0.0
 40
0.1999999999997549
100
AcDbArc
 50
312.2736890060905
 51
0.0
  0
ARC
  5
1E4
330
58
100
AcDbEntity
  8
1
  6
Continuous
 62
     7
100
AcDbCircle
 10
274.5235292869355
 20
181.5266523541214
 30
0.0
 40
0.1999999999999886
100
AcDbArc
 50
180.0
 51
227.7263109938613
  0
ARC
  5
1E5
330
58
100
AcDbEntity
  8
1
  6
Continuous
 62
     7
100
AcDbCircle
 10
107.8735292869358
 20
170.9381783768976
 30
0.0
 40
1.0
100
AcDbArc
 50
180.0
 51
270.0
  0
ARC
  5
1E6
330
58
100
AcDbEntity
  8
1
  6
Continuous
 62
     7
100
AcDbCircle
 10
121.5735292869356
 20
170.9381783768976
 30
0.0
 40
1.0
100
AcDbArc
 50
270.0
 51
0.0
  0
ARC
  5
1E7
330
58
100
AcDbEntity
  8
1
  6
Continuous
 62
     7
100
AcDbCircle
 10
108.3235292869357
 20
188.3666055016436
 30
0.0
 40
2.0
100
AcDbArc
 50
180.0
 51
225.0000000000017
  0
ARC
  5
1E8
330
58
100
AcDbEntity
  8
1
  6
Continuous
 62
     7
100
AcDbCircle
 10
121.1235292869357
 20
188.3666055016436
 30
0.0
 40
1.999999999999986
100
AcDbArc
 50
315.0000000000003
 51
0.0
  0
ARC
  5
1E9
330
58
100
AcDbEntity
  8
1
  6
Continuous
 62
     7
100
AcDbCircle
 10
275.8735292869356
 20
170.9381783768976
 30
0.0
 40
1.0
100
AcDbArc
 50
180.0
 51
270.0
  0
ARC
  5
1EA
330
58
100
AcDbEntity
  8
1
  6
Continuous
 62
     7
100
AcDbCircle
 10
289.5735292869354
 20
170.9381783768976
 30
0.0
 40
1.0
100
AcDbArc
 50
270.0
 51
0.0
  0
ARC
  5
1EB
330
58
100
AcDbEntity
  8
1
  6
Continuous
 62
     7
100
AcDbCircle
 10
276.3235292869355
 20
188.3666055016436
 30
0.0
 40
2.0
100
AcDbArc
 50
180.0
 51
225.0000000000051
  0
ARC
  5
1EC
330
58
100
AcDbEntity
  8
1
  6
Continuous
 62
     7
100
AcDbCircle
 10
289.1235292869355
 20
188.3666055016436
 30
0.0
 40
1.999999999999996
100
AcDbArc
 50
315.0000000000006
 51
0.0
  0
ENDBLK
  5
5A
330
58
100
AcDbEntity
  8
0
100
AcDbBlockEnd
  0
BLOCK
  5
5E
330
5B
100
AcDbEntity
  8
0
100
AcDbBlockBegin
  2
35-199BX
 70
     0
 10
517.1295046685696
 20
6.62263795782192
 30
0.0
  3
35-199BX
  1

  0
INSERT
  5
5C
330
5B
100
AcDbEntity
  8
0
100
AcDbBlockReference
  2
35-199A
 10
63.38179267600731
 20
159.2596636055453
 30
0.0
  0
INSERT
  5
5D
330
5B
100
AcDbEntity
  8
1
100
AcDbBlockReference
  2
14-38D
 10
-400.1081137438285
 20
1207.142379179143
 30
0.0
  0
LINE
  5
1ED
330
5B
100
AcDbEntity
  8
1
  6
PHANTOM
 62
     4
100
AcDbLine
 10
-167.2764707130643
 20
166.188175376897
 30
0.0
 11
-167.2764707130643
 21
95.31817237689688
 31
0.0
  0
ENDBLK
  5
5F
330
5B
100
AcDbEntity
  8
0
100
AcDbBlockEnd
  0
BLOCK
  5
61
330
60
100
AcDbEntity
  8
0
100
AcDbBlockBegin
  2
開示A4
 70
     0
 10
0.0
 20
0.0
 30
0.0
  3
開示A4
  1

  0
POINT
  5
1EE
330
60
100
AcDbEntity
  8
1
 62
     4
100
AcDbPoint
 10
93.75
 20
17.0
 30
0.0
  0
POINT
  5
1EF
330
60
100
AcDbEntity
  8
1
 62
     4
100
AcDbPoint
 10
85.25
 20
17.0
 30
0.0
  0
POINT
  5
1F0
330
60
100
AcDbEntity
  8
1
 62
     4
100
AcDbPoint
 10
106.5
 20
19.00000000000001
 30
0.0
  0
POINT
  5
1F1
330
60
100
AcDbEntity
  8
1
 62
     4
100
AcDbPoint
 10
106.5
 20
12.5
 30
0.0
  0
POINT
  5
1F2
330
60
100
AcDbEntity
  8
1
 62
     4
100
AcDbPoint
 10
112.25
 20
12.5
 30
0.0
  0
POINT
  5
1F3
330
60
100
AcDbEntity
  8
1
 62
     4
100
AcDbPoint
 10
100.75
 20
12.5
 30
0.0
  0
POINT
  5
1F4
330
60
100
AcDbEntity
  8
1
 62
     4
100
AcDbPoint
 10
123.5
 20
19.00000000000001
 30
0.0
  0
POINT
  5
1F5
330
60
100
AcDbEntity
  8
1
 62
     4
100
AcDbPoint
 10
123.5
 20
12.5
 30
0.0
  0
POINT
  5
1F6
330
60
100
AcDbEntity
  8
1
 62
     4
100
AcDbPoint
 10
129.25
 20
12.5
 30
0.0
  0
POINT
  5
1F7
330
60
100
AcDbEntity
  8
1
 62
     4
100
AcDbPoint
 10
117.75
 20
12.5
 30
0.0
  0
POINT
  5
1F8
330
60
100
AcDbEntity
  8
1
 62
     4
100
AcDbPoint
 10
140.5
 20
19.00000000000001
 30
0.0
  0
POINT
  5
1F9
330
60
100
AcDbEntity
  8
1
 62
     4
100
AcDbPoint
 10
140.5
 20
12.5
 30
0.0
  0
POINT
  5
1FA
330
60
100
AcDbEntity
  8
1
 62
     4
100
AcDbPoint
 10
146.25
 20
12.5
 30
0.0
  0
POINT
  5
1FB
330
60
100
AcDbEntity
  8
1
 62
     4
100
AcDbPoint
 10
134.75
 20
12.5
 30
0.0
  0
POINT
  5
1FC
330
60
100
AcDbEntity
  8
1
 62
     4
100
AcDbPoint
 10
151.75
 20
12.5
 30
0.0
  0
POINT
  5
1FD
330
60
100
AcDbEntity
  8
1
 62
     4
100
AcDbPoint
 10
163.25
 20
12.5
 30
0.0
  0
POINT
  5
1FE
330
60
100
AcDbEntity
  8
1
 62
     4
100
AcDbPoint
 10
157.5
 20
12.5
 30
0.0
  0
POINT
  5
1FF
330
60
100
AcDbEntity
  8
1
 62
     4
100
AcDbPoint
 10
57.0
 20
14.25
 30
0.0
  0
POINT
  5
200
330
60
100
AcDbEntity
  8
1
 62
     4
100
AcDbPoint
 10
57.0
 20
22.75000000000001
 30
0.0
  0
POINT
  5
201
330
60
100
AcDbEntity
  8
1
 62
     4
100
AcDbPoint
 10
47.5
 20
282.0000000000003
 30
0.0
  0
POINT
  5
202
330
60
100
AcDbEntity
  8
1
 62
     4
100
AcDbPoint
 10
157.5
 20
19.00000000000001
 30
0.0
  0
POINT
  5
203
330
60
100
AcDbEntity
  8
1
 62
     4
100
AcDbPoint
 10
57.0
 20
16.25
 30
0.0
  0
POINT
  5
204
330
60
100
AcDbEntity
  8
1
 62
     4
100
AcDbPoint
 10
57.0
 20
24.75000000000001
 30
0.0
  0
POINT
  5
205
330
60
100
AcDbEntity
  8
1
 62
     4
100
AcDbPoint
 10
57.0
 20
20.75000000000001
 30
0.0
  0
POINT
  5
206
330
60
100
AcDbEntity
  8
1
 62
     4
100
AcDbPoint
 10
57.0
 20
12.25
 30
0.0
  0
POINT
  5
207
330
60
100
AcDbEntity
  8
1
 62
     4
100
AcDbPoint
 10
34.0
 20
34.00000000000001
 30
0.0
  0
LINE
  5
208
330
60
100
AcDbEntity
  8
1
  6
Continuous
 62
     7
100
AcDbLine
 10
105.0
 20
10.0
 30
0.0
 11
200.0
 21
10.0
 31
0.0
  0
LINE
  5
209
330
60
100
AcDbEntity
  8
1
  6
Continuous
 62
     2
100
AcDbLine
 10
105.0
 20
10.0
 30
0.0
 11
105.0
 21
5.0
 31
0.0
  0
LINE
  5
20A
330
60
100
AcDbEntity
  8
1
  6
Continuous
 62
     7
100
AcDbLine
 10
200.0
 20
148.5
 30
0.0
 11
200.0
 21
287.0000000000003
 31
0.0
  0
LINE
  5
20B
330
60
100
AcDbEntity
  8
1
  6
Continuous
 62
     2
100
AcDbLine
 10
200.0
 20
148.5
 30
0.0
 11
205.0
 21
148.5
 31
0.0
  0
LINE
  5
20C
330
60
100
AcDbEntity
  8
1
  6
Continuous
 62
     7
100
AcDbLine
 10
25.0
 20
148.5
 30
0.0
 11
25.0
 21
287.0000000000003
 31
0.0
  0
LINE
  5
20D
330
60
100
AcDbEntity
  8
1
  6
Continuous
 62
     2
100
AcDbLine
 10
25.0
 20
148.5
 30
0.0
 11
20.0
 21
148.5
 31
0.0
  0
LINE
  5
20E
330
60
100
AcDbEntity
  8
1
  6
Continuous
 62
     7
100
AcDbLine
 10
105.0
 20
287.0000000000003
 30
0.0
 11
25.0
 21
287.0000000000003
 31
0.0
  0
LINE
  5
20F
330
60
100
AcDbEntity
  8
1
  6
Continuous
 62
     2
100
AcDbLine
 10
105.0
 20
287.0000000000003
 30
0.0
 11
105.0
 21
292.0000000000003
 31
0.0
  0
LINE
  5
210
330
60
100
AcDbEntity
  8
1
  6
Continuous
 62
     2
100
AcDbLine
 10
166.0
 20
20.00000000000001
 30
0.0
 11
200.0
 21
20.00000000000001
 31
0.0
  0
LINE
  5
211
330
60
100
AcDbEntity
  8
1
  6
Continuous
 62
     2
100
AcDbLine
 10
98.0
 20
27.00000000000001
 30
0.0
 11
98.0
 21
9.99999999999999
 31
0.0
  0
LINE
  5
212
330
60
100
AcDbEntity
  8
1
  6
Continuous
 62
     2
100
AcDbLine
 10
115.0
 20
27.00000000000001
 30
0.0
 11
115.0
 21
9.99999999999999
 31
0.0
  0
LINE
  5
213
330
60
100
AcDbEntity
  8
1
  6
Continuous
 62
     2
100
AcDbLine
 10
149.0
 20
27.00000000000001
 30
0.0
 11
149.0
 21
10.0
 31
0.0
  0
LINE
  5
214
330
60
100
AcDbEntity
  8
1
  6
Continuous
 62
     2
100
AcDbLine
 10
132.0
 20
27.00000000000001
 30
0.0
 11
132.0
 21
9.99999999999999
 31
0.0
  0
LINE
  5
215
330
60
100
AcDbEntity
  8
1
  6
Continuous
 62
     2
100
AcDbLine
 10
166.0
 20
27.00000000000001
 30
0.0
 11
166.0
 21
10.0
 31
0.0
  0
LINE
  5
216
330
60
100
AcDbEntity
  8
1
  6
Continuous
 62
     2
100
AcDbLine
 10
55.0
 20
277.0000000000003
 30
0.0
 11
25.0
 21
277.0000000000003
 31
0.0
  0
LINE
  5
217
330
60
100
AcDbEntity
  8
1
  6
Continuous
 62
     7
100
AcDbLine
 10
25.0
 20
10.0
 30
0.0
 11
25.0
 21
148.5
 31
0.0
  0
LINE
  5
218
330
60
100
AcDbEntity
  8
1
  6
Continuous
 62
     2
100
AcDbLine
 10
40.0
 20
287.0000000000003
 30
0.0
 11
40.0
 21
277.0000000000003
 31
0.0
  0
LINE
  5
219
330
60
100
AcDbEntity
  8
1
  6
Continuous
 62
     2
100
AcDbLine
 10
55.0
 20
287.0000000000003
 30
0.0
 11
55.0
 21
277.0000000000003
 31
0.0
  0
LINE
  5
21A
330
60
100
AcDbEntity
  8
1
  6
Continuous
 62
     2
100
AcDbLine
 10
33.0
 20
41.00000000000001
 30
0.0
 11
33.0
 21
27.0
 31
0.0
  0
LINE
  5
21B
330
60
100
AcDbEntity
  8
1
  6
Continuous
 62
     7
100
AcDbLine
 10
200.0
 20
27.00000000000001
 30
0.0
 11
25.0
 21
27.00000000000001
 31
0.0
  0
LINE
  5
21C
330
60
100
AcDbEntity
  8
1
  6
Continuous
 62
     7
100
AcDbLine
 10
25.0
 20
41.0
 30
0.0
 11
200.0
 21
41.0
 31
0.0
  0
LINE
  5
21D
330
60
100
AcDbEntity
  8
1
  6
PHANTOM
 62
     4
100
AcDbLine
 10
0.0
 20
0.0
 30
0.0
 11
210.0
 21
0.0
 31
0.0
  0
LINE
  5
21E
330
60
100
AcDbEntity
  8
1
  6
PHANTOM
 62
     4
100
AcDbLine
 10
210.0
 20
0.0
 30
0.0
 11
210.0
 21
297.0
 31
0.0
  0
LINE
  5
21F
330
60
100
AcDbEntity
  8
1
  6
PHANTOM
 62
     4
100
AcDbLine
 10
210.0
 20
297.0
 30
0.0
 11
0.0
 21
297.0
 31
0.0
  0
LINE
  5
220
330
60
100
AcDbEntity
  8
1
  6
PHANTOM
 62
     4
100
AcDbLine
 10
0.0
 20
297.0
 30
0.0
 11
0.0
 21
0.0
 31
0.0
  0
LINE
  5
221
330
60
100
AcDbEntity
  8
1
  6
Continuous
 62
     7
100
AcDbLine
 10
25.0
 20
10.0
 30
0.0
 11
105.0
 21
10.0
 31
0.0
  0
LINE
  5
222
330
60
100
AcDbEntity
  8
1
  6
Continuous
 62
     7
100
AcDbLine
 10
200.0
 20
10.0
 30
0.0
 11
200.0
 21
148.5
 31
0.0
  0
LINE
  5
223
330
60
100
AcDbEntity
  8
1
  6
Continuous
 62
     7
100
AcDbLine
 10
200.0
 20
287.0000000000003
 30
0.0
 11
105.0
 21
287.0000000000003
 31
0.0
  0
LINE
  5
224
330
60
100
AcDbEntity
  8
1
  6
Continuous
 62
     2
100
AcDbLine
 10
25.0
 20
18.50000000000001
 30
0.0
 11
81.0
 21
18.50000000000001
 31
0.0
  0
LINE
  5
225
330
60
100
AcDbEntity
  8
1
  6
Continuous
 62
     2
100
AcDbLine
 10
33.0
 20
27.0
 30
0.0
 11
33.0
 21
10.0
 31
0.0
  0
LINE
  5
226
330
60
100
AcDbEntity
  8
1
  6
Continuous
 62
     7
100
AcDbLine
 10
191.0
 20
24.70000000000001
 30
0.0
 11
191.0
 21
22.30000000000001
 31
0.0
  0
LINE
  5
227
330
60
100
AcDbEntity
  8
1
  6
Continuous
 62
     7
100
AcDbLine
 10
191.0
 20
24.70000000000001
 30
0.0
 11
196.0
 21
25.50000000000001
 31
0.0
  0
LINE
  5
228
330
60
100
AcDbEntity
  8
1
  6
Continuous
 62
     7
100
AcDbLine
 10
196.0
 20
25.50000000000001
 30
0.0
 11
196.0
 21
21.50000000000001
 31
0.0
  0
LINE
  5
229
330
60
100
AcDbEntity
  8
1
  6
Continuous
 62
     7
100
AcDbLine
 10
196.0
 20
21.50000000000001
 30
0.0
 11
191.0
 21
22.30000000000001
 31
0.0
  0
LINE
  5
22A
330
60
100
AcDbEntity
  8
1
  6
DOT_CENTER
 62
     2
100
AcDbLine
 10
184.0
 20
23.50000000000001
 30
0.0
 11
197.0
 21
23.50000000000001
 31
0.0
  0
LINE
  5
22B
330
60
100
AcDbEntity
  8
1
  6
DOT_CENTER
 62
     2
100
AcDbLine
 10
187.0
 20
26.50000000000001
 30
0.0
 11
187.0
 21
20.50000000000001
 31
0.0
  0
LINE
  5
22C
330
60
100
AcDbEntity
  8
1
  6
Continuous
 62
     2
100
AcDbLine
 10
81.0
 20
27.00000000000001
 30
0.0
 11
81.0
 21
10.0
 31
0.0
  0
CIRCLE
  5
22D
330
60
100
AcDbEntity
  8
1
  6
Continuous
 62
     7
100
AcDbCircle
 10
103.5
 20
12.5
 30
0.0
 40
0.2999999999999972
  0
CIRCLE
  5
22E
330
60
100
AcDbEntity
  8
1
  6
Continuous
 62
     7
100
AcDbCircle
 10
109.5
 20
12.5
 30
0.0
 40
0.2999999999999972
  0
CIRCLE
  5
22F
330
60
100
AcDbEntity
  8
1
  6
Continuous
 62
     7
100
AcDbCircle
 10
120.5
 20
12.5
 30
0.0
 40
0.2999999999999972
  0
CIRCLE
  5
230
330
60
100
AcDbEntity
  8
1
  6
Continuous
 62
     7
100
AcDbCircle
 10
126.5
 20
12.5
 30
0.0
 40
0.2999999999999972
  0
CIRCLE
  5
231
330
60
100
AcDbEntity
  8
1
  6
Continuous
 62
     7
100
AcDbCircle
 10
137.5
 20
12.5
 30
0.0
 40
0.3000000000000114
  0
CIRCLE
  5
232
330
60
100
AcDbEntity
  8
1
  6
Continuous
 62
     7
100
AcDbCircle
 10
143.5
 20
12.5
 30
0.0
 40
0.3000000000000114
  0
CIRCLE
  5
233
330
60
100
AcDbEntity
  8
1
  6
Continuous
 62
     7
100
AcDbCircle
 10
160.5
 20
12.5
 30
0.0
 40
0.3000000000000114
  0
CIRCLE
  5
234
330
60
100
AcDbEntity
  8
1
  6
Continuous
 62
     7
100
AcDbCircle
 10
154.5
 20
12.5
 30
0.0
 40
0.3000000000000114
  0
CIRCLE
  5
235
330
60
100
AcDbEntity
  8
1
  6
Continuous
 62
     7
100
AcDbCircle
 10
187.0
 20
23.50000000000001
 30
0.0
 40
1.200000000000102
  0
CIRCLE
  5
236
330
60
100
AcDbEntity
  8
1
  6
Continuous
 62
     7
100
AcDbCircle
 10
187.0
 20
23.50000000000001
 30
0.0
 40
2.0
  0
CIRCLE
  5
237
330
60
100
AcDbEntity
  8
1
  6
DOT_CENTER
 62
     7
100
AcDbCircle
 10
89.5
 20
16.0
 30
0.0
 40
0.1000000000000227
  0
CIRCLE
  5
238
330
60
100
AcDbEntity
  8
1
  6
DOT_CENTER
 62
     7
100
AcDbCircle
 10
89.5
 20
18.0
 30
0.0
 40
0.1000000000000227
  0
MTEXT
  5
23A
330
60
100
AcDbEntity
  8
1
 62
     7
100
AcDbMText
 10
188.5
 20
15.0
 30
0.0
 40
3.0
 41
0.0
 71
     5
 72
     1
  1
三栄水栓製作所
  7
CONVERTER_11
 73
     1
 44
1.0
  0
MTEXT
  5
23B
330
60
100
AcDbEntity
  8
1
 62
     7
100
AcDbMText
 10
171.5
 20
15.0
 30
0.0
 40
2.5
 41
0.0
 71
     5
 72
     1
  1
株式会社
  7
CONVERTER_11
 73
     1
 44
1.0
  0
MTEXT
  5
23C
330
60
100
AcDbEntity
  8
1
 62
     2
100
AcDbMText
 10
32.5
 20
282.0000000000003
 30
0.0
 40
5.0
 41
0.0
 71
     5
 72
     1
  1
図番
  7
CONVERTER_11
 73
     1
 44
0.45454545454545
  0
MTEXT
  5
23D
330
60
100
AcDbEntity
  8
1
 62
     2
100
AcDbMText
 10
29.0
 20
34.00000000000001
 30
0.0
 40
3.5
 41
0.0
 71
     5
 72
     1
  1
備考
  7
CONVERTER_11
 73
     1
 44
0.45454545454545
  0
MTEXT
  5
23E
330
60
100
AcDbEntity
  8
1
 62
     2
100
AcDbMText
 10
29.0
 20
22.75
 30
0.0
 40
3.5
 41
0.0
 71
     5
 72
     1
  1
品名
  7
CONVERTER_11
 73
     1
 44
0.72727272727273
  0
MTEXT
  5
23F
330
60
100
AcDbEntity
  8
1
 62
     2
100
AcDbMText
 10
29.0
 20
14.25
 30
0.0
 40
3.5
 41
0.0
 71
     5
 72
     1
  1
品番
  7
CONVERTER_11
 73
     1
 44
0.72727272727273
  0
MTEXT
  5
240
330
60
100
AcDbEntity
  8
1
 62
     2
100
AcDbMText
 10
101.5
 20
25.00000000000001
 30
0.0
 40
3.0
 41
0.0
 71
     5
 72
     1
  1
承認
  7
CONVERTER_11
 73
     1
 44
0.59090909090909
  0
MTEXT
  5
241
330
60
100
AcDbEntity
  8
1
 62
     2
100
AcDbMText
 10
175.0
 20
23.50000000000001
 30
0.0
 40
3.5
 41
0.0
 71
     5
 72
     1
  1
第三角法
  7
CONVERTER_11
 73
     1
 44
0.54545454545455
  0
MTEXT
  5
242
330
60
100
AcDbEntity
  8
1
 62
     2
100
AcDbMText
 10
118.5
 20
25.00000000000001
 30
0.0
 40
3.0
 41
0.0
 71
     5
 72
     1
  1
検図
  7
CONVERTER_11
 73
     1
 44
0.59090909090909
  0
MTEXT
  5
243
330
60
100
AcDbEntity
  8
1
 62
     2
100
AcDbMText
 10
152.5
 20
25.00000000000001
 30
0.0
 40
3.0
 41
0.0
 71
     5
 72
     1
  1
設計
  7
CONVERTER_11
 73
     1
 44
0.59090909090909
  0
MTEXT
  5
244
330
60
100
AcDbEntity
  8
1
 62
     2
100
AcDbMText
 10
135.5
 20
25.00000000000001
 30
0.0
 40
3.0
 41
0.0
 71
     5
 72
     1
  1
製図
  7
CONVERTER_11
 73
     1
 44
0.59090909090909
  0
MTEXT
  5
245
330
60
100
AcDbEntity
  8
1
 62
     2
100
AcDbMText
 10
89.5
 20
24.00000000000001
 30
0.0
 40
3.5
 41
0.0
 71
     5
 72
     1
  1
尺度
  7
CONVERTER_11
 73
     1
 44
0.54545454545455
  0
MTEXT
  5
246
330
60
100
AcDbEntity
  8
1
 62
   250
100
AcDbMText
 10
25.0
 20
5.0
 30
0.0
 40
3.5
 41
0.0
 71
     4
 72
     1
  1
備考欄の文字列 原点位置=4
  7
CONVERTER_11
 73
     1
 44
0.54545454545455
  0
ENDBLK
  5
62
330
60
100
AcDbEntity
  8
0
100
AcDbBlockEnd
  0
BLOCK
  5
64
330
63
100
AcDbEntity
  8
0
100
AcDbBlockBegin
  2
81-93A
 70
     0
 10
1725.152202022995
 20
-37.73798694894209
 30
0.0
  3
81-93A
  1

  0
LINE
  5
247
330
63
100
AcDbEntity
  8
0
  6
Continuous
 62
     7
100
AcDbLine
 10
287.902773966298
 20
163.0781552923366
 30
0.0
 11
290.2735292869352
 21
163.0781552923361
 31
0.0
  0
LINE
  5
248
330
63
100
AcDbEntity
  8
0
  6
Continuous
 62
     7
100
AcDbLine
 10
290.2735292869352
 20
163.0781552923361
 30
0.0
 11
290.273529286935
 21
161.8281552923363
 31
0.0
  0
LINE
  5
249
330
63
100
AcDbEntity
  8
0
  6
Continuous
 62
     7
100
AcDbLine
 10
289.9735292869351
 20
161.5281552923364
 30
0.0
 11
289.2735292869348
 21
161.5281552923366
 31
0.0
  0
LINE
  5
24A
330
63
100
AcDbEntity
  8
0
  6
Continuous
 62
     7
100
AcDbLine
 10
284.2735292869348
 20
160.0781552923364
 30
0.0
 11
289.2735292869348
 21
161.5281552923366
 31
0.0
  0
LINE
  5
24B
330
63
100
AcDbEntity
  8
0
  6
Continuous
 62
     7
100
AcDbLine
 10
283.3155902697404
 20
160.0781552923359
 30
0.0
 11
280.0235292869348
 21
163.6020515556207
 31
0.0
  0
LINE
  5
24C
330
63
100
AcDbEntity
  8
0
  6
Continuous
 62
     7
100
AcDbLine
 10
284.2735292869348
 20
160.0781552923364
 30
0.0
 11
283.3155902697404
 21
160.0781552923359
 31
0.0
  0
LINE
  5
24D
330
63
100
AcDbEntity
  8
0
  6
Continuous
 62
     7
100
AcDbLine
 10
287.902773966298
 20
163.0781552923366
 30
0.0
 11
286.850631395311
 21
164.2043924105761
 31
0.0
  0
LINE
  5
24E
330
63
100
AcDbEntity
  8
0
  6
Continuous
 62
     7
100
AcDbLine
 10
280.7235292869353
 20
163.8781552923352
 30
0.0
 11
280.9235292869358
 21
163.9570420742538
 31
0.0
  0
LINE
  5
24F
330
63
100
AcDbEntity
  8
0
  6
Continuous
 62
     7
100
AcDbLine
 10
284.4888824447802
 20
160.1406077081103
 30
0.0
 11
280.9235292869358
 21
163.9570420742538
 31
0.0
  0
LINE
  5
250
330
63
100
AcDbEntity
  8
0
  6
Continuous
 62
     7
100
AcDbLine
 10
284.2735292869348
 20
160.0781552923364
 30
0.0
 11
280.7235292869353
 21
163.8781552923352
 31
0.0
  0
LINE
  5
251
330
63
100
AcDbEntity
  8
0
  6
Continuous
 62
     7
100
AcDbLine
 10
280.7235292869353
 20
163.8781552923352
 30
0.0
 11
280.7235292869353
 21
169.9381783768976
 31
0.0
  0
LINE
  5
252
330
63
100
AcDbEntity
  8
0
  6
Continuous
 62
     7
100
AcDbLine
 10
285.1179963209784
 20
161.3715034160609
 30
0.0
 11
282.2235292869353
 21
164.4698061567263
 31
0.0
  0
LINE
  5
253
330
63
100
AcDbEntity
  8
0
  6
Continuous
 62
     7
100
AcDbLine
 10
285.8487317722282
 20
162.0541641665706
 30
0.0
 11
283.2235292869357
 21
164.8642400663202
 31
0.0
  0
LINE
  5
254
330
63
100
AcDbEntity
  8
0
  6
Continuous
 62
     7
100
AcDbLine
 10
285.1179963209784
 20
161.3715034160609
 30
0.0
 11
285.8487317722282
 21
162.0541641665706
 31
0.0
  0
LINE
  5
255
330
63
100
AcDbEntity
  8
0
  6
Continuous
 62
     7
100
AcDbLine
 10
289.2735292869359
 20
162.878155292335
 30
0.0
 11
286.8579801923111
 21
162.8781552923348
 31
0.0
  0
LINE
  5
256
330
63
100
AcDbEntity
  8
0
  6
Continuous
 62
     7
100
AcDbLine
 10
286.8579801923111
 20
162.8781552923348
 30
0.0
 11
286.9448349491038
 21
163.0781552923348
 31
0.0
  0
LINE
  5
257
330
63
100
AcDbEntity
  8
0
  6
Continuous
 62
     7
100
AcDbLine
 10
286.9448349491038
 20
163.0781552923348
 30
0.0
 11
290.2735292869352
 21
163.0781552923361
 31
0.0
  0
LINE
  5
258
330
63
100
AcDbEntity
  8
0
  6
Continuous
 62
     7
100
AcDbLine
 10
286.9448349491038
 20
163.0781552923348
 30
0.0
 11
286.3391165794363
 21
163.7265298852182
 31
0.0
  0
LINE
  5
259
330
63
100
AcDbEntity
  8
0
  6
Continuous
 62
     7
100
AcDbLine
 10
286.8579801923111
 20
162.8781552923348
 30
0.0
 11
286.1391165794366
 21
163.647643103299
 31
0.0
  0
LINE
  5
25A
330
63
100
AcDbEntity
  8
0
  6
Continuous
 62
     7
100
AcDbLine
 10
284.5235292869356
 20
167.8224943882774
 30
0.0
 11
284.5235292869359
 21
169.9381783768976
 31
0.0
  0
LINE
  5
25B
330
63
100
AcDbEntity
  8
0
  6
Continuous
 62
     7
100
AcDbLine
 10
284.7235292869357
 20
167.8224943882767
 30
0.0
 11
284.7235292869357
 21
169.9381783768976
 31
0.0
  0
LINE
  5
25C
330
63
100
AcDbEntity
  8
0
  6
Continuous
 62
     7
100
AcDbLine
 10
289.2735292869348
 20
161.5281552923366
 30
0.0
 11
289.2735292869359
 21
163.0781552923346
 31
0.0
  0
LINE
  5
25D
330
63
100
AcDbEntity
  8
0
  6
Continuous
 62
     7
100
AcDbLine
 10
116.5235292869356
 20
160.0781552923359
 30
0.0
 11
116.5235292869356
 21
169.9381783768972
 31
0.0
  0
LINE
  5
25E
330
63
100
AcDbEntity
  8
0
  6
Continuous
 62
     7
100
AcDbLine
 10
112.9235292869355
 20
160.0781552923359
 30
0.0
 11
112.9235292869357
 21
169.9381783768972
 31
0.0
  0
LINE
  5
25F
330
63
100
AcDbEntity
  8
0
  6
Continuous
 62
     7
100
AcDbLine
 10
117.4235292869358
 20
164.469806156727
 30
0.0
 11
116.7235292869358
 21
164.469806156727
 31
0.0
  0
LINE
  5
260
330
63
100
AcDbEntity
  8
0
  6
Continuous
 62
     7
100
AcDbLine
 10
117.4235292869358
 20
161.3715034160615
 30
0.0
 11
116.7235292869358
 21
161.3715034160615
 31
0.0
  0
LINE
  5
261
330
63
100
AcDbEntity
  8
0
  6
Continuous
 62
     7
100
AcDbLine
 10
112.0235292869355
 20
164.469806156727
 30
0.0
 11
112.7235292869356
 21
164.469806156727
 31
0.0
  0
LINE
  5
262
330
63
100
AcDbEntity
  8
0
  6
Continuous
 62
     7
100
AcDbLine
 10
112.0235292869355
 20
161.3715034160615
 30
0.0
 11
112.7235292869356
 21
161.3715034160615
 31
0.0
  0
LINE
  5
263
330
63
100
AcDbEntity
  8
0
  6
Continuous
 62
     7
100
AcDbLine
 10
114.2235292869357
 20
163.8641942616572
 30
0.0
 11
112.7235292869356
 21
163.8641942616572
 31
0.0
  0
LINE
  5
264
330
63
100
AcDbEntity
  8
0
  6
Continuous
 62
     7
100
AcDbLine
 10
116.7235292869357
 20
163.8641942616572
 30
0.0
 11
115.2235292869357
 21
163.8641942616572
 31
0.0
  0
LINE
  5
265
330
63
100
AcDbEntity
  8
0
  6
Continuous
 62
     7
100
AcDbLine
 10
115.2235292869357
 20
163.6020515556199
 30
0.0
 11
114.2235292869357
 21
163.6020515556199
 31
0.0
  0
LINE
  5
266
330
63
100
AcDbEntity
  8
0
  6
Continuous
 62
     7
100
AcDbLine
 10
115.2235292869357
 20
160.0781552923359
 30
0.0
 11
115.2235292869357
 21
169.9381783768972
 31
0.0
  0
LINE
  5
267
330
63
100
AcDbEntity
  8
0
  6
Continuous
 62
     7
100
AcDbLine
 10
114.2235292869357
 20
160.0781552923359
 30
0.0
 11
114.2235292869357
 21
169.9381783768972
 31
0.0
  0
LINE
  5
268
330
63
100
AcDbEntity
  8
0
  6
Continuous
 62
     7
100
AcDbLine
 10
112.9235292869355
 20
160.0781552923359
 30
0.0
 11
112.7235292869356
 21
160.278155292336
 31
0.0
  0
LINE
  5
269
330
63
100
AcDbEntity
  8
0
  6
Continuous
 62
     7
100
AcDbLine
 10
116.7235292869357
 20
160.278155292336
 30
0.0
 11
116.5235292869356
 21
160.0781552923359
 31
0.0
  0
LINE
  5
26A
330
63
100
AcDbEntity
  8
0
  6
Continuous
 62
     7
100
AcDbLine
 10
116.5235292869356
 20
160.0781552923359
 30
0.0
 11
112.9235292869355
 21
160.0781552923359
 31
0.0
  0
LINE
  5
26B
330
63
100
AcDbEntity
  8
0
  6
Continuous
 62
     7
100
AcDbLine
 10
116.7235292869357
 20
160.278155292336
 30
0.0
 11
116.7235292869357
 21
169.9381783768972
 31
0.0
  0
LINE
  5
26C
330
63
100
AcDbEntity
  8
0
  6
Continuous
 62
     7
100
AcDbLine
 10
112.7235292869356
 20
160.278155292336
 30
0.0
 11
112.7235292869356
 21
169.9381783768972
 31
0.0
  0
LINE
  5
26D
330
63
100
AcDbEntity
  8
0
  6
Continuous
 62
     7
100
AcDbLine
 10
117.4235292869358
 20
169.9381783768972
 30
0.0
 11
117.4235292869358
 21
161.3715034160615
 31
0.0
  0
LINE
  5
26E
330
63
100
AcDbEntity
  8
0
  6
Continuous
 62
     7
100
AcDbLine
 10
112.0235292869355
 20
169.9381783768972
 30
0.0
 11
112.0235292869355
 21
161.3715034160615
 31
0.0
  0
LINE
  5
26F
330
63
100
AcDbEntity
  8
0
  6
Continuous
 62
     7
100
AcDbLine
 10
285.4235292869353
 20
169.9381783768976
 30
0.0
 11
285.4235292869353
 21
167.8224943882784
 31
0.0
  0
LINE
  5
270
330
63
100
AcDbEntity
  8
0
  6
Continuous
 62
     7
100
AcDbLine
 10
283.2235292869357
 20
169.9381783768976
 30
0.0
 11
283.2235292869357
 21
164.8642400663202
 31
0.0
  0
LINE
  5
271
330
63
100
AcDbEntity
  8
0
  6
Continuous
 62
     7
100
AcDbLine
 10
282.2235292869353
 20
169.9381783768976
 30
0.0
 11
282.2235292869353
 21
164.4698061567263
 31
0.0
  0
LINE
  5
272
330
63
100
AcDbEntity
  8
0
  6
Continuous
 62
     7
100
AcDbLine
 10
280.9235292869358
 20
169.9381783768976
 30
0.0
 11
280.9235292869358
 21
163.9570420742538
 31
0.0
  0
LINE
  5
273
330
63
100
AcDbEntity
  8
0
  6
Continuous
 62
     7
100
AcDbLine
 10
280.0235292869347
 20
169.9381783768976
 30
0.0
 11
280.0235292869348
 21
163.6020515556207
 31
0.0
  0
ARC
  5
274
330
63
100
AcDbEntity
  8
1
  6
Continuous
 62
     7
100
AcDbCircle
 10
290.7235292869353
 20
167.8224943882782
 30
0.0
 40
5.299999999999955
100
AcDbArc
 50
179.9999999999979
 51
223.0519149934886
  0
ARC
  5
275
330
63
100
AcDbEntity
  8
0
  6
Continuous
 62
     7
100
AcDbCircle
 10
289.9735292869353
 20
161.8281552923363
 30
0.0
 40
0.2999999999998977
100
AcDbArc
 50
269.9999999999674
 51
0.0
  0
ARC
  5
276
330
63
100
AcDbEntity
  8
1
  6
Continuous
 62
     7
100
AcDbCircle
 10
290.7235292869353
 20
167.8224943882782
 30
0.0
 40
6.199999999999648
100
AcDbArc
 50
180.0000000000074
 51
223.0519149935
  0
ARC
  5
277
330
63
100
AcDbEntity
  8
1
  6
Continuous
 62
     7
100
AcDbCircle
 10
290.7235292869353
 20
167.8224943882782
 30
0.0
 40
5.999999999999602
100
AcDbArc
 50
180.0000000000141
 51
223.0519149934969
  0
ENDBLK
  5
65
330
63
100
AcDbEntity
  8
0
100
AcDbBlockEnd
  0
BLOCK
  5
295
330
28E
100
AcDbEntity
  8
0
100
AcDbBlockBegin
  2
*D10
 70
     1
 10
0.0
 20
0.0
 30
0.0
  3
*D10
  1

  0
LINE
  5
28F
330
28E
100
AcDbEntity
  8
1
  6
Continuous
 62
     2
100
AcDbLine
 10
207.0069435789988
 20
306.4562762753371
 30
0.0
 11
236.7054283889653
 21
336.1547610850409
 31
0.0
  0
LINE
  5
290
330
28E
100
AcDbEntity
  8
1
  6
Continuous
 62
     2
100
AcDbLine
 10
254.029544527959
 20
318.8306449458939
 30
0.0
 11
235.2912148265984
 21
337.5689746474202
 31
0.0
  0
LINE
  5
291
330
28E
100
AcDbEntity
  8
1
  6
Continuous
 62
     2
100
AcDbLine
 10
224.3310597179924
 20
289.1321601361902
 30
0.0
 11
205.5927300166319
 21
307.8704898377164
 31
0.0
  0
SOLID
  5
292
330
28E
100
AcDbEntity
  8
1
 62
     2
100
AcDbTrace
 10
211.3050444307
 20
312.0576703602533
 30
0.0
 11
212.608337663953
 21
310.7543771269888
 31
0.0
 12
207.0069435789988
 22
306.4562762753371
 32
0.0
 13
207.0069435789988
 23
306.4562762753371
 33
0.0
  0
SOLID
  5
293
330
28E
100
AcDbEntity
  8
1
 62
     2
100
AcDbTrace
 10
232.407327537264
 20
330.5533670001247
 30
0.0
 11
231.1040343040111
 21
331.8566602333892
 31
0.0
 12
236.7054283889653
 22
336.1547610850409
 32
0.0
 13
236.7054283889653
 23
336.1547610850409
 33
0.0
  0
MTEXT
  5
294
330
28E
100
AcDbEntity
  8
1
 62
     7
100
AcDbMText
 10
208.5549759052618
 20
310.8327357263202
 30
0.0
 40
7.0
 41
0.0
 71
     7
 72
     1
  1
\C7;{\Fgdt;n}\C7;42
  7
CONVERTER_12
 11
0.7071067811896746
 21
0.7071067811834204
 31
0.0
 73
     1
 44
0.60024009603842
  0
ENDBLK
  5
296
330
28E
100
AcDbEntity
  8
0
100
AcDbBlockEnd
  0
BLOCK
  5
2A0
330
299
100
AcDbEntity
  8
0
100
AcDbBlockBegin
  2
*D11
 70
     1
 10
0.0
 20
0.0
 30
0.0
  3
*D11
  1

  0
LINE
  5
29A
330
299
100
AcDbEntity
  8
1
  6
Continuous
 62
     2
100
AcDbLine
 10
296.8095047896935
 20
306.8098296656694
 30
0.0
 11
266.2271365033577
 21
337.3921979520018
 31
0.0
  0
LINE
  5
29B
330
299
100
AcDbEntity
  8
1
  6
Continuous
 62
     2
100
AcDbLine
 10
247.6655834972802
 20
318.8306449459221
 30
0.0
 11
267.6413500657307
 21
338.8064115143749
 31
0.0
  0
LINE
  5
29C
330
299
100
AcDbEntity
  8
1
  6
Continuous
 62
     2
100
AcDbLine
 10
282.4552371315386
 20
292.4555620075129
 30
0.0
 11
298.2237183520665
 21
308.2240432280426
 31
0.0
  0
SOLID
  5
29D
330
299
100
AcDbEntity
  8
1
 62
     2
100
AcDbTrace
 10
291.208110704758
 20
311.1079305173455
 30
0.0
 11
292.5114039380166
 21
312.4112237506043
 31
0.0
 12
296.8095047896935
 22
306.8098296656694
 32
0.0
 13
296.8095047896935
 23
306.8098296656694
 33
0.0
  0
SOLID
  5
29E
330
299
100
AcDbEntity
  8
1
 62
     2
100
AcDbTrace
 10
271.8285305882932
 20
333.0940971003257
 30
0.0
 11
270.5252373550346
 21
331.7908038670669
 31
0.0
 12
266.2271365033577
 22
337.3921979520018
 32
0.0
 13
266.2271365033577
 23
337.3921979520018
 33
0.0
  0
MTEXT
  5
29F
330
299
100
AcDbEntity
  8
1
 62
     7
100
AcDbMText
 10
279.2202236077428
 20
327.2275379723642
 30
0.0
 40
7.0
 41
0.0
 71
     7
 72
     1
  1
43
  7
CONVERTER_12
 11
0.7071067811865875
 21
-0.7071067811865075
 31
0.0
 73
     1
 44
0.60024009603842
  0
ENDBLK
  5
2A1
330
299
100
AcDbEntity
  8
0
100
AcDbBlockEnd
  0
BLOCK
  5
2AB
330
2A4
100
AcDbEntity
  8
0
100
AcDbBlockBegin
  2
*D12
 70
     1
 10
0.0
 20
0.0
 30
0.0
  3
*D12
  1

  0
LINE
  5
2A5
330
2A4
100
AcDbEntity
  8
1
  6
Continuous
 62
     2
100
AcDbLine
 10
71.72352928693562
 20
248.4381753768967
 30
0.0
 11
71.72352928693562
 21
307.163383056396
 31
0.0
  0
LINE
  5
2A6
330
2A4
100
AcDbEntity
  8
1
  6
Continuous
 62
     2
100
AcDbLine
 10
87.7235292869357
 20
307.163383056396
 30
0.0
 11
69.72352928693562
 21
307.163383056396
 31
0.0
  0
LINE
  5
2A7
330
2A4
100
AcDbEntity
  8
1
  6
Continuous
 62
     2
100
AcDbLine
 10
85.72352928693562
 20
248.4381753768967
 30
0.0
 11
69.72352928693562
 21
248.4381753768967
 31
0.0
  0
SOLID
  5
2A8
330
2A4
100
AcDbEntity
  8
1
 62
     2
100
AcDbTrace
 10
70.80196180382384
 20
255.4381753768967
 30
0.0
 11
72.64509677004739
 21
255.4381753768967
 31
0.0
 12
71.72352928693562
 22
248.4381753768967
 32
0.0
 13
71.72352928693562
 23
248.4381753768967
 33
0.0
  0
SOLID
  5
2A9
330
2A4
100
AcDbEntity
  8
1
 62
     2
100
AcDbTrace
 10
72.64509677004739
 20
300.163383056396
 30
0.0
 11
70.80196180382384
 21
300.163383056396
 31
0.0
 12
71.72352928693562
 22
307.163383056396
 32
0.0
 13
71.72352928693562
 23
307.163383056396
 33
0.0
  0
MTEXT
  5
2AA
330
2A4
100
AcDbEntity
  8
1
 62
     7
100
AcDbMText
 10
69.72352928693562
 20
272.5507792166455
 30
0.0
 40
7.0
 41
0.0
 71
     7
 72
     1
  1
59
  7
CONVERTER_12
 11
0.0
 21
1.0
 31
0.0
 73
     1
 44
0.60024009603842
  0
ENDBLK
  5
2AC
330
2A4
100
AcDbEntity
  8
0
100
AcDbBlockEnd
  0
BLOCK
  5
2B6
330
2AF
100
AcDbEntity
  8
0
100
AcDbBlockBegin
  2
*D13
 70
     1
 10
0.0
 20
0.0
 30
0.0
  3
*D13
  1

  0
LINE
  5
2B0
330
2AF
100
AcDbEntity
  8
1
  6
Continuous
 62
     2
100
AcDbLine
 10
91.97352928693567
 20
329.1486644305686
 30
0.0
 11
137.4735292869357
 21
329.1486644305686
 31
0.0
  0
LINE
  5
2B1
330
2AF
100
AcDbEntity
  8
1
  6
Continuous
 62
     2
100
AcDbLine
 10
137.4735292869357
 20
276.5810147699452
 30
0.0
 11
137.4735292869357
 21
331.1486644305686
 31
0.0
  0
LINE
  5
2B2
330
2AF
100
AcDbEntity
  8
1
  6
Continuous
 62
     2
100
AcDbLine
 10
91.97352928693567
 20
276.5810147699452
 30
0.0
 11
91.97352928693567
 21
331.1486644305686
 31
0.0
  0
SOLID
  5
2B3
330
2AF
100
AcDbEntity
  8
1
 62
     2
100
AcDbTrace
 10
98.97352928693567
 20
330.0702319136803
 30
0.0
 11
98.97352928693567
 21
328.2270969474569
 31
0.0
 12
91.97352928693567
 22
329.1486644305686
 32
0.0
 13
91.97352928693567
 23
329.1486644305686
 33
0.0
  0
SOLID
  5
2B4
330
2AF
100
AcDbEntity
  8
1
 62
     2
100
AcDbTrace
 10
130.4735292869357
 20
328.2270969474569
 30
0.0
 11
130.4735292869357
 21
330.0702319136803
 31
0.0
 12
137.4735292869357
 22
329.1486644305686
 32
0.0
 13
137.4735292869357
 23
329.1486644305686
 33
0.0
  0
MTEXT
  5
2B5
330
2AF
100
AcDbEntity
  8
1
 62
     7
100
AcDbMText
 10
107.9335292869526
 20
331.148650516416
 30
0.0
 40
7.0
 41
0.0
 71
     7
 72
     1
  1
\C7;{\Fgdt;n}\C7;46
  7
CONVERTER_12
 11
0.9999999999970619
 21
2.424068405545306E-6
 31
0.0
 73
     1
 44
0.60024009603842
  0
ENDBLK
  5
2B7
330
2AF
100
AcDbEntity
  8
0
100
AcDbBlockEnd
  0
BLOCK
  5
2C1
330
2BA
100
AcDbEntity
  8
0
100
AcDbBlockBegin
  2
*D14
 70
     1
 10
0.0
 20
0.0
 30
0.0
  3
*D14
  1

  0
LINE
  5
2BB
330
2BA
100
AcDbEntity
  8
1
  6
Continuous
 62
     2
100
AcDbLine
 10
223.013040233346
 20
356.1486644305684
 30
0.0
 11
350.2246094105631
 21
356.1486644305684
 31
0.0
  0
LINE
  5
2BC
330
2BA
100
AcDbEntity
  8
1
  6
Continuous
 62
     2
100
AcDbLine
 10
223.013040233346
 20
292.3141406515155
 30
0.0
 11
223.013040233346
 21
358.1486644305684
 31
0.0
  0
LINE
  5
2BD
330
2BA
100
AcDbEntity
  8
1
  6
Continuous
 62
     2
100
AcDbLine
 10
350.2246094105631
 20
257.7536753768968
 30
0.0
 11
350.2246094105631
 21
358.1486644305684
 31
0.0
  0
SOLID
  5
2BE
330
2BA
100
AcDbEntity
  8
1
 62
     2
100
AcDbTrace
 10
230.013040233346
 20
357.0702319136801
 30
0.0
 11
230.013040233346
 21
355.2270969474566
 31
0.0
 12
223.013040233346
 22
356.1486644305684
 32
0.0
 13
223.013040233346
 23
356.1486644305684
 33
0.0
  0
SOLID
  5
2BF
330
2BA
100
AcDbEntity
  8
1
 62
     2
100
AcDbTrace
 10
343.2246094105631
 20
355.2270969474566
 30
0.0
 11
343.2246094105631
 21
357.0702319136801
 31
0.0
 12
350.2246094105631
 22
356.1486644305684
 32
0.0
 13
350.2246094105631
 23
356.1486644305684
 33
0.0
  0
MTEXT
  5
2C0
330
2BA
100
AcDbEntity
  8
1
 62
     7
100
AcDbMText
 10
279.2688248219545
 20
358.1486644305684
 30
0.0
 40
7.0
 41
0.0
 71
     7
 72
     1
  1
127
  7
CONVERTER_12
 11
0.9999999999970619
 21
2.424068405545306E-6
 31
0.0
 73
     1
 44
0.60024009603842
  0
ENDBLK
  5
2C2
330
2BA
100
AcDbEntity
  8
0
100
AcDbBlockEnd
  0
BLOCK
  5
2CC
330
2C5
100
AcDbEntity
  8
0
100
AcDbBlockBegin
  2
*D15
 70
     1
 10
0.0
 20
0.0
 30
0.0
  3
*D15
  1

  0
LINE
  5
2C6
330
2C5
100
AcDbEntity
  8
1
  6
Continuous
 62
     2
100
AcDbLine
 10
277.5408450023318
 20
348.7059064510769
 30
0.0
 11
336.2660526816169
 21
289.980698771578
 31
0.0
  0
LINE
  5
2C7
330
2C5
100
AcDbEntity
  8
1
  6
Continuous
 62
     2
100
AcDbLine
 10
294.7235292869355
 20
248.4381753768968
 30
0.0
 11
337.6802662439899
 21
291.3949123339511
 31
0.0
  0
LINE
  5
2C8
330
2C5
100
AcDbEntity
  8
1
  6
Continuous
 62
     2
100
AcDbLine
 10
235.9983216076505
 20
307.1633830563957
 30
0.0
 11
278.9550585647049
 21
350.12012001345
 31
0.0
  0
SOLID
  5
2C9
330
2C5
100
AcDbEntity
  8
1
 62
     2
100
AcDbTrace
 10
283.142239087259
 20
344.4078055993901
 30
0.0
 11
281.8389458539979
 21
343.1045123661338
 31
0.0
 12
277.5408450023318
 22
348.7059064510769
 32
0.0
 13
277.5408450023318
 23
348.7059064510769
 33
0.0
  0
SOLID
  5
2CA
330
2C5
100
AcDbEntity
  8
1
 62
     2
100
AcDbTrace
 10
330.6646585966897
 20
294.2787996232649
 30
0.0
 11
331.9679518299508
 21
295.5820928565212
 31
0.0
 12
336.2660526816169
 22
289.980698771578
 32
0.0
 13
336.2660526816169
 23
289.980698771578
 33
0.0
  0
MTEXT
  5
2CB
330
2C5
100
AcDbEntity
  8
1
 62
     7
100
AcDbMText
 10
296.623257542887
 20
332.4519210352036
 30
0.0
 40
7.0
 41
0.0
 71
     7
 72
     1
  1
84リフト6
  7
CONVERTER_11
 11
0.70710678118526
 21
-0.707106781187835
 31
0.0
 73
     1
 44
0.45454545454545
  0
ENDBLK
  5
2CD
330
2C5
100
AcDbEntity
  8
0
100
AcDbBlockEnd
  0
BLOCK
  5
2D9
330
2D0
100
AcDbEntity
  8
0
100
AcDbBlockBegin
  2
*D16
 70
     1
 10
0.0
 20
0.0
 30
0.0
  3
*D16
  1

  0
LINE
  5
2D1
330
2D0
100
AcDbEntity
  8
1
  6
Continuous
 62
     2
100
AcDbLine
 10
92.87352928693576
 20
140.0781552923359
 30
0.0
 11
106.8735292869358
 21
140.0781552923359
 31
0.0
  0
LINE
  5
2D2
330
2D0
100
AcDbEntity
  8
1
  6
Continuous
 62
     2
100
AcDbLine
 10
106.8735292869358
 20
140.0781552923359
 30
0.0
 11
122.5735292869356
 21
140.0781552923359
 31
0.0
  0
LINE
  5
2D3
330
2D0
100
AcDbEntity
  8
1
  6
Continuous
 62
     2
100
AcDbLine
 10
122.5735292869356
 20
140.0781552923359
 30
0.0
 11
168.338420188829
 21
140.0781552923359
 31
0.0
  0
LINE
  5
2D4
330
2D0
100
AcDbEntity
  8
1
  6
Continuous
 62
     2
100
AcDbLine
 10
106.8735292869358
 20
170.9381783768976
 30
0.0
 11
106.8735292869358
 21
138.0781552923359
 31
0.0
  0
LINE
  5
2D5
330
2D0
100
AcDbEntity
  8
1
  6
Continuous
 62
     2
100
AcDbLine
 10
122.5735292869356
 20
170.9381783768976
 30
0.0
 11
122.5735292869356
 21
138.0781552923359
 31
0.0
  0
SOLID
  5
2D6
330
2D0
100
AcDbEntity
  8
1
 62
     2
100
AcDbTrace
 10
99.87352928693576
 20
139.1565878092241
 30
0.0
 11
99.87352928693576
 21
140.9997227754477
 31
0.0
 12
106.8735292869358
 22
140.0781552923359
 32
0.0
 13
106.8735292869358
 23
140.0781552923359
 33
0.0
  0
SOLID
  5
2D7
330
2D0
100
AcDbEntity
  8
1
 62
     2
100
AcDbTrace
 10
129.5735292869356
 20
140.9997227754477
 30
0.0
 11
129.5735292869356
 21
139.1565878092241
 31
0.0
 12
122.5735292869356
 22
140.0781552923359
 32
0.0
 13
122.5735292869356
 23
140.0781552923359
 33
0.0
  0
MTEXT
  5
2D8
330
2D0
100
AcDbEntity
  8
1
 62
     7
100
AcDbMText
 10
145.4484201888459
 20
142.7781413781832
 30
0.0
 40
7.0
 41
0.0
 71
     7
 72
     1
  1
\C7;{\Fgdt;n}\C7;15,7
  7
CONVERTER_12
 11
0.9999999999970619
 21
2.424068405545306E-6
 31
0.0
 73
     1
 44
0.60024009603842
  0
ENDBLK
  5
2DA
330
2D0
100
AcDbEntity
  8
0
100
AcDbBlockEnd
  0
BLOCK
  5
2E4
330
2DD
100
AcDbEntity
  8
0
100
AcDbBlockBegin
  2
*D17
 70
     1
 10
0.0
 20
0.0
 30
0.0
  3
*D17
  1

  0
LINE
  5
2DE
330
2DD
100
AcDbEntity
  8
1
  6
Continuous
 62
     2
100
AcDbLine
 10
282.7235292869355
 20
139.0681723768969
 30
0.0
 11
350.2246094105631
 21
139.0681723768969
 31
0.0
  0
LINE
  5
2DF
330
2DD
100
AcDbEntity
  8
1
  6
Continuous
 62
     2
100
AcDbLine
 10
282.7235292869355
 20
164.6670231115234
 30
0.0
 11
282.7235292869355
 21
137.0681723768969
 31
0.0
  0
LINE
  5
2E0
330
2DD
100
AcDbEntity
  8
1
  6
Continuous
 62
     2
100
AcDbLine
 10
350.2246094105631
 20
239.1226753768969
 30
0.0
 11
350.2246094105631
 21
137.0681723768969
 31
0.0
  0
SOLID
  5
2E1
330
2DD
100
AcDbEntity
  8
1
 62
     2
100
AcDbTrace
 10
289.7235292869355
 20
139.9897398600087
 30
0.0
 11
289.7235292869355
 21
138.1466048937851
 31
0.0
 12
282.7235292869355
 22
139.0681723768969
 32
0.0
 13
282.7235292869355
 23
139.0681723768969
 33
0.0
  0
SOLID
  5
2E2
330
2DD
100
AcDbEntity
  8
1
 62
     2
100
AcDbTrace
 10
343.2246094105631
 20
138.1466048937851
 30
0.0
 11
343.2246094105631
 21
139.9897398600087
 31
0.0
 12
350.2246094105631
 22
139.0681723768969
 32
0.0
 13
350.2246094105631
 23
139.0681723768969
 33
0.0
  0
MTEXT
  5
2E3
330
2DD
100
AcDbEntity
  8
1
 62
     7
100
AcDbMText
 10
311.783721780746
 20
142.053532300519
 30
0.0
 40
7.0
 41
0.0
 71
     7
 72
     1
  1
68
  7
CONVERTER_12
 11
0.9999999999970619
 21
2.424068405545306E-6
 31
0.0
 73
     1
 44
0.60024009603842
  0
ENDBLK
  5
2E5
330
2DD
100
AcDbEntity
  8
0
100
AcDbBlockEnd
  0
BLOCK
  5
2EF
330
2E8
100
AcDbEntity
  8
0
100
AcDbBlockBegin
  2
*D18
 70
     1
 10
0.0
 20
0.0
 30
0.0
  3
*D18
  1

  0
LINE
  5
2E9
330
2E8
100
AcDbEntity
  8
1
  6
Continuous
 62
     2
100
AcDbLine
 10
92.7235292869357
 20
124.0781552923359
 30
0.0
 11
136.7235292869357
 21
124.0781552923359
 31
0.0
  0
LINE
  5
2EA
330
2E8
100
AcDbEntity
  8
1
  6
Continuous
 62
     2
100
AcDbLine
 10
92.7235292869357
 20
191.938172376897
 30
0.0
 11
92.7235292869357
 21
122.0781552923359
 31
0.0
  0
LINE
  5
2EB
330
2E8
100
AcDbEntity
  8
1
  6
Continuous
 62
     2
100
AcDbLine
 10
136.7235292869357
 20
191.938172376897
 30
0.0
 11
136.7235292869357
 21
122.0781552923359
 31
0.0
  0
SOLID
  5
2EC
330
2E8
100
AcDbEntity
  8
1
 62
     2
100
AcDbTrace
 10
99.7235292869357
 20
124.9997227754477
 30
0.0
 11
99.7235292869357
 21
123.1565878092241
 31
0.0
 12
92.7235292869357
 22
124.0781552923359
 32
0.0
 13
92.7235292869357
 23
124.0781552923359
 33
0.0
  0
SOLID
  5
2ED
330
2E8
100
AcDbEntity
  8
1
 62
     2
100
AcDbTrace
 10
129.7235292869357
 20
123.1565878092241
 30
0.0
 11
129.7235292869357
 21
124.9997227754477
 31
0.0
 12
136.7235292869357
 22
124.0781552923359
 32
0.0
 13
136.7235292869357
 23
124.0781552923359
 33
0.0
  0
MTEXT
  5
2EE
330
2E8
100
AcDbEntity
  8
1
 62
     7
100
AcDbMText
 10
107.9335292869526
 20
126.0781413781833
 30
0.0
 40
7.0
 41
0.0
 71
     7
 72
     1
  1
\C7;{\Fgdt;n}\C7;44
  7
CONVERTER_12
 11
0.9999999999970619
 21
2.424068405545306E-6
 31
0.0
 73
     1
 44
0.60024009603842
  0
ENDBLK
  5
2F0
330
2E8
100
AcDbEntity
  8
0
100
AcDbBlockEnd
  0
BLOCK
  5
2FA
330
2F3
100
AcDbEntity
  8
0
100
AcDbBlockBegin
  2
*D19
 70
     1
 10
0.0
 20
0.0
 30
0.0
  3
*D19
  1

  0
LINE
  5
2F4
330
2F3
100
AcDbEntity
  8
1
  6
Continuous
 62
     2
100
AcDbLine
 10
370.2246094105631
 20
271.4381753768968
 30
0.0
 11
370.2246094105631
 21
225.4381753768968
 31
0.0
  0
LINE
  5
2F5
330
2F3
100
AcDbEntity
  8
1
  6
Continuous
 62
     2
100
AcDbLine
 10
336.2246094105631
 20
271.4381753768968
 30
0.0
 11
372.2246094105631
 21
271.4381753768968
 31
0.0
  0
LINE
  5
2F6
330
2F3
100
AcDbEntity
  8
1
  6
Continuous
 62
     2
100
AcDbLine
 10
336.2246094105631
 20
225.4381753768968
 30
0.0
 11
372.2246094105631
 21
225.4381753768968
 31
0.0
  0
SOLID
  5
2F7
330
2F3
100
AcDbEntity
  8
1
 62
     2
100
AcDbTrace
 10
371.1461768936749
 20
264.4381753768968
 30
0.0
 11
369.3030419274514
 21
264.4381753768968
 31
0.0
 12
370.2246094105631
 22
271.4381753768968
 32
0.0
 13
370.2246094105631
 23
271.4381753768968
 33
0.0
  0
SOLID
  5
2F8
330
2F3
100
AcDbEntity
  8
1
 62
     2
100
AcDbTrace
 10
369.3030419274514
 20
232.4381753768968
 30
0.0
 11
371.1461768936749
 21
232.4381753768968
 31
0.0
 12
370.2246094105631
 22
225.4381753768968
 32
0.0
 13
370.2246094105631
 23
225.4381753768968
 33
0.0
  0
MTEXT
  5
2F9
330
2F3
100
AcDbEntity
  8
1
 62
     7
100
AcDbMText
 10
368.2246094105631
 20
241.6481753768968
 30
0.0
 40
7.0
 41
0.0
 71
     7
 72
     1
  1
\C7;{\Fgdt;n}\C7;46
  7
CONVERTER_12
 11
0.0
 21
1.0
 31
0.0
 73
     1
 44
0.60024009603842
  0
ENDBLK
  5
2FB
330
2F3
100
AcDbEntity
  8
0
100
AcDbBlockEnd
  0
BLOCK
  5
305
330
2FE
100
AcDbEntity
  8
0
100
AcDbBlockBegin
  2
*D20
 70
     1
 10
0.0
 20
0.0
 30
0.0
  3
*D20
  1

  0
LINE
  5
2FF
330
2FE
100
AcDbEntity
  8
1
  6
Continuous
 62
     2
100
AcDbLine
 10
71.72352928693562
 20
160.0781552923359
 30
0.0
 11
71.72352928693562
 21
248.4381753768968
 31
0.0
  0
LINE
  5
300
330
2FE
100
AcDbEntity
  8
1
  6
Continuous
 62
     2
100
AcDbLine
 10
112.9235292869355
 20
160.0781552923359
 30
0.0
 11
69.72352928693562
 21
160.0781552923359
 31
0.0
  0
LINE
  5
301
330
2FE
100
AcDbEntity
  8
1
  6
Continuous
 62
     2
100
AcDbLine
 10
85.72352928693562
 20
248.4381753768968
 30
0.0
 11
69.72352928693562
 21
248.4381753768968
 31
0.0
  0
SOLID
  5
302
330
2FE
100
AcDbEntity
  8
1
 62
     2
100
AcDbTrace
 10
70.80196180382384
 20
167.0781552923359
 30
0.0
 11
72.64509677004739
 21
167.0781552923359
 31
0.0
 12
71.72352928693562
 22
160.0781552923359
 32
0.0
 13
71.72352928693562
 23
160.0781552923359
 33
0.0
  0
SOLID
  5
303
330
2FE
100
AcDbEntity
  8
1
 62
     2
100
AcDbTrace
 10
72.64509677004739
 20
241.4381753768968
 30
0.0
 11
70.80196180382384
 21
241.4381753768968
 31
0.0
 12
71.72352928693562
 22
248.4381753768968
 32
0.0
 13
71.72352928693562
 23
248.4381753768968
 33
0.0
  0
MTEXT
  5
304
330
2FE
100
AcDbEntity
  8
1
 62
     7
100
AcDbMText
 10
69.72352928693562
 20
199.0081653346164
 30
0.0
 40
7.0
 41
0.0
 71
     7
 72
     1
  1
88
  7
CONVERTER_12
 11
0.0
 21
1.0
 31
0.0
 73
     1
 44
0.60024009603842
  0
ENDBLK
  5
306
330
2FE
100
AcDbEntity
  8
0
100
AcDbBlockEnd
  0
ENDSEC
  0
SECTION
  2
ENTITIES
  0
INSERT
  5
66
330
1F
100
AcDbEntity
  8
0
100
AcDbBlockReference
  2
U7321-F-13
 10
1441.996345544482
 20
615.6155495436134
 30
0.0
  0
INSERT
  5
67
330
1F
100
AcDbEntity
  8
0
100
AcDbBlockReference
  2
Y143-0B
 10
483.4176735531898
 20
103.5719417542063
 30
0.0
  0
INSERT
  5
68
330
1F
100
AcDbEntity
  8
0
100
AcDbBlockReference
  2
38-134
 10
337.263504211086
 20
301.8441920128723
 30
0.0
  0
INSERT
  5
69
330
1F
100
AcDbEntity
  8
0
100
AcDbBlockReference
  2
35-199BX
 10
799.1295046685696
 20
67.3726379578219
 30
0.0
  0
INSERT
  5
6A
330
1F
100
AcDbEntity
  8
1
100
AcDbBlockReference
  2
開示A4
 10
0.0
 20
0.0
 30
0.0
 41
2.0
 42
2.0
 43
2.0
  0
INSERT
  5
6B
330
1F
100
AcDbEntity
  8
0
100
AcDbBlockReference
  2
81-93A
 10
1725.152202022995
 20
-37.73798694894209
 30
0.0
  0
LINE
  5
278
330
1F
100
AcDbEntity
  8
1
  6
DASH_CENTER
 62
     2
100
AcDbLine
 10
87.72352928693562
 20
378.8111014783589
 30
0.0
 11
141.7235292869358
 21
378.8111014783896
 31
0.0
  0
LINE
  5
279
330
1F
100
AcDbEntity
  8
1
  6
DASH_CENTER
 62
     2
100
AcDbLine
 10
86.72353888167885
 20
425.5363091576577
 30
0.0
 11
142.7235196921921
 21
425.5363091576577
 31
0.0
  0
LINE
  5
27A
330
1F
100
AcDbEntity
  8
1
  6
Continuous
 62
     7
100
AcDbLine
 10
137.4735292869357
 20
276.581014769945
 30
0.0
 11
137.4735292869357
 21
281.7075389335688
 31
0.0
  0
LINE
  5
27B
330
1F
100
AcDbEntity
  8
1
  6
DASH_CENTER
 62
     2
100
AcDbLine
 10
87.7235292869357
 20
307.1633830563961
 30
0.0
 11
141.7235292869357
 21
307.1633830563924
 31
0.0
  0
LINE
  5
27C
330
1F
100
AcDbEntity
  8
0
  6
DASH_CENTER
 62
     2
100
AcDbLine
 10
235.9983216076505
 20
307.1633830563957
 30
0.0
 11
231.7556809204245
 21
311.4060237434082
 31
0.0
  0
LINE
  5
27D
330
1F
100
AcDbEntity
  8
0
  6
DASH_CENTER
 62
     2
100
AcDbLine
 10
294.7235292869355
 20
248.4381753768968
 30
0.0
 11
235.9983216076505
 21
307.1633830563957
 31
0.0
  0
LINE
  5
27E
330
1F
100
AcDbEntity
  8
0
  6
DASH_CENTER
 62
     2
100
AcDbLine
 10
297.2690952675403
 20
245.8926093962921
 30
0.0
 11
294.7235292869355
 21
248.4381753768968
 31
0.0
  0
LINE
  5
27F
330
1F
100
AcDbEntity
  8
1
  6
DASH_CENTER
 62
     2
100
AcDbLine
 10
114.7235292869357
 20
361.7147155518416
 30
0.0
 11
114.7235292869357
 21
499.0373892812851
 31
0.0
  0
LINE
  5
280
330
1F
100
AcDbEntity
  8
1
  6
DASH_CENTER
 62
     2
100
AcDbLine
 10
114.7235292869357
 20
156.0681723768969
 30
0.0
 11
114.7235292869357
 21
324.6431440999082
 31
0.0
  0
LINE
  5
281
330
1F
100
AcDbEntity
  8
1
  6
DASH_CENTER
 62
     2
100
AcDbLine
 10
282.7235292869355
 20
251.4381753768968
 30
0.0
 11
282.7235292869355
 21
164.6670231115234
 31
0.0
  0
LINE
  5
282
330
1F
100
AcDbEntity
  8
1
  6
DASH_CENTER
 62
     2
100
AcDbLine
 10
85.72352928693562
 20
248.4381753768968
 30
0.0
 11
143.7235292869356
 21
248.4381753768968
 31
0.0
  0
LINE
  5
283
330
1F
100
AcDbEntity
  8
1
  6
DASH_CENTER
 62
     2
100
AcDbLine
 10
356.2246094105631
 20
248.4381753768968
 30
0.0
 11
294.7235292869355
 21
248.4381753768968
 31
0.0
  0
LINE
  5
284
330
1F
100
AcDbEntity
  8
1
  6
DASH_CENTER
 62
     2
100
AcDbLine
 10
294.7235292869355
 20
248.4381753768968
 30
0.0
 11
279.5612926505269
 21
248.4381753768968
 31
0.0
  0
LINE
  5
285
330
1F
100
AcDbEntity
  8
1
  6
DASH_CENTER
 62
     2
100
AcDbLine
 10
290.5230253684421
 20
156.3182667425872
 30
0.0
 11
282.7235292869355
 21
164.6670231115234
 31
0.0
  0
SOLID
  5
286
330
1F
100
AcDbEntity
  8
1
 62
     2
100
AcDbTrace
 10
345.2935623720686
 20
265.4386369449436
 30
0.0
 11
346.8897640754215
 21
264.5170694618318
 31
0.0
 12
342.591663223745
 22
258.9156753768967
 32
0.0
 13
342.591663223745
 23
258.9156753768967
 33
0.0
  0
LEADER
  5
287
330
1F
100
AcDbEntity
  8
1
  6
Continuous
 62
     2
100
AcDbLeader
  3
Standard
 71
     0
 76
     3
 10
342.591663223745
 20
258.9156753768967
 30
0.0
 10
352.7082833156203
 20
276.4381753768968
 30
0.0
 10
381.5181964339211
 20
276.4381753768968
 30
0.0
  0
MTEXT
  5
289
330
1F
100
AcDbEntity
  8
1
 62
     7
100
AcDbMText
 10
367.449282569146
 20
282.4381753768969
 30
0.0
 40
7.0
 41
0.0
 71
     5
 72
     1
  1
PJ1/2
  7
CONVERTER_12
 73
     1
 44
1.32052821128451
  0
MTEXT
  5
28A
330
1F
100
AcDbEntity
  8
1
 62
     7
100
AcDbMText
 10
187.5
 20
34.0
 30
0.0
 40
7.0
 41
0.0
 71
     5
 72
     1
  1
2
  7
CONVERTER_12
 73
     1
 44
0.7202881152461
  0
MTEXT
  5
28B
330
1F
100
AcDbEntity
  8
1
 62
     7
100
AcDbMText
 10
170.5
 20
34.0
 30
0.0
 40
7.0
 41
0.0
 71
     5
 72
     1
  1
1
  7
CONVERTER_12
 73
     1
 44
0.7202881152461
  0
MTEXT
  5
28C
330
1F
100
AcDbEntity
  8
0
 62
     7
100
AcDbMText
 10
113.7480107884099
 20
28.4530294575131
 30
0.0
 40
7.0
 41
0.0
 71
     5
 72
     1
  1
Y143UCTV2-1-13
  7
CONVERTER_12
 73
     1
 44
1.32052821128451
  0
MTEXT
  5
28D
330
1F
100
AcDbEntity
  8
0
 62
     7
100
AcDbMText
 10
113.4776274592209
 20
45.38893278990641
 30
0.0
 40
7.0
 41
0.0
 71
     5
 72
     1
  1
水撃低減洗濯機用送り座水栓
  7
CONVERTER_11
 73
     1
 44
1.0
  0
DIMENSION
  5
298
330
1F
100
AcDbEntity
  8
1
100
AcDbDimension
  2
*D10
 10
207.0069435789988
 20
306.4562762753371
 30
0.0
 11
210.8813572153977
 21
318.1088645047194
 31
0.0
 70
    32
  1
<>
 71
     5
 42
-1.0
 53
44.99999999974661
  3
ME10_DIM_10
100
AcDbAlignedDimension
 13
254.029544527959
 23
318.8306449458939
 33
0.0
 14
224.3310597179924
 24
289.1321601361902
 34
0.0
 50
44.99999999974661
100
AcDbRotatedDimension
  0
DIMENSION
  5
2A3
330
1F
100
AcDbEntity
  8
1
100
AcDbDimension
  2
*D11
 10
296.8095047896935
 20
306.8098296656694
 30
0.0
 11
285.4074079431251
 21
325.9901011052881
 31
0.0
 70
    32
  1
43
 71
     5
 42
-1.0
 53
315.0000000000033
  3
ME10_DIM_11
100
AcDbAlignedDimension
 13
247.6655834972801
 23
318.8306449459221
 33
0.0
 14
282.4552371315386
 24
292.4555620075129
 34
0.0
 50
315.0000000000033
100
AcDbRotatedDimension
  0
DIMENSION
  5
2AE
330
1F
100
AcDbEntity
  8
1
100
AcDbDimension
  2
*D12
 10
71.72352928693562
 20
248.4381753768967
 30
0.0
 11
66.22352928693562
 21
277.8007792166455
 31
0.0
 70
    32
  1
59
 71
     5
 42
-1.0
 53
90.0
  3
ME10_DIM_12
100
AcDbAlignedDimension
 13
87.7235292869357
 23
307.1633830563961
 33
0.0
 14
85.72352928693562
 24
248.4381753768968
 34
0.0
 50
90.0
100
AcDbRotatedDimension
  0
DIMENSION
  5
2B9
330
1F
100
AcDbEntity
  8
1
100
AcDbDimension
  2
*D13
 10
91.97352928693567
 20
329.1486644305686
 30
0.0
 11
114.7235292869357
 21
334.6486644305686
 31
0.0
 70
    32
  1
{\Fgdt;n}46
 71
     5
 42
-1.0
 53
0.00013888888889
  3
ME10_DIM_13
100
AcDbAlignedDimension
 13
137.4735292869357
 23
276.581014769945
 33
0.0
 14
91.9735292869357
 24
276.581014769945
 34
0.0
100
AcDbRotatedDimension
  0
DIMENSION
  5
2C4
330
1F
100
AcDbEntity
  8
1
100
AcDbDimension
  2
*D14
 10
223.013040233346
 20
356.1486644305684
 30
0.0
 11
286.6188248219545
 21
361.6486644305684
 31
0.0
 70
    32
  1
127
 71
     5
 42
-1.0
 53
0.00013888888889
  3
ME10_DIM_14
100
AcDbAlignedDimension
 13
350.2246094105631
 23
257.7536753768968
 33
0.0
 14
223.013040233346
 24
292.3141406515155
 34
0.0
100
AcDbRotatedDimension
  0
DIMENSION
  5
2CF
330
1F
100
AcDbEntity
  8
1
100
AcDbDimension
  2
*D15
 10
277.5408450023318
 20
348.7059064510769
 30
0.0
 11
312.4624494414458
 21
321.5624766049019
 31
0.0
 70
    33
  1
84リフト6
 71
     5
 42
-1.0
 53
-45.00000000010434
  3
ME10_DIM_15
100
AcDbAlignedDimension
 13
294.7235292869355
 23
248.4381753768968
 33
0.0
 14
235.9983216076505
 24
307.1633830563957
 34
0.0
  0
DIMENSION
  5
2DC
330
1F
100
AcDbEntity
  8
1
100
AcDbDimension
  2
*D16
 10
106.8735292869358
 20
140.0781552923359
 30
0.0
 11
155.563420188829
 21
145.9281552923359
 31
0.0
 70
    32
  1
<>
 71
     5
 42
-1.0
 53
0.00013888888889
  3
ME10_DIM_16
100
AcDbAlignedDimension
 13
122.5735292869356
 23
170.9381783768976
 33
0.0
 14
106.8735292869358
 24
170.9381783768976
 34
0.0
100
AcDbRotatedDimension
  0
DIMENSION
  5
2E7
330
1F
100
AcDbEntity
  8
1
100
AcDbDimension
  2
*D17
 10
282.7235292869355
 20
139.0681723768969
 30
0.0
 11
317.033721780746
 21
145.553532300519
 31
0.0
 70
    32
  1
68
 71
     5
 42
-1.0
 53
0.00013888888889
  3
ME10_DIM_17
100
AcDbAlignedDimension
 13
350.2246094105631
 23
239.1226753768968
 33
0.0
 14
282.7235292869355
 24
164.6670231115234
 34
0.0
100
AcDbRotatedDimension
  0
DIMENSION
  5
2F2
330
1F
100
AcDbEntity
  8
1
100
AcDbDimension
  2
*D18
 10
92.7235292869357
 20
124.0781552923359
 30
0.0
 11
114.7235292869357
 21
129.5781552923359
 31
0.0
 70
    32
  1
<>
 71
     5
 42
-1.0
 53
0.00013888888889
  3
ME10_DIM_18
100
AcDbAlignedDimension
 13
136.7235292869357
 23
191.938172376897
 33
0.0
 14
92.7235292869357
 24
191.938172376897
 34
0.0
100
AcDbRotatedDimension
  0
DIMENSION
  5
2FD
330
1F
100
AcDbEntity
  8
1
100
AcDbDimension
  2
*D19
 10
370.2246094105631
 20
271.4381753768968
 30
0.0
 11
364.7246094105631
 21
248.4381753768968
 31
0.0
 70
    32
  1
<>
 71
     5
 42
-1.0
 53
90.0
  3
ME10_DIM_19
100
AcDbAlignedDimension
 13
336.2246094105631
 23
225.4381753768968
 33
0.0
 14
336.2246094105631
 24
271.4381753768968
 34
0.0
 50
90.0
100
AcDbRotatedDimension
  0
DIMENSION
  5
308
330
1F
100
AcDbEntity
  8
1
100
AcDbDimension
  2
*D20
 10
71.72352928693562
 20
160.0781552923359
 30
0.0
 11
66.22352928693562
 21
204.2581653346164
 31
0.0
 70
    32
  1
88
 71
     5
 42
-1.0
 53
90.0
  3
ME10_DIM_20
100
AcDbAlignedDimension
 13
85.72352928693562
 23
248.4381753768968
 33
0.0
 14
112.9235292869355
 24
160.0781552923359
 34
0.0
 50
90.0
100
AcDbRotatedDimension
  0
ENDSEC
  0
SECTION
  2
OBJECTS
  0
DICTIONARY
  5
C
330
0
100
AcDbDictionary
281
     1
  3
ACAD_GROUP
350
D
  3
ACAD_LAYOUT
350
1A
  3
ACAD_MATERIAL
350
3B
  3
ACAD_MLEADERSTYLE
350
30B
  3
ACAD_MLINESTYLE
350
17
  3
ACAD_PLOTSETTINGS
350
19
  3
ACAD_PLOTSTYLENAME
350
E
  3
ACAD_VISUALSTYLE
350
2A
  3
AcDbVariableDictionary
350
309
  0
DICTIONARY
  5
D
102
{ACAD_REACTORS
330
C
102
}
330
C
100
AcDbDictionary
281
     1
  0
DICTIONARY
  5
1A
102
{ACAD_REACTORS
330
C
102
}
330
C
100
AcDbDictionary
281
     1
  3
Layout1
350
1E
  3
Layout2
350
26
  3
Model
350
22
  0
DICTIONARY
  5
3B
102
{ACAD_REACTORS
330
C
102
}
330
C
100
AcDbDictionary
281
     1
  3
ByBlock
350
3D
  3
ByLayer
350
3C
  3
Global
350
3E
  0
DICTIONARY
  5
30B
102
{ACAD_REACTORS
330
C
102
}
330
C
100
AcDbDictionary
281
     1
  0
DICTIONARY
  5
17
102
{ACAD_REACTORS
330
C
102
}
330
C
100
AcDbDictionary
281
     1
  3
Standard
350
18
  0
DICTIONARY
  5
19
102
{ACAD_REACTORS
330
C
102
}
330
C
100
AcDbDictionary
281
     1
  0
ACDBDICTIONARYWDFLT
  5
E
102
{ACAD_REACTORS
330
C
102
}
330
C
100
AcDbDictionary
281
     1
  3
Normal
350
F
100
AcDbDictionaryWithDefault
340
F
  0
DICTIONARY
  5
2A
102
{ACAD_REACTORS
330
C
102
}
330
C
100
AcDbDictionary
281
     1
  3
2dWireframe
350
2F
  3
3D Hidden
350
31
  3
3dWireframe
350
30
  3
Basic
350
32
  3
Brighten
350
36
  3
ColorChange
350
3A
  3
Conceptual
350
34
  3
Dim
350
35
  3
Facepattern
350
39
  3
Flat
350
2B
  3
FlatWithEdges
350
2C
  3
Gouraud
350
2D
  3
GouraudWithEdges
350
2E
  3
Linepattern
350
38
  3
Realistic
350
33
  3
Thicken
350
37
  0
DICTIONARY
  5
309
102
{ACAD_REACTORS
330
C
102
}
330
C
100
AcDbDictionary
281
     1
  3
DIMASSOC
350
30C
  3
HIDETEXT
350
30D
  0
LAYOUT
  5
1E
102
{ACAD_REACTORS
330
1A
102
}
330
1A
100
AcDbPlotSettings
  1

  2
none_device
  4

  6

 40
0.0
 41
0.0
 42
0.0
 43
0.0
 44
0.0
 45
0.0
 46
0.0
 47
0.0
 48
0.0
 49
0.0
140
0.0
141
0.0
142
1.0
143
1.0
 70
   688
 72
     0
 73
     0
 74
     5
  7

 75
    16
147
1.0
148
0.0
149
0.0
100
AcDbLayout
  1
Layout1
 70
     1
 71
     1
 10
0.0
 20
0.0
 11
12.0
 21
9.0
 12
0.0
 22
0.0
 32
0.0
 14
1.00000000000000E+20
 24
1.00000000000000E+20
 34
1.00000000000000E+20
 15
-1.00000000000000E+20
 25
-1.00000000000000E+20
 35
-1.00000000000000E+20
146
0.0
 13
0.0
 23
0.0
 33
0.0
 16
1.0
 26
0.0
 36
0.0
 17
0.0
 27
1.0
 37
0.0
 76
     0
330
1B
  0
LAYOUT
  5
26
102
{ACAD_REACTORS
330
1A
102
}
330
1A
100
AcDbPlotSettings
  1

  2
none_device
  4

  6

 40
0.0
 41
0.0
 42
0.0
 43
0.0
 44
0.0
 45
0.0
 46
0.0
 47
0.0
 48
0.0
 49
0.0
140
0.0
141
0.0
142
1.0
143
1.0
 70
   688
 72
     0
 73
     0
 74
     5
  7

 75
    16
147
1.0
148
0.0
149
0.0
100
AcDbLayout
  1
Layout2
 70
     1
 71
     2
 10
0.0
 20
0.0
 11
0.0
 21
0.0
 12
0.0
 22
0.0
 32
0.0
 14
0.0
 24
0.0
 34
0.0
 15
0.0
 25
0.0
 35
0.0
146
0.0
 13
0.0
 23
0.0
 33
0.0
 16
1.0
 26
0.0
 36
0.0
 17
0.0
 27
1.0
 37
0.0
 76
     0
330
23
  0
LAYOUT
  5
22
102
{ACAD_REACTORS
330
1A
102
}
330
1A
100
AcDbPlotSettings
  1

  2
none_device
  4

  6

 40
0.0
 41
0.0
 42
0.0
 43
0.0
 44
0.0
 45
0.0
 46
0.0
 47
0.0
 48
0.0
 49
0.0
140
0.0
141
0.0
142
1.0
143
1.0
 70
  1712
 72
     0
 73
     0
 74
     0
  7

 75
     0
147
1.0
148
0.0
149
0.0
100
AcDbLayout
  1
Model
 70
     1
 71
     0
 10
0.0
 20
0.0
 11
12.0
 21
9.0
 12
0.0
 22
0.0
 32
0.0
 14
0.0
 24
0.0
 34
0.0
 15
420.0
 25
594.0
 35
0.0
146
0.0
 13
0.0
 23
0.0
 33
0.0
 16
1.0
 26
0.0
 36
0.0
 17
0.0
 27
1.0
 37
0.0
 76
     0
330
1F
331
29
  0
MATERIAL
  5
3D
102
{ACAD_REACTORS
330
3B
102
}
102
{ACAD_XDICTIONARY
360
330
102
}
330
3B
100
AcDbMaterial
  1
ByBlock
  0
MATERIAL
  5
3C
102
{ACAD_REACTORS
330
3B
102
}
102
{ACAD_XDICTIONARY
360
32E
102
}
330
3B
100
AcDbMaterial
  1
ByLayer
  0
MATERIAL
  5
3E
102
{ACAD_REACTORS
330
3B
102
}
102
{ACAD_XDICTIONARY
360
332
102
}
330
3B
100
AcDbMaterial
  1
Global
  0
MLINESTYLE
  5
18
102
{ACAD_REACTORS
330
17
102
}
330
17
100
AcDbMlineStyle
  2
Standard
 70
     0
  3

 62
   256
 51
90.0
 52
90.0
 71
     2
 49
0.5
 62
   256
  6
BYLAYER
 49
-0.5
 62
   256
  6
BYLAYER
  0
ACDBPLACEHOLDER
  5
F
102
{ACAD_REACTORS
330
E
102
}
330
E
  0
VISUALSTYLE
  5
2F
102
{ACAD_REACTORS
330
2A
102
}
102
{ACAD_XDICTIONARY
360
316
102
}
330
2A
100
AcDbVisualStyle
  2
2dWireframe
 70
     4
 71
     0
 72
     2
 73
     0
 90
        0
 40
-0.6
 41
-30.0
 62
     5
 63
     7
 74
     1
 91
        4
 64
     7
 65
   257
 75
     1
175
     1
 42
1.0
 92
        0
 66
   257
 43
1.0
 76
     1
 77
     6
 78
     2
 67
     7
 79
     5
170
     0
171
     0
290
     0
174
     0
 93
        1
 44
0.0
173
     0
291
     0
 45
0.0
1001
ACAD
1000
AcDbSavedByObjectVersion
1070
     0
  0
VISUALSTYLE
  5
31
102
{ACAD_REACTORS
330
2A
102
}
102
{ACAD_XDICTIONARY
360
31A
102
}
330
2A
100
AcDbVisualStyle
  2
3D Hidden
 70
     6
 71
     1
 72
     2
 73
     2
 90
        0
 40
-0.6
 41
-30.0
 62
     5
 63
     7
 74
     2
 91
        2
 64
     7
 65
   257
 75
     2
175
     1
 42
40.0
 92
        0
 66
   257
 43
1.0
 76
     1
 77
     6
 78
     2
 67
     7
 79
     3
170
     0
171
     0
290
     0
174
     0
 93
        1
 44
0.0
173
     0
291
     0
 45
0.0
1001
ACAD
1000
AcDbSavedByObjectVersion
1070
     0
  0
VISUALSTYLE
  5
30
102
{ACAD_REACTORS
330
2A
102
}
102
{ACAD_XDICTIONARY
360
318
102
}
330
2A
100
AcDbVisualStyle
  2
3dWireframe
 70
     5
 71
     0
 72
     2
 73
     0
 90
        0
 40
-0.6
 41
-30.0
 62
     5
 63
     7
 74
     1
 91
        4
 64
     7
 65
   257
 75
     1
175
     1
 42
1.0
 92
        0
 66
   257
 43
1.0
 76
     1
 77
     6
 78
     2
 67
     7
 79
     5
170
     0
171
     0
290
     0
174
     0
 93
        1
 44
0.0
173
     0
291
     0
 45
0.0
1001
ACAD
1000
AcDbSavedByObjectVersion
1070
     0
  0
VISUALSTYLE
  5
32
102
{ACAD_REACTORS
330
2A
102
}
102
{ACAD_XDICTIONARY
360
31C
102
}
330
2A
100
AcDbVisualStyle
  2
Basic
 70
     7
 71
     1
 72
     0
 73
     1
 90
        0
 40
-0.6
 41
-30.0
 62
     5
 63
     7
 74
     0
 91
        4
 64
     7
 65
   257
 75
     1
175
     1
 42
1.0
 92
        8
 66
     7
 43
1.0
 76
     1
 77
     6
 78
     2
 67
     7
 79
     5
170
     0
171
     0
290
     0
174
     0
 93
        1
 44
0.0
173
     0
291
     1
 45
0.0
1001
ACAD
1000
AcDbSavedByObjectVersion
1070
     0
  0
VISUALSTYLE
  5
36
102
{ACAD_REACTORS
330
2A
102
}
102
{ACAD_XDICTIONARY
360
324
102
}
330
2A
100
AcDbVisualStyle
  2
Brighten
 70
    12
 71
     2
 72
     2
 73
     0
 90
        0
 40
-0.6
 41
-30.0
 62
     5
 63
     7
 74
     1
 91
        4
 64
     7
 65
   257
 75
     1
175
     1
 42
1.0
 92
        8
 66
     7
 43
1.0
 76
     1
 77
     6
 78
     2
 67
     7
 79
     5
170
     0
171
     0
290
     0
174
     0
 93
        1
 44
50.0
173
     0
291
     1
 45
0.0
1001
ACAD
1000
AcDbSavedByObjectVersion
1070
     0
  0
VISUALSTYLE
  5
3A
102
{ACAD_REACTORS
330
2A
102
}
102
{ACAD_XDICTIONARY
360
32C
102
}
330
2A
100
AcDbVisualStyle
  2
ColorChange
 70
    16
 71
     2
 72
     2
 73
     3
 90
        0
 40
-0.6
 41
-30.0
 62
     5
 63
     8
 74
     1
 91
        4
 64
     7
 65
   257
 75
     1
175
     1
 42
1.0
 92
        8
 66
     8
 43
1.0
 76
     1
 77
     6
 78
     2
 67
     7
 79
     5
170
     0
171
     0
290
     0
174
     0
 93
        1
 44
0.0
173
     0
291
     1
 45
0.0
1001
ACAD
1000
AcDbSavedByObjectVersion
1070
     0
  0
VISUALSTYLE
  5
34
102
{ACAD_REACTORS
330
2A
102
}
102
{ACAD_XDICTIONARY
360
320
102
}
330
2A
100
AcDbVisualStyle
  2
Conceptual
 70
     9
 71
     3
 72
     2
 73
     0
 90
        0
 40
-0.6
 41
-30.0
 62
     5
 63
     7
 74
     2
 91
        2
 64
     7
 65
   257
 75
     1
175
     1
 42
40.0
 92
        8
 66
     7
 43
1.0
 76
     1
 77
     6
 78
     2
 67
     7
 79
     3
170
     0
171
     0
290
     0
174
     0
 93
        1
 44
0.0
173
     0
291
     0
 45
0.0
1001
ACAD
1000
AcDbSavedByObjectVersion
1070
     0
  0
VISUALSTYLE
  5
35
102
{ACAD_REACTORS
330
2A
102
}
102
{ACAD_XDICTIONARY
360
322
102
}
330
2A
100
AcDbVisualStyle
  2
Dim
 70
    11
 71
     2
 72
     2
 73
     0
 90
        0
 40
-0.6
 41
-30.0
 62
     5
 63
     7
 74
     1
 91
        4
 64
     7
 65
   257
 75
     1
175
     1
 42
1.0
 92
        8
 66
     7
 43
1.0
 76
     1
 77
     6
 78
     2
 67
     7
 79
     5
170
     0
171
     0
290
     0
174
     0
 93
        1
 44
-50.0
173
     0
291
     1
 45
0.0
1001
ACAD
1000
AcDbSavedByObjectVersion
1070
     0
  0
VISUALSTYLE
  5
39
102
{ACAD_REACTORS
330
2A
102
}
102
{ACAD_XDICTIONARY
360
32A
102
}
330
2A
100
AcDbVisualStyle
  2
Facepattern
 70
    15
 71
     2
 72
     2
 73
     0
 90
        0
 40
-0.6
 41
-30.0
 62
     5
 63
     7
 74
     1
 91
        4
 64
     7
 65
   257
 75
     1
175
     1
 42
1.0
 92
        8
 66
     7
 43
1.0
 76
     1
 77
     6
 78
     2
 67
     7
 79
     5
170
     0
171
     0
290
     0
174
     0
 93
        1
 44
0.0
173
     0
291
     1
 45
0.0
1001
ACAD
1000
AcDbSavedByObjectVersion
1070
     0
  0
VISUALSTYLE
  5
2B
102
{ACAD_REACTORS
330
2A
102
}
102
{ACAD_XDICTIONARY
360
30E
102
}
330
2A
100
AcDbVisualStyle
  2
Flat
 70
     0
 71
     2
 72
     1
 73
     1
 90
        2
 40
-0.6
 41
30.0
 62
     5
 63
     7
 74
     0
 91
        4
 64
     7
 65
   257
 75
     1
175
     1
 42
1.0
 92
        8
 66
     7
 43
1.0
 76
     1
 77
     6
 78
     2
 67
     7
 79
     5
170
     0
171
     0
290
     0
174
     0
 93
       13
 44
0.0
173
     0
291
     1
 45
0.0
1001
ACAD
1000
AcDbSavedByObjectVersion
1070
     0
  0
VISUALSTYLE
  5
2C
102
{ACAD_REACTORS
330
2A
102
}
102
{ACAD_XDICTIONARY
360
310
102
}
330
2A
100
AcDbVisualStyle
  2
FlatWithEdges
 70
     1
 71
     2
 72
     1
 73
     1
 90
        2
 40
-0.6
 41
30.0
 62
     5
 63
     7
 74
     1
 91
        4
 64
     7
 65
   257
 75
     1
175
     1
 42
1.0
 92
        0
 66
   257
 43
1.0
 76
     1
 77
     6
 78
     2
 67
     7
 79
     5
170
     0
171
     0
290
     0
174
     0
 93
       13
 44
0.0
173
     0
291
     1
 45
0.0
1001
ACAD
1000
AcDbSavedByObjectVersion
1070
     0
  0
VISUALSTYLE
  5
2D
102
{ACAD_REACTORS
330
2A
102
}
102
{ACAD_XDICTIONARY
360
312
102
}
330
2A
100
AcDbVisualStyle
  2
Gouraud
 70
     2
 71
     2
 72
     2
 73
     1
 90
        2
 40
-0.6
 41
30.0
 62
     5
 63
     7
 74
     0
 91
        4
 64
     7
 65
   257
 75
     1
175
     1
 42
1.0
 92
        0
 66
     7
 43
1.0
 76
     1
 77
     6
 78
     2
 67
     7
 79
     5
170
     0
171
     0
290
     0
174
     0
 93
       13
 44
0.0
173
     0
291
     1
 45
0.0
1001
ACAD
1000
AcDbSavedByObjectVersion
1070
     0
  0
VISUALSTYLE
  5
2E
102
{ACAD_REACTORS
330
2A
102
}
102
{ACAD_XDICTIONARY
360
314
102
}
330
2A
100
AcDbVisualStyle
  2
GouraudWithEdges
 70
     3
 71
     2
 72
     2
 73
     1
 90
        2
 40
-0.6
 41
30.0
 62
     5
 63
     7
 74
     1
 91
        4
 64
     7
 65
   257
 75
     1
175
     1
 42
1.0
 92
        0
 66
   257
 43
1.0
 76
     1
 77
     6
 78
     2
 67
     7
 79
     5
170
     0
171
     0
290
     0
174
     0
 93
       13
 44
0.0
173
     0
291
     1
 45
0.0
1001
ACAD
1000
AcDbSavedByObjectVersion
1070
     0
  0
VISUALSTYLE
  5
38
102
{ACAD_REACTORS
330
2A
102
}
102
{ACAD_XDICTIONARY
360
328
102
}
330
2A
100
AcDbVisualStyle
  2
Linepattern
 70
    14
 71
     2
 72
     2
 73
     0
 90
        0
 40
-0.6
 41
-30.0
 62
     5
 63
     7
 74
     1
 91
        4
 64
     7
 65
   257
 75
     7
175
     7
 42
1.0
 92
        8
 66
     7
 43
1.0
 76
     1
 77
     6
 78
     2
 67
     7
 79
     5
170
     0
171
     0
290
     0
174
     0
 93
        1
 44
0.0
173
     0
291
     1
 45
0.0
1001
ACAD
1000
AcDbSavedByObjectVersion
1070
     0
  0
VISUALSTYLE
  5
33
102
{ACAD_REACTORS
330
2A
102
}
102
{ACAD_XDICTIONARY
360
31E
102
}
330
2A
100
AcDbVisualStyle
  2
Realistic
 70
     8
 71
     2
 72
     2
 73
     0
 90
        0
 40
-0.6
 41
-30.0
 62
     5
 63
     7
 74
     1
 91
        0
 64
     7
 65
   257
 75
     1
175
     1
 42
1.0
 92
        8
 66
     8
 43
1.0
 76
     1
 77
     6
 78
     2
 67
     7
 79
     5
170
     0
171
     0
290
     0
174
     0
 93
       13
 44
0.0
173
     0
291
     0
 45
0.0
1001
ACAD
1000
AcDbSavedByObjectVersion
1070
     0
  0
VISUALSTYLE
  5
37
102
{ACAD_REACTORS
330
2A
102
}
102
{ACAD_XDICTIONARY
360
326
102
}
330
2A
100
AcDbVisualStyle
  2
Thicken
 70
    13
 71
     2
 72
     2
 73
     0
 90
        0
 40
-0.6
 41
-30.0
 62
     5
 63
     7
 74
     1
 91
        4
 64
     7
 65
   257
 75
     1
175
     1
 42
1.0
 92
       12
 66
     7
 43
1.0
 76
     1
 77
     6
 78
     2
 67
     7
 79
     5
170
     0
171
     0
290
     0
174
     0
 93
        1
 44
0.0
173
     0
291
     1
 45
0.0
1001
ACAD
1000
AcDbSavedByObjectVersion
1070
     0
  0
DICTIONARYVAR
  5
30C
102
{ACAD_REACTORS
330
309
102
}
330
309
100
DictionaryVariables
280
     0
  1
2
  0
DICTIONARYVAR
  5
30D
102
{ACAD_REACTORS
330
309
102
}
330
309
100
DictionaryVariables
280
     0
  1
1
  0
DICTIONARY
  5
330
330
3D
100
AcDbDictionary
280
     1
281
     1
  3
ACAD_XREC_ROUNDTRIP
360
331
  0
DICTIONARY
  5
32E
330
3C
100
AcDbDictionary
280
     1
281
     1
  3
ACAD_XREC_ROUNDTRIP
360
32F
  0
DICTIONARY
  5
332
330
3E
100
AcDbDictionary
280
     1
281
     1
  3
ACAD_XREC_ROUNDTRIP
360
333
  0
DICTIONARY
  5
316
330
2F
100
AcDbDictionary
280
     1
281
     1
  3
ACAD_XREC_ROUNDTRIP
360
317
  0
DICTIONARY
  5
31A
330
31
100
AcDbDictionary
280
     1
281
     1
  3
ACAD_XREC_ROUNDTRIP
360
31B
  0
DICTIONARY
  5
318
330
30
100
AcDbDictionary
280
     1
281
     1
  3
ACAD_XREC_ROUNDTRIP
360
319
  0
DICTIONARY
  5
31C
330
32
100
AcDbDictionary
280
     1
281
     1
  3
ACAD_XREC_ROUNDTRIP
360
31D
  0
DICTIONARY
  5
324
330
36
100
AcDbDictionary
280
     1
281
     1
  3
ACAD_XREC_ROUNDTRIP
360
325
  0
DICTIONARY
  5
32C
330
3A
100
AcDbDictionary
280
     1
281
     1
  3
ACAD_XREC_ROUNDTRIP
360
32D
  0
DICTIONARY
  5
320
330
34
100
AcDbDictionary
280
     1
281
     1
  3
ACAD_XREC_ROUNDTRIP
360
321
  0
DICTIONARY
  5
322
330
35
100
AcDbDictionary
280
     1
281
     1
  3
ACAD_XREC_ROUNDTRIP
360
323
  0
DICTIONARY
  5
32A
330
39
100
AcDbDictionary
280
     1
281
     1
  3
ACAD_XREC_ROUNDTRIP
360
32B
  0
DICTIONARY
  5
30E
330
2B
100
AcDbDictionary
280
     1
281
     1
  3
ACAD_XREC_ROUNDTRIP
360
30F
  0
DICTIONARY
  5
310
330
2C
100
AcDbDictionary
280
     1
281
     1
  3
ACAD_XREC_ROUNDTRIP
360
311
  0
DICTIONARY
  5
312
330
2D
100
AcDbDictionary
280
     1
281
     1
  3
ACAD_XREC_ROUNDTRIP
360
313
  0
DICTIONARY
  5
314
330
2E
100
AcDbDictionary
280
     1
281
     1
  3
ACAD_XREC_ROUNDTRIP
360
315
  0
DICTIONARY
  5
328
330
38
100
AcDbDictionary
280
     1
281
     1
  3
ACAD_XREC_ROUNDTRIP
360
329
  0
DICTIONARY
  5
31E
330
33
100
AcDbDictionary
280
     1
281
     1
  3
ACAD_XREC_ROUNDTRIP
360
31F
  0
DICTIONARY
  5
326
330
37
100
AcDbDictionary
280
     1
281
     1
  3
ACAD_XREC_ROUNDTRIP
360
327
  0
XRECORD
  5
331
102
{ACAD_REACTORS
330
330
102
}
330
330
100
AcDbXrecord
280
     1
102
MATERIAL
148
0.0
149
0.0
149
0.0
 93
        0
 94
      127
282
     0
 72
     1
 77
     1
171
     1
175
     1
179
     1
273
     0
  0
XRECORD
  5
32F
102
{ACAD_REACTORS
330
32E
102
}
330
32E
100
AcDbXrecord
280
     1
102
MATERIAL
148
0.0
149
0.0
149
0.0
 93
        0
 94
      127
282
     0
 72
     1
 77
     1
171
     1
175
     1
179
     1
273
     0
  0
XRECORD
  5
333
102
{ACAD_REACTORS
330
332
102
}
330
332
100
AcDbXrecord
280
     1
102
MATERIAL
148
0.0
149
0.0
149
0.0
 93
        0
 94
      127
282
     0
 72
     1
 77
     1
171
     1
175
     1
179
     1
273
     0
  0
XRECORD
  5
317
102
{ACAD_REACTORS
330
316
102
}
330
316
100
AcDbXrecord
280
     1
102
RTVSPropertyOp0
 70
     1
102
RTVSPropertyOp1
 70
     1
102
RTVSPropertyOp2
 70
     1
102
RTVSPropertyOp3
 70
     1
102
RTVSPropertyOp4
 70
     1
102
RTVSPropertyOp5
 70
     1
102
RTVSPropertyOp6
 70
     1
102
RTVSPropertyOp7
 70
     1
102
RTVSPropertyOp8
 70
     1
102
RTVSPropertyOp9
 70
     1
102
RTVSPropertyOp10
 70
     1
102
RTVSPropertyOp11
 70
     1
102
RTVSPropertyOp12
 70
     1
102
RTVSPropertyOp13
 70
     1
102
RTVSPropertyOp14
 70
     1
102
RTVSPropertyOp15
 70
     1
102
RTVSPropertyOp16
 70
     1
102
RTVSPropertyOp17
 70
     1
102
RTVSPropertyOp18
 70
     1
102
RTVSPropertyOp19
 70
     1
102
RTVSPropertyOp20
 70
     1
102
RTVSPropertyOp21
 70
     1
102
RTVSPropertyOp22
 70
     1
102
RTVSPropertyOp23
 70
     1
102
RTVSPropertyOp24
 70
     1
102
RTVSPropertyOp25
 70
     1
102
RTVSPropertyOp26
 70
     1
102
RTVSPropertyOp27
 70
     1
102
RTVSPropertyOp28
 70
     1
102
RTVSPropertyOp29
 70
     1
102
RTVSPropertyOp30
 70
     1
102
RTVSPropertyOp31
 70
     1
102
RTVSPropertyOp32
 70
     1
  0
XRECORD
  5
31B
102
{ACAD_REACTORS
330
31A
102
}
330
31A
100
AcDbXrecord
280
     1
102
RTVSPropertyOp0
 70
     1
102
RTVSPropertyOp1
 70
     1
102
RTVSPropertyOp2
 70
     1
102
RTVSPropertyOp3
 70
     1
102
RTVSPropertyOp4
 70
     1
102
RTVSPropertyOp5
 70
     1
102
RTVSPropertyOp6
 70
     1
102
RTVSPropertyOp7
 70
     1
102
RTVSPropertyOp8
 70
     1
102
RTVSPropertyOp9
 70
     1
102
RTVSPropertyOp10
 70
     1
102
RTVSPropertyOp11
 70
     1
102
RTVSPropertyOp12
 70
     1
102
RTVSPropertyOp13
 70
     1
102
RTVSPropertyOp14
 70
     1
102
RTVSPropertyOp15
 70
     1
102
RTVSPropertyOp16
 70
     1
102
RTVSPropertyOp17
 70
     1
102
RTVSPropertyOp18
 70
     1
102
RTVSPropertyOp19
 70
     1
102
RTVSPropertyOp20
 70
     1
102
RTVSPropertyOp21
 70
     1
102
RTVSPropertyOp22
 70
     1
102
RTVSPropertyOp23
 70
     1
102
RTVSPropertyOp24
 70
     1
102
RTVSPropertyOp25
 70
     1
102
RTVSPropertyOp26
 70
     1
102
RTVSPropertyOp27
 70
     1
102
RTVSPropertyOp28
 70
     1
102
RTVSPropertyOp29
 70
     1
102
RTVSPropertyOp30
 70
     1
102
RTVSPropertyOp31
 70
     1
102
RTVSPropertyOp32
 70
     1
  0
XRECORD
  5
319
102
{ACAD_REACTORS
330
318
102
}
330
318
100
AcDbXrecord
280
     1
102
RTVSPropertyOp0
 70
     1
102
RTVSPropertyOp1
 70
     1
102
RTVSPropertyOp2
 70
     1
102
RTVSPropertyOp3
 70
     1
102
RTVSPropertyOp4
 70
     1
102
RTVSPropertyOp5
 70
     1
102
RTVSPropertyOp6
 70
     1
102
RTVSPropertyOp7
 70
     1
102
RTVSPropertyOp8
 70
     1
102
RTVSPropertyOp9
 70
     1
102
RTVSPropertyOp10
 70
     1
102
RTVSPropertyOp11
 70
     1
102
RTVSPropertyOp12
 70
     1
102
RTVSPropertyOp13
 70
     1
102
RTVSPropertyOp14
 70
     1
102
RTVSPropertyOp15
 70
     1
102
RTVSPropertyOp16
 70
     1
102
RTVSPropertyOp17
 70
     1
102
RTVSPropertyOp18
 70
     1
102
RTVSPropertyOp19
 70
     1
102
RTVSPropertyOp20
 70
     1
102
RTVSPropertyOp21
 70
     1
102
RTVSPropertyOp22
 70
     1
102
RTVSPropertyOp23
 70
     1
102
RTVSPropertyOp24
 70
     1
102
RTVSPropertyOp25
 70
     1
102
RTVSPropertyOp26
 70
     1
102
RTVSPropertyOp27
 70
     1
102
RTVSPropertyOp28
 70
     1
102
RTVSPropertyOp29
 70
     1
102
RTVSPropertyOp30
 70
     1
102
RTVSPropertyOp31
 70
     1
102
RTVSPropertyOp32
 70
     1
  0
XRECORD
  5
31D
102
{ACAD_REACTORS
330
31C
102
}
330
31C
100
AcDbXrecord
280
     1
102
RTVSPropertyOp0
 70
     1
102
RTVSPropertyOp1
 70
     1
102
RTVSPropertyOp2
 70
     1
102
RTVSPropertyOp3
 70
     1
102
RTVSPropertyOp4
 70
     1
102
RTVSPropertyOp5
 70
     1
102
RTVSPropertyOp6
 70
     1
102
RTVSPropertyOp7
 70
     1
102
RTVSPropertyOp8
 70
     1
102
RTVSPropertyOp9
 70
     1
102
RTVSPropertyOp10
 70
     1
102
RTVSPropertyOp11
 70
     1
102
RTVSPropertyOp12
 70
     1
102
RTVSPropertyOp13
 70
     1
102
RTVSPropertyOp14
 70
     1
102
RTVSPropertyOp15
 70
     1
102
RTVSPropertyOp16
 70
     1
102
RTVSPropertyOp17
 70
     1
102
RTVSPropertyOp18
 70
     1
102
RTVSPropertyOp19
 70
     1
102
RTVSPropertyOp20
 70
     1
102
RTVSPropertyOp21
 70
     1
102
RTVSPropertyOp22
 70
     1
102
RTVSPropertyOp23
 70
     1
102
RTVSPropertyOp24
 70
     1
102
RTVSPropertyOp25
 70
     1
102
RTVSPropertyOp26
 70
     1
102
RTVSPropertyOp27
 70
     1
102
RTVSPropertyOp28
 70
     1
102
RTVSPropertyOp29
 70
     1
102
RTVSPropertyOp30
 70
     1
102
RTVSPropertyOp31
 70
     1
102
RTVSPropertyOp32
 70
     1
  0
XRECORD
  5
325
102
{ACAD_REACTORS
330
324
102
}
330
324
100
AcDbXrecord
280
     1
102
RTVSPropertyOp0
 70
     1
102
RTVSPropertyOp1
 70
     1
102
RTVSPropertyOp2
 70
     1
102
RTVSPropertyOp3
 70
     1
102
RTVSPropertyOp4
 70
     1
102
RTVSPropertyOp5
 70
     1
102
RTVSPropertyOp6
 70
     1
102
RTVSPropertyOp7
 70
     1
102
RTVSPropertyOp8
 70
     1
102
RTVSPropertyOp9
 70
     1
102
RTVSPropertyOp10
 70
     1
102
RTVSPropertyOp11
 70
     1
102
RTVSPropertyOp12
 70
     1
102
RTVSPropertyOp13
 70
     1
102
RTVSPropertyOp14
 70
     1
102
RTVSPropertyOp15
 70
     1
102
RTVSPropertyOp16
 70
     1
102
RTVSPropertyOp17
 70
     1
102
RTVSPropertyOp18
 70
     1
102
RTVSPropertyOp19
 70
     1
102
RTVSPropertyOp20
 70
     1
102
RTVSPropertyOp21
 70
     1
102
RTVSPropertyOp22
 70
     1
102
RTVSPropertyOp23
 70
     1
102
RTVSPropertyOp24
 70
     1
102
RTVSPropertyOp25
 70
     1
102
RTVSPropertyOp26
 70
     1
102
RTVSPropertyOp27
 70
     1
102
RTVSPropertyOp28
 70
     1
102
RTVSPropertyOp29
 70
     1
102
RTVSPropertyOp30
 70
     1
102
RTVSPropertyOp31
 70
     1
102
RTVSPropertyOp32
 70
     1
  0
XRECORD
  5
32D
102
{ACAD_REACTORS
330
32C
102
}
330
32C
100
AcDbXrecord
280
     1
102
RTVSPropertyOp0
 70
     1
102
RTVSPropertyOp1
 70
     1
102
RTVSPropertyOp2
 70
     1
102
RTVSPropertyOp3
 70
     1
102
RTVSPropertyOp4
 70
     1
102
RTVSPropertyOp5
 70
     1
102
RTVSPropertyOp6
 70
     1
102
RTVSPropertyOp7
 70
     1
102
RTVSPropertyOp8
 70
     1
102
RTVSPropertyOp9
 70
     1
102
RTVSPropertyOp10
 70
     1
102
RTVSPropertyOp11
 70
     1
102
RTVSPropertyOp12
 70
     1
102
RTVSPropertyOp13
 70
     1
102
RTVSPropertyOp14
 70
     1
102
RTVSPropertyOp15
 70
     1
102
RTVSPropertyOp16
 70
     1
102
RTVSPropertyOp17
 70
     1
102
RTVSPropertyOp18
 70
     1
102
RTVSPropertyOp19
 70
     1
102
RTVSPropertyOp20
 70
     1
102
RTVSPropertyOp21
 70
     1
102
RTVSPropertyOp22
 70
     1
102
RTVSPropertyOp23
 70
     1
102
RTVSPropertyOp24
 70
     1
102
RTVSPropertyOp25
 70
     1
102
RTVSPropertyOp26
 70
     1
102
RTVSPropertyOp27
 70
     1
102
RTVSPropertyOp28
 70
     1
102
RTVSPropertyOp29
 70
     1
102
RTVSPropertyOp30
 70
     1
102
RTVSPropertyOp31
 70
     1
102
RTVSPropertyOp32
 70
     1
  0
XRECORD
  5
321
102
{ACAD_REACTORS
330
320
102
}
330
320
100
AcDbXrecord
280
     1
102
RTVSPropertyOp0
 70
     1
102
RTVSPropertyOp1
 70
     1
102
RTVSPropertyOp2
 70
     1
102
RTVSPropertyOp3
 70
     1
102
RTVSPropertyOp4
 70
     1
102
RTVSPropertyOp5
 70
     1
102
RTVSPropertyOp6
 70
     1
102
RTVSPropertyOp7
 70
     1
102
RTVSPropertyOp8
 70
     1
102
RTVSPropertyOp9
 70
     1
102
RTVSPropertyOp10
 70
     1
102
RTVSPropertyOp11
 70
     1
102
RTVSPropertyOp12
 70
     1
102
RTVSPropertyOp13
 70
     1
102
RTVSPropertyOp14
 70
     1
102
RTVSPropertyOp15
 70
     1
102
RTVSPropertyOp16
 70
     1
102
RTVSPropertyOp17
 70
     1
102
RTVSPropertyOp18
 70
     1
102
RTVSPropertyOp19
 70
     1
102
RTVSPropertyOp20
 70
     1
102
RTVSPropertyOp21
 70
     1
102
RTVSPropertyOp22
 70
     1
102
RTVSPropertyOp23
 70
     1
102
RTVSPropertyOp24
 70
     1
102
RTVSPropertyOp25
 70
     1
102
RTVSPropertyOp26
 70
     1
102
RTVSPropertyOp27
 70
     1
102
RTVSPropertyOp28
 70
     1
102
RTVSPropertyOp29
 70
     1
102
RTVSPropertyOp30
 70
     1
102
RTVSPropertyOp31
 70
     1
102
RTVSPropertyOp32
 70
     1
  0
XRECORD
  5
323
102
{ACAD_REACTORS
330
322
102
}
330
322
100
AcDbXrecord
280
     1
102
RTVSPropertyOp0
 70
     1
102
RTVSPropertyOp1
 70
     1
102
RTVSPropertyOp2
 70
     1
102
RTVSPropertyOp3
 70
     1
102
RTVSPropertyOp4
 70
     1
102
RTVSPropertyOp5
 70
     1
102
RTVSPropertyOp6
 70
     1
102
RTVSPropertyOp7
 70
     1
102
RTVSPropertyOp8
 70
     1
102
RTVSPropertyOp9
 70
     1
102
RTVSPropertyOp10
 70
     1
102
RTVSPropertyOp11
 70
     1
102
RTVSPropertyOp12
 70
     1
102
RTVSPropertyOp13
 70
     1
102
RTVSPropertyOp14
 70
     1
102
RTVSPropertyOp15
 70
     1
102
RTVSPropertyOp16
 70
     1
102
RTVSPropertyOp17
 70
     1
102
RTVSPropertyOp18
 70
     1
102
RTVSPropertyOp19
 70
     1
102
RTVSPropertyOp20
 70
     1
102
RTVSPropertyOp21
 70
     1
102
RTVSPropertyOp22
 70
     1
102
RTVSPropertyOp23
 70
     1
102
RTVSPropertyOp24
 70
     1
102
RTVSPropertyOp25
 70
     1
102
RTVSPropertyOp26
 70
     1
102
RTVSPropertyOp27
 70
     1
102
RTVSPropertyOp28
 70
     1
102
RTVSPropertyOp29
 70
     1
102
RTVSPropertyOp30
 70
     1
102
RTVSPropertyOp31
 70
     1
102
RTVSPropertyOp32
 70
     1
  0
XRECORD
  5
32B
102
{ACAD_REACTORS
330
32A
102
}
330
32A
100
AcDbXrecord
280
     1
102
RTVSPropertyOp0
 70
     1
102
RTVSPropertyOp1
 70
     1
102
RTVSPropertyOp2
 70
     1
102
RTVSPropertyOp3
 70
     1
102
RTVSPropertyOp4
 70
     1
102
RTVSPropertyOp5
 70
     1
102
RTVSPropertyOp6
 70
     1
102
RTVSPropertyOp7
 70
     1
102
RTVSPropertyOp8
 70
     1
102
RTVSPropertyOp9
 70
     1
102
RTVSPropertyOp10
 70
     1
102
RTVSPropertyOp11
 70
     1
102
RTVSPropertyOp12
 70
     1
102
RTVSPropertyOp13
 70
     1
102
RTVSPropertyOp14
 70
     1
102
RTVSPropertyOp15
 70
     1
102
RTVSPropertyOp16
 70
     1
102
RTVSPropertyOp17
 70
     1
102
RTVSPropertyOp18
 70
     1
102
RTVSPropertyOp19
 70
     1
102
RTVSPropertyOp20
 70
     1
102
RTVSPropertyOp21
 70
     1
102
RTVSPropertyOp22
 70
     1
102
RTVSPropertyOp23
 70
     1
102
RTVSPropertyOp24
 70
     1
102
RTVSPropertyOp25
 70
     1
102
RTVSPropertyOp26
 70
     1
102
RTVSPropertyOp27
 70
     1
102
RTVSPropertyOp28
 70
     1
102
RTVSPropertyOp29
 70
     1
102
RTVSPropertyOp30
 70
     1
102
RTVSPropertyOp31
 70
     1
102
RTVSPropertyOp32
 70
     1
  0
XRECORD
  5
30F
102
{ACAD_REACTORS
330
30E
102
}
330
30E
100
AcDbXrecord
280
     1
102
RTVSPropertyOp0
 70
     1
102
RTVSPropertyOp1
 70
     1
102
RTVSPropertyOp2
 70
     1
102
RTVSPropertyOp3
 70
     1
102
RTVSPropertyOp4
 70
     1
102
RTVSPropertyOp5
 70
     1
102
RTVSPropertyOp6
 70
     1
102
RTVSPropertyOp7
 70
     1
102
RTVSPropertyOp8
 70
     1
102
RTVSPropertyOp9
 70
     1
102
RTVSPropertyOp10
 70
     1
102
RTVSPropertyOp11
 70
     1
102
RTVSPropertyOp12
 70
     1
102
RTVSPropertyOp13
 70
     1
102
RTVSPropertyOp14
 70
     1
102
RTVSPropertyOp15
 70
     1
102
RTVSPropertyOp16
 70
     1
102
RTVSPropertyOp17
 70
     1
102
RTVSPropertyOp18
 70
     1
102
RTVSPropertyOp19
 70
     1
102
RTVSPropertyOp20
 70
     1
102
RTVSPropertyOp21
 70
     1
102
RTVSPropertyOp22
 70
     1
102
RTVSPropertyOp23
 70
     1
102
RTVSPropertyOp24
 70
     1
102
RTVSPropertyOp25
 70
     1
102
RTVSPropertyOp26
 70
     1
102
RTVSPropertyOp27
 70
     1
102
RTVSPropertyOp28
 70
     1
102
RTVSPropertyOp29
 70
     1
102
RTVSPropertyOp30
 70
     1
102
RTVSPropertyOp31
 70
     1
102
RTVSPropertyOp32
 70
     1
  0
XRECORD
  5
311
102
{ACAD_REACTORS
330
310
102
}
330
310
100
AcDbXrecord
280
     1
102
RTVSPropertyOp0
 70
     1
102
RTVSPropertyOp1
 70
     1
102
RTVSPropertyOp2
 70
     1
102
RTVSPropertyOp3
 70
     1
102
RTVSPropertyOp4
 70
     1
102
RTVSPropertyOp5
 70
     1
102
RTVSPropertyOp6
 70
     1
102
RTVSPropertyOp7
 70
     1
102
RTVSPropertyOp8
 70
     1
102
RTVSPropertyOp9
 70
     1
102
RTVSPropertyOp10
 70
     1
102
RTVSPropertyOp11
 70
     1
102
RTVSPropertyOp12
 70
     1
102
RTVSPropertyOp13
 70
     1
102
RTVSPropertyOp14
 70
     1
102
RTVSPropertyOp15
 70
     1
102
RTVSPropertyOp16
 70
     1
102
RTVSPropertyOp17
 70
     1
102
RTVSPropertyOp18
 70
     1
102
RTVSPropertyOp19
 70
     1
102
RTVSPropertyOp20
 70
     1
102
RTVSPropertyOp21
 70
     1
102
RTVSPropertyOp22
 70
     1
102
RTVSPropertyOp23
 70
     1
102
RTVSPropertyOp24
 70
     1
102
RTVSPropertyOp25
 70
     1
102
RTVSPropertyOp26
 70
     1
102
RTVSPropertyOp27
 70
     1
102
RTVSPropertyOp28
 70
     1
102
RTVSPropertyOp29
 70
     1
102
RTVSPropertyOp30
 70
     1
102
RTVSPropertyOp31
 70
     1
102
RTVSPropertyOp32
 70
     1
  0
XRECORD
  5
313
102
{ACAD_REACTORS
330
312
102
}
330
312
100
AcDbXrecord
280
     1
102
RTVSPropertyOp0
 70
     1
102
RTVSPropertyOp1
 70
     1
102
RTVSPropertyOp2
 70
     1
102
RTVSPropertyOp3
 70
     1
102
RTVSPropertyOp4
 70
     1
102
RTVSPropertyOp5
 70
     1
102
RTVSPropertyOp6
 70
     1
102
RTVSPropertyOp7
 70
     1
102
RTVSPropertyOp8
 70
     1
102
RTVSPropertyOp9
 70
     1
102
RTVSPropertyOp10
 70
     1
102
RTVSPropertyOp11
 70
     1
102
RTVSPropertyOp12
 70
     1
102
RTVSPropertyOp13
 70
     1
102
RTVSPropertyOp14
 70
     1
102
RTVSPropertyOp15
 70
     1
102
RTVSPropertyOp16
 70
     1
102
RTVSPropertyOp17
 70
     1
102
RTVSPropertyOp18
 70
     1
102
RTVSPropertyOp19
 70
     1
102
RTVSPropertyOp20
 70
     1
102
RTVSPropertyOp21
 70
     1
102
RTVSPropertyOp22
 70
     1
102
RTVSPropertyOp23
 70
     1
102
RTVSPropertyOp24
 70
     1
102
RTVSPropertyOp25
 70
     1
102
RTVSPropertyOp26
 70
     1
102
RTVSPropertyOp27
 70
     1
102
RTVSPropertyOp28
 70
     1
102
RTVSPropertyOp29
 70
     1
102
RTVSPropertyOp30
 70
     1
102
RTVSPropertyOp31
 70
     1
102
RTVSPropertyOp32
 70
     1
  0
XRECORD
  5
315
102
{ACAD_REACTORS
330
314
102
}
330
314
100
AcDbXrecord
280
     1
102
RTVSPropertyOp0
 70
     1
102
RTVSPropertyOp1
 70
     1
102
RTVSPropertyOp2
 70
     1
102
RTVSPropertyOp3
 70
     1
102
RTVSPropertyOp4
 70
     1
102
RTVSPropertyOp5
 70
     1
102
RTVSPropertyOp6
 70
     1
102
RTVSPropertyOp7
 70
     1
102
RTVSPropertyOp8
 70
     1
102
RTVSPropertyOp9
 70
     1
102
RTVSPropertyOp10
 70
     1
102
RTVSPropertyOp11
 70
     1
102
RTVSPropertyOp12
 70
     1
102
RTVSPropertyOp13
 70
     1
102
RTVSPropertyOp14
 70
     1
102
RTVSPropertyOp15
 70
     1
102
RTVSPropertyOp16
 70
     1
102
RTVSPropertyOp17
 70
     1
102
RTVSPropertyOp18
 70
     1
102
RTVSPropertyOp19
 70
     1
102
RTVSPropertyOp20
 70
     1
102
RTVSPropertyOp21
 70
     1
102
RTVSPropertyOp22
 70
     1
102
RTVSPropertyOp23
 70
     1
102
RTVSPropertyOp24
 70
     1
102
RTVSPropertyOp25
 70
     1
102
RTVSPropertyOp26
 70
     1
102
RTVSPropertyOp27
 70
     1
102
RTVSPropertyOp28
 70
     1
102
RTVSPropertyOp29
 70
     1
102
RTVSPropertyOp30
 70
     1
102
RTVSPropertyOp31
 70
     1
102
RTVSPropertyOp32
 70
     1
  0
XRECORD
  5
329
102
{ACAD_REACTORS
330
328
102
}
330
328
100
AcDbXrecord
280
     1
102
RTVSPropertyOp0
 70
     1
102
RTVSPropertyOp1
 70
     1
102
RTVSPropertyOp2
 70
     1
102
RTVSPropertyOp3
 70
     1
102
RTVSPropertyOp4
 70
     1
102
RTVSPropertyOp5
 70
     1
102
RTVSPropertyOp6
 70
     1
102
RTVSPropertyOp7
 70
     1
102
RTVSPropertyOp8
 70
     1
102
RTVSPropertyOp9
 70
     1
102
RTVSPropertyOp10
 70
     1
102
RTVSPropertyOp11
 70
     1
102
RTVSPropertyOp12
 70
     1
102
RTVSPropertyOp13
 70
     1
102
RTVSPropertyOp14
 70
     1
102
RTVSPropertyOp15
 70
     1
102
RTVSPropertyOp16
 70
     1
102
RTVSPropertyOp17
 70
     1
102
RTVSPropertyOp18
 70
     1
102
RTVSPropertyOp19
 70
     1
102
RTVSPropertyOp20
 70
     1
102
RTVSPropertyOp21
 70
     1
102
RTVSPropertyOp22
 70
     1
102
RTVSPropertyOp23
 70
     1
102
RTVSPropertyOp24
 70
     1
102
RTVSPropertyOp25
 70
     1
102
RTVSPropertyOp26
 70
     1
102
RTVSPropertyOp27
 70
     1
102
RTVSPropertyOp28
 70
     1
102
RTVSPropertyOp29
 70
     1
102
RTVSPropertyOp30
 70
     1
102
RTVSPropertyOp31
 70
     1
102
RTVSPropertyOp32
 70
     1
  0
XRECORD
  5
31F
102
{ACAD_REACTORS
330
31E
102
}
330
31E
100
AcDbXrecord
280
     1
102
RTVSPropertyOp0
 70
     1
102
RTVSPropertyOp1
 70
     1
102
RTVSPropertyOp2
 70
     1
102
RTVSPropertyOp3
 70
     1
102
RTVSPropertyOp4
 70
     1
102
RTVSPropertyOp5
 70
     1
102
RTVSPropertyOp6
 70
     1
102
RTVSPropertyOp7
 70
     1
102
RTVSPropertyOp8
 70
     1
102
RTVSPropertyOp9
 70
     1
102
RTVSPropertyOp10
 70
     1
102
RTVSPropertyOp11
 70
     1
102
RTVSPropertyOp12
 70
     1
102
RTVSPropertyOp13
 70
     1
102
RTVSPropertyOp14
 70
     1
102
RTVSPropertyOp15
 70
     1
102
RTVSPropertyOp16
 70
     1
102
RTVSPropertyOp17
 70
     1
102
RTVSPropertyOp18
 70
     1
102
RTVSPropertyOp19
 70
     1
102
RTVSPropertyOp20
 70
     1
102
RTVSPropertyOp21
 70
     1
102
RTVSPropertyOp22
 70
     1
102
RTVSPropertyOp23
 70
     1
102
RTVSPropertyOp24
 70
     1
102
RTVSPropertyOp25
 70
     1
102
RTVSPropertyOp26
 70
     1
102
RTVSPropertyOp27
 70
     1
102
RTVSPropertyOp28
 70
     1
102
RTVSPropertyOp29
 70
     1
102
RTVSPropertyOp30
 70
     1
102
RTVSPropertyOp31
 70
     1
102
RTVSPropertyOp32
 70
     1
  0
XRECORD
  5
327
102
{ACAD_REACTORS
330
326
102
}
330
326
100
AcDbXrecord
280
     1
102
RTVSPropertyOp0
 70
     1
102
RTVSPropertyOp1
 70
     1
102
RTVSPropertyOp2
 70
     1
102
RTVSPropertyOp3
 70
     1
102
RTVSPropertyOp4
 70
     1
102
RTVSPropertyOp5
 70
     1
102
RTVSPropertyOp6
 70
     1
102
RTVSPropertyOp7
 70
     1
102
RTVSPropertyOp8
 70
     1
102
RTVSPropertyOp9
 70
     1
102
RTVSPropertyOp10
 70
     1
102
RTVSPropertyOp11
 70
     1
102
RTVSPropertyOp12
 70
     1
102
RTVSPropertyOp13
 70
     1
102
RTVSPropertyOp14
 70
     1
102
RTVSPropertyOp15
 70
     1
102
RTVSPropertyOp16
 70
     1
102
RTVSPropertyOp17
 70
     1
102
RTVSPropertyOp18
 70
     1
102
RTVSPropertyOp19
 70
     1
102
RTVSPropertyOp20
 70
     1
102
RTVSPropertyOp21
 70
     1
102
RTVSPropertyOp22
 70
     1
102
RTVSPropertyOp23
 70
     1
102
RTVSPropertyOp24
 70
     1
102
RTVSPropertyOp25
 70
     1
102
RTVSPropertyOp26
 70
     1
102
RTVSPropertyOp27
 70
     1
102
RTVSPropertyOp28
 70
     1
102
RTVSPropertyOp29
 70
     1
102
RTVSPropertyOp30
 70
     1
102
RTVSPropertyOp31
 70
     1
102
RTVSPropertyOp32
 70
     1
  0
ENDSEC
  0
EOF
