  0
SECTION
  2
HEADER
  9
$ACADVER
  1
AC1015
  9
$ACADMAINTVER
 70
     6
  9
$DWGCODEPAGE
  3
ANSI_932
  9
$INSBASE
 10
0.0
 20
0.0
 30
0.0
  9
$EXTMIN
 10
0.0
 20
0.0
 30
0.0
  9
$EXTMAX
 10
210.0
 20
297.0
 30
0.0
  9
$LIMMIN
 10
0.0
 20
0.0
  9
$LIMMAX
 10
12.0
 20
9.0
  9
$ORTHOMODE
 70
     0
  9
$REGENMODE
 70
     1
  9
$FILLMODE
 70
     1
  9
$QTEXTMODE
 70
     0
  9
$MIRRTEXT
 70
     1
  9
$LTSCALE
 40
1.0
  9
$ATTMODE
 70
     1
  9
$TEXTSIZE
 40
0.2
  9
$TRACEWID
 40
0.05
  9
$TEXTSTYLE
  7
Standard
  9
$CLAYER
  8
0
  9
$CELTYPE
  6
ByLayer
  9
$CECOLOR
 62
   256
  9
$CELTSCALE
 40
1.0
  9
$DISPSILH
 70
     0
  9
$DIMSCALE
 40
1.0
  9
$DIMASZ
 40
0.18
  9
$DIMEXO
 40
0.0625
  9
$DIMDLI
 40
0.38
  9
$DIMRND
 40
0.0
  9
$DIMDLE
 40
0.0
  9
$DIMEXE
 40
0.18
  9
$DIMTP
 40
0.0
  9
$DIMTM
 40
0.0
  9
$DIMTXT
 40
0.18
  9
$DIMCEN
 40
0.09
  9
$DIMTSZ
 40
0.0
  9
$DIMTOL
 70
     0
  9
$DIMLIM
 70
     0
  9
$DIMTIH
 70
     1
  9
$DIMTOH
 70
     1
  9
$DIMSE1
 70
     0
  9
$DIMSE2
 70
     0
  9
$DIMTAD
 70
     0
  9
$DIMZIN
 70
     0
  9
$DIMBLK
  1

  9
$DIMASO
 70
     1
  9
$DIMSHO
 70
     1
  9
$DIMPOST
  1

  9
$DIMAPOST
  1

  9
$DIMALT
 70
     0
  9
$DIMALTD
 70
     2
  9
$DIMALTF
 40
25.4
  9
$DIMLFAC
 40
1.0
  9
$DIMTOFL
 70
     0
  9
$DIMTVP
 40
0.0
  9
$DIMTIX
 70
     0
  9
$DIMSOXD
 70
     0
  9
$DIMSAH
 70
     0
  9
$DIMBLK1
  1

  9
$DIMBLK2
  1

  9
$DIMSTYLE
  2
Standard
  9
$DIMCLRD
 70
     0
  9
$DIMCLRE
 70
     0
  9
$DIMCLRT
 70
     0
  9
$DIMTFAC
 40
1.0
  9
$DIMGAP
 40
0.09
  9
$DIMJUST
 70
     0
  9
$DIMSD1
 70
     0
  9
$DIMSD2
 70
     0
  9
$DIMTOLJ
 70
     1
  9
$DIMTZIN
 70
     0
  9
$DIMALTZ
 70
     0
  9
$DIMALTTZ
 70
     0
  9
$DIMUPT
 70
     0
  9
$DIMDEC
 70
     4
  9
$DIMTDEC
 70
     4
  9
$DIMALTU
 70
     2
  9
$DIMALTTD
 70
     2
  9
$DIMTXSTY
  7
Standard
  9
$DIMAUNIT
 70
     0
  9
$DIMADEC
 70
     0
  9
$DIMALTRND
 40
0.0
  9
$DIMAZIN
 70
     0
  9
$DIMDSEP
 70
    46
  9
$DIMATFIT
 70
     3
  9
$DIMFRAC
 70
     0
  9
$DIMLDRBLK
  1

  9
$DIMLUNIT
 70
     2
  9
$DIMLWD
 70
    -2
  9
$DIMLWE
 70
    -2
  9
$DIMTMOVE
 70
     0
  9
$LUNITS
 70
     2
  9
$LUPREC
 70
     4
  9
$SKETCHINC
 40
0.1
  9
$FILLETRAD
 40
0.5
  9
$AUNITS
 70
     0
  9
$AUPREC
 70
     0
  9
$MENU
  1
.
  9
$ELEVATION
 40
0.0
  9
$PELEVATION
 40
0.0
  9
$THICKNESS
 40
0.0
  9
$LIMCHECK
 70
     0
  9
$CHAMFERA
 40
0.5
  9
$CHAMFERB
 40
0.5
  9
$CHAMFERC
 40
1.0
  9
$CHAMFERD
 40
0.0
  9
$SKPOLY
 70
     0
  9
$TDCREATE
 40
2457529.433591215
  9
$TDUCREATE
 40
2457529.058591215
  9
$TDUPDATE
 40
2457529.433592118
  9
$TDUUPDATE
 40
2457529.058592118
  9
$TDINDWG
 40
0.0000000116
  9
$TDUSRTIMER
 40
0.0000000116
  9
$USRTIMER
 70
     1
  9
$ANGBASE
 50
0.0
  9
$ANGDIR
 70
     0
  9
$PDMODE
 70
     0
  9
$PDSIZE
 40
0.0
  9
$PLINEWID
 40
0.0
  9
$SPLFRAME
 70
     0
  9
$SPLINETYPE
 70
     6
  9
$SPLINESEGS
 70
     8
  9
$HANDSEED
  5
243
  9
$SURFTAB1
 70
     6
  9
$SURFTAB2
 70
     6
  9
$SURFTYPE
 70
     6
  9
$SURFU
 70
     6
  9
$SURFV
 70
     6
  9
$UCSBASE
  2

  9
$UCSNAME
  2

  9
$UCSORG
 10
0.0
 20
0.0
 30
0.0
  9
$UCSXDIR
 10
1.0
 20
0.0
 30
0.0
  9
$UCSYDIR
 10
0.0
 20
1.0
 30
0.0
  9
$UCSORTHOREF
  2

  9
$UCSORTHOVIEW
 70
     0
  9
$UCSORGTOP
 10
0.0
 20
0.0
 30
0.0
  9
$UCSORGBOTTOM
 10
0.0
 20
0.0
 30
0.0
  9
$UCSORGLEFT
 10
0.0
 20
0.0
 30
0.0
  9
$UCSORGRIGHT
 10
0.0
 20
0.0
 30
0.0
  9
$UCSORGFRONT
 10
0.0
 20
0.0
 30
0.0
  9
$UCSORGBACK
 10
0.0
 20
0.0
 30
0.0
  9
$PUCSBASE
  2

  9
$PUCSNAME
  2

  9
$PUCSORG
 10
0.0
 20
0.0
 30
0.0
  9
$PUCSXDIR
 10
1.0
 20
0.0
 30
0.0
  9
$PUCSYDIR
 10
0.0
 20
1.0
 30
0.0
  9
$PUCSORTHOREF
  2

  9
$PUCSORTHOVIEW
 70
     0
  9
$PUCSORGTOP
 10
0.0
 20
0.0
 30
0.0
  9
$PUCSORGBOTTOM
 10
0.0
 20
0.0
 30
0.0
  9
$PUCSORGLEFT
 10
0.0
 20
0.0
 30
0.0
  9
$PUCSORGRIGHT
 10
0.0
 20
0.0
 30
0.0
  9
$PUCSORGFRONT
 10
0.0
 20
0.0
 30
0.0
  9
$PUCSORGBACK
 10
0.0
 20
0.0
 30
0.0
  9
$USERI1
 70
     0
  9
$USERI2
 70
     0
  9
$USERI3
 70
     0
  9
$USERI4
 70
     0
  9
$USERI5
 70
     0
  9
$USERR1
 40
18.1
  9
$USERR2
 40
0.0
  9
$USERR3
 40
0.0
  9
$USERR4
 40
0.0
  9
$USERR5
 40
0.0
  9
$WORLDVIEW
 70
     1
  9
$SHADEDGE
 70
     3
  9
$SHADEDIF
 70
    70
  9
$TILEMODE
 70
     1
  9
$MAXACTVP
 70
    64
  9
$PINSBASE
 10
0.0
 20
0.0
 30
0.0
  9
$PLIMCHECK
 70
     0
  9
$PEXTMIN
 10
1.00000000000000E+20
 20
1.00000000000000E+20
 30
1.00000000000000E+20
  9
$PEXTMAX
 10
-1.00000000000000E+20
 20
-1.00000000000000E+20
 30
-1.00000000000000E+20
  9
$PLIMMIN
 10
0.0
 20
0.0
  9
$PLIMMAX
 10
12.0
 20
9.0
  9
$UNITMODE
 70
     0
  9
$VISRETAIN
 70
     1
  9
$PLINEGEN
 70
     0
  9
$PSLTSCALE
 70
     1
  9
$TREEDEPTH
 70
  3020
  9
$CMLSTYLE
  2
Standard
  9
$CMLJUST
 70
     0
  9
$CMLSCALE
 40
1.0
  9
$PROXYGRAPHICS
 70
     1
  9
$MEASUREMENT
 70
     1
  9
$CELWEIGHT
370
    -1
  9
$ENDCAPS
280
     0
  9
$JOINSTYLE
280
     0
  9
$LWDISPLAY
290
     0
  9
$INSUNITS
 70
     4
  9
$HYPERLINKBASE
  1

  9
$STYLESHEET
  1

  9
$XEDIT
290
     1
  9
$CEPSNTYPE
380
     0
  9
$PSTYLEMODE
290
     1
  9
$FINGERPRINTGUID
  2
{B9A2402F-B219-4168-B382-BA5FCB6CC0EF}
  9
$VERSIONGUID
  2
{FAEB1C32-E019-11D5-929B-00C0DF256EC4}
  9
$EXTNAMES
290
     1
  9
$PSVPSCALE
 40
0.0
  9
$OLESTARTUP
290
     0
  0
ENDSEC
  0
SECTION
  2
CLASSES
  0
CLASS
  1
ACDBDICTIONARYWDFLT
  2
AcDbDictionaryWithDefault
  3
ObjectDBX Classes
 90
        0
280
     0
281
     0
  0
CLASS
  1
VISUALSTYLE
  2
AcDbVisualStyle
  3
ObjectDBX Classes
 90
     4095
280
     0
281
     0
  0
CLASS
  1
MATERIAL
  2
AcDbMaterial
  3
ObjectDBX Classes
 90
     1153
280
     0
281
     0
  0
CLASS
  1
DICTIONARYVAR
  2
AcDbDictionaryVar
  3
ObjectDBX Classes
 90
        0
280
     0
281
     0
  0
CLASS
  1
ACDBPLACEHOLDER
  2
AcDbPlaceHolder
  3
ObjectDBX Classes
 90
        0
280
     0
281
     0
  0
CLASS
  1
LAYOUT
  2
AcDbLayout
  3
ObjectDBX Classes
 90
        0
280
     0
281
     0
  0
ENDSEC
  0
SECTION
  2
TABLES
  0
TABLE
  2
VPORT
  5
8
330
0
100
AcDbSymbolTable
 70
     1
  0
VPORT
  5
29
330
8
100
AcDbSymbolTableRecord
100
AcDbViewportTableRecord
  2
*Active
 70
     0
 10
0.0
 20
0.0
 11
1.0
 21
1.0
 12
105.0
 22
148.5
 13
0.0
 23
0.0
 14
0.5
 24
0.5
 15
0.5
 25
0.5
 16
0.0
 26
0.0
 36
1.0
 17
0.0
 27
0.0
 37
0.0
 40
326.7
 41
1.60267857142857
 42
50.0
 43
0.0
 44
0.0
 50
0.0
 51
0.0
 71
     0
 72
   100
 73
     1
 74
     3
 75
     0
 76
     0
 77
     0
 78
     0
281
     0
 65
     1
110
0.0
120
0.0
130
0.0
111
1.0
121
0.0
131
0.0
112
0.0
122
1.0
132
0.0
 79
     0
146
0.0
  0
ENDTAB
  0
TABLE
  2
LTYPE
  5
5
330
0
100
AcDbSymbolTable
 70
     8
  0
LTYPE
  5
14
330
5
100
AcDbSymbolTableRecord
100
AcDbLinetypeTableRecord
  2
ByBlock
 70
     0
  3

 72
    65
 73
     0
 40
0.0
  0
LTYPE
  5
15
330
5
100
AcDbSymbolTableRecord
100
AcDbLinetypeTableRecord
  2
ByLayer
 70
     0
  3

 72
    65
 73
     0
 40
0.0
  0
LTYPE
  5
16
330
5
100
AcDbSymbolTableRecord
100
AcDbLinetypeTableRecord
  2
Continuous
 70
     0
  3
Solid line
 72
    65
 73
     0
 40
0.0
  0
LTYPE
  5
3F
330
5
100
AcDbSymbolTableRecord
100
AcDbLinetypeTableRecord
  2
DASHED
 70
     0
  3
Dashed
 72
    65
 73
     2
 40
15.0
 49
7.0
 74
     0
 49
-8.0
 74
     0
  0
LTYPE
  5
40
330
5
100
AcDbSymbolTableRecord
100
AcDbLinetypeTableRecord
  2
DOTTED
 70
     0
  3
Dotted
 72
    65
 73
     2
 40
1.0
 49
0.0
 74
     0
 49
-1.0
 74
     0
  0
LTYPE
  5
41
330
5
100
AcDbSymbolTableRecord
100
AcDbLinetypeTableRecord
  2
DOT_CENTER
 70
     0
  3
Dot_Center
 72
    65
 73
     4
 40
14.0
 49
12.0
 74
     0
 49
-1.0
 74
     0
 49
0.0
 74
     0
 49
-1.0
 74
     0
  0
LTYPE
  5
42
330
5
100
AcDbSymbolTableRecord
100
AcDbLinetypeTableRecord
  2
LONG_DASHED
 70
     0
  3
Long_Dashed
 72
    65
 73
     2
 40
15.0
 49
10.0
 74
     0
 49
-5.0
 74
     0
  0
LTYPE
  5
43
330
5
100
AcDbSymbolTableRecord
100
AcDbLinetypeTableRecord
  2
DASH_CENTER
 70
     0
  3
Dash_Center
 72
    65
 73
     4
 40
14.0
 49
11.0
 74
     0
 49
-1.0
 74
     0
 49
1.0
 74
     0
 49
-1.0
 74
     0
  0
LTYPE
  5
44
330
5
100
AcDbSymbolTableRecord
100
AcDbLinetypeTableRecord
  2
PHANTOM
 70
     0
  3
Phantom
 72
    65
 73
     6
 40
13.0
 49
10.0
 74
     0
 49
-1.0
 74
     0
 49
0.0
 74
     0
 49
-1.0
 74
     0
 49
0.0
 74
     0
 49
-1.0
 74
     0
  0
LTYPE
  5
45
330
5
100
AcDbSymbolTableRecord
100
AcDbLinetypeTableRecord
  2
CENTER_DASH_DASH
 70
     0
  3
Center_Dash_Dash
 72
    65
 73
     6
 40
14.0
 49
9.0
 74
     0
 49
-1.0
 74
     0
 49
1.0
 74
     0
 49
-1.0
 74
     0
 49
1.0
 74
     0
 49
-1.0
 74
     0
  0
ENDTAB
  0
TABLE
  2
LAYER
  5
2
330
0
100
AcDbSymbolTable
 70
     4
  0
LAYER
  5
10
330
2
100
AcDbSymbolTableRecord
100
AcDbLayerTableRecord
  2
0
 70
     0
 62
     7
  6
Continuous
370
    -3
390
F
  0
LAYER
  5
46
330
2
100
AcDbSymbolTableRecord
100
AcDbLayerTableRecord
  2
1
 70
     0
 62
     7
  6
Continuous
370
    -3
390
F
  0
LAYER
  5
47
330
2
100
AcDbSymbolTableRecord
100
AcDbLayerTableRecord
  2
レイヤ0
 70
     0
 62
     7
  6
Continuous
370
    -3
390
F
  0
LAYER
  5
48
330
2
100
AcDbSymbolTableRecord
100
AcDbLayerTableRecord
  2
レイヤ1
 70
     0
 62
     7
  6
Continuous
370
    -3
390
F
  0
ENDTAB
  0
TABLE
  2
STYLE
  5
3
330
0
100
AcDbSymbolTable
 70
     3
  0
STYLE
  5
11
330
3
100
AcDbSymbolTableRecord
100
AcDbTextStyleTableRecord
  2
Standard
 70
     0
 40
0.0
 41
1.0
 50
0.0
 71
     0
 42
0.2
  3
txt
  4

  0
STYLE
  5
98
330
3
100
AcDbSymbolTableRecord
100
AcDbTextStyleTableRecord
  2
CONVERTER_11
 70
     0
 40
0.0
 41
0.89
 50
0.0
 71
     0
 42
0.2
  3
MS Mincho.ttf
  4

1001
ACAD
1000
MS Mincho
1071
    32785
  0
STYLE
  5
1C4
330
3
100
AcDbSymbolTableRecord
100
AcDbTextStyleTableRecord
  2
CONVERTER_12
 70
     0
 40
0.0
 41
0.9
 50
0.0
 71
     0
 42
0.2
  3
txt.shx
  4

  0
ENDTAB
  0
TABLE
  2
VIEW
  5
6
330
0
100
AcDbSymbolTable
 70
     0
  0
ENDTAB
  0
TABLE
  2
UCS
  5
7
330
0
100
AcDbSymbolTable
 70
     0
  0
ENDTAB
  0
TABLE
  2
APPID
  5
9
330
0
100
AcDbSymbolTable
 70
     1
  0
APPID
  5
12
330
9
100
AcDbSymbolTableRecord
100
AcDbRegAppTableRecord
  2
ACAD
 70
     0
  0
ENDTAB
  0
TABLE
  2
DIMSTYLE
  5
A
330
0
100
AcDbSymbolTable
 70
     8
100
AcDbDimStyleTable
  0
DIMSTYLE
105
27
330
A
100
AcDbSymbolTableRecord
100
AcDbDimStyleTableRecord
  2
Standard
 70
     0
178
     0
340
11
  0
DIMSTYLE
105
1D4
102
{ACAD_REACTORS
330
1D5
102
}
330
A
100
AcDbSymbolTableRecord
100
AcDbDimStyleTableRecord
  2
ME10_DIM_10
 70
     0
 41
3.5
 42
0.0
 44
1.0
 73
     0
 74
     0
 77
     1
 78
     8
140
3.5
147
1.0
172
     1
173
     1
174
     1
175
     1
176
     2
177
     2
271
     2
178
     7
271
     2
340
98
  0
DIMSTYLE
105
1DF
102
{ACAD_REACTORS
330
1E0
102
}
330
A
100
AcDbSymbolTableRecord
100
AcDbDimStyleTableRecord
  2
ME10_DIM_11
 70
     0
  3
{\Fgdt;n}<>
 41
3.5
 42
0.0
 44
1.0
 73
     0
 74
     0
 77
     1
 78
     8
140
3.5
147
1.0
172
     1
173
     1
174
     1
175
     1
176
     2
177
     2
271
     2
178
     7
271
     2
340
1C4
  0
DIMSTYLE
105
1EA
102
{ACAD_REACTORS
330
1EB
102
}
330
A
100
AcDbSymbolTableRecord
100
AcDbDimStyleTableRecord
  2
ME10_DIM_12
 70
     0
 41
3.5
 42
0.0
 44
1.0
 73
     0
 74
     0
 77
     1
 78
     8
140
3.5
147
1.0
172
     1
173
     1
174
     1
175
     1
176
     2
177
     2
271
     2
178
     7
271
     2
340
1C4
  0
DIMSTYLE
105
1F5
102
{ACAD_REACTORS
330
1F6
102
}
330
A
100
AcDbSymbolTableRecord
100
AcDbDimStyleTableRecord
  2
ME10_DIM_13
 70
     0
 41
3.5
 42
0.0
 44
1.0
 73
     0
 74
     0
 77
     1
 78
     8
140
3.5
147
1.0
172
     1
173
     1
174
     1
175
     1
176
     2
177
     2
271
     2
178
     7
271
     2
340
1C4
  0
DIMSTYLE
105
200
102
{ACAD_REACTORS
330
201
102
}
330
A
100
AcDbSymbolTableRecord
100
AcDbDimStyleTableRecord
  2
ME10_DIM_14
 70
     0
 41
3.5
 42
0.0
 44
1.0
 73
     0
 74
     0
 77
     1
 78
     8
140
3.5
147
1.0
172
     1
173
     1
174
     1
175
     1
176
     2
177
     2
271
     2
178
     7
271
     2
340
1C4
  0
DIMSTYLE
105
20B
102
{ACAD_REACTORS
330
20C
102
}
330
A
100
AcDbSymbolTableRecord
100
AcDbDimStyleTableRecord
  2
ME10_DIM_15
 70
     0
 41
3.5
 42
0.0
 44
1.0
 73
     0
 74
     0
 77
     1
 78
     8
140
3.5
147
1.0
172
     1
173
     1
174
     1
175
     1
176
     2
177
     2
271
     2
178
     7
271
     2
340
1C4
  0
DIMSTYLE
105
216
102
{ACAD_REACTORS
330
217
102
}
330
A
100
AcDbSymbolTableRecord
100
AcDbDimStyleTableRecord
  2
ME10_DIM_16
 70
     0
  3
{\Fgdt;n}<>
 41
3.5
 42
0.0
 44
1.0
 73
     0
 74
     0
 77
     1
 78
     8
140
3.5
147
1.0
172
     1
173
     1
174
     1
175
     1
176
     2
177
     2
271
     2
178
     7
271
     2
340
1C4
  0
ENDTAB
  0
TABLE
  2
BLOCK_RECORD
  5
1
330
0
100
AcDbSymbolTable
 70
     9
  0
BLOCK_RECORD
  5
1F
330
1
100
AcDbSymbolTableRecord
100
AcDbBlockTableRecord
  2
*Model_Space
340
22
  0
BLOCK_RECORD
  5
1B
330
1
100
AcDbSymbolTableRecord
100
AcDbBlockTableRecord
  2
*Paper_Space
340
1E
  0
BLOCK_RECORD
  5
23
330
1
100
AcDbSymbolTableRecord
100
AcDbBlockTableRecord
  2
*Paper_Space0
340
26
  0
BLOCK_RECORD
  5
49
330
1
100
AcDbSymbolTableRecord
100
AcDbBlockTableRecord
  2
開示A4
340
0
102
{BLKREFS
331
4C
102
}
  0
BLOCK_RECORD
  5
1CB
330
1
100
AcDbSymbolTableRecord
100
AcDbBlockTableRecord
  2
*D2
340
0
  0
BLOCK_RECORD
  5
1D6
330
1
100
AcDbSymbolTableRecord
100
AcDbBlockTableRecord
  2
*D3
340
0
  0
BLOCK_RECORD
  5
1E1
330
1
100
AcDbSymbolTableRecord
100
AcDbBlockTableRecord
  2
*D4
340
0
  0
BLOCK_RECORD
  5
1EC
330
1
100
AcDbSymbolTableRecord
100
AcDbBlockTableRecord
  2
*D5
340
0
  0
BLOCK_RECORD
  5
1F7
330
1
100
AcDbSymbolTableRecord
100
AcDbBlockTableRecord
  2
*D6
340
0
  0
BLOCK_RECORD
  5
202
330
1
100
AcDbSymbolTableRecord
100
AcDbBlockTableRecord
  2
*D7
340
0
  0
BLOCK_RECORD
  5
20D
330
1
100
AcDbSymbolTableRecord
100
AcDbBlockTableRecord
  2
*D8
340
0
  0
ENDTAB
  0
ENDSEC
  0
SECTION
  2
BLOCKS
  0
BLOCK
  5
20
330
1F
100
AcDbEntity
  8
0
100
AcDbBlockBegin
  2
*Model_Space
 70
     0
 10
0.0
 20
0.0
 30
0.0
  3
*Model_Space
  1

  0
ENDBLK
  5
21
330
1F
100
AcDbEntity
  8
0
100
AcDbBlockEnd
  0
BLOCK
  5
1C
330
1B
100
AcDbEntity
 67
     1
  8
0
100
AcDbBlockBegin
  2
*Paper_Space
 70
     0
 10
0.0
 20
0.0
 30
0.0
  3
*Paper_Space
  1

  0
ENDBLK
  5
1D
330
1B
100
AcDbEntity
 67
     1
  8
0
100
AcDbBlockEnd
  0
BLOCK
  5
24
330
23
100
AcDbEntity
  8
0
100
AcDbBlockBegin
  2
*Paper_Space0
 70
     0
 10
0.0
 20
0.0
 30
0.0
  3
*Paper_Space0
  1

  0
ENDBLK
  5
25
330
23
100
AcDbEntity
  8
0
100
AcDbBlockEnd
  0
BLOCK
  5
4A
330
49
100
AcDbEntity
  8
0
100
AcDbBlockBegin
  2
開示A4
 70
     0
 10
0.0
 20
0.0
 30
0.0
  3
開示A4
  1

  0
POINT
  5
4D
330
49
100
AcDbEntity
  8
1
 62
     4
100
AcDbPoint
 10
93.75
 20
17.0
 30
0.0
  0
POINT
  5
4E
330
49
100
AcDbEntity
  8
1
 62
     4
100
AcDbPoint
 10
85.25
 20
17.0
 30
0.0
  0
POINT
  5
4F
330
49
100
AcDbEntity
  8
1
 62
     4
100
AcDbPoint
 10
106.5
 20
19.00000000000001
 30
0.0
  0
POINT
  5
50
330
49
100
AcDbEntity
  8
1
 62
     4
100
AcDbPoint
 10
106.5
 20
12.5
 30
0.0
  0
POINT
  5
51
330
49
100
AcDbEntity
  8
1
 62
     4
100
AcDbPoint
 10
112.25
 20
12.5
 30
0.0
  0
POINT
  5
52
330
49
100
AcDbEntity
  8
1
 62
     4
100
AcDbPoint
 10
100.75
 20
12.5
 30
0.0
  0
POINT
  5
53
330
49
100
AcDbEntity
  8
1
 62
     4
100
AcDbPoint
 10
123.5
 20
19.00000000000001
 30
0.0
  0
POINT
  5
54
330
49
100
AcDbEntity
  8
1
 62
     4
100
AcDbPoint
 10
123.5
 20
12.5
 30
0.0
  0
POINT
  5
55
330
49
100
AcDbEntity
  8
1
 62
     4
100
AcDbPoint
 10
129.25
 20
12.5
 30
0.0
  0
POINT
  5
56
330
49
100
AcDbEntity
  8
1
 62
     4
100
AcDbPoint
 10
117.75
 20
12.5
 30
0.0
  0
POINT
  5
57
330
49
100
AcDbEntity
  8
1
 62
     4
100
AcDbPoint
 10
140.5
 20
19.00000000000001
 30
0.0
  0
POINT
  5
58
330
49
100
AcDbEntity
  8
1
 62
     4
100
AcDbPoint
 10
140.5
 20
12.5
 30
0.0
  0
POINT
  5
59
330
49
100
AcDbEntity
  8
1
 62
     4
100
AcDbPoint
 10
146.25
 20
12.5
 30
0.0
  0
POINT
  5
5A
330
49
100
AcDbEntity
  8
1
 62
     4
100
AcDbPoint
 10
134.75
 20
12.5
 30
0.0
  0
POINT
  5
5B
330
49
100
AcDbEntity
  8
1
 62
     4
100
AcDbPoint
 10
151.75
 20
12.5
 30
0.0
  0
POINT
  5
5C
330
49
100
AcDbEntity
  8
1
 62
     4
100
AcDbPoint
 10
163.25
 20
12.5
 30
0.0
  0
POINT
  5
5D
330
49
100
AcDbEntity
  8
1
 62
     4
100
AcDbPoint
 10
157.5
 20
12.5
 30
0.0
  0
POINT
  5
5E
330
49
100
AcDbEntity
  8
1
 62
     4
100
AcDbPoint
 10
57.0
 20
14.25
 30
0.0
  0
POINT
  5
5F
330
49
100
AcDbEntity
  8
1
 62
     4
100
AcDbPoint
 10
57.0
 20
22.75000000000001
 30
0.0
  0
POINT
  5
60
330
49
100
AcDbEntity
  8
1
 62
     4
100
AcDbPoint
 10
47.5
 20
282.0000000000003
 30
0.0
  0
POINT
  5
61
330
49
100
AcDbEntity
  8
1
 62
     4
100
AcDbPoint
 10
157.5
 20
19.00000000000001
 30
0.0
  0
POINT
  5
62
330
49
100
AcDbEntity
  8
1
 62
     4
100
AcDbPoint
 10
57.0
 20
16.25
 30
0.0
  0
POINT
  5
63
330
49
100
AcDbEntity
  8
1
 62
     4
100
AcDbPoint
 10
57.0
 20
24.75000000000001
 30
0.0
  0
POINT
  5
64
330
49
100
AcDbEntity
  8
1
 62
     4
100
AcDbPoint
 10
57.0
 20
20.75000000000001
 30
0.0
  0
POINT
  5
65
330
49
100
AcDbEntity
  8
1
 62
     4
100
AcDbPoint
 10
57.0
 20
12.25
 30
0.0
  0
POINT
  5
66
330
49
100
AcDbEntity
  8
1
 62
     4
100
AcDbPoint
 10
34.0
 20
34.00000000000001
 30
0.0
  0
LINE
  5
67
330
49
100
AcDbEntity
  8
1
  6
Continuous
 62
     7
100
AcDbLine
 10
105.0
 20
10.0
 30
0.0
 11
200.0
 21
10.0
 31
0.0
  0
LINE
  5
68
330
49
100
AcDbEntity
  8
1
  6
Continuous
 62
     2
100
AcDbLine
 10
105.0
 20
10.0
 30
0.0
 11
105.0
 21
5.0
 31
0.0
  0
LINE
  5
69
330
49
100
AcDbEntity
  8
1
  6
Continuous
 62
     7
100
AcDbLine
 10
200.0
 20
148.5
 30
0.0
 11
200.0
 21
287.0000000000003
 31
0.0
  0
LINE
  5
6A
330
49
100
AcDbEntity
  8
1
  6
Continuous
 62
     2
100
AcDbLine
 10
200.0
 20
148.5
 30
0.0
 11
205.0
 21
148.5
 31
0.0
  0
LINE
  5
6B
330
49
100
AcDbEntity
  8
1
  6
Continuous
 62
     7
100
AcDbLine
 10
25.0
 20
148.5
 30
0.0
 11
25.0
 21
287.0000000000003
 31
0.0
  0
LINE
  5
6C
330
49
100
AcDbEntity
  8
1
  6
Continuous
 62
     2
100
AcDbLine
 10
25.0
 20
148.5
 30
0.0
 11
20.0
 21
148.5
 31
0.0
  0
LINE
  5
6D
330
49
100
AcDbEntity
  8
1
  6
Continuous
 62
     7
100
AcDbLine
 10
105.0
 20
287.0000000000003
 30
0.0
 11
25.0
 21
287.0000000000003
 31
0.0
  0
LINE
  5
6E
330
49
100
AcDbEntity
  8
1
  6
Continuous
 62
     2
100
AcDbLine
 10
105.0
 20
287.0000000000003
 30
0.0
 11
105.0
 21
292.0000000000003
 31
0.0
  0
LINE
  5
6F
330
49
100
AcDbEntity
  8
1
  6
Continuous
 62
     2
100
AcDbLine
 10
166.0
 20
20.00000000000001
 30
0.0
 11
200.0
 21
20.00000000000001
 31
0.0
  0
LINE
  5
70
330
49
100
AcDbEntity
  8
1
  6
Continuous
 62
     2
100
AcDbLine
 10
98.0
 20
27.00000000000001
 30
0.0
 11
98.0
 21
9.99999999999999
 31
0.0
  0
LINE
  5
71
330
49
100
AcDbEntity
  8
1
  6
Continuous
 62
     2
100
AcDbLine
 10
115.0
 20
27.00000000000001
 30
0.0
 11
115.0
 21
9.99999999999999
 31
0.0
  0
LINE
  5
72
330
49
100
AcDbEntity
  8
1
  6
Continuous
 62
     2
100
AcDbLine
 10
149.0
 20
27.00000000000001
 30
0.0
 11
149.0
 21
10.0
 31
0.0
  0
LINE
  5
73
330
49
100
AcDbEntity
  8
1
  6
Continuous
 62
     2
100
AcDbLine
 10
132.0
 20
27.00000000000001
 30
0.0
 11
132.0
 21
9.99999999999999
 31
0.0
  0
LINE
  5
74
330
49
100
AcDbEntity
  8
1
  6
Continuous
 62
     2
100
AcDbLine
 10
166.0
 20
27.00000000000001
 30
0.0
 11
166.0
 21
10.0
 31
0.0
  0
LINE
  5
75
330
49
100
AcDbEntity
  8
1
  6
Continuous
 62
     2
100
AcDbLine
 10
55.0
 20
277.0000000000003
 30
0.0
 11
25.0
 21
277.0000000000003
 31
0.0
  0
LINE
  5
76
330
49
100
AcDbEntity
  8
1
  6
Continuous
 62
     7
100
AcDbLine
 10
25.0
 20
10.0
 30
0.0
 11
25.0
 21
148.5
 31
0.0
  0
LINE
  5
77
330
49
100
AcDbEntity
  8
1
  6
Continuous
 62
     2
100
AcDbLine
 10
40.0
 20
287.0000000000003
 30
0.0
 11
40.0
 21
277.0000000000003
 31
0.0
  0
LINE
  5
78
330
49
100
AcDbEntity
  8
1
  6
Continuous
 62
     2
100
AcDbLine
 10
55.0
 20
287.0000000000003
 30
0.0
 11
55.0
 21
277.0000000000003
 31
0.0
  0
LINE
  5
79
330
49
100
AcDbEntity
  8
1
  6
Continuous
 62
     2
100
AcDbLine
 10
33.0
 20
41.00000000000001
 30
0.0
 11
33.0
 21
27.0
 31
0.0
  0
LINE
  5
7A
330
49
100
AcDbEntity
  8
1
  6
Continuous
 62
     7
100
AcDbLine
 10
200.0
 20
27.00000000000001
 30
0.0
 11
25.0
 21
27.00000000000001
 31
0.0
  0
LINE
  5
7B
330
49
100
AcDbEntity
  8
1
  6
Continuous
 62
     7
100
AcDbLine
 10
25.0
 20
41.0
 30
0.0
 11
200.0
 21
41.0
 31
0.0
  0
LINE
  5
7C
330
49
100
AcDbEntity
  8
1
  6
PHANTOM
 62
     4
100
AcDbLine
 10
0.0
 20
0.0
 30
0.0
 11
210.0
 21
0.0
 31
0.0
  0
LINE
  5
7D
330
49
100
AcDbEntity
  8
1
  6
PHANTOM
 62
     4
100
AcDbLine
 10
210.0
 20
0.0
 30
0.0
 11
210.0
 21
297.0
 31
0.0
  0
LINE
  5
7E
330
49
100
AcDbEntity
  8
1
  6
PHANTOM
 62
     4
100
AcDbLine
 10
210.0
 20
297.0
 30
0.0
 11
0.0
 21
297.0
 31
0.0
  0
LINE
  5
7F
330
49
100
AcDbEntity
  8
1
  6
PHANTOM
 62
     4
100
AcDbLine
 10
0.0
 20
297.0
 30
0.0
 11
0.0
 21
0.0
 31
0.0
  0
LINE
  5
80
330
49
100
AcDbEntity
  8
1
  6
Continuous
 62
     7
100
AcDbLine
 10
25.0
 20
10.0
 30
0.0
 11
105.0
 21
10.0
 31
0.0
  0
LINE
  5
81
330
49
100
AcDbEntity
  8
1
  6
Continuous
 62
     7
100
AcDbLine
 10
200.0
 20
10.0
 30
0.0
 11
200.0
 21
148.5
 31
0.0
  0
LINE
  5
82
330
49
100
AcDbEntity
  8
1
  6
Continuous
 62
     7
100
AcDbLine
 10
200.0
 20
287.0000000000003
 30
0.0
 11
105.0
 21
287.0000000000003
 31
0.0
  0
LINE
  5
83
330
49
100
AcDbEntity
  8
1
  6
Continuous
 62
     2
100
AcDbLine
 10
25.0
 20
18.50000000000001
 30
0.0
 11
81.0
 21
18.50000000000001
 31
0.0
  0
LINE
  5
84
330
49
100
AcDbEntity
  8
1
  6
Continuous
 62
     2
100
AcDbLine
 10
33.0
 20
27.0
 30
0.0
 11
33.0
 21
10.0
 31
0.0
  0
LINE
  5
85
330
49
100
AcDbEntity
  8
1
  6
Continuous
 62
     7
100
AcDbLine
 10
191.0
 20
24.70000000000001
 30
0.0
 11
191.0
 21
22.30000000000001
 31
0.0
  0
LINE
  5
86
330
49
100
AcDbEntity
  8
1
  6
Continuous
 62
     7
100
AcDbLine
 10
191.0
 20
24.70000000000001
 30
0.0
 11
196.0
 21
25.50000000000001
 31
0.0
  0
LINE
  5
87
330
49
100
AcDbEntity
  8
1
  6
Continuous
 62
     7
100
AcDbLine
 10
196.0
 20
25.50000000000001
 30
0.0
 11
196.0
 21
21.50000000000001
 31
0.0
  0
LINE
  5
88
330
49
100
AcDbEntity
  8
1
  6
Continuous
 62
     7
100
AcDbLine
 10
196.0
 20
21.50000000000001
 30
0.0
 11
191.0
 21
22.30000000000001
 31
0.0
  0
LINE
  5
89
330
49
100
AcDbEntity
  8
1
  6
DOT_CENTER
 62
     2
100
AcDbLine
 10
184.0
 20
23.50000000000001
 30
0.0
 11
197.0
 21
23.50000000000001
 31
0.0
  0
LINE
  5
8A
330
49
100
AcDbEntity
  8
1
  6
DOT_CENTER
 62
     2
100
AcDbLine
 10
187.0
 20
26.50000000000001
 30
0.0
 11
187.0
 21
20.50000000000001
 31
0.0
  0
LINE
  5
8B
330
49
100
AcDbEntity
  8
1
  6
Continuous
 62
     2
100
AcDbLine
 10
81.0
 20
27.00000000000001
 30
0.0
 11
81.0
 21
10.0
 31
0.0
  0
CIRCLE
  5
8C
330
49
100
AcDbEntity
  8
1
  6
Continuous
 62
     7
100
AcDbCircle
 10
103.5
 20
12.5
 30
0.0
 40
0.2999999999999972
  0
CIRCLE
  5
8D
330
49
100
AcDbEntity
  8
1
  6
Continuous
 62
     7
100
AcDbCircle
 10
109.5
 20
12.5
 30
0.0
 40
0.2999999999999972
  0
CIRCLE
  5
8E
330
49
100
AcDbEntity
  8
1
  6
Continuous
 62
     7
100
AcDbCircle
 10
120.5
 20
12.5
 30
0.0
 40
0.2999999999999972
  0
CIRCLE
  5
8F
330
49
100
AcDbEntity
  8
1
  6
Continuous
 62
     7
100
AcDbCircle
 10
126.5
 20
12.5
 30
0.0
 40
0.2999999999999972
  0
CIRCLE
  5
90
330
49
100
AcDbEntity
  8
1
  6
Continuous
 62
     7
100
AcDbCircle
 10
137.5
 20
12.5
 30
0.0
 40
0.3000000000000114
  0
CIRCLE
  5
91
330
49
100
AcDbEntity
  8
1
  6
Continuous
 62
     7
100
AcDbCircle
 10
143.5
 20
12.5
 30
0.0
 40
0.3000000000000114
  0
CIRCLE
  5
92
330
49
100
AcDbEntity
  8
1
  6
Continuous
 62
     7
100
AcDbCircle
 10
160.5
 20
12.5
 30
0.0
 40
0.3000000000000114
  0
CIRCLE
  5
93
330
49
100
AcDbEntity
  8
1
  6
Continuous
 62
     7
100
AcDbCircle
 10
154.5
 20
12.5
 30
0.0
 40
0.3000000000000114
  0
CIRCLE
  5
94
330
49
100
AcDbEntity
  8
1
  6
Continuous
 62
     7
100
AcDbCircle
 10
187.0
 20
23.50000000000001
 30
0.0
 40
1.200000000000102
  0
CIRCLE
  5
95
330
49
100
AcDbEntity
  8
1
  6
Continuous
 62
     7
100
AcDbCircle
 10
187.0
 20
23.50000000000001
 30
0.0
 40
2.0
  0
CIRCLE
  5
96
330
49
100
AcDbEntity
  8
1
  6
DOT_CENTER
 62
     7
100
AcDbCircle
 10
89.5
 20
16.0
 30
0.0
 40
0.1000000000000227
  0
CIRCLE
  5
97
330
49
100
AcDbEntity
  8
1
  6
DOT_CENTER
 62
     7
100
AcDbCircle
 10
89.5
 20
18.0
 30
0.0
 40
0.1000000000000227
  0
MTEXT
  5
99
330
49
100
AcDbEntity
  8
1
 62
     7
100
AcDbMText
 10
188.5
 20
15.0
 30
0.0
 40
3.0
 41
0.0
 71
     5
 72
     1
  1
三栄水栓製作所
  7
CONVERTER_11
 73
     1
 44
1.0
  0
MTEXT
  5
9A
330
49
100
AcDbEntity
  8
1
 62
     7
100
AcDbMText
 10
171.5
 20
15.0
 30
0.0
 40
2.5
 41
0.0
 71
     5
 72
     1
  1
株式会社
  7
CONVERTER_11
 73
     1
 44
1.0
  0
MTEXT
  5
9B
330
49
100
AcDbEntity
  8
1
 62
     2
100
AcDbMText
 10
32.5
 20
282.0000000000003
 30
0.0
 40
5.0
 41
0.0
 71
     5
 72
     1
  1
図番
  7
CONVERTER_11
 73
     1
 44
0.45454545454545
  0
MTEXT
  5
9C
330
49
100
AcDbEntity
  8
1
 62
     2
100
AcDbMText
 10
29.0
 20
34.00000000000001
 30
0.0
 40
3.5
 41
0.0
 71
     5
 72
     1
  1
備考
  7
CONVERTER_11
 73
     1
 44
0.45454545454545
  0
MTEXT
  5
9D
330
49
100
AcDbEntity
  8
1
 62
     2
100
AcDbMText
 10
29.0
 20
22.75
 30
0.0
 40
3.5
 41
0.0
 71
     5
 72
     1
  1
品名
  7
CONVERTER_11
 73
     1
 44
0.72727272727273
  0
MTEXT
  5
9E
330
49
100
AcDbEntity
  8
1
 62
     2
100
AcDbMText
 10
29.0
 20
14.25
 30
0.0
 40
3.5
 41
0.0
 71
     5
 72
     1
  1
品番
  7
CONVERTER_11
 73
     1
 44
0.72727272727273
  0
MTEXT
  5
9F
330
49
100
AcDbEntity
  8
1
 62
     2
100
AcDbMText
 10
101.5
 20
25.00000000000001
 30
0.0
 40
3.0
 41
0.0
 71
     5
 72
     1
  1
承認
  7
CONVERTER_11
 73
     1
 44
0.59090909090909
  0
MTEXT
  5
A0
330
49
100
AcDbEntity
  8
1
 62
     2
100
AcDbMText
 10
175.0
 20
23.50000000000001
 30
0.0
 40
3.5
 41
0.0
 71
     5
 72
     1
  1
第三角法
  7
CONVERTER_11
 73
     1
 44
0.54545454545455
  0
MTEXT
  5
A1
330
49
100
AcDbEntity
  8
1
 62
     2
100
AcDbMText
 10
118.5
 20
25.00000000000001
 30
0.0
 40
3.0
 41
0.0
 71
     5
 72
     1
  1
検図
  7
CONVERTER_11
 73
     1
 44
0.59090909090909
  0
MTEXT
  5
A2
330
49
100
AcDbEntity
  8
1
 62
     2
100
AcDbMText
 10
152.5
 20
25.00000000000001
 30
0.0
 40
3.0
 41
0.0
 71
     5
 72
     1
  1
担当
  7
CONVERTER_11
 73
     1
 44
0.59090909090909
  0
MTEXT
  5
A3
330
49
100
AcDbEntity
  8
1
 62
     2
100
AcDbMText
 10
135.5
 20
25.00000000000001
 30
0.0
 40
3.0
 41
0.0
 71
     5
 72
     1
  1
製図
  7
CONVERTER_11
 73
     1
 44
0.59090909090909
  0
MTEXT
  5
A4
330
49
100
AcDbEntity
  8
1
 62
     2
100
AcDbMText
 10
89.5
 20
24.00000000000001
 30
0.0
 40
3.5
 41
0.0
 71
     5
 72
     1
  1
尺度
  7
CONVERTER_11
 73
     1
 44
0.54545454545455
  0
MTEXT
  5
A5
330
49
100
AcDbEntity
  8
1
 62
   250
100
AcDbMText
 10
25.0
 20
5.0
 30
0.0
 40
3.5
 41
0.0
 71
     4
 72
     1
  1
備考欄の文字列 原点位置=4
  7
CONVERTER_11
 73
     1
 44
0.54545454545455
  0
ENDBLK
  5
4B
330
49
100
AcDbEntity
  8
0
100
AcDbBlockEnd
  0
BLOCK
  5
1D2
330
1CB
100
AcDbEntity
  8
0
100
AcDbBlockBegin
  2
*D2
 70
     1
 10
0.0
 20
0.0
 30
0.0
  3
*D2
  1

  0
LINE
  5
1CC
330
1CB
100
AcDbEntity
  8
1
  6
Continuous
 62
     2
100
AcDbLine
 10
84.86053092951065
 20
166.5206179916441
 30
0.0
 11
131.0141107742039
 21
236.4559494675681
 31
0.0
  0
LINE
  5
1CD
330
1CB
100
AcDbEntity
  8
1
  6
Continuous
 62
     2
100
AcDbLine
 10
122.0999456069572
 20
141.9445952229972
 30
0.0
 11
84.02590100930506
 21
167.0714291174374
 31
0.0
  0
LINE
  5
1CE
330
1CB
100
AcDbEntity
  8
1
  6
Continuous
 62
     2
100
AcDbLine
 10
168.2535254516504
 20
211.8799266989212
 30
0.0
 11
130.1794808539983
 21
237.0067605933613
 31
0.0
  0
SOLID
  5
1CF
330
1CB
100
AcDbEntity
  8
1
 62
     2
100
AcDbTrace
 10
86.40378597234024
 20
169.6956275237973
 30
0.0
 11
87.17295376723388
 21
169.18801790093
 31
0.0
 12
84.86053092951065
 22
166.5206179916441
 32
0.0
 13
84.86053092951065
 23
166.5206179916441
 33
0.0
  0
SOLID
  5
1D0
330
1CB
100
AcDbEntity
  8
1
 62
     2
100
AcDbTrace
 10
129.4708557313743
 20
233.2809399354149
 30
0.0
 11
128.7016879364807
 21
233.7885495582822
 31
0.0
 12
131.0141107742039
 22
236.4559494675681
 32
0.0
 13
131.0141107742039
 23
236.4559494675681
 33
0.0
  0
MTEXT
  5
1D1
330
1CB
100
AcDbEntity
  8
1
 62
     7
100
AcDbMText
 10
104.4770679260138
 20
198.0605559024516
 30
0.0
 40
3.5
 41
0.0
 71
     7
 72
     1
  1
83リフト7
  7
CONVERTER_11
 11
0.5508111257932541
 21
0.8346299202055772
 31
0.0
 73
     1
 44
0.45454545454545
  0
ENDBLK
  5
1D3
330
1CB
100
AcDbEntity
  8
0
100
AcDbBlockEnd
  0
BLOCK
  5
1DD
330
1D6
100
AcDbEntity
  8
0
100
AcDbBlockBegin
  2
*D3
 70
     1
 10
0.0
 20
0.0
 30
0.0
  3
*D3
  1

  0
LINE
  5
1D7
330
1D6
100
AcDbEntity
  8
1
  6
Continuous
 62
     2
100
AcDbLine
 10
62.5794269022113
 20
164.641964113897
 30
0.0
 11
62.5794269022113
 21
120.641967413095
 31
0.0
  0
LINE
  5
1D8
330
1D6
100
AcDbEntity
  8
1
  6
Continuous
 62
     2
100
AcDbLine
 10
86.9330019127681
 20
164.641964113897
 30
0.0
 11
61.5794269022113
 21
164.641964113897
 31
0.0
  0
LINE
  5
1D9
330
1D6
100
AcDbEntity
  8
1
  6
Continuous
 62
     2
100
AcDbLine
 10
86.9330019127681
 20
120.641967413095
 30
0.0
 11
61.5794269022113
 21
120.641967413095
 31
0.0
  0
SOLID
  5
1DA
330
1D6
100
AcDbEntity
  8
1
 62
     2
100
AcDbTrace
 10
63.04021064376719
 20
161.141964113897
 30
0.0
 11
62.11864316065542
 21
161.141964113897
 31
0.0
 12
62.5794269022113
 22
164.641964113897
 32
0.0
 13
62.5794269022113
 23
164.641964113897
 33
0.0
  0
SOLID
  5
1DB
330
1D6
100
AcDbEntity
  8
1
 62
     2
100
AcDbTrace
 10
62.11864316065542
 20
124.141967413095
 30
0.0
 11
63.04021064376719
 21
124.141967413095
 31
0.0
 12
62.5794269022113
 22
120.641967413095
 32
0.0
 13
62.5794269022113
 23
120.641967413095
 33
0.0
  0
MTEXT
  5
1DC
330
1D6
100
AcDbEntity
  8
1
 62
     7
100
AcDbMText
 10
61.5794269022113
 20
128.2469665882955
 30
0.0
 40
3.5
 41
0.0
 71
     7
 72
     1
  1
\C7;{\Fgdt;n}\C7;44
  7
CONVERTER_12
 11
0.0
 21
1.0
 31
0.0
 73
     1
 44
0.60024009603842
  0
ENDBLK
  5
1DE
330
1D6
100
AcDbEntity
  8
0
100
AcDbBlockEnd
  0
BLOCK
  5
1E8
330
1E1
100
AcDbEntity
  8
0
100
AcDbBlockBegin
  2
*D4
 70
     1
 10
0.0
 20
0.0
 30
0.0
  3
*D4
  1

  0
LINE
  5
1E2
330
1E1
100
AcDbEntity
  8
1
  6
Continuous
 62
     2
100
AcDbLine
 10
54.5794269022113
 20
142.641965763496
 30
0.0
 11
54.5794269022113
 21
224.1700595396736
 31
0.0
  0
LINE
  5
1E3
330
1E1
100
AcDbEntity
  8
1
  6
Continuous
 62
     2
100
AcDbLine
 10
69.57942690221131
 20
142.641965763496
 30
0.0
 11
53.5794269022113
 21
142.641965763496
 31
0.0
  0
LINE
  5
1E4
330
1E1
100
AcDbEntity
  8
1
  6
Continuous
 62
     2
100
AcDbLine
 10
142.992262766261
 20
224.1700595396736
 30
0.0
 11
53.5794269022113
 21
224.1700595396736
 31
0.0
  0
SOLID
  5
1E5
330
1E1
100
AcDbEntity
  8
1
 62
     2
100
AcDbTrace
 10
54.11864316065542
 20
146.141965763496
 30
0.0
 11
55.04021064376719
 21
146.141965763496
 31
0.0
 12
54.5794269022113
 22
142.641965763496
 32
0.0
 13
54.5794269022113
 23
142.641965763496
 33
0.0
  0
SOLID
  5
1E6
330
1E1
100
AcDbEntity
  8
1
 62
     2
100
AcDbTrace
 10
55.04021064376719
 20
220.6700595396736
 30
0.0
 11
54.11864316065542
 21
220.6700595396736
 31
0.0
 12
54.5794269022113
 22
224.1700595396736
 32
0.0
 13
54.5794269022113
 23
224.1700595396736
 33
0.0
  0
MTEXT
  5
1E7
330
1E1
100
AcDbEntity
  8
1
 62
     7
100
AcDbMText
 10
53.5794269022113
 20
181.3060126515848
 30
0.0
 40
3.5
 41
0.0
 71
     7
 72
     1
  1
81
  7
CONVERTER_12
 11
0.0
 21
1.0
 31
0.0
 73
     1
 44
0.60024009603842
  0
ENDBLK
  5
1E9
330
1E1
100
AcDbEntity
  8
0
100
AcDbBlockEnd
  0
BLOCK
  5
1F3
330
1EC
100
AcDbEntity
  8
0
100
AcDbBlockBegin
  2
*D5
 70
     1
 10
0.0
 20
0.0
 30
0.0
  3
*D5
  1

  0
LINE
  5
1ED
330
1EC
100
AcDbEntity
  8
1
  6
Continuous
 62
     2
100
AcDbLine
 10
54.5794269022113
 20
98.38688609805
 30
0.0
 11
54.5794269022113
 21
142.641965763496
 31
0.0
  0
LINE
  5
1EE
330
1EC
100
AcDbEntity
  8
1
  6
Continuous
 62
     2
100
AcDbLine
 10
162.68169487705
 20
98.38688609805
 30
0.0
 11
53.5794269022113
 21
98.38688609805
 31
0.0
  0
LINE
  5
1EF
330
1EC
100
AcDbEntity
  8
1
  6
Continuous
 62
     2
100
AcDbLine
 10
69.5794269022113
 20
142.641965763496
 30
0.0
 11
53.5794269022113
 21
142.641965763496
 31
0.0
  0
SOLID
  5
1F0
330
1EC
100
AcDbEntity
  8
1
 62
     2
100
AcDbTrace
 10
54.11864316065542
 20
101.88688609805
 30
0.0
 11
55.04021064376719
 21
101.88688609805
 31
0.0
 12
54.5794269022113
 22
98.38688609805
 32
0.0
 13
54.5794269022113
 23
98.38688609805
 33
0.0
  0
SOLID
  5
1F1
330
1EC
100
AcDbEntity
  8
1
 62
     2
100
AcDbTrace
 10
55.04021064376719
 20
139.141965763496
 30
0.0
 11
54.11864316065542
 21
139.141965763496
 31
0.0
 12
54.5794269022113
 22
142.641965763496
 32
0.0
 13
54.5794269022113
 23
142.641965763496
 33
0.0
  0
MTEXT
  5
1F2
330
1EC
100
AcDbEntity
  8
1
 62
     7
100
AcDbMText
 10
53.5794269022113
 20
117.889425930773
 30
0.0
 40
3.5
 41
0.0
 71
     7
 72
     1
  1
44
  7
CONVERTER_12
 11
0.0
 21
1.0
 31
0.0
 73
     1
 44
0.60024009603842
  0
ENDBLK
  5
1F4
330
1EC
100
AcDbEntity
  8
0
100
AcDbBlockEnd
  0
BLOCK
  5
1FE
330
1F7
100
AcDbEntity
  8
0
100
AcDbBlockBegin
  2
*D6
 70
     1
 10
0.0
 20
0.0
 30
0.0
  3
*D6
  1

  0
LINE
  5
1F8
330
1F7
100
AcDbEntity
  8
1
  6
Continuous
 62
     2
100
AcDbLine
 10
72.5794269022113
 20
88.38688609805
 30
0.0
 11
86.5794104062225
 21
88.38688609805
 31
0.0
  0
LINE
  5
1F9
330
1F7
100
AcDbEntity
  8
1
  6
Continuous
 62
     2
100
AcDbLine
 10
72.5794269022113
 20
133.391965763497
 30
0.0
 11
72.5794269022113
 21
87.38688609805
 31
0.0
  0
LINE
  5
1FA
330
1F7
100
AcDbEntity
  8
1
  6
Continuous
 62
     2
100
AcDbLine
 10
86.5794104062225
 20
120.995521803667
 30
0.0
 11
86.5794104062225
 21
87.38688609805
 31
0.0
  0
SOLID
  5
1FB
330
1F7
100
AcDbEntity
  8
1
 62
     2
100
AcDbTrace
 10
76.0794269022113
 20
88.84766983960589
 30
0.0
 11
76.0794269022113
 21
87.92610235649411
 31
0.0
 12
72.5794269022113
 22
88.38688609805
 32
0.0
 13
72.5794269022113
 23
88.38688609805
 33
0.0
  0
SOLID
  5
1FC
330
1F7
100
AcDbEntity
  8
1
 62
     2
100
AcDbTrace
 10
83.0794104062225
 20
87.92610235649411
 30
0.0
 11
83.0794104062225
 21
88.84766983960589
 31
0.0
 12
86.5794104062225
 22
88.38688609805
 32
0.0
 13
86.5794104062225
 23
88.38688609805
 33
0.0
  0
MTEXT
  5
1FD
330
1F7
100
AcDbEntity
  8
1
 62
     7
100
AcDbMText
 10
77.47941865421691
 20
89.38688609805
 30
0.0
 40
3.5
 41
0.0
 71
     7
 72
     1
  1
14
  7
CONVERTER_12
 11
0.9999999999970619
 21
2.424068405545306E-6
 31
0.0
 73
     1
 44
0.60024009603842
  0
ENDBLK
  5
1FF
330
1F7
100
AcDbEntity
  8
0
100
AcDbBlockEnd
  0
BLOCK
  5
209
330
202
100
AcDbEntity
  8
0
100
AcDbBlockBegin
  2
*D7
 70
     1
 10
0.0
 20
0.0
 30
0.0
  3
*D7
  1

  0
LINE
  5
203
330
202
100
AcDbEntity
  8
1
  6
Continuous
 62
     2
100
AcDbLine
 10
171.5794104062226
 20
88.38688609805
 30
0.0
 11
86.57941040622246
 21
88.38688609805
 31
0.0
  0
LINE
  5
204
330
202
100
AcDbEntity
  8
1
  6
Continuous
 62
     2
100
AcDbLine
 10
171.5794104062226
 20
119.81564862621
 30
0.0
 11
171.5794104062226
 21
87.38688609805
 31
0.0
  0
LINE
  5
205
330
202
100
AcDbEntity
  8
1
  6
Continuous
 62
     2
100
AcDbLine
 10
86.57941040622246
 20
120.995521803667
 30
0.0
 11
86.57941040622246
 21
87.38688609805
 31
0.0
  0
SOLID
  5
206
330
202
100
AcDbEntity
  8
1
 62
     2
100
AcDbTrace
 10
168.0794104062226
 20
87.92610235649411
 30
0.0
 11
168.0794104062226
 21
88.84766983960589
 31
0.0
 12
171.5794104062226
 22
88.38688609805
 32
0.0
 13
171.5794104062226
 23
88.38688609805
 33
0.0
  0
SOLID
  5
207
330
202
100
AcDbEntity
  8
1
 62
     2
100
AcDbTrace
 10
90.07941040622246
 20
88.84766983960589
 30
0.0
 11
90.07941040622246
 21
87.92610235649411
 31
0.0
 12
86.57941040622246
 22
88.38688609805
 32
0.0
 13
86.57941040622246
 23
88.38688609805
 33
0.0
  0
MTEXT
  5
208
330
202
100
AcDbEntity
  8
1
 62
     7
100
AcDbMText
 10
126.4544104062225
 20
89.38688609805
 30
0.0
 40
3.5
 41
0.0
 71
     7
 72
     1
  1
85
  7
CONVERTER_12
 11
0.9999999999970619
 21
2.424068405545306E-6
 31
0.0
 73
     1
 44
0.60024009603842
  0
ENDBLK
  5
20A
330
202
100
AcDbEntity
  8
0
100
AcDbBlockEnd
  0
BLOCK
  5
214
330
20D
100
AcDbEntity
  8
0
100
AcDbBlockBegin
  2
*D8
 70
     1
 10
0.0
 20
0.0
 30
0.0
  3
*D8
  1

  0
LINE
  5
20E
330
20D
100
AcDbEntity
  8
1
  6
Continuous
 62
     2
100
AcDbLine
 10
163.0030008891453
 20
80.3462396558508
 30
0.0
 11
186.9116736433478
 21
82.43797748179483
 31
0.0
  0
LINE
  5
20F
330
20D
100
AcDbEntity
  8
1
  6
Continuous
 62
     2
100
AcDbLine
 10
161.259886034192
 20
100.270133617686
 30
0.0
 11
163.090156631893
 21
79.35004495775905
 31
0.0
  0
LINE
  5
210
330
20D
100
AcDbEntity
  8
1
  6
Continuous
 62
     2
100
AcDbLine
 10
185.193043192576
 20
102.082013423233
 30
0.0
 11
186.9988293860954
 21
81.44178278370309
 31
0.0
  0
SOLID
  5
211
330
20D
100
AcDbEntity
  8
1
 62
     2
100
AcDbTrace
 10
166.4495223832251
 20
81.11031507577248
 30
0.0
 11
166.5298422817078
 21
80.19225443516278
 31
0.0
 12
163.0030008891453
 22
80.3462396558508
 32
0.0
 13
163.0030008891453
 23
80.3462396558508
 33
0.0
  0
SOLID
  5
212
330
20D
100
AcDbEntity
  8
1
 62
     2
100
AcDbTrace
 10
183.465152149268
 20
81.67390206187315
 30
0.0
 11
183.3848322507853
 21
82.59196270248285
 31
0.0
 12
186.9116736433478
 22
82.43797748179483
 32
0.0
 13
186.9116736433478
 23
82.43797748179483
 33
0.0
  0
MTEXT
  5
213
330
20D
100
AcDbEntity
  8
1
 62
     7
100
AcDbMText
 10
171.4881005234773
 20
82.09240952028622
 30
0.0
 40
3.5
 41
0.0
 71
     7
 72
     1
  1
\C7;{\Fgdt;n}\C7;24
  7
CONVERTER_12
 11
0.9961946980917449
 21
0.08715574274766608
 31
0.0
 73
     1
 44
0.60024009603842
  0
ENDBLK
  5
215
330
20D
100
AcDbEntity
  8
0
100
AcDbBlockEnd
  0
ENDSEC
  0
SECTION
  2
ENTITIES
  0
INSERT
  5
4C
330
1F
100
AcDbEntity
  8
1
100
AcDbBlockReference
  2
開示A4
 10
0.0
 20
0.0
 30
0.0
  0
POINT
  5
A6
330
1F
100
AcDbEntity
  8
レイヤ1
 62
     7
100
AcDbPoint
 10
86.5794104062224
 20
96.698962446957
 30
0.0
  0
POINT
  5
A7
330
1F
100
AcDbEntity
  8
レイヤ1
 62
     7
100
AcDbPoint
 10
72.5794269022114
 20
96.698962446957
 30
0.0
  0
POINT
  5
A8
330
1F
100
AcDbEntity
  8
レイヤ1
 62
     7
100
AcDbPoint
 10
86.5794104062224
 20
96.698962446957
 30
0.0
  0
LINE
  5
A9
330
1F
100
AcDbEntity
  8
1
  6
DASH_CENTER
 62
     2
100
AcDbLine
 10
168.2535254516504
 20
211.8799266989211
 30
0.0
 11
159.1651419093759
 21
198.1085330660092
 31
0.0
  0
LINE
  5
AA
330
1F
100
AcDbEntity
  8
1
  6
DASH_CENTER
 62
     2
100
AcDbLine
 10
122.0999456069572
 20
141.9445952229972
 30
0.0
 11
120.4475122295774
 21
139.4407054623805
 31
0.0
  0
LINE
  5
AB
330
1F
100
AcDbEntity
  8
レイヤ1
  6
Continuous
 62
     7
100
AcDbLine
 10
147.554892866745
 20
190.315232326687
 30
0.0
 11
147.489627807571
 21
190.273943161954
 31
0.0
  0
LINE
  5
AC
330
1F
100
AcDbEntity
  8
レイヤ1
  6
Continuous
 62
     7
100
AcDbLine
 10
147.489627807571
 20
190.273943161954
 30
0.0
 11
147.422590068553
 21
190.227765371694
 31
0.0
  0
LINE
  5
AD
330
1F
100
AcDbEntity
  8
レイヤ1
  6
Continuous
 62
     7
100
AcDbLine
 10
147.422590068553
 20
190.227765371694
 30
0.0
 11
147.35403602235
 21
190.176765463796
 31
0.0
  0
LINE
  5
AE
330
1F
100
AcDbEntity
  8
レイヤ1
  6
Continuous
 62
     7
100
AcDbLine
 10
147.35403602235
 20
190.176765463796
 30
0.0
 11
147.284245681699
 21
190.121057268664
 31
0.0
  0
LINE
  5
AF
330
1F
100
AcDbEntity
  8
レイヤ1
  6
Continuous
 62
     7
100
AcDbLine
 10
147.284245681699
 20
190.121057268664
 30
0.0
 11
147.213519348616
 21
190.060802193483
 31
0.0
  0
LINE
  5
B0
330
1F
100
AcDbEntity
  8
レイヤ1
  6
Continuous
 62
     7
100
AcDbLine
 10
147.213519348616
 20
190.060802193483
 30
0.0
 11
147.142173629961
 21
189.99620837135
 31
0.0
  0
LINE
  5
B1
330
1F
100
AcDbEntity
  8
レイヤ1
  6
Continuous
 62
     7
100
AcDbLine
 10
147.142173629961
 20
189.99620837135
 30
0.0
 11
147.070536919294
 21
189.9275286797
 31
0.0
  0
LINE
  5
B2
330
1F
100
AcDbEntity
  8
レイヤ1
  6
Continuous
 62
     7
100
AcDbLine
 10
147.070536919294
 20
189.9275286797
 30
0.0
 11
146.998944473944
 21
189.855057649466
 31
0.0
  0
LINE
  5
B3
330
1F
100
AcDbEntity
  8
レイヤ1
  6
Continuous
 62
     7
100
AcDbLine
 10
146.998944473944
 20
189.855057649466
 30
0.0
 11
146.927733238209
 21
189.779127335154
 31
0.0
  0
LINE
  5
B4
330
1F
100
AcDbEntity
  8
レイヤ1
  6
Continuous
 62
     7
100
AcDbLine
 10
146.927733238209
 20
189.779127335154
 30
0.0
 11
146.85723657731
 21
189.700102266408
 31
0.0
  0
LINE
  5
B5
330
1F
100
AcDbEntity
  8
レイヤ1
  6
Continuous
 62
     7
100
AcDbLine
 10
146.85723657731
 20
189.700102266408
 30
0.0
 11
146.787779096037
 21
189.618373640636
 31
0.0
  0
LINE
  5
B6
330
1F
100
AcDbEntity
  8
レイヤ1
  6
Continuous
 62
     7
100
AcDbLine
 10
146.787779096037
 20
189.618373640636
 30
0.0
 11
146.719671709286
 21
189.534352948301
 31
0.0
  0
LINE
  5
B7
330
1F
100
AcDbEntity
  8
レイヤ1
  6
Continuous
 62
     7
100
AcDbLine
 10
146.719671709286
 20
189.534352948301
 30
0.0
 11
146.653207118669
 21
189.448465248417
 31
0.0
  0
LINE
  5
B8
330
1F
100
AcDbEntity
  8
レイヤ1
  6
Continuous
 62
     7
100
AcDbLine
 10
146.653207118669
 20
189.448465248417
 30
0.0
 11
146.588655831612
 21
189.361142318384
 31
0.0
  0
LINE
  5
B9
330
1F
100
AcDbEntity
  8
レイヤ1
  6
Continuous
 62
     7
100
AcDbLine
 10
146.588655831612
 20
189.361142318384
 30
0.0
 11
146.526262827604
 21
189.272815898673
 31
0.0
  0
LINE
  5
BA
330
1F
100
AcDbEntity
  8
レイヤ1
  6
Continuous
 62
     7
100
AcDbLine
 10
146.526262827604
 20
189.272815898673
 30
0.0
 11
146.466244951926
 21
189.18391125144
 31
0.0
  0
LINE
  5
BB
330
1F
100
AcDbEntity
  8
レイヤ1
  6
Continuous
 62
     7
100
AcDbLine
 10
147.554892866745
 20
190.315232326687
 30
0.0
 11
147.120478697705
 21
188.752195829086
 31
0.0
  0
LINE
  5
BC
330
1F
100
AcDbEntity
  8
レイヤ1
  6
Continuous
 62
     7
100
AcDbLine
 10
143.295917375178
 20
184.37950714615
 30
0.0
 11
146.466244946032
 21
189.183911242509
 31
0.0
  0
LINE
  5
BD
330
1F
100
AcDbEntity
  8
レイヤ1
  6
Continuous
 62
     7
100
AcDbLine
 10
143.873817754673
 20
183.832113980891
 30
0.0
 11
144.198551225296
 21
183.424447949821
 31
0.0
  0
LINE
  5
BE
330
1F
100
AcDbEntity
  8
レイヤ1
  6
Continuous
 62
     7
100
AcDbLine
 10
147.120478697705
 20
188.752195829086
 30
0.0
 11
143.873817754673
 21
183.832113980891
 31
0.0
  0
LINE
  5
BF
330
1F
100
AcDbEntity
  8
レイヤ1
  6
Continuous
 62
     7
100
AcDbLine
 10
146.466244946032
 20
189.183911242509
 30
0.0
 11
147.120478697705
 21
188.752195829086
 31
0.0
  0
LINE
  5
C0
330
1F
100
AcDbEntity
  8
レイヤ1
  6
Continuous
 62
     7
100
AcDbLine
 10
143.295917375178
 20
184.37950714615
 30
0.0
 11
135.936605028305
 21
189.235766188454
 31
0.0
  0
LINE
  5
C1
330
1F
100
AcDbEntity
  8
レイヤ1
  6
Continuous
 62
     7
100
AcDbLine
 10
151.453804019359
 20
186.876671701298
 30
0.0
 11
151.240521743375
 21
187.009201157154
 31
0.0
  0
LINE
  5
C2
330
1F
100
AcDbEntity
  8
レイヤ1
  6
Continuous
 62
     7
100
AcDbLine
 10
151.240521743375
 20
187.009201157154
 30
0.0
 11
151.025379712964
 21
187.137565060221
 31
0.0
  0
LINE
  5
C3
330
1F
100
AcDbEntity
  8
レイヤ1
  6
Continuous
 62
     7
100
AcDbLine
 10
151.025379712964
 20
187.137565060221
 30
0.0
 11
150.808416169571
 21
187.261835416934
 31
0.0
  0
LINE
  5
C4
330
1F
100
AcDbEntity
  8
レイヤ1
  6
Continuous
 62
     7
100
AcDbLine
 10
150.808416169571
 20
187.261835416934
 30
0.0
 11
150.589669354614
 21
187.382084233147
 31
0.0
  0
LINE
  5
C5
330
1F
100
AcDbEntity
  8
レイヤ1
  6
Continuous
 62
     7
100
AcDbLine
 10
150.589669354614
 20
187.382084233147
 30
0.0
 11
150.369177509399
 21
187.498383515266
 31
0.0
  0
LINE
  5
C6
330
1F
100
AcDbEntity
  8
レイヤ1
  6
Continuous
 62
     7
100
AcDbLine
 10
150.369177509399
 20
187.498383515266
 30
0.0
 11
150.14697887551
 21
187.610805269395
 31
0.0
  0
LINE
  5
C7
330
1F
100
AcDbEntity
  8
レイヤ1
  6
Continuous
 62
     7
100
AcDbLine
 10
150.14697887551
 20
187.610805269395
 30
0.0
 11
149.92311169417
 21
187.719421501636
 31
0.0
  0
LINE
  5
C8
330
1F
100
AcDbEntity
  8
レイヤ1
  6
Continuous
 62
     7
100
AcDbLine
 10
149.92311169417
 20
187.719421501636
 30
0.0
 11
149.697614207017
 21
187.824304218175
 31
0.0
  0
LINE
  5
C9
330
1F
100
AcDbEntity
  8
レイヤ1
  6
Continuous
 62
     7
100
AcDbLine
 10
149.697614207017
 20
187.824304218175
 30
0.0
 11
149.470524655248
 21
187.925525425252
 31
0.0
  0
LINE
  5
CA
330
1F
100
AcDbEntity
  8
レイヤ1
  6
Continuous
 62
     7
100
AcDbLine
 10
149.470524655248
 20
187.925525425252
 30
0.0
 11
149.241881280307
 21
188.023157128942
 31
0.0
  0
LINE
  5
CB
330
1F
100
AcDbEntity
  8
レイヤ1
  6
Continuous
 62
     7
100
AcDbLine
 10
149.241881280307
 20
188.023157128942
 30
0.0
 11
149.01172232375
 21
188.117271335488
 31
0.0
  0
LINE
  5
CC
330
1F
100
AcDbEntity
  8
レイヤ1
  6
Continuous
 62
     7
100
AcDbLine
 10
149.01172232375
 20
188.117271335488
 30
0.0
 11
148.7800860268
 21
188.207940050991
 31
0.0
  0
LINE
  5
CD
330
1F
100
AcDbEntity
  8
レイヤ1
  6
Continuous
 62
     7
100
AcDbLine
 10
148.7800860268
 20
188.207940050991
 30
0.0
 11
148.547010630875
 21
188.295235281665
 31
0.0
  0
LINE
  5
CE
330
1F
100
AcDbEntity
  8
レイヤ1
  6
Continuous
 62
     7
100
AcDbLine
 10
148.547010630875
 20
188.295235281665
 30
0.0
 11
148.312534377559
 21
188.379229033612
 31
0.0
  0
LINE
  5
CF
330
1F
100
AcDbEntity
  8
レイヤ1
  6
Continuous
 62
     7
100
AcDbLine
 10
148.312534377559
 20
188.379229033612
 30
0.0
 11
148.076695508184
 21
188.459993313101
 31
0.0
  0
LINE
  5
D0
330
1F
100
AcDbEntity
  8
レイヤ1
  6
Continuous
 62
     7
100
AcDbLine
 10
148.076695508184
 20
188.459993313101
 30
0.0
 11
147.839532264058
 21
188.53760012618
 31
0.0
  0
LINE
  5
D1
330
1F
100
AcDbEntity
  8
レイヤ1
  6
Continuous
 62
     7
100
AcDbLine
 10
147.839532264058
 20
188.53760012618
 30
0.0
 11
147.601082886653
 21
188.612121479144
 31
0.0
  0
LINE
  5
D2
330
1F
100
AcDbEntity
  8
レイヤ1
  6
Continuous
 62
     7
100
AcDbLine
 10
147.601082886653
 20
188.612121479144
 30
0.0
 11
147.361385617415
 21
188.683629378069
 31
0.0
  0
LINE
  5
D3
330
1F
100
AcDbEntity
  8
レイヤ1
  6
Continuous
 62
     7
100
AcDbLine
 10
147.361385617415
 20
188.683629378069
 30
0.0
 11
147.120478707342
 21
188.752195826441
 31
0.0
  0
LINE
  5
D4
330
1F
100
AcDbEntity
  8
レイヤ1
  6
Continuous
 62
     7
100
AcDbLine
 10
146.466244946032
 20
189.183911242509
 30
0.0
 11
139.10693259916
 21
194.040170284812
 31
0.0
  0
LINE
  5
D5
330
1F
100
AcDbEntity
  8
レイヤ1
  6
Continuous
 62
     7
100
AcDbLine
 10
140.565365914633
 20
194.927477583139
 30
0.0
 11
147.554892866745
 21
190.315232326687
 31
0.0
  0
LINE
  5
D6
330
1F
100
AcDbEntity
  8
レイヤ1
  6
Continuous
 62
     7
100
AcDbLine
 10
151.663003626642
 20
186.741318184334
 30
0.0
 11
151.453804019359
 21
186.876671701298
 31
0.0
  0
LINE
  5
D7
330
1F
100
AcDbEntity
  8
レイヤ0
  6
Continuous
 62
     7
100
AcDbLine
 10
91.5794269022061
 20
130.903875434989
 30
0.0
 11
91.5857159055873
 21
130.897586431608
 31
0.0
  0
LINE
  5
D8
330
1F
100
AcDbEntity
  8
レイヤ0
  6
Continuous
 62
     7
100
AcDbLine
 10
137.772956163755
 20
187.478349197822
 30
0.0
 11
137.771330379755
 21
187.477096153822
 31
0.0
  0
LINE
  5
D9
330
1F
100
AcDbEntity
  8
レイヤ0
  6
Continuous
 62
     7
100
AcDbLine
 10
157.054443088229
 20
174.939700224799
 30
0.0
 11
157.338262148793
 21
173.554258974656
 31
0.0
  0
LINE
  5
DA
330
1F
100
AcDbEntity
  8
レイヤ0
  6
Continuous
 62
     7
100
AcDbLine
 10
157.889072995442
 20
174.388889079318
 30
0.0
 11
157.8890728031323
 21
174.3888892062322
 31
0.0
  0
LINE
  5
DB
330
1F
100
AcDbEntity
  8
レイヤ0
  6
Continuous
 62
     7
100
AcDbLine
 10
138.692585035679
 20
187.057545487317
 30
0.0
 11
137.857955128465
 21
187.608356632797
 31
0.0
  0
LINE
  5
DC
330
1F
100
AcDbEntity
  8
レイヤ0
  6
Continuous
 62
     7
100
AcDbLine
 10
159.25959454195
 20
171.926841499697
 30
0.0
 11
158.047810065204
 21
170.090655675245
 31
0.0
  0
LINE
  5
DD
330
1F
100
AcDbEntity
  8
レイヤ0
  6
Continuous
 62
     7
100
AcDbLine
 10
159.25959454195
 20
171.926841499697
 30
0.0
 11
159.174448907524
 21
172.342473819403
 31
0.0
  0
LINE
  5
DE
330
1F
100
AcDbEntity
  8
レイヤ0
  6
Continuous
 62
     7
100
AcDbLine
 10
135.055327232772
 20
187.900364718632
 30
0.0
 11
133.843542756024
 21
186.064178894177
 31
0.0
  0
LINE
  5
DF
330
1F
100
AcDbEntity
  8
レイヤ0
  6
Continuous
 62
     7
100
AcDbLine
 10
135.470959542674
 20
187.985510351049
 30
0.0
 11
135.055327232772
 21
187.900364718632
 31
0.0
  0
LINE
  5
E0
330
1F
100
AcDbEntity
  8
レイヤ0
  6
Continuous
 62
     7
100
AcDbLine
 10
158.690458166622
 20
172.66188184935
 30
0.0
 11
159.182382447764
 21
171.809844000934
 31
0.0
  0
LINE
  5
E1
330
1F
100
AcDbEntity
  8
レイヤ0
  6
Continuous
 62
     7
100
AcDbLine
 10
159.174448907524
 20
172.342473819403
 30
0.0
 11
137.307144666545
 21
186.773726274471
 31
0.0
  0
LINE
  5
E2
330
1F
100
AcDbEntity
  8
レイヤ0
  6
Continuous
 62
     7
100
AcDbLine
 10
137.307144666545
 20
186.773726274471
 30
0.0
 11
135.470959542674
 21
187.985510351049
 31
0.0
  0
LINE
  5
E3
330
1F
100
AcDbEntity
  8
レイヤ0
  6
Continuous
 62
     7
100
AcDbLine
 10
91.5794269022097
 20
153.141965763496
 30
0.0
 11
91.5794269022111
 21
154.527499656708
 31
0.0
  0
LINE
  5
E4
330
1F
100
AcDbEntity
  8
レイヤ0
  6
Continuous
 62
     7
100
AcDbLine
 10
72.57942690221131
 20
151.891965763497
 30
0.0
 11
72.57942690221131
 21
133.391965763497
 31
0.0
  0
LINE
  5
E5
330
1F
100
AcDbEntity
  8
レイヤ0
  6
Continuous
 62
     2
100
AcDbLine
 10
86.5794104062225
 20
151.8919657634962
 30
0.0
 11
74.07942690221131
 21
151.891965763496
 31
0.0
  0
LINE
  5
E6
330
1F
100
AcDbEntity
  8
レイヤ0
  6
Continuous
 62
     7
100
AcDbLine
 10
74.07942690221202
 20
153.141965763496
 30
0.0
 11
72.57942690221131
 21
151.891965763497
 31
0.0
  0
LINE
  5
E7
330
1F
100
AcDbEntity
  8
レイヤ0
  6
Continuous
 62
     7
100
AcDbLine
 10
74.07942690221222
 20
132.141965763497
 30
0.0
 11
72.57942690221131
 21
133.391965763497
 31
0.0
  0
LINE
  5
E8
330
1F
100
AcDbEntity
  8
レイヤ0
  6
Continuous
 62
     7
100
AcDbLine
 10
74.07942690221222
 20
132.141965763497
 30
0.0
 11
74.07942690221131
 21
133.391965763496
 31
0.0
  0
LINE
  5
E9
330
1F
100
AcDbEntity
  8
レイヤ0
  6
Continuous
 62
     7
100
AcDbLine
 10
74.07942690221131
 20
151.891965763496
 30
0.0
 11
74.07942690221202
 21
153.141965763496
 31
0.0
  0
LINE
  5
EA
330
1F
100
AcDbEntity
  8
レイヤ0
  6
Continuous
 62
     7
100
AcDbLine
 10
86.5794104062226
 20
153.141965763496
 30
0.0
 11
74.07942690221202
 21
153.141965763496
 31
0.0
  0
LINE
  5
EB
330
1F
100
AcDbEntity
  8
レイヤ0
  6
Continuous
 62
     7
100
AcDbLine
 10
74.07942690221222
 20
132.141965763497
 30
0.0
 11
86.5794104062226
 21
132.141965763496
 31
0.0
  0
LINE
  5
EC
330
1F
100
AcDbEntity
  8
レイヤ0
  6
Continuous
 62
     7
100
AcDbLine
 10
91.5794269022118
 20
130.641965763496
 30
0.0
 11
91.5794269022118
 21
131.909557092563
 31
0.0
  0
LINE
  5
ED
330
1F
100
AcDbEntity
  8
レイヤ0
  6
Continuous
 62
     7
100
AcDbLine
 10
91.5794269022097
 20
153.141965763496
 30
0.0
 11
91.5794269022115
 21
154.641965763496
 31
0.0
  0
LINE
  5
EE
330
1F
100
AcDbEntity
  8
レイヤ0
  6
Continuous
 62
     7
100
AcDbLine
 10
91.5794269022118
 20
130.641965763496
 30
0.0
 11
91.5794269022109
 21
132.141965763496
 31
0.0
  0
LINE
  5
EF
330
1F
100
AcDbEntity
  8
レイヤ0
  6
Continuous
 62
     7
100
AcDbLine
 10
86.9330019127681
 20
120.641967413095
 30
0.0
 11
86.5794104062225
 21
120.995521803667
 31
0.0
  0
LINE
  5
F0
330
1F
100
AcDbEntity
  8
レイヤ0
  6
Continuous
 62
     7
100
AcDbLine
 10
88.6050517702429
 20
120.641967413095
 30
0.0
 11
86.9330019127681
 21
120.641967413095
 31
0.0
  0
LINE
  5
F1
330
1F
100
AcDbEntity
  8
レイヤ0
  6
Continuous
 62
     7
100
AcDbLine
 10
91.2549838067716
 20
130.770310325098
 30
0.0
 11
89.5794203038154
 21
130.14197401149
 31
0.0
  0
LINE
  5
F2
330
1F
100
AcDbEntity
  8
レイヤ0
  6
Continuous
 62
     7
100
AcDbLine
 10
89.1043604222996
 20
121.115687798744
 30
0.0
 11
89.5794203038154
 21
130.14197401149
 31
0.0
  0
LINE
  5
F3
330
1F
100
AcDbEntity
  8
レイヤ0
  6
Continuous
 62
     7
100
AcDbLine
 10
86.5794104062225
 20
120.995521803667
 30
0.0
 11
86.5794104062226
 21
132.141965763496
 31
0.0
  0
LINE
  5
F4
330
1F
100
AcDbEntity
  8
レイヤ0
  6
Continuous
 62
     7
100
AcDbLine
 10
91.5794269022107
 20
131.238466469524
 30
0.0
 11
91.5794269022109
 21
132.141965763496
 31
0.0
  0
LINE
  5
F5
330
1F
100
AcDbEntity
  8
レイヤ0
  6
Continuous
 62
     7
100
AcDbLine
 10
86.9330019127681
 20
164.641964113897
 30
0.0
 11
86.5794104062225
 21
164.288409723325
 31
0.0
  0
LINE
  5
F6
330
1F
100
AcDbEntity
  8
レイヤ0
  6
Continuous
 62
     7
100
AcDbLine
 10
88.6050517702429
 20
164.641964113897
 30
0.0
 11
86.9330019127681
 21
164.641964113897
 31
0.0
  0
LINE
  5
F7
330
1F
100
AcDbEntity
  8
レイヤ0
  6
Continuous
 62
     7
100
AcDbLine
 10
89.1043604222996
 20
164.168243728247
 30
0.0
 11
89.5794203038154
 21
155.141957515502
 31
0.0
  0
LINE
  5
F8
330
1F
100
AcDbEntity
  8
レイヤ0
  6
Continuous
 62
     7
100
AcDbLine
 10
86.5794104062225
 20
164.288409723325
 30
0.0
 11
86.5794104062226
 21
153.141965763496
 31
0.0
  0
LINE
  5
F9
330
1F
100
AcDbEntity
  8
レイヤ0
  6
Continuous
 62
     7
100
AcDbLine
 10
91.2549838067716
 20
154.513621201893
 30
0.0
 11
89.5794203038154
 21
155.141957515502
 31
0.0
  0
LINE
  5
FA
330
1F
100
AcDbEntity
  8
レイヤ0
  6
Continuous
 62
     7
100
AcDbLine
 10
163.55412249787
 20
179.75766935043
 30
0.0
 11
160.803675855818
 21
188.69395121737
 31
0.0
  0
LINE
  5
FB
330
1F
100
AcDbEntity
  8
レイヤ0
  6
Continuous
 62
     7
100
AcDbLine
 10
160.141597622401
 20
173.263388796165
 30
0.0
 11
163.311925193255
 21
178.067792892524
 31
0.0
  0
LINE
  5
FC
330
1F
100
AcDbEntity
  8
レイヤ0
  6
Continuous
 62
     7
100
AcDbLine
 10
159.725969287861
 20
173.178223735678
 30
0.0
 11
160.141597622401
 21
173.263388796165
 31
0.0
  0
LINE
  5
FD
330
1F
100
AcDbEntity
  8
レイヤ0
  6
Continuous
 62
     7
100
AcDbLine
 10
159.725969287861
 20
173.178223735678
 30
0.0
 11
157.889259432135
 21
174.390230839676
 31
0.0
  0
LINE
  5
FE
330
1F
100
AcDbEntity
  8
レイヤ0
  6
Continuous
 62
     7
100
AcDbLine
 10
159.99371148129
 20
189.774930323062
 30
0.0
 11
159.548428823857
 21
190.068763201681
 31
0.0
  0
LINE
  5
FF
330
1F
100
AcDbEntity
  8
レイヤ0
  6
Continuous
 62
     7
100
AcDbLine
 10
174.222642847138
 20
191.766694115086
 30
0.0
 11
172.500960170682
 21
192.902797146378
 31
0.0
  0
LINE
  5
100
330
1F
100
AcDbEntity
  8
レイヤ0
  6
Continuous
 62
     7
100
AcDbLine
 10
178.628819834508
 20
198.443939382108
 30
0.0
 11
176.600566622525
 21
199.782342012207
 31
0.0
  0
LINE
  5
101
330
1F
100
AcDbEntity
  8
レイヤ0
  6
Continuous
 62
     7
100
AcDbLine
 10
173.629155483299
 20
207.775834929109
 30
0.0
 11
172.508200005171
 21
206.077107283277
 31
0.0
  0
LINE
  5
102
330
1F
100
AcDbEntity
  8
レイヤ0
  6
Continuous
 62
     7
100
AcDbLine
 10
173.095426989727
 20
208.237950715257
 30
0.0
 11
171.923941044307
 21
206.462647769672
 31
0.0
  0
LINE
  5
103
330
1F
100
AcDbEntity
  8
レイヤ0
  6
Continuous
 62
     7
100
AcDbLine
 10
172.478588154205
 20
208.755682030076
 30
0.0
 11
171.256216517604
 21
206.903265468409
 31
0.0
  0
LINE
  5
104
330
1F
100
AcDbEntity
  8
レイヤ0
  6
Continuous
 62
     7
100
AcDbLine
 10
171.775942607778
 20
209.324942719766
 30
0.0
 11
170.505026425064
 21
207.398960379488
 31
0.0
  0
LINE
  5
105
330
1F
100
AcDbEntity
  8
レイヤ0
  6
Continuous
 62
     7
100
AcDbLine
 10
170.984476645866
 20
209.941165731141
 30
0.0
 11
169.670370766686
 21
207.949732502909
 31
0.0
  0
LINE
  5
106
330
1F
100
AcDbEntity
  8
レイヤ0
  6
Continuous
 62
     7
100
AcDbLine
 10
170.100857614644
 20
210.59930066631
 30
0.0
 11
168.752249542471
 21
208.555581838673
 31
0.0
  0
LINE
  5
107
330
1F
100
AcDbEntity
  8
レイヤ0
  6
Continuous
 62
     7
100
AcDbLine
 10
169.121427626624
 20
211.293804259081
 30
0.0
 11
167.750662752417
 21
209.216508386778
 31
0.0
  0
LINE
  5
108
330
1F
100
AcDbEntity
  8
レイヤ0
  6
Continuous
 62
     7
100
AcDbLine
 10
162.361304095011
 20
215.21125859542
 30
0.0
 11
161.240348616883
 21
213.512530949588
 31
0.0
  0
LINE
  5
109
330
1F
100
AcDbEntity
  8
レイヤ0
  6
Continuous
 62
     7
100
AcDbLine
 10
162.996093523169
 20
214.902293408778
 30
0.0
 11
161.824607577747
 21
213.126990463193
 31
0.0
  0
LINE
  5
10A
330
1F
100
AcDbEntity
  8
レイヤ0
  6
Continuous
 62
     7
100
AcDbLine
 10
163.714703741051
 20
214.538789326123
 30
0.0
 11
162.49233210445
 21
212.686372764456
 31
0.0
  0
LINE
  5
10B
330
1F
100
AcDbEntity
  8
レイヤ0
  6
Continuous
 62
     7
100
AcDbLine
 10
164.514438379704
 20
214.116660193654
 30
0.0
 11
163.24352219699
 21
212.190677853376
 31
0.0
  0
LINE
  5
10C
330
1F
100
AcDbEntity
  8
レイヤ0
  6
Continuous
 62
     7
100
AcDbLine
 10
165.392283734547
 20
213.631338958187
 30
0.0
 11
164.078177855367
 21
211.639905729955
 31
0.0
  0
LINE
  5
10D
330
1F
100
AcDbEntity
  8
レイヤ0
  6
Continuous
 62
     7
100
AcDbLine
 10
167.368650743843
 20
212.450425718389
 30
0.0
 11
165.997885869636
 21
210.373129846087
 31
0.0
  0
LINE
  5
10E
330
1F
100
AcDbEntity
  8
レイヤ0
  6
Continuous
 62
     7
100
AcDbLine
 10
166.344907151756
 20
213.077775221829
 30
0.0
 11
164.996299079583
 21
211.034056394192
 31
0.0
  0
LINE
  5
10F
330
1F
100
AcDbEntity
  8
レイヤ0
  6
Continuous
 62
     7
100
AcDbLine
 10
159.1651419093759
 20
198.1085330660092
 30
0.0
 11
163.128081714118
 21
195.4934704957862
 31
0.0
  0
LINE
  5
110
330
1F
100
AcDbEntity
  8
レイヤ0
  6
Continuous
 62
     7
100
AcDbLine
 10
160.067262947692
 20
214.286626085096
 30
0.0
 11
173.681285674361
 21
205.303012147768
 31
0.0
  0
LINE
  5
111
330
1F
100
AcDbEntity
  8
レイヤ0
  6
Continuous
 62
     7
100
AcDbLine
 10
140.566683492881
 20
194.928148162382
 30
0.0
 11
149.864634660189
 21
195.913132642727
 31
0.0
  0
LINE
  5
112
330
1F
100
AcDbEntity
  8
レイヤ0
  6
Continuous
 62
     7
100
AcDbLine
 10
135.937391362639
 20
189.236868840816
 30
0.0
 11
139.108167362539
 21
194.040976998018
 31
0.0
  0
LINE
  5
113
330
1F
100
AcDbEntity
  8
レイヤ0
  6
Continuous
 62
     7
100
AcDbLine
 10
136.022517628026
 20
188.821232558784
 30
0.0
 11
135.937391362639
 21
189.236868840816
 31
0.0
  0
LINE
  5
114
330
1F
100
AcDbEntity
  8
レイヤ0
  6
Continuous
 62
     7
100
AcDbLine
 10
147.413328487115
 20
209.459406007585
 30
0.0
 11
149.134905112267
 21
208.32314227946
 31
0.0
  0
LINE
  5
115
330
1F
100
AcDbEntity
  8
レイヤ0
  6
Continuous
 62
     7
100
AcDbLine
 10
151.820128709053
 20
216.136239973166
 30
0.0
 11
153.848256985762
 21
214.797648031837
 31
0.0
  0
LINE
  5
116
330
1F
100
AcDbEntity
  8
レイヤ0
  6
Continuous
 62
     7
100
AcDbLine
 10
159.165141909232
 20
198.108533065791
 30
0.0
 11
150.714763373301
 21
203.685896558664
 31
0.0
  0
LINE
  5
117
330
1F
100
AcDbEntity
  8
レイヤ0
  6
Continuous
 62
     7
100
AcDbLine
 10
151.177027076726
 20
195.593469914274
 30
0.0
 11
155.585235512697
 21
192.68399305531
 31
0.0
  0
LINE
  5
118
330
1F
100
AcDbEntity
  8
レイヤ0
  6
Continuous
 62
     7
100
AcDbLine
 10
136.022517628026
 20
188.821232558784
 30
0.0
 11
147.873879743213
 21
180.999174159737
 31
0.0
  0
LINE
  5
119
330
1F
100
AcDbEntity
  8
レイヤ0
  6
Continuous
 62
     7
100
AcDbLine
 10
155.202441548218
 20
200.723968603115
 30
0.0
 11
151.622282318749
 21
195.299595465774
 31
0.0
  0
LINE
  5
11A
330
1F
100
AcDbEntity
  8
レイヤ0
  6
Continuous
 62
     7
100
AcDbLine
 10
137.858627447328
 20
187.609375382026
 30
0.0
 11
137.307144666545
 21
186.773726274471
 31
0.0
  0
LINE
  5
11B
330
1F
100
AcDbEntity
  8
レイヤ0
  6
Continuous
 62
     7
100
AcDbLine
 10
160.151788904482
 20
115.230484415951
 30
0.0
 11
159.969981113413
 21
115.013814327783
 31
0.0
  0
LINE
  5
11C
330
1F
100
AcDbEntity
  8
レイヤ0
  6
Continuous
 62
     7
100
AcDbLine
 10
173.214221836205
 20
101.316009103944
 30
0.0
 11
161.259885459104
 21
100.270140190973
 31
0.0
  0
LINE
  5
11D
330
1F
100
AcDbEntity
  8
レイヤ0
  6
Continuous
 62
     7
100
AcDbLine
 10
184.0888815526
 20
100.259772250144
 30
0.0
 11
162.68169487705
 21
98.38688609805
 31
0.0
  0
LINE
  5
11E
330
1F
100
AcDbEntity
  8
レイヤ0
  6
Continuous
 62
     7
100
AcDbLine
 10
159.969981113413
 20
115.013814327783
 30
0.0
 11
161.259885459104
 21
100.270140190973
 31
0.0
  0
LINE
  5
11F
330
1F
100
AcDbEntity
  8
レイヤ0
  6
Continuous
 62
     7
100
AcDbLine
 10
182.902509548841
 20
128.262932772356
 30
0.0
 11
185.193043192576
 21
102.082013423233
 31
0.0
  0
LINE
  5
120
330
1F
100
AcDbEntity
  8
レイヤ0
  6
Continuous
 62
     7
100
AcDbLine
 10
160.151788904482
 20
115.230484415951
 30
0.0
 11
160.948744662956
 21
115.300209010149
 31
0.0
  0
LINE
  5
121
330
1F
100
AcDbEntity
  8
レイヤ0
  6
Continuous
 62
     7
100
AcDbLine
 10
159.92640324204
 20
115.51191167683
 30
0.0
 11
160.251408374291
 21
115.239199990227
 31
0.0
  0
LINE
  5
122
330
1F
100
AcDbEntity
  8
レイヤ0
  6
Continuous
 62
     7
100
AcDbLine
 10
160.948744662956
 20
115.300209010149
 30
0.0
 11
160.251408374291
 21
115.239199990227
 31
0.0
  0
LINE
  5
123
330
1F
100
AcDbEntity
  8
レイヤ0
  6
Continuous
 62
     7
100
AcDbLine
 10
159.92640324204
 20
115.51191167683
 30
0.0
 11
171.88073961914
 21
116.557780589802
 31
0.0
  0
LINE
  5
124
330
1F
100
AcDbEntity
  8
レイヤ0
  6
Continuous
 62
     7
100
AcDbLine
 10
182.360834328421
 20
128.717452250028
 30
0.0
 11
182.902509548841
 21
128.262932772356
 31
0.0
  0
LINE
  5
125
330
1F
100
AcDbEntity
  8
レイヤ0
  6
Continuous
 62
     7
100
AcDbLine
 10
159.448356272312
 20
126.712870166832
 30
0.0
 11
158.99383679464
 21
126.171194946413
 31
0.0
  0
LINE
  5
126
330
1F
100
AcDbEntity
  8
レイヤ0
  6
Continuous
 62
     7
100
AcDbLine
 10
158.99383679464
 20
126.171194946413
 30
0.0
 11
170.94817317174
 21
127.217063859385
 31
0.0
  0
LINE
  5
127
330
1F
100
AcDbEntity
  8
レイヤ0
  6
Continuous
 62
     7
100
AcDbLine
 10
158.99383679464
 20
126.171194946413
 30
0.0
 11
159.92640324204
 21
115.51191167683
 31
0.0
  0
LINE
  5
128
330
1F
100
AcDbEntity
  8
レイヤ0
  6
Continuous
 62
     7
100
AcDbLine
 10
169.75273953403
 20
127.112476968088
 30
0.0
 11
170.68530598143
 21
116.453193698505
 31
0.0
  0
LINE
  5
129
330
1F
100
AcDbEntity
  8
レイヤ0
  6
Continuous
 62
     7
100
AcDbLine
 10
168.55730589632
 20
127.007890076791
 30
0.0
 11
169.48987234372
 21
116.348606807208
 31
0.0
  0
LINE
  5
12A
330
1F
100
AcDbEntity
  8
レイヤ0
  6
Continuous
 62
     7
100
AcDbLine
 10
167.461491728419
 20
126.912018759768
 30
0.0
 11
168.394058175819
 21
116.252735490185
 31
0.0
  0
LINE
  5
12B
330
1F
100
AcDbEntity
  8
レイヤ0
  6
Continuous
 62
     7
100
AcDbLine
 10
166.365677560518
 20
126.816147442746
 30
0.0
 11
167.298244007918
 21
116.156864173163
 31
0.0
  0
LINE
  5
12C
330
1F
100
AcDbEntity
  8
レイヤ0
  6
Continuous
 62
     7
100
AcDbLine
 10
165.369482862426
 20
126.728991699998
 30
0.0
 11
166.302049309826
 21
116.069708430415
 31
0.0
  0
LINE
  5
12D
330
1F
100
AcDbEntity
  8
レイヤ0
  6
Continuous
 62
     7
100
AcDbLine
 10
164.373288164335
 20
126.64183595725
 30
0.0
 11
165.305854611734
 21
115.982552687668
 31
0.0
  0
LINE
  5
12E
330
1F
100
AcDbEntity
  8
レイヤ0
  6
Continuous
 62
     7
100
AcDbLine
 10
163.476712936052
 20
126.563395788778
 30
0.0
 11
164.409279383452
 21
115.904112519195
 31
0.0
  0
LINE
  5
12F
330
1F
100
AcDbEntity
  8
レイヤ0
  6
Continuous
 62
     7
100
AcDbLine
 10
161.085845660632
 20
126.354222006183
 30
0.0
 11
162.018412108032
 21
115.6949387366
 31
0.0
  0
LINE
  5
130
330
1F
100
AcDbEntity
  8
レイヤ0
  6
Continuous
 62
     7
100
AcDbLine
 10
159.990031492732
 20
126.258350689161
 30
0.0
 11
160.922597940131
 21
115.599067419578
 31
0.0
  0
LINE
  5
131
330
1F
100
AcDbEntity
  8
レイヤ0
  6
Continuous
 62
     7
100
AcDbLine
 10
161.783181949296
 20
126.415231026107
 30
0.0
 11
162.715748396696
 21
115.755947756524
 31
0.0
  0
LINE
  5
132
330
1F
100
AcDbEntity
  8
レイヤ0
  6
Continuous
 62
     7
100
AcDbLine
 10
162.580137707769
 20
126.484955620305
 30
0.0
 11
163.512704155169
 21
115.825672350722
 31
0.0
  0
LINE
  5
133
330
1F
100
AcDbEntity
  8
レイヤ0
  6
Continuous
 62
     7
100
AcDbLine
 10
160.488128841777
 20
126.301928560534
 30
0.0
 11
161.420695289177
 21
115.642645290952
 31
0.0
  0
LINE
  5
134
330
1F
100
AcDbEntity
  8
レイヤ0
  6
Continuous
 62
     7
100
AcDbLine
 10
159.591553613495
 20
126.223488392062
 30
0.0
 11
160.524120060895
 21
115.564205122479
 31
0.0
  0
LINE
  5
135
330
1F
100
AcDbEntity
  8
レイヤ0
  6
Continuous
 62
     7
100
AcDbLine
 10
159.093456264449
 20
126.179910520688
 30
0.0
 11
160.026022711849
 21
115.520627251105
 31
0.0
  0
LINE
  5
136
330
1F
100
AcDbEntity
  8
レイヤ0
  6
Continuous
 62
     7
100
AcDbLine
 10
159.292695204067
 20
126.197341669237
 30
0.0
 11
160.225261651468
 21
115.538058399655
 31
0.0
  0
LINE
  5
137
330
1F
100
AcDbEntity
  8
レイヤ0
  6
Continuous
 62
     7
100
AcDbLine
 10
160.251408374291
 20
115.239199990227
 30
0.0
 11
171.906886341964
 21
116.258922180374
 31
0.0
  0
LINE
  5
138
330
1F
100
AcDbEntity
  8
レイヤ0
  6
Continuous
 62
     7
100
AcDbLine
 10
160.251408374291
 20
115.239199990227
 30
0.0
 11
171.906886341964
 21
116.258922180374
 31
0.0
  0
LINE
  5
139
330
1F
100
AcDbEntity
  8
レイヤ0
  6
Continuous
 62
     7
100
AcDbLine
 10
161.183061545146
 20
129.677030249177
 30
0.0
 11
161.424933010072
 21
126.885798223975
 31
0.0
  0
LINE
  5
13A
330
1F
100
AcDbEntity
  8
レイヤ0
  6
Continuous
 62
     7
100
AcDbLine
 10
182.360834328421
 20
128.717452250028
 30
0.0
 11
180.346030328401
 21
128.5411797408
 31
0.0
  0
LINE
  5
13B
330
1F
100
AcDbEntity
  8
レイヤ0
  6
Continuous
 62
     7
100
AcDbLine
 10
159.448356272312
 20
126.712870166832
 30
0.0
 11
170.882181204995
 21
127.713199905569
 31
0.0
  0
LINE
  5
13C
330
1F
100
AcDbEntity
  8
1
  6
DASH_CENTER
 62
     2
100
AcDbLine
 10
69.57942690221131
 20
142.641965763496
 30
0.0
 11
97.5794269022118
 21
142.641965763496
 31
0.0
  0
LINE
  5
13D
330
1F
100
AcDbEntity
  8
レイヤ0
  6
Continuous
 62
     2
100
AcDbLine
 10
86.5794104062225
 20
133.3919657634962
 30
0.0
 11
74.07942690221131
 21
133.391965763496
 31
0.0
  0
LINE
  5
13E
330
1F
100
AcDbEntity
  8
レイヤ0
  6
Continuous
 62
     7
100
AcDbLine
 10
179.999217016731
 20
132.505272754181
 30
0.0
 11
180.346030328401
 21
128.5411797408
 31
0.0
  0
LINE
  5
13F
330
1F
100
AcDbEntity
  8
1
  6
Continuous
 62
     7
100
AcDbLine
 10
86.5794104062225
 20
153.11947100922
 30
0.0
 11
86.5794104062225
 21
151.8919657634962
 31
0.0
  0
LINE
  5
140
330
1F
100
AcDbEntity
  8
1
  6
Continuous
 62
     7
100
AcDbLine
 10
91.5794269022097
 20
153.141965763496
 30
0.0
 11
91.5794269022097
 21
132.141965763496
 31
0.0
  0
LINE
  5
141
330
1F
100
AcDbEntity
  8
1
  6
Continuous
 62
     7
100
AcDbLine
 10
86.5794104062225
 20
133.3919657634962
 30
0.0
 11
86.5794104062225
 21
132.164460517771
 31
0.0
  0
LINE
  5
142
330
1F
100
AcDbEntity
  8
1
  6
Continuous
 62
     7
100
AcDbLine
 10
86.5794104062225
 20
151.8919657634962
 30
0.0
 11
86.5794104062225
 21
133.3919657634962
 31
0.0
  0
LINE
  5
143
330
1F
100
AcDbEntity
  8
1
  6
Continuous
 62
     7
100
AcDbLine
 10
74.07942690221131
 20
151.891965763496
 30
0.0
 11
74.07942690221131
 21
133.391965763496
 31
0.0
  0
LINE
  5
144
330
1F
100
AcDbEntity
  8
レイヤ0
  6
Continuous
 62
     2
100
AcDbLine
 10
74.07942690221131
 20
151.891965763496
 30
0.0
 11
72.57942690221131
 21
151.891965763497
 31
0.0
  0
LINE
  5
145
330
1F
100
AcDbEntity
  8
レイヤ0
  6
Continuous
 62
     2
100
AcDbLine
 10
74.07942690221131
 20
133.391965763496
 30
0.0
 11
72.57942690221131
 21
133.391965763497
 31
0.0
  0
LINE
  5
146
330
1F
100
AcDbEntity
  8
1
  6
DASH_CENTER
 62
     2
100
AcDbLine
 10
168.489952120567
 20
154.8101026643314
 30
0.0
 11
171.5794104062226
 21
119.81564862621
 31
0.0
  0
LINE
  5
147
330
1F
100
AcDbEntity
  8
レイヤ0
  6
Continuous
 62
     7
100
AcDbLine
 10
171.8801485496686
 20
116.2565616550788
 30
0.0
 11
183.5340019204419
 21
117.2946857384645
 31
0.0
  0
LINE
  5
148
330
1F
100
AcDbEntity
  8
レイヤ0
  6
Continuous
 62
     7
100
AcDbLine
 10
171.8535299834276
 20
116.555378408176
 30
0.0
 11
183.8062001072972
 21
117.6201210578016
 31
0.0
  0
LINE
  5
149
330
1F
100
AcDbEntity
  8
レイヤ0
  6
Continuous
 62
     7
100
AcDbLine
 10
173.0487969958145
 20
116.6618526731388
 30
0.0
 11
172.0994014665646
 21
127.319650200258
 31
0.0
  0
LINE
  5
14A
330
1F
100
AcDbEntity
  8
レイヤ0
  6
Continuous
 62
     7
100
AcDbLine
 10
174.2440640082014
 20
116.7683269381015
 30
0.0
 11
173.2946684789516
 21
127.4261244652208
 31
0.0
  0
LINE
  5
14B
330
1F
100
AcDbEntity
  8
レイヤ0
  6
Continuous
 62
     7
100
AcDbLine
 10
175.3397254362231
 20
116.86592834765
 30
0.0
 11
174.3903299069732
 21
127.5237258747692
 31
0.0
  0
LINE
  5
14C
330
1F
100
AcDbEntity
  8
レイヤ0
  6
Continuous
 62
     7
100
AcDbLine
 10
176.4353868642446
 20
116.9635297571995
 30
0.0
 11
175.4859913349947
 21
127.6213272843187
 31
0.0
  0
LINE
  5
14D
330
1F
100
AcDbEntity
  8
レイヤ0
  6
Continuous
 62
     7
100
AcDbLine
 10
177.4314427079007
 20
117.0522583113347
 30
0.0
 11
176.4820471786509
 21
127.7100558384539
 31
0.0
  0
LINE
  5
14E
330
1F
100
AcDbEntity
  8
レイヤ0
  6
Continuous
 62
     7
100
AcDbLine
 10
178.4274985515568
 20
117.1409868654709
 30
0.0
 11
177.4781030223061
 21
127.7987843925889
 31
0.0
  0
LINE
  5
14F
330
1F
100
AcDbEntity
  8
レイヤ0
  6
Continuous
 62
     7
100
AcDbLine
 10
179.3239488108465
 20
117.2208425641926
 30
0.0
 11
178.3745532815967
 21
127.8786400913118
 31
0.0
  0
LINE
  5
150
330
1F
100
AcDbEntity
  8
レイヤ0
  6
Continuous
 62
     7
100
AcDbLine
 10
180.2203990701373
 20
117.3006982629145
 30
0.0
 11
179.2710035408874
 21
127.9584957900337
 31
0.0
  0
LINE
  5
151
330
1F
100
AcDbEntity
  8
レイヤ0
  6
Continuous
 62
     7
100
AcDbLine
 10
181.0172437450615
 20
117.3716811062229
 30
0.0
 11
180.0678482158117
 21
128.0294786333421
 31
0.0
  0
LINE
  5
152
330
1F
100
AcDbEntity
  8
レイヤ0
  6
Continuous
 62
     7
100
AcDbLine
 10
181.7144828356205
 20
117.4337910941171
 30
0.0
 11
180.7650873063707
 21
128.0915886212363
 31
0.0
  0
LINE
  5
153
330
1F
100
AcDbEntity
  8
レイヤ0
  6
Continuous
 62
     7
100
AcDbLine
 10
182.3121163418139
 20
117.487028226599
 30
0.0
 11
181.3627208125642
 21
128.1448257537172
 31
0.0
  0
LINE
  5
154
330
1F
100
AcDbEntity
  8
レイヤ0
  6
Continuous
 62
     7
100
AcDbLine
 10
182.810144263642
 20
117.5313925036666
 30
0.0
 11
181.8607487343912
 21
128.1891900307856
 31
0.0
  0
LINE
  5
155
330
1F
100
AcDbEntity
  8
レイヤ0
  6
Continuous
 62
     7
100
AcDbLine
 10
183.5073833541999
 20
117.5935024915615
 30
0.0
 11
182.5579878249512
 21
128.25130001868
 31
0.0
  0
LINE
  5
156
330
1F
100
AcDbEntity
  8
レイヤ0
  6
Continuous
 62
     7
100
AcDbLine
 10
183.7065945229318
 20
117.6112482023883
 30
0.0
 11
182.7571989936819
 21
128.2690457295075
 31
0.0
  0
LINE
  5
157
330
1F
100
AcDbEntity
  8
レイヤ0
  6
Continuous
 62
     7
100
AcDbLine
 10
170.9041344541777
 20
127.2131759352953
 30
0.0
 11
182.8568045780473
 21
128.2779185849208
 31
0.0
  0
LINE
  5
158
330
1F
100
AcDbEntity
  8
レイヤ0
  6
Continuous
 62
     7
100
AcDbLine
 10
170.882181204995
 20
127.713199905569
 30
0.0
 11
182.3144123791519
 21
128.7315822296803
 31
0.0
  0
LINE
  5
159
330
1F
100
AcDbEntity
  8
レイヤ0
  6
Continuous
 62
     7
100
AcDbLine
 10
185.163746326922
 20
102.3804740437828
 30
0.0
 11
173.2110762030515
 21
101.3157313941561
 31
0.0
  0
LINE
  5
15A
330
1F
100
AcDbEntity
  8
1
  6
DASH_CENTER
 62
     2
100
AcDbLine
 10
169.9059588290302
 20
214.3838164595379
 30
0.0
 11
168.2535254516504
 21
211.8799266989211
 31
0.0
  0
LINE
  5
15B
330
1F
100
AcDbEntity
  8
レイヤ0
  6
Continuous
 62
     7
100
AcDbLine
 10
138.692585035679
 20
187.057545487317
 30
0.0
 11
137.307144666545
 21
186.773726274471
 31
0.0
  0
LINE
  5
15C
330
1F
100
AcDbEntity
  8
レイヤ0
  6
Continuous
 62
     7
100
AcDbLine
 10
163.128081714118
 20
195.4934704957862
 30
0.0
 11
159.5484288109799
 21
190.0687632101783
 31
0.0
  0
LINE
  5
15D
330
1F
100
AcDbEntity
  8
レイヤ0
  6
Continuous
 62
     7
100
AcDbLine
 10
157.338261956594
 20
173.554259101738
 30
0.0
 11
157.8890728031323
 21
174.3888892062322
 31
0.0
  0
LINE
  5
15E
330
1F
100
AcDbEntity
  8
レイヤ0
  6
Continuous
 62
     7
100
AcDbLine
 10
157.8890728031323
 20
174.3888892062322
 30
0.0
 11
157.054443088229
 21
174.939700224799
 31
0.0
  0
LINE
  5
15F
330
1F
100
AcDbEntity
  8
レイヤ1
  6
Continuous
 62
     7
100
AcDbLine
 10
151.8702495033627
 20
186.6018399461422
 30
0.0
 11
151.6635388751101
 21
186.7409649489608
 31
0.0
  0
LINE
  5
160
330
1F
100
AcDbEntity
  8
レイヤ1
  6
Continuous
 62
     7
100
AcDbLine
 10
156.5649306417348
 20
184.3690890958528
 30
0.0
 11
163.5540265082454
 21
179.756190626486
 31
0.0
  0
LINE
  5
161
330
1F
100
AcDbEntity
  8
レイヤ1
  6
Continuous
 62
     7
100
AcDbLine
 10
163.3116712708008
 20
178.0663368114389
 30
0.0
 11
155.9528128163889
 21
182.9232836253028
 31
0.0
  0
LINE
  5
162
330
1F
100
AcDbEntity
  8
レイヤ1
  6
Continuous
 62
     7
100
AcDbLine
 10
155.2986194089724
 20
183.3550601885869
 30
0.0
 11
155.1408481814228
 21
183.5495999966489
 31
0.0
  0
LINE
  5
163
330
1F
100
AcDbEntity
  8
レイヤ1
  6
Continuous
 62
     7
100
AcDbLine
 10
155.1408481814228
 20
183.5495999966489
 30
0.0
 11
154.9808480942667
 21
183.7418709840569
 31
0.0
  0
LINE
  5
164
330
1F
100
AcDbEntity
  8
レイヤ1
  6
Continuous
 62
     7
100
AcDbLine
 10
154.9808480942667
 20
183.7418709840569
 30
0.0
 11
154.8185679849584
 21
183.9318096682561
 31
0.0
  0
LINE
  5
165
330
1F
100
AcDbEntity
  8
レイヤ1
  6
Continuous
 62
     7
100
AcDbLine
 10
154.8185679849584
 20
183.9318096682561
 30
0.0
 11
154.6539566848152
 21
184.1193525744557
 31
0.0
  0
LINE
  5
166
330
1F
100
AcDbEntity
  8
レイヤ1
  6
Continuous
 62
     7
100
AcDbLine
 10
154.6539566848152
 20
184.1193525744557
 30
0.0
 11
154.4869630249629
 21
184.3044362277549
 31
0.0
  0
LINE
  5
167
330
1F
100
AcDbEntity
  8
レイヤ1
  6
Continuous
 62
     7
100
AcDbLine
 10
154.4869630249629
 20
184.3044362277549
 30
0.0
 11
154.3175358366901
 21
184.4869971535008
 31
0.0
  0
LINE
  5
168
330
1F
100
AcDbEntity
  8
レイヤ1
  6
Continuous
 62
     7
100
AcDbLine
 10
154.3175358366901
 20
184.4869971535008
 30
0.0
 11
154.1456239510917
 21
184.6669718769317
 31
0.0
  0
LINE
  5
169
330
1F
100
AcDbEntity
  8
レイヤ1
  6
Continuous
 62
     7
100
AcDbLine
 10
154.1456239510917
 20
184.6669718769317
 30
0.0
 11
153.971176199515
 21
184.8442969231195
 31
0.0
  0
LINE
  5
16A
330
1F
100
AcDbEntity
  8
レイヤ1
  6
Continuous
 62
     7
100
AcDbLine
 10
153.971176199515
 20
184.8442969231195
 30
0.0
 11
153.7941414131394
 21
185.0189088172452
 31
0.0
  0
LINE
  5
16B
330
1F
100
AcDbEntity
  8
レイヤ1
  6
Continuous
 62
     7
100
AcDbLine
 10
153.7941414131394
 20
185.0189088172452
 30
0.0
 11
153.6144684231713
 21
185.1907440847129
 31
0.0
  0
LINE
  5
16C
330
1F
100
AcDbEntity
  8
レイヤ1
  6
Continuous
 62
     7
100
AcDbLine
 10
153.6144684231713
 20
185.1907440847129
 30
0.0
 11
153.4321060608173
 21
185.3597392505653
 31
0.0
  0
LINE
  5
16D
330
1F
100
AcDbEntity
  8
レイヤ1
  6
Continuous
 62
     7
100
AcDbLine
 10
153.4321060608173
 20
185.3597392505653
 30
0.0
 11
153.2470031573949
 21
185.5258308400137
 31
0.0
  0
LINE
  5
16E
330
1F
100
AcDbEntity
  8
レイヤ1
  6
Continuous
 62
     7
100
AcDbLine
 10
153.2470031573949
 20
185.5258308400137
 30
0.0
 11
153.0591085439723
 21
185.6889553784318
 31
0.0
  0
LINE
  5
16F
330
1F
100
AcDbEntity
  8
レイヤ1
  6
Continuous
 62
     7
100
AcDbLine
 10
153.0591085439723
 20
185.6889553784318
 30
0.0
 11
152.868371051841
 21
185.8490493908091
 31
0.0
  0
LINE
  5
170
330
1F
100
AcDbEntity
  8
レイヤ1
  6
Continuous
 62
     7
100
AcDbLine
 10
152.868371051841
 20
185.8490493908091
 30
0.0
 11
152.6747395122067
 21
186.0060494025497
 31
0.0
  0
LINE
  5
171
330
1F
100
AcDbEntity
  8
レイヤ1
  6
Continuous
 62
     7
100
AcDbLine
 10
152.6747395122067
 20
186.0060494025497
 30
0.0
 11
152.4781627564147
 21
186.1598919387247
 31
0.0
  0
LINE
  5
172
330
1F
100
AcDbEntity
  8
レイヤ1
  6
Continuous
 62
     7
100
AcDbLine
 10
152.4781627564147
 20
186.1598919387247
 30
0.0
 11
152.2785896154239
 21
186.3105135245426
 31
0.0
  0
LINE
  5
173
330
1F
100
AcDbEntity
  8
レイヤ1
  6
Continuous
 62
     7
100
AcDbLine
 10
152.2785896154239
 20
186.3105135245426
 30
0.0
 11
152.0759689207443
 21
186.4578506853254
 31
0.0
  0
LINE
  5
174
330
1F
100
AcDbEntity
  8
レイヤ1
  6
Continuous
 62
     7
100
AcDbLine
 10
152.0759689207443
 20
186.4578506853254
 30
0.0
 11
151.8702495033627
 21
186.6018399461422
 31
0.0
  0
LINE
  5
175
330
1F
100
AcDbEntity
  8
レイヤ1
  6
Continuous
 62
     7
100
AcDbLine
 10
155.2986194151937
 20
183.3550601807663
 30
0.0
 11
155.9528128163889
 21
182.9232836253028
 31
0.0
  0
LINE
  5
176
330
1F
100
AcDbEntity
  8
レイヤ1
  6
Continuous
 62
     7
100
AcDbLine
 10
155.9528128163889
 20
182.9232836253028
 30
0.0
 11
152.7820362453624
 21
178.119175845053
 31
0.0
  0
LINE
  5
177
330
1F
100
AcDbEntity
  8
レイヤ1
  6
Continuous
 62
     7
100
AcDbLine
 10
155.2986194151937
 20
183.3550601807663
 30
0.0
 11
156.5649306417348
 21
184.3690890958528
 31
0.0
  0
LINE
  5
178
330
1F
100
AcDbEntity
  8
レイヤ1
  6
Continuous
 62
     7
100
AcDbLine
 10
155.9528128222829
 20
182.9232836342339
 30
0.0
 11
156.0109560424453
 21
183.0134254538831
 31
0.0
  0
LINE
  5
179
330
1F
100
AcDbEntity
  8
レイヤ1
  6
Continuous
 62
     7
100
AcDbLine
 10
156.0109560424453
 20
183.0134254538831
 30
0.0
 11
156.067633678906
 21
183.1055237106165
 31
0.0
  0
LINE
  5
17A
330
1F
100
AcDbEntity
  8
レイヤ1
  6
Continuous
 62
     7
100
AcDbLine
 10
156.067633678906
 20
183.1055237106165
 30
0.0
 11
156.1225399923427
 21
183.1992118075928
 31
0.0
  0
LINE
  5
17B
330
1F
100
AcDbEntity
  8
レイヤ1
  6
Continuous
 62
     7
100
AcDbLine
 10
156.1225399923427
 20
183.1992118075928
 30
0.0
 11
156.1753743497369
 21
183.2940947326953
 31
0.0
  0
LINE
  5
17C
330
1F
100
AcDbEntity
  8
レイヤ1
  6
Continuous
 62
     7
100
AcDbLine
 10
156.1753743497369
 20
183.2940947326953
 30
0.0
 11
156.2258461220631
 21
183.3897539877036
 31
0.0
  0
LINE
  5
17D
330
1F
100
AcDbEntity
  8
レイヤ1
  6
Continuous
 62
     7
100
AcDbLine
 10
156.2258461220631
 20
183.3897539877036
 30
0.0
 11
156.2736795845645
 21
183.4857533097872
 31
0.0
  0
LINE
  5
17E
330
1F
100
AcDbEntity
  8
レイヤ1
  6
Continuous
 62
     7
100
AcDbLine
 10
156.2736795845645
 20
183.4857533097872
 30
0.0
 11
156.3186186497681
 21
183.5816450253148
 31
0.0
  0
LINE
  5
17F
330
1F
100
AcDbEntity
  8
レイヤ1
  6
Continuous
 62
     7
100
AcDbLine
 10
156.3186186497681
 20
183.5816450253148
 30
0.0
 11
156.3604312716483
 21
183.6769768530427
 31
0.0
  0
LINE
  5
180
330
1F
100
AcDbEntity
  8
レイヤ1
  6
Continuous
 62
     7
100
AcDbLine
 10
156.3604312716483
 20
183.6769768530427
 30
0.0
 11
156.3989133684981
 21
183.7712989431192
 31
0.0
  0
LINE
  5
181
330
1F
100
AcDbEntity
  8
レイヤ1
  6
Continuous
 62
     7
100
AcDbLine
 10
156.3989133684981
 20
183.7712989431192
 30
0.0
 11
156.4338921251189
 21
183.8641709246077
 31
0.0
  0
LINE
  5
182
330
1F
100
AcDbEntity
  8
レイヤ1
  6
Continuous
 62
     7
100
AcDbLine
 10
156.4338921251189
 20
183.8641709246077
 30
0.0
 11
156.4652285639049
 21
183.9551687324513
 31
0.0
  0
LINE
  5
183
330
1F
100
AcDbEntity
  8
レイヤ1
  6
Continuous
 62
     7
100
AcDbLine
 10
156.4652285639049
 20
183.9551687324513
 30
0.0
 11
156.4928193064977
 21
184.0438909912122
 31
0.0
  0
LINE
  5
184
330
1F
100
AcDbEntity
  8
レイヤ1
  6
Continuous
 62
     7
100
AcDbLine
 10
156.4928193064977
 20
184.0438909912122
 30
0.0
 11
156.5165974798837
 21
184.1299647568058
 31
0.0
  0
LINE
  5
185
330
1F
100
AcDbEntity
  8
レイヤ1
  6
Continuous
 62
     7
100
AcDbLine
 10
156.5165974798837
 20
184.1299647568058
 30
0.0
 11
156.5365327617476
 21
184.2130504498788
 31
0.0
  0
LINE
  5
186
330
1F
100
AcDbEntity
  8
レイヤ1
  6
Continuous
 62
     7
100
AcDbLine
 10
156.5365327617476
 20
184.2130504498788
 30
0.0
 11
156.5526305960646
 21
184.2928458538582
 31
0.0
  0
LINE
  5
187
330
1F
100
AcDbEntity
  8
レイヤ1
  6
Continuous
 62
     7
100
AcDbLine
 10
156.5526305960646
 20
184.2928458538582
 30
0.0
 11
156.5649306417348
 21
184.3690890958528
 31
0.0
  0
LINE
  5
188
330
1F
100
AcDbEntity
  8
レイヤ1
  6
Continuous
 62
     7
100
AcDbLine
 10
160.1408946997755
 20
173.2622290311885
 30
0.0
 11
152.7820362453624
 21
178.119175845053
 31
0.0
  0
LINE
  5
189
330
1F
100
AcDbEntity
  8
レイヤ1
  6
Continuous
 62
     7
100
AcDbLine
 10
151.5489815817297
 20
178.5735568881933
 30
0.0
 11
152.0514986612147
 21
178.4352817832136
 31
0.0
  0
LINE
  5
18A
330
1F
100
AcDbEntity
  8
レイヤ0
  6
Continuous
 62
     7
100
AcDbLine
 10
147.873879743213
 20
180.999174159737
 30
0.0
 11
159.7259709875662
 21
173.1782205913471
 31
0.0
  0
LINE
  5
18B
330
1F
100
AcDbEntity
  8
レイヤ1
  6
Continuous
 62
     7
100
AcDbLine
 10
152.0514986612147
 20
178.4352817832136
 30
0.0
 11
155.2986194151937
 21
183.3550601807663
 31
0.0
  0
LINE
  5
18C
330
1F
100
AcDbEntity
  8
レイヤ0
  6
Continuous
 62
     7
100
AcDbLine
 10
155.585235512697
 20
192.68399305531
 30
0.0
 11
159.9937151540628
 21
189.7749271469004
 31
0.0
  0
LINE
  5
18D
330
1F
100
AcDbEntity
  8
1
  6
DASH_CENTER
 62
     2
100
AcDbLine
 10
191.3954135344114
 20
185.2233290013391
 30
0.0
 11
134.6462203092846
 21
222.678559817095
 31
0.0
  0
LINE
  5
18E
330
1F
100
AcDbEntity
  8
1
  6
DASH_CENTER
 62
     2
100
AcDbLine
 10
159.1651419093759
 20
198.1085330660092
 30
0.0
 11
122.0999456069572
 21
141.9445952229972
 31
0.0
  0
LINE
  5
18F
330
1F
100
AcDbEntity
  8
レイヤ0
  6
Continuous
 62
     7
100
AcDbLine
 10
163.128081714118
 20
195.4934704957862
 30
0.0
 11
167.616036335704
 21
192.531961432811
 31
0.0
  0
LINE
  5
190
330
1F
100
AcDbEntity
  8
1
  6
DASH_CENTER
 62
     2
100
AcDbLine
 10
171.5794104062226
 20
119.81564862621
 30
0.0
 11
173.6523604243287
 21
96.33523639059399
 31
0.0
  0
LINE
  5
191
330
1F
100
AcDbEntity
  8
1
  6
Continuous
 62
     7
100
AcDbLine
 10
89.5794203038154
 20
155.141957515502
 30
0.0
 11
89.5794203038154
 21
130.14197401149
 31
0.0
  0
ARC
  5
192
330
1F
100
AcDbEntity
  8
レイヤ0
  6
Continuous
 62
     7
100
AcDbCircle
 10
142.992262766261
 20
217.170059539673
 30
0.0
 40
6.999999999999878
100
AcDbArc
 50
15.16502990532283
 51
90.0
  0
ARC
  5
193
330
1F
100
AcDbEntity
  8
レイヤ1
  6
Continuous
 62
     7
100
AcDbCircle
 10
141.919640576439
 20
182.347777454004
 30
0.0
 40
2.453989276460188
100
AcDbArc
 50
37.21925417097051
 51
55.88661377319885
  0
ARC
  5
194
330
1F
100
AcDbEntity
  8
レイヤ1
  6
Continuous
 62
     7
100
AcDbCircle
 10
142.545370102561
 20
172.924198384192
 30
0.0
 40
18.09815957254651
100
AcDbArc
 50
56.57999999999801
 51
73.93084632415815
  0
ARC
  5
195
330
1F
100
AcDbEntity
  8
レイヤ0
  6
Continuous
 62
     7
100
AcDbCircle
 10
48.0503939858698
 20
263.346785504576
 30
0.0
 40
118.6280997186779
100
AcDbArc
 50
295.5325891949101
 51
308.5704419991809
  0
ARC
  5
196
330
1F
100
AcDbEntity
  8
レイヤ0
  6
Continuous
 62
     7
100
AcDbCircle
 10
156.201728778908
 20
129.245377759317
 30
0.0
 40
4.99999999999985
100
AcDbArc
 50
4.95253805816827
 51
28.04006345928739
  0
ARC
  5
197
330
1F
100
AcDbEntity
  8
レイヤ0
  6
Continuous
 62
     7
100
AcDbCircle
 10
141.922029999728
 20
121.639914657614
 30
0.0
 40
21.17877826708445
100
AcDbArc
 50
28.04006345928717
 51
77.86924323860707
  0
ARC
  5
198
330
1F
100
AcDbEntity
  8
レイヤ0
  6
Continuous
 62
     7
100
AcDbCircle
 10
151.400281203581
 20
128.415418321471
 30
0.0
 40
28.88989510063045
100
AcDbArc
 50
8.13852923775163
 51
44.82421466320044
  0
ARC
  5
199
330
1F
100
AcDbEntity
  8
レイヤ0
  6
Continuous
 62
     7
100
AcDbCircle
 10
141.894136380027
 20
120.970989392986
 30
0.0
 40
40.90486923406947
100
AcDbArc
 50
42.83330501736634
 51
66.02710230776798
  0
ARC
  5
19A
330
1F
100
AcDbEntity
  8
レイヤ0
  6
Continuous
 62
     7
100
AcDbCircle
 10
99.404885081724
 20
124.416035770257
 30
0.0
 40
9.999999999999964
100
AcDbArc
 50
113.4112684143657
 51
141.4942627354723
  0
ARC
  5
19B
330
1F
100
AcDbEntity
  8
レイヤ0
  6
Continuous
 62
     7
100
AcDbCircle
 10
92.6543745600885
 20
164.584022267703
 30
0.0
 40
10.00000000000101
100
AcDbArc
 50
263.8290801678889
 51
290.3772291250922
  0
ARC
  5
19C
330
1F
100
AcDbEntity
  8
レイヤ0
  6
Continuous
 62
     7
100
AcDbCircle
 10
148.349621373099
 20
11.3724256603854
 30
0.0
 40
133.1845972405029
100
AcDbArc
 50
98.87341175141562
 51
113.4377998453207
  0
ARC
  5
19D
330
1F
100
AcDbEntity
  8
レイヤ0
  6
Continuous
 62
     7
100
AcDbCircle
 10
91.0794252526119
 20
131.238466469524
 30
0.0
 40
0.5000000064438074
100
AcDbArc
 50
290.5550994873027
 51
0.0
  0
ARC
  5
19E
330
1F
100
AcDbEntity
  8
レイヤ0
  6
Continuous
 62
     7
100
AcDbCircle
 10
88.6050517702429
 20
121.141969062693
 30
0.0
 40
0.5000000064429884
100
AcDbArc
 50
270.0
 51
356.9869995117002
  0
ARC
  5
19F
330
1F
100
AcDbEntity
  8
レイヤ0
  6
Continuous
 62
     7
100
AcDbCircle
 10
91.0794252526119
 20
154.045465057468
 30
0.0
 40
0.5000000064436989
100
AcDbArc
 50
0.0
 51
69.44490051265612
  0
ARC
  5
1A0
330
1F
100
AcDbEntity
  8
レイヤ0
  6
Continuous
 62
     7
100
AcDbCircle
 10
88.6050517702429
 20
164.141962464298
 30
0.0
 40
0.500000006443803
100
AcDbArc
 50
3.01300048830301
 51
90.0
  0
ARC
  5
1A1
330
1F
100
AcDbEntity
  8
レイヤ0
  6
Continuous
 62
     7
100
AcDbCircle
 10
158.892167234448
 20
188.105619006306
 30
0.0
 40
2.000000000036813
100
AcDbArc
 50
17.10754015336353
 51
56.5800000000166
  0
ARC
  5
1A2
330
1F
100
AcDbEntity
  8
レイヤ0
  6
Continuous
 62
     7
100
AcDbCircle
 10
183.050605248145
 20
190.733698545678
 30
0.0
 40
6.999999999999569
100
AcDbArc
 50
195.1703778907274
 51
97.98962210926568
  0
ARC
  5
1A3
330
1F
100
AcDbEntity
  8
レイヤ0
  6
Continuous
 62
     7
100
AcDbCircle
 10
181.382680451614
 20
202.617217673997
 30
0.0
 40
4.999999999999945
100
AcDbArc
 50
236.5800000000008
 51
277.9896221092811
  0
ARC
  5
1A4
330
1F
100
AcDbEntity
  8
レイヤ0
  6
Continuous
 62
     7
100
AcDbCircle
 10
171.468782230032
 20
187.593415823197
 30
0.0
 40
5.000000000000631
100
AcDbArc
 50
15.17037789072285
 51
56.58000000000077
  0
ARC
  5
1A5
330
1F
100
AcDbEntity
  8
レイヤ0
  6
Continuous
 62
     7
100
AcDbCircle
 10
170.848643800418
 20
190.398830171245
 30
0.0
 40
2.999999999999838
100
AcDbArc
 50
56.5799999999899
 51
132.1024878140602
  0
ARC
  5
1A6
330
1F
100
AcDbEntity
  8
レイヤ0
  6
Continuous
 62
     7
100
AcDbCircle
 10
168.166808459125
 20
193.366617091189
 30
0.0
 40
1.000000000000061
100
AcDbArc
 50
236.5800000000163
 51
312.1024878140449
  0
ARC
  5
1A7
330
1F
100
AcDbEntity
  8
レイヤ0
  6
Continuous
 62
     7
100
AcDbCircle
 10
179.629813301343
 20
204.372948133285
 30
0.0
 40
5.499999999999995
100
AcDbArc
 50
179.1589703928065
 51
236.5799999999892
  0
ARC
  5
1A8
330
1F
100
AcDbEntity
  8
レイヤ0
  6
Continuous
 62
     7
100
AcDbCircle
 10
173.13051355094
 20
204.46835648939
 30
0.0
 40
1.000000000000246
100
AcDbArc
 50
359.1589703928424
 51
56.58000000001683
  0
ARC
  5
1A9
330
1F
100
AcDbEntity
  8
レイヤ0
  6
Continuous
 62
     7
100
AcDbCircle
 10
171.444865726513
 20
207.997991300261
 30
0.0
 40
2.19555806000973
100
AcDbArc
 50
298.9673814009249
 51
354.192618598739
  0
ARC
  5
1AA
330
1F
100
AcDbEntity
  8
レイヤ0
  6
Continuous
 62
     7
100
AcDbCircle
 10
163.424638373677
 20
213.290374578448
 30
0.0
 40
2.195558060003104
100
AcDbArc
 50
118.9673814012589
 51
174.1926185990709
  0
ARC
  5
1AB
330
1F
100
AcDbEntity
  8
レイヤ0
  6
Continuous
 62
     7
100
AcDbCircle
 10
141.125677541087
 20
170.774667087272
 30
0.0
 40
49.2499999999965
100
AcDbArc
 50
48.70248413560458
 51
64.45751586439685
  0
ARC
  5
1AC
330
1F
100
AcDbEntity
  8
レイヤ0
  6
Continuous
 62
     7
100
AcDbCircle
 10
140.777375853934
 20
192.939276942534
 30
0.0
 40
2.000000000036433
100
AcDbArc
 50
96.04711186125672
 51
146.5746520146105
  0
ARC
  5
1AD
330
1F
100
AcDbEntity
  8
レイヤ0
  6
Continuous
 62
     7
100
AcDbCircle
 10
150.075327021242
 20
193.924261422879
 30
0.0
 40
1.999999999999666
100
AcDbArc
 50
56.5746520146109
 51
96.04711186125672
  0
ARC
  5
1AE
330
1F
100
AcDbEntity
  8
レイヤ0
  6
Continuous
 62
     7
100
AcDbCircle
 10
142.992262766261
 20
217.170059539673
 30
0.0
 40
7.000000000000597
100
AcDbArc
 50
90.0
 51
277.984274123868
  0
ARC
  5
1AF
330
1F
100
AcDbEntity
  8
レイヤ0
  6
Continuous
 62
     7
100
AcDbCircle
 10
154.574378847764
 20
220.309261201653
 30
0.0
 40
4.999999999999626
100
AcDbArc
 50
195.1650299053303
 51
236.5746520145979
  0
ARC
  5
1B0
330
1F
100
AcDbEntity
  8
レイヤ0
  6
Continuous
 62
     7
100
AcDbCircle
 10
144.659078348404
 20
205.286384779098
 30
0.0
 40
4.999999999999262
100
AcDbArc
 50
56.57465201459799
 51
97.98427412387744
  0
ARC
  5
1B1
330
1F
100
AcDbEntity
  8
レイヤ0
  6
Continuous
 62
     7
100
AcDbCircle
 10
147.48235502904
 20
205.819329542367
 30
0.0
 40
2.999999999999702
100
AcDbArc
 50
341.0521642005394
 51
56.57465201460013
  0
ARC
  5
1B2
330
1F
100
AcDbEntity
  8
レイヤ0
  6
Continuous
 62
     7
100
AcDbCircle
 10
151.265613401043
 20
204.520500804362
 30
0.0
 40
1.000000000000095
100
AcDbArc
 50
161.0521642005639
 51
236.5746520146261
  0
ARC
  5
1B3
330
1F
100
AcDbEntity
  8
レイヤ0
  6
Continuous
 62
     7
100
AcDbCircle
 10
159.521272760826
 20
213.449726663265
 30
0.0
 40
0.9999999999994059
100
AcDbArc
 50
56.57465201459476
 51
113.9956816217828
  0
ARC
  5
1B4
330
1F
100
AcDbEntity
  8
レイヤ0
  6
Continuous
 62
     7
100
AcDbCircle
 10
156.877932138344
 20
219.387971383174
 30
0.0
 40
5.500000000000221
100
AcDbArc
 50
236.5746520146063
 51
293.9956816217859
  0
ARC
  5
1B5
330
1F
100
AcDbEntity
  8
レイヤ0
  6
Continuous
 62
     7
100
AcDbCircle
 10
165.517713025221
 20
163.442306273481
 30
0.0
 40
10.00000000000033
100
AcDbArc
 50
138.3303362992162
 51
186.0422025743504
  0
ARC
  5
1B6
330
1F
100
AcDbEntity
  8
レイヤ0
  6
Continuous
 62
     7
100
AcDbCircle
 10
93.8473432918059
 20
204.402772853869
 30
0.0
 40
43.99999999999996
100
AcDbArc
 50
309.8000631977401
 51
335.3681458668161
  0
ARC
  5
1B7
330
1F
100
AcDbEntity
  8
レイヤ0
  6
Continuous
 62
     7
100
AcDbCircle
 10
163.0208197940663
 20
203.9509425137173
 30
0.0
 40
7.000000007772743
100
AcDbArc
 50
56.57732260155619
 51
236.5773226015509
  0
ARC
  5
1B8
330
1F
100
AcDbEntity
  8
レイヤ0
  6
Continuous
 62
     7
100
AcDbCircle
 10
161.6426138765
 20
179.169337139367
 30
0.0
 40
1.999999999999801
100
AcDbArc
 50
326.5799999999771
 51
17.10754015333629
  0
ARC
  5
1B9
330
1F
100
AcDbEntity
  8
レイヤ0
  6
Continuous
 62
     7
100
AcDbCircle
 10
163.259639096811
 20
100.301561130231
 30
0.0
 40
1.999999999999702
100
AcDbArc
 50
180.900368970809
 51
253.2035722501294
  0
ARC
  5
1BA
330
1F
100
AcDbEntity
  8
レイヤ0
  6
Continuous
 62
     7
100
AcDbCircle
 10
183.193331342592
 20
102.048064681871
 30
0.0
 40
2.000000000004359
100
AcDbArc
 50
296.601026355398
 51
0.97260650979015
  0
ARC
  5
1BB
330
1F
100
AcDbEntity
  8
レイヤ0
  6
Continuous
 62
     7
100
AcDbCircle
 10
148.385902954506
 20
14.5439692378401
 30
0.0
 40
150.0563050004025
100
AcDbArc
 50
109.141541408182
 51
110.3772291250925
  0
ARC
  5
1BC
330
1F
100
AcDbEntity
  8
レイヤ0
  6
Continuous
 62
     7
100
AcDbCircle
 10
135.231251067408
 20
86.767158240704
 30
0.0
 40
56.68433130175029
100
AcDbArc
 50
78.6646594303269
 51
97.52734157790987
  0
ARC
  5
1BD
330
1F
100
AcDbEntity
  8
レイヤ0
  6
Continuous
 62
     7
100
AcDbCircle
 10
160.545489861944
 20
162.916001405019
 30
0.0
 40
5.000000000000494
100
AcDbArc
 50
186.0422025743496
 51
246.0271023077642
  0
ARC
  5
1BE
330
1F
100
AcDbEntity
  8
レイヤ0
  6
Continuous
 62
     7
100
AcDbCircle
 10
161.6426162884472
 20
179.1693337671793
 30
0.0
 40
1.999999999999637
100
AcDbArc
 50
326.5799931884912
 51
17.10753334184556
  0
ARC
  5
1BF
330
1F
100
AcDbEntity
  8
レイヤ1
  6
Continuous
 62
     7
100
AcDbCircle
 10
142.5446140589077
 20
172.924697332583
 30
0.0
 40
18.09815957256134
100
AcDbArc
 50
39.2237988789442
 51
56.57464520310453
  0
ARC
  5
1C0
330
1F
100
AcDbEntity
  8
レイヤ1
  6
Continuous
 62
     7
100
AcDbCircle
 10
151.4551402852455
 20
176.0548574394477
 30
0.0
 40
2.453989276401884
100
AcDbArc
 50
57.26803142990472
 51
75.93539103213227
  0
ARC
  5
1C1
330
1F
100
AcDbEntity
  8
レイヤ0
  6
Continuous
 62
     7
100
AcDbCircle
 10
163.0201926541997
 20
203.9513564281062
 30
0.0
 40
7.000000007772791
100
AcDbArc
 50
236.5727906962618
 51
56.57279069625703
  0
SOLID
  5
1C2
330
1F
100
AcDbEntity
  8
1
 62
     2
100
AcDbTrace
 10
78.97846908005567
 20
128.880484979473
 30
0.0
 11
78.1803682283792
 21
129.3412687210289
 31
0.0
 12
80.32941865421742
 22
132.1419657634965
 32
0.0
 13
80.32941865421742
 23
132.1419657634965
 33
0.0
  0
LEADER
  5
1C3
330
1F
100
AcDbEntity
  8
1
  6
Continuous
 62
     2
100
AcDbLeader
  3
Standard
 71
     0
 76
     3
 10
80.32941865421742
 20
132.1419657634965
 30
0.0
 10
70.29813133166144
 20
114.767266455508
 30
0.0
 10
56.0
 20
114.767266455508
 30
0.0
  0
MTEXT
  5
1C5
330
1F
100
AcDbEntity
  8
1
 62
     7
100
AcDbMText
 10
93.75
 20
17.0
 30
0.0
 40
3.5
 41
0.0
 71
     5
 72
     1
  1
1
  7
CONVERTER_12
 73
     1
 44
0.7202881152461
  0
MTEXT
  5
1C6
330
1F
100
AcDbEntity
  8
1
 62
     7
100
AcDbMText
 10
85.25
 20
17.0
 30
0.0
 40
3.5
 41
0.0
 71
     5
 72
     1
  1
1
  7
CONVERTER_12
 73
     1
 44
0.7202881152461
  0
MTEXT
  5
1C7
330
1F
100
AcDbEntity
  8
1
 62
     7
100
AcDbMText
 10
57.0
 20
22.75000000000001
 30
0.0
 40
3.0
 41
0.0
 71
     5
 72
     1
  1
ガーデン水栓(クロスハンドル)
  7
CONVERTER_11
 73
     1
 44
0.54545454545455
  0
MTEXT
  5
1C8
330
1F
100
AcDbEntity
  8
1
 62
     7
100
AcDbMText
 10
57.0
 20
12.25
 30
0.0
 40
3.5
 41
0.0
 71
     5
 72
     1
  1
Y1810YB-13
  7
CONVERTER_12
 73
     1
 44
0.7202881152461
  0
MTEXT
  5
1C9
330
1F
100
AcDbEntity
  8
1
 62
     7
100
AcDbMText
 10
57.0
 20
16.25
 30
0.0
 40
3.5
 41
0.0
 71
     5
 72
     1
  1
Y1810Y-13
  7
CONVERTER_12
 73
     1
 44
0.7202881152461
  0
MTEXT
  5
1CA
330
1F
100
AcDbEntity
  8
1
 62
     7
100
AcDbMText
 10
62.7047938345096
 20
117.767266455508
 30
0.0
 40
3.5
 41
0.0
 71
     5
 72
     1
  1
PJ1/2
  7
CONVERTER_12
 73
     1
 44
0.7202881152461
  0
DIMENSION
  5
1D5
330
1F
100
AcDbEntity
  8
1
100
AcDbDimension
  2
*D2
 10
84.86053092951065
 20
166.5206179916441
 30
0.0
 11
108.2216307044003
 21
206.9117281185325
 31
0.0
 70
    32
  1
83リフト7
 71
     5
 42
-1.0
 53
56.57732260155245
  3
ME10_DIM_10
100
AcDbAlignedDimension
 13
168.2535254516504
 23
211.8799266989211
 33
0.0
 14
122.0999456069572
 24
141.9445952229972
 34
0.0
 50
56.57732260155245
100
AcDbRotatedDimension
  0
DIMENSION
  5
1E0
330
1F
100
AcDbEntity
  8
1
100
AcDbDimension
  2
*D3
 10
62.5794269022113
 20
164.641964113897
 30
0.0
 11
59.8294269022113
 21
131.6419665882955
 31
0.0
 70
    32
  1
<>
 71
     5
 42
-1.0
 53
90.0
  3
ME10_DIM_11
100
AcDbAlignedDimension
 13
86.9330019127681
 23
120.641967413095
 33
0.0
 14
86.9330019127681
 24
164.641964113897
 34
0.0
 50
90.0
100
AcDbRotatedDimension
  0
DIMENSION
  5
1EB
330
1F
100
AcDbEntity
  8
1
100
AcDbDimension
  2
*D4
 10
54.5794269022113
 20
142.641965763496
 30
0.0
 11
51.8294269022113
 21
183.4060126515848
 31
0.0
 70
    32
  1
81
 71
     5
 42
-1.0
 53
90.0
  3
ME10_DIM_12
100
AcDbAlignedDimension
 13
142.992262766261
 23
224.1700595396736
 33
0.0
 14
69.57942690221131
 24
142.641965763496
 34
0.0
 50
90.0
100
AcDbRotatedDimension
  0
DIMENSION
  5
1F6
330
1F
100
AcDbEntity
  8
1
100
AcDbDimension
  2
*D5
 10
54.5794269022113
 20
98.38688609805
 30
0.0
 11
51.8294269022113
 21
120.514425930773
 31
0.0
 70
    32
  1
44
 71
     5
 42
-1.0
 53
90.0
  3
ME10_DIM_13
100
AcDbAlignedDimension
 13
69.57942690221131
 23
142.641965763496
 33
0.0
 14
162.68169487705
 24
98.38688609805
 34
0.0
 50
90.0
100
AcDbRotatedDimension
  0
DIMENSION
  5
201
330
1F
100
AcDbEntity
  8
1
100
AcDbDimension
  2
*D6
 10
72.5794269022113
 20
88.38688609805
 30
0.0
 11
79.57941865421691
 21
91.13688609805
 31
0.0
 70
    32
  1
<>
 71
     5
 42
-1.0
 53
0.00013888888889
  3
ME10_DIM_14
100
AcDbAlignedDimension
 13
86.5794104062225
 23
120.995521803667
 33
0.0
 14
72.57942690221131
 24
133.391965763497
 34
0.0
100
AcDbRotatedDimension
  0
DIMENSION
  5
20C
330
1F
100
AcDbEntity
  8
1
100
AcDbDimension
  2
*D7
 10
171.5794104062226
 20
88.38688609805
 30
0.0
 11
129.0794104062225
 21
91.13688609805
 31
0.0
 70
    32
  1
<>
 71
     5
 42
-1.0
 53
0.00013888888889
  3
ME10_DIM_15
100
AcDbAlignedDimension
 13
86.5794104062225
 23
120.995521803667
 33
0.0
 14
171.5794104062226
 24
119.81564862621
 34
0.0
100
AcDbRotatedDimension
  0
DIMENSION
  5
217
330
1F
100
AcDbEntity
  8
1
100
AcDbDimension
  2
*D8
 10
163.0030008891453
 20
80.3462396558508
 30
0.0
 11
174.7176589736904
 21
84.1316439885751
 31
0.0
 70
    32
  1
<>
 71
     5
 42
-1.0
 53
5.00000000000043
  3
ME10_DIM_16
100
AcDbAlignedDimension
 13
185.193043192576
 23
102.082013423233
 33
0.0
 14
161.259886034192
 24
100.270133617686
 34
0.0
 50
5.00000000000043
100
AcDbRotatedDimension
  0
ENDSEC
  0
SECTION
  2
OBJECTS
  0
DICTIONARY
  5
C
330
0
100
AcDbDictionary
281
     1
  3
ACAD_GROUP
350
D
  3
ACAD_LAYOUT
350
1A
  3
ACAD_MATERIAL
350
3B
  3
ACAD_MLEADERSTYLE
350
21A
  3
ACAD_MLINESTYLE
350
17
  3
ACAD_PLOTSETTINGS
350
19
  3
ACAD_PLOTSTYLENAME
350
E
  3
ACAD_VISUALSTYLE
350
2A
  3
AcDbVariableDictionary
350
218
  0
DICTIONARY
  5
D
102
{ACAD_REACTORS
330
C
102
}
330
C
100
AcDbDictionary
281
     1
  0
DICTIONARY
  5
1A
102
{ACAD_REACTORS
330
C
102
}
330
C
100
AcDbDictionary
281
     1
  3
Layout1
350
1E
  3
Layout2
350
26
  3
Model
350
22
  0
DICTIONARY
  5
3B
102
{ACAD_REACTORS
330
C
102
}
330
C
100
AcDbDictionary
281
     1
  3
ByBlock
350
3D
  3
ByLayer
350
3C
  3
Global
350
3E
  0
DICTIONARY
  5
21A
102
{ACAD_REACTORS
330
C
102
}
330
C
100
AcDbDictionary
281
     1
  0
DICTIONARY
  5
17
102
{ACAD_REACTORS
330
C
102
}
330
C
100
AcDbDictionary
281
     1
  3
Standard
350
18
  0
DICTIONARY
  5
19
102
{ACAD_REACTORS
330
C
102
}
330
C
100
AcDbDictionary
281
     1
  0
ACDBDICTIONARYWDFLT
  5
E
102
{ACAD_REACTORS
330
C
102
}
330
C
100
AcDbDictionary
281
     1
  3
Normal
350
F
100
AcDbDictionaryWithDefault
340
F
  0
DICTIONARY
  5
2A
102
{ACAD_REACTORS
330
C
102
}
330
C
100
AcDbDictionary
281
     1
  3
2dWireframe
350
2F
  3
3D Hidden
350
31
  3
3dWireframe
350
30
  3
Basic
350
32
  3
Brighten
350
36
  3
ColorChange
350
3A
  3
Conceptual
350
34
  3
Dim
350
35
  3
Facepattern
350
39
  3
Flat
350
2B
  3
FlatWithEdges
350
2C
  3
Gouraud
350
2D
  3
GouraudWithEdges
350
2E
  3
Linepattern
350
38
  3
Realistic
350
33
  3
Thicken
350
37
  0
DICTIONARY
  5
218
102
{ACAD_REACTORS
330
C
102
}
330
C
100
AcDbDictionary
281
     1
  3
DIMASSOC
350
21B
  3
HIDETEXT
350
21C
  0
LAYOUT
  5
1E
102
{ACAD_REACTORS
330
1A
102
}
330
1A
100
AcDbPlotSettings
  1

  2
none_device
  4

  6

 40
0.0
 41
0.0
 42
0.0
 43
0.0
 44
0.0
 45
0.0
 46
0.0
 47
0.0
 48
0.0
 49
0.0
140
0.0
141
0.0
142
1.0
143
1.0
 70
   688
 72
     0
 73
     0
 74
     5
  7

 75
    16
147
1.0
148
0.0
149
0.0
100
AcDbLayout
  1
Layout1
 70
     1
 71
     1
 10
0.0
 20
0.0
 11
12.0
 21
9.0
 12
0.0
 22
0.0
 32
0.0
 14
1.00000000000000E+20
 24
1.00000000000000E+20
 34
1.00000000000000E+20
 15
-1.00000000000000E+20
 25
-1.00000000000000E+20
 35
-1.00000000000000E+20
146
0.0
 13
0.0
 23
0.0
 33
0.0
 16
1.0
 26
0.0
 36
0.0
 17
0.0
 27
1.0
 37
0.0
 76
     0
330
1B
  0
LAYOUT
  5
26
102
{ACAD_REACTORS
330
1A
102
}
330
1A
100
AcDbPlotSettings
  1

  2
none_device
  4

  6

 40
0.0
 41
0.0
 42
0.0
 43
0.0
 44
0.0
 45
0.0
 46
0.0
 47
0.0
 48
0.0
 49
0.0
140
0.0
141
0.0
142
1.0
143
1.0
 70
   688
 72
     0
 73
     0
 74
     5
  7

 75
    16
147
1.0
148
0.0
149
0.0
100
AcDbLayout
  1
Layout2
 70
     1
 71
     2
 10
0.0
 20
0.0
 11
0.0
 21
0.0
 12
0.0
 22
0.0
 32
0.0
 14
0.0
 24
0.0
 34
0.0
 15
0.0
 25
0.0
 35
0.0
146
0.0
 13
0.0
 23
0.0
 33
0.0
 16
1.0
 26
0.0
 36
0.0
 17
0.0
 27
1.0
 37
0.0
 76
     0
330
23
  0
LAYOUT
  5
22
102
{ACAD_REACTORS
330
1A
102
}
330
1A
100
AcDbPlotSettings
  1

  2
none_device
  4

  6

 40
0.0
 41
0.0
 42
0.0
 43
0.0
 44
0.0
 45
0.0
 46
0.0
 47
0.0
 48
0.0
 49
0.0
140
0.0
141
0.0
142
1.0
143
1.0
 70
  1712
 72
     0
 73
     0
 74
     0
  7

 75
     0
147
1.0
148
0.0
149
0.0
100
AcDbLayout
  1
Model
 70
     1
 71
     0
 10
0.0
 20
0.0
 11
12.0
 21
9.0
 12
0.0
 22
0.0
 32
0.0
 14
0.0
 24
0.0
 34
0.0
 15
210.0
 25
297.0
 35
0.0
146
0.0
 13
0.0
 23
0.0
 33
0.0
 16
1.0
 26
0.0
 36
0.0
 17
0.0
 27
1.0
 37
0.0
 76
     0
330
1F
331
29
  0
MATERIAL
  5
3D
102
{ACAD_REACTORS
330
3B
102
}
102
{ACAD_XDICTIONARY
360
23F
102
}
330
3B
100
AcDbMaterial
  1
ByBlock
  0
MATERIAL
  5
3C
102
{ACAD_REACTORS
330
3B
102
}
102
{ACAD_XDICTIONARY
360
23D
102
}
330
3B
100
AcDbMaterial
  1
ByLayer
  0
MATERIAL
  5
3E
102
{ACAD_REACTORS
330
3B
102
}
102
{ACAD_XDICTIONARY
360
241
102
}
330
3B
100
AcDbMaterial
  1
Global
  0
MLINESTYLE
  5
18
102
{ACAD_REACTORS
330
17
102
}
330
17
100
AcDbMlineStyle
  2
Standard
 70
     0
  3

 62
   256
 51
90.0
 52
90.0
 71
     2
 49
0.5
 62
   256
  6
BYLAYER
 49
-0.5
 62
   256
  6
BYLAYER
  0
ACDBPLACEHOLDER
  5
F
102
{ACAD_REACTORS
330
E
102
}
330
E
  0
VISUALSTYLE
  5
2F
102
{ACAD_REACTORS
330
2A
102
}
102
{ACAD_XDICTIONARY
360
225
102
}
330
2A
100
AcDbVisualStyle
  2
2dWireframe
 70
     4
 71
     0
 72
     2
 73
     0
 90
        0
 40
-0.6
 41
-30.0
 62
     5
 63
     7
 74
     1
 91
        4
 64
     7
 65
   257
 75
     1
175
     1
 42
1.0
 92
        0
 66
   257
 43
1.0
 76
     1
 77
     6
 78
     2
 67
     7
 79
     5
170
     0
171
     0
290
     0
174
     0
 93
        1
 44
0.0
173
     0
291
     0
 45
0.0
1001
ACAD
1000
AcDbSavedByObjectVersion
1070
     0
  0
VISUALSTYLE
  5
31
102
{ACAD_REACTORS
330
2A
102
}
102
{ACAD_XDICTIONARY
360
229
102
}
330
2A
100
AcDbVisualStyle
  2
3D Hidden
 70
     6
 71
     1
 72
     2
 73
     2
 90
        0
 40
-0.6
 41
-30.0
 62
     5
 63
     7
 74
     2
 91
        2
 64
     7
 65
   257
 75
     2
175
     1
 42
40.0
 92
        0
 66
   257
 43
1.0
 76
     1
 77
     6
 78
     2
 67
     7
 79
     3
170
     0
171
     0
290
     0
174
     0
 93
        1
 44
0.0
173
     0
291
     0
 45
0.0
1001
ACAD
1000
AcDbSavedByObjectVersion
1070
     0
  0
VISUALSTYLE
  5
30
102
{ACAD_REACTORS
330
2A
102
}
102
{ACAD_XDICTIONARY
360
227
102
}
330
2A
100
AcDbVisualStyle
  2
3dWireframe
 70
     5
 71
     0
 72
     2
 73
     0
 90
        0
 40
-0.6
 41
-30.0
 62
     5
 63
     7
 74
     1
 91
        4
 64
     7
 65
   257
 75
     1
175
     1
 42
1.0
 92
        0
 66
   257
 43
1.0
 76
     1
 77
     6
 78
     2
 67
     7
 79
     5
170
     0
171
     0
290
     0
174
     0
 93
        1
 44
0.0
173
     0
291
     0
 45
0.0
1001
ACAD
1000
AcDbSavedByObjectVersion
1070
     0
  0
VISUALSTYLE
  5
32
102
{ACAD_REACTORS
330
2A
102
}
102
{ACAD_XDICTIONARY
360
22B
102
}
330
2A
100
AcDbVisualStyle
  2
Basic
 70
     7
 71
     1
 72
     0
 73
     1
 90
        0
 40
-0.6
 41
-30.0
 62
     5
 63
     7
 74
     0
 91
        4
 64
     7
 65
   257
 75
     1
175
     1
 42
1.0
 92
        8
 66
     7
 43
1.0
 76
     1
 77
     6
 78
     2
 67
     7
 79
     5
170
     0
171
     0
290
     0
174
     0
 93
        1
 44
0.0
173
     0
291
     1
 45
0.0
1001
ACAD
1000
AcDbSavedByObjectVersion
1070
     0
  0
VISUALSTYLE
  5
36
102
{ACAD_REACTORS
330
2A
102
}
102
{ACAD_XDICTIONARY
360
233
102
}
330
2A
100
AcDbVisualStyle
  2
Brighten
 70
    12
 71
     2
 72
     2
 73
     0
 90
        0
 40
-0.6
 41
-30.0
 62
     5
 63
     7
 74
     1
 91
        4
 64
     7
 65
   257
 75
     1
175
     1
 42
1.0
 92
        8
 66
     7
 43
1.0
 76
     1
 77
     6
 78
     2
 67
     7
 79
     5
170
     0
171
     0
290
     0
174
     0
 93
        1
 44
50.0
173
     0
291
     1
 45
0.0
1001
ACAD
1000
AcDbSavedByObjectVersion
1070
     0
  0
VISUALSTYLE
  5
3A
102
{ACAD_REACTORS
330
2A
102
}
102
{ACAD_XDICTIONARY
360
23B
102
}
330
2A
100
AcDbVisualStyle
  2
ColorChange
 70
    16
 71
     2
 72
     2
 73
     3
 90
        0
 40
-0.6
 41
-30.0
 62
     5
 63
     8
 74
     1
 91
        4
 64
     7
 65
   257
 75
     1
175
     1
 42
1.0
 92
        8
 66
     8
 43
1.0
 76
     1
 77
     6
 78
     2
 67
     7
 79
     5
170
     0
171
     0
290
     0
174
     0
 93
        1
 44
0.0
173
     0
291
     1
 45
0.0
1001
ACAD
1000
AcDbSavedByObjectVersion
1070
     0
  0
VISUALSTYLE
  5
34
102
{ACAD_REACTORS
330
2A
102
}
102
{ACAD_XDICTIONARY
360
22F
102
}
330
2A
100
AcDbVisualStyle
  2
Conceptual
 70
     9
 71
     3
 72
     2
 73
     0
 90
        0
 40
-0.6
 41
-30.0
 62
     5
 63
     7
 74
     2
 91
        2
 64
     7
 65
   257
 75
     1
175
     1
 42
40.0
 92
        8
 66
     7
 43
1.0
 76
     1
 77
     6
 78
     2
 67
     7
 79
     3
170
     0
171
     0
290
     0
174
     0
 93
        1
 44
0.0
173
     0
291
     0
 45
0.0
1001
ACAD
1000
AcDbSavedByObjectVersion
1070
     0
  0
VISUALSTYLE
  5
35
102
{ACAD_REACTORS
330
2A
102
}
102
{ACAD_XDICTIONARY
360
231
102
}
330
2A
100
AcDbVisualStyle
  2
Dim
 70
    11
 71
     2
 72
     2
 73
     0
 90
        0
 40
-0.6
 41
-30.0
 62
     5
 63
     7
 74
     1
 91
        4
 64
     7
 65
   257
 75
     1
175
     1
 42
1.0
 92
        8
 66
     7
 43
1.0
 76
     1
 77
     6
 78
     2
 67
     7
 79
     5
170
     0
171
     0
290
     0
174
     0
 93
        1
 44
-50.0
173
     0
291
     1
 45
0.0
1001
ACAD
1000
AcDbSavedByObjectVersion
1070
     0
  0
VISUALSTYLE
  5
39
102
{ACAD_REACTORS
330
2A
102
}
102
{ACAD_XDICTIONARY
360
239
102
}
330
2A
100
AcDbVisualStyle
  2
Facepattern
 70
    15
 71
     2
 72
     2
 73
     0
 90
        0
 40
-0.6
 41
-30.0
 62
     5
 63
     7
 74
     1
 91
        4
 64
     7
 65
   257
 75
     1
175
     1
 42
1.0
 92
        8
 66
     7
 43
1.0
 76
     1
 77
     6
 78
     2
 67
     7
 79
     5
170
     0
171
     0
290
     0
174
     0
 93
        1
 44
0.0
173
     0
291
     1
 45
0.0
1001
ACAD
1000
AcDbSavedByObjectVersion
1070
     0
  0
VISUALSTYLE
  5
2B
102
{ACAD_REACTORS
330
2A
102
}
102
{ACAD_XDICTIONARY
360
21D
102
}
330
2A
100
AcDbVisualStyle
  2
Flat
 70
     0
 71
     2
 72
     1
 73
     1
 90
        2
 40
-0.6
 41
30.0
 62
     5
 63
     7
 74
     0
 91
        4
 64
     7
 65
   257
 75
     1
175
     1
 42
1.0
 92
        8
 66
     7
 43
1.0
 76
     1
 77
     6
 78
     2
 67
     7
 79
     5
170
     0
171
     0
290
     0
174
     0
 93
       13
 44
0.0
173
     0
291
     1
 45
0.0
1001
ACAD
1000
AcDbSavedByObjectVersion
1070
     0
  0
VISUALSTYLE
  5
2C
102
{ACAD_REACTORS
330
2A
102
}
102
{ACAD_XDICTIONARY
360
21F
102
}
330
2A
100
AcDbVisualStyle
  2
FlatWithEdges
 70
     1
 71
     2
 72
     1
 73
     1
 90
        2
 40
-0.6
 41
30.0
 62
     5
 63
     7
 74
     1
 91
        4
 64
     7
 65
   257
 75
     1
175
     1
 42
1.0
 92
        0
 66
   257
 43
1.0
 76
     1
 77
     6
 78
     2
 67
     7
 79
     5
170
     0
171
     0
290
     0
174
     0
 93
       13
 44
0.0
173
     0
291
     1
 45
0.0
1001
ACAD
1000
AcDbSavedByObjectVersion
1070
     0
  0
VISUALSTYLE
  5
2D
102
{ACAD_REACTORS
330
2A
102
}
102
{ACAD_XDICTIONARY
360
221
102
}
330
2A
100
AcDbVisualStyle
  2
Gouraud
 70
     2
 71
     2
 72
     2
 73
     1
 90
        2
 40
-0.6
 41
30.0
 62
     5
 63
     7
 74
     0
 91
        4
 64
     7
 65
   257
 75
     1
175
     1
 42
1.0
 92
        0
 66
     7
 43
1.0
 76
     1
 77
     6
 78
     2
 67
     7
 79
     5
170
     0
171
     0
290
     0
174
     0
 93
       13
 44
0.0
173
     0
291
     1
 45
0.0
1001
ACAD
1000
AcDbSavedByObjectVersion
1070
     0
  0
VISUALSTYLE
  5
2E
102
{ACAD_REACTORS
330
2A
102
}
102
{ACAD_XDICTIONARY
360
223
102
}
330
2A
100
AcDbVisualStyle
  2
GouraudWithEdges
 70
     3
 71
     2
 72
     2
 73
     1
 90
        2
 40
-0.6
 41
30.0
 62
     5
 63
     7
 74
     1
 91
        4
 64
     7
 65
   257
 75
     1
175
     1
 42
1.0
 92
        0
 66
   257
 43
1.0
 76
     1
 77
     6
 78
     2
 67
     7
 79
     5
170
     0
171
     0
290
     0
174
     0
 93
       13
 44
0.0
173
     0
291
     1
 45
0.0
1001
ACAD
1000
AcDbSavedByObjectVersion
1070
     0
  0
VISUALSTYLE
  5
38
102
{ACAD_REACTORS
330
2A
102
}
102
{ACAD_XDICTIONARY
360
237
102
}
330
2A
100
AcDbVisualStyle
  2
Linepattern
 70
    14
 71
     2
 72
     2
 73
     0
 90
        0
 40
-0.6
 41
-30.0
 62
     5
 63
     7
 74
     1
 91
        4
 64
     7
 65
   257
 75
     7
175
     7
 42
1.0
 92
        8
 66
     7
 43
1.0
 76
     1
 77
     6
 78
     2
 67
     7
 79
     5
170
     0
171
     0
290
     0
174
     0
 93
        1
 44
0.0
173
     0
291
     1
 45
0.0
1001
ACAD
1000
AcDbSavedByObjectVersion
1070
     0
  0
VISUALSTYLE
  5
33
102
{ACAD_REACTORS
330
2A
102
}
102
{ACAD_XDICTIONARY
360
22D
102
}
330
2A
100
AcDbVisualStyle
  2
Realistic
 70
     8
 71
     2
 72
     2
 73
     0
 90
        0
 40
-0.6
 41
-30.0
 62
     5
 63
     7
 74
     1
 91
        0
 64
     7
 65
   257
 75
     1
175
     1
 42
1.0
 92
        8
 66
     8
 43
1.0
 76
     1
 77
     6
 78
     2
 67
     7
 79
     5
170
     0
171
     0
290
     0
174
     0
 93
       13
 44
0.0
173
     0
291
     0
 45
0.0
1001
ACAD
1000
AcDbSavedByObjectVersion
1070
     0
  0
VISUALSTYLE
  5
37
102
{ACAD_REACTORS
330
2A
102
}
102
{ACAD_XDICTIONARY
360
235
102
}
330
2A
100
AcDbVisualStyle
  2
Thicken
 70
    13
 71
     2
 72
     2
 73
     0
 90
        0
 40
-0.6
 41
-30.0
 62
     5
 63
     7
 74
     1
 91
        4
 64
     7
 65
   257
 75
     1
175
     1
 42
1.0
 92
       12
 66
     7
 43
1.0
 76
     1
 77
     6
 78
     2
 67
     7
 79
     5
170
     0
171
     0
290
     0
174
     0
 93
        1
 44
0.0
173
     0
291
     1
 45
0.0
1001
ACAD
1000
AcDbSavedByObjectVersion
1070
     0
  0
DICTIONARYVAR
  5
21B
102
{ACAD_REACTORS
330
218
102
}
330
218
100
DictionaryVariables
280
     0
  1
2
  0
DICTIONARYVAR
  5
21C
102
{ACAD_REACTORS
330
218
102
}
330
218
100
DictionaryVariables
280
     0
  1
1
  0
DICTIONARY
  5
23F
330
3D
100
AcDbDictionary
280
     1
281
     1
  3
ACAD_XREC_ROUNDTRIP
360
240
  0
DICTIONARY
  5
23D
330
3C
100
AcDbDictionary
280
     1
281
     1
  3
ACAD_XREC_ROUNDTRIP
360
23E
  0
DICTIONARY
  5
241
330
3E
100
AcDbDictionary
280
     1
281
     1
  3
ACAD_XREC_ROUNDTRIP
360
242
  0
DICTIONARY
  5
225
330
2F
100
AcDbDictionary
280
     1
281
     1
  3
ACAD_XREC_ROUNDTRIP
360
226
  0
DICTIONARY
  5
229
330
31
100
AcDbDictionary
280
     1
281
     1
  3
ACAD_XREC_ROUNDTRIP
360
22A
  0
DICTIONARY
  5
227
330
30
100
AcDbDictionary
280
     1
281
     1
  3
ACAD_XREC_ROUNDTRIP
360
228
  0
DICTIONARY
  5
22B
330
32
100
AcDbDictionary
280
     1
281
     1
  3
ACAD_XREC_ROUNDTRIP
360
22C
  0
DICTIONARY
  5
233
330
36
100
AcDbDictionary
280
     1
281
     1
  3
ACAD_XREC_ROUNDTRIP
360
234
  0
DICTIONARY
  5
23B
330
3A
100
AcDbDictionary
280
     1
281
     1
  3
ACAD_XREC_ROUNDTRIP
360
23C
  0
DICTIONARY
  5
22F
330
34
100
AcDbDictionary
280
     1
281
     1
  3
ACAD_XREC_ROUNDTRIP
360
230
  0
DICTIONARY
  5
231
330
35
100
AcDbDictionary
280
     1
281
     1
  3
ACAD_XREC_ROUNDTRIP
360
232
  0
DICTIONARY
  5
239
330
39
100
AcDbDictionary
280
     1
281
     1
  3
ACAD_XREC_ROUNDTRIP
360
23A
  0
DICTIONARY
  5
21D
330
2B
100
AcDbDictionary
280
     1
281
     1
  3
ACAD_XREC_ROUNDTRIP
360
21E
  0
DICTIONARY
  5
21F
330
2C
100
AcDbDictionary
280
     1
281
     1
  3
ACAD_XREC_ROUNDTRIP
360
220
  0
DICTIONARY
  5
221
330
2D
100
AcDbDictionary
280
     1
281
     1
  3
ACAD_XREC_ROUNDTRIP
360
222
  0
DICTIONARY
  5
223
330
2E
100
AcDbDictionary
280
     1
281
     1
  3
ACAD_XREC_ROUNDTRIP
360
224
  0
DICTIONARY
  5
237
330
38
100
AcDbDictionary
280
     1
281
     1
  3
ACAD_XREC_ROUNDTRIP
360
238
  0
DICTIONARY
  5
22D
330
33
100
AcDbDictionary
280
     1
281
     1
  3
ACAD_XREC_ROUNDTRIP
360
22E
  0
DICTIONARY
  5
235
330
37
100
AcDbDictionary
280
     1
281
     1
  3
ACAD_XREC_ROUNDTRIP
360
236
  0
XRECORD
  5
240
102
{ACAD_REACTORS
330
23F
102
}
330
23F
100
AcDbXrecord
280
     1
102
MATERIAL
148
0.0
149
0.0
149
0.0
 93
        0
 94
      127
282
     0
 72
     1
 77
     1
171
     1
175
     1
179
     1
273
     0
  0
XRECORD
  5
23E
102
{ACAD_REACTORS
330
23D
102
}
330
23D
100
AcDbXrecord
280
     1
102
MATERIAL
148
0.0
149
0.0
149
0.0
 93
        0
 94
      127
282
     0
 72
     1
 77
     1
171
     1
175
     1
179
     1
273
     0
  0
XRECORD
  5
242
102
{ACAD_REACTORS
330
241
102
}
330
241
100
AcDbXrecord
280
     1
102
MATERIAL
148
0.0
149
0.0
149
0.0
 93
        0
 94
      127
282
     0
 72
     1
 77
     1
171
     1
175
     1
179
     1
273
     0
  0
XRECORD
  5
226
102
{ACAD_REACTORS
330
225
102
}
330
225
100
AcDbXrecord
280
     1
102
RTVSPropertyOp0
 70
     1
102
RTVSPropertyOp1
 70
     1
102
RTVSPropertyOp2
 70
     1
102
RTVSPropertyOp3
 70
     1
102
RTVSPropertyOp4
 70
     1
102
RTVSPropertyOp5
 70
     1
102
RTVSPropertyOp6
 70
     1
102
RTVSPropertyOp7
 70
     1
102
RTVSPropertyOp8
 70
     1
102
RTVSPropertyOp9
 70
     1
102
RTVSPropertyOp10
 70
     1
102
RTVSPropertyOp11
 70
     1
102
RTVSPropertyOp12
 70
     1
102
RTVSPropertyOp13
 70
     1
102
RTVSPropertyOp14
 70
     1
102
RTVSPropertyOp15
 70
     1
102
RTVSPropertyOp16
 70
     1
102
RTVSPropertyOp17
 70
     1
102
RTVSPropertyOp18
 70
     1
102
RTVSPropertyOp19
 70
     1
102
RTVSPropertyOp20
 70
     1
102
RTVSPropertyOp21
 70
     1
102
RTVSPropertyOp22
 70
     1
102
RTVSPropertyOp23
 70
     1
102
RTVSPropertyOp24
 70
     1
102
RTVSPropertyOp25
 70
     1
102
RTVSPropertyOp26
 70
     1
102
RTVSPropertyOp27
 70
     1
102
RTVSPropertyOp28
 70
     1
102
RTVSPropertyOp29
 70
     1
102
RTVSPropertyOp30
 70
     1
102
RTVSPropertyOp31
 70
     1
102
RTVSPropertyOp32
 70
     1
  0
XRECORD
  5
22A
102
{ACAD_REACTORS
330
229
102
}
330
229
100
AcDbXrecord
280
     1
102
RTVSPropertyOp0
 70
     1
102
RTVSPropertyOp1
 70
     1
102
RTVSPropertyOp2
 70
     1
102
RTVSPropertyOp3
 70
     1
102
RTVSPropertyOp4
 70
     1
102
RTVSPropertyOp5
 70
     1
102
RTVSPropertyOp6
 70
     1
102
RTVSPropertyOp7
 70
     1
102
RTVSPropertyOp8
 70
     1
102
RTVSPropertyOp9
 70
     1
102
RTVSPropertyOp10
 70
     1
102
RTVSPropertyOp11
 70
     1
102
RTVSPropertyOp12
 70
     1
102
RTVSPropertyOp13
 70
     1
102
RTVSPropertyOp14
 70
     1
102
RTVSPropertyOp15
 70
     1
102
RTVSPropertyOp16
 70
     1
102
RTVSPropertyOp17
 70
     1
102
RTVSPropertyOp18
 70
     1
102
RTVSPropertyOp19
 70
     1
102
RTVSPropertyOp20
 70
     1
102
RTVSPropertyOp21
 70
     1
102
RTVSPropertyOp22
 70
     1
102
RTVSPropertyOp23
 70
     1
102
RTVSPropertyOp24
 70
     1
102
RTVSPropertyOp25
 70
     1
102
RTVSPropertyOp26
 70
     1
102
RTVSPropertyOp27
 70
     1
102
RTVSPropertyOp28
 70
     1
102
RTVSPropertyOp29
 70
     1
102
RTVSPropertyOp30
 70
     1
102
RTVSPropertyOp31
 70
     1
102
RTVSPropertyOp32
 70
     1
  0
XRECORD
  5
228
102
{ACAD_REACTORS
330
227
102
}
330
227
100
AcDbXrecord
280
     1
102
RTVSPropertyOp0
 70
     1
102
RTVSPropertyOp1
 70
     1
102
RTVSPropertyOp2
 70
     1
102
RTVSPropertyOp3
 70
     1
102
RTVSPropertyOp4
 70
     1
102
RTVSPropertyOp5
 70
     1
102
RTVSPropertyOp6
 70
     1
102
RTVSPropertyOp7
 70
     1
102
RTVSPropertyOp8
 70
     1
102
RTVSPropertyOp9
 70
     1
102
RTVSPropertyOp10
 70
     1
102
RTVSPropertyOp11
 70
     1
102
RTVSPropertyOp12
 70
     1
102
RTVSPropertyOp13
 70
     1
102
RTVSPropertyOp14
 70
     1
102
RTVSPropertyOp15
 70
     1
102
RTVSPropertyOp16
 70
     1
102
RTVSPropertyOp17
 70
     1
102
RTVSPropertyOp18
 70
     1
102
RTVSPropertyOp19
 70
     1
102
RTVSPropertyOp20
 70
     1
102
RTVSPropertyOp21
 70
     1
102
RTVSPropertyOp22
 70
     1
102
RTVSPropertyOp23
 70
     1
102
RTVSPropertyOp24
 70
     1
102
RTVSPropertyOp25
 70
     1
102
RTVSPropertyOp26
 70
     1
102
RTVSPropertyOp27
 70
     1
102
RTVSPropertyOp28
 70
     1
102
RTVSPropertyOp29
 70
     1
102
RTVSPropertyOp30
 70
     1
102
RTVSPropertyOp31
 70
     1
102
RTVSPropertyOp32
 70
     1
  0
XRECORD
  5
22C
102
{ACAD_REACTORS
330
22B
102
}
330
22B
100
AcDbXrecord
280
     1
102
RTVSPropertyOp0
 70
     1
102
RTVSPropertyOp1
 70
     1
102
RTVSPropertyOp2
 70
     1
102
RTVSPropertyOp3
 70
     1
102
RTVSPropertyOp4
 70
     1
102
RTVSPropertyOp5
 70
     1
102
RTVSPropertyOp6
 70
     1
102
RTVSPropertyOp7
 70
     1
102
RTVSPropertyOp8
 70
     1
102
RTVSPropertyOp9
 70
     1
102
RTVSPropertyOp10
 70
     1
102
RTVSPropertyOp11
 70
     1
102
RTVSPropertyOp12
 70
     1
102
RTVSPropertyOp13
 70
     1
102
RTVSPropertyOp14
 70
     1
102
RTVSPropertyOp15
 70
     1
102
RTVSPropertyOp16
 70
     1
102
RTVSPropertyOp17
 70
     1
102
RTVSPropertyOp18
 70
     1
102
RTVSPropertyOp19
 70
     1
102
RTVSPropertyOp20
 70
     1
102
RTVSPropertyOp21
 70
     1
102
RTVSPropertyOp22
 70
     1
102
RTVSPropertyOp23
 70
     1
102
RTVSPropertyOp24
 70
     1
102
RTVSPropertyOp25
 70
     1
102
RTVSPropertyOp26
 70
     1
102
RTVSPropertyOp27
 70
     1
102
RTVSPropertyOp28
 70
     1
102
RTVSPropertyOp29
 70
     1
102
RTVSPropertyOp30
 70
     1
102
RTVSPropertyOp31
 70
     1
102
RTVSPropertyOp32
 70
     1
  0
XRECORD
  5
234
102
{ACAD_REACTORS
330
233
102
}
330
233
100
AcDbXrecord
280
     1
102
RTVSPropertyOp0
 70
     1
102
RTVSPropertyOp1
 70
     1
102
RTVSPropertyOp2
 70
     1
102
RTVSPropertyOp3
 70
     1
102
RTVSPropertyOp4
 70
     1
102
RTVSPropertyOp5
 70
     1
102
RTVSPropertyOp6
 70
     1
102
RTVSPropertyOp7
 70
     1
102
RTVSPropertyOp8
 70
     1
102
RTVSPropertyOp9
 70
     1
102
RTVSPropertyOp10
 70
     1
102
RTVSPropertyOp11
 70
     1
102
RTVSPropertyOp12
 70
     1
102
RTVSPropertyOp13
 70
     1
102
RTVSPropertyOp14
 70
     1
102
RTVSPropertyOp15
 70
     1
102
RTVSPropertyOp16
 70
     1
102
RTVSPropertyOp17
 70
     1
102
RTVSPropertyOp18
 70
     1
102
RTVSPropertyOp19
 70
     1
102
RTVSPropertyOp20
 70
     1
102
RTVSPropertyOp21
 70
     1
102
RTVSPropertyOp22
 70
     1
102
RTVSPropertyOp23
 70
     1
102
RTVSPropertyOp24
 70
     1
102
RTVSPropertyOp25
 70
     1
102
RTVSPropertyOp26
 70
     1
102
RTVSPropertyOp27
 70
     1
102
RTVSPropertyOp28
 70
     1
102
RTVSPropertyOp29
 70
     1
102
RTVSPropertyOp30
 70
     1
102
RTVSPropertyOp31
 70
     1
102
RTVSPropertyOp32
 70
     1
  0
XRECORD
  5
23C
102
{ACAD_REACTORS
330
23B
102
}
330
23B
100
AcDbXrecord
280
     1
102
RTVSPropertyOp0
 70
     1
102
RTVSPropertyOp1
 70
     1
102
RTVSPropertyOp2
 70
     1
102
RTVSPropertyOp3
 70
     1
102
RTVSPropertyOp4
 70
     1
102
RTVSPropertyOp5
 70
     1
102
RTVSPropertyOp6
 70
     1
102
RTVSPropertyOp7
 70
     1
102
RTVSPropertyOp8
 70
     1
102
RTVSPropertyOp9
 70
     1
102
RTVSPropertyOp10
 70
     1
102
RTVSPropertyOp11
 70
     1
102
RTVSPropertyOp12
 70
     1
102
RTVSPropertyOp13
 70
     1
102
RTVSPropertyOp14
 70
     1
102
RTVSPropertyOp15
 70
     1
102
RTVSPropertyOp16
 70
     1
102
RTVSPropertyOp17
 70
     1
102
RTVSPropertyOp18
 70
     1
102
RTVSPropertyOp19
 70
     1
102
RTVSPropertyOp20
 70
     1
102
RTVSPropertyOp21
 70
     1
102
RTVSPropertyOp22
 70
     1
102
RTVSPropertyOp23
 70
     1
102
RTVSPropertyOp24
 70
     1
102
RTVSPropertyOp25
 70
     1
102
RTVSPropertyOp26
 70
     1
102
RTVSPropertyOp27
 70
     1
102
RTVSPropertyOp28
 70
     1
102
RTVSPropertyOp29
 70
     1
102
RTVSPropertyOp30
 70
     1
102
RTVSPropertyOp31
 70
     1
102
RTVSPropertyOp32
 70
     1
  0
XRECORD
  5
230
102
{ACAD_REACTORS
330
22F
102
}
330
22F
100
AcDbXrecord
280
     1
102
RTVSPropertyOp0
 70
     1
102
RTVSPropertyOp1
 70
     1
102
RTVSPropertyOp2
 70
     1
102
RTVSPropertyOp3
 70
     1
102
RTVSPropertyOp4
 70
     1
102
RTVSPropertyOp5
 70
     1
102
RTVSPropertyOp6
 70
     1
102
RTVSPropertyOp7
 70
     1
102
RTVSPropertyOp8
 70
     1
102
RTVSPropertyOp9
 70
     1
102
RTVSPropertyOp10
 70
     1
102
RTVSPropertyOp11
 70
     1
102
RTVSPropertyOp12
 70
     1
102
RTVSPropertyOp13
 70
     1
102
RTVSPropertyOp14
 70
     1
102
RTVSPropertyOp15
 70
     1
102
RTVSPropertyOp16
 70
     1
102
RTVSPropertyOp17
 70
     1
102
RTVSPropertyOp18
 70
     1
102
RTVSPropertyOp19
 70
     1
102
RTVSPropertyOp20
 70
     1
102
RTVSPropertyOp21
 70
     1
102
RTVSPropertyOp22
 70
     1
102
RTVSPropertyOp23
 70
     1
102
RTVSPropertyOp24
 70
     1
102
RTVSPropertyOp25
 70
     1
102
RTVSPropertyOp26
 70
     1
102
RTVSPropertyOp27
 70
     1
102
RTVSPropertyOp28
 70
     1
102
RTVSPropertyOp29
 70
     1
102
RTVSPropertyOp30
 70
     1
102
RTVSPropertyOp31
 70
     1
102
RTVSPropertyOp32
 70
     1
  0
XRECORD
  5
232
102
{ACAD_REACTORS
330
231
102
}
330
231
100
AcDbXrecord
280
     1
102
RTVSPropertyOp0
 70
     1
102
RTVSPropertyOp1
 70
     1
102
RTVSPropertyOp2
 70
     1
102
RTVSPropertyOp3
 70
     1
102
RTVSPropertyOp4
 70
     1
102
RTVSPropertyOp5
 70
     1
102
RTVSPropertyOp6
 70
     1
102
RTVSPropertyOp7
 70
     1
102
RTVSPropertyOp8
 70
     1
102
RTVSPropertyOp9
 70
     1
102
RTVSPropertyOp10
 70
     1
102
RTVSPropertyOp11
 70
     1
102
RTVSPropertyOp12
 70
     1
102
RTVSPropertyOp13
 70
     1
102
RTVSPropertyOp14
 70
     1
102
RTVSPropertyOp15
 70
     1
102
RTVSPropertyOp16
 70
     1
102
RTVSPropertyOp17
 70
     1
102
RTVSPropertyOp18
 70
     1
102
RTVSPropertyOp19
 70
     1
102
RTVSPropertyOp20
 70
     1
102
RTVSPropertyOp21
 70
     1
102
RTVSPropertyOp22
 70
     1
102
RTVSPropertyOp23
 70
     1
102
RTVSPropertyOp24
 70
     1
102
RTVSPropertyOp25
 70
     1
102
RTVSPropertyOp26
 70
     1
102
RTVSPropertyOp27
 70
     1
102
RTVSPropertyOp28
 70
     1
102
RTVSPropertyOp29
 70
     1
102
RTVSPropertyOp30
 70
     1
102
RTVSPropertyOp31
 70
     1
102
RTVSPropertyOp32
 70
     1
  0
XRECORD
  5
23A
102
{ACAD_REACTORS
330
239
102
}
330
239
100
AcDbXrecord
280
     1
102
RTVSPropertyOp0
 70
     1
102
RTVSPropertyOp1
 70
     1
102
RTVSPropertyOp2
 70
     1
102
RTVSPropertyOp3
 70
     1
102
RTVSPropertyOp4
 70
     1
102
RTVSPropertyOp5
 70
     1
102
RTVSPropertyOp6
 70
     1
102
RTVSPropertyOp7
 70
     1
102
RTVSPropertyOp8
 70
     1
102
RTVSPropertyOp9
 70
     1
102
RTVSPropertyOp10
 70
     1
102
RTVSPropertyOp11
 70
     1
102
RTVSPropertyOp12
 70
     1
102
RTVSPropertyOp13
 70
     1
102
RTVSPropertyOp14
 70
     1
102
RTVSPropertyOp15
 70
     1
102
RTVSPropertyOp16
 70
     1
102
RTVSPropertyOp17
 70
     1
102
RTVSPropertyOp18
 70
     1
102
RTVSPropertyOp19
 70
     1
102
RTVSPropertyOp20
 70
     1
102
RTVSPropertyOp21
 70
     1
102
RTVSPropertyOp22
 70
     1
102
RTVSPropertyOp23
 70
     1
102
RTVSPropertyOp24
 70
     1
102
RTVSPropertyOp25
 70
     1
102
RTVSPropertyOp26
 70
     1
102
RTVSPropertyOp27
 70
     1
102
RTVSPropertyOp28
 70
     1
102
RTVSPropertyOp29
 70
     1
102
RTVSPropertyOp30
 70
     1
102
RTVSPropertyOp31
 70
     1
102
RTVSPropertyOp32
 70
     1
  0
XRECORD
  5
21E
102
{ACAD_REACTORS
330
21D
102
}
330
21D
100
AcDbXrecord
280
     1
102
RTVSPropertyOp0
 70
     1
102
RTVSPropertyOp1
 70
     1
102
RTVSPropertyOp2
 70
     1
102
RTVSPropertyOp3
 70
     1
102
RTVSPropertyOp4
 70
     1
102
RTVSPropertyOp5
 70
     1
102
RTVSPropertyOp6
 70
     1
102
RTVSPropertyOp7
 70
     1
102
RTVSPropertyOp8
 70
     1
102
RTVSPropertyOp9
 70
     1
102
RTVSPropertyOp10
 70
     1
102
RTVSPropertyOp11
 70
     1
102
RTVSPropertyOp12
 70
     1
102
RTVSPropertyOp13
 70
     1
102
RTVSPropertyOp14
 70
     1
102
RTVSPropertyOp15
 70
     1
102
RTVSPropertyOp16
 70
     1
102
RTVSPropertyOp17
 70
     1
102
RTVSPropertyOp18
 70
     1
102
RTVSPropertyOp19
 70
     1
102
RTVSPropertyOp20
 70
     1
102
RTVSPropertyOp21
 70
     1
102
RTVSPropertyOp22
 70
     1
102
RTVSPropertyOp23
 70
     1
102
RTVSPropertyOp24
 70
     1
102
RTVSPropertyOp25
 70
     1
102
RTVSPropertyOp26
 70
     1
102
RTVSPropertyOp27
 70
     1
102
RTVSPropertyOp28
 70
     1
102
RTVSPropertyOp29
 70
     1
102
RTVSPropertyOp30
 70
     1
102
RTVSPropertyOp31
 70
     1
102
RTVSPropertyOp32
 70
     1
  0
XRECORD
  5
220
102
{ACAD_REACTORS
330
21F
102
}
330
21F
100
AcDbXrecord
280
     1
102
RTVSPropertyOp0
 70
     1
102
RTVSPropertyOp1
 70
     1
102
RTVSPropertyOp2
 70
     1
102
RTVSPropertyOp3
 70
     1
102
RTVSPropertyOp4
 70
     1
102
RTVSPropertyOp5
 70
     1
102
RTVSPropertyOp6
 70
     1
102
RTVSPropertyOp7
 70
     1
102
RTVSPropertyOp8
 70
     1
102
RTVSPropertyOp9
 70
     1
102
RTVSPropertyOp10
 70
     1
102
RTVSPropertyOp11
 70
     1
102
RTVSPropertyOp12
 70
     1
102
RTVSPropertyOp13
 70
     1
102
RTVSPropertyOp14
 70
     1
102
RTVSPropertyOp15
 70
     1
102
RTVSPropertyOp16
 70
     1
102
RTVSPropertyOp17
 70
     1
102
RTVSPropertyOp18
 70
     1
102
RTVSPropertyOp19
 70
     1
102
RTVSPropertyOp20
 70
     1
102
RTVSPropertyOp21
 70
     1
102
RTVSPropertyOp22
 70
     1
102
RTVSPropertyOp23
 70
     1
102
RTVSPropertyOp24
 70
     1
102
RTVSPropertyOp25
 70
     1
102
RTVSPropertyOp26
 70
     1
102
RTVSPropertyOp27
 70
     1
102
RTVSPropertyOp28
 70
     1
102
RTVSPropertyOp29
 70
     1
102
RTVSPropertyOp30
 70
     1
102
RTVSPropertyOp31
 70
     1
102
RTVSPropertyOp32
 70
     1
  0
XRECORD
  5
222
102
{ACAD_REACTORS
330
221
102
}
330
221
100
AcDbXrecord
280
     1
102
RTVSPropertyOp0
 70
     1
102
RTVSPropertyOp1
 70
     1
102
RTVSPropertyOp2
 70
     1
102
RTVSPropertyOp3
 70
     1
102
RTVSPropertyOp4
 70
     1
102
RTVSPropertyOp5
 70
     1
102
RTVSPropertyOp6
 70
     1
102
RTVSPropertyOp7
 70
     1
102
RTVSPropertyOp8
 70
     1
102
RTVSPropertyOp9
 70
     1
102
RTVSPropertyOp10
 70
     1
102
RTVSPropertyOp11
 70
     1
102
RTVSPropertyOp12
 70
     1
102
RTVSPropertyOp13
 70
     1
102
RTVSPropertyOp14
 70
     1
102
RTVSPropertyOp15
 70
     1
102
RTVSPropertyOp16
 70
     1
102
RTVSPropertyOp17
 70
     1
102
RTVSPropertyOp18
 70
     1
102
RTVSPropertyOp19
 70
     1
102
RTVSPropertyOp20
 70
     1
102
RTVSPropertyOp21
 70
     1
102
RTVSPropertyOp22
 70
     1
102
RTVSPropertyOp23
 70
     1
102
RTVSPropertyOp24
 70
     1
102
RTVSPropertyOp25
 70
     1
102
RTVSPropertyOp26
 70
     1
102
RTVSPropertyOp27
 70
     1
102
RTVSPropertyOp28
 70
     1
102
RTVSPropertyOp29
 70
     1
102
RTVSPropertyOp30
 70
     1
102
RTVSPropertyOp31
 70
     1
102
RTVSPropertyOp32
 70
     1
  0
XRECORD
  5
224
102
{ACAD_REACTORS
330
223
102
}
330
223
100
AcDbXrecord
280
     1
102
RTVSPropertyOp0
 70
     1
102
RTVSPropertyOp1
 70
     1
102
RTVSPropertyOp2
 70
     1
102
RTVSPropertyOp3
 70
     1
102
RTVSPropertyOp4
 70
     1
102
RTVSPropertyOp5
 70
     1
102
RTVSPropertyOp6
 70
     1
102
RTVSPropertyOp7
 70
     1
102
RTVSPropertyOp8
 70
     1
102
RTVSPropertyOp9
 70
     1
102
RTVSPropertyOp10
 70
     1
102
RTVSPropertyOp11
 70
     1
102
RTVSPropertyOp12
 70
     1
102
RTVSPropertyOp13
 70
     1
102
RTVSPropertyOp14
 70
     1
102
RTVSPropertyOp15
 70
     1
102
RTVSPropertyOp16
 70
     1
102
RTVSPropertyOp17
 70
     1
102
RTVSPropertyOp18
 70
     1
102
RTVSPropertyOp19
 70
     1
102
RTVSPropertyOp20
 70
     1
102
RTVSPropertyOp21
 70
     1
102
RTVSPropertyOp22
 70
     1
102
RTVSPropertyOp23
 70
     1
102
RTVSPropertyOp24
 70
     1
102
RTVSPropertyOp25
 70
     1
102
RTVSPropertyOp26
 70
     1
102
RTVSPropertyOp27
 70
     1
102
RTVSPropertyOp28
 70
     1
102
RTVSPropertyOp29
 70
     1
102
RTVSPropertyOp30
 70
     1
102
RTVSPropertyOp31
 70
     1
102
RTVSPropertyOp32
 70
     1
  0
XRECORD
  5
238
102
{ACAD_REACTORS
330
237
102
}
330
237
100
AcDbXrecord
280
     1
102
RTVSPropertyOp0
 70
     1
102
RTVSPropertyOp1
 70
     1
102
RTVSPropertyOp2
 70
     1
102
RTVSPropertyOp3
 70
     1
102
RTVSPropertyOp4
 70
     1
102
RTVSPropertyOp5
 70
     1
102
RTVSPropertyOp6
 70
     1
102
RTVSPropertyOp7
 70
     1
102
RTVSPropertyOp8
 70
     1
102
RTVSPropertyOp9
 70
     1
102
RTVSPropertyOp10
 70
     1
102
RTVSPropertyOp11
 70
     1
102
RTVSPropertyOp12
 70
     1
102
RTVSPropertyOp13
 70
     1
102
RTVSPropertyOp14
 70
     1
102
RTVSPropertyOp15
 70
     1
102
RTVSPropertyOp16
 70
     1
102
RTVSPropertyOp17
 70
     1
102
RTVSPropertyOp18
 70
     1
102
RTVSPropertyOp19
 70
     1
102
RTVSPropertyOp20
 70
     1
102
RTVSPropertyOp21
 70
     1
102
RTVSPropertyOp22
 70
     1
102
RTVSPropertyOp23
 70
     1
102
RTVSPropertyOp24
 70
     1
102
RTVSPropertyOp25
 70
     1
102
RTVSPropertyOp26
 70
     1
102
RTVSPropertyOp27
 70
     1
102
RTVSPropertyOp28
 70
     1
102
RTVSPropertyOp29
 70
     1
102
RTVSPropertyOp30
 70
     1
102
RTVSPropertyOp31
 70
     1
102
RTVSPropertyOp32
 70
     1
  0
XRECORD
  5
22E
102
{ACAD_REACTORS
330
22D
102
}
330
22D
100
AcDbXrecord
280
     1
102
RTVSPropertyOp0
 70
     1
102
RTVSPropertyOp1
 70
     1
102
RTVSPropertyOp2
 70
     1
102
RTVSPropertyOp3
 70
     1
102
RTVSPropertyOp4
 70
     1
102
RTVSPropertyOp5
 70
     1
102
RTVSPropertyOp6
 70
     1
102
RTVSPropertyOp7
 70
     1
102
RTVSPropertyOp8
 70
     1
102
RTVSPropertyOp9
 70
     1
102
RTVSPropertyOp10
 70
     1
102
RTVSPropertyOp11
 70
     1
102
RTVSPropertyOp12
 70
     1
102
RTVSPropertyOp13
 70
     1
102
RTVSPropertyOp14
 70
     1
102
RTVSPropertyOp15
 70
     1
102
RTVSPropertyOp16
 70
     1
102
RTVSPropertyOp17
 70
     1
102
RTVSPropertyOp18
 70
     1
102
RTVSPropertyOp19
 70
     1
102
RTVSPropertyOp20
 70
     1
102
RTVSPropertyOp21
 70
     1
102
RTVSPropertyOp22
 70
     1
102
RTVSPropertyOp23
 70
     1
102
RTVSPropertyOp24
 70
     1
102
RTVSPropertyOp25
 70
     1
102
RTVSPropertyOp26
 70
     1
102
RTVSPropertyOp27
 70
     1
102
RTVSPropertyOp28
 70
     1
102
RTVSPropertyOp29
 70
     1
102
RTVSPropertyOp30
 70
     1
102
RTVSPropertyOp31
 70
     1
102
RTVSPropertyOp32
 70
     1
  0
XRECORD
  5
236
102
{ACAD_REACTORS
330
235
102
}
330
235
100
AcDbXrecord
280
     1
102
RTVSPropertyOp0
 70
     1
102
RTVSPropertyOp1
 70
     1
102
RTVSPropertyOp2
 70
     1
102
RTVSPropertyOp3
 70
     1
102
RTVSPropertyOp4
 70
     1
102
RTVSPropertyOp5
 70
     1
102
RTVSPropertyOp6
 70
     1
102
RTVSPropertyOp7
 70
     1
102
RTVSPropertyOp8
 70
     1
102
RTVSPropertyOp9
 70
     1
102
RTVSPropertyOp10
 70
     1
102
RTVSPropertyOp11
 70
     1
102
RTVSPropertyOp12
 70
     1
102
RTVSPropertyOp13
 70
     1
102
RTVSPropertyOp14
 70
     1
102
RTVSPropertyOp15
 70
     1
102
RTVSPropertyOp16
 70
     1
102
RTVSPropertyOp17
 70
     1
102
RTVSPropertyOp18
 70
     1
102
RTVSPropertyOp19
 70
     1
102
RTVSPropertyOp20
 70
     1
102
RTVSPropertyOp21
 70
     1
102
RTVSPropertyOp22
 70
     1
102
RTVSPropertyOp23
 70
     1
102
RTVSPropertyOp24
 70
     1
102
RTVSPropertyOp25
 70
     1
102
RTVSPropertyOp26
 70
     1
102
RTVSPropertyOp27
 70
     1
102
RTVSPropertyOp28
 70
     1
102
RTVSPropertyOp29
 70
     1
102
RTVSPropertyOp30
 70
     1
102
RTVSPropertyOp31
 70
     1
102
RTVSPropertyOp32
 70
     1
  0
ENDSEC
  0
EOF
